  0
SECTION
  2
HEADER
  9
$ACADVER
  1
AC1014
  9
$ACADMAINTVER
 70
     9
  9
$DWGCODEPAGE
  3
ANSI_1252
  9
$INSBASE
 10
0.0
 20
0.0
 30
0.0
  9
$EXTMIN
 10
390.55202
 20
152.041051
 30
-0.222949
  9
$EXTMAX
 10
871.444712
 20
411.725036
 30
0.0
  9
$LIMMIN
 10
0.0
 20
0.0
  9
$LIMMAX
 10
1189.0
 20
841.0
  9
$ORTHOMODE
 70
     1
  9
$REGENMODE
 70
     1
  9
$FILLMODE
 70
     1
  9
$QTEXTMODE
 70
     0
  9
$MIRRTEXT
 70
     0
  9
$DRAGMODE
 70
     2
  9
$LTSCALE
 40
8.0
  9
$OSMODE
 70
     0
  9
$ATTMODE
 70
     1
  9
$TEXTSIZE
 40
2.0
  9
$TRACEWID
 40
10.0
  9
$TEXTSTYLE
  7
STANDARD
  9
$CLAYER
  8
M04
  9
$CELTYPE
  6
BYLAYER
  9
$CECOLOR
 62
   256
  9
$CELTSCALE
 40
1.0
  9
$DELOBJ
 70
     1
  9
$DISPSILH
 70
     0
  9
$DIMSCALE
 40
1.0
  9
$DIMASZ
 40
3.0
  9
$DIMEXO
 40
1.0
  9
$DIMDLI
 40
10.0
  9
$DIMRND
 40
0.01
  9
$DIMDLE
 40
1.25
  9
$DIMEXE
 40
2.5
  9
$DIMTP
 40
0.05
  9
$DIMTM
 40
0.0
  9
$DIMTXT
 40
3.0
  9
$DIMCEN
 40
-1.7
  9
$DIMTSZ
 40
0.0
  9
$DIMTOL
 70
     0
  9
$DIMLIM
 70
     0
  9
$DIMTIH
 70
     0
  9
$DIMTOH
 70
     0
  9
$DIMSE1
 70
     0
  9
$DIMSE2
 70
     0
  9
$DIMTAD
 70
     3
  9
$DIMZIN
 70
     1
  9
$DIMBLK
  1

  9
$DIMASO
 70
     1
  9
$DIMSHO
 70
     0
  9
$DIMPOST
  1

  9
$DIMAPOST
  1

  9
$DIMALT
 70
     0
  9
$DIMALTD
 70
     2
  9
$DIMALTF
 40
0.039
  9
$DIMLFAC
 40
1.0
  9
$DIMTOFL
 70
     0
  9
$DIMTVP
 40
1.5
  9
$DIMTIX
 70
     0
  9
$DIMSOXD
 70
     0
  9
$DIMSAH
 70
     0
  9
$DIMBLK1
  1

  9
$DIMBLK2
  1

  9
$DIMSTYLE
  2
DIM1
  9
$DIMCLRD
 70
     4
  9
$DIMCLRE
 70
     4
  9
$DIMCLRT
 70
     2
  9
$DIMTFAC
 40
0.7
  9
$DIMGAP
 40
1.5
  9
$DIMJUST
 70
     0
  9
$DIMSD1
 70
     0
  9
$DIMSD2
 70
     0
  9
$DIMTOLJ
 70
     1
  9
$DIMTZIN
 70
     1
  9
$DIMALTZ
 70
     1
  9
$DIMALTTZ
 70
     1
  9
$DIMFIT
 70
     0
  9
$DIMUPT
 70
     0
  9
$DIMUNIT
 70
     2
  9
$DIMDEC
 70
     2
  9
$DIMTDEC
 70
     2
  9
$DIMALTU
 70
     2
  9
$DIMALTTD
 70
     2
  9
$DIMTXSTY
  7
STANDARD
  9
$DIMAUNIT
 70
     0
  9
$LUNITS
 70
     2
  9
$LUPREC
 70
     2
  9
$SKETCHINC
 40
1.0
  9
$FILLETRAD
 40
0.0
  9
$AUNITS
 70
     0
  9
$AUPREC
 70
     3
  9
$MENU
  1
ACAD
  9
$ELEVATION
 40
0.0
  9
$PELEVATION
 40
0.0
  9
$THICKNESS
 40
0.0
  9
$LIMCHECK
 70
     0
  9
$BLIPMODE
 70
     1
  9
$CHAMFERA
 40
2.0
  9
$CHAMFERB
 40
2.0
  9
$CHAMFERC
 40
0.0
  9
$CHAMFERD
 40
0.0
  9
$SKPOLY
 70
     1
  9
$TDCREATE
 40
2449993.725698611
  9
$TDUPDATE
 40
2452115.530263229
  9
$TDINDWG
 40
1.1579714468
  9
$TDUSRTIMER
 40
1.1579714468
  9
$USRTIMER
 70
     1
  9
$ANGBASE
 50
0.0
  9
$ANGDIR
 70
     0
  9
$PDMODE
 70
     3
  9
$PDSIZE
 40
0.0
  9
$PLINEWID
 40
0.0
  9
$COORDS
 70
     2
  9
$SPLFRAME
 70
     0
  9
$SPLINETYPE
 70
     6
  9
$SPLINESEGS
 70
     6
  9
$ATTDIA
 70
     1
  9
$ATTREQ
 70
     1
  9
$HANDLING
 70
     1
  9
$HANDSEED
  5
E8
  9
$SURFTAB1
 70
    12
  9
$SURFTAB2
 70
    12
  9
$SURFTYPE
 70
     6
  9
$SURFU
 70
    12
  9
$SURFV
 70
    12
  9
$UCSNAME
  2

  9
$UCSORG
 10
0.0
 20
0.0
 30
0.0
  9
$UCSXDIR
 10
1.0
 20
0.0
 30
0.0
  9
$UCSYDIR
 10
0.0
 20
1.0
 30
0.0
  9
$PUCSNAME
  2

  9
$PUCSORG
 10
0.0
 20
0.0
 30
0.0
  9
$PUCSXDIR
 10
1.0
 20
0.0
 30
0.0
  9
$PUCSYDIR
 10
0.0
 20
1.0
 30
0.0
  9
$USERI1
 70
     0
  9
$USERI2
 70
     0
  9
$USERI3
 70
     0
  9
$USERI4
 70
     0
  9
$USERI5
 70
     0
  9
$USERR1
 40
0.0
  9
$USERR2
 40
0.0
  9
$USERR3
 40
0.0
  9
$USERR4
 40
0.0
  9
$USERR5
 40
0.0
  9
$WORLDVIEW
 70
     0
  9
$SHADEDGE
 70
     3
  9
$SHADEDIF
 70
    70
  9
$TILEMODE
 70
     1
  9
$MAXACTVP
 70
    16
  9
$PINSBASE
 10
0.0
 20
0.0
 30
0.0
  9
$PLIMCHECK
 70
     0
  9
$PEXTMIN
 10
1.000000E+20
 20
1.000000E+20
 30
1.000000E+20
  9
$PEXTMAX
 10
-1.000000E+20
 20
-1.000000E+20
 30
-1.000000E+20
  9
$PLIMMIN
 10
0.0
 20
0.0
  9
$PLIMMAX
 10
12.0
 20
9.0
  9
$UNITMODE
 70
     0
  9
$VISRETAIN
 70
     0
  9
$PLINEGEN
 70
     0
  9
$PSLTSCALE
 70
     0
  9
$TREEDEPTH
 70
  3020
  9
$PICKSTYLE
 70
     1
  9
$CMLSTYLE
  2
STANDARD
  9
$CMLJUST
 70
     0
  9
$CMLSCALE
 40
1.0
  9
$PROXYGRAPHICS
 70
     1
  9
$MEASUREMENT
 70
     0
  0
ENDSEC
  0
SECTION
  2
CLASSES
  0
CLASS
  1
DICTIONARYVAR
  2
AcDbDictionaryVar
  3
"AutoCAD"
 90
        0
280
     0
281
     0
  0
CLASS
  1
LWPOLYLINE
  2
AcDbPolyline
  3
"AutoCAD"
 90
        0
280
     0
281
     1
  0
CLASS
  1
HATCH
  2
AcDbHatch
  3
"ACAD_SEDONA"
 90
        0
280
     0
281
     1
  0
CLASS
  1
SORTENTSTABLE
  2
AcDbSortentsTable
  3
"AutoCAD"
 90
        0
280
     0
281
     0
  0
CLASS
  1
WIPEOUTVARIABLES
  2
AcDbWipeoutVariables
  3
WIPEOUT
 90
        0
280
     0
281
     0
  0
CLASS
  1
WIPEOUT
  2
AcDbWipeout
  3
WIPEOUT
 90
      127
280
     0
281
     1
  0
ENDSEC
  0
SECTION
  2
TABLES
  0
TABLE
  2
VPORT
  5
14
100
AcDbSymbolTable
 70
     2
  0
VPORT
  5
E7
100
AcDbSymbolTableRecord
100
AcDbViewportTableRecord
  2
*ACTIVE
 70
     0
 10
0.0
 20
0.0
 11
1.0
 21
1.0
 12
585.804824
 22
320.259923
 13
0.0
 23
0.0
 14
10.0
 24
10.0
 15
0.0
 25
0.0
 16
0.0
 26
0.0
 36
1.0
 17
16.313321
 27
12.779115
 37
0.222949
 40
409.315322
 41
1.470516
 42
50.0
 43
0.0
 44
0.0
 50
0.0
 51
0.0
 71
     0
 72
  2000
 73
     1
 74
     2
 75
     0
 76
     0
 77
     0
 78
     1
  0
ENDTAB
  0
TABLE
  2
LTYPE
  5
F
100
AcDbSymbolTable
 70
     3
  0
LTYPE
  5
10
100
AcDbSymbolTableRecord
100
AcDbLinetypeTableRecord
  2
BYBLOCK
 70
     0
  3

 72
    65
 73
     0
 40
0.0
  0
LTYPE
  5
11
100
AcDbSymbolTableRecord
100
AcDbLinetypeTableRecord
  2
BYLAYER
 70
     0
  3

 72
    65
 73
     0
 40
0.0
  0
LTYPE
  5
7
100
AcDbSymbolTableRecord
100
AcDbLinetypeTableRecord
  2
CONTINUOUS
 70
     0
  3
Solid line
 72
    65
 73
     0
 40
0.0
  0
LTYPE
  5
35
100
AcDbSymbolTableRecord
100
AcDbLinetypeTableRecord
  2
CENTER
 70
     0
  3
Center ____ _ ____ _ ____ _ ____ _ ____ _ ____
 72
    65
 73
     4
 40
2.0
 49
1.25
 74
     0
 49
-0.25
 74
     0
 49
0.25
 74
     0
 49
-0.25
 74
     0
  0
LTYPE
  5
4C
100
AcDbSymbolTableRecord
100
AcDbLinetypeTableRecord
  2
HIDDEN
 70
     0
  3
Hidden __ __ __ __ __ __ __ __ __ __ __ __ __ _
 72
    65
 73
     2
 40
0.375
 49
0.25
 74
     0
 49
-0.125
 74
     0
  0
ENDTAB
  0
TABLE
  2
LAYER
  5
C
100
AcDbSymbolTable
 70
     8
  0
LAYER
  5
6
100
AcDbSymbolTableRecord
100
AcDbLayerTableRecord
  2
0
 70
     0
 62
     7
  6
CONTINUOUS
  0
LAYER
  5
34
100
AcDbSymbolTableRecord
100
AcDbLayerTableRecord
  2
CENTRE
 70
     0
 62
     3
  6
CENTER
  0
LAYER
  5
24
100
AcDbSymbolTableRecord
100
AcDbLayerTableRecord
  2
M01
 70
     0
 62
     1
  6
CONTINUOUS
  0
LAYER
  5
4B
100
AcDbSymbolTableRecord
100
AcDbLayerTableRecord
  2
M03
 70
     0
 62
     2
  6
HIDDEN
  0
LAYER
  5
1D
100
AcDbSymbolTableRecord
100
AcDbLayerTableRecord
  2
M04
 70
     0
 62
     7
  6
CONTINUOUS
  0
LAYER
  5
6A
100
AcDbSymbolTableRecord
100
AcDbLayerTableRecord
  2
DIMS
 70
     0
 62
     4
  6
CONTINUOUS
  0
LAYER
  5
9C
100
AcDbSymbolTableRecord
100
AcDbLayerTableRecord
  2
TEXT
 70
     0
 62
     2
  6
CONTINUOUS
  0
LAYER
  5
73
100
AcDbSymbolTableRecord
100
AcDbLayerTableRecord
  2
DEFPOINTS
 70
     0
 62
     7
  6
CONTINUOUS
  0
ENDTAB
  0
TABLE
  2
STYLE
  5
D
100
AcDbSymbolTable
 70
     1
  0
STYLE
  5
E
100
AcDbSymbolTableRecord
100
AcDbTextStyleTableRecord
  2
STANDARD
 70
     0
 40
0.0
 41
1.0
 50
0.0
 71
     0
 42
2.0
  3
SIMPLEX
  4

  0
ENDTAB
  0
TABLE
  2
VIEW
  5
12
100
AcDbSymbolTable
 70
     0
  0
ENDTAB
  0
TABLE
  2
UCS
  5
13
100
AcDbSymbolTable
 70
     0
  0
ENDTAB
  0
TABLE
  2
APPID
  5
16
100
AcDbSymbolTable
 70
     1
  0
APPID
  5
17
100
AcDbSymbolTableRecord
100
AcDbRegAppTableRecord
  2
ACAD
 70
     0
  0
ENDTAB
  0
TABLE
  2
DIMSTYLE
  5
18
100
AcDbSymbolTable
 70
     1
  0
DIMSTYLE
105
1F
102
{ACAD_REACTORS
330
8B
330
78
330
69
102
}
100
AcDbSymbolTableRecord
100
AcDbDimStyleTableRecord
  2
DIM1
 70
     0
  3

  4

  5

  6

  7

 40
1.0
 41
3.0
 42
1.0
 43
10.0
 44
2.5
 45
0.01
 46
1.25
 47
0.05
 48
0.0
140
3.0
141
-1.7
142
0.0
143
0.039
144
0.2
145
1.5
146
0.7
147
1.5
 71
     0
 72
     0
 73
     0
 74
     0
 75
     0
 76
     0
 77
     3
 78
     1
170
     0
171
     2
172
     0
173
     0
174
     0
175
     0
176
     4
177
     4
178
     2
270
     2
271
     2
272
     2
273
     2
274
     2
340
E
275
     0
280
     0
281
     0
282
     0
283
     1
284
     1
285
     1
286
     1
287
     0
288
     0
  0
ENDTAB
  0
TABLE
  2
BLOCK_RECORD
  5
1
100
AcDbSymbolTable
 70
     3
  0
BLOCK_RECORD
  5
2
102
{ACAD_XDICTIONARY
360
3
102
}
100
AcDbSymbolTableRecord
100
AcDbBlockTableRecord
  2
*MODEL_SPACE
  0
BLOCK_RECORD
  5
9
100
AcDbSymbolTableRecord
100
AcDbBlockTableRecord
  2
*PAPER_SPACE
  0
BLOCK_RECORD
  5
8C
100
AcDbSymbolTableRecord
100
AcDbBlockTableRecord
  2
*D0
  0
BLOCK_RECORD
  5
79
100
AcDbSymbolTableRecord
100
AcDbBlockTableRecord
  2
*D1
  0
BLOCK_RECORD
  5
6B
100
AcDbSymbolTableRecord
100
AcDbBlockTableRecord
  2
*D2
  0
ENDTAB
  0
ENDSEC
  0
SECTION
  2
BLOCKS
  0
BLOCK
  5
5
100
AcDbEntity
  8
0
100
AcDbBlockBegin
  2
*MODEL_SPACE
 70
     0
 10
0.0
 20
0.0
 30
0.0
  3
*MODEL_SPACE
  1

  0
ENDBLK
  5
8
100
AcDbEntity
  8
0
100
AcDbBlockEnd
  0
BLOCK
  5
A
100
AcDbEntity
 67
     1
  8
0
100
AcDbBlockBegin
  2
*PAPER_SPACE
 70
     0
 10
0.0
 20
0.0
 30
0.0
  3
*PAPER_SPACE
  1

  0
ENDBLK
  5
B
100
AcDbEntity
 67
     1
  8
0
100
AcDbBlockEnd
  0
BLOCK
  5
97
100
AcDbEntity
  8
0
100
AcDbBlockBegin
  2
*D0
 70
     1
 10
0.0
 20
0.0
 30
0.0
  3
*D0
  1

  0
LINE
  5
8D
100
AcDbEntity
  8
0
  6
BYBLOCK
 62
     4
100
AcDbLine
 10
625.504343
 20
504.993918
 30
0.0
 11
625.504343
 21
486.721185
 31
0.0
  0
LINE
  5
8E
100
AcDbEntity
  8
0
  6
BYBLOCK
 62
     4
100
AcDbLine
 10
612.504343
 20
511.252616
 30
0.0
 11
612.504343
 21
486.721185
 31
0.0
  0
LINE
  5
8F
100
AcDbEntity
  8
0
  6
BYBLOCK
 62
     4
100
AcDbLine
 10
628.504343
 20
489.221185
 30
0.0
 11
631.504343
 21
489.221185
 31
0.0
  0
LINE
  5
90
100
AcDbEntity
  8
0
  6
BYBLOCK
 62
     4
100
AcDbLine
 10
609.504343
 20
489.221185
 30
0.0
 11
583.15086
 21
489.221185
 31
0.0
  0
SOLID
  5
91
100
AcDbEntity
  8
0
  6
BYBLOCK
 62
     4
100
AcDbTrace
 10
628.504343
 20
489.721185
 30
0.0
 11
628.504343
 21
488.721185
 31
0.0
 12
625.504343
 22
489.221185
 32
0.0
 13
625.504343
 23
489.221185
 33
0.0
  0
SOLID
  5
92
100
AcDbEntity
  8
0
  6
BYBLOCK
 62
     4
100
AcDbTrace
 10
609.504343
 20
489.721185
 30
0.0
 11
609.504343
 21
488.721185
 31
0.0
 12
612.504343
 22
489.221185
 32
0.0
 13
612.504343
 23
489.221185
 33
0.0
  0
MTEXT
  5
93
100
AcDbEntity
  8
0
  6
BYBLOCK
 62
     2
100
AcDbMText
 10
590.365146
 20
492.221185
 30
0.0
 40
3.0
 41
0.0
 71
     5
 72
     1
  1
\A1;13.00
  0
POINT
  5
94
100
AcDbEntity
  8
DEFPOINTS
  6
BYBLOCK
 62
     0
100
AcDbPoint
 10
625.504343
 20
505.993918
 30
0.0
  0
POINT
  5
95
100
AcDbEntity
  8
DEFPOINTS
  6
BYBLOCK
 62
     0
100
AcDbPoint
 10
612.504343
 20
512.252616
 30
0.0
  0
POINT
  5
96
100
AcDbEntity
  8
DEFPOINTS
  6
BYBLOCK
 62
     0
100
AcDbPoint
 10
612.504343
 20
489.221185
 30
0.0
  0
ENDBLK
  5
98
100
AcDbEntity
  8
0
100
AcDbBlockEnd
  0
BLOCK
  5
84
100
AcDbEntity
  8
0
100
AcDbBlockBegin
  2
*D1
 70
     1
 10
0.0
 20
0.0
 30
0.0
  3
*D1
  1

  0
LINE
  5
7A
100
AcDbEntity
  8
0
  6
BYBLOCK
 62
     4
100
AcDbLine
 10
611.754343
 20
522.752616
 30
0.0
 11
596.460243
 21
522.752616
 31
0.0
  0
LINE
  5
7B
100
AcDbEntity
  8
0
  6
BYBLOCK
 62
     4
100
AcDbLine
 10
611.754343
 20
541.752616
 30
0.0
 11
596.460243
 21
541.752616
 31
0.0
  0
LINE
  5
7C
100
AcDbEntity
  8
0
  6
BYBLOCK
 62
     4
100
AcDbLine
 10
598.960243
 20
519.752616
 30
0.0
 11
598.960243
 21
516.752616
 31
0.0
  0
LINE
  5
7D
100
AcDbEntity
  8
0
  6
BYBLOCK
 62
     4
100
AcDbLine
 10
598.960243
 20
544.752616
 30
0.0
 11
598.960243
 21
564.895473
 31
0.0
  0
SOLID
  5
7E
100
AcDbEntity
  8
0
  6
BYBLOCK
 62
     4
100
AcDbTrace
 10
598.460243
 20
519.752616
 30
0.0
 11
599.460243
 21
519.752616
 31
0.0
 12
598.960243
 22
522.752616
 32
0.0
 13
598.960243
 23
522.752616
 33
0.0
  0
SOLID
  5
7F
100
AcDbEntity
  8
0
  6
BYBLOCK
 62
     4
100
AcDbTrace
 10
598.460243
 20
544.752616
 30
0.0
 11
599.460243
 21
544.752616
 31
0.0
 12
598.960243
 22
541.752616
 32
0.0
 13
598.960243
 23
541.752616
 33
0.0
  0
MTEXT
  5
80
100
AcDbEntity
  8
0
  6
BYBLOCK
 62
     2
100
AcDbMText
 10
595.960243
 20
556.324045
 30
0.0
 40
3.0
 41
0.0
 71
     5
 72
     1
  1
\A1;\U+220519.00
 11
0.0
 21
1.0
 31
0.0
  0
POINT
  5
81
100
AcDbEntity
  8
DEFPOINTS
  6
BYBLOCK
 62
     0
100
AcDbPoint
 10
612.754343
 20
522.752616
 30
0.0
  0
POINT
  5
82
100
AcDbEntity
  8
DEFPOINTS
  6
BYBLOCK
 62
     0
100
AcDbPoint
 10
612.754343
 20
541.752616
 30
0.0
  0
POINT
  5
83
100
AcDbEntity
  8
DEFPOINTS
  6
BYBLOCK
 62
     0
100
AcDbPoint
 10
598.960243
 20
541.752616
 30
0.0
  0
ENDBLK
  5
85
100
AcDbEntity
  8
0
100
AcDbBlockEnd
  0
BLOCK
  5
76
100
AcDbEntity
  8
0
100
AcDbBlockBegin
  2
*D2
 70
     1
 10
0.0
 20
0.0
 30
0.0
  3
*D2
  1

  0
LINE
  5
6C
100
AcDbEntity
  8
0
  6
BYBLOCK
 62
     4
100
AcDbLine
 10
625.504343
 20
504.993918
 30
0.0
 11
625.504343
 21
476.818106
 31
0.0
  0
LINE
  5
6D
100
AcDbEntity
  8
0
  6
BYBLOCK
 62
     4
100
AcDbLine
 10
566.504343
 20
529.150156
 30
0.0
 11
566.504343
 21
476.818106
 31
0.0
  0
LINE
  5
6E
100
AcDbEntity
  8
0
  6
BYBLOCK
 62
     4
100
AcDbLine
 10
622.504343
 20
479.318106
 30
0.0
 11
569.504343
 21
479.318106
 31
0.0
  0
SOLID
  5
6F
100
AcDbEntity
  8
0
  6
BYBLOCK
 62
     4
100
AcDbTrace
 10
622.504343
 20
479.818106
 30
0.0
 11
622.504343
 21
478.818106
 31
0.0
 12
625.504343
 22
479.318106
 32
0.0
 13
625.504343
 23
479.318106
 33
0.0
  0
SOLID
  5
70
100
AcDbEntity
  8
0
  6
BYBLOCK
 62
     4
100
AcDbTrace
 10
569.504343
 20
479.818106
 30
0.0
 11
569.504343
 21
478.818106
 31
0.0
 12
566.504343
 22
479.318106
 32
0.0
 13
566.504343
 23
479.318106
 33
0.0
  0
MTEXT
  5
71
100
AcDbEntity
  8
0
  6
BYBLOCK
 62
     2
100
AcDbMText
 10
596.004343
 20
482.318106
 30
0.0
 40
3.0
 41
0.0
 71
     5
 72
     1
  1
\A1;L DIM = 59.00
  0
POINT
  5
72
100
AcDbEntity
  8
DEFPOINTS
  6
BYBLOCK
 62
     0
100
AcDbPoint
 10
625.504343
 20
505.993918
 30
0.0
  0
POINT
  5
74
100
AcDbEntity
  8
DEFPOINTS
  6
BYBLOCK
 62
     0
100
AcDbPoint
 10
566.504343
 20
530.150156
 30
0.0
  0
POINT
  5
75
100
AcDbEntity
  8
DEFPOINTS
  6
BYBLOCK
 62
     0
100
AcDbPoint
 10
566.504343
 20
479.318106
 30
0.0
  0
ENDBLK
  5
77
100
AcDbEntity
  8
0
100
AcDbBlockEnd
  0
ENDSEC
  0
SECTION
  2
ENTITIES
  0
ARC
  5
20
100
AcDbEntity
  8
M04
100
AcDbCircle
 10
514.164946
 20
254.123579
 30
0.0
 40
1.5
100
AcDbArc
 50
180.0
 51
0.0
  0
LINE
  5
21
100
AcDbEntity
  8
M04
100
AcDbLine
 10
515.664946
 20
256.123579
 30
0.0
 11
515.664946
 21
254.123579
 31
0.0
  0
LINE
  5
22
100
AcDbEntity
  8
M04
100
AcDbLine
 10
512.664946
 20
256.123579
 30
0.0
 11
512.664946
 21
254.123579
 31
0.0
  0
LINE
  5
23
100
AcDbEntity
  8
M01
100
AcDbLine
 10
512.664946
 20
263.242747
 30
0.0
 11
512.664946
 21
256.123579
 31
0.0
  0
LINE
  5
25
100
AcDbEntity
  8
M01
100
AcDbLine
 10
512.664946
 20
256.123579
 30
0.0
 11
515.664946
 21
256.123579
 31
0.0
  0
LINE
  5
26
100
AcDbEntity
  8
M01
100
AcDbLine
 10
512.914946
 20
255.873579
 30
0.0
 11
515.414946
 21
255.873579
 31
0.0
  0
LINE
  5
27
100
AcDbEntity
  8
M01
100
AcDbLine
 10
512.914946
 20
255.873579
 30
0.0
 11
512.664946
 21
256.123579
 31
0.0
  0
LINE
  5
28
100
AcDbEntity
  8
M01
100
AcDbLine
 10
515.414946
 20
255.873579
 30
0.0
 11
515.664946
 21
256.123579
 31
0.0
  0
LINE
  5
29
100
AcDbEntity
  8
M01
100
AcDbLine
 10
515.664946
 20
263.242747
 30
0.0
 11
515.664946
 21
256.123579
 31
0.0
  0
HATCH
  5
2A
100
AcDbEntity
  8
M04
100
AcDbHatch
 10
0.0
 20
0.0
 30
0.0
210
0.0
220
0.0
230
1.0
  2
_U
 70
     0
 71
     0
 91
        1
 92
        7
 72
     0
 73
     1
 93
        4
 10
517.6649458367917
 20
322.0412233632902
 10
516.6649458367917
 20
322.0412233632902
 10
516.6649458367917
 20
299.6235785401369
 10
517.6649458367917
 20
299.6235785401371
 97
        0
 75
     0
 76
     0
 52
45.0
 41
0.6
 77
     1
 78
     2
 53
45.0
 43
428.177399
 44
149.578705
 45
-0.4242640687119285
 46
0.4242640687119285
 79
     0
 53
135.0
 43
428.177399
 44
149.578705
 45
-0.4242640687119285
 46
-0.4242640687119285
 79
     0
 47
0.246897
 98
        1
 10
516.985579
 20
320.116208
  0
LINE
  5
2B
100
AcDbEntity
  8
M01
100
AcDbLine
 10
517.664946
 20
299.623579
 30
0.0
 11
517.664946
 21
322.041223
 31
0.0
  0
LINE
  5
2C
100
AcDbEntity
  8
M01
100
AcDbLine
 10
516.664946
 20
299.623579
 30
0.0
 11
516.664946
 21
322.041223
 31
0.0
  0
LINE
  5
2D
100
AcDbEntity
  8
M01
100
AcDbLine
 10
516.164946
 20
299.623579
 30
0.0
 11
516.164946
 21
289.623579
 31
0.0
  0
LINE
  5
2E
100
AcDbEntity
  8
M01
100
AcDbLine
 10
518.164946
 20
299.623579
 30
0.0
 11
518.164946
 21
289.623579
 31
0.0
  0
LINE
  5
2F
100
AcDbEntity
  8
M01
100
AcDbLine
 10
516.164946
 20
299.623579
 30
0.0
 11
518.164946
 21
299.623579
 31
0.0
  0
LINE
  5
30
100
AcDbEntity
  8
M01
100
AcDbLine
 10
516.164946
 20
289.623579
 30
0.0
 11
518.164946
 21
289.623579
 31
0.0
  0
LINE
  5
31
100
AcDbEntity
  8
M01
100
AcDbLine
 10
517.664946
 20
289.623579
 30
0.0
 11
517.664946
 21
281.455339
 31
0.0
  0
LINE
  5
32
100
AcDbEntity
  8
M01
100
AcDbLine
 10
516.664946
 20
289.623579
 30
0.0
 11
516.664946
 21
281.78873
 31
0.0
  0
LINE
  5
33
100
AcDbEntity
  8
CENTRE
 48
0.7
100
AcDbLine
 10
517.164946
 20
279.470558
 30
0.0
 11
517.164946
 21
326.720278
 31
0.0
  0
HATCH
  5
36
100
AcDbEntity
  8
M04
100
AcDbHatch
 10
0.0
 20
0.0
 30
0.0
210
0.0
220
0.0
230
1.0
  2
_U
 70
     0
 71
     0
 91
        2
 92
        7
 72
     0
 73
     1
 93
        4
 10
514.1649458367919
 20
403.9766262312912
 10
511.9649458367915
 20
403.9766262312912
 10
511.9649458367915
 20
377.7607965401369
 10
514.1649458367917
 20
377.760796540137
 97
        0
 92
        7
 72
     0
 73
     1
 93
        4
 10
516.3649458367918
 20
403.9766262312912
 10
514.1649458367919
 20
403.9766262312912
 10
514.1649458367917
 20
377.760796540137
 10
516.3649458367918
 20
377.7607965401371
 97
        0
 75
     0
 76
     0
 52
45.0
 41
1.0
 77
     1
 78
     2
 53
45.0
 43
415.414946
 44
379.015531
 45
-0.7071067811865475
 46
0.7071067811865476
 79
     0
 53
135.0
 43
415.414946
 44
379.015531
 45
-0.7071067811865476
 46
-0.7071067811865475
 79
     0
 47
0.058241
 98
        2
 10
513.637586
 20
394.90104
 10
515.327247
 20
395.716419
  0
LINE
  5
37
100
AcDbEntity
  8
M01
100
AcDbLine
 10
517.164946
 20
377.760797
 30
0.0
 11
517.164946
 21
362.68554
 31
0.0
  0
LINE
  5
38
100
AcDbEntity
  8
M01
100
AcDbLine
 10
511.164946
 20
377.760797
 30
0.0
 11
511.164946
 21
362.68554
 31
0.0
  0
LINE
  5
39
100
AcDbEntity
  8
M01
100
AcDbLine
 10
516.364946
 20
377.760797
 30
0.0
 11
516.364946
 21
403.976626
 31
0.0
  0
LINE
  5
3A
100
AcDbEntity
  8
M01
100
AcDbLine
 10
511.964946
 20
377.760797
 30
0.0
 11
511.964946
 21
403.976626
 31
0.0
  0
LINE
  5
3B
100
AcDbEntity
  8
CENTRE
 48
0.7
100
AcDbLine
 10
514.164946
 20
247.433499
 30
0.0
 11
514.164946
 21
408.61344
 31
0.0
  0
LINE
  5
3C
100
AcDbEntity
  8
M01
100
AcDbLine
 10
511.164946
 20
362.68554
 30
0.0
 11
517.164946
 21
362.68554
 31
0.0
  0
LINE
  5
3D
100
AcDbEntity
  8
M01
100
AcDbLine
 10
512.914946
 20
352.760797
 30
0.0
 11
511.164946
 21
362.68554
 31
0.0
  0
LINE
  5
3E
100
AcDbEntity
  8
M01
100
AcDbLine
 10
515.414946
 20
352.760797
 30
0.0
 11
517.164946
 21
362.68554
 31
0.0
  0
LINE
  5
3F
100
AcDbEntity
  8
M01
100
AcDbLine
 10
517.164946
 20
377.760797
 30
0.0
 11
511.164946
 21
377.760797
 31
0.0
  0
LINE
  5
40
100
AcDbEntity
  8
M01
100
AcDbLine
 10
515.414946
 20
352.760797
 30
0.0
 11
512.914946
 21
352.760797
 31
0.0
  0
LINE
  5
41
100
AcDbEntity
  8
M01
100
AcDbLine
 10
515.414946
 20
282.040983
 30
0.0
 11
515.414946
 21
352.760797
 31
0.0
  0
LINE
  5
42
100
AcDbEntity
  8
M01
100
AcDbLine
 10
512.914946
 20
282.040983
 30
0.0
 11
512.914946
 21
352.760797
 31
0.0
  0
LINE
  5
43
100
AcDbEntity
  8
M04
100
AcDbLine
 10
519.164946
 20
411.541446
 30
0.0
 11
519.164946
 21
278.868577
 31
0.0
  0
LINE
  5
44
100
AcDbEntity
  8
M04
100
AcDbLine
 10
509.164946
 20
411.541446
 30
0.0
 11
509.164946
 21
278.868577
 31
0.0
  0
CIRCLE
  5
45
100
AcDbEntity
  8
M04
100
AcDbCircle
 10
514.164946
 20
272.623579
 30
0.0
 40
8.0
  0
CIRCLE
  5
46
100
AcDbEntity
  8
M01
100
AcDbCircle
 10
514.164946
 20
272.623579
 30
0.0
 40
9.5
  0
CIRCLE
  5
47
100
AcDbEntity
  8
M01
100
AcDbCircle
 10
514.164946
 20
272.623579
 30
0.0
 40
6.95
  0
CIRCLE
  5
48
100
AcDbEntity
  8
M01
100
AcDbCircle
 10
514.164946
 20
272.623579
 30
0.0
 40
4.5
  0
CIRCLE
  5
49
100
AcDbEntity
  8
M01
100
AcDbCircle
 10
514.164946
 20
272.623579
 30
0.0
 40
4.25
  0
CIRCLE
  5
4A
100
AcDbEntity
  8
M03
100
AcDbCircle
 10
514.164946
 20
272.623579
 30
0.0
 40
2.0
  0
LINE
  5
4D
100
AcDbEntity
  8
CENTRE
100
AcDbLine
 10
533.164946
 20
272.623579
 30
0.0
 11
495.164946
 21
272.623579
 31
0.0
  0
HATCH
  5
4E
100
AcDbEntity
  8
M04
100
AcDbHatch
 10
0.0
 20
0.0
 30
0.0
210
0.0
220
0.0
230
1.0
  2
_U
 70
     0
 71
     0
 91
        1
 92
        7
 72
     0
 73
     1
 93
        4
 10
667.9709231783284
 20
322.0412233632901
 10
666.9709231783285
 20
322.0412233632901
 10
666.9709231783285
 20
299.6235785401368
 10
667.9709231783284
 20
299.6235785401369
 97
        0
 75
     0
 76
     0
 52
45.0
 41
0.6
 77
     1
 78
     2
 53
45.0
 43
578.483377
 44
149.578705
 45
-0.4242640687119285
 46
0.4242640687119285
 79
     0
 53
135.0
 43
578.483377
 44
149.578705
 45
-0.4242640687119285
 46
-0.4242640687119285
 79
     0
 47
0.246897
 98
        1
 10
667.291556
 20
320.116208
  0
LINE
  5
4F
100
AcDbEntity
  8
M01
100
AcDbLine
 10
667.970923
 20
299.623579
 30
0.0
 11
667.970923
 21
322.041223
 31
0.0
  0
LINE
  5
50
100
AcDbEntity
  8
M01
100
AcDbLine
 10
666.970923
 20
299.623579
 30
0.0
 11
666.970923
 21
322.041223
 31
0.0
  0
LINE
  5
51
100
AcDbEntity
  8
M01
100
AcDbLine
 10
666.470923
 20
299.623579
 30
0.0
 11
666.470923
 21
289.623579
 31
0.0
  0
LINE
  5
52
100
AcDbEntity
  8
M01
100
AcDbLine
 10
668.470923
 20
299.623579
 30
0.0
 11
668.470923
 21
289.623579
 31
0.0
  0
LINE
  5
53
100
AcDbEntity
  8
M01
100
AcDbLine
 10
666.470923
 20
299.623579
 30
0.0
 11
668.470923
 21
299.623579
 31
0.0
  0
LINE
  5
54
100
AcDbEntity
  8
M04
100
AcDbLine
 10
665.838995
 20
282.123579
 30
0.0
 11
665.588995
 21
282.123579
 31
0.0
  0
LINE
  5
55
100
AcDbEntity
  8
M04
100
AcDbLine
 10
665.588995
 20
281.873579
 30
0.0
 11
665.588995
 21
282.123579
 31
0.0
  0
HATCH
  5
56
100
AcDbEntity
  8
M04
100
AcDbHatch
 10
0.0
 20
0.0
 30
0.0
210
0.0
220
0.0
230
1.0
  2
_U
 70
     0
 71
     0
 91
        2
 92
        7
 72
     0
 73
     1
 93
        4
 10
667.5389951695869
 20
403.9766262312912
 10
665.3389951695867
 20
403.9766262312912
 10
665.3389951695867
 20
377.7607965401369
 10
667.5389951695868
 20
377.760796540137
 97
        0
 92
        7
 72
     0
 73
     1
 93
        4
 10
669.7389951695868
 20
403.9766262312912
 10
667.5389951695869
 20
403.9766262312912
 10
667.5389951695868
 20
377.760796540137
 10
669.7389951695868
 20
377.7607965401371
 97
        0
 75
     0
 76
     0
 52
45.0
 41
1.0
 77
     1
 78
     2
 53
45.0
 43
568.788995
 44
379.015531
 45
-0.7071067811865475
 46
0.7071067811865476
 79
     0
 53
135.0
 43
568.788995
 44
379.015531
 45
-0.7071067811865476
 46
-0.7071067811865475
 79
     0
 47
0.058241
 98
        2
 10
667.011635
 20
394.90104
 10
668.701296
 20
395.716419
  0
LINE
  5
57
100
AcDbEntity
  8
M01
100
AcDbLine
 10
670.538995
 20
377.760797
 30
0.0
 11
670.538995
 21
362.68554
 31
0.0
  0
LINE
  5
58
100
AcDbEntity
  8
M01
100
AcDbLine
 10
664.538995
 20
377.760797
 30
0.0
 11
664.538995
 21
362.68554
 31
0.0
  0
LINE
  5
59
100
AcDbEntity
  8
M01
100
AcDbLine
 10
669.738995
 20
377.760797
 30
0.0
 11
669.738995
 21
403.976626
 31
0.0
  0
LINE
  5
5A
100
AcDbEntity
  8
M01
100
AcDbLine
 10
665.338995
 20
377.760797
 30
0.0
 11
665.338995
 21
403.976626
 31
0.0
  0
LINE
  5
5B
100
AcDbEntity
  8
CENTRE
 48
0.7
100
AcDbLine
 10
667.538995
 20
280.137577
 30
0.0
 11
667.538995
 21
408.61344
 31
0.0
  0
LINE
  5
5C
100
AcDbEntity
  8
M01
100
AcDbLine
 10
664.538995
 20
362.68554
 30
0.0
 11
670.538995
 21
362.68554
 31
0.0
  0
LINE
  5
5D
100
AcDbEntity
  8
M01
100
AcDbLine
 10
666.288995
 20
352.760797
 30
0.0
 11
664.538995
 21
362.68554
 31
0.0
  0
LINE
  5
5E
100
AcDbEntity
  8
M01
100
AcDbLine
 10
668.788995
 20
352.760797
 30
0.0
 11
670.538995
 21
362.68554
 31
0.0
  0
LINE
  5
5F
100
AcDbEntity
  8
M01
100
AcDbLine
 10
670.538995
 20
377.760797
 30
0.0
 11
664.538995
 21
377.760797
 31
0.0
  0
LINE
  5
60
100
AcDbEntity
  8
M01
100
AcDbLine
 10
668.788995
 20
352.760797
 30
0.0
 11
666.288995
 21
352.760797
 31
0.0
  0
LINE
  5
61
100
AcDbEntity
  8
M01
100
AcDbLine
 10
668.788995
 20
281.873579
 30
0.0
 11
668.788995
 21
352.760797
 31
0.0
  0
LINE
  5
62
100
AcDbEntity
  8
M01
100
AcDbLine
 10
666.288995
 20
282.123579
 30
0.0
 11
666.288995
 21
352.760797
 31
0.0
  0
LINE
  5
63
100
AcDbEntity
  8
M04
100
AcDbLine
 10
627.938995
 20
268.123579
 30
0.0
 11
628.088995
 21
268.123579
 31
0.0
  0
LINE
  5
64
100
AcDbEntity
  8
M04
100
AcDbLine
 10
628.088995
 20
268.273579
 30
0.0
 11
628.088995
 21
268.123579
 31
0.0
  0
LINE
  5
65
100
AcDbEntity
  8
M04
 48
0.7
100
AcDbLine
 10
665.588995
 20
264.623579
 30
0.0
 11
630.938995
 21
264.623579
 31
0.0
  0
LINE
  5
66
100
AcDbEntity
  8
M04
100
AcDbLine
 10
627.938995
 20
277.123579
 30
0.0
 11
628.088995
 21
277.123579
 31
0.0
  0
LINE
  5
67
100
AcDbEntity
  8
M04
100
AcDbLine
 10
628.088995
 20
276.973579
 30
0.0
 11
628.088995
 21
277.123579
 31
0.0
  0
ARC
  5
68
100
AcDbEntity
  8
M03
100
AcDbCircle
 10
626.938995
 20
272.623579
 30
0.0
 40
2.0
100
AcDbArc
 50
90.0
 51
270.0
  0
DIMENSION
  5
69
100
AcDbEntity
  8
DIMS
100
AcDbDimension
  2
*D2
 10
619.588995
 20
219.689069
 30
0.0
 11
649.088995
 21
219.689069
 31
0.0
 12
53.084652
 22
-259.629037
 32
0.0
 70
   128
  1
L DIM = <>
  3
DIM1
100
AcDbAlignedDimension
 13
678.588995
 23
246.364881
 33
0.0
 14
619.588995
 24
270.521119
 34
0.0
100
AcDbRotatedDimension
1001
ACAD
1000
DSTYLE
1002
{
1070
   144
1040
1.0
1002
}
  0
DIMENSION
  5
78
100
AcDbEntity
  8
DIMS
100
AcDbDimension
  2
*D1
 10
652.044895
 20
282.123579
 30
0.0
 11
652.044895
 21
296.695007
 31
0.0
 12
53.084652
 22
-259.629037
 32
0.0
 70
   128
  1
%%c<>
  3
DIM1
100
AcDbAlignedDimension
 13
665.838995
 23
263.123579
 33
0.0
 14
665.838995
 24
282.123579
 34
0.0
 50
90.0
100
AcDbRotatedDimension
1001
ACAD
1000
DSTYLE
1002
{
1070
   144
1040
1.0
1002
}
  0
TEXT
  5
86
100
AcDbEntity
  8
DIMS
 62
     2
100
AcDbText
 10
649.137493
 20
305.705003
 30
0.0
 40
2.0
  1
-0
 50
90.0
100
AcDbText
  0
TEXT
  5
87
100
AcDbEntity
  8
DIMS
 62
     2
100
AcDbText
 10
646.052573
 20
305.705003
 30
0.0
 40
2.0
  1
+0.02
 50
90.0
100
AcDbText
  0
LINE
  5
88
100
AcDbEntity
  8
CENTRE
100
AcDbLine
 10
668.788995
 20
249.235538
 30
0.0
 11
668.788995
 21
267.174978
 31
0.0
  0
TEXT
  5
89
100
AcDbEntity
  8
DIMS
 62
     2
100
AcDbText
 10
652.437151
 20
231.71462
 30
0.0
 40
2.0
  1
-0
100
AcDbText
  0
TEXT
  5
8A
100
AcDbEntity
  8
DIMS
 62
     2
100
AcDbText
 10
652.437151
 20
234.79954
 30
0.0
 40
2.0
  1
+0.02
100
AcDbText
  0
DIMENSION
  5
8B
100
AcDbEntity
  8
DIMS
100
AcDbDimension
  2
*D0
 10
665.588995
 20
229.592148
 30
0.0
 11
643.449798
 21
229.592148
 31
0.0
 12
53.084652
 22
-259.629037
 32
0.0
 70
   128
  3
DIM1
100
AcDbAlignedDimension
 13
678.588995
 23
246.364881
 33
0.0
 14
665.588995
 24
252.623579
 34
0.0
100
AcDbRotatedDimension
1001
ACAD
1000
DSTYLE
1002
{
1070
   144
1040
1.0
1002
}
  0
LINE
  5
99
100
AcDbEntity
  8
M03
 48
0.7
100
AcDbLine
 10
678.588995
 20
274.623579
 30
0.0
 11
626.938995
 21
274.623579
 31
0.0
  0
LINE
  5
9A
100
AcDbEntity
  8
M03
 48
0.7
100
AcDbLine
 10
678.588995
 20
270.623579
 30
0.0
 11
626.938995
 21
270.623579
 31
0.0
  0
TEXT
  5
9B
100
AcDbEntity
  8
TEXT
100
AcDbText
 10
634.112119
 20
276.024939
 30
0.0
 40
2.0
  1
SK030000
 41
0.9
100
AcDbText
  0
LINE
  5
9D
100
AcDbEntity
  8
DIMS
 62
     4
100
AcDbLine
 10
619.588995
 20
270.521119
 30
0.0
 11
619.588995
 21
274.726038
 31
0.0
  0
MTEXT
  5
9E
100
AcDbEntity
  8
0
  6
BYBLOCK
 62
     2
100
AcDbMText
 10
581.919231
 20
291.952617
 30
0.0
 40
3.0
 41
0.0
 71
     5
 72
     1
  1
GATE INSERTION POINT
  0
SOLID
  5
9F
100
AcDbEntity
  8
0
  6
BYBLOCK
 62
     4
100
AcDbTrace
 10
618.422817
 20
276.740923
 30
0.0
 11
617.499097
 21
276.357855
 31
0.0
 12
619.11016
 22
273.778229
 32
0.0
 13
619.11016
 23
273.778229
 33
0.0
  0
LINE
  5
A0
100
AcDbEntity
  8
0
  6
BYBLOCK
 62
     4
100
AcDbLine
 10
611.540112
 20
291.952617
 30
0.0
 11
608.540112
 21
291.952617
 31
0.0
  0
LINE
  5
A1
100
AcDbEntity
  8
0
  6
BYBLOCK
 62
     4
100
AcDbLine
 10
617.960957
 20
276.549389
 30
0.0
 11
611.540112
 21
291.952617
 31
0.0
  0
CIRCLE
  5
A2
100
AcDbEntity
  8
M04
100
AcDbCircle
 10
619.588995
 20
272.623579
 30
0.0
 40
1.25
  0
MTEXT
  5
A3
100
AcDbEntity
  8
0
  6
BYBLOCK
 62
     2
100
AcDbMText
 10
726.037368
 20
290.732199
 30
0.0
 40
3.0
 41
0.0
 71
     5
 72
     1
  1
MANIFOLD INSERTION POINT
  0
SOLID
  5
A4
100
AcDbEntity
  8
0
  6
BYBLOCK
 62
     4
100
AcDbTrace
 10
680.467784
 20
276.4684
 30
0.0
 11
681.308799
 21
275.927389
 31
0.0
 12
679.265259
 22
273.674848
 32
0.0
 13
679.265259
 23
273.674848
 33
0.0
  0
LINE
  5
A5
100
AcDbEntity
  8
0
  6
BYBLOCK
 62
     4
100
AcDbLine
 10
690.138952
 20
290.732199
 30
0.0
 11
693.138952
 21
290.732199
 31
0.0
  0
LINE
  5
A6
100
AcDbEntity
  8
0
  6
BYBLOCK
 62
     4
100
AcDbLine
 10
680.888291
 20
276.197895
 30
0.0
 11
690.138952
 21
290.732199
 31
0.0
  0
CIRCLE
  5
A7
100
AcDbEntity
  8
M04
100
AcDbCircle
 10
678.588995
 20
272.623579
 30
0.0
 40
1.25
  0
LINE
  5
A8
100
AcDbEntity
  8
M04
 48
0.7
100
AcDbLine
 10
671.588995
 20
252.623579
 30
0.0
 11
665.588995
 21
252.623579
 31
0.0
  0
LINE
  5
A9
100
AcDbEntity
  8
M04
 48
0.7
100
AcDbLine
 10
662.588995
 20
280.623579
 30
0.0
 11
630.938995
 21
280.623579
 31
0.0
  0
LINE
  5
AA
100
AcDbEntity
  8
M04
100
AcDbLine
 10
671.588995
 20
263.373579
 30
0.0
 11
671.588995
 21
246.275536
 31
0.0
  0
LINE
  5
AB
100
AcDbEntity
  8
M04
100
AcDbLine
 10
678.588995
 20
263.873579
 30
0.0
 11
678.588995
 21
246.364881
 31
0.0
  0
LINE
  5
AC
100
AcDbEntity
  8
M04
100
AcDbLine
 10
665.588995
 20
263.373579
 30
0.0
 11
665.588995
 21
252.623579
 31
0.0
  0
LINE
  5
AD
100
AcDbEntity
  8
M04
100
AcDbLine
 10
662.588995
 20
279.573579
 30
0.0
 11
662.588995
 21
411.541446
 31
0.0
  0
LINE
  5
AE
100
AcDbEntity
  8
M04
 48
0.7
100
AcDbLine
 10
678.588995
 20
298.373579
 30
0.0
 11
680.588995
 21
300.373579
 31
0.0
  0
ARC
  5
AF
100
AcDbEntity
  8
M04
 48
0.7
100
AcDbCircle
 10
673.588995
 20
305.373579
 30
0.0
 40
2.0
100
AcDbArc
 50
90.0
 51
180.0
  0
LINE
  5
B0
100
AcDbEntity
  8
M04
 48
0.7
100
AcDbLine
 10
673.588995
 20
307.373579
 30
0.0
 11
696.90593
 21
307.373579
 31
0.0
  0
LINE
  5
B1
100
AcDbEntity
  8
M04
 48
0.7
100
AcDbLine
 10
680.588995
 20
300.373579
 30
0.0
 11
696.90593
 21
300.373579
 31
0.0
  0
LINE
  5
B2
100
AcDbEntity
  8
M04
100
AcDbLine
 10
678.588995
 20
281.373579
 30
0.0
 11
678.588995
 21
298.373579
 31
0.0
  0
LINE
  5
B3
100
AcDbEntity
  8
M04
100
AcDbLine
 10
671.588995
 20
411.725036
 30
0.0
 11
671.588995
 21
281.873579
 31
0.0
  0
LINE
  5
B4
100
AcDbEntity
  8
M01
100
AcDbLine
 10
666.470923
 20
289.623579
 30
0.0
 11
668.470923
 21
289.623579
 31
0.0
  0
LINE
  5
B5
100
AcDbEntity
  8
M01
100
AcDbLine
 10
676.338995
 20
281.873579
 30
0.0
 11
678.088995
 21
281.873579
 31
0.0
  0
LINE
  5
B6
100
AcDbEntity
  8
M01
100
AcDbLine
 10
676.088995
 20
281.623579
 30
0.0
 11
676.338995
 21
281.873579
 31
0.0
  0
LINE
  5
B7
100
AcDbEntity
  8
M01
100
AcDbLine
 10
678.088995
 20
281.873579
 30
0.0
 11
678.588995
 21
281.373579
 31
0.0
  0
LINE
  5
B8
100
AcDbEntity
  8
M01
100
AcDbLine
 10
667.288995
 20
281.873579
 30
0.0
 11
672.588995
 21
281.873579
 31
0.0
  0
LINE
  5
B9
100
AcDbEntity
  8
M01
100
AcDbLine
 10
672.588995
 20
281.873579
 30
0.0
 11
673.483888
 21
280.323579
 31
0.0
  0
LINE
  5
BA
100
AcDbEntity
  8
M01
100
AcDbLine
 10
673.483888
 20
280.323579
 30
0.0
 11
676.088995
 21
280.323579
 31
0.0
  0
LINE
  5
BB
100
AcDbEntity
  8
M01
100
AcDbLine
 10
667.970923
 20
289.623579
 30
0.0
 11
667.970923
 21
281.873579
 31
0.0
  0
LINE
  5
BC
100
AcDbEntity
  8
M01
100
AcDbLine
 10
666.970923
 20
289.623579
 30
0.0
 11
666.970923
 21
282.123579
 31
0.0
  0
LINE
  5
BD
100
AcDbEntity
  8
M01
100
AcDbLine
 10
665.588995
 20
281.873579
 30
0.0
 11
665.838995
 21
282.123579
 31
0.0
  0
LINE
  5
BE
100
AcDbEntity
  8
M01
100
AcDbLine
 10
665.838995
 20
282.123579
 30
0.0
 11
667.288995
 21
282.123579
 31
0.0
  0
LINE
  5
BF
100
AcDbEntity
  8
M01
100
AcDbLine
 10
673.483888
 20
264.923579
 30
0.0
 11
676.088995
 21
264.923579
 31
0.0
  0
LINE
  5
C0
100
AcDbEntity
  8
M01
100
AcDbLine
 10
676.338995
 20
263.373579
 30
0.0
 11
678.088995
 21
263.373579
 31
0.0
  0
LINE
  5
C1
100
AcDbEntity
  8
M01
100
AcDbLine
 10
676.338995
 20
263.373579
 30
0.0
 11
676.088995
 21
263.623579
 31
0.0
  0
LINE
  5
C2
100
AcDbEntity
  8
M01
100
AcDbLine
 10
678.088995
 20
263.373579
 30
0.0
 11
678.588995
 21
263.873579
 31
0.0
  0
LINE
  5
C3
100
AcDbEntity
  8
M01
100
AcDbLine
 10
667.288995
 20
263.373579
 30
0.0
 11
672.588995
 21
263.373579
 31
0.0
  0
LINE
  5
C4
100
AcDbEntity
  8
M01
100
AcDbLine
 10
667.288995
 20
256.123579
 30
0.0
 11
670.288995
 21
256.123579
 31
0.0
  0
LINE
  5
C5
100
AcDbEntity
  8
M01
100
AcDbLine
 10
667.538995
 20
255.873579
 30
0.0
 11
670.038995
 21
255.873579
 31
0.0
  0
LINE
  5
C6
100
AcDbEntity
  8
M01
100
AcDbLine
 10
667.538995
 20
255.873579
 30
0.0
 11
667.288995
 21
256.123579
 31
0.0
  0
LINE
  5
C7
100
AcDbEntity
  8
M01
100
AcDbLine
 10
670.038995
 20
255.873579
 30
0.0
 11
670.288995
 21
256.123579
 31
0.0
  0
LINE
  5
C8
100
AcDbEntity
  8
M01
100
AcDbLine
 10
670.288995
 20
263.373579
 30
0.0
 11
670.288995
 21
256.123579
 31
0.0
  0
LINE
  5
C9
100
AcDbEntity
  8
M01
100
AcDbLine
 10
672.588995
 20
263.373579
 30
0.0
 11
673.483888
 21
264.923579
 31
0.0
  0
LINE
  5
CA
100
AcDbEntity
  8
M01
100
AcDbLine
 10
665.588995
 20
263.373579
 30
0.0
 11
665.838995
 21
263.123579
 31
0.0
  0
LINE
  5
CB
100
AcDbEntity
  8
M01
100
AcDbLine
 10
665.838995
 20
263.123579
 30
0.0
 11
667.288995
 21
263.123579
 31
0.0
  0
LINE
  5
CC
100
AcDbEntity
  8
M01
100
AcDbLine
 10
665.838995
 20
282.123579
 30
0.0
 11
665.838995
 21
263.123579
 31
0.0
  0
LINE
  5
CD
100
AcDbEntity
  8
M01
100
AcDbLine
 10
665.588995
 20
281.873579
 30
0.0
 11
665.588995
 21
263.373579
 31
0.0
  0
LINE
  5
CE
100
AcDbEntity
  8
M01
100
AcDbLine
 10
676.338995
 20
281.873579
 30
0.0
 11
676.338995
 21
263.373579
 31
0.0
  0
LINE
  5
CF
100
AcDbEntity
  8
M01
100
AcDbLine
 10
678.088995
 20
281.873579
 30
0.0
 11
678.088995
 21
263.373579
 31
0.0
  0
LINE
  5
D0
100
AcDbEntity
  8
M01
100
AcDbLine
 10
673.483888
 20
280.323579
 30
0.0
 11
673.483888
 21
264.923579
 31
0.0
  0
LINE
  5
D1
100
AcDbEntity
  8
M01
100
AcDbLine
 10
672.588995
 20
281.873579
 30
0.0
 11
672.588995
 21
263.373579
 31
0.0
  0
LINE
  5
D2
100
AcDbEntity
  8
M01
100
AcDbLine
 10
676.088995
 20
281.623579
 30
0.0
 11
676.088995
 21
263.623579
 31
0.0
  0
LINE
  5
D3
100
AcDbEntity
  8
M01
100
AcDbLine
 10
667.288995
 20
282.123579
 30
0.0
 11
667.288995
 21
256.123579
 31
0.0
  0
LINE
  5
D4
100
AcDbEntity
  8
M01
100
AcDbLine
 10
678.588995
 20
281.373579
 30
0.0
 11
678.588995
 21
263.873579
 31
0.0
  0
LINE
  5
D5
100
AcDbEntity
  8
M01
100
AcDbLine
 10
626.188995
 20
277.123579
 30
0.0
 11
627.938995
 21
277.123579
 31
0.0
  0
LINE
  5
D6
100
AcDbEntity
  8
M01
100
AcDbLine
 10
625.938995
 20
276.873579
 30
0.0
 11
626.188995
 21
277.123579
 31
0.0
  0
LINE
  5
D7
100
AcDbEntity
  8
M01
100
AcDbLine
 10
627.938995
 20
276.973579
 30
0.0
 11
628.938995
 21
276.973579
 31
0.0
  0
ARC
  5
D8
100
AcDbEntity
  8
M01
100
AcDbCircle
 10
630.438995
 20
278.073579
 30
0.0
 40
1.5
100
AcDbArc
 50
90.0
 51
180.0
  0
LINE
  5
D9
100
AcDbEntity
  8
M01
100
AcDbLine
 10
626.188995
 20
268.123579
 30
0.0
 11
627.938995
 21
268.123579
 31
0.0
  0
LINE
  5
DA
100
AcDbEntity
  8
M01
100
AcDbLine
 10
625.938995
 20
268.373579
 30
0.0
 11
626.188995
 21
268.123579
 31
0.0
  0
LINE
  5
DB
100
AcDbEntity
  8
M01
100
AcDbLine
 10
627.938995
 20
268.273579
 30
0.0
 11
628.938995
 21
268.273579
 31
0.0
  0
ARC
  5
DC
100
AcDbEntity
  8
M01
100
AcDbCircle
 10
630.438995
 20
267.173579
 30
0.0
 40
1.5
100
AcDbArc
 50
180.0
 51
270.0
  0
LINE
  5
DD
100
AcDbEntity
  8
M01
100
AcDbLine
 10
628.938995
 20
278.073579
 30
0.0
 11
628.938995
 21
267.173579
 31
0.0
  0
LINE
  5
DE
100
AcDbEntity
  8
M01
100
AcDbLine
 10
626.188995
 20
277.123579
 30
0.0
 11
626.188995
 21
268.123579
 31
0.0
  0
LINE
  5
DF
100
AcDbEntity
  8
M01
100
AcDbLine
 10
627.938995
 20
277.123579
 30
0.0
 11
627.938995
 21
268.123579
 31
0.0
  0
LINE
  5
E0
100
AcDbEntity
  8
M01
100
AcDbLine
 10
625.938995
 20
276.873579
 30
0.0
 11
625.938995
 21
268.373579
 31
0.0
  0
LINE
  5
E1
100
AcDbEntity
  8
CENTRE
 48
0.7
100
AcDbLine
 10
686.121422
 20
272.623579
 30
0.0
 11
612.35969
 21
272.623579
 31
0.0
  0
LINE
  5
E2
100
AcDbEntity
  8
M01
100
AcDbLine
 10
630.438995
 20
265.673579
 30
0.0
 11
665.588995
 21
265.673579
 31
0.0
  0
LINE
  5
E3
100
AcDbEntity
  8
M01
100
AcDbLine
 10
630.438995
 20
279.573579
 30
0.0
 11
665.588995
 21
279.573579
 31
0.0
  0
TEXT
  5
E4
100
AcDbEntity
  8
TEXT
100
AcDbText
 10
390.55202
 20
212.934373
 30
0.0
 40
3.0
  1
MATERIAL TO BE MOULDED AND THE PROCESS CONDITIONS - SEE CATALOGUE FOR DETAILS
100
AcDbText
  0
TEXT
  5
E5
100
AcDbEntity
  8
TEXT
100
AcDbText
 10
390.675679
 20
218.244803
 30
0.0
 40
3.0
  1
AN ALLOWANCE FOR EXPANSION OF THE BUSHING MUST BE MADE DEPENDENT ON THE
100
AcDbText
  0
TEXT
  5
E6
100
AcDbEntity
  8
TEXT
100
AcDbText
 10
410.248981
 20
226.684873
 30
0.0
 40
4.0
  1
%%UNOTE
100
AcDbText
  0
ENDSEC
  0
SECTION
  2
OBJECTS
  0
DICTIONARY
  5
1C
100
AcDbDictionary
  3
ACAD_GROUP
350
1A
  3
ACAD_MLINESTYLE
350
1B
  0
DICTIONARY
  5
3
100
AcDbDictionary
280
     1
  3
ACAD_SORTENTS
360
4
  0
DICTIONARY
  5
1A
102
{ACAD_REACTORS
330
1C
102
}
100
AcDbDictionary
  0
DICTIONARY
  5
1B
102
{ACAD_REACTORS
330
1C
102
}
100
AcDbDictionary
  3
STANDARD
350
1E
  0
SORTENTSTABLE
  5
4
102
{ACAD_REACTORS
330
3
102
}
100
AcDbSortentsTable
330
2
  0
MLINESTYLE
  5
1E
102
{ACAD_REACTORS
330
1B
102
}
100
AcDbMlineStyle
  2
STANDARD
 70
     0
  3

 62
   256
 51
90.0
 52
90.0
 71
     2
 49
0.5
 62
   256
  6
BYLAYER
 49
-0.5
 62
   256
  6
BYLAYER
  0
ENDSEC
  0
EOF
