  0
SECTION
  2
HEADER
  9
$ACADVER
  1
AC1015
  9
$ACADMAINTVER
 70
    13
  9
$DWGCODEPAGE
  3
ANSI_1252
  9
$INSBASE
 10
0.0
 20
0.0
 30
0.0
  9
$EXTMIN
 10
14.28611978801349
 20
106.7008577489091
 30
0.0
  9
$EXTMAX
 10
148.969023627951
 20
204.4079600852934
 30
0.0
  9
$LIMMIN
 10
0.0
 20
0.0
  9
$LIMMAX
 10
200.0
 20
300.0
  9
$ORTHOMODE
 70
     0
  9
$REGENMODE
 70
     1
  9
$FILLMODE
 70
     1
  9
$QTEXTMODE
 70
     0
  9
$MIRRTEXT
 70
     1
  9
$LTSCALE
 40
1.01010101010101
  9
$ATTMODE
 70
     1
  9
$TEXTSIZE
 40
2.525252525252525
  9
$TRACEWID
 40
1.0
  9
$TEXTSTYLE
  7
STANDARD
  9
$CLAYER
  8
HIDDEN
  9
$CELTYPE
  6
BYLAYER
  9
$CECOLOR
 62
     6
  9
$CELTSCALE
 40
1.0
  9
$DISPSILH
 70
     0
  9
$DIMSCALE
 40
1.01010101010101
  9
$DIMASZ
 40
2.5
  9
$DIMEXO
 40
0.625
  9
$DIMDLI
 40
3.75
  9
$DIMRND
 40
0.0
  9
$DIMDLE
 40
0.0
  9
$DIMEXE
 40
1.25
  9
$DIMTP
 40
0.0
  9
$DIMTM
 40
0.0
  9
$DIMTXT
 40
2.5
  9
$DIMCEN
 40
2.5
  9
$DIMTSZ
 40
0.0
  9
$DIMTOL
 70
     0
  9
$DIMLIM
 70
     0
  9
$DIMTIH
 70
     0
  9
$DIMTOH
 70
     0
  9
$DIMSE1
 70
     0
  9
$DIMSE2
 70
     0
  9
$DIMTAD
 70
     1
  9
$DIMZIN
 70
     8
  9
$DIMBLK
  1

  9
$DIMASO
 70
     1
  9
$DIMSHO
 70
     1
  9
$DIMPOST
  1

  9
$DIMAPOST
  1

  9
$DIMALT
 70
     0
  9
$DIMALTD
 70
     4
  9
$DIMALTF
 40
0.0394
  9
$DIMLFAC
 40
1.0
  9
$DIMTOFL
 70
     1
  9
$DIMTVP
 40
0.0
  9
$DIMTIX
 70
     0
  9
$DIMSOXD
 70
     0
  9
$DIMSAH
 70
     0
  9
$DIMBLK1
  1

  9
$DIMBLK2
  1

  9
$DIMSTYLE
  2
STANDARD_WS
  9
$DIMCLRD
 70
     0
  9
$DIMCLRE
 70
     0
  9
$DIMCLRT
 70
     0
  9
$DIMTFAC
 40
1.0
  9
$DIMGAP
 40
0.625
  9
$DIMJUST
 70
     0
  9
$DIMSD1
 70
     0
  9
$DIMSD2
 70
     0
  9
$DIMTOLJ
 70
     1
  9
$DIMTZIN
 70
     0
  9
$DIMALTZ
 70
     0
  9
$DIMALTTZ
 70
     0
  9
$DIMUPT
 70
     0
  9
$DIMDEC
 70
     4
  9
$DIMTDEC
 70
     4
  9
$DIMALTU
 70
     8
  9
$DIMALTTD
 70
     4
  9
$DIMTXSTY
  7
STANDARD
  9
$DIMAUNIT
 70
     0
  9
$DIMADEC
 70
     0
  9
$DIMALTRND
 40
0.0
  9
$DIMAZIN
 70
     0
  9
$DIMDSEP
 70
    46
  9
$DIMATFIT
 70
     3
  9
$DIMFRAC
 70
     0
  9
$DIMLDRBLK
  1

  9
$DIMLUNIT
 70
     2
  9
$DIMLWD
 70
    -2
  9
$DIMLWE
 70
    -2
  9
$DIMTMOVE
 70
     0
  9
$LUNITS
 70
     2
  9
$LUPREC
 70
     2
  9
$SKETCHINC
 40
1.0
  9
$FILLETRAD
 40
1.0
  9
$AUNITS
 70
     0
  9
$AUPREC
 70
     2
  9
$MENU
  1
acad
  9
$ELEVATION
 40
0.0
  9
$PELEVATION
 40
0.0
  9
$THICKNESS
 40
0.0
  9
$LIMCHECK
 70
     0
  9
$CHAMFERA
 40
1.0
  9
$CHAMFERB
 40
1.0
  9
$CHAMFERC
 40
20.2020202020202
  9
$CHAMFERD
 40
0.0
  9
$SKPOLY
 70
     0
  9
$TDCREATE
 40
2451277.314853819
  9
$TDUCREATE
 40
2451277.314853819
  9
$TDUPDATE
 40
2455244.541002558
  9
$TDUUPDATE
 40
2455244.541002558
  9
$TDINDWG
 40
1.6931478588
  9
$TDUSRTIMER
 40
1.6931478588
  9
$USRTIMER
 70
     1
  9
$ANGBASE
 50
0.0
  9
$ANGDIR
 70
     0
  9
$PDMODE
 70
     0
  9
$PDSIZE
 40
0.0
  9
$PLINEWID
 40
0.0
  9
$SPLFRAME
 70
     0
  9
$SPLINETYPE
 70
     6
  9
$SPLINESEGS
 70
     8
  9
$HANDSEED
  5
147A
  9
$SURFTAB1
 70
     6
  9
$SURFTAB2
 70
     6
  9
$SURFTYPE
 70
     6
  9
$SURFU
 70
     6
  9
$SURFV
 70
     6
  9
$UCSBASE
  2

  9
$UCSNAME
  2

  9
$UCSORG
 10
0.0
 20
0.0
 30
0.0
  9
$UCSXDIR
 10
1.0
 20
0.0
 30
0.0
  9
$UCSYDIR
 10
0.0
 20
1.0
 30
0.0
  9
$UCSORTHOREF
  2

  9
$UCSORTHOVIEW
 70
     0
  9
$UCSORGTOP
 10
0.0
 20
0.0
 30
0.0
  9
$UCSORGBOTTOM
 10
0.0
 20
0.0
 30
0.0
  9
$UCSORGLEFT
 10
0.0
 20
0.0
 30
0.0
  9
$UCSORGRIGHT
 10
0.0
 20
0.0
 30
0.0
  9
$UCSORGFRONT
 10
0.0
 20
0.0
 30
0.0
  9
$UCSORGBACK
 10
0.0
 20
0.0
 30
0.0
  9
$PUCSBASE
  2

  9
$PUCSNAME
  2

  9
$PUCSORG
 10
0.0
 20
0.0
 30
0.0
  9
$PUCSXDIR
 10
1.0
 20
0.0
 30
0.0
  9
$PUCSYDIR
 10
0.0
 20
1.0
 30
0.0
  9
$PUCSORTHOREF
  2

  9
$PUCSORTHOVIEW
 70
     0
  9
$PUCSORGTOP
 10
0.0
 20
0.0
 30
0.0
  9
$PUCSORGBOTTOM
 10
0.0
 20
0.0
 30
0.0
  9
$PUCSORGLEFT
 10
0.0
 20
0.0
 30
0.0
  9
$PUCSORGRIGHT
 10
0.0
 20
0.0
 30
0.0
  9
$PUCSORGFRONT
 10
0.0
 20
0.0
 30
0.0
  9
$PUCSORGBACK
 10
0.0
 20
0.0
 30
0.0
  9
$USERI1
 70
     0
  9
$USERI2
 70
     0
  9
$USERI3
 70
     0
  9
$USERI4
 70
     0
  9
$USERI5
 70
     0
  9
$USERR1
 40
0.0
  9
$USERR2
 40
0.0
  9
$USERR3
 40
0.0
  9
$USERR4
 40
0.0
  9
$USERR5
 40
0.0
  9
$WORLDVIEW
 70
     1
  9
$SHADEDGE
 70
     3
  9
$SHADEDIF
 70
    70
  9
$TILEMODE
 70
     1
  9
$MAXACTVP
 70
    48
  9
$PINSBASE
 10
0.0
 20
0.0
 30
0.0
  9
$PLIMCHECK
 70
     0
  9
$PEXTMIN
 10
1.000000000000000E+20
 20
1.000000000000000E+20
 30
1.000000000000000E+20
  9
$PEXTMAX
 10
-1.000000000000000E+20
 20
-1.000000000000000E+20
 30
-1.000000000000000E+20
  9
$PLIMMIN
 10
0.0
 20
0.0
  9
$PLIMMAX
 10
420.0
 20
297.0
  9
$UNITMODE
 70
     0
  9
$VISRETAIN
 70
     1
  9
$PLINEGEN
 70
     0
  9
$PSLTSCALE
 70
     1
  9
$TREEDEPTH
 70
  3020
  9
$CMLSTYLE
  2
STANDARD
  9
$CMLJUST
 70
     0
  9
$CMLSCALE
 40
20.0
  9
$PROXYGRAPHICS
 70
     1
  9
$MEASUREMENT
 70
     0
  9
$CELWEIGHT
370
    -1
  9
$ENDCAPS
280
     0
  9
$JOINSTYLE
280
     0
  9
$LWDISPLAY
290
     0
  9
$INSUNITS
 70
     0
  9
$HYPERLINKBASE
  1

  9
$STYLESHEET
  1

  9
$XEDIT
290
     1
  9
$CEPSNTYPE
380
     0
  9
$PSTYLEMODE
290
     1
  9
$FINGERPRINTGUID
  2
{671521E0-98AD-11D5-A398-000021D5649D}
  9
$VERSIONGUID
  2
{CE874277-A6D2-4FFE-993E-F16F5B57ECE3}
  9
$EXTNAMES
290
     1
  9
$PSVPSCALE
 40
0.0
  9
$OLESTARTUP
290
     0
  0
ENDSEC
  0
SECTION
  2
CLASSES
  0
CLASS
  1
DICTIONARYVAR
  2
AcDbDictionaryVar
  3
AutoCAD 2000
 90
        0
280
     0
281
     0
  0
CLASS
  1
HATCH
  2
AcDbHatch
  3
AutoCAD 2000
 90
    32768
280
     0
281
     1
  0
CLASS
  1
IDBUFFER
  2
AcDbIdBuffer
  3
AutoCAD 2000
 90
    32768
280
     0
281
     0
  0
CLASS
  1
ACDBDICTIONARYWDFLT
  2
AcDbDictionaryWithDefault
  3
AutoCAD 2000
 90
        0
280
     0
281
     0
  0
CLASS
  1
ACDBPLACEHOLDER
  2
AcDbPlaceHolder
  3
AutoCAD 2000
 90
        0
280
     0
281
     0
  0
CLASS
  1
LAYOUT
  2
AcDbLayout
  3
AutoCAD 2000
 90
        0
280
     0
281
     0
  0
ENDSEC
  0
SECTION
  2
TABLES
  0
TABLE
  2
VPORT
  5
8
330
0
100
AcDbSymbolTable
 70
     2
  0
VPORT
  5
1479
330
8
100
AcDbSymbolTableRecord
100
AcDbViewportTableRecord
  2
*Active
 70
     0
 10
0.0
 20
0.0
 11
1.0
 21
1.0
 12
148.9940804462576
 22
190.5452999904477
 13
0.0
 23
0.0
 14
1.0
 24
1.0
 15
5.0
 25
5.0
 16
0.0
 26
0.0
 36
1.0
 17
0.0
 27
0.0
 37
0.0
 40
168.1431608788093
 41
2.301966292134831
 42
50.0
 43
0.0
 44
0.0
 50
0.0
 51
0.0
 71
     0
 72
   100
 73
     1
 74
     1
 75
     0
 76
     0
 77
     0
 78
     0
281
     0
 65
     1
110
0.0
120
0.0
130
0.0
111
1.0
121
0.0
131
0.0
112
0.0
122
1.0
132
0.0
 79
     0
146
0.0
  0
ENDTAB
  0
TABLE
  2
LTYPE
  5
5
330
0
100
AcDbSymbolTable
 70
     3
  0
LTYPE
  5
12
330
5
100
AcDbSymbolTableRecord
100
AcDbLinetypeTableRecord
  2
BYBLOCK
 70
     0
  3

 72
    65
 73
     0
 40
0.0
  0
LTYPE
  5
13
330
5
100
AcDbSymbolTableRecord
100
AcDbLinetypeTableRecord
  2
BYLAYER
 70
     0
  3

 72
    65
 73
     0
 40
0.0
  0
LTYPE
  5
14
330
5
100
AcDbSymbolTableRecord
100
AcDbLinetypeTableRecord
  2
CONTINUOUS
 70
     0
  3
Solid line
 72
    65
 73
     0
 40
0.0
  0
LTYPE
  5
43
330
5
100
AcDbSymbolTableRecord
100
AcDbLinetypeTableRecord
  2
CENTER2
 70
     0
  3
Center (.5x) ___ _ ___ _ ___ _ ___ _ ___ _ ___
 72
    65
 73
     4
 40
28.57499999999999
 49
19.05
 74
     0
 49
-3.174999999999999
 74
     0
 49
3.174999999999999
 74
     0
 49
-3.174999999999999
 74
     0
  0
LTYPE
  5
44
330
5
100
AcDbSymbolTableRecord
100
AcDbLinetypeTableRecord
  2
HIDDEN2
 70
     0
  3
Hidden (.5x) _ _ _ _ _ _ _ _ _ _ _ _ _ _ _ _ _
 72
    65
 73
     2
 40
4.762499999999999
 49
3.174999999999999
 74
     0
 49
-1.587499999999999
 74
     0
  0
ENDTAB
  0
TABLE
  2
LAYER
  5
2
330
0
100
AcDbSymbolTable
 70
     7
  0
LAYER
  5
E
330
2
100
AcDbSymbolTableRecord
100
AcDbLayerTableRecord
  2
0
 70
     0
 62
     7
  6
CONTINUOUS
370
    -3
390
D9D
  0
LAYER
  5
45
330
2
100
AcDbSymbolTableRecord
100
AcDbLayerTableRecord
  2
CENTRE
 70
     0
 62
     1
  6
CENTER2
370
    -3
390
D9D
  0
LAYER
  5
46
330
2
100
AcDbSymbolTableRecord
100
AcDbLayerTableRecord
  2
OBJECTS
 70
     0
 62
     5
  6
CONTINUOUS
370
    -3
390
D9D
  0
LAYER
  5
47
330
2
100
AcDbSymbolTableRecord
100
AcDbLayerTableRecord
  2
DIMS
 70
     0
 62
     6
  6
CONTINUOUS
370
    -3
390
D9D
  0
LAYER
  5
48
330
2
100
AcDbSymbolTableRecord
100
AcDbLayerTableRecord
  2
TEXT
 70
     0
 62
     4
  6
CONTINUOUS
370
    -3
390
D9D
  0
LAYER
  5
49
330
2
100
AcDbSymbolTableRecord
100
AcDbLayerTableRecord
  2
HIDDEN
 70
     0
 62
     3
  6
HIDDEN2
370
    -3
390
D9D
  0
LAYER
  5
8D
330
2
100
AcDbSymbolTableRecord
100
AcDbLayerTableRecord
  2
DEFPOINTS
 70
     0
 62
     7
  6
CONTINUOUS
290
     0
370
    -3
390
D9D
  0
ENDTAB
  0
TABLE
  2
STYLE
  5
3
330
0
100
AcDbSymbolTable
 70
     2
  0
STYLE
  5
F
330
3
100
AcDbSymbolTableRecord
100
AcDbTextStyleTableRecord
  2
STANDARD
 70
     0
 40
0.0
 41
1.0
 50
0.0
 71
     0
 42
2.525252525252525
  3
txt
  4

  0
STYLE
  5
42
330
3
100
AcDbSymbolTableRecord
100
AcDbTextStyleTableRecord
  2

 70
     1
 40
0.0
 41
1.0
 50
0.0
 71
     0
 42
2.525252525252525
  3
ltypeshp.shx
  4

  0
ENDTAB
  0
TABLE
  2
VIEW
  5
6
330
0
100
AcDbSymbolTable
 70
     0
  0
ENDTAB
  0
TABLE
  2
UCS
  5
7
330
0
100
AcDbSymbolTable
 70
     0
  0
ENDTAB
  0
TABLE
  2
APPID
  5
9
330
0
100
AcDbSymbolTable
 70
     5
  0
APPID
  5
10
330
9
100
AcDbSymbolTableRecord
100
AcDbRegAppTableRecord
  2
ACAD
 70
     0
  0
APPID
  5
24
330
9
100
AcDbSymbolTableRecord
100
AcDbRegAppTableRecord
  2
CONTENTTABDATA
 70
     0
  0
APPID
  5
25
330
9
100
AcDbSymbolTableRecord
100
AcDbRegAppTableRecord
  2
CONTENTCURRENTTAB
 70
     0
  0
APPID
  5
F8
330
9
100
AcDbSymbolTableRecord
100
AcDbRegAppTableRecord
  2
DRAWINGVARIABLESXDATA
 70
     0
  0
APPID
  5
447
330
9
100
AcDbSymbolTableRecord
100
AcDbRegAppTableRecord
  2
CONTENTBLOCKDESCRIPTION
 70
     0
  0
ENDTAB
  0
TABLE
  2
DIMSTYLE
  5
A
330
0
100
AcDbSymbolTable
 70
     2
100
AcDbDimStyleTable
 71
     1
340
3E
  0
DIMSTYLE
105
1D
330
A
100
AcDbSymbolTableRecord
100
AcDbDimStyleTableRecord
  2
STANDARD
 70
     0
340
F
  0
DIMSTYLE
105
3E
330
A
100
AcDbSymbolTableRecord
100
AcDbDimStyleTableRecord
  2
STANDARD_WS
 70
     0
 40
1.01010101010101
 41
2.5
 42
0.625
 43
3.75
 44
1.25
 73
     0
 74
     0
 77
     1
 78
     8
140
2.5
141
2.5
143
0.0394
147
0.625
171
     4
172
     1
273
     8
274
     4
340
F
  0
ENDTAB
  0
TABLE
  2
BLOCK_RECORD
  5
1
330
0
100
AcDbSymbolTable
 70
     5
  0
BLOCK_RECORD
  5
18
330
1
100
AcDbSymbolTableRecord
100
AcDbBlockTableRecord
  2
*MODEL_SPACE
340
DA0
  0
BLOCK_RECORD
  5
15
330
1
100
AcDbSymbolTableRecord
100
AcDbBlockTableRecord
  2
*PAPER_SPACE
340
DA1
  0
BLOCK_RECORD
  5
3AF
330
1
100
AcDbSymbolTableRecord
100
AcDbBlockTableRecord
  2
*D0
340
0
  0
BLOCK_RECORD
  5
3BB
330
1
100
AcDbSymbolTableRecord
100
AcDbBlockTableRecord
  2
*D1
340
0
  0
BLOCK_RECORD
  5
3C7
330
1
100
AcDbSymbolTableRecord
100
AcDbBlockTableRecord
  2
*D2
340
0
  0
BLOCK_RECORD
  5
3D3
330
1
100
AcDbSymbolTableRecord
100
AcDbBlockTableRecord
  2
*D3
340
0
  0
BLOCK_RECORD
  5
3DF
330
1
100
AcDbSymbolTableRecord
100
AcDbBlockTableRecord
  2
MINIFOLD-PCD30PLAN-MICROPOINT
340
0
  0
ENDTAB
  0
ENDSEC
  0
SECTION
  2
BLOCKS
  0
BLOCK
  5
19
330
18
100
AcDbEntity
  8
0
100
AcDbBlockBegin
  2
*MODEL_SPACE
 70
     0
 10
0.0
 20
0.0
 30
0.0
  3
*MODEL_SPACE
  1

  0
ENDBLK
  5
1A
330
18
100
AcDbEntity
  8
0
100
AcDbBlockEnd
  0
BLOCK
  5
16
330
15
100
AcDbEntity
 67
     1
  8
0
100
AcDbBlockBegin
  2
*PAPER_SPACE
 70
     0
 10
0.0
 20
0.0
 30
0.0
  3
*PAPER_SPACE
  1

  0
ENDBLK
  5
17
330
15
100
AcDbEntity
 67
     1
  8
0
100
AcDbBlockEnd
  0
BLOCK
  5
3B9
330
3AF
100
AcDbEntity
  8
0
100
AcDbBlockBegin
  2
*D0
 70
     1
 10
0.0
 20
0.0
 30
0.0
  3
*D0
  1

  0
LINE
  5
3B0
330
3AF
100
AcDbEntity
  8
0
  6
ByBlock
 62
     0
100
AcDbLine
 10
85.0
 20
199.3686868686868
 30
0.0
 11
85.0
 21
141.9823089807666
 31
0.0
  0
LINE
  5
3B1
330
3AF
100
AcDbEntity
  8
0
  6
ByBlock
 62
     0
100
AcDbLine
 10
115.0
 20
199.3686868686868
 30
0.0
 11
115.0
 21
141.9823089807666
 31
0.0
  0
LINE
  5
3B2
330
3AF
100
AcDbEntity
  8
0
  6
ByBlock
 62
     0
100
AcDbLine
 10
87.52525252525252
 20
143.2449352433929
 30
0.0
 11
112.4747474747474
 21
143.2449352433929
 31
0.0
  0
SOLID
  5
3B3
330
3AF
100
AcDbEntity
  8
0
  6
ByBlock
 62
     0
100
AcDbTrace
 10
87.52525252525252
 20
143.6658106642683
 30
0.0
 11
87.52525252525252
 21
142.8240598225174
 31
0.0
 12
85.0
 22
143.2449352433929
 32
0.0
 13
85.0
 23
143.2449352433929
 33
0.0
  0
SOLID
  5
3B4
330
3AF
100
AcDbEntity
  8
0
  6
ByBlock
 62
     0
100
AcDbTrace
 10
112.4747474747474
 20
143.6658106642683
 30
0.0
 11
112.4747474747474
 21
142.8240598225174
 31
0.0
 12
115.0
 22
143.2449352433929
 32
0.0
 13
115.0
 23
143.2449352433929
 33
0.0
  0
MTEXT
  5
3B5
330
3AF
100
AcDbEntity
  8
0
  6
ByBlock
 62
     0
100
AcDbMText
 10
100.0
 20
145.1388746373323
 30
0.0
 40
2.525252525252525
 41
0.0
 71
     5
 72
     1
  1
\A1;30
 73
     1
 44
1.0
  0
POINT
  5
3B6
330
3AF
100
AcDbEntity
  8
DEFPOINTS
  6
ByBlock
 62
     0
100
AcDbPoint
 10
85.0
 20
200.0
 30
0.0
  0
POINT
  5
3B7
330
3AF
100
AcDbEntity
  8
DEFPOINTS
  6
ByBlock
 62
     0
100
AcDbPoint
 10
115.0
 20
200.0
 30
0.0
  0
POINT
  5
3B8
330
3AF
100
AcDbEntity
  8
DEFPOINTS
  6
ByBlock
 62
     0
100
AcDbPoint
 10
115.0
 20
143.2449352433929
 30
0.0
  0
ENDBLK
  5
3BA
330
3AF
100
AcDbEntity
  8
0
100
AcDbBlockEnd
  0
BLOCK
  5
3C5
330
3BB
100
AcDbEntity
  8
0
100
AcDbBlockBegin
  2
*D1
 70
     1
 10
0.0
 20
0.0
 30
0.0
  3
*D1
  1

  0
LINE
  5
3BC
330
3BB
100
AcDbEntity
  8
0
  6
ByBlock
 62
     0
100
AcDbLine
 10
80.95
 20
199.3686868686868
 30
0.0
 11
80.95
 21
133.7043243667658
 31
0.0
  0
LINE
  5
3BD
330
3BB
100
AcDbEntity
  8
0
  6
ByBlock
 62
     0
100
AcDbLine
 10
119.0499999999999
 20
199.3686868686868
 30
0.0
 11
119.0499999999999
 21
133.7043243667658
 31
0.0
  0
LINE
  5
3BE
330
3BB
100
AcDbEntity
  8
0
  6
ByBlock
 62
     0
100
AcDbLine
 10
83.47525252525253
 20
134.9669506293921
 30
0.0
 11
116.5247474747474
 21
134.9669506293921
 31
0.0
  0
SOLID
  5
3BF
330
3BB
100
AcDbEntity
  8
0
  6
ByBlock
 62
     0
100
AcDbTrace
 10
83.47525252525253
 20
135.3878260502676
 30
0.0
 11
83.47525252525253
 21
134.5460752085167
 31
0.0
 12
80.95
 22
134.9669506293921
 32
0.0
 13
80.95
 23
134.9669506293921
 33
0.0
  0
SOLID
  5
3C0
330
3BB
100
AcDbEntity
  8
0
  6
ByBlock
 62
     0
100
AcDbTrace
 10
116.5247474747474
 20
135.3878260502676
 30
0.0
 11
116.5247474747474
 21
134.5460752085167
 31
0.0
 12
119.0499999999999
 22
134.9669506293921
 32
0.0
 13
119.0499999999999
 23
134.9669506293921
 33
0.0
  0
MTEXT
  5
3C1
330
3BB
100
AcDbEntity
  8
0
  6
ByBlock
 62
     0
100
AcDbMText
 10
100.0
 20
136.8608900233315
 30
0.0
 40
2.525252525252525
 41
0.0
 71
     5
 72
     1
  1
\A1;38.1
 73
     1
 44
1.0
  0
POINT
  5
3C2
330
3BB
100
AcDbEntity
  8
DEFPOINTS
  6
ByBlock
 62
     0
100
AcDbPoint
 10
80.95
 20
200.0
 30
0.0
  0
POINT
  5
3C3
330
3BB
100
AcDbEntity
  8
DEFPOINTS
  6
ByBlock
 62
     0
100
AcDbPoint
 10
119.0499999999999
 20
200.0
 30
0.0
  0
POINT
  5
3C4
330
3BB
100
AcDbEntity
  8
DEFPOINTS
  6
ByBlock
 62
     0
100
AcDbPoint
 10
119.0499999999999
 20
134.9669506293921
 30
0.0
  0
ENDBLK
  5
3C6
330
3BB
100
AcDbEntity
  8
0
100
AcDbBlockEnd
  0
BLOCK
  5
3D1
330
3C7
100
AcDbEntity
  8
0
100
AcDbBlockBegin
  2
*D2
 70
     1
 10
0.0
 20
0.0
 30
0.0
  3
*D2
  1

  0
LINE
  5
3C8
330
3C7
100
AcDbEntity
  8
0
  6
ByBlock
 62
     0
100
AcDbLine
 10
69.0
 20
199.3686868686868
 30
0.0
 11
69.0
 21
125.7467648672864
 31
0.0
  0
LINE
  5
3C9
330
3C7
100
AcDbEntity
  8
0
  6
ByBlock
 62
     0
100
AcDbLine
 10
131.0
 20
199.3686868686868
 30
0.0
 11
131.0
 21
125.7467648672864
 31
0.0
  0
LINE
  5
3CA
330
3C7
100
AcDbEntity
  8
0
  6
ByBlock
 62
     0
100
AcDbLine
 39
1.0
 10
71.52525252525252
 20
-1655.313438415542
 30
1.0
 11
1.0
 21
0.0
 31
0.0
  0
SOLID
  5
3CB
330
3C7
100
AcDbEntity
  8
0
  6
ByBlock
 62
     0
100
AcDbTrace
 10
71.52525252525252
 20
127.4302665507881
 30
0.0
 11
71.52525252525252
 21
126.5885157090373
 31
0.0
 12
69.0
 22
127.0093911299127
 32
0.0
 13
69.0
 23
127.0093911299127
 33
0.0
  0
SOLID
  5
3CC
330
3C7
100
AcDbEntity
  8
0
  6
ByBlock
 62
     0
100
AcDbTrace
 10
128.4747474747474
 20
127.4302665507881
 30
0.0
 11
128.4747474747474
 21
126.5885157090373
 31
0.0
 12
131.0
 22
127.0093911299127
 32
0.0
 13
131.0
 23
127.0093911299127
 33
0.0
  0
MTEXT
  5
3CD
330
3C7
100
AcDbEntity
  8
0
  6
ByBlock
 62
     0
100
AcDbMText
 10
100.0
 20
128.9033305238521
 30
0.0
 40
2.525252525252525
 41
0.0
 71
     5
 72
     1
  1
\A1;62
 73
     1
 44
1.0
  0
POINT
  5
3CE
330
3C7
100
AcDbEntity
  8
DEFPOINTS
  6
ByBlock
 62
     0
100
AcDbPoint
 10
69.0
 20
200.0
 30
0.0
  0
POINT
  5
3CF
330
3C7
100
AcDbEntity
  8
DEFPOINTS
  6
ByBlock
 62
     0
100
AcDbPoint
 10
131.0
 20
200.0
 30
0.0
  0
POINT
  5
3D0
330
3C7
100
AcDbEntity
  8
DEFPOINTS
  6
ByBlock
 62
     0
100
AcDbPoint
 10
131.0
 20
127.0093911299127
 30
0.0
  0
ENDBLK
  5
3D2
330
3C7
100
AcDbEntity
  8
0
100
AcDbBlockEnd
  0
BLOCK
  5
3DD
330
3D3
100
AcDbEntity
  8
0
100
AcDbBlockBegin
  2
*D3
 70
     1
 10
0.0
 20
0.0
 30
0.0
  3
*D3
  1

  0
LINE
  5
3D4
330
3D3
100
AcDbEntity
  8
0
  6
ByBlock
 62
     0
100
AcDbLine
 10
62.5
 20
199.3686868686868
 30
0.0
 11
62.5
 21
117.2710221239738
 31
0.0
  0
LINE
  5
3D5
330
3D3
100
AcDbEntity
  8
0
  6
ByBlock
 62
     0
100
AcDbLine
 10
137.5
 20
199.3686868686868
 30
0.0
 11
137.5
 21
117.2710221239738
 31
0.0
  0
LINE
  5
3D6
330
3D3
100
AcDbEntity
  8
0
  6
ByBlock
 62
     0
100
AcDbLine
 10
65.02525252525251
 20
118.5336483866001
 30
0.0
 11
134.9747474747474
 21
118.5336483866001
 31
0.0
  0
SOLID
  5
3D7
330
3D3
100
AcDbEntity
  8
0
  6
ByBlock
 62
     0
100
AcDbTrace
 10
65.02525252525251
 20
118.9545238074755
 30
0.0
 11
65.02525252525251
 21
118.1127729657247
 31
0.0
 12
62.5
 22
118.5336483866001
 32
0.0
 13
62.5
 23
118.5336483866001
 33
0.0
  0
SOLID
  5
3D8
330
3D3
100
AcDbEntity
  8
0
  6
ByBlock
 62
     0
100
AcDbTrace
 10
134.9747474747474
 20
118.9545238074755
 30
0.0
 11
134.9747474747474
 21
118.1127729657247
 31
0.0
 12
137.5
 22
118.5336483866001
 32
0.0
 13
137.5
 23
118.5336483866001
 33
0.0
  0
MTEXT
  5
3D9
330
3D3
100
AcDbEntity
  8
0
  6
ByBlock
 62
     0
100
AcDbMText
 10
100.0
 20
120.4275877805395
 30
0.0
 40
2.525252525252525
 41
0.0
 71
     5
 72
     1
  1
\A1;75
 73
     1
 44
1.0
  0
POINT
  5
3DA
330
3D3
100
AcDbEntity
  8
DEFPOINTS
  6
ByBlock
 62
     0
100
AcDbPoint
 10
62.5
 20
200.0
 30
0.0
  0
POINT
  5
3DB
330
3D3
100
AcDbEntity
  8
DEFPOINTS
  6
ByBlock
 62
     0
100
AcDbPoint
 10
137.5
 20
200.0
 30
0.0
  0
POINT
  5
3DC
330
3D3
100
AcDbEntity
  8
DEFPOINTS
  6
ByBlock
 62
     0
100
AcDbPoint
 10
137.5
 20
118.5336483866001
 30
0.0
  0
ENDBLK
  5
3DE
330
3D3
100
AcDbEntity
  8
0
100
AcDbBlockEnd
  0
BLOCK
  5
444
330
3DF
100
AcDbEntity
  8
0
100
AcDbBlockBegin
  2
MINIFOLD-PCD30PLAN-MICROPOINT
 70
     0
 10
0.0
 20
0.0
 30
0.0
  3
MINIFOLD-PCD30PLAN-MICROPOINT
  1

  0
LINE
  5
3E0
102
{ACAD_REACTORS
330
41D
330
41E
102
}
330
3DF
100
AcDbEntity
  8
CENTRE
100
AcDbLine
 10
10.0
 20
200.0
 30
0.0
 11
190.0
 21
200.0
 31
0.0
  0
HATCH
  5
3E1
330
3DF
100
AcDbEntity
  8
OBJECTS
100
AcDbHatch
 10
0.0
 20
0.0
 30
0.0
210
0.0
220
0.0
230
1.0
  2
SOLID
 70
     1
 71
     0
 91
        1
 92
        7
 72
     0
 73
     1
 93
        4
 10
282.6122870058458
 20
424.0833944111825
 10
278.4122870058457
 20
424.0833944111825
 10
278.4122870058457
 20
421.8833944111825
 10
282.6122870058458
 20
421.8833944111825
 97
        0
 75
     0
 76
     1
 47
0.1591511934913814
 98
        1
 10
280.8017243820447
 20
422.9259400548857
  0
LINE
  5
3E2
330
3DF
100
AcDbEntity
  8
OBJECTS
100
AcDbLine
 10
5.0
 20
295.0
 30
0.0
 11
195.0
 21
295.0
 31
0.0
  0
LINE
  5
3E3
330
3DF
100
AcDbEntity
  8
OBJECTS
100
AcDbLine
 10
195.0
 20
295.0
 30
0.0
 11
195.0
 21
5.0
 31
0.0
  0
LINE
  5
3E4
330
3DF
100
AcDbEntity
  8
OBJECTS
100
AcDbLine
 10
195.0
 20
5.0
 30
0.0
 11
5.0
 21
5.0
 31
0.0
  0
LINE
  5
3E5
330
3DF
100
AcDbEntity
  8
OBJECTS
100
AcDbLine
 10
5.0
 20
5.0
 30
0.0
 11
5.0
 21
295.0
 31
0.0
  0
MTEXT
  5
3E6
330
3DF
100
AcDbEntity
  8
OBJECTS
100
AcDbMText
 10
10.0
 20
90.0
 30
0.0
 40
2.525252525252525
 41
180.0
 71
     1
 72
     5
  3
\P\P\P\P\P\fArial|b0|i0|c0|p34; * Includes Grinding Allowance                                    \L                                                                                                 .\P\l Break Sharp Corners                             
  3
                    FAST HEAT INTERNATIONAL (UK) LTD\P All Diameters to be Concentric to within 0.05mm      Unit  28, Hawthorn Road, Eastbourne, E. Sussex. BN23 6QA\P\L                                                                                  
  3
  Tel : 01323-647375       Fax : 01323-410355                        .\P Issue    Date    Signed    Amendment                     |\l   TITLE :                                                                 \P\L                                      
  3
                                           |\P                                                                                 |\P                                                                                                                        
  3
                                                            .\P\l This design is    \LTOLERANCES\l - Unless otherwise\P COPYRIGHT     stated, all dimensions are in mm      \L   Quantity :                  Material :                                   
  3
          .\P\l and must not       0.                            + / - 0.25\P be reproduced    0.0                          + / - 0.10            \L   Drawn by :                Date :                    Scale :                 .\P\l without written  
  1
  0.00                        + / - 0.05\P permission         Angles                     + / - 0.5°               Drawing Number :
 73
     1
 44
1.0
  0
LINE
  5
3E7
330
3DF
100
AcDbEntity
  8
CENTRE
100
AcDbLine
 10
100.0
 20
285.0
 30
0.0
 11
100.0
 21
90.0
 31
0.0
  0
LINE
  5
3E8
330
3DF
100
AcDbEntity
  8
CENTRE
100
AcDbLine
 10
100.0
 20
200.0
 30
0.0
 11
135.3553390593273
 21
164.6446609406726
 31
0.0
  0
LINE
  5
3E9
330
3DF
100
AcDbEntity
  8
CENTRE
100
AcDbLine
 10
100.0
 20
200.0
 30
0.0
 11
135.3553390593273
 21
235.3553390593273
 31
0.0
  0
LINE
  5
3EA
330
3DF
100
AcDbEntity
  8
CENTRE
100
AcDbLine
 10
100.0
 20
200.0
 30
0.0
 11
64.64466094067262
 21
235.3553390593273
 31
0.0
  0
LINE
  5
3EB
330
3DF
100
AcDbEntity
  8
CENTRE
100
AcDbLine
 10
100.0
 20
200.0
 30
0.0
 11
64.64466094067259
 21
164.6446609406726
 31
0.0
  0
LINE
  5
3EC
330
3DF
100
AcDbEntity
  8
CENTRE
100
AcDbLine
 10
124.0
 20
200.0
 30
0.0
 11
144.0
 21
200.0
 31
0.0
  0
LINE
  5
3ED
330
3DF
100
AcDbEntity
  8
CENTRE
100
AcDbLine
 10
56.0
 20
200.0
 30
0.0
 11
76.0
 21
200.0
 31
0.0
  0
LINE
  5
3EE
330
3DF
100
AcDbEntity
  8
CENTRE
100
AcDbLine
 10
100.0
 20
244.0
 30
0.0
 11
100.0
 21
224.0
 31
0.0
  0
LINE
  5
3EF
330
3DF
100
AcDbEntity
  8
CENTRE
100
AcDbLine
 10
100.0
 20
176.0
 30
0.0
 11
100.0
 21
156.0
 31
0.0
  0
CIRCLE
  5
3F0
330
3DF
100
AcDbEntity
  8
OBJECTS
100
AcDbCircle
 10
100.0
 20
200.0
 30
0.0
 40
4.75
  0
CIRCLE
  5
3F1
330
3DF
100
AcDbEntity
  8
CENTRE
100
AcDbCircle
 10
100.0
 20
200.0
 30
0.0
 40
19.05
  0
CIRCLE
  5
3F2
330
3DF
100
AcDbEntity
  8
OBJECTS
100
AcDbCircle
 10
80.95
 20
200.0
 30
0.0
 40
2.5
  0
CIRCLE
  5
3F3
330
3DF
100
AcDbEntity
  8
OBJECTS
100
AcDbCircle
 10
119.0485939315802
 20
200.2314502749302
 30
0.0
 40
2.5
  0
CIRCLE
  5
3F4
330
3DF
100
AcDbEntity
  8
OBJECTS
100
AcDbCircle
 10
99.7685497250697
 20
219.0485939315802
 30
0.0
 40
2.5
  0
CIRCLE
  5
3F5
330
3DF
100
AcDbEntity
  8
OBJECTS
100
AcDbCircle
 10
100.0
 20
180.9499999999999
 30
0.0
 40
2.5
  0
CIRCLE
  5
3F6
330
3DF
100
AcDbEntity
  8
OBJECTS
100
AcDbCircle
 10
119.0485939315802
 20
200.2314502749302
 30
0.0
 40
2.0
  0
CIRCLE
  5
3F7
330
3DF
100
AcDbEntity
  8
OBJECTS
100
AcDbCircle
 10
100.0
 20
180.9499999999999
 30
0.0
 40
2.0
  0
CIRCLE
  5
3F8
330
3DF
100
AcDbEntity
  8
OBJECTS
100
AcDbCircle
 10
99.7685497250697
 20
219.0485939315802
 30
0.0
 40
2.0
  0
CIRCLE
  5
3F9
330
3DF
100
AcDbEntity
  8
OBJECTS
100
AcDbCircle
 10
80.95
 20
200.0
 30
0.0
 40
2.0
  0
LINE
  5
3FA
330
3DF
100
AcDbEntity
  8
HIDDEN
100
AcDbLine
 10
91.0705657960308
 20
212.4605459269254
 30
0.0
 11
112.4605459269249
 21
191.0705657960313
 31
0.0
  0
LINE
  5
3FB
330
3DF
100
AcDbEntity
  8
HIDDEN
100
AcDbLine
 10
87.5394540730751
 20
208.9294342039685
 30
0.0
 11
108.9294342039684
 21
187.5394540730751
 31
0.0
  0
LINE
  5
3FC
330
3DF
100
AcDbEntity
  8
HIDDEN
100
AcDbLine
 10
112.4605459269249
 20
208.9294342039686
 30
0.0
 11
91.07056579603142
 21
187.539454073075
 31
0.0
  0
LINE
  5
3FD
330
3DF
100
AcDbEntity
  8
HIDDEN
100
AcDbLine
 10
108.9527762475718
 20
212.4813980571456
 30
0.0
 11
87.5186019428547
 21
191.0472237524285
 31
0.0
  0
CIRCLE
  5
3FE
330
3DF
100
AcDbEntity
  8
CENTRE
100
AcDbCircle
 10
100.0
 20
200.0
 30
0.0
 40
15.0
  0
CIRCLE
  5
3FF
330
3DF
100
AcDbEntity
  8
HIDDEN
100
AcDbCircle
 10
89.39339828220179
 20
210.6066017177982
 30
0.0
 40
9.525
  0
CIRCLE
  5
400
330
3DF
100
AcDbEntity
  8
HIDDEN
100
AcDbCircle
 10
110.6066017177982
 20
210.6066017177982
 30
0.0
 40
9.525
  0
CIRCLE
  5
401
330
3DF
100
AcDbEntity
  8
HIDDEN
100
AcDbCircle
 10
110.6066017177982
 20
189.3933982822017
 30
0.0
 40
9.525
  0
CIRCLE
  5
402
330
3DF
100
AcDbEntity
  8
HIDDEN
100
AcDbCircle
 10
89.39339828220177
 20
189.3933982822017
 30
0.0
 40
9.525
  0
CIRCLE
  5
403
330
3DF
100
AcDbEntity
  8
HIDDEN
100
AcDbCircle
 10
89.39339828220179
 20
210.6066017177982
 30
0.0
 40
2.5
  0
CIRCLE
  5
404
330
3DF
100
AcDbEntity
  8
HIDDEN
100
AcDbCircle
 10
110.6066017177982
 20
210.6066017177982
 30
0.0
 40
2.5
  0
CIRCLE
  5
405
330
3DF
100
AcDbEntity
  8
HIDDEN
100
AcDbCircle
 10
110.6066017177982
 20
189.3933982822017
 30
0.0
 40
2.5
  0
CIRCLE
  5
406
330
3DF
100
AcDbEntity
  8
HIDDEN
100
AcDbCircle
 10
89.39339828220177
 20
189.3933982822017
 30
0.0
 40
2.5
  0
DIMENSION
  5
407
330
3DF
100
AcDbEntity
  8
DIMS
100
AcDbDimension
  2
*D0
 10
115.0
 20
143.2449352433929
 30
0.0
 11
100.0
 21
145.1388746373323
 31
0.0
 70
    32
 71
     5
 42
-1.0
  3
STANDARD_WS
100
AcDbAlignedDimension
 13
85.0
 23
200.0
 33
0.0
 14
115.0
 24
200.0
 34
0.0
100
AcDbRotatedDimension
  0
LINE
  5
408
102
{ACAD_REACTORS
330
41D
330
42B
102
}
330
3DF
100
AcDbEntity
  8
OBJECTS
100
AcDbLine
 10
15.0
 20
200.0
 30
0.0
 11
15.0
 21
237.5
 31
0.0
  0
LINE
  5
409
102
{ACAD_REACTORS
330
41C
330
42B
102
}
330
3DF
100
AcDbEntity
  8
OBJECTS
100
AcDbLine
 10
45.0
 20
237.5
 30
0.0
 11
45.0
 21
200.0
 31
0.0
  0
LINE
  5
40A
102
{ACAD_REACTORS
330
41C
330
42B
102
}
330
3DF
100
AcDbEntity
  8
CENTRE
100
AcDbLine
 10
10.0
 20
215.0
 30
0.0
 11
50.0
 21
215.0
 31
0.0
  0
LINE
  5
40B
102
{ACAD_REACTORS
330
41E
330
436
102
}
330
3DF
100
AcDbEntity
  8
CENTRE
100
AcDbLine
 10
10.0
 20
181.0
 30
0.0
 11
50.0
 21
181.0
 31
0.0
  0
LINE
  5
40C
102
{ACAD_REACTORS
330
41E
330
436
102
}
330
3DF
100
AcDbEntity
  8
OBJECTS
100
AcDbLine
 10
45.0
 20
200.0
 30
0.0
 11
45.0
 21
162.5
 31
0.0
  0
LINE
  5
40D
102
{ACAD_REACTORS
330
41E
330
436
102
}
330
3DF
100
AcDbEntity
  8
OBJECTS
100
AcDbLine
 10
15.0
 20
162.5
 30
0.0
 11
15.0
 21
200.0
 31
0.0
  0
ARC
  5
40E
102
{ACAD_REACTORS
330
41C
330
41D
330
41E
102
}
330
3DF
100
AcDbEntity
  8
OBJECTS
100
AcDbCircle
 10
45.0
 20
200.0
 30
0.0
 40
4.7625
100
AcDbArc
 50
90.0
 51
270.0
  0
LINE
  5
40F
102
{ACAD_REACTORS
330
41C
330
42B
102
}
330
3DF
100
AcDbEntity
  8
OBJECTS
100
AcDbLine
 10
43.9014621671838
 20
204.6340717387489
 30
0.0
 11
31.03553390593272
 21
217.5
 31
0.0
  0
LINE
  5
410
102
{ACAD_REACTORS
330
41D
102
}
330
3DF
100
AcDbEntity
  8
OBJECTS
100
AcDbLine
 10
40.36592826125107
 20
201.0985378328161
 30
0.0
 11
28.96446609406725
 21
212.4999999999999
 31
0.0
  0
LINE
  5
411
330
3DF
100
AcDbEntity
  8
CENTRE
100
AcDbLine
 10
45.0
 20
200.0
 30
0.0
 11
26.56876233018806
 21
218.4312376698119
 31
0.0
  0
LINE
  5
412
102
{ACAD_REACTORS
330
42B
102
}
330
3DF
100
AcDbEntity
  8
OBJECTS
100
AcDbLine
 10
15.0
 20
217.5
 30
0.0
 11
31.03553390593272
 21
217.5
 31
0.0
  0
LINE
  5
413
102
{ACAD_REACTORS
330
41D
102
}
330
3DF
100
AcDbEntity
  8
OBJECTS
100
AcDbLine
 10
15.0
 20
212.5
 30
0.0
 11
28.96446609406725
 21
212.4999999999999
 31
0.0
  0
LINE
  5
414
102
{ACAD_REACTORS
330
41E
102
}
330
3DF
100
AcDbEntity
  8
OBJECTS
100
AcDbLine
 10
45.0
 20
183.4999999999999
 30
0.0
 11
30.0
 21
183.4999999999999
 31
0.0
  0
LINE
  5
415
102
{ACAD_REACTORS
330
41E
330
436
102
}
330
3DF
100
AcDbEntity
  8
OBJECTS
100
AcDbLine
 10
30.0
 20
183.4999999999999
 30
0.0
 11
30.0
 21
178.5
 31
0.0
  0
LINE
  5
416
102
{ACAD_REACTORS
330
436
102
}
330
3DF
100
AcDbEntity
  8
OBJECTS
100
AcDbLine
 10
30.0
 20
178.5
 30
0.0
 11
45.0
 21
178.5
 31
0.0
  0
LINE
  5
417
102
{ACAD_REACTORS
330
41E
102
}
330
3DF
100
AcDbEntity
  8
OBJECTS
100
AcDbLine
 10
45.0
 20
183.0
 30
0.0
 11
27.0
 21
183.0
 31
0.0
  0
LINE
  5
418
330
3DF
100
AcDbEntity
  8
OBJECTS
100
AcDbLine
 10
27.0
 20
183.0
 30
0.0
 11
27.0
 21
179.0
 31
0.0
  0
LINE
  5
419
102
{ACAD_REACTORS
330
436
102
}
330
3DF
100
AcDbEntity
  8
OBJECTS
100
AcDbLine
 10
27.0
 20
179.0
 30
0.0
 11
45.0
 21
179.0
 31
0.0
  0
LINE
  5
41A
102
{ACAD_REACTORS
330
41E
102
}
330
3DF
100
AcDbEntity
  8
OBJECTS
100
AcDbLine
 10
27.0
 20
183.0
 30
0.0
 11
25.84529946162075
 21
181.0
 31
0.0
  0
LINE
  5
41B
102
{ACAD_REACTORS
330
436
102
}
330
3DF
100
AcDbEntity
  8
OBJECTS
100
AcDbLine
 10
27.0
 20
179.0
 30
0.0
 11
25.84529946162075
 21
181.0
 31
0.0
  0
HATCH
  5
41C
330
3DF
100
AcDbEntity
  8
OBJECTS
100
AcDbHatch
 10
0.0
 20
0.0
 30
0.0
210
0.0
220
0.0
230
1.0
  2
ANSI31
 70
     0
 71
     1
 91
        1
 92
        7
 72
     1
 73
     1
 93
        4
 10
45.0
 20
215.0
 42
0.0
 10
33.53553390593271
 20
214.9999999999999
 42
0.0
 10
43.90146216718381
 20
204.6340717387489
 42
-0.0582558039730933
 10
45.0
 20
204.7625
 42
0.0
 97
        4
330
40A
330
40F
330
40E
330
409
 75
     0
 76
     1
 52
0.0
 41
1.0
 77
     0
 78
     1
 53
45.0
 43
0.0
 44
0.0
 45
-2.245064030267287
 46
2.245064030267288
 79
     0
 47
0.3978779832562363
 98
        1
 10
42.30429322126314
 20
211.1335167713148
  0
HATCH
  5
41D
330
3DF
100
AcDbEntity
  8
OBJECTS
100
AcDbHatch
 10
0.0
 20
0.0
 30
0.0
210
0.0
220
0.0
230
1.0
  2
ANSI31
 70
     0
 71
     1
 91
        1
 92
        7
 72
     1
 73
     1
 93
        5
 10
15.0
 20
200.0
 42
0.0
 10
40.23750000000001
 20
200.0
 42
-0.0582558039730922
 10
40.36592826125107
 20
201.0985378328161
 42
0.0
 10
28.96446609406725
 20
212.4999999999999
 42
0.0
 10
15.0
 20
212.5
 42
0.0
 97
        5
330
413
330
408
330
3E0
330
40E
330
410
 75
     0
 76
     1
 52
0.0
 41
1.0
 77
     0
 78
     1
 53
45.0
 43
0.0
 44
0.0
 45
-2.245064030267287
 46
2.245064030267288
 79
     0
 47
0.3978779832562363
 98
        1
 10
20.39405856185135
 20
205.9611023160496
  0
HATCH
  5
41E
330
3DF
100
AcDbEntity
  8
OBJECTS
100
AcDbHatch
 10
0.0
 20
0.0
 30
0.0
210
0.0
220
0.0
230
1.0
  2
ANSI31
 70
     0
 71
     1
 91
        1
 92
        7
 72
     1
 73
     1
 93
        9
 10
45.0
 20
183.4999999999999
 42
0.0
 10
45.0
 20
195.2375
 42
-0.4142135623730951
 10
40.23750000000001
 20
200.0
 42
0.0
 10
15.0
 20
199.9999999999999
 42
0.0
 10
15.0
 20
180.9999999999999
 42
0.0
 10
25.84529946162075
 20
181.0
 42
0.0
 10
27.0
 20
183.0
 42
0.0
 10
30.0
 20
183.0
 42
0.0
 10
30.0
 20
183.4999999999999
 42
0.0
 97
        9
330
40E
330
3E0
330
40D
330
40B
330
41A
330
417
330
415
330
414
330
40C
 75
     0
 76
     1
 52
0.0
 41
1.0
 77
     0
 78
     1
 53
45.0
 43
0.0
 44
0.0
 45
-2.245064030267287
 46
2.245064030267288
 79
     0
 47
0.3978779832562363
 98
        1
 10
30.75162476487344
 20
190.0459833170908
  0
CIRCLE
  5
41F
330
3DF
100
AcDbEntity
  8
HIDDEN
100
AcDbCircle
 10
100.0
 20
200.0
 30
0.0
 40
25.0
  0
CIRCLE
  5
420
330
3DF
100
AcDbEntity
  8
OBJECTS
100
AcDbCircle
 10
100.0
 20
200.0
 30
0.0
 40
37.5
  0
CIRCLE
  5
421
330
3DF
100
AcDbEntity
  8
CENTRE
100
AcDbCircle
 10
100.0
 20
200.0
 30
0.0
 40
31.0
  0
CIRCLE
  5
422
330
3DF
100
AcDbEntity
  8
OBJECTS
100
AcDbCircle
 10
69.0
 20
200.0
 30
0.0
 40
5.25
  0
CIRCLE
  5
423
330
3DF
100
AcDbEntity
  8
OBJECTS
100
AcDbCircle
 10
100.0
 20
231.0
 30
0.0
 40
5.25
  0
CIRCLE
  5
424
330
3DF
100
AcDbEntity
  8
OBJECTS
100
AcDbCircle
 10
131.0
 20
200.0
 30
0.0
 40
5.25
  0
CIRCLE
  5
425
330
3DF
100
AcDbEntity
  8
OBJECTS
100
AcDbCircle
 10
100.0
 20
169.0
 30
0.0
 40
5.25
  0
CIRCLE
  5
426
330
3DF
100
AcDbEntity
  8
OBJECTS
100
AcDbCircle
 10
100.0
 20
231.0
 30
0.0
 40
3.25
  0
CIRCLE
  5
427
330
3DF
100
AcDbEntity
  8
OBJECTS
100
AcDbCircle
 10
131.0
 20
200.0
 30
0.0
 40
3.25
  0
CIRCLE
  5
428
330
3DF
100
AcDbEntity
  8
OBJECTS
100
AcDbCircle
 10
100.0
 20
169.0
 30
0.0
 40
3.25
  0
CIRCLE
  5
429
330
3DF
100
AcDbEntity
  8
OBJECTS
100
AcDbCircle
 10
69.0
 20
200.0
 30
0.0
 40
3.25
  0
LINE
  5
42A
102
{ACAD_REACTORS
330
42B
102
}
330
3DF
100
AcDbEntity
  8
OBJECTS
100
AcDbLine
 10
15.0
 20
237.5
 30
0.0
 11
45.0
 21
237.5
 31
0.0
  0
HATCH
  5
42B
330
3DF
100
AcDbEntity
  8
OBJECTS
100
AcDbHatch
 10
0.0
 20
0.0
 30
0.0
210
0.0
220
0.0
230
1.0
  2
ANSI31
 70
     0
 71
     1
 91
        1
 92
        7
 72
     0
 73
     1
 93
        6
 10
31.03553390593273
 20
217.5
 10
33.53553390593273
 20
215.0
 10
45.0
 20
215.0
 10
45.0
 20
237.5
 10
15.0
 20
237.5
 10
15.0
 20
217.5
 97
        6
330
42A
330
408
330
412
330
40F
330
40A
330
409
 75
     0
 76
     1
 52
0.0
 41
1.0
 77
     0
 78
     1
 53
45.0
 43
0.0
 44
0.0
 45
-2.245064030267287
 46
2.245064030267288
 79
     0
 47
0.2652519893899204
 98
        1
 10
26.6084472934308
 20
227.3335561034181
  0
LINE
  5
42C
330
3DF
100
AcDbEntity
  8
CENTRE
100
AcDbLine
 10
10.0
 20
169.0
 30
0.0
 11
50.0
 21
169.0
 31
0.0
  0
DIMENSION
  5
42D
330
3DF
100
AcDbEntity
  8
DIMS
100
AcDbDimension
  2
*D1
 10
119.0499999999999
 20
134.9669506293921
 30
0.0
 11
100.0
 21
136.8608900233315
 31
0.0
 70
    32
 71
     5
 42
-1.0
  3
STANDARD_WS
100
AcDbAlignedDimension
 13
80.95
 23
200.0
 33
0.0
 14
119.0499999999999
 24
200.0
 34
0.0
100
AcDbRotatedDimension
  0
DIMENSION
  5
42E
330
3DF
100
AcDbEntity
  8
DIMS
100
AcDbDimension
  2
*D2
 10
131.0
 20
127.0093911299127
 30
0.0
 11
100.0
 21
128.9033305238521
 31
0.0
 70
    32
 71
     5
 42
-1.0
  3
STANDARD_WS
100
AcDbAlignedDimension
 13
69.0
 23
200.0
 33
0.0
 14
131.0
 24
200.0
 34
0.0
100
AcDbRotatedDimension
  0
DIMENSION
  5
42F
330
3DF
100
AcDbEntity
  8
DIMS
100
AcDbDimension
  2
*D3
 10
137.5
 20
118.5336483866001
 30
0.0
 11
100.0
 21
120.4275877805395
 31
0.0
 70
    32
 71
     5
 42
-1.0
  3
STANDARD_WS
100
AcDbAlignedDimension
 13
62.5
 23
200.0
 33
0.0
 14
137.5
 24
200.0
 34
0.0
100
AcDbRotatedDimension
  0
LINE
  5
430
102
{ACAD_REACTORS
330
436
102
}
330
3DF
100
AcDbEntity
  8
OBJECTS
100
AcDbLine
 10
15.0
 20
162.5
 30
0.0
 11
45.0
 21
162.5
 31
0.0
  0
LINE
  5
431
102
{ACAD_REACTORS
330
436
102
}
330
3DF
100
AcDbEntity
  8
OBJECTS
100
AcDbLine
 10
45.0
 20
174.2499999999999
 30
0.0
 11
38.5
 21
174.2499999999999
 31
0.0
  0
LINE
  5
432
102
{ACAD_REACTORS
330
436
102
}
330
3DF
100
AcDbEntity
  8
OBJECTS
100
AcDbLine
 10
38.5
 20
174.2499999999999
 30
0.0
 11
38.5
 21
163.75
 31
0.0
  0
LINE
  5
433
102
{ACAD_REACTORS
330
436
102
}
330
3DF
100
AcDbEntity
  8
OBJECTS
100
AcDbLine
 10
38.5
 20
163.75
 30
0.0
 11
45.0
 21
163.75
 31
0.0
  0
LINE
  5
434
102
{ACAD_REACTORS
330
436
102
}
330
3DF
100
AcDbEntity
  8
OBJECTS
100
AcDbLine
 10
38.5
 20
172.25
 30
0.0
 11
15.0
 21
172.25
 31
0.0
  0
LINE
  5
435
102
{ACAD_REACTORS
330
436
102
}
330
3DF
100
AcDbEntity
  8
OBJECTS
100
AcDbLine
 10
38.5
 20
165.7499999999999
 30
0.0
 11
15.0
 21
165.7499999999999
 31
0.0
  0
HATCH
  5
436
330
3DF
100
AcDbEntity
  8
OBJECTS
100
AcDbHatch
 10
0.0
 20
0.0
 30
0.0
210
0.0
220
0.0
230
1.0
  2
ANSI31
 70
     0
 71
     1
 91
        2
 92
        7
 72
     0
 73
     1
 93
       10
 10
38.50000000000001
 20
172.25
 10
38.49999999999999
 20
174.2499999999999
 10
45.0
 20
174.2499999999999
 10
45.0
 20
178.5
 10
30.0
 20
178.5
 10
30.0
 20
179.0
 10
27.0
 20
179.0
 10
25.84529946162074
 20
181.0
 10
15.0
 20
181.0
 10
15.0
 20
172.25
 97
       10
330
416
330
415
330
419
330
41B
330
40B
330
40D
330
434
330
432
330
431
330
40C
 92
        7
 72
     0
 73
     1
 93
        6
 10
45.0
 20
162.5
 10
45.0
 20
163.75
 10
38.5
 20
163.75
 10
38.5
 20
165.7499999999999
 10
15.0
 20
165.7499999999999
 10
15.0
 20
162.5
 97
        6
330
435
330
40D
330
430
330
40C
330
433
330
432
 75
     0
 76
     1
 52
0.0
 41
1.0
 77
     0
 78
     1
 53
45.0
 43
0.0
 44
0.0
 45
-2.245064030267287
 46
2.245064030267288
 79
     0
 47
0.2652519888374912
 98
        2
 10
22.09361009036388
 20
176.093331173029
 10
30.06096814833176
 20
163.6264868513227
  0
LINE
  5
437
330
3DF
100
AcDbEntity
  8
HIDDEN
100
AcDbLine
 10
45.0
 20
225.0
 30
0.0
 11
55.0
 21
225.0
 31
0.0
  0
LINE
  5
438
330
3DF
100
AcDbEntity
  8
HIDDEN
100
AcDbLine
 10
55.0
 20
225.0
 30
0.0
 11
55.0
 21
175.0
 31
0.0
  0
LINE
  5
439
330
3DF
100
AcDbEntity
  8
HIDDEN
100
AcDbLine
 10
55.0
 20
175.0
 30
0.0
 11
45.0
 21
175.0
 31
0.0
  0
LINE
  5
43A
330
3DF
100
AcDbEntity
  8
HIDDEN
100
AcDbLine
 10
45.0
 20
204.7625
 30
0.0
 11
52.77612592329361
 21
204.7625
 31
0.0
  0
LINE
  5
43B
330
3DF
100
AcDbEntity
  8
HIDDEN
100
AcDbLine
 10
45.0
 20
195.2375
 30
0.0
 11
52.77612592329361
 21
195.2375
 31
0.0
  0
LINE
  5
43C
330
3DF
100
AcDbEntity
  8
HIDDEN
100
AcDbLine
 10
45.0
 20
183.75
 30
0.0
 11
48.99999999999999
 21
183.75
 31
0.0
  0
LINE
  5
43D
330
3DF
100
AcDbEntity
  8
HIDDEN
100
AcDbLine
 10
45.0
 20
178.2499999999999
 30
0.0
 11
49.0
 21
178.2499999999999
 31
0.0
  0
LINE
  5
43E
330
3DF
100
AcDbEntity
  8
HIDDEN
100
AcDbLine
 10
55.0
 20
185.5
 30
0.0
 11
49.0
 21
185.5
 31
0.0
  0
LINE
  5
43F
330
3DF
100
AcDbEntity
  8
HIDDEN
100
AcDbLine
 10
49.0
 20
185.5
 30
0.0
 11
49.0
 21
176.5
 31
0.0
  0
LINE
  5
440
330
3DF
100
AcDbEntity
  8
HIDDEN
100
AcDbLine
 10
49.0
 20
176.5
 30
0.0
 11
55.0
 21
176.5
 31
0.0
  0
ARC
  5
441
330
3DF
100
AcDbEntity
  8
HIDDEN
100
AcDbCircle
 10
67.0
 20
200.0
 30
0.0
 40
15.0
100
AcDbArc
 50
143.1301023541559
 51
161.4881973319008
  0
ARC
  5
442
330
3DF
100
AcDbEntity
  8
HIDDEN
100
AcDbCircle
 10
67.0
 20
200.0
 30
0.0
 40
15.0
100
AcDbArc
 50
198.511802668099
 51
216.869897645844
  0
LINE
  5
443
330
3DF
100
AcDbEntity
  8
HIDDEN
100
AcDbLine
 10
52.77612592329361
 20
204.7625
 30
0.0
 11
52.7761259232936
 21
195.2375
 31
0.0
  0
ENDBLK
  5
445
330
3DF
100
AcDbEntity
  8
0
100
AcDbBlockEnd
  0
ENDSEC
  0
SECTION
  2
ENTITIES
  0
LINE
  5
132D
330
18
100
AcDbEntity
  8
CENTRE
 62
     3
100
AcDbLine
 10
78.76558059976378
 20
181.2591924346052
 30
0.0
 11
103.8313830495844
 21
181.2591924346052
 31
0.0
  0
LINE
  5
132E
330
18
100
AcDbEntity
  8
0
100
AcDbLine
 10
83.76558059976378
 20
198.7591924346052
 30
0.0
 11
83.76558059976378
 21
163.7591924346052
 31
0.0
  0
MTEXT
  5
1331
330
18
100
AcDbEntity
  8
0
100
AcDbMText
 10
82.32486920398841
 20
155.522406570458
 30
0.0
 40
2.525252525252525
 41
71.66
 71
     1
 72
     5
  1
TP187300\PScale 1:1\P\PStandard gate = Ø1.0 (.039")     Pt.No. TP187300\P\P\POptional Gate = Ø1.5 (.059")\PPt.No. TP187315\P\POptional Gate = 2.0 (.079")\PPt.No. TP187320
 73
     1
 44
1.0
  0
CIRCLE
  5
1332
330
18
100
AcDbEntity
  8
0
100
AcDbCircle
 10
83.76558059976378
 20
181.2591924346052
 30
0.0
 40
1.25
  0
CIRCLE
  5
1334
330
18
100
AcDbEntity
  8
0
100
AcDbCircle
 10
91.76558059976377
 20
181.2591924346052
 30
0.0
 40
1.25
  0
LEADER
  5
13AF
330
18
100
AcDbEntity
  8
0
100
AcDbLeader
  3
STANDARD_WS
 73
     0
 75
     1
 40
7.575757575757576
 41
55.55555555555556
 76
     3
 10
83.76558059976378
 20
178.3819333151368
 30
0.0
 10
72.99824100013471
 20
165.0893411902552
 30
0.0
 10
70.47298847488218
 20
165.0893411902552
 30
0.0
340
13B0
  0
MTEXT
  5
13B0
102
{ACAD_REACTORS
330
13AF
102
}
330
18
100
AcDbEntity
  8
0
100
AcDbMText
 10
69.84167534356905
 20
165.7206543215683
 30
0.0
 40
2.525252525252525
 41
0.0
 71
     9
 72
     1
  1
Plastic contact only\PAllow for bush expansion
 73
     1
 44
1.0
  0
LEADER
  5
13B3
330
18
100
AcDbEntity
  8
0
100
AcDbLeader
  3
STANDARD_WS
 73
     0
 74
     0
 75
     1
 40
2.525252525252525
 41
43.77104377104379
 76
     3
 10
92.4825511452026
 20
182.2831324899664
 30
0.0
 10
102.0414142003416
 20
201.2513944287278
 30
0.0
 10
104.5666667255941
 20
201.2513944287278
 30
0.0
340
13B4
  0
MTEXT
  5
13B4
102
{ACAD_REACTORS
330
13B3
102
}
330
18
100
AcDbEntity
  8
0
100
AcDbMText
 10
105.1979798569072
 20
201.8827075600409
 30
0.0
 40
2.525252525252525
 41
0.0
 71
     7
 72
     1
  1
TIP INSERTION POINT
 73
     1
 44
1.0
  0
LEADER
  5
13B5
330
18
100
AcDbEntity
  8
0
100
AcDbLeader
  3
STANDARD_WS
 73
     0
 75
     1
 40
2.525252525252525
 41
47.13804713804714
 76
     3
 10
83.09395608933025
 20
182.3134317418713
 30
0.0
 10
74.78285469626706
 20
201.0825472971922
 30
0.0
 10
72.25760217101454
 20
201.0825472971922
 30
0.0
340
13B6
  0
MTEXT
  5
13B6
102
{ACAD_REACTORS
330
13B5
102
}
330
18
100
AcDbEntity
  8
0
100
AcDbMText
 10
71.62628903970141
 20
201.7138604285053
 30
0.0
 40
2.525252525252525
 41
0.0
 71
     9
 72
     1
  1
GATE INSERTION POINT
 73
     1
 44
1.0
  0
LINE
  5
13E7
330
18
100
AcDbEntity
  8
CENTRE
100
AcDbLine
 10
83.76558059976378
 20
185.2591924346052
 30
0.0
 11
86.01558059976378
 21
185.2591924346052
 31
0.0
  0
LINE
  5
13E8
330
18
100
AcDbEntity
  8
CENTRE
100
AcDbLine
 10
83.76558059976378
 20
177.2591924346052
 30
0.0
 11
86.01558059976378
 21
177.2591924346052
 31
0.0
  0
LINE
  5
1405
330
18
100
AcDbEntity
  8
DEFPOINTS
 62
     1
100
AcDbLine
 10
91.51558059976379
 20
175.0091924346052
 30
0.0
 11
91.51558059976379
 21
187.5091924346052
 31
0.0
  0
LINE
  5
1423
330
18
100
AcDbEntity
  8
0
 62
     1
100
AcDbLine
 10
91.51558059976379
 20
187.5091924346052
 30
0.0
 11
91.51558059976379
 21
175.0091924346052
 31
0.0
  0
LINE
  5
1429
330
18
100
AcDbEntity
  8
0
 62
     1
100
AcDbLine
 10
91.76558059976377
 20
185.1341924346051
 30
0.0
 11
91.76558059976377
 21
177.3841924346052
 31
0.0
  0
LINE
  5
142A
330
18
100
AcDbEntity
  8
0
 62
     1
100
AcDbLine
 10
91.76558059976377
 20
185.1341924346051
 30
0.0
 11
91.51558059976379
 21
185.1341924346051
 31
0.0
  0
LINE
  5
142B
330
18
100
AcDbEntity
  8
0
 62
     1
100
AcDbLine
 10
91.76558059976377
 20
177.3841924346052
 30
0.0
 11
91.51558059976379
 21
177.3841924346052
 31
0.0
  0
LINE
  5
142C
330
18
100
AcDbEntity
  8
0
 62
     1
100
AcDbLine
 10
91.51558059976379
 20
175.0091924346052
 30
0.0
 11
88.88678748908914
 21
175.0091924346052
 31
0.0
  0
LINE
  5
142D
330
18
100
AcDbEntity
  8
0
 62
     1
100
AcDbLine
 10
91.51558059976379
 20
187.5091924346052
 30
0.0
 11
88.88678748908914
 21
187.5091924346051
 31
0.0
  0
LINE
  5
142E
330
18
100
AcDbEntity
  8
0
 62
     1
100
AcDbLine
 10
88.88678748908917
 20
184.2591924346051
 30
0.0
 11
91.51558059976379
 21
184.2591924346052
 31
0.0
  0
LINE
  5
142F
330
18
100
AcDbEntity
  8
0
 62
     1
100
AcDbLine
 10
88.88678748908914
 20
178.2591924346052
 30
0.0
 11
91.51558059976379
 21
178.2591924346053
 31
0.0
  0
LINE
  5
1430
330
18
100
AcDbEntity
  8
0
 62
     1
100
AcDbLine
 10
88.88678748908914
 20
175.0091924346052
 30
0.0
 11
87.50840092279133
 21
177.3966279999034
 31
0.0
  0
LINE
  5
1431
330
18
100
AcDbEntity
  8
0
 62
     1
100
AcDbLine
 10
88.88678748908914
 20
187.5091924346051
 30
0.0
 11
87.50840092279133
 21
185.1217568693069
 31
0.0
  0
LINE
  5
1432
330
18
100
AcDbEntity
  8
0
 62
     1
100
AcDbLine
 10
86.01558059976378
 20
185.2591924346052
 30
0.0
 11
86.01558059976376
 21
177.2591924346052
 31
0.0
  0
ARC
  5
1434
330
18
100
AcDbEntity
  8
0
 62
     1
100
AcDbCircle
 10
99.06258598355558
 20
181.2591924346052
 30
0.0
 40
10.60881119635864
100
AcDbArc
 50
163.5735785965227
 51
196.4264214034775
  0
ARC
  5
1435
330
18
100
AcDbEntity
  8
0
 62
     1
100
AcDbCircle
 10
99.06258598355558
 20
175.2591924346053
 30
0.0
 40
10.60881119635864
100
AcDbArc
 50
163.5735785965227
 51
177.4008177696771
  0
ARC
  5
1436
330
18
100
AcDbEntity
  8
0
 62
     1
100
AcDbCircle
 10
99.06258598355558
 20
187.2591924346051
 30
0.0
 40
10.60881119635864
100
AcDbArc
 50
182.5991822303231
 51
196.4264214034775
  0
LINE
  5
143B
330
18
100
AcDbEntity
  8
0
 62
     0
100
AcDbLine
 10
86.26558059976378
 20
185.2591924346052
 30
0.0
 11
89.44100708030671
 21
190.7591924346052
 31
0.0
  0
LINE
  5
143C
330
18
100
AcDbEntity
  8
0
 62
     0
100
AcDbLine
 10
86.26558059976378
 20
177.2591924346052
 30
0.0
 11
89.44100708030672
 21
171.7591924346052
 31
0.0
  0
LINE
  5
143E
330
18
100
AcDbEntity
  8
0
 62
     0
100
AcDbLine
 10
98.83138304958448
 20
192.2591924346051
 30
0.0
 11
92.03908329166003
 21
192.2591924346052
 31
0.0
  0
LINE
  5
143F
330
18
100
AcDbEntity
  8
0
 62
     0
100
AcDbLine
 10
98.83138304958448
 20
170.2591924346052
 30
0.0
 11
92.03908329166003
 21
170.2591924346052
 31
0.0
  0
ARC
  5
1440
330
18
100
AcDbEntity
  8
0
 62
     0
100
AcDbCircle
 10
92.03908329166003
 20
189.2591924346052
 30
0.0
 40
3.0
100
AcDbArc
 50
90.0
 51
150.0000000000001
  0
ARC
  5
1441
330
18
100
AcDbEntity
  8
0
 62
     0
100
AcDbCircle
 10
92.03908329166003
 20
173.2591924346052
 30
0.0
 40
3.0
100
AcDbArc
 50
209.9999999999999
 51
270.0
  0
LINE
  5
1443
330
18
100
AcDbEntity
  8
0
 62
     0
100
AcDbLine
 10
86.01558059976376
 20
177.2591924346052
 30
0.0
 11
86.26558059976378
 21
177.2591924346051
 31
0.0
  0
LINE
  5
1444
330
18
100
AcDbEntity
  8
0
 62
     0
100
AcDbLine
 10
86.01714462863021
 20
185.2591924346052
 30
0.0
 11
86.26558059976375
 21
185.2591924346051
 31
0.0
  0
LINE
  5
1452
330
18
100
AcDbEntity
  8
0
 62
     1
100
AcDbLine
 10
86.01558059976378
 20
185.1341924346052
 30
0.0
 11
87.51558059976378
 21
185.1341924346052
 31
0.0
  0
LINE
  5
1453
330
18
100
AcDbEntity
  8
0
 62
     1
100
AcDbLine
 10
86.01558059976376
 20
177.3841924346052
 30
0.0
 11
87.51558059976378
 21
177.3841924346052
 31
0.0
  0
LINE
  5
1454
330
18
100
AcDbEntity
  8
0
 62
     1
100
AcDbLine
 10
87.51558059976378
 20
185.1341924346052
 30
0.0
 11
87.50840092279133
 21
177.3966279999034
 31
0.0
  0
LINE
  5
1456
330
18
100
AcDbEntity
  8
0
100
AcDbLine
 10
86.26558059976378
 20
185.2591924346052
 30
0.0
 11
86.26558059976378
 21
185.1341924346052
 31
0.0
  0
LINE
  5
1457
330
18
100
AcDbEntity
  8
0
100
AcDbLine
 10
86.26558059976376
 20
177.3841924346051
 30
0.0
 11
86.26558059976378
 21
177.2591924346051
 31
0.0
  0
LINE
  5
145B
330
18
100
AcDbEntity
  8
HIDDEN
 62
     6
100
AcDbLine
 10
83.76558059976378
 20
181.7591924346052
 30
0.0
 11
84.95000767879504
 21
182.9436195136364
 31
0.0
  0
LINE
  5
145C
330
18
100
AcDbEntity
  8
HIDDEN
 62
     6
100
AcDbLine
 10
83.76558059976378
 20
180.7591924346052
 30
0.0
 11
84.94859330165603
 21
179.5761797327129
 31
0.0
  0
LINE
  5
1460
330
18
100
AcDbEntity
  8
HIDDEN
 62
     6
100
AcDbLine
 10
84.94859330165594
 20
182.9422051364973
 30
0.0
 11
85.06232397124545
 21
183.1391924346051
 31
0.0
  0
LINE
  5
1461
330
18
100
AcDbEntity
  8
HIDDEN
 62
     6
100
AcDbLine
 10
84.94859330165608
 20
179.5761797327128
 30
0.0
 11
85.06232397124547
 21
179.3791924346052
 31
0.0
  0
LINE
  5
1464
330
18
100
AcDbEntity
  8
HIDDEN
 62
     6
100
AcDbLine
 10
85.92834937502988
 20
183.6391924346051
 30
0.0
 11
91.76558059976377
 21
183.6391924346052
 31
0.0
  0
LINE
  5
1465
330
18
100
AcDbEntity
  8
HIDDEN
 62
     6
100
AcDbLine
 10
85.9283493750299
 20
178.8791924346052
 30
0.0
 11
91.76558059976377
 21
178.8791924346052
 31
0.0
  0
ARC
  5
1466
330
18
100
AcDbEntity
  8
HIDDEN
 62
     6
100
AcDbCircle
 10
85.92834937502988
 20
182.6391924346051
 30
0.0
 40
1.0
100
AcDbArc
 50
90.0
 51
149.9999999999999
  0
ARC
  5
1467
330
18
100
AcDbEntity
  8
HIDDEN
 62
     6
100
AcDbCircle
 10
85.9283493750299
 20
179.8791924346052
 30
0.0
 40
1.0
100
AcDbArc
 50
210.0000000000001
 51
270.0
  0
LINE
  5
1468
330
18
100
AcDbEntity
  8
HIDDEN
 62
     6
100
AcDbLine
 10
83.76558059976378
 20
181.2591924346052
 30
0.0
 11
91.76558059976377
 21
183.4027859740542
 31
0.0
  0
LINE
  5
1469
330
18
100
AcDbEntity
  8
HIDDEN
 62
     6
100
AcDbLine
 10
83.76558059976378
 20
181.2591924346052
 30
0.0
 11
91.76558059976377
 21
179.1155988951562
 31
0.0
  0
LINE
  5
146A
330
18
100
AcDbEntity
  8
HIDDEN
 62
     6
100
AcDbLine
 10
84.94859330165594
 20
182.9422051364973
 30
0.0
 11
84.94859330165601
 21
181.576179732713
 31
0.0
  0
LINE
  5
146B
330
18
100
AcDbEntity
  8
HIDDEN
 62
     6
100
AcDbLine
 10
84.94859330165603
 20
180.9422051364973
 30
0.0
 11
84.94859330165608
 21
179.5761797327128
 31
0.0
  0
ENDSEC
  0
SECTION
  2
OBJECTS
  0
DICTIONARY
  5
C
330
0
100
AcDbDictionary
281
     1
  3
ACAD_GROUP
350
D
  3
ACAD_LAYOUT
350
D9E
  3
ACAD_MLINESTYLE
350
1B
  3
ACAD_PLOTSETTINGS
350
D9F
  3
ACAD_PLOTSTYLENAME
350
D9C
  3
ACDBVARIABLEDICTIONARY
350
3C
  3
CONTENTDICTIONARY
350
23
  3
DRAWINGVARIABLESDICT
350
F7
  0
DICTIONARY
  5
D
102
{ACAD_REACTORS
330
C
102
}
330
0
100
AcDbDictionary
281
     1
  0
DICTIONARY
  5
D9E
102
{ACAD_REACTORS
330
C
102
}
330
C
100
AcDbDictionary
281
     1
  3
Layout1
350
DA1
  3
Model
350
DA0
  0
DICTIONARY
  5
1B
102
{ACAD_REACTORS
330
C
102
}
330
0
100
AcDbDictionary
281
     1
  3
STANDARD
350
1C
  0
DICTIONARY
  5
D9F
102
{ACAD_REACTORS
330
C
102
}
330
C
100
AcDbDictionary
281
     1
  0
ACDBDICTIONARYWDFLT
  5
D9C
102
{ACAD_REACTORS
330
C
102
}
330
C
100
AcDbDictionary
281
     1
  3
Normal
350
D9D
100
AcDbDictionaryWithDefault
340
D9D
  0
DICTIONARY
  5
3C
102
{ACAD_REACTORS
330
C
102
}
330
C
100
AcDbDictionary
281
     1
  3
DIMADEC
350
3D
  3
DIMASSOC
350
131F
  3
SORTENTS
350
10D
  0
DICTIONARY
  5
23
102
{ACAD_REACTORS
330
C
102
}
330
0
100
AcDbDictionary
281
     1
  0
DICTIONARY
  5
F7
102
{ACAD_REACTORS
330
C
102
}
330
C
100
AcDbDictionary
281
     1
1001
DRAWINGVARIABLESXDATA
1000
POLARMODE
1000
1
1000
POLARANG
1000
0.261799387799149410000000
  0
LAYOUT
  5
DA1
102
{ACAD_REACTORS
330
D9E
102
}
330
D9E
100
AcDbPlotSettings
  1

  2
Bob's HP
  4

  6

 40
0.0
 41
0.0
 42
0.0
 43
0.0
 44
0.0
 45
0.0
 46
0.0
 47
0.0
 48
0.0
 49
0.0
140
0.0
141
0.0
142
1.0
143
1.0
 70
   688
 72
     0
 73
     0
 74
     5
  7

 75
    16
147
1.0
148
0.0
149
0.0
100
AcDbLayout
  1
Layout1
 70
     1
 71
     1
 10
0.0
 20
0.0
 11
420.0
 21
297.0
 12
0.0
 22
0.0
 32
0.0
 14
1.000000000000000E+20
 24
1.000000000000000E+20
 34
1.000000000000000E+20
 15
-1.000000000000000E+20
 25
-1.000000000000000E+20
 35
-1.000000000000000E+20
146
0.0
 13
0.0
 23
0.0
 33
0.0
 16
1.0
 26
0.0
 36
0.0
 17
0.0
 27
1.0
 37
0.0
 76
     0
330
15
  0
LAYOUT
  5
DA0
102
{ACAD_REACTORS
330
D9E
102
}
330
D9E
100
AcDbPlotSettings
  1

  2
SHARP AR-C172M PCL5c
  4
A4
  6

 40
5.027083396911621
 41
5.027085304260253
 42
5.027084350585937
 43
5.027069091796875
 44
209.9733276367187
 45
296.9259948730469
 46
51.09
 47
76.08
 48
0.0
 49
0.0
140
0.0
141
0.0
142
1.0
143
1.0
 70
 11956
 72
     1
 73
     1
 74
     1
  7

 75
    16
147
1.0
148
-14.27612352915588
149
-106.6955574633269
100
AcDbLayout
  1
Model
 70
     1
 71
     0
 10
0.0
 20
0.0
 11
12.0
 21
9.0
 12
0.0
 22
0.0
 32
0.0
 14
0.0
 24
0.0
 34
0.0
 15
0.0
 25
0.0
 35
0.0
146
0.0
 13
0.0
 23
0.0
 33
0.0
 16
1.0
 26
0.0
 36
0.0
 17
0.0
 27
1.0
 37
0.0
 76
     0
330
18
  0
MLINESTYLE
  5
1C
102
{ACAD_REACTORS
330
1B
102
}
330
0
100
AcDbMlineStyle
  2
STANDARD
 70
     0
  3

 62
   256
 51
90.0
 52
90.0
 71
     2
 49
0.5
 62
   256
  6
BYLAYER
 49
-0.5
 62
   256
  6
BYLAYER
  0
ACDBPLACEHOLDER
  5
D9D
102
{ACAD_REACTORS
330
D9C
102
}
330
D9C
  0
DICTIONARYVAR
  5
3D
102
{ACAD_REACTORS
330
3C
102
}
330
3C
100
DictionaryVariables
280
     0
  1
0
  0
DICTIONARYVAR
  5
131F
102
{ACAD_REACTORS
330
3C
102
}
330
3C
100
DictionaryVariables
280
     0
  1
1
  0
DICTIONARYVAR
  5
10D
102
{ACAD_REACTORS
330
3C
102
}
330
3C
100
DictionaryVariables
280
     0
  1
96
  0
ENDSEC
  0
EOF
