  0
SECTION
  2
HEADER
  9
$ACADVER
  1
AC1015
  9
$ACADMAINTVER
 70
    13
  9
$DWGCODEPAGE
  3
ANSI_1252
  9
$INSBASE
 10
0.0
 20
0.0
 30
0.0
  9
$EXTMIN
 10
464.5982699107821
 20
241.9979575620939
 30
-0.0000000000000053
  9
$EXTMAX
 10
925.6949945272586
 20
554.6011063610217
 30
0.0000000000000099
  9
$LIMMIN
 10
0.0
 20
0.0
  9
$LIMMAX
 10
1189.0
 20
841.0
  9
$ORTHOMODE
 70
     0
  9
$REGENMODE
 70
     1
  9
$FILLMODE
 70
     1
  9
$QTEXTMODE
 70
     0
  9
$MIRRTEXT
 70
     0
  9
$LTSCALE
 40
8.0
  9
$ATTMODE
 70
     1
  9
$TEXTSIZE
 40
2.0
  9
$TRACEWID
 40
10.0
  9
$TEXTSTYLE
  7
STANDARD
  9
$CLAYER
  8
M01
  9
$CELTYPE
  6
BYLAYER
  9
$CECOLOR
 62
     1
  9
$CELTSCALE
 40
1.0
  9
$DISPSILH
 70
     0
  9
$DIMSCALE
 40
1.0
  9
$DIMASZ
 40
3.0
  9
$DIMEXO
 40
1.0
  9
$DIMDLI
 40
10.0
  9
$DIMRND
 40
0.01
  9
$DIMDLE
 40
1.25
  9
$DIMEXE
 40
2.5
  9
$DIMTP
 40
0.05
  9
$DIMTM
 40
0.0
  9
$DIMTXT
 40
3.0
  9
$DIMCEN
 40
-1.7
  9
$DIMTSZ
 40
0.0
  9
$DIMTOL
 70
     0
  9
$DIMLIM
 70
     0
  9
$DIMTIH
 70
     0
  9
$DIMTOH
 70
     0
  9
$DIMSE1
 70
     0
  9
$DIMSE2
 70
     0
  9
$DIMTAD
 70
     3
  9
$DIMZIN
 70
     1
  9
$DIMBLK
  1

  9
$DIMASO
 70
     1
  9
$DIMSHO
 70
     0
  9
$DIMPOST
  1

  9
$DIMAPOST
  1

  9
$DIMALT
 70
     0
  9
$DIMALTD
 70
     2
  9
$DIMALTF
 40
0.039
  9
$DIMLFAC
 40
1.0
  9
$DIMTOFL
 70
     0
  9
$DIMTVP
 40
1.5
  9
$DIMTIX
 70
     0
  9
$DIMSOXD
 70
     0
  9
$DIMSAH
 70
     0
  9
$DIMBLK1
  1

  9
$DIMBLK2
  1

  9
$DIMSTYLE
  2
DIM1
  9
$DIMCLRD
 70
     4
  9
$DIMCLRE
 70
     4
  9
$DIMCLRT
 70
     2
  9
$DIMTFAC
 40
0.7
  9
$DIMGAP
 40
1.5
  9
$DIMJUST
 70
     0
  9
$DIMSD1
 70
     0
  9
$DIMSD2
 70
     0
  9
$DIMTOLJ
 70
     1
  9
$DIMTZIN
 70
     1
  9
$DIMALTZ
 70
     1
  9
$DIMALTTZ
 70
     1
  9
$DIMUPT
 70
     0
  9
$DIMDEC
 70
     2
  9
$DIMTDEC
 70
     2
  9
$DIMALTU
 70
     2
  9
$DIMALTTD
 70
     2
  9
$DIMTXSTY
  7
STANDARD
  9
$DIMAUNIT
 70
     0
  9
$DIMADEC
 70
     0
  9
$DIMALTRND
 40
0.0
  9
$DIMAZIN
 70
     0
  9
$DIMDSEP
 70
    46
  9
$DIMATFIT
 70
     0
  9
$DIMFRAC
 70
     0
  9
$DIMLDRBLK
  1

  9
$DIMLUNIT
 70
     2
  9
$DIMLWD
 70
    -2
  9
$DIMLWE
 70
    -2
  9
$DIMTMOVE
 70
     0
  9
$LUNITS
 70
     2
  9
$LUPREC
 70
     2
  9
$SKETCHINC
 40
1.0
  9
$FILLETRAD
 40
24.0
  9
$AUNITS
 70
     0
  9
$AUPREC
 70
     3
  9
$MENU
  1
ACAD
  9
$ELEVATION
 40
0.0
  9
$PELEVATION
 40
0.0
  9
$THICKNESS
 40
0.0
  9
$LIMCHECK
 70
     0
  9
$CHAMFERA
 40
0.76
  9
$CHAMFERB
 40
0.76
  9
$CHAMFERC
 40
0.0
  9
$CHAMFERD
 40
0.0
  9
$SKPOLY
 70
     1
  9
$TDCREATE
 40
2449993.725698611
  9
$TDUCREATE
 40
2449993.725698611
  9
$TDUPDATE
 40
2455244.703720174
  9
$TDUUPDATE
 40
2455244.703720174
  9
$TDINDWG
 40
1.7365747454
  9
$TDUSRTIMER
 40
1.7365747454
  9
$USRTIMER
 70
     1
  9
$ANGBASE
 50
0.0
  9
$ANGDIR
 70
     0
  9
$PDMODE
 70
     3
  9
$PDSIZE
 40
0.0
  9
$PLINEWID
 40
0.0
  9
$SPLFRAME
 70
     0
  9
$SPLINETYPE
 70
     6
  9
$SPLINESEGS
 70
     6
  9
$HANDSEED
  5
9198
  9
$SURFTAB1
 70
    12
  9
$SURFTAB2
 70
    12
  9
$SURFTYPE
 70
     6
  9
$SURFU
 70
    12
  9
$SURFV
 70
    12
  9
$UCSBASE
  2

  9
$UCSNAME
  2

  9
$UCSORG
 10
578.4833765754188
 20
409.2077421121927
 30
0.0
  9
$UCSXDIR
 10
1.0
 20
0.0
 30
0.0
  9
$UCSYDIR
 10
0.0
 20
1.0
 30
0.0
  9
$UCSORTHOREF
  2

  9
$UCSORTHOVIEW
 70
     0
  9
$UCSORGTOP
 10
0.0
 20
0.0
 30
0.0
  9
$UCSORGBOTTOM
 10
0.0
 20
0.0
 30
0.0
  9
$UCSORGLEFT
 10
0.0
 20
0.0
 30
0.0
  9
$UCSORGRIGHT
 10
0.0
 20
0.0
 30
0.0
  9
$UCSORGFRONT
 10
0.0
 20
0.0
 30
0.0
  9
$UCSORGBACK
 10
0.0
 20
0.0
 30
0.0
  9
$PUCSBASE
  2

  9
$PUCSNAME
  2

  9
$PUCSORG
 10
0.0
 20
0.0
 30
0.0
  9
$PUCSXDIR
 10
1.0
 20
0.0
 30
0.0
  9
$PUCSYDIR
 10
0.0
 20
1.0
 30
0.0
  9
$PUCSORTHOREF
  2

  9
$PUCSORTHOVIEW
 70
     0
  9
$PUCSORGTOP
 10
0.0
 20
0.0
 30
0.0
  9
$PUCSORGBOTTOM
 10
0.0
 20
0.0
 30
0.0
  9
$PUCSORGLEFT
 10
0.0
 20
0.0
 30
0.0
  9
$PUCSORGRIGHT
 10
0.0
 20
0.0
 30
0.0
  9
$PUCSORGFRONT
 10
0.0
 20
0.0
 30
0.0
  9
$PUCSORGBACK
 10
0.0
 20
0.0
 30
0.0
  9
$USERI1
 70
     0
  9
$USERI2
 70
     0
  9
$USERI3
 70
     0
  9
$USERI4
 70
     0
  9
$USERI5
 70
     0
  9
$USERR1
 40
0.0
  9
$USERR2
 40
0.0
  9
$USERR3
 40
0.0
  9
$USERR4
 40
0.0
  9
$USERR5
 40
0.0
  9
$WORLDVIEW
 70
     0
  9
$SHADEDGE
 70
     3
  9
$SHADEDIF
 70
    70
  9
$TILEMODE
 70
     1
  9
$MAXACTVP
 70
    16
  9
$PINSBASE
 10
0.0
 20
0.0
 30
0.0
  9
$PLIMCHECK
 70
     0
  9
$PEXTMIN
 10
1.000000000000000E+20
 20
1.000000000000000E+20
 30
1.000000000000000E+20
  9
$PEXTMAX
 10
-1.000000000000000E+20
 20
-1.000000000000000E+20
 30
-1.000000000000000E+20
  9
$PLIMMIN
 10
0.0
 20
0.0
  9
$PLIMMAX
 10
12.0
 20
9.0
  9
$UNITMODE
 70
     0
  9
$VISRETAIN
 70
     0
  9
$PLINEGEN
 70
     0
  9
$PSLTSCALE
 70
     0
  9
$TREEDEPTH
 70
  3020
  9
$CMLSTYLE
  2
STANDARD
  9
$CMLJUST
 70
     0
  9
$CMLSCALE
 40
1.0
  9
$PROXYGRAPHICS
 70
     1
  9
$MEASUREMENT
 70
     0
  9
$CELWEIGHT
370
    -1
  9
$ENDCAPS
280
     0
  9
$JOINSTYLE
280
     0
  9
$LWDISPLAY
290
     0
  9
$INSUNITS
 70
     0
  9
$HYPERLINKBASE
  1

  9
$STYLESHEET
  1

  9
$XEDIT
290
     1
  9
$CEPSNTYPE
380
     0
  9
$PSTYLEMODE
290
     1
  9
$FINGERPRINTGUID
  2
{25DB17C0-51EF-11DA-A1A5-00055D4BFF93}
  9
$VERSIONGUID
  2
{0647DFC6-9272-4F44-BEA9-A9BA5370EC37}
  9
$EXTNAMES
290
     1
  9
$PSVPSCALE
 40
0.0
  9
$OLESTARTUP
290
     0
  0
ENDSEC
  0
SECTION
  2
CLASSES
  0
CLASS
  1
DICTIONARYVAR
  2
AcDbDictionaryVar
  3
AutoCAD 2000
 90
        0
280
     0
281
     0
  0
CLASS
  1
LWPOLYLINE
  2
AcDbPolyline
  3
AutoCAD 2000
 90
    32768
280
     0
281
     1
  0
CLASS
  1
HATCH
  2
AcDbHatch
  3
AutoCAD 2000
 90
    32768
280
     0
281
     1
  0
CLASS
  1
SORTENTSTABLE
  2
AcDbSortentsTable
  3
AutoCAD 2000
 90
        0
280
     0
281
     0
  0
CLASS
  1
WIPEOUTVARIABLES
  2
AcDbWipeoutVariables
  3
WIPEOUT
 90
        0
280
     0
281
     0
  0
CLASS
  1
WIPEOUT
  2
AcDbWipeout
  3
WIPEOUT
 90
      127
280
     0
281
     1
  0
CLASS
  1
ACDBDICTIONARYWDFLT
  2
AcDbDictionaryWithDefault
  3
AutoCAD 2000
 90
        0
280
     0
281
     0
  0
CLASS
  1
ACDBPLACEHOLDER
  2
AcDbPlaceHolder
  3
AutoCAD 2000
 90
        0
280
     0
281
     0
  0
CLASS
  1
LAYOUT
  2
AcDbLayout
  3
AutoCAD 2000
 90
        0
280
     0
281
     0
  0
ENDSEC
  0
SECTION
  2
TABLES
  0
TABLE
  2
VPORT
  5
8
330
0
100
AcDbSymbolTable
 70
     4
  0
VPORT
  5
9197
330
8
100
AcDbSymbolTableRecord
100
AcDbViewportTableRecord
  2
*Active
 70
     0
 10
0.0
 20
0.0
 11
1.0
 21
1.0
 12
678.8333110511371
 22
385.5204171978516
 13
0.0
 23
0.0
 14
10.0
 24
10.0
 15
0.0
 25
0.0
 16
0.0
 26
0.0
 36
1.0
 17
16.3133211678832
 27
12.7791147637061
 37
0.2229487474867098
 40
315.2337503315975
 41
2.301966292134831
 42
50.0
 43
0.0
 44
0.0
 50
0.0
 51
0.0
 71
     0
 72
  2000
 73
     1
 74
     2
 75
     0
 76
     0
 77
     0
 78
     1
281
     0
 65
     1
110
578.4833765754188
120
409.2077421121927
130
0.0
111
1.0
121
0.0
131
0.0
112
0.0
122
1.0
132
0.0
 79
     0
146
0.0
  0
ENDTAB
  0
TABLE
  2
LTYPE
  5
5
330
0
100
AcDbSymbolTable
 70
     3
  0
LTYPE
  5
11
330
5
100
AcDbSymbolTableRecord
100
AcDbLinetypeTableRecord
  2
BYBLOCK
 70
     0
  3

 72
    65
 73
     0
 40
0.0
  0
LTYPE
  5
12
330
5
100
AcDbSymbolTableRecord
100
AcDbLinetypeTableRecord
  2
BYLAYER
 70
     0
  3

 72
    65
 73
     0
 40
0.0
  0
LTYPE
  5
13
330
5
100
AcDbSymbolTableRecord
100
AcDbLinetypeTableRecord
  2
CONTINUOUS
 70
     0
  3
Solid line
 72
    65
 73
     0
 40
0.0
  0
LTYPE
  5
425C
330
5
100
AcDbSymbolTableRecord
100
AcDbLinetypeTableRecord
  2
CENTER
 70
     0
  3
Center ____ _ ____ _ ____ _ ____ _ ____ _ ____
 72
    65
 73
     4
 40
2.0
 49
1.25
 74
     0
 49
-0.25
 74
     0
 49
0.25
 74
     0
 49
-0.25
 74
     0
  0
LTYPE
  5
42A4
330
5
100
AcDbSymbolTableRecord
100
AcDbLinetypeTableRecord
  2
HIDDEN
 70
     0
  3
Hidden __ __ __ __ __ __ __ __ __ __ __ __ __ _
 72
    65
 73
     2
 40
0.375
 49
0.25
 74
     0
 49
-0.125
 74
     0
  0
ENDTAB
  0
TABLE
  2
LAYER
  5
2
330
0
100
AcDbSymbolTable
 70
     8
  0
LAYER
  5
E
330
2
100
AcDbSymbolTableRecord
100
AcDbLayerTableRecord
  2
0
 70
     0
 62
     7
  6
CONTINUOUS
370
    -3
390
8ABE
  0
LAYER
  5
425D
330
2
100
AcDbSymbolTableRecord
100
AcDbLayerTableRecord
  2
CENTRE
 70
     0
 62
     3
  6
CENTER
370
    -3
390
8ABE
  0
LAYER
  5
4261
330
2
100
AcDbSymbolTableRecord
100
AcDbLayerTableRecord
  2
M01
 70
     0
 62
     1
  6
CONTINUOUS
370
    -3
390
8ABE
  0
LAYER
  5
42A5
330
2
100
AcDbSymbolTableRecord
100
AcDbLayerTableRecord
  2
M03
 70
     0
 62
     2
  6
HIDDEN
370
    -3
390
8ABE
  0
LAYER
  5
42B0
330
2
100
AcDbSymbolTableRecord
100
AcDbLayerTableRecord
  2
M04
 70
     0
 62
     7
  6
CONTINUOUS
370
    -3
390
8ABE
  0
LAYER
  5
432E
330
2
100
AcDbSymbolTableRecord
100
AcDbLayerTableRecord
  2
DIMS
 70
     0
 62
     4
  6
CONTINUOUS
370
    -3
390
8ABE
  0
LAYER
  5
432F
330
2
100
AcDbSymbolTableRecord
100
AcDbLayerTableRecord
  2
TEXT
 70
     0
 62
     2
  6
CONTINUOUS
370
    -3
390
8ABE
  0
LAYER
  5
4570
330
2
100
AcDbSymbolTableRecord
100
AcDbLayerTableRecord
  2
DEFPOINTS
 70
     0
 62
     7
  6
CONTINUOUS
290
     0
370
    -3
390
8ABE
  0
ENDTAB
  0
TABLE
  2
STYLE
  5
3
330
0
100
AcDbSymbolTable
 70
     1
  0
STYLE
  5
F
330
3
100
AcDbSymbolTableRecord
100
AcDbTextStyleTableRecord
  2
STANDARD
 70
     0
 40
0.0
 41
1.0
 50
0.0
 71
     0
 42
2.0
  3
SIMPLEX
  4

  0
ENDTAB
  0
TABLE
  2
VIEW
  5
6
330
0
100
AcDbSymbolTable
 70
     0
  0
ENDTAB
  0
TABLE
  2
UCS
  5
7
330
0
100
AcDbSymbolTable
 70
     0
  0
ENDTAB
  0
TABLE
  2
APPID
  5
9
330
0
100
AcDbSymbolTable
 70
     6
  0
APPID
  5
10
330
9
100
AcDbSymbolTableRecord
100
AcDbRegAppTableRecord
  2
ACAD
 70
     0
  0
APPID
  5
114A
330
9
100
AcDbSymbolTableRecord
100
AcDbRegAppTableRecord
  2
CONTENTTABDATA
 70
     0
  0
APPID
  5
114B
330
9
100
AcDbSymbolTableRecord
100
AcDbRegAppTableRecord
  2
CONTENTCURRENTTAB
 70
     0
  0
APPID
  5
424D
330
9
100
AcDbSymbolTableRecord
100
AcDbRegAppTableRecord
  2
RAK
 70
     0
  0
APPID
  5
8175
330
9
100
AcDbSymbolTableRecord
100
AcDbRegAppTableRecord
  2
DRAWINGVARIABLESXDATA
 70
     0
  0
APPID
  5
8176
330
9
100
AcDbSymbolTableRecord
100
AcDbRegAppTableRecord
  2
CONTENTBLOCKDESCRIPTION
 70
     0
  0
ENDTAB
  0
TABLE
  2
DIMSTYLE
  5
A
330
0
100
AcDbSymbolTable
 70
    10
100
AcDbDimStyleTable
 71
     1
340
1011
  0
DIMSTYLE
105
25
330
A
100
AcDbSymbolTableRecord
100
AcDbDimStyleTableRecord
  2
AUDIT_I_100216164649-8
 70
     0
 41
3.0
 42
1.0
 43
10.0
 44
2.5
 45
0.01
 46
1.25
 73
     0
 74
     0
 77
     1
 78
     1
140
3.0
141
-0.07
143
0.039
145
1.5
147
0.0
176
     4
177
     4
178
     2
271
     2
272
     2
279
     2
284
     1
285
     1
286
     1
340
F
  0
DIMSTYLE
105
1011
102
{ACAD_REACTORS
330
8584
330
8BDD
330
8C7F
330
8585
102
}
330
A
100
AcDbSymbolTableRecord
100
AcDbDimStyleTableRecord
  2
DIM1
 70
     0
 41
3.0
 42
1.0
 43
10.0
 44
2.5
 45
0.01
 46
1.25
 47
0.05
 73
     0
 74
     0
 77
     3
 78
     1
140
3.0
141
-1.7
143
0.039
144
0.2
145
1.5
146
0.7
147
1.5
176
     4
177
     4
178
     2
271
     2
272
     2
284
     1
285
     1
286
     1
289
     0
340
F
  0
DIMSTYLE
105
101D
330
A
100
AcDbSymbolTableRecord
100
AcDbDimStyleTableRecord
  2
DIM1$2
 70
     0
 41
3.0
 42
1.0
 43
10.0
 44
2.5
 45
0.01
 46
1.25
 77
     1
 78
     1
140
3.0
141
-1.7
143
0.039
145
1.5
147
0.0
176
     4
177
     4
178
     2
179
     2
271
     2
272
     2
279
     2
284
     1
285
     1
286
     1
340
F
  0
DIMSTYLE
105
1025
330
A
100
AcDbSymbolTableRecord
100
AcDbDimStyleTableRecord
  2
DIM1$3
 70
     0
 41
3.0
 42
1.0
 43
10.0
 44
2.5
 45
0.01
 46
1.25
 78
     1
140
3.0
141
-1.7
143
0.039
147
0.0
172
     1
176
     4
177
     4
178
     2
271
     2
272
     2
284
     1
285
     1
286
     1
288
     1
289
     2
340
F
  0
DIMSTYLE
105
1061
330
A
100
AcDbSymbolTableRecord
100
AcDbDimStyleTableRecord
  2
DIM1$7
 70
     0
 41
3.0
 42
1.0
 43
10.0
 44
2.5
 45
0.01
 46
1.25
 73
     0
 74
     0
 78
     1
140
3.0
141
-1.7
143
0.039
147
1.5
176
     4
177
     4
178
     2
271
     2
272
     2
284
     1
285
     1
286
     1
289
     0
340
F
  0
DIMSTYLE
105
10B4
330
A
100
AcDbSymbolTableRecord
100
AcDbDimStyleTableRecord
  2
DIM1$4
 70
     0
 41
3.0
 42
1.0
 43
10.0
 44
2.5
 45
0.01
 46
1.25
 78
     1
140
3.0
141
-1.7
143
0.039
147
1.5
172
     1
176
     4
177
     4
178
     2
271
     2
272
     2
284
     1
285
     1
286
     1
288
     1
289
     0
340
F
  0
DIMSTYLE
105
10F8
330
A
100
AcDbSymbolTableRecord
100
AcDbDimStyleTableRecord
  2
DIM1$6
 70
     0
 41
3.0
 42
1.0
 43
10.0
 44
2.5
 45
0.01
 46
1.25
 73
     0
 74
     0
 78
     1
140
3.0
141
-1.7
143
0.039
147
1.5
176
     4
177
     4
178
     2
271
     2
272
     2
284
     1
285
     1
286
     1
289
     0
340
F
  0
DIMSTYLE
105
1EEC
330
A
100
AcDbSymbolTableRecord
100
AcDbDimStyleTableRecord
  2
TWOPLACES
 70
     0
 41
5.0
 42
2.5
 43
10.0
 44
2.5
 45
0.01
 73
     0
 74
     0
 77
     1
140
3.5
141
3.0
143
0.039
144
0.5
146
0.75
147
1.5
271
     2
340
F
  0
DIMSTYLE
105
21CF
330
A
100
AcDbSymbolTableRecord
100
AcDbDimStyleTableRecord
  2
STANDARD
 70
     0
340
F
  0
DIMSTYLE
105
7A1E
330
A
100
AcDbSymbolTableRecord
100
AcDbDimStyleTableRecord
  2
STANDARD_WS
 70
     0
 41
2.5
 42
0.625
 43
3.75
 44
1.25
 73
     0
 74
     0
 77
     1
 78
     8
140
2.5
141
2.5
143
0.0394
147
0.625
171
     4
172
     1
273
     8
274
     4
340
F
  0
ENDTAB
  0
TABLE
  2
BLOCK_RECORD
  5
1
330
0
100
AcDbSymbolTable
 70
     4
  0
BLOCK_RECORD
  5
17
102
{ACAD_XDICTIONARY
360
20BE
102
}
330
1
100
AcDbSymbolTableRecord
100
AcDbBlockTableRecord
  2
*MODEL_SPACE
340
8AC1
  0
BLOCK_RECORD
  5
14
330
1
100
AcDbSymbolTableRecord
100
AcDbBlockTableRecord
  2
*PAPER_SPACE
340
8AC2
  0
BLOCK_RECORD
  5
85F0
330
1
100
AcDbSymbolTableRecord
100
AcDbBlockTableRecord
  2
*D0
340
0
  0
BLOCK_RECORD
  5
85FD
330
1
100
AcDbSymbolTableRecord
100
AcDbBlockTableRecord
  2
*D1
340
0
  0
BLOCK_RECORD
  5
8BDE
330
1
100
AcDbSymbolTableRecord
100
AcDbBlockTableRecord
  2
*D2
340
0
  0
BLOCK_RECORD
  5
8C80
330
1
100
AcDbSymbolTableRecord
100
AcDbBlockTableRecord
  2
*D3
340
0
  0
ENDTAB
  0
ENDSEC
  0
SECTION
  2
BLOCKS
  0
BLOCK
  5
31
330
17
100
AcDbEntity
  8
0
100
AcDbBlockBegin
  2
*MODEL_SPACE
 70
     0
 10
0.0
 20
0.0
 30
0.0
  3
*MODEL_SPACE
  1

  0
ENDBLK
  5
32
330
17
100
AcDbEntity
  8
0
100
AcDbBlockEnd
  0
BLOCK
  5
2F
330
14
100
AcDbEntity
 67
     1
  8
0
100
AcDbBlockBegin
  2
*PAPER_SPACE
 70
     0
 10
0.0
 20
0.0
 30
0.0
  3
*PAPER_SPACE
  1

  0
ENDBLK
  5
30
330
14
100
AcDbEntity
 67
     1
  8
0
100
AcDbBlockEnd
  0
BLOCK
  5
8696
330
85F0
100
AcDbEntity
  8
0
100
AcDbBlockBegin
  2
*D0
 70
     1
 10
0.0
 20
0.0
 30
0.0
  3
*D0
  1

  0
LINE
  5
9171
330
85F0
100
AcDbEntity
  8
DIMS
 62
     4
370
    -2
100
AcDbLine
 10
881.005952208133
 20
275.1008955649804
 30
0.0
 11
881.005952208133
 21
270.6415629139084
 31
0.0
  0
LINE
  5
9172
330
85F0
100
AcDbEntity
  8
DIMS
 62
     4
370
    -2
100
AcDbLine
 10
852.4309522081331
 20
286.3694705992558
 30
0.0
 11
852.4309522081331
 21
270.6415629139084
 31
0.0
  0
LINE
  5
9173
330
85F0
100
AcDbEntity
  8
DIMS
 62
     4
370
    -2
100
AcDbLine
 10
878.005952208133
 20
273.1415629139084
 30
0.0
 11
855.430952208133
 21
273.1415629139084
 31
0.0
  0
SOLID
  5
9174
330
85F0
100
AcDbEntity
  8
DIMS
 62
     4
100
AcDbTrace
 10
878.005952208133
 20
273.6415629139084
 30
0.0
 11
878.005952208133
 21
272.6415629139084
 31
0.0
 12
881.005952208133
 22
273.1415629139084
 32
0.0
 13
881.005952208133
 23
273.1415629139084
 33
0.0
  0
SOLID
  5
9175
330
85F0
100
AcDbEntity
  8
DIMS
 62
     4
100
AcDbTrace
 10
855.430952208133
 20
273.6415629139084
 30
0.0
 11
855.430952208133
 21
272.6415629139084
 31
0.0
 12
852.4309522081331
 22
273.1415629139084
 32
0.0
 13
852.4309522081331
 23
273.1415629139084
 33
0.0
  0
MTEXT
  5
9176
330
85F0
100
AcDbEntity
  8
DIMS
 62
     2
100
AcDbMText
 10
862.6875492390281
 20
276.1415629139084
 30
0.0
 40
3.0
 41
0.0
 71
     5
 72
     1
  1
\A1;{\C4;28.58}
 73
     1
 44
1.0
  0
POINT
  5
9177
330
85F0
100
AcDbEntity
  8
DEFPOINTS
 62
     0
100
AcDbPoint
 10
881.005952208133
 20
276.1008955649804
 30
0.0
  0
POINT
  5
9178
330
85F0
100
AcDbEntity
  8
DEFPOINTS
 62
     0
100
AcDbPoint
 10
852.4309522081331
 20
287.3694705992558
 30
0.0
  0
POINT
  5
9179
330
85F0
100
AcDbEntity
  8
DEFPOINTS
 62
     0
100
AcDbPoint
 10
852.4309522081331
 20
273.1415629139084
 30
0.0
  0
ENDBLK
  5
86A1
330
85F0
100
AcDbEntity
  8
0
100
AcDbBlockEnd
  0
BLOCK
  5
868B
330
85FD
100
AcDbEntity
  8
0
100
AcDbBlockBegin
  2
*D1
 70
     1
 10
0.0
 20
0.0
 30
0.0
  3
*D1
  1

  0
LINE
  5
917A
330
85FD
100
AcDbEntity
  8
DIMS
 62
     4
370
    -2
100
AcDbLine
 10
881.005952208133
 20
275.1008955649804
 30
0.0
 11
881.005952208133
 21
259.5512524478142
 31
0.0
  0
LINE
  5
917B
330
85FD
100
AcDbEntity
  8
DIMS
 62
     4
370
    -2
100
AcDbLine
 10
601.8599522081333
 20
300.359470599256
 30
0.0
 11
601.8599522081333
 21
259.5512524478142
 31
0.0
  0
LINE
  5
917C
330
85FD
100
AcDbEntity
  8
DIMS
 62
     4
370
    -2
100
AcDbLine
 10
878.005952208133
 20
262.0512524478141
 30
0.0
 11
604.8599522081333
 21
262.0512524478141
 31
0.0
  0
SOLID
  5
917D
330
85FD
100
AcDbEntity
  8
DIMS
 62
     4
100
AcDbTrace
 10
878.005952208133
 20
262.5512524478141
 30
0.0
 11
878.005952208133
 21
261.5512524478142
 31
0.0
 12
881.005952208133
 22
262.0512524478141
 32
0.0
 13
881.005952208133
 23
262.0512524478141
 33
0.0
  0
SOLID
  5
917E
330
85FD
100
AcDbEntity
  8
DIMS
 62
     4
100
AcDbTrace
 10
604.8599522081333
 20
262.5512524478141
 30
0.0
 11
604.8599522081333
 21
261.5512524478142
 31
0.0
 12
601.8599522081333
 22
262.0512524478141
 32
0.0
 13
601.8599522081333
 23
262.0512524478141
 33
0.0
  0
MTEXT
  5
917F
330
85FD
100
AcDbEntity
  8
DIMS
 62
     2
100
AcDbMText
 10
741.4329522081332
 20
265.8369667335284
 30
0.0
 40
3.0
 41
0.0
 71
     5
 72
     1
  1
\A1;{\C4;L1=279.15(10.990")}
 73
     1
 44
1.0
  0
POINT
  5
9180
330
85FD
100
AcDbEntity
  8
DEFPOINTS
 62
     0
100
AcDbPoint
 10
881.005952208133
 20
276.1008955649804
 30
0.0
  0
POINT
  5
9181
330
85FD
100
AcDbEntity
  8
DEFPOINTS
 62
     0
100
AcDbPoint
 10
601.8599522081333
 20
301.3594705992559
 30
0.0
  0
POINT
  5
9182
330
85FD
100
AcDbEntity
  8
DEFPOINTS
 62
     0
100
AcDbPoint
 10
601.8599522081333
 20
262.0512524478141
 30
0.0
  0
ENDBLK
  5
8695
330
85FD
100
AcDbEntity
  8
0
100
AcDbBlockEnd
  0
BLOCK
  5
8BE9
330
8BDE
100
AcDbEntity
  8
0
 62
     4
100
AcDbBlockBegin
  2
*D2
 70
     1
 10
0.0
 20
0.0
 30
0.0
  3
*D2
  1

  0
LINE
  5
9183
330
8BDE
100
AcDbEntity
  8
DIMS
 62
     4
370
    -2
100
AcDbLine
 10
881.005952208133
 20
275.1008955649804
 30
0.0
 11
881.005952208133
 21
259.5512524478142
 31
0.0
  0
LINE
  5
9184
330
8BDE
100
AcDbEntity
  8
DIMS
 62
     4
370
    -2
100
AcDbLine
 10
884.1809522081334
 20
282.3594705992558
 30
0.0
 11
884.1809522081334
 21
259.5512524478142
 31
0.0
  0
LINE
  5
9185
330
8BDE
100
AcDbEntity
  8
DIMS
 62
     4
370
    -2
100
AcDbLine
 10
878.005952208133
 20
262.0512524478141
 30
0.0
 11
875.0059522081331
 21
262.0512524478141
 31
0.0
  0
LINE
  5
9186
330
8BDE
100
AcDbEntity
  8
DIMS
 62
     4
370
    -2
100
AcDbLine
 10
887.1809522081333
 20
262.0512524478141
 30
0.0
 11
901.7523807795619
 21
262.0512524478141
 31
0.0
  0
SOLID
  5
9187
330
8BDE
100
AcDbEntity
  8
DIMS
 62
     4
100
AcDbTrace
 10
878.005952208133
 20
262.5512524478141
 30
0.0
 11
878.005952208133
 21
261.5512524478142
 31
0.0
 12
881.005952208133
 22
262.0512524478141
 32
0.0
 13
881.005952208133
 23
262.0512524478141
 33
0.0
  0
SOLID
  5
9188
330
8BDE
100
AcDbEntity
  8
DIMS
 62
     4
100
AcDbTrace
 10
887.1809522081333
 20
262.5512524478141
 30
0.0
 11
887.1809522081333
 21
261.5512524478142
 31
0.0
 12
884.1809522081334
 22
262.0512524478141
 32
0.0
 13
884.1809522081334
 23
262.0512524478141
 33
0.0
  0
MTEXT
  5
9189
330
8BDE
100
AcDbEntity
  8
DIMS
 62
     2
100
AcDbMText
 10
895.9666664938477
 20
265.0512524478141
 30
0.0
 40
3.0
 41
0.0
 71
     5
 72
     1
  1
\A1;{\C4;3.18}
 73
     1
 44
1.0
  0
POINT
  5
918A
330
8BDE
100
AcDbEntity
  8
DEFPOINTS
 62
     0
100
AcDbPoint
 10
881.005952208133
 20
276.1008955649804
 30
0.0
  0
POINT
  5
918B
330
8BDE
100
AcDbEntity
  8
DEFPOINTS
 62
     0
100
AcDbPoint
 10
884.1809522081334
 20
283.3594705992558
 30
0.0
  0
POINT
  5
918C
330
8BDE
100
AcDbEntity
  8
DEFPOINTS
 62
     0
100
AcDbPoint
 10
884.1809522081334
 20
262.0512524478141
 30
0.0
  0
ENDBLK
  5
8BEA
330
8BDE
100
AcDbEntity
  8
0
 62
     4
100
AcDbBlockEnd
  0
BLOCK
  5
8C8A
330
8C80
100
AcDbEntity
  8
0
100
AcDbBlockBegin
  2
*D3
 70
     1
 10
0.0
 20
0.0
 30
0.0
  3
*D3
  1

  0
LINE
  5
918D
330
8C80
100
AcDbEntity
  8
DIMS
 62
     4
370
    -2
100
AcDbLine
 10
858.4309522081332
 20
350.1094705992558
 30
0.0
 11
914.3466001568645
 21
350.1094705992558
 31
0.0
  0
LINE
  5
918E
330
8C80
100
AcDbEntity
  8
DIMS
 62
     4
370
    -2
100
AcDbLine
 10
858.4309522081332
 20
286.6094705992558
 30
0.0
 11
914.3466001568645
 21
286.6094705992558
 31
0.0
  0
LINE
  5
918F
330
8C80
100
AcDbEntity
  8
DIMS
 62
     4
370
    -2
100
AcDbLine
 10
911.8466001568645
 20
347.1094705992558
 30
0.0
 11
911.8466001568645
 21
289.6094705992558
 31
0.0
  0
SOLID
  5
9190
330
8C80
100
AcDbEntity
  8
DIMS
 62
     4
100
AcDbTrace
 10
911.3466001568644
 20
347.1094705992558
 30
0.0
 11
912.3466001568644
 21
347.1094705992558
 31
0.0
 12
911.8466001568645
 22
350.1094705992558
 32
0.0
 13
911.8466001568645
 23
350.1094705992558
 33
0.0
  0
SOLID
  5
9191
330
8C80
100
AcDbEntity
  8
DIMS
 62
     4
100
AcDbTrace
 10
911.3466001568644
 20
289.6094705992558
 30
0.0
 11
912.3466001568644
 21
289.6094705992558
 31
0.0
 12
911.8466001568645
 22
286.6094705992558
 32
0.0
 13
911.8466001568645
 23
286.6094705992558
 33
0.0
  0
MTEXT
  5
9192
330
8C80
100
AcDbEntity
  8
DIMS
 62
     2
100
AcDbMText
 10
908.8466001568644
 20
318.3594705992559
 30
0.0
 40
3.0
 41
0.0
 71
     5
 72
     1
  1
\A1;{\C4;Ø63.50}
 11
0.0000000000000001
 21
1.0
 31
0.0
 73
     1
 44
1.0
  0
POINT
  5
9193
330
8C80
100
AcDbEntity
  8
DEFPOINTS
 62
     0
100
AcDbPoint
 10
857.4309522081332
 20
350.1094705992558
 30
0.0
  0
POINT
  5
9194
330
8C80
100
AcDbEntity
  8
DEFPOINTS
 62
     0
100
AcDbPoint
 10
857.4309522081332
 20
286.6094705992558
 30
0.0
  0
POINT
  5
9195
330
8C80
100
AcDbEntity
  8
DEFPOINTS
 62
     0
100
AcDbPoint
 10
911.8466001568645
 20
286.6094705992558
 30
0.0
  0
ENDBLK
  5
8C8B
330
8C80
100
AcDbEntity
  8
0
100
AcDbBlockEnd
  0
ENDSEC
  0
SECTION
  2
ENTITIES
  0
ACAD_PROXY_ENTITY
  5
6FE3
330
17
100
AcDbEntity
  8
TEXT
100
AcDbProxyEntity
 90
      498
 91
      505
 95
   589845
 70
     0
 92
        8
310
0800000000000000
 93
     1035
310
8A10DE4DA5DB889400F0467D0C67A56900C8DD91A59589CCBF2843BAA8038CD2102A2843BAA8038CD21020000000000000000000000000000000041E64640081209205A7126080F907EF7D5F09FD76BB57FB9FFFFFFFFFFBE7EF7D5F09FD76BB57E000000000001C07FB1FFFFFFFFFFBF7E585C7126080F907E00000000000
310
1C17F2
340
0
360
0
 94
        0
  0
TEXT
  5
78AB
330
17
100
AcDbEntity
  8
TEXT
 62
     4
100
AcDbText
 10
489.3015633221008
 20
255.8117915154562
 30
0.0
 40
4.0
  1
%%UNOTE
100
AcDbText
  0
TEXT
  5
78AC
330
17
100
AcDbEntity
  8
TEXT
 62
     4
100
AcDbText
 10
469.7282615055911
 20
247.3717212753765
 30
0.0
 40
3.0
  1
AN ALLOWANCE FOR EXPANSION OF THE BUSHING MUST BE MADE DEPENDENT ON THE
100
AcDbText
  0
TEXT
  5
78AE
330
17
100
AcDbEntity
  8
TEXT
 62
     4
100
AcDbText
 10
469.3335107371007
 20
242.0612913419049
 30
0.0
 40
3.0
  1
MATERIAL TO BE MOULDED AND THE PROCESS CONDITIONS - SEE CATALOGUE FOR DETAILS
100
AcDbText
  0
LINE
  5
84E3
330
17
100
AcDbEntity
  8
CENTRE
 48
0.7
100
AcDbLine
 10
596.8599522081332
 20
318.3594705992558
 30
0.0
 11
898.2605577089726
 21
318.3594705992558
 31
0.0
  0
LINE
  5
84E6
330
17
100
AcDbEntity
  8
M01
100
AcDbLine
 10
602.8599522081336
 20
340.559470599256
 30
0.0
 11
602.8599522081334
 21
297.8594705992559
 31
0.0
  0
LINE
  5
84E9
330
17
100
AcDbEntity
  8
M01
100
AcDbLine
 10
601.8599522081331
 20
335.3594705992559
 30
0.0
 11
601.8599522081333
 21
301.3594705992559
 31
0.0
  0
LINE
  5
8510
330
17
100
AcDbEntity
  8
0
  6
ByBlock
 62
     4
100
AcDbLine
 10
600.2319136926074
 20
322.2852814189418
 30
0.0
 11
594.4675051258858
 21
336.3692758392755
 31
0.0
  0
LINE
  5
8511
330
17
100
AcDbEntity
  8
0
  6
ByBlock
 62
     4
100
AcDbLine
 10
594.4675051258858
 20
336.3692758392755
 30
0.0
 11
591.4675051258861
 21
336.3692758392755
 31
0.0
  0
SOLID
  5
8512
330
17
100
AcDbEntity
  8
0
  6
ByBlock
 62
     4
100
AcDbTrace
 10
600.693773789041
 20
322.4768153619449
 30
0.0
 11
599.7700535961739
 21
322.0937474759388
 31
0.0
 12
601.3811173506256
 22
319.5141208403398
 32
0.0
 13
601.3811173506256
 23
319.5141208403398
 33
0.0
  0
MTEXT
  5
8513
330
17
100
AcDbEntity
  8
0
  6
ByBlock
 62
     4
100
AcDbMText
 10
565.1463681876231
 20
336.5920437388832
 30
0.0
 40
3.0
 41
0.0
 71
     5
 72
     1
  1
TIP INSERTION POINT
 73
     1
 44
1.0
  0
LINE
  5
8538
330
17
100
AcDbEntity
  8
M01
100
AcDbLine
 10
880.1709522081329
 20
491.2597341853274
 30
0.0
 11
876.1809522081332
 21
491.2597341853274
 31
0.0
  0
LINE
  5
8539
330
17
100
AcDbEntity
  8
M01
100
AcDbLine
 10
881.6809522081332
 20
519.2597341853277
 30
0.0
 11
874.680952208133
 21
519.2597341853272
 31
0.0
  0
LINE
  5
853A
330
17
100
AcDbEntity
  8
M01
100
AcDbLine
 10
881.6809522081332
 20
509.2597341853275
 30
0.0
 11
881.6809522081332
 21
519.2597341853277
 31
0.0
  0
LINE
  5
853B
330
17
100
AcDbEntity
  8
M01
100
AcDbLine
 10
880.1709522081329
 20
491.2597341853274
 30
0.0
 11
881.1809522081331
 21
501.1844773696595
 31
0.0
  0
LINE
  5
853C
330
17
100
AcDbEntity
  8
M01
100
AcDbLine
 10
874.680952208133
 20
509.2597341853272
 30
0.0
 11
874.680952208133
 21
519.2597341853272
 31
0.0
  0
LINE
  5
853D
330
17
100
AcDbEntity
  8
M01
100
AcDbLine
 10
876.1809522081332
 20
491.2597341853274
 30
0.0
 11
875.1809522081329
 21
501.18447736966
 31
0.0
  0
LINE
  5
853E
330
17
100
AcDbEntity
  8
M01
100
AcDbLine
 10
875.1809522081329
 20
501.18447736966
 30
0.0
 11
875.1809522081329
 21
509.2597341853274
 31
0.0
  0
LINE
  5
853F
330
17
100
AcDbEntity
  8
M01
100
AcDbLine
 10
881.1809522081331
 20
501.1844773696595
 30
0.0
 11
881.1809522081331
 21
509.2597341853274
 31
0.0
  0
LINE
  5
8540
330
17
100
AcDbEntity
  8
M01
100
AcDbLine
 10
875.1809522081329
 20
501.18447736966
 30
0.0
 11
881.1809522081331
 21
501.1844773696595
 31
0.0
  0
LINE
  5
8541
330
17
100
AcDbEntity
  8
M01
100
AcDbLine
 10
881.6809522081332
 20
509.2597341853275
 30
0.0
 11
874.680952208133
 21
509.2597341853272
 31
0.0
  0
LINE
  5
8544
330
17
100
AcDbEntity
  8
CENTRE
 48
0.7
100
AcDbLine
 10
878.180952208133
 20
480.9344424677498
 30
0.0
 11
878.1809522081331
 21
554.0100290016495
 31
0.0
  0
LINE
  5
8558
330
17
100
AcDbEntity
  8
M01
100
AcDbLine
 10
880.4309522081334
 20
519.2597341853274
 30
0.0
 11
880.4309522081334
 21
519.3158866122437
 31
0.0
  0
LINE
  5
857E
330
17
100
AcDbEntity
  8
M01
100
AcDbLine
 10
876.1809522081332
 20
491.2597341853274
 30
0.0
 11
876.1809522081334
 21
388.5216240940713
 31
0.0
  0
LINE
  5
857F
330
17
100
AcDbEntity
  8
M01
100
AcDbLine
 10
880.1709522081329
 20
491.2597341853274
 30
0.0
 11
880.1709522081345
 21
388.5056730249143
 31
0.0
  0
DIMENSION
  5
8584
330
17
100
AcDbEntity
  8
DIMS
100
AcDbDimension
  2
*D0
 10
852.4309522081331
 20
273.1415629139084
 30
0.0
 11
862.6875492390281
 21
273.1415629139084
 31
0.0
 70
   160
  1
{\C4;<>}
 71
     5
 42
28.57499999999993
  3
DIM1
100
AcDbAlignedDimension
 13
881.005952208133
 23
276.1008955649804
 33
0.0
 14
852.4309522081331
 24
287.3694705992558
 34
0.0
100
AcDbRotatedDimension
1001
ACAD
1000
DSTYLE
1002
{
1070
   144
1040
1.0
1002
}
  0
DIMENSION
  5
8585
330
17
100
AcDbEntity
  8
DIMS
100
AcDbDimension
  2
*D1
 10
601.8599522081333
 20
262.0512524478141
 30
0.0
 11
741.4329522081332
 21
265.8369667335284
 31
0.0
 70
    32
  1
{\C4;L1=<>(10.990")}
 71
     5
 42
279.1459999999997
  3
DIM1
100
AcDbAlignedDimension
 13
881.005952208133
 23
276.1008955649804
 33
0.0
 14
601.8599522081333
 24
301.3594705992559
 34
0.0
100
AcDbRotatedDimension
1001
ACAD
1000
DSTYLE
1002
{
1070
   144
1040
1.0
1002
}
  0
TEXT
  5
8588
330
17
100
AcDbEntity
  8
DIMS
 62
     4
100
AcDbText
 10
907.1471122657504
 20
327.6133148413204
 30
0.0
 40
2.0
  1
+0.02
 50
90.0
100
AcDbText
  0
TEXT
  5
8589
330
17
100
AcDbEntity
  8
DIMS
 62
     4
100
AcDbText
 10
910.2320326375711
 20
327.6133148413204
 30
0.0
 40
2.0
  1
-0
 50
90.0
100
AcDbText
  0
TEXT
  5
858A
330
17
100
AcDbEntity
  8
DIMS
 62
     4
100
AcDbText
 10
870.5962916557163
 20
277.7373428669588
 30
0.0
 40
2.0
  1
+0.02
100
AcDbText
  0
TEXT
  5
858B
330
17
100
AcDbEntity
  8
DIMS
 62
     4
100
AcDbText
 10
870.5962916557163
 20
274.652422495138
 30
0.0
 40
2.0
  1
-0
100
AcDbText
  0
TEXT
  5
858C
330
17
100
AcDbEntity
  8
TEXT
 62
     1
100
AcDbText
 10
613.4495136417687
 20
332.8680109730012
 30
0.0
 40
2.0
  1
PSB2000-11500
 41
0.9
100
AcDbText
  0
LINE
  5
858D
330
17
100
AcDbEntity
  8
CENTRE
100
AcDbLine
 10
534.1074011414089
 20
318.3594705992558
 30
0.0
 11
464.6074011414088
 21
318.3594705992558
 31
0.0
  0
LINE
  5
8593
330
17
100
AcDbEntity
  8
M04
100
AcDbLine
 10
505.3574011414091
 20
554.5999854914763
 30
0.0
 11
505.3574011414085
 21
349.5373874636007
 31
0.0
  0
LINE
  5
8594
330
17
100
AcDbEntity
  8
M04
100
AcDbLine
 10
493.3574011414091
 20
554.5999854914763
 30
0.0
 11
493.3574011414083
 21
349.5373874636006
 31
0.0
  0
LINE
  5
8595
330
17
100
AcDbEntity
  8
M01
100
AcDbLine
 10
501.3524011414086
 20
491.2597341853275
 30
0.0
 11
497.3624011414087
 21
491.2597341853275
 31
0.0
  0
LINE
  5
8596
330
17
100
AcDbEntity
  8
M01
100
AcDbLine
 10
502.8624011414088
 20
519.2597341853277
 30
0.0
 11
495.8624011414086
 21
519.2597341853272
 31
0.0
  0
LINE
  5
8597
330
17
100
AcDbEntity
  8
M01
100
AcDbLine
 10
502.8624011414088
 20
509.2597341853276
 30
0.0
 11
502.8624011414088
 21
519.2597341853277
 31
0.0
  0
LINE
  5
8598
330
17
100
AcDbEntity
  8
M01
100
AcDbLine
 10
501.3524011414086
 20
491.2597341853275
 30
0.0
 11
502.3624011414088
 21
501.1844773696596
 31
0.0
  0
LINE
  5
8599
330
17
100
AcDbEntity
  8
M01
100
AcDbLine
 10
495.8624011414086
 20
509.2597341853273
 30
0.0
 11
495.8624011414086
 21
519.2597341853272
 31
0.0
  0
LINE
  5
859A
330
17
100
AcDbEntity
  8
M01
100
AcDbLine
 10
497.3624011414089
 20
491.2597341853275
 30
0.0
 11
496.3624011414084
 21
501.1844773696601
 31
0.0
  0
LINE
  5
859B
330
17
100
AcDbEntity
  8
M01
100
AcDbLine
 10
496.3624011414084
 20
501.1844773696601
 30
0.0
 11
496.3624011414085
 21
509.2597341853275
 31
0.0
  0
LINE
  5
859C
330
17
100
AcDbEntity
  8
M01
100
AcDbLine
 10
502.3624011414088
 20
501.1844773696596
 30
0.0
 11
502.3624011414086
 21
509.2597341853275
 31
0.0
  0
LINE
  5
859D
330
17
100
AcDbEntity
  8
M01
100
AcDbLine
 10
496.3624011414084
 20
501.1844773696601
 30
0.0
 11
502.3624011414088
 21
501.1844773696596
 31
0.0
  0
LINE
  5
859E
330
17
100
AcDbEntity
  8
M01
100
AcDbLine
 10
502.8624011414088
 20
509.2597341853276
 30
0.0
 11
495.8624011414086
 21
509.2597341853273
 31
0.0
  0
LINE
  5
859F
330
17
100
AcDbEntity
  8
CENTRE
 48
0.7
100
AcDbLine
 10
499.3574011414088
 20
283.6094705992558
 30
0.0
 11
499.3574011414087
 21
554.5999854914762
 31
0.0
  0
LINE
  5
85B3
330
17
100
AcDbEntity
  8
M01
100
AcDbLine
 10
501.612401141409
 20
519.2597341853277
 30
0.0
 11
501.6124011414091
 21
519.3158866122437
 31
0.0
  0
LINE
  5
85D7
330
17
100
AcDbEntity
  8
M01
100
AcDbLine
 10
497.357401141409
 20
491.2597341853275
 30
0.0
 11
497.3574011414092
 21
339.7662452278635
 31
0.0
  0
LINE
  5
85D8
330
17
100
AcDbEntity
  8
M01
100
AcDbLine
 10
501.3474011414088
 20
491.2597341853275
 30
0.0
 11
501.3474011414096
 21
339.7671771555406
 31
0.0
  0
LINE
  5
8658
330
17
100
AcDbEntity
  8
M04
 48
0.7
100
AcDbLine
 10
884.1809522081332
 20
292.3594705992559
 30
0.0
 11
887.3559522081329
 21
292.3594705992558
 31
0.0
  0
LINE
  5
865A
330
17
100
AcDbEntity
  8
M04
100
AcDbLine
 10
887.3559522081331
 20
292.3594705992558
 30
0.0
 11
893.0059522081331
 21
286.7094705992559
 31
0.0
  0
LINE
  5
8ACB
102
{ACAD_REACTORS
330
8ED0
102
}
330
17
100
AcDbEntity
  8
M01
100
AcDbLine
 10
881.0059522081331
 20
350.1094705992558
 30
0.0
 11
881.005952208133
 21
286.6094705992558
 31
0.0
  0
LINE
  5
8ACC
330
17
100
AcDbEntity
  8
M01
100
AcDbLine
 10
884.1809522081328
 20
343.5994705992559
 30
0.0
 11
884.1809522081332
 21
293.1194705992558
 31
0.0
  0
LINE
  5
8AEB
102
{ACAD_REACTORS
330
8ED0
102
}
330
17
100
AcDbEntity
  8
M01
100
AcDbLine
 10
883.4209522081328
 20
344.3594705992558
 30
0.0
 11
881.005952208133
 21
344.3594705992558
 31
0.0
  0
LINE
  5
8AEC
102
{ACAD_REACTORS
330
8ED0
102
}
330
17
100
AcDbEntity
  8
M01
100
AcDbLine
 10
883.4209522081332
 20
292.3594705992558
 30
0.0
 11
881.005952208133
 21
292.3594705992558
 31
0.0
  0
LINE
  5
8AEF
330
17
100
AcDbEntity
  8
M01
100
AcDbLine
 10
876.0059522081331
 20
349.3594705992558
 30
0.0
 11
876.0059522081329
 21
287.3594705992561
 31
0.0
  0
LINE
  5
8AF9
330
17
100
AcDbEntity
  8
M01
100
AcDbLine
 10
883.4209522081332
 20
292.3594705992558
 30
0.0
 11
884.1809522081332
 21
293.1194705992558
 31
0.0
  0
LINE
  5
8AFA
330
17
100
AcDbEntity
  8
M01
100
AcDbLine
 10
883.4209522081328
 20
344.3594705992558
 30
0.0
 11
884.1809522081328
 21
343.5994705992559
 31
0.0
  0
LINE
  5
8AFB
330
17
100
AcDbEntity
  8
M01
100
AcDbLine
 10
883.4209522081327
 20
344.3594705992556
 30
0.0
 11
883.4209522081328
 21
292.3594705992558
 31
0.0
  0
LINE
  5
8AFC
330
17
100
AcDbEntity
  8
M01
100
AcDbLine
 10
880.2459522081331
 20
349.3594705992559
 30
0.0
 11
880.2459522081331
 21
287.3594705992561
 31
0.0
  0
LINE
  5
8B08
330
17
100
AcDbEntity
  8
M01
100
AcDbLine
 10
864.8769522081332
 20
351.4582699887128
 30
0.0
 11
864.8769522081332
 21
349.3594705992558
 31
0.0
  0
LINE
  5
8B09
330
17
100
AcDbEntity
  8
M01
100
AcDbLine
 10
860.8769522081322
 20
351.4582699887091
 30
0.0
 11
860.8769522081324
 21
349.3594705992558
 31
0.0
  0
LINE
  5
8B30
330
17
100
AcDbEntity
  8
M04
100
AcDbLine
 10
872.1809522081329
 20
554.5999854914762
 30
0.0
 11
872.1809522081331
 21
382.0383070944301
 31
0.0
  0
LINE
  5
8B48
330
17
100
AcDbEntity
  8
0
100
AcDbLine
 10
855.605952208133
 20
293.8464705992558
 30
0.0
 11
855.605952208133
 21
293.0864705992559
 31
0.0
  0
LINE
  5
8B4E
330
17
100
AcDbEntity
  8
0
100
AcDbLine
 10
841.2949693794077
 20
287.3594705992559
 30
0.0
 11
852.4409522081329
 21
287.3594705992559
 31
0.0
  0
LINE
  5
8B55
330
17
100
AcDbEntity
  8
0
100
AcDbLine
 10
855.6059522081332
 20
342.8724705992559
 30
0.0
 11
855.605952208133
 21
343.6324705992557
 31
0.0
  0
LINE
  5
8B59
102
{ACAD_REACTORS
330
8ED0
102
}
330
17
100
AcDbEntity
  8
M01
100
AcDbLine
 10
883.4209522081328
 20
344.3594705992558
 30
0.0
 11
884.1809522081328
 21
345.1194705992559
 31
0.0
  0
LINE
  5
8B5B
330
17
100
AcDbEntity
  8
M01
100
AcDbLine
 10
881.005952208133
 20
343.6344705992558
 30
0.0
 11
884.1809522081328
 21
343.6344705992558
 31
0.0
  0
LINE
  5
8B5C
102
{ACAD_REACTORS
330
8ED0
102
}
330
17
100
AcDbEntity
  8
M01
100
AcDbLine
 10
883.4209522081328
 20
292.3594705992554
 30
0.0
 11
884.1809522081332
 21
291.599470599255
 31
0.0
  0
LINE
  5
8B5D
330
17
100
AcDbEntity
  8
M01
100
AcDbLine
 10
881.005952208133
 20
293.0844705992559
 30
0.0
 11
884.1809522081334
 21
293.0844705992559
 31
0.0
  0
LINE
  5
8B66
330
17
100
AcDbEntity
  8
M04
 48
0.7
100
AcDbLine
 10
884.1809522081332
 20
344.3594705992558
 30
0.0
 11
887.3559522081329
 21
344.3594705992558
 31
0.0
  0
LINE
  5
8B67
330
17
100
AcDbEntity
  8
M04
100
AcDbLine
 10
887.3559522081331
 20
344.3594705992558
 30
0.0
 11
893.0059522081329
 21
350.0094705992558
 31
0.0
  0
LINE
  5
8B68
330
17
100
AcDbEntity
  8
0
100
AcDbLine
 10
887.3559522081331
 20
344.3594705992558
 30
0.0
 11
887.3559522081331
 21
292.3594705992558
 31
0.0
  0
DIMENSION
  5
8BDD
330
17
100
AcDbEntity
  8
DIMS
 62
     4
100
AcDbDimension
  2
*D2
 10
884.1809522081334
 20
262.0512524478141
 30
0.0
 11
895.9666664938477
 21
265.0512524478141
 31
0.0
 70
    32
  1
{\C4;<>}
 71
     5
 42
3.175000000000295
  3
DIM1
100
AcDbAlignedDimension
 13
881.005952208133
 23
276.1008955649804
 33
0.0
 14
884.1809522081334
 24
283.3594705992558
 34
0.0
100
AcDbRotatedDimension
1001
ACAD
1000
DSTYLE
1002
{
1070
   144
1040
1.0
1002
}
  0
CIRCLE
  5
8C26
330
17
100
AcDbEntity
  8
M04
100
AcDbCircle
 10
601.8599522081331
 20
318.3594705992558
 30
0.0
 40
1.25
  0
LINE
  5
8C29
102
{ACAD_REACTORS
330
8ED0
102
}
330
17
100
AcDbEntity
  8
M04
100
AcDbLine
 10
881.005952208133
 20
348.599470599256
 30
0.0
 11
881.005952208133
 21
368.3594705992558
 31
0.0
  0
LINE
  5
8C2A
330
17
100
AcDbEntity
  8
M04
100
AcDbLine
 10
881.005952208133
 20
368.3594705992558
 30
0.0
 11
890.0059522081329
 21
368.3594705992558
 31
0.0
  0
LINE
  5
8C2C
330
17
100
AcDbEntity
  8
M04
100
AcDbLine
 10
884.1809522081334
 20
368.3594705992559
 30
0.0
 11
884.1809522081334
 21
554.5999854914762
 31
0.0
  0
LINE
  5
8C2E
330
17
100
AcDbEntity
  8
M04
100
AcDbLine
 10
893.0059522081329
 20
344.0094705992559
 30
0.0
 11
893.0059522081329
 21
366.6274197916868
 31
0.0
  0
LINE
  5
8C30
330
17
100
AcDbEntity
  8
M04
100
AcDbLine
 10
890.0059522081331
 20
368.3594705992558
 30
0.0
 11
893.0059522081329
 21
366.6274197916869
 31
0.0
  0
LINE
  5
8C31
330
17
100
AcDbEntity
  8
M04
100
AcDbLine
 10
893.0059522081329
 20
344.0094705992559
 30
0.0
 11
893.0059522081329
 21
279.9406655588557
 31
0.0
  0
LINE
  5
8C38
330
17
100
AcDbEntity
  8
M01
100
AcDbLine
 10
875.6809522081331
 20
544.2804087616564
 30
0.0
 11
875.6809522081329
 21
519.2597341853272
 31
0.0
  0
LINE
  5
8C3A
330
17
100
AcDbEntity
  8
M01
100
AcDbLine
 10
880.6809522081332
 20
545.6201547238119
 30
0.0
 11
880.6809522081332
 21
519.2597341853276
 31
0.0
  0
HATCH
  5
8C43
330
17
100
AcDbEntity
  8
M01
100
AcDbHatch
 10
0.0
 20
0.0
 30
0.0
210
0.0
220
0.0
230
1.0
  2
ANSI31
 70
     0
 71
     0
 91
        2
 92
        7
 72
     0
 73
     1
 93
        4
 10
878.1809522081331
 20
544.9502817427342
 10
875.6809522081331
 20
544.2804087616564
 10
875.6809522081329
 20
519.2597341853272
 10
878.180952208133
 20
519.2597341853274
 97
        0
 92
        7
 72
     0
 73
     1
 93
        4
 10
880.6809522081332
 20
545.6201547238119
 10
878.1809522081331
 20
544.9502817427342
 10
878.180952208133
 20
519.2597341853274
 10
880.6809522081332
 20
519.2597341853276
 97
        0
 75
     0
 76
     1
 52
0.0
 41
10.0
 77
     0
 78
     1
 53
45.0
 43
807.0833765754189
 44
512.1215075492139
 45
-0.8838834764831842
 46
0.8838834764831844
 79
     0
 47
0.1095052059876858
 98
        2
 10
876.1667754199763
 20
540.6670000781851
 10
878.9064473314731
 20
541.1050224523028
  0
HATCH
  5
8C4C
330
17
100
AcDbEntity
  8
M01
100
AcDbHatch
 10
0.0
 20
0.0
 30
0.0
210
0.0
220
0.0
230
1.0
  2
ANSI31
 70
     0
 71
     0
 91
        2
 92
        7
 72
     0
 73
     1
 93
        4
 10
878.1809522081331
 20
544.9502817427342
 10
875.6809522081331
 20
544.2804087616564
 10
875.6809522081329
 20
519.2597341853272
 10
878.180952208133
 20
519.2597341853274
 97
        0
 92
        7
 72
     0
 73
     1
 93
        4
 10
880.6809522081332
 20
545.6201547238119
 10
878.1809522081331
 20
544.9502817427342
 10
878.180952208133
 20
519.2597341853274
 10
880.6809522081332
 20
519.2597341853276
 97
        0
 75
     0
 76
     1
 52
90.0
 41
10.0
 77
     0
 78
     1
 53
135.0
 43
807.0833765754189
 44
512.1215075492139
 45
-0.8838834764831844
 46
-0.8838834764831842
 79
     0
 47
0.1095052059876858
 98
        2
 10
876.7147110221063
 20
537.3818449999889
 10
879.1256234020703
 20
537.6008552079947
  0
LINE
  5
8C4D
330
17
100
AcDbEntity
  8
M01
100
AcDbLine
 10
496.8624011414089
 20
544.2804087616565
 30
0.0
 11
496.8624011414087
 21
519.2597341853273
 31
0.0
  0
LINE
  5
8C4E
330
17
100
AcDbEntity
  8
M01
100
AcDbLine
 10
501.8624011414089
 20
545.6201547238122
 30
0.0
 11
501.8624011414089
 21
519.2597341853277
 31
0.0
  0
HATCH
  5
8C4F
330
17
100
AcDbEntity
  8
M01
100
AcDbHatch
 10
0.0
 20
0.0
 30
0.0
210
0.0
220
0.0
230
1.0
  2
ANSI31
 70
     0
 71
     0
 91
        2
 92
        7
 72
     0
 73
     1
 93
        4
 10
499.3624011414088
 20
544.9502817427344
 10
496.8624011414089
 20
544.2804087616566
 10
496.8624011414087
 20
519.2597341853273
 10
499.3624011414087
 20
519.2597341853274
 97
        0
 92
        7
 72
     0
 73
     1
 93
        4
 10
501.8624011414089
 20
545.6201547238122
 10
499.3624011414088
 20
544.9502817427344
 10
499.3624011414087
 20
519.2597341853274
 10
501.8624011414089
 20
519.2597341853277
 97
        0
 75
     0
 76
     1
 52
0.0
 41
10.0
 77
     0
 78
     1
 53
45.0
 43
428.2648255086947
 44
512.1215075492139
 45
-0.8838834764831842
 46
0.8838834764831844
 79
     0
 47
0.1095052059876858
 98
        2
 10
497.348224353252
 20
540.6670000781852
 10
500.0878962647488
 20
541.105022452303
  0
HATCH
  5
8C50
330
17
100
AcDbEntity
  8
M01
100
AcDbHatch
 10
0.0
 20
0.0
 30
0.0
210
0.0
220
0.0
230
1.0
  2
ANSI31
 70
     0
 71
     0
 91
        2
 92
        7
 72
     0
 73
     1
 93
        4
 10
499.3624011414088
 20
544.9502817427344
 10
496.8624011414089
 20
544.2804087616566
 10
496.8624011414087
 20
519.2597341853273
 10
499.3624011414087
 20
519.2597341853274
 97
        0
 92
        7
 72
     0
 73
     1
 93
        4
 10
501.8624011414089
 20
545.6201547238122
 10
499.3624011414088
 20
544.9502817427344
 10
499.3624011414087
 20
519.2597341853274
 10
501.8624011414089
 20
519.2597341853277
 97
        0
 75
     0
 76
     1
 52
90.0
 41
10.0
 77
     0
 78
     1
 53
135.0
 43
428.2648255086947
 44
512.1215075492139
 45
-0.8838834764831844
 46
-0.8838834764831842
 79
     0
 47
0.1095052059876858
 98
        2
 10
497.8961599553821
 20
537.3818449999892
 10
500.307072335346
 20
537.600855207995
  0
LINE
  5
8C55
330
17
100
AcDbEntity
  8
CENTRE
100
AcDbLine
 10
506.3574011414088
 20
290.3594705992558
 30
0.0
 11
492.3574011414087
 21
290.3594705992559
 31
0.0
  0
CIRCLE
  5
8C58
330
17
100
AcDbEntity
  8
M01
 62
     0
100
AcDbCircle
 10
499.3574011414088
 20
290.3594705992559
 30
0.0
 40
3.0
  0
LINE
  5
8C59
330
17
100
AcDbEntity
  8
CENTRE
 48
0.7
100
AcDbLine
 10
836.2949693794075
 20
290.3594705992558
 30
0.0
 11
858.4949693794076
 21
290.3594705992558
 31
0.0
  0
LINE
  5
8C5D
330
17
100
AcDbEntity
  8
M04
100
AcDbLine
 10
852.2949693794075
 20
293.3594705992558
 30
0.0
 11
841.2949693794075
 21
293.3594705992558
 31
0.0
  0
LINE
  5
8C5E
330
17
100
AcDbEntity
  8
M04
100
AcDbLine
 10
841.2949693794075
 20
293.3594705992558
 30
0.0
 11
841.2949693794075
 21
287.3594705992558
 31
0.0
  0
LINE
  5
8C60
330
17
100
AcDbEntity
  8
M04
100
AcDbLine
 10
841.2949693794075
 20
293.3594705992558
 30
0.0
 11
839.5629185718387
 21
290.3594705992558
 31
0.0
  0
LINE
  5
8C61
330
17
100
AcDbEntity
  8
M04
100
AcDbLine
 10
841.2949693794075
 20
287.3594705992558
 30
0.0
 11
839.5629185718387
 21
290.3594705992558
 31
0.0
  0
ARC
  5
8C68
330
17
100
AcDbEntity
  8
M03
 62
     6
100
AcDbCircle
 10
896.1809522081329
 20
318.3594705992558
 30
0.0
 40
15.0
100
AcDbArc
 50
143.1301023541569
 51
216.8698976458442
  0
DIMENSION
  5
8C7F
330
17
100
AcDbEntity
  8
DIMS
 62
     4
100
AcDbDimension
  2
*D3
 10
911.8466001568645
 20
286.6094705992558
 30
0.0
 11
908.8466001568644
 21
318.3594705992559
 31
0.0
 70
    32
  1
{\C4;Ø<>}
 71
     5
 42
63.5
  3
DIM1
100
AcDbAlignedDimension
 13
857.4309522081332
 23
350.1094705992558
 33
0.0
 14
857.4309522081332
 24
286.6094705992558
 34
0.0
 50
90.0
100
AcDbRotatedDimension
1001
ACAD
1000
DSTYLE
1002
{
1070
   144
1040
1.0
1002
}
  0
LEADER
  5
8CB4
330
17
100
AcDbEntity
  8
DIMS
100
AcDbLeader
  3
DIM1$7
 73
     0
 74
     0
 75
     1
 40
3.0
 41
22.57142857142856
 76
     3
 10
884.1809522081328
 20
348.2292699523994
 30
0.0
 10
898.5579598708328
 20
361.7364782619556
 30
0.0
 10
901.5579598708328
 20
361.7364782619556
 30
0.0
340
8CB5
  0
MTEXT
  5
8CB5
102
{ACAD_REACTORS
330
8CB4
102
}
330
17
100
AcDbEntity
  8
DIMS
 62
     2
100
AcDbMText
 10
903.0579598708328
 20
361.7364782619556
 30
0.0
 40
3.0
 41
0.0
 71
     4
 72
     1
  1
{\C4;MAO10043}
 73
     1
 44
1.0
  0
LINE
  5
8CBB
330
17
100
AcDbEntity
  8
M01
100
AcDbLine
 10
502.3574011414088
 20
349.9674205485961
 30
0.0
 11
502.3574011414088
 21
345.4941347762822
 31
0.0
  0
LINE
  5
8CBC
330
17
100
AcDbEntity
  8
M01
100
AcDbLine
 10
496.3574011414088
 20
349.9674205485961
 30
0.0
 11
496.3574011414088
 21
345.4941347762822
 31
0.0
  0
LINE
  5
8CBD
330
17
100
AcDbEntity
  8
M01
100
AcDbLine
 10
502.3489517426857
 20
291.2238735908979
 30
0.0
 11
502.3489517426856
 21
286.7507198330518
 31
0.0
  0
LINE
  5
8CBE
330
17
100
AcDbEntity
  8
M01
100
AcDbLine
 10
496.3574011414088
 20
291.2248064222294
 30
0.0
 11
496.3574011414089
 21
286.7515206499156
 31
0.0
  0
HATCH
  5
8CC7
330
17
100
AcDbEntity
  8
M01
 62
     0
100
AcDbHatch
 10
0.0
 20
0.0
 30
0.0
210
0.0
220
0.0
230
1.0
  2
ANSI31
 70
     0
 71
     0
 91
        2
 92
        7
 72
     1
 73
     1
 93
        4
 10
499.3574011414087
 20
293.3594705992559
 42
0.0
 10
499.3574011414087
 20
290.3594705992559
 42
0.0
 10
502.3489517426856
 20
290.3594705992559
 42
0.0
 10
502.3489517426856
 20
290.5844705992561
 42
0.3923929914752182
 97
        0
 92
        7
 72
     1
 73
     1
 93
        3
 10
499.3574011414087
 20
290.3594705992559
 42
0.0
 10
496.3574011414087
 20
290.3594705992559
 42
0.4142135623730909
 10
499.3574011414087
 20
287.3594705992559
 42
0.0
 97
        0
 75
     0
 76
     1
 52
0.0
 41
5.0
 77
     0
 78
     1
 53
45.0
 43
578.4833765754188
 44
401.2077421121928
 45
-0.4419417382415922
 46
0.4419417382415923
 79
     0
 47
0.1095052059876863
 98
        2
 10
500.5465619728642
 20
291.9537576108274
 10
498.4644121740079
 20
289.6541484686585
  0
LINE
  5
8D49
330
17
100
AcDbEntity
  8
M01
100
AcDbLine
 10
605.0099522081332
 20
295.3594705992557
 30
0.0
 11
852.4309522081333
 21
295.359470599256
 31
0.0
  0
LINE
  5
8D4A
330
17
100
AcDbEntity
  8
M01
100
AcDbLine
 10
605.0099522081334
 20
341.3594705992557
 30
0.0
 11
852.4309522081333
 21
341.3594705992565
 31
0.0
  0
LINE
  5
8DEB
330
17
100
AcDbEntity
  8
M04
 48
0.7
100
AcDbLine
 10
611.6059522081335
 20
294.3594705992558
 30
0.0
 11
852.4309522081333
 21
294.359470599258
 31
0.0
  0
LINE
  5
8DEC
330
17
100
AcDbEntity
  8
M04
 48
0.7
100
AcDbLine
 10
611.6059522081334
 20
342.3594705992558
 30
0.0
 11
852.4309522081333
 21
342.3594705992558
 31
0.0
  0
LINE
  5
8E03
330
17
100
AcDbEntity
  8
M01
100
AcDbLine
 10
602.3599522081333
 20
300.8594705992559
 30
0.0
 11
602.8599522081333
 21
300.8594705992559
 31
0.0
  0
LINE
  5
8E04
330
17
100
AcDbEntity
  8
M01
100
AcDbLine
 10
605.0099522081334
 20
335.8594705992559
 30
0.0
 11
604.5099522081335
 21
335.8594705992558
 31
0.0
  0
LINE
  5
8E0E
330
17
100
AcDbEntity
  8
M01
100
AcDbLine
 10
601.8599522081331
 20
335.3594705992559
 30
0.0
 11
602.3599522081332
 21
335.8594705992559
 31
0.0
  0
LINE
  5
8E0F
330
17
100
AcDbEntity
  8
M01
100
AcDbLine
 10
601.8599522081333
 20
301.3594705992559
 30
0.0
 11
602.3599522081333
 21
300.8594705992559
 31
0.0
  0
LINE
  5
8E11
330
17
100
AcDbEntity
  8
M01
100
AcDbLine
 10
604.5099522081335
 20
340.5594705992559
 30
0.0
 11
604.5099522081333
 21
297.8594705992559
 31
0.0
  0
LINE
  5
8E12
330
17
100
AcDbEntity
  8
M01
100
AcDbLine
 10
605.0099522081334
 20
341.3594705992557
 30
0.0
 11
605.0099522081332
 21
295.3594705992559
 31
0.0
  0
LINE
  5
8E13
330
17
100
AcDbEntity
  8
M01
100
AcDbLine
 10
602.3599522081332
 20
335.8594705992559
 30
0.0
 11
602.3599522081332
 21
300.8594705992559
 31
0.0
  0
LINE
  5
8E1D
330
17
100
AcDbEntity
  8
M01
100
AcDbLine
 10
602.8599522081334
 20
301.7594705992559
 30
0.0
 11
604.5099522081333
 21
301.7594705992558
 31
0.0
  0
LINE
  5
8E1E
330
17
100
AcDbEntity
  8
M01
100
AcDbLine
 10
604.5099522081336
 20
334.9594705992559
 30
0.0
 11
602.8599522081336
 21
334.9594705992559
 31
0.0
  0
LINE
  5
8E1F
330
17
100
AcDbEntity
  8
M01
100
AcDbLine
 10
604.5099522081336
 20
340.5594705992559
 30
0.0
 11
602.8599522081334
 21
340.5594705992559
 31
0.0
  0
LINE
  5
8E20
330
17
100
AcDbEntity
  8
M01
100
AcDbLine
 10
602.8599522081333
 20
297.8594705992559
 30
0.0
 11
604.5099522081333
 21
297.8594705992559
 31
0.0
  0
LINE
  5
8E21
330
17
100
AcDbEntity
  8
M01
100
AcDbLine
 10
604.5099522081333
 20
300.8594705992558
 30
0.0
 11
605.0099522081332
 21
300.8594705992558
 31
0.0
  0
LINE
  5
8E22
330
17
100
AcDbEntity
  8
M01
100
AcDbLine
 10
602.8599522081336
 20
335.8594705992559
 30
0.0
 11
602.3599522081332
 21
335.8594705992559
 31
0.0
  0
HATCH
  5
8E2C
330
17
100
AcDbEntity
  8
M01
100
AcDbHatch
 10
0.0
 20
0.0
 30
0.0
210
0.0
220
0.0
230
1.0
  2
ANSI31
 70
     0
 71
     0
 91
        2
 92
        7
 72
     0
 73
     1
 93
        4
 10
604.5099522081335
 20
340.5594705992559
 10
602.8599522081336
 20
340.5594705992559
 10
602.8599522081336
 20
334.9594705992559
 10
604.5099522081335
 20
334.9594705992559
 97
        0
 92
        7
 72
     0
 73
     1
 93
        4
 10
604.5099522081333
 20
297.8594705992559
 10
604.5099522081333
 20
301.7594705992558
 10
602.8599522081334
 20
301.7594705992559
 10
602.8599522081334
 20
297.8594705992559
 97
        0
 75
     0
 76
     1
 52
0.0
 41
5.0
 77
     0
 78
     1
 53
45.0
 43
578.7373765754189
 44
409.2077421121928
 45
-0.4419417382415922
 46
0.4419417382415923
 79
     0
 47
0.0964449538589768
 98
        2
 10
603.7476675561062
 20
336.6462517075902
 10
603.2650642620852
 20
300.4793939565812
  0
LINE
  5
8E2E
330
17
100
AcDbEntity
  8
M01
100
AcDbLine
 10
852.4309522081333
 20
349.3494705992558
 30
0.0
 11
852.4309522081331
 21
287.3694705992558
 31
0.0
  0
LINE
  5
8E2F
330
17
100
AcDbEntity
  8
M01
100
AcDbLine
 10
853.1909522081333
 20
350.1094705992558
 30
0.0
 11
853.1909522081331
 21
286.6094705992558
 31
0.0
  0
LINE
  5
8E30
330
17
100
AcDbEntity
  8
M01
100
AcDbLine
 10
855.6109522081332
 20
350.1094705992558
 30
0.0
 11
855.610952208133
 21
286.6094705992558
 31
0.0
  0
LINE
  5
8E33
330
17
100
AcDbEntity
  8
M01
100
AcDbLine
 10
853.1909522081331
 20
350.1094705992558
 30
0.0
 11
855.6109522081332
 21
350.1094705992558
 31
0.0
  0
LINE
  5
8E34
330
17
100
AcDbEntity
  8
M01
100
AcDbLine
 10
853.1909522081331
 20
286.6094705992558
 30
0.0
 11
855.605952208133
 21
286.6094705992558
 31
0.0
  0
LINE
  5
8E35
330
17
100
AcDbEntity
  8
M01
100
AcDbLine
 10
852.4309522081333
 20
349.3494705992558
 30
0.0
 11
853.1909522081331
 21
350.1094705992558
 31
0.0
  0
LINE
  5
8E36
330
17
100
AcDbEntity
  8
M01
100
AcDbLine
 10
852.4309522081331
 20
287.3694705992558
 30
0.0
 11
853.1909522081331
 21
286.6094705992558
 31
0.0
  0
LINE
  5
8E3B
330
17
100
AcDbEntity
  8
M01
100
AcDbLine
 10
855.6109522081332
 20
349.3594705992558
 30
0.0
 11
876.0059522081331
 21
349.3594705992558
 31
0.0
  0
LINE
  5
8E3C
330
17
100
AcDbEntity
  8
M01
100
AcDbLine
 10
855.6109522081333
 20
287.3594705992559
 30
0.0
 11
876.0059522081331
 21
287.359470599256
 31
0.0
  0
LINE
  5
8E3F
330
17
100
AcDbEntity
  8
M01
100
AcDbLine
 10
876.0059522081329
 20
289.8594705992558
 30
0.0
 11
878.5059522081331
 21
289.8594705992558
 31
0.0
  0
LINE
  5
8E40
330
17
100
AcDbEntity
  8
M01
100
AcDbLine
 10
876.0059522081331
 20
346.8594705992558
 30
0.0
 11
878.5059522081331
 21
346.8594705992558
 31
0.0
  0
LINE
  5
8E41
330
17
100
AcDbEntity
  8
M01
100
AcDbLine
 10
878.5059522081329
 20
287.3594705992561
 30
0.0
 11
880.2459522081331
 21
287.3594705992561
 31
0.0
  0
LINE
  5
8E42
330
17
100
AcDbEntity
  8
M01
100
AcDbLine
 10
878.5059522081329
 20
349.3594705992558
 30
0.0
 11
880.2459522081331
 21
349.3594705992558
 31
0.0
  0
LINE
  5
8E7B
330
17
100
AcDbEntity
  8
M03
 62
     6
100
AcDbLine
 10
601.8599522081331
 20
326.2969705992561
 30
0.0
 11
863.8609522081328
 21
326.2969705992558
 31
0.0
  0
LINE
  5
8E7C
330
17
100
AcDbEntity
  8
M03
 62
     6
100
AcDbLine
 10
601.8599522081333
 20
310.4219705992562
 30
0.0
 11
863.8609522081331
 21
310.4219705992558
 31
0.0
  0
LINE
  5
8E7D
330
17
100
AcDbEntity
  8
M03
 62
     6
100
AcDbLine
 10
863.8609522081328
 20
326.2969705992558
 30
0.0
 11
863.8609522081331
 21
310.4219705992558
 31
0.0
  0
LINE
  5
8E7F
330
17
100
AcDbEntity
  8
M03
 62
     6
100
AcDbLine
 10
878.5059522081331
 20
314.3594705992558
 30
0.0
 11
881.724119913332
 21
314.3594705992558
 31
0.0
  0
LINE
  5
8E80
330
17
100
AcDbEntity
  8
M03
 62
     6
100
AcDbLine
 10
878.5559022629353
 20
322.3594705992558
 30
0.0
 11
881.724119913332
 21
322.3594705992558
 31
0.0
  0
LINE
  5
8E81
330
17
100
AcDbEntity
  8
M03
 62
     6
100
AcDbLine
 10
878.5059522081331
 20
322.3594705992558
 30
0.0
 11
863.8609522081328
 21
326.2835865224097
 31
0.0
  0
LINE
  5
8E82
330
17
100
AcDbEntity
  8
M03
 62
     6
100
AcDbLine
 10
878.5059522081331
 20
322.3594705992558
 30
0.0
 11
878.5059522081331
 21
314.3594705992558
 31
0.0
  0
LINE
  5
8E83
330
17
100
AcDbEntity
  8
M03
 62
     6
100
AcDbLine
 10
878.5059522081331
 20
314.3594705992558
 30
0.0
 11
863.8609522081331
 21
310.4219705992558
 31
0.0
  0
LINE
  5
8E84
330
17
100
AcDbEntity
  8
M01
 62
     1
100
AcDbLine
 10
878.5059522081329
 20
349.3594705992558
 30
0.0
 11
878.5059522081329
 21
287.3594705992561
 31
0.0
  0
LINE
  5
8E86
330
17
100
AcDbEntity
  8
M01
 62
     1
100
AcDbLine
 10
880.2459522081331
 20
349.3594705992558
 30
0.0
 11
881.005952208133
 21
348.5994705992561
 31
0.0
  0
LINE
  5
8E87
330
17
100
AcDbEntity
  8
M01
100
AcDbLine
 10
880.2459522081331
 20
287.3594705992561
 30
0.0
 11
881.005952208133
 21
288.1194705992561
 31
0.0
  0
LINE
  5
8E90
102
{ACAD_REACTORS
330
8ED0
102
}
330
17
100
AcDbEntity
  8
M01
 62
     1
100
AcDbLine
 10
884.1809522081328
 20
345.1194705992559
 30
0.0
 11
884.1809522081328
 21
350.1094705992558
 31
0.0
  0
LINE
  5
8E9B
102
{ACAD_REACTORS
330
8ED0
102
}
330
17
100
AcDbEntity
  8
M01
 62
     1
100
AcDbLine
 10
884.1809522081332
 20
291.599470599255
 30
0.0
 11
884.1809522081334
 21
286.6094705992558
 31
0.0
  0
LINE
  5
8E9C
102
{ACAD_REACTORS
330
8ED0
102
}
330
17
100
AcDbEntity
  8
M01
 62
     1
100
AcDbLine
 10
881.0059522081331
 20
350.1094705992558
 30
0.0
 11
884.1809522081328
 21
350.1094705992558
 31
0.0
  0
LINE
  5
8E9D
102
{ACAD_REACTORS
330
8ED0
102
}
330
17
100
AcDbEntity
  8
M01
 62
     1
100
AcDbLine
 10
881.005952208133
 20
286.6094705992558
 30
0.0
 11
884.1809522081332
 21
286.6094705992558
 31
0.0
  0
LINE
  5
8EA0
330
17
100
AcDbEntity
  8
M01
 62
     0
100
AcDbLine
 10
884.1809522081328
 20
350.1094705992558
 30
0.0
 11
884.1809522081328
 21
353.3594705992558
 31
0.0
  0
LINE
  5
8EA1
330
17
100
AcDbEntity
  8
M01
 62
     0
100
AcDbLine
 10
884.1809522081328
 20
353.3594705992558
 30
0.0
 11
881.005952208133
 21
353.3594705992558
 31
0.0
  0
LINE
  5
8EA2
330
17
100
AcDbEntity
  8
M01
 62
     0
100
AcDbLine
 10
884.1809522081334
 20
286.6094705992558
 30
0.0
 11
884.1809522081334
 21
283.3594705992558
 31
0.0
  0
LINE
  5
8EA3
330
17
100
AcDbEntity
  8
M01
 62
     0
100
AcDbLine
 10
884.1809522081334
 20
283.3594705992558
 30
0.0
 11
860.6809522081331
 21
283.3594705992558
 31
0.0
  0
LINE
  5
8EC0
330
17
100
AcDbEntity
  8
M01
 62
     0
100
AcDbLine
 10
881.005952208133
 20
286.6094705992558
 30
0.0
 11
881.005952208133
 21
276.1008955649804
 31
0.0
  0
HATCH
  5
8ED0
330
17
100
AcDbEntity
  8
M01
 62
     1
100
AcDbHatch
 10
0.0
 20
0.0
 30
0.0
210
0.0
220
0.0
230
1.0
  2
ANSI31
 70
     0
 71
     1
 91
        2
 92
        7
 72
     0
 73
     1
 93
        6
 10
881.005952208133
 20
350.1094705992558
 10
881.005952208133
 20
348.599470599256
 10
881.005952208133
 20
344.3594705992558
 10
883.4209522081328
 20
344.3594705992558
 10
884.1809522081328
 20
345.1194705992559
 10
884.1809522081328
 20
350.1094705992558
 97
        6
330
8E9C
330
8C29
330
8ACB
330
8AEB
330
8B59
330
8E90
 92
        7
 72
     0
 73
     1
 93
        5
 10
881.005952208133
 20
292.3594705992558
 10
881.005952208133
 20
286.6094705992558
 10
884.1809522081334
 20
286.6094705992558
 10
884.1809522081332
 20
291.5994705992549
 10
883.4209522081323
 20
292.3594705992558
 97
        5
330
8B5C
330
8AEC
330
8ACB
330
8E9D
330
8E9B
 75
     0
 76
     1
 52
0.0
 41
5.0
 77
     0
 78
     1
 53
45.0
 43
781.6833765754187
 44
409.2077421121927
 45
-0.4419417382415922
 46
0.4419417382415923
 79
     0
 47
0.2061274523241908
 98
        2
 10
882.0016174785985
 20
347.0087400245327
 10
882.4142412112955
 20
289.2930522411296
  0
LINE
  5
8ED3
330
17
100
AcDbEntity
  8
M01
 62
     0
100
AcDbLine
 10
855.605952208133
 20
286.6094705992558
 30
0.0
 11
857.4309522081332
 21
286.6094705992558
 31
0.0
  0
LINE
  5
8ED4
330
17
100
AcDbEntity
  8
M01
 62
     0
100
AcDbLine
 10
857.4309522081332
 20
286.6094705992558
 30
0.0
 11
860.6809522081331
 21
283.3594705992558
 31
0.0
  0
LINE
  5
8ED5
330
17
100
AcDbEntity
  8
M01
 62
     0
100
AcDbLine
 10
857.4309522081332
 20
286.6094705992558
 30
0.0
 11
857.4309522081332
 21
287.3694705992558
 31
0.0
  0
LINE
  5
8ED6
330
17
100
AcDbEntity
  8
M01
 62
     0
100
AcDbLine
 10
855.605952208133
 20
350.1094705992558
 30
0.0
 11
857.4309522081332
 21
350.1094705992558
 31
0.0
  0
LINE
  5
8ED7
330
17
100
AcDbEntity
  8
M01
 62
     0
100
AcDbLine
 10
857.4309522081332
 20
350.1094705992558
 30
0.0
 11
858.0059522081331
 21
350.6844705992558
 31
0.0
  0
LINE
  5
8EDA
330
17
100
AcDbEntity
  8
M04
100
AcDbLine
 10
858.0059522081329
 20
349.3594705992558
 30
0.0
 11
858.0059522081329
 21
359.42766656085
 31
0.0
  0
LINE
  5
8EDB
330
17
100
AcDbEntity
  8
M01
 62
     0
100
AcDbLine
 10
857.4309522081332
 20
350.1094705992558
 30
0.0
 11
857.4309522081332
 21
349.3494705992558
 31
0.0
  0
LINE
  5
8EE0
330
17
100
AcDbEntity
  8
M01
100
AcDbLine
 10
867.9316035812927
 20
362.0816009124313
 30
0.0
 11
876.5053705603431
 21
375.7576759164516
 31
0.0
  0
LINE
  5
8EE1
330
17
100
AcDbEntity
  8
M01
100
AcDbLine
 10
864.5425338559235
 20
364.2062670971731
 30
0.0
 11
873.1263008349738
 21
377.8982931703528
 31
0.0
  0
LINE
  5
8EE2
330
17
100
AcDbEntity
  8
M01
 62
     0
100
AcDbLine
 10
858.0059522081331
 20
359.42766656085
 30
0.0
 11
872.1809522081329
 21
382.0383070944298
 31
0.0
  0
ARC
  5
8EE3
330
17
100
AcDbEntity
  8
M01
100
AcDbCircle
 10
884.8769522081333
 20
351.4582699887128
 30
0.0
 40
20.0
100
AcDbArc
 50
147.9156924151282
 51
180.0
  0
ARC
  5
8EE4
330
17
100
AcDbEntity
  8
M01
100
AcDbCircle
 10
884.8769522081322
 20
351.4582699887109
 30
0.0
 40
24.0
100
AcDbArc
 50
147.9156924151282
 51
180.0000000000042
  0
ARC
  5
8EE8
330
17
100
AcDbEntity
  8
M01
100
AcDbCircle
 10
856.1809522081333
 20
388.5216240940713
 30
0.0
 40
20.0
100
AcDbArc
 50
327.9156924151281
 51
0.0
  0
ARC
  5
8EE9
330
17
100
AcDbEntity
  8
M01
100
AcDbCircle
 10
856.1709522081345
 20
388.5056730249139
 30
0.0
 40
24.0
100
AcDbArc
 50
327.915692415128
 51
0.0000000000009414
  0
ARC
  5
8F01
330
17
100
AcDbEntity
  8
M01
100
AcDbCircle
 10
499.3574011414088
 20
318.3594705992558
 30
0.0
 40
31.75
100
AcDbArc
 50
93.61157411133699
 51
86.40650753375608
  0
ARC
  5
8F02
330
17
100
AcDbEntity
  8
M01
100
AcDbCircle
 10
499.3574011414088
 20
318.3594705992558
 30
0.0
 40
27.3
100
AcDbArc
 50
94.20125678619781
 51
263.95176390061
  0
ARC
  5
8F04
330
17
100
AcDbEntity
  8
M01
 62
     0
100
AcDbCircle
 10
499.3574011414088
 20
318.3594705992558
 30
0.0
 40
24.0
100
AcDbArc
 50
94.78019184719833
 51
85.24376430360288
  0
CIRCLE
  5
8F05
330
17
100
AcDbEntity
  8
M01
100
AcDbCircle
 10
499.3574011414088
 20
318.3594705992558
 30
0.0
 40
17.5
  0
CIRCLE
  5
8F06
330
17
100
AcDbEntity
  8
M01
100
AcDbCircle
 10
499.3574011414088
 20
318.3594705992558
 30
0.0
 40
21.49999999999999
  0
ARC
  5
8F07
330
17
100
AcDbEntity
  8
M01
100
AcDbCircle
 10
499.3574011414088
 20
318.3594705992558
 30
0.0
 40
22.5
100
AcDbArc
 50
95.09968891421648
 51
84.92587657026824
  0
CIRCLE
  5
8F08
330
17
100
AcDbEntity
  8
M03
 62
     6
100
AcDbCircle
 10
499.3574011414088
 20
318.3594705992558
 30
0.0
 40
7.9375
  0
CIRCLE
  5
8F09
330
17
100
AcDbEntity
  8
M03
 62
     6
100
AcDbCircle
 10
499.3574011414088
 20
318.3594705992558
 30
0.0
 40
4.0
  0
ARC
  5
8F0B
330
17
100
AcDbEntity
  8
M01
100
AcDbCircle
 10
499.3574011414088
 20
318.3594705992558
 30
0.0
 40
27.3
100
AcDbArc
 50
276.0482360993894
 51
85.81978694340813
  0
ENDSEC
  0
SECTION
  2
OBJECTS
  0
DICTIONARY
  5
C
330
0
100
AcDbDictionary
281
     1
  3
ACAD_GROUP
350
D
  3
ACAD_LAYOUT
350
8ABF
  3
ACAD_MLINESTYLE
350
1A
  3
ACAD_PLOTSETTINGS
350
8AC0
  3
ACAD_PLOTSTYLENAME
350
8ABD
  3
ACAD_WIPEOUT_VARS
350
4846
  3
ACDBVARIABLEDICTIONARY
350
33
  3
CONTENTDICTIONARY
350
1149
  0
DICTIONARY
  5
20BE
330
17
100
AcDbDictionary
280
     1
281
     1
  3
ACAD_SORTENTS
360
20BF
  0
DICTIONARY
  5
D
102
{ACAD_REACTORS
330
C
102
}
330
C
100
AcDbDictionary
281
     1
  3
*A1
350
484B
  3
*A2
350
484E
  3
*A3
350
6B86
  0
DICTIONARY
  5
8ABF
102
{ACAD_REACTORS
330
C
102
}
330
C
100
AcDbDictionary
281
     1
  3
Layout1
350
8AC2
  3
Model
350
8AC1
  0
DICTIONARY
  5
1A
102
{ACAD_REACTORS
330
C
102
}
330
C
100
AcDbDictionary
281
     1
  3
STANDARD
350
1B
  0
DICTIONARY
  5
8AC0
102
{ACAD_REACTORS
330
C
102
}
330
C
100
AcDbDictionary
281
     1
  0
ACDBDICTIONARYWDFLT
  5
8ABD
102
{ACAD_REACTORS
330
C
102
}
330
C
100
AcDbDictionary
281
     1
  3
Normal
350
8ABE
100
AcDbDictionaryWithDefault
340
8ABE
  0
ACAD_PROXY_OBJECT
  5
4846
102
{ACAD_REACTORS
330
C
102
}
330
C
100
AcDbProxyObject
 90
      499
 91
      504
 95
   589845
 70
     0
 93
        2
310
A6
 94
        0
  0
DICTIONARY
  5
33
102
{ACAD_REACTORS
330
C
102
}
330
C
100
AcDbDictionary
281
     1
  3
DIMADEC
350
34
  3
DIMASSOC
350
8AC5
  3
SORTENTS
350
1D6E
  0
DICTIONARY
  5
1149
102
{ACAD_REACTORS
330
C
102
}
330
C
100
AcDbDictionary
281
     1
  0
SORTENTSTABLE
  5
20BF
102
{ACAD_REACTORS
330
20BE
102
}
330
20BE
100
AcDbSortentsTable
330
17
  0
GROUP
  5
484B
102
{ACAD_REACTORS
330
D
102
}
330
D
100
AcDbGroup
300
In use by TEXTMASK
 70
     1
 71
     1
  0
GROUP
  5
484E
102
{ACAD_REACTORS
330
D
102
}
330
D
100
AcDbGroup
300

 70
     1
 71
     1
  0
GROUP
  5
6B86
102
{ACAD_REACTORS
330
D
102
}
330
D
100
AcDbGroup
300

 70
     1
 71
     1
  0
LAYOUT
  5
8AC2
102
{ACAD_REACTORS
330
8ABF
102
}
330
8ABF
100
AcDbPlotSettings
  1

  2
C:\PROGRAM FILES\AUTOCAD LT 2002\plotters\PublishToWeb DWF.pc3
  4

  6

 40
0.0
 41
0.0
 42
0.0
 43
0.0
 44
0.0
 45
0.0
 46
0.0
 47
0.0
 48
0.0
 49
0.0
140
0.0
141
0.0
142
1.0
143
1.0
 70
   688
 72
     0
 73
     0
 74
     5
  7

 75
    16
147
1.0
148
0.0
149
0.0
100
AcDbLayout
  1
Layout1
 70
     0
 71
     1
 10
0.0
 20
0.0
 11
12.0
 21
9.0
 12
0.0
 22
0.0
 32
0.0
 14
1.000000000000000E+20
 24
1.000000000000000E+20
 34
1.000000000000000E+20
 15
-1.000000000000000E+20
 25
-1.000000000000000E+20
 35
-1.000000000000000E+20
146
0.0
 13
0.0
 23
0.0
 33
0.0
 16
1.0
 26
0.0
 36
0.0
 17
0.0
 27
1.0
 37
0.0
 76
     0
330
14
  0
LAYOUT
  5
8AC1
102
{ACAD_REACTORS
330
8ABF
102
}
330
8ABF
100
AcDbPlotSettings
  1

  2
SHARP AR-C172M PCL5c
  4
A3
  6

 40
5.027083396911621
 41
5.027085304260253
 42
5.027099609375
 43
5.027069091796875
 44
296.9259948730469
 45
419.9466552734374
 46
4.49
 47
0.0
 48
0.0
 49
0.0
140
0.0
141
0.0
142
1.0
143
1.124921104019938
 70
 11956
 72
     1
 73
     1
 74
     1
  7

 75
     0
147
0.8889512308254069
148
-464.5982699107821
149
-241.9979575620939
100
AcDbLayout
  1
Model
 70
     1
 71
     0
 10
0.0
 20
0.0
 11
12.0
 21
9.0
 12
0.0
 22
0.0
 32
0.0
 14
0.0
 24
0.0
 34
0.0
 15
0.0
 25
0.0
 35
0.0
146
0.0
 13
0.0
 23
0.0
 33
0.0
 16
1.0
 26
0.0
 36
0.0
 17
0.0
 27
1.0
 37
0.0
 76
     0
330
17
  0
MLINESTYLE
  5
1B
102
{ACAD_REACTORS
330
1A
102
}
330
1A
100
AcDbMlineStyle
  2
STANDARD
 70
     0
  3

 62
   256
 51
90.0
 52
90.0
 71
     2
 49
0.5
 62
   256
  6
BYLAYER
 49
-0.5
 62
   256
  6
BYLAYER
  0
ACDBPLACEHOLDER
  5
8ABE
102
{ACAD_REACTORS
330
8ABD
102
}
330
8ABD
  0
DICTIONARYVAR
  5
34
102
{ACAD_REACTORS
330
33
102
}
330
33
100
DictionaryVariables
280
     0
  1
3
  0
DICTIONARYVAR
  5
8AC5
102
{ACAD_REACTORS
330
33
102
}
330
33
100
DictionaryVariables
280
     0
  1
1
  0
DICTIONARYVAR
  5
1D6E
102
{ACAD_REACTORS
330
33
102
}
330
33
100
DictionaryVariables
280
     0
  1
127
  0
ENDSEC
  0
EOF
