  0
SECTION
  2
HEADER
  9
$ACADVER
  1
AC1015
  9
$ACADMAINTVER
 70
    13
  9
$DWGCODEPAGE
  3
ANSI_1252
  9
$INSBASE
 10
0.0
 20
0.0
 30
0.0
  9
$EXTMIN
 10
469.0844011414087
 20
242.0612913419049
 30
0.0
  9
$EXTMAX
 10
811.3293884422619
 20
451.6862200544552
 30
0.0
  9
$LIMMIN
 10
0.0
 20
0.0
  9
$LIMMAX
 10
1189.0
 20
841.0
  9
$ORTHOMODE
 70
     0
  9
$REGENMODE
 70
     1
  9
$FILLMODE
 70
     1
  9
$QTEXTMODE
 70
     0
  9
$MIRRTEXT
 70
     0
  9
$LTSCALE
 40
8.0
  9
$ATTMODE
 70
     1
  9
$TEXTSIZE
 40
2.0
  9
$TRACEWID
 40
10.0
  9
$TEXTSTYLE
  7
STANDARD
  9
$CLAYER
  8
M01
  9
$CELTYPE
  6
BYLAYER
  9
$CECOLOR
 62
   256
  9
$CELTSCALE
 40
1.0
  9
$DISPSILH
 70
     0
  9
$DIMSCALE
 40
1.0
  9
$DIMASZ
 40
3.0
  9
$DIMEXO
 40
1.0
  9
$DIMDLI
 40
10.0
  9
$DIMRND
 40
0.01
  9
$DIMDLE
 40
1.25
  9
$DIMEXE
 40
2.5
  9
$DIMTP
 40
0.05
  9
$DIMTM
 40
0.0
  9
$DIMTXT
 40
3.0
  9
$DIMCEN
 40
-1.7
  9
$DIMTSZ
 40
0.0
  9
$DIMTOL
 70
     0
  9
$DIMLIM
 70
     0
  9
$DIMTIH
 70
     0
  9
$DIMTOH
 70
     0
  9
$DIMSE1
 70
     0
  9
$DIMSE2
 70
     0
  9
$DIMTAD
 70
     3
  9
$DIMZIN
 70
     1
  9
$DIMBLK
  1

  9
$DIMASO
 70
     1
  9
$DIMSHO
 70
     0
  9
$DIMPOST
  1

  9
$DIMAPOST
  1

  9
$DIMALT
 70
     0
  9
$DIMALTD
 70
     2
  9
$DIMALTF
 40
0.039
  9
$DIMLFAC
 40
1.0
  9
$DIMTOFL
 70
     0
  9
$DIMTVP
 40
1.5
  9
$DIMTIX
 70
     0
  9
$DIMSOXD
 70
     0
  9
$DIMSAH
 70
     0
  9
$DIMBLK1
  1

  9
$DIMBLK2
  1

  9
$DIMSTYLE
  2
DIM1
  9
$DIMCLRD
 70
     4
  9
$DIMCLRE
 70
     4
  9
$DIMCLRT
 70
     2
  9
$DIMTFAC
 40
0.7
  9
$DIMGAP
 40
1.5
  9
$DIMJUST
 70
     0
  9
$DIMSD1
 70
     0
  9
$DIMSD2
 70
     0
  9
$DIMTOLJ
 70
     1
  9
$DIMTZIN
 70
     1
  9
$DIMALTZ
 70
     1
  9
$DIMALTTZ
 70
     1
  9
$DIMUPT
 70
     0
  9
$DIMDEC
 70
     2
  9
$DIMTDEC
 70
     2
  9
$DIMALTU
 70
     2
  9
$DIMALTTD
 70
     2
  9
$DIMTXSTY
  7
STANDARD
  9
$DIMAUNIT
 70
     0
  9
$DIMADEC
 70
     0
  9
$DIMALTRND
 40
0.0
  9
$DIMAZIN
 70
     0
  9
$DIMDSEP
 70
    46
  9
$DIMATFIT
 70
     0
  9
$DIMFRAC
 70
     0
  9
$DIMLDRBLK
  1

  9
$DIMLUNIT
 70
     2
  9
$DIMLWD
 70
    -2
  9
$DIMLWE
 70
    -2
  9
$DIMTMOVE
 70
     0
  9
$LUNITS
 70
     2
  9
$LUPREC
 70
     2
  9
$SKETCHINC
 40
1.0
  9
$FILLETRAD
 40
20.0
  9
$AUNITS
 70
     0
  9
$AUPREC
 70
     3
  9
$MENU
  1
ACAD
  9
$ELEVATION
 40
0.0
  9
$PELEVATION
 40
0.0
  9
$THICKNESS
 40
0.0
  9
$LIMCHECK
 70
     0
  9
$CHAMFERA
 40
0.76
  9
$CHAMFERB
 40
0.76
  9
$CHAMFERC
 40
0.0
  9
$CHAMFERD
 40
0.0
  9
$SKPOLY
 70
     1
  9
$TDCREATE
 40
2449993.725698611
  9
$TDUCREATE
 40
2449993.725698611
  9
$TDUPDATE
 40
2455244.714019710
  9
$TDUUPDATE
 40
2455244.714019710
  9
$TDINDWG
 40
1.4885367708
  9
$TDUSRTIMER
 40
1.4885367708
  9
$USRTIMER
 70
     1
  9
$ANGBASE
 50
0.0
  9
$ANGDIR
 70
     0
  9
$PDMODE
 70
     3
  9
$PDSIZE
 40
0.0
  9
$PLINEWID
 40
0.0
  9
$SPLFRAME
 70
     0
  9
$SPLINETYPE
 70
     6
  9
$SPLINESEGS
 70
     6
  9
$HANDSEED
  5
8F7F
  9
$SURFTAB1
 70
    12
  9
$SURFTAB2
 70
    12
  9
$SURFTYPE
 70
     6
  9
$SURFU
 70
    12
  9
$SURFV
 70
    12
  9
$UCSBASE
  2

  9
$UCSNAME
  2

  9
$UCSORG
 10
578.4833765754188
 20
409.2077421121927
 30
0.0
  9
$UCSXDIR
 10
1.0
 20
0.0
 30
0.0
  9
$UCSYDIR
 10
0.0
 20
1.0
 30
0.0
  9
$UCSORTHOREF
  2

  9
$UCSORTHOVIEW
 70
     0
  9
$UCSORGTOP
 10
0.0
 20
0.0
 30
0.0
  9
$UCSORGBOTTOM
 10
0.0
 20
0.0
 30
0.0
  9
$UCSORGLEFT
 10
0.0
 20
0.0
 30
0.0
  9
$UCSORGRIGHT
 10
0.0
 20
0.0
 30
0.0
  9
$UCSORGFRONT
 10
0.0
 20
0.0
 30
0.0
  9
$UCSORGBACK
 10
0.0
 20
0.0
 30
0.0
  9
$PUCSBASE
  2

  9
$PUCSNAME
  2

  9
$PUCSORG
 10
0.0
 20
0.0
 30
0.0
  9
$PUCSXDIR
 10
1.0
 20
0.0
 30
0.0
  9
$PUCSYDIR
 10
0.0
 20
1.0
 30
0.0
  9
$PUCSORTHOREF
  2

  9
$PUCSORTHOVIEW
 70
     0
  9
$PUCSORGTOP
 10
0.0
 20
0.0
 30
0.0
  9
$PUCSORGBOTTOM
 10
0.0
 20
0.0
 30
0.0
  9
$PUCSORGLEFT
 10
0.0
 20
0.0
 30
0.0
  9
$PUCSORGRIGHT
 10
0.0
 20
0.0
 30
0.0
  9
$PUCSORGFRONT
 10
0.0
 20
0.0
 30
0.0
  9
$PUCSORGBACK
 10
0.0
 20
0.0
 30
0.0
  9
$USERI1
 70
     0
  9
$USERI2
 70
     0
  9
$USERI3
 70
     0
  9
$USERI4
 70
     0
  9
$USERI5
 70
     0
  9
$USERR1
 40
0.0
  9
$USERR2
 40
0.0
  9
$USERR3
 40
0.0
  9
$USERR4
 40
0.0
  9
$USERR5
 40
0.0
  9
$WORLDVIEW
 70
     0
  9
$SHADEDGE
 70
     3
  9
$SHADEDIF
 70
    70
  9
$TILEMODE
 70
     1
  9
$MAXACTVP
 70
    16
  9
$PINSBASE
 10
0.0
 20
0.0
 30
0.0
  9
$PLIMCHECK
 70
     0
  9
$PEXTMIN
 10
1.000000000000000E+20
 20
1.000000000000000E+20
 30
1.000000000000000E+20
  9
$PEXTMAX
 10
-1.000000000000000E+20
 20
-1.000000000000000E+20
 30
-1.000000000000000E+20
  9
$PLIMMIN
 10
0.0
 20
0.0
  9
$PLIMMAX
 10
12.0
 20
9.0
  9
$UNITMODE
 70
     0
  9
$VISRETAIN
 70
     0
  9
$PLINEGEN
 70
     0
  9
$PSLTSCALE
 70
     0
  9
$TREEDEPTH
 70
  3020
  9
$CMLSTYLE
  2
STANDARD
  9
$CMLJUST
 70
     0
  9
$CMLSCALE
 40
1.0
  9
$PROXYGRAPHICS
 70
     1
  9
$MEASUREMENT
 70
     0
  9
$CELWEIGHT
370
    -1
  9
$ENDCAPS
280
     0
  9
$JOINSTYLE
280
     0
  9
$LWDISPLAY
290
     0
  9
$INSUNITS
 70
     0
  9
$HYPERLINKBASE
  1

  9
$STYLESHEET
  1

  9
$XEDIT
290
     1
  9
$CEPSNTYPE
380
     0
  9
$PSTYLEMODE
290
     1
  9
$FINGERPRINTGUID
  2
{25DB17C0-51EF-11DA-A1A5-00055D4BFF93}
  9
$VERSIONGUID
  2
{16183B0C-999D-4319-AAB9-1B7DF2A34538}
  9
$EXTNAMES
290
     1
  9
$PSVPSCALE
 40
0.0
  9
$OLESTARTUP
290
     0
  0
ENDSEC
  0
SECTION
  2
CLASSES
  0
CLASS
  1
DICTIONARYVAR
  2
AcDbDictionaryVar
  3
AutoCAD 2000
 90
        0
280
     0
281
     0
  0
CLASS
  1
LWPOLYLINE
  2
AcDbPolyline
  3
AutoCAD 2000
 90
    32768
280
     0
281
     1
  0
CLASS
  1
HATCH
  2
AcDbHatch
  3
AutoCAD 2000
 90
    32768
280
     0
281
     1
  0
CLASS
  1
SORTENTSTABLE
  2
AcDbSortentsTable
  3
AutoCAD 2000
 90
        0
280
     0
281
     0
  0
CLASS
  1
WIPEOUTVARIABLES
  2
AcDbWipeoutVariables
  3
WIPEOUT
 90
        0
280
     0
281
     0
  0
CLASS
  1
WIPEOUT
  2
AcDbWipeout
  3
WIPEOUT
 90
      127
280
     0
281
     1
  0
CLASS
  1
ACDBDICTIONARYWDFLT
  2
AcDbDictionaryWithDefault
  3
AutoCAD 2000
 90
        0
280
     0
281
     0
  0
CLASS
  1
ACDBPLACEHOLDER
  2
AcDbPlaceHolder
  3
AutoCAD 2000
 90
        0
280
     0
281
     0
  0
CLASS
  1
LAYOUT
  2
AcDbLayout
  3
AutoCAD 2000
 90
        0
280
     0
281
     0
  0
ENDSEC
  0
SECTION
  2
TABLES
  0
TABLE
  2
VPORT
  5
8
330
0
100
AcDbSymbolTable
 70
     3
  0
VPORT
  5
8F7E
330
8
100
AcDbSymbolTableRecord
100
AcDbViewportTableRecord
  2
*Active
 70
     0
 10
0.0
 20
0.0
 11
1.0
 21
1.0
 12
569.5450812875376
 22
304.325527816023
 13
0.0
 23
0.0
 14
10.0
 24
10.0
 15
0.0
 25
0.0
 16
0.0
 26
0.0
 36
1.0
 17
16.3133211678832
 27
12.7791147637061
 37
0.2229487474867098
 40
427.1031133702459
 41
1.533333333333333
 42
50.0
 43
0.0
 44
0.0
 50
0.0
 51
0.0
 71
     0
 72
  2000
 73
     1
 74
     2
 75
     0
 76
     0
 77
     0
 78
     1
281
     0
 65
     1
110
578.4833765754188
120
409.2077421121927
130
0.0
111
1.0
121
0.0
131
0.0
112
0.0
122
1.0
132
0.0
 79
     0
146
0.0
  0
ENDTAB
  0
TABLE
  2
LTYPE
  5
5
330
0
100
AcDbSymbolTable
 70
     3
  0
LTYPE
  5
11
330
5
100
AcDbSymbolTableRecord
100
AcDbLinetypeTableRecord
  2
BYBLOCK
 70
     0
  3

 72
    65
 73
     0
 40
0.0
  0
LTYPE
  5
12
330
5
100
AcDbSymbolTableRecord
100
AcDbLinetypeTableRecord
  2
BYLAYER
 70
     0
  3

 72
    65
 73
     0
 40
0.0
  0
LTYPE
  5
13
330
5
100
AcDbSymbolTableRecord
100
AcDbLinetypeTableRecord
  2
CONTINUOUS
 70
     0
  3
Solid line
 72
    65
 73
     0
 40
0.0
  0
LTYPE
  5
425C
330
5
100
AcDbSymbolTableRecord
100
AcDbLinetypeTableRecord
  2
CENTER
 70
     0
  3
Center ____ _ ____ _ ____ _ ____ _ ____ _ ____
 72
    65
 73
     4
 40
2.0
 49
1.25
 74
     0
 49
-0.25
 74
     0
 49
0.25
 74
     0
 49
-0.25
 74
     0
  0
LTYPE
  5
42A4
330
5
100
AcDbSymbolTableRecord
100
AcDbLinetypeTableRecord
  2
HIDDEN
 70
     0
  3
Hidden __ __ __ __ __ __ __ __ __ __ __ __ __ _
 72
    65
 73
     2
 40
0.375
 49
0.25
 74
     0
 49
-0.125
 74
     0
  0
ENDTAB
  0
TABLE
  2
LAYER
  5
2
330
0
100
AcDbSymbolTable
 70
     8
  0
LAYER
  5
E
330
2
100
AcDbSymbolTableRecord
100
AcDbLayerTableRecord
  2
0
 70
     0
 62
     7
  6
CONTINUOUS
370
    -3
390
8ABE
  0
LAYER
  5
425D
330
2
100
AcDbSymbolTableRecord
100
AcDbLayerTableRecord
  2
CENTRE
 70
     0
 62
     3
  6
CENTER
370
    -3
390
8ABE
  0
LAYER
  5
4261
330
2
100
AcDbSymbolTableRecord
100
AcDbLayerTableRecord
  2
M01
 70
     0
 62
     1
  6
CONTINUOUS
370
    -3
390
8ABE
  0
LAYER
  5
42A5
330
2
100
AcDbSymbolTableRecord
100
AcDbLayerTableRecord
  2
M03
 70
     0
 62
     2
  6
HIDDEN
370
    -3
390
8ABE
  0
LAYER
  5
42B0
330
2
100
AcDbSymbolTableRecord
100
AcDbLayerTableRecord
  2
M04
 70
     0
 62
     7
  6
CONTINUOUS
370
    -3
390
8ABE
  0
LAYER
  5
432E
330
2
100
AcDbSymbolTableRecord
100
AcDbLayerTableRecord
  2
DIMS
 70
     0
 62
     4
  6
CONTINUOUS
370
    -3
390
8ABE
  0
LAYER
  5
432F
330
2
100
AcDbSymbolTableRecord
100
AcDbLayerTableRecord
  2
TEXT
 70
     0
 62
     2
  6
CONTINUOUS
370
    -3
390
8ABE
  0
LAYER
  5
4570
330
2
100
AcDbSymbolTableRecord
100
AcDbLayerTableRecord
  2
DEFPOINTS
 70
     0
 62
     7
  6
CONTINUOUS
290
     0
370
    -3
390
8ABE
  0
ENDTAB
  0
TABLE
  2
STYLE
  5
3
330
0
100
AcDbSymbolTable
 70
     1
  0
STYLE
  5
F
330
3
100
AcDbSymbolTableRecord
100
AcDbTextStyleTableRecord
  2
STANDARD
 70
     0
 40
0.0
 41
1.0
 50
0.0
 71
     0
 42
2.0
  3
SIMPLEX
  4

  0
ENDTAB
  0
TABLE
  2
VIEW
  5
6
330
0
100
AcDbSymbolTable
 70
     0
  0
ENDTAB
  0
TABLE
  2
UCS
  5
7
330
0
100
AcDbSymbolTable
 70
     0
  0
ENDTAB
  0
TABLE
  2
APPID
  5
9
330
0
100
AcDbSymbolTable
 70
     6
  0
APPID
  5
10
330
9
100
AcDbSymbolTableRecord
100
AcDbRegAppTableRecord
  2
ACAD
 70
     0
  0
APPID
  5
114A
330
9
100
AcDbSymbolTableRecord
100
AcDbRegAppTableRecord
  2
CONTENTTABDATA
 70
     0
  0
APPID
  5
114B
330
9
100
AcDbSymbolTableRecord
100
AcDbRegAppTableRecord
  2
CONTENTCURRENTTAB
 70
     0
  0
APPID
  5
424D
330
9
100
AcDbSymbolTableRecord
100
AcDbRegAppTableRecord
  2
RAK
 70
     0
  0
APPID
  5
8175
330
9
100
AcDbSymbolTableRecord
100
AcDbRegAppTableRecord
  2
DRAWINGVARIABLESXDATA
 70
     0
  0
APPID
  5
8176
330
9
100
AcDbSymbolTableRecord
100
AcDbRegAppTableRecord
  2
CONTENTBLOCKDESCRIPTION
 70
     0
  0
ENDTAB
  0
TABLE
  2
DIMSTYLE
  5
A
330
0
100
AcDbSymbolTable
 70
    10
100
AcDbDimStyleTable
 71
     1
340
1011
  0
DIMSTYLE
105
25
330
A
100
AcDbSymbolTableRecord
100
AcDbDimStyleTableRecord
  2
AUDIT_I_100216165624-8
 70
     0
 41
3.0
 42
1.0
 43
10.0
 44
2.5
 45
0.01
 46
1.25
 73
     0
 74
     0
 77
     1
 78
     1
140
3.0
141
-0.07
143
0.039
145
1.5
147
0.0
176
     4
177
     4
178
     2
271
     2
272
     2
279
     2
284
     1
285
     1
286
     1
340
F
  0
DIMSTYLE
105
1011
102
{ACAD_REACTORS
330
8584
330
8585
330
8BDD
330
8C7F
102
}
330
A
100
AcDbSymbolTableRecord
100
AcDbDimStyleTableRecord
  2
DIM1
 70
     0
 41
3.0
 42
1.0
 43
10.0
 44
2.5
 45
0.01
 46
1.25
 47
0.05
 73
     0
 74
     0
 77
     3
 78
     1
140
3.0
141
-1.7
143
0.039
144
0.2
145
1.5
146
0.7
147
1.5
176
     4
177
     4
178
     2
271
     2
272
     2
284
     1
285
     1
286
     1
289
     0
340
F
  0
DIMSTYLE
105
101D
330
A
100
AcDbSymbolTableRecord
100
AcDbDimStyleTableRecord
  2
DIM1$2
 70
     0
 41
3.0
 42
1.0
 43
10.0
 44
2.5
 45
0.01
 46
1.25
 77
     1
 78
     1
140
3.0
141
-1.7
143
0.039
145
1.5
147
0.0
176
     4
177
     4
178
     2
179
     2
271
     2
272
     2
279
     2
284
     1
285
     1
286
     1
340
F
  0
DIMSTYLE
105
1025
330
A
100
AcDbSymbolTableRecord
100
AcDbDimStyleTableRecord
  2
DIM1$3
 70
     0
 41
3.0
 42
1.0
 43
10.0
 44
2.5
 45
0.01
 46
1.25
 78
     1
140
3.0
141
-1.7
143
0.039
147
0.0
172
     1
176
     4
177
     4
178
     2
271
     2
272
     2
284
     1
285
     1
286
     1
288
     1
289
     2
340
F
  0
DIMSTYLE
105
1061
330
A
100
AcDbSymbolTableRecord
100
AcDbDimStyleTableRecord
  2
DIM1$7
 70
     0
 41
3.0
 42
1.0
 43
10.0
 44
2.5
 45
0.01
 46
1.25
 73
     0
 74
     0
 78
     1
140
3.0
141
-1.7
143
0.039
147
1.5
176
     4
177
     4
178
     2
271
     2
272
     2
284
     1
285
     1
286
     1
289
     0
340
F
  0
DIMSTYLE
105
10B4
330
A
100
AcDbSymbolTableRecord
100
AcDbDimStyleTableRecord
  2
DIM1$4
 70
     0
 41
3.0
 42
1.0
 43
10.0
 44
2.5
 45
0.01
 46
1.25
 78
     1
140
3.0
141
-1.7
143
0.039
147
1.5
172
     1
176
     4
177
     4
178
     2
271
     2
272
     2
284
     1
285
     1
286
     1
288
     1
289
     0
340
F
  0
DIMSTYLE
105
10F8
330
A
100
AcDbSymbolTableRecord
100
AcDbDimStyleTableRecord
  2
DIM1$6
 70
     0
 41
3.0
 42
1.0
 43
10.0
 44
2.5
 45
0.01
 46
1.25
 73
     0
 74
     0
 78
     1
140
3.0
141
-1.7
143
0.039
147
1.5
176
     4
177
     4
178
     2
271
     2
272
     2
284
     1
285
     1
286
     1
289
     0
340
F
  0
DIMSTYLE
105
1EEC
330
A
100
AcDbSymbolTableRecord
100
AcDbDimStyleTableRecord
  2
TWOPLACES
 70
     0
 41
5.0
 42
2.5
 43
10.0
 44
2.5
 45
0.01
 73
     0
 74
     0
 77
     1
140
3.5
141
3.0
143
0.039
144
0.5
146
0.75
147
1.5
271
     2
340
F
  0
DIMSTYLE
105
21CF
330
A
100
AcDbSymbolTableRecord
100
AcDbDimStyleTableRecord
  2
STANDARD
 70
     0
340
F
  0
DIMSTYLE
105
7A1E
330
A
100
AcDbSymbolTableRecord
100
AcDbDimStyleTableRecord
  2
STANDARD_WS
 70
     0
 41
2.5
 42
0.625
 43
3.75
 44
1.25
 73
     0
 74
     0
 77
     1
 78
     8
140
2.5
141
2.5
143
0.0394
147
0.625
171
     4
172
     1
273
     8
274
     4
340
F
  0
ENDTAB
  0
TABLE
  2
BLOCK_RECORD
  5
1
330
0
100
AcDbSymbolTable
 70
     4
  0
BLOCK_RECORD
  5
17
102
{ACAD_XDICTIONARY
360
20BE
102
}
330
1
100
AcDbSymbolTableRecord
100
AcDbBlockTableRecord
  2
*MODEL_SPACE
340
8AC1
  0
BLOCK_RECORD
  5
14
330
1
100
AcDbSymbolTableRecord
100
AcDbBlockTableRecord
  2
*PAPER_SPACE
340
8AC2
  0
BLOCK_RECORD
  5
85F0
330
1
100
AcDbSymbolTableRecord
100
AcDbBlockTableRecord
  2
*D0
340
0
  0
BLOCK_RECORD
  5
85FD
330
1
100
AcDbSymbolTableRecord
100
AcDbBlockTableRecord
  2
*D1
340
0
  0
BLOCK_RECORD
  5
8BDE
330
1
100
AcDbSymbolTableRecord
100
AcDbBlockTableRecord
  2
*D2
340
0
  0
BLOCK_RECORD
  5
8C80
330
1
100
AcDbSymbolTableRecord
100
AcDbBlockTableRecord
  2
*D3
340
0
  0
ENDTAB
  0
ENDSEC
  0
SECTION
  2
BLOCKS
  0
BLOCK
  5
31
330
17
100
AcDbEntity
  8
0
100
AcDbBlockBegin
  2
*MODEL_SPACE
 70
     0
 10
0.0
 20
0.0
 30
0.0
  3
*MODEL_SPACE
  1

  0
ENDBLK
  5
32
330
17
100
AcDbEntity
  8
0
100
AcDbBlockEnd
  0
BLOCK
  5
2F
330
14
100
AcDbEntity
 67
     1
  8
0
100
AcDbBlockBegin
  2
*PAPER_SPACE
 70
     0
 10
0.0
 20
0.0
 30
0.0
  3
*PAPER_SPACE
  1

  0
ENDBLK
  5
30
330
14
100
AcDbEntity
 67
     1
  8
0
100
AcDbBlockEnd
  0
BLOCK
  5
8696
330
85F0
100
AcDbEntity
  8
0
100
AcDbBlockBegin
  2
*D0
 70
     1
 10
0.0
 20
0.0
 30
0.0
  3
*D0
  1

  0
LINE
  5
8F59
330
85F0
100
AcDbEntity
  8
DIMS
 62
     4
370
    -2
100
AcDbLine
 10
766.7059522081334
 20
282.6906655588557
 30
0.0
 11
766.7059522081334
 21
270.6415629139084
 31
0.0
  0
LINE
  5
8F5A
330
85F0
100
AcDbEntity
  8
DIMS
 62
     4
370
    -2
100
AcDbLine
 10
741.3059522081336
 20
292.0864705992559
 30
0.0
 11
741.3059522081336
 21
270.6415629139084
 31
0.0
  0
LINE
  5
8F5B
330
85F0
100
AcDbEntity
  8
DIMS
 62
     4
370
    -2
100
AcDbLine
 10
763.7059522081334
 20
273.1415629139084
 30
0.0
 11
744.3059522081336
 21
273.1415629139084
 31
0.0
  0
SOLID
  5
8F5C
330
85F0
100
AcDbEntity
  8
DIMS
 62
     4
100
AcDbTrace
 10
763.7059522081334
 20
273.6415629139084
 30
0.0
 11
763.7059522081334
 21
272.6415629139084
 31
0.0
 12
766.7059522081334
 22
273.1415629139084
 32
0.0
 13
766.7059522081334
 23
273.1415629139084
 33
0.0
  0
SOLID
  5
8F5D
330
85F0
100
AcDbEntity
  8
DIMS
 62
     4
100
AcDbTrace
 10
744.3059522081336
 20
273.6415629139084
 30
0.0
 11
744.3059522081336
 21
272.6415629139084
 31
0.0
 12
741.3059522081336
 22
273.1415629139084
 32
0.0
 13
741.3059522081336
 23
273.1415629139084
 33
0.0
  0
MTEXT
  5
8F5E
330
85F0
100
AcDbEntity
  8
DIMS
 62
     2
100
AcDbMText
 10
748.3875492390287
 20
276.1415629139084
 30
0.0
 40
3.0
 41
0.0
 71
     5
 72
     1
  1
\A1;{\C4;25.40}
 73
     1
 44
1.0
  0
POINT
  5
8F5F
330
85F0
100
AcDbEntity
  8
DEFPOINTS
 62
     0
100
AcDbPoint
 10
766.7059522081334
 20
283.6906655588557
 30
0.0
  0
POINT
  5
8F60
330
85F0
100
AcDbEntity
  8
DEFPOINTS
 62
     0
100
AcDbPoint
 10
741.3059522081336
 20
293.0864705992559
 30
0.0
  0
POINT
  5
8F61
330
85F0
100
AcDbEntity
  8
DEFPOINTS
 62
     0
100
AcDbPoint
 10
741.3059522081336
 20
273.1415629139084
 30
0.0
  0
ENDBLK
  5
86A1
330
85F0
100
AcDbEntity
  8
0
100
AcDbBlockEnd
  0
BLOCK
  5
868B
330
85FD
100
AcDbEntity
  8
0
100
AcDbBlockBegin
  2
*D1
 70
     1
 10
0.0
 20
0.0
 30
0.0
  3
*D1
  1

  0
LINE
  5
8F62
330
85FD
100
AcDbEntity
  8
DIMS
 62
     4
370
    -2
100
AcDbLine
 10
766.7059522081334
 20
284.9138244926716
 30
0.0
 11
766.7059522081334
 21
259.5512524478142
 31
0.0
  0
LINE
  5
8F63
330
85FD
100
AcDbEntity
  8
DIMS
 62
     4
370
    -2
100
AcDbLine
 10
601.6059522081332
 20
308.3344705992558
 30
0.0
 11
601.6059522081332
 21
259.5512524478142
 31
0.0
  0
LINE
  5
8F64
330
85FD
100
AcDbEntity
  8
DIMS
 62
     4
370
    -2
100
AcDbLine
 10
763.7059522081334
 20
262.0512524478141
 30
0.0
 11
604.6059522081332
 21
262.0512524478141
 31
0.0
  0
SOLID
  5
8F65
330
85FD
100
AcDbEntity
  8
DIMS
 62
     4
100
AcDbTrace
 10
763.7059522081334
 20
262.5512524478141
 30
0.0
 11
763.7059522081334
 21
261.5512524478142
 31
0.0
 12
766.7059522081334
 22
262.0512524478141
 32
0.0
 13
766.7059522081334
 23
262.0512524478141
 33
0.0
  0
SOLID
  5
8F66
330
85FD
100
AcDbEntity
  8
DIMS
 62
     4
100
AcDbTrace
 10
604.6059522081332
 20
262.5512524478141
 30
0.0
 11
604.6059522081332
 21
261.5512524478142
 31
0.0
 12
601.6059522081332
 22
262.0512524478141
 32
0.0
 13
601.6059522081332
 23
262.0512524478141
 33
0.0
  0
MTEXT
  5
8F67
330
85FD
100
AcDbEntity
  8
DIMS
 62
     2
100
AcDbMText
 10
684.1559522081333
 20
265.8369667335284
 30
0.0
 40
3.0
 41
0.0
 71
     5
 72
     1
  1
\A1;{\C4;L1=165.10(6.500")}
 73
     1
 44
1.0
  0
POINT
  5
8F68
330
85FD
100
AcDbEntity
  8
DEFPOINTS
 62
     0
100
AcDbPoint
 10
766.7059522081334
 20
285.9138244926716
 30
0.0
  0
POINT
  5
8F69
330
85FD
100
AcDbEntity
  8
DEFPOINTS
 62
     0
100
AcDbPoint
 10
601.6059522081332
 20
309.3344705992557
 30
0.0
  0
POINT
  5
8F6A
330
85FD
100
AcDbEntity
  8
DEFPOINTS
 62
     0
100
AcDbPoint
 10
601.6059522081332
 20
262.0512524478141
 30
0.0
  0
ENDBLK
  5
8695
330
85FD
100
AcDbEntity
  8
0
100
AcDbBlockEnd
  0
BLOCK
  5
8BE9
330
8BDE
100
AcDbEntity
  8
0
 62
     4
100
AcDbBlockBegin
  2
*D2
 70
     1
 10
0.0
 20
0.0
 30
0.0
  3
*D2
  1

  0
LINE
  5
8F6B
330
8BDE
100
AcDbEntity
  8
DIMS
 62
     4
370
    -2
100
AcDbLine
 10
766.7059522081334
 20
283.9138244926716
 30
0.0
 11
766.7059522081334
 21
259.5512524478142
 31
0.0
  0
LINE
  5
8F6C
330
8BDE
100
AcDbEntity
  8
DIMS
 62
     4
370
    -2
100
AcDbLine
 10
769.8809522081337
 20
291.3594705992558
 30
0.0
 11
769.8809522081337
 21
259.5512524478142
 31
0.0
  0
LINE
  5
8F6D
330
8BDE
100
AcDbEntity
  8
DIMS
 62
     4
370
    -2
100
AcDbLine
 10
763.7059522081334
 20
262.0512524478141
 30
0.0
 11
760.7059522081335
 21
262.0512524478141
 31
0.0
  0
LINE
  5
8F6E
330
8BDE
100
AcDbEntity
  8
DIMS
 62
     4
370
    -2
100
AcDbLine
 10
772.8809522081337
 20
262.0512524478141
 30
0.0
 11
787.4523807795623
 21
262.0512524478141
 31
0.0
  0
SOLID
  5
8F6F
330
8BDE
100
AcDbEntity
  8
DIMS
 62
     4
100
AcDbTrace
 10
763.7059522081334
 20
262.5512524478141
 30
0.0
 11
763.7059522081334
 21
261.5512524478142
 31
0.0
 12
766.7059522081334
 22
262.0512524478141
 32
0.0
 13
766.7059522081334
 23
262.0512524478141
 33
0.0
  0
SOLID
  5
8F70
330
8BDE
100
AcDbEntity
  8
DIMS
 62
     4
100
AcDbTrace
 10
772.8809522081337
 20
262.5512524478141
 30
0.0
 11
772.8809522081337
 21
261.5512524478142
 31
0.0
 12
769.8809522081337
 22
262.0512524478141
 32
0.0
 13
769.8809522081337
 23
262.0512524478141
 33
0.0
  0
MTEXT
  5
8F71
330
8BDE
100
AcDbEntity
  8
DIMS
 62
     2
100
AcDbMText
 10
781.666666493848
 20
265.0512524478141
 30
0.0
 40
3.0
 41
0.0
 71
     5
 72
     1
  1
\A1;{\C4;3.18}
 73
     1
 44
1.0
  0
POINT
  5
8F72
330
8BDE
100
AcDbEntity
  8
DEFPOINTS
 62
     0
100
AcDbPoint
 10
766.7059522081334
 20
284.9138244926716
 30
0.0
  0
POINT
  5
8F73
330
8BDE
100
AcDbEntity
  8
DEFPOINTS
 62
     0
100
AcDbPoint
 10
769.8809522081337
 20
292.3594705992558
 30
0.0
  0
POINT
  5
8F74
330
8BDE
100
AcDbEntity
  8
DEFPOINTS
 62
     0
100
AcDbPoint
 10
769.8809522081337
 20
262.0512524478141
 30
0.0
  0
ENDBLK
  5
8BEA
330
8BDE
100
AcDbEntity
  8
0
 62
     4
100
AcDbBlockEnd
  0
BLOCK
  5
8C8A
330
8C80
100
AcDbEntity
  8
0
100
AcDbBlockBegin
  2
*D3
 70
     1
 10
0.0
 20
0.0
 30
0.0
  3
*D3
  1

  0
LINE
  5
8F75
330
8C80
100
AcDbEntity
  8
DIMS
 62
     4
370
    -2
100
AcDbLine
 10
747.3059522081334
 20
343.6324705992557
 30
0.0
 11
800.046600156865
 21
343.6324705992557
 31
0.0
  0
LINE
  5
8F76
330
8C80
100
AcDbEntity
  8
DIMS
 62
     4
370
    -2
100
AcDbLine
 10
747.3059522081334
 20
293.0864705992559
 30
0.0
 11
800.046600156865
 21
293.0864705992559
 31
0.0
  0
LINE
  5
8F77
330
8C80
100
AcDbEntity
  8
DIMS
 62
     4
370
    -2
100
AcDbLine
 10
797.546600156865
 20
340.6324705992557
 30
0.0
 11
797.546600156865
 21
296.0864705992559
 31
0.0
  0
SOLID
  5
8F78
330
8C80
100
AcDbEntity
  8
DIMS
 62
     4
100
AcDbTrace
 10
797.046600156865
 20
340.6324705992557
 30
0.0
 11
798.0466001568649
 21
340.6324705992557
 31
0.0
 12
797.546600156865
 22
343.6324705992557
 32
0.0
 13
797.546600156865
 23
343.6324705992557
 33
0.0
  0
SOLID
  5
8F79
330
8C80
100
AcDbEntity
  8
DIMS
 62
     4
100
AcDbTrace
 10
797.046600156865
 20
296.0864705992559
 30
0.0
 11
798.0466001568649
 21
296.0864705992559
 31
0.0
 12
797.546600156865
 22
293.0864705992559
 32
0.0
 13
797.546600156865
 23
293.0864705992559
 33
0.0
  0
MTEXT
  5
8F7A
330
8C80
100
AcDbEntity
  8
DIMS
 62
     2
100
AcDbMText
 10
794.5466001568648
 20
318.3594705992559
 30
0.0
 40
3.0
 41
0.0
 71
     5
 72
     1
  1
\A1;{\C4;Ø50.55}
 11
0.0000000000000001
 21
1.0
 31
0.0
 73
     1
 44
1.0
  0
POINT
  5
8F7B
330
8C80
100
AcDbEntity
  8
DEFPOINTS
 62
     0
100
AcDbPoint
 10
746.3059522081334
 20
343.6324705992557
 30
0.0
  0
POINT
  5
8F7C
330
8C80
100
AcDbEntity
  8
DEFPOINTS
 62
     0
100
AcDbPoint
 10
746.3059522081334
 20
293.0864705992559
 30
0.0
  0
POINT
  5
8F7D
330
8C80
100
AcDbEntity
  8
DEFPOINTS
 62
     0
100
AcDbPoint
 10
797.546600156865
 20
293.0864705992559
 30
0.0
  0
ENDBLK
  5
8C8B
330
8C80
100
AcDbEntity
  8
0
100
AcDbBlockEnd
  0
ENDSEC
  0
SECTION
  2
ENTITIES
  0
ACAD_PROXY_ENTITY
  5
6FE3
330
17
100
AcDbEntity
  8
TEXT
100
AcDbProxyEntity
 90
      498
 91
      505
 95
   589845
 70
     0
 92
        8
310
0800000000000000
 93
     1035
310
8A10DE4DA5DB889400F0467D0C67A56900C8DD91A59589CCBF2843BAA8038CD2102A2843BAA8038CD21020000000000000000000000000000000041E64640081209205A7126080F907EF7D5F09FD76BB57FB9FFFFFFFFFFBE7EF7D5F09FD76BB57E000000000001C07FB1FFFFFFFFFFBF7E585C7126080F907E00000000000
310
1C17E2
340
0
360
0
 94
        0
  0
TEXT
  5
78AB
330
17
100
AcDbEntity
  8
TEXT
 62
     4
100
AcDbText
 10
489.3015633221008
 20
255.8117915154562
 30
0.0
 40
4.0
  1
%%UNOTE
100
AcDbText
  0
TEXT
  5
78AC
330
17
100
AcDbEntity
  8
TEXT
 62
     4
100
AcDbText
 10
469.7282615055911
 20
247.3717212753765
 30
0.0
 40
3.0
  1
AN ALLOWANCE FOR EXPANSION OF THE BUSHING MUST BE MADE DEPENDENT ON THE
100
AcDbText
  0
TEXT
  5
78AE
330
17
100
AcDbEntity
  8
TEXT
 62
     4
100
AcDbText
 10
469.3335107371007
 20
242.0612913419049
 30
0.0
 40
3.0
  1
MATERIAL TO BE MOULDED AND THE PROCESS CONDITIONS - SEE CATALOGUE FOR DETAILS
100
AcDbText
  0
LINE
  5
84E3
330
17
100
AcDbEntity
  8
CENTRE
 48
0.7
100
AcDbLine
 10
596.6059522081333
 20
318.3594705992558
 30
0.0
 11
783.960557708973
 21
318.3594705992558
 31
0.0
  0
LINE
  5
84E4
330
17
100
AcDbEntity
  8
M01
100
AcDbLine
 10
604.3759522081333
 20
331.0594705992559
 30
0.0
 11
604.3759522081331
 21
305.6594705992558
 31
0.0
  0
LINE
  5
84E5
102
{ACAD_REACTORS
330
8F54
102
}
330
17
100
AcDbEntity
  8
M01
100
AcDbLine
 10
603.8759522081333
 20
331.3844705992558
 30
0.0
 11
603.8759522081331
 21
306.9344705992558
 31
0.0
  0
LINE
  5
84E6
102
{ACAD_REACTORS
330
8F54
102
}
330
17
100
AcDbEntity
  8
M01
100
AcDbLine
 10
602.6059522081332
 20
331.3844705992558
 30
0.0
 11
602.6059522081331
 21
306.9344705992559
 31
0.0
  0
LINE
  5
84E8
330
17
100
AcDbEntity
  8
M01
100
AcDbLine
 10
602.1059522081332
 20
327.8844705992558
 30
0.0
 11
602.1059522081332
 21
308.8344705992557
 31
0.0
  0
LINE
  5
84E9
330
17
100
AcDbEntity
  8
M01
100
AcDbLine
 10
601.6059522081332
 20
327.3844705992558
 30
0.0
 11
601.6059522081332
 21
309.3344705992557
 31
0.0
  0
LINE
  5
84EB
330
17
100
AcDbEntity
  8
M01
100
AcDbLine
 10
604.3759522081331
 20
305.6594705992559
 30
0.0
 11
741.3059522081336
 21
305.6594705992558
 31
0.0
  0
LINE
  5
84EC
102
{ACAD_REACTORS
330
8F54
102
}
330
17
100
AcDbEntity
  8
M01
100
AcDbLine
 10
602.6059522081331
 20
309.3344705992559
 30
0.0
 11
603.8759522081331
 21
309.3344705992557
 31
0.0
  0
LINE
  5
84ED
330
17
100
AcDbEntity
  8
M01
100
AcDbLine
 10
601.6059522081332
 20
309.3344705992557
 30
0.0
 11
602.1059522081332
 21
308.8344705992557
 31
0.0
  0
LINE
  5
84EE
330
17
100
AcDbEntity
  8
M01
100
AcDbLine
 10
602.1059522081332
 20
308.8344705992557
 30
0.0
 11
602.6059522081331
 21
308.8344705992557
 31
0.0
  0
LINE
  5
84EF
330
17
100
AcDbEntity
  8
M01
100
AcDbLine
 10
603.8759522081331
 20
308.8344705992557
 30
0.0
 11
604.3759522081331
 21
308.8344705992557
 31
0.0
  0
LINE
  5
84F1
330
17
100
AcDbEntity
  8
M01
100
AcDbLine
 10
604.3759522081333
 20
331.0594705992553
 30
0.0
 11
741.3059522081336
 21
331.059470599256
 31
0.0
  0
LINE
  5
84F3
102
{ACAD_REACTORS
330
8F54
102
}
330
17
100
AcDbEntity
  8
M01
100
AcDbLine
 10
602.6059522081332
 20
327.3844705992558
 30
0.0
 11
603.8759522081333
 21
327.3844705992558
 31
0.0
  0
LINE
  5
84F4
330
17
100
AcDbEntity
  8
M01
100
AcDbLine
 10
601.6059522081332
 20
327.3844705992558
 30
0.0
 11
602.1059522081332
 21
327.8844705992558
 31
0.0
  0
LINE
  5
84F5
330
17
100
AcDbEntity
  8
M01
100
AcDbLine
 10
602.1059522081332
 20
327.8844705992558
 30
0.0
 11
602.6059522081332
 21
327.8844705992558
 31
0.0
  0
LINE
  5
84F6
330
17
100
AcDbEntity
  8
M01
100
AcDbLine
 10
603.8759522081333
 20
327.8844705992558
 30
0.0
 11
604.3759522081333
 21
327.8844705992558
 31
0.0
  0
LINE
  5
8510
330
17
100
AcDbEntity
  8
0
  6
ByBlock
 62
     4
100
AcDbLine
 10
599.9779136926074
 20
322.2852814189417
 30
0.0
 11
594.2135051258857
 21
336.3692758392754
 31
0.0
  0
LINE
  5
8511
330
17
100
AcDbEntity
  8
0
  6
ByBlock
 62
     4
100
AcDbLine
 10
594.2135051258857
 20
336.3692758392754
 30
0.0
 11
591.213505125886
 21
336.3692758392754
 31
0.0
  0
SOLID
  5
8512
330
17
100
AcDbEntity
  8
0
  6
ByBlock
 62
     4
100
AcDbTrace
 10
600.439773789041
 20
322.4768153619448
 30
0.0
 11
599.5160535961738
 21
322.0937474759388
 31
0.0
 12
601.1271173506257
 22
319.5141208403398
 32
0.0
 13
601.1271173506257
 23
319.5141208403398
 33
0.0
  0
MTEXT
  5
8513
330
17
100
AcDbEntity
  8
0
  6
ByBlock
 62
     4
100
AcDbMText
 10
564.892368187623
 20
336.5920437388832
 30
0.0
 40
3.0
 41
0.0
 71
     5
 72
     1
  1
TIP INSERTION POINT
 73
     1
 44
1.0
  0
LINE
  5
851F
330
17
100
AcDbEntity
  8
M04
100
AcDbLine
 10
750.8809522081334
 20
362.4894705992558
 30
0.0
 11
750.8809522081333
 21
342.4894705992558
 31
0.0
  0
LINE
  5
8524
330
17
100
AcDbEntity
  8
M04
100
AcDbLine
 10
769.8809522081337
 20
298.3594705992558
 30
0.0
 11
769.8809522081337
 21
292.3594705992558
 31
0.0
  0
LINE
  5
8525
330
17
100
AcDbEntity
  8
M03
 62
     6
 48
0.7
100
AcDbLine
 10
622.6059522081331
 20
322.3594705992563
 30
0.0
 11
767.4241199133326
 21
322.3594705992558
 31
0.0
  0
LINE
  5
8535
330
17
100
AcDbEntity
  8
M04
 48
0.7
100
AcDbLine
 10
611.6059522081334
 20
332.3594705992557
 30
0.0
 11
741.3059522081336
 21
332.3594705992559
 31
0.0
  0
LINE
  5
8536
330
17
100
AcDbEntity
  8
M03
 62
     6
 48
0.7
100
AcDbLine
 10
622.6059522081329
 20
314.3594705992563
 30
0.0
 11
767.4241199133326
 21
314.3594705992559
 31
0.0
  0
LINE
  5
8537
330
17
100
AcDbEntity
  8
M04
 48
0.7
100
AcDbLine
 10
611.6059522081334
 20
304.3594705992564
 30
0.0
 11
741.3059522081336
 21
304.3594705992558
 31
0.0
  0
LINE
  5
8538
330
17
100
AcDbEntity
  8
M01
100
AcDbLine
 10
765.8709522081334
 20
388.3459687483063
 30
0.0
 11
761.8809522081335
 21
388.3459687483063
 31
0.0
  0
LINE
  5
8539
330
17
100
AcDbEntity
  8
M01
100
AcDbLine
 10
767.3809522081336
 20
416.3459687483065
 30
0.0
 11
760.3809522081334
 21
416.3459687483061
 31
0.0
  0
LINE
  5
853A
330
17
100
AcDbEntity
  8
M01
100
AcDbLine
 10
767.3809522081336
 20
406.3459687483065
 30
0.0
 11
767.3809522081336
 21
416.3459687483065
 31
0.0
  0
LINE
  5
853B
330
17
100
AcDbEntity
  8
M01
100
AcDbLine
 10
765.8709522081334
 20
388.3459687483063
 30
0.0
 11
766.8809522081335
 21
398.2707119326384
 31
0.0
  0
LINE
  5
853C
330
17
100
AcDbEntity
  8
M01
100
AcDbLine
 10
760.3809522081334
 20
406.3459687483061
 30
0.0
 11
760.3809522081334
 21
416.3459687483061
 31
0.0
  0
LINE
  5
853D
330
17
100
AcDbEntity
  8
M01
100
AcDbLine
 10
761.8809522081336
 20
388.3459687483063
 30
0.0
 11
760.8809522081331
 21
398.270711932639
 31
0.0
  0
LINE
  5
853E
330
17
100
AcDbEntity
  8
M01
100
AcDbLine
 10
760.8809522081331
 20
398.270711932639
 30
0.0
 11
760.8809522081332
 21
406.3459687483063
 31
0.0
  0
LINE
  5
853F
330
17
100
AcDbEntity
  8
M01
100
AcDbLine
 10
766.8809522081335
 20
398.2707119326384
 30
0.0
 11
766.8809522081334
 21
406.3459687483063
 31
0.0
  0
LINE
  5
8540
330
17
100
AcDbEntity
  8
M01
100
AcDbLine
 10
760.8809522081331
 20
398.270711932639
 30
0.0
 11
766.8809522081335
 21
398.2707119326384
 31
0.0
  0
LINE
  5
8541
330
17
100
AcDbEntity
  8
M01
100
AcDbLine
 10
767.3809522081336
 20
406.3459687483065
 30
0.0
 11
760.3809522081334
 21
406.3459687483061
 31
0.0
  0
LINE
  5
8544
330
17
100
AcDbEntity
  8
CENTRE
 48
0.7
100
AcDbLine
 10
763.8809522081333
 20
378.0206770307287
 30
0.0
 11
763.8809522081335
 21
451.0962635646285
 31
0.0
  0
LINE
  5
8558
330
17
100
AcDbEntity
  8
M01
100
AcDbLine
 10
766.1309522081337
 20
416.3459687483064
 30
0.0
 11
766.1309522081339
 21
416.4021211752226
 31
0.0
  0
LINE
  5
857E
330
17
100
AcDbEntity
  8
M01
100
AcDbLine
 10
761.8809522081336
 20
388.3459687483063
 30
0.0
 11
761.8809522081336
 21
382.1957051622347
 31
0.0
  0
LINE
  5
857F
330
17
100
AcDbEntity
  8
M01
100
AcDbLine
 10
765.8709522081334
 20
388.3459687483063
 30
0.0
 11
765.8709522081335
 21
381.4680546422516
 31
0.0
  0
DIMENSION
  5
8584
330
17
100
AcDbEntity
  8
DIMS
100
AcDbDimension
  2
*D0
 10
741.3059522081336
 20
273.1415629139084
 30
0.0
 11
748.3875492390287
 21
273.1415629139084
 31
0.0
 70
   160
  1
{\C4;<>}
 71
     5
 42
25.39999999999986
  3
DIM1
100
AcDbAlignedDimension
 13
766.7059522081334
 23
283.6906655588557
 33
0.0
 14
741.3059522081336
 24
293.0864705992559
 34
0.0
100
AcDbRotatedDimension
1001
ACAD
1000
DSTYLE
1002
{
1070
   144
1040
1.0
1002
}
  0
DIMENSION
  5
8585
330
17
100
AcDbEntity
  8
DIMS
100
AcDbDimension
  2
*D1
 10
601.6059522081332
 20
262.0512524478141
 30
0.0
 11
684.1559522081333
 21
265.8369667335284
 31
0.0
 70
    32
  1
{\C4;L1=<>(6.500")}
 71
     5
 42
165.1000000000002
  3
DIM1
100
AcDbAlignedDimension
 13
766.7059522081334
 23
285.9138244926716
 33
0.0
 14
601.6059522081332
 24
309.3344705992557
 34
0.0
100
AcDbRotatedDimension
1001
ACAD
1000
DSTYLE
1002
{
1070
   144
1040
1.0
1002
}
  0
TEXT
  5
8588
330
17
100
AcDbEntity
  8
DIMS
 62
     4
100
AcDbText
 10
792.8471122657509
 20
327.6133148413204
 30
0.0
 40
2.0
  1
+0.02
 50
90.0
100
AcDbText
  0
TEXT
  5
8589
330
17
100
AcDbEntity
  8
DIMS
 62
     4
100
AcDbText
 10
795.9320326375716
 20
327.6133148413204
 30
0.0
 40
2.0
  1
-0
 50
90.0
100
AcDbText
  0
TEXT
  5
858A
330
17
100
AcDbEntity
  8
DIMS
 62
     4
100
AcDbText
 10
756.2962916557169
 20
277.7373428669588
 30
0.0
 40
2.0
  1
+0.02
100
AcDbText
  0
TEXT
  5
858B
330
17
100
AcDbEntity
  8
DIMS
 62
     4
100
AcDbText
 10
756.2962916557169
 20
274.652422495138
 30
0.0
 40
2.0
  1
-0
100
AcDbText
  0
TEXT
  5
858C
330
17
100
AcDbEntity
  8
TEXT
 62
     1
100
AcDbText
 10
608.9661104742267
 20
325.7595550092757
 30
0.0
 40
2.0
  1
PSB1000-06875
 41
0.9
100
AcDbText
  0
LINE
  5
858D
330
17
100
AcDbEntity
  8
CENTRE
100
AcDbLine
 10
529.630401141409
 20
318.3594705992558
 30
0.0
 11
469.0844011414088
 21
318.3594705992558
 31
0.0
  0
CIRCLE
  5
858E
330
17
100
AcDbEntity
  8
M03
 62
     6
100
AcDbCircle
 10
499.3574011414088
 20
318.3594705992558
 30
0.0
 40
4.0
  0
CIRCLE
  5
858F
330
17
100
AcDbEntity
  8
M01
100
AcDbCircle
 10
499.3574011414088
 20
318.3594705992558
 30
0.0
 40
9.524999999999977
  0
CIRCLE
  5
8590
330
17
100
AcDbEntity
  8
M01
100
AcDbCircle
 10
499.3574011414088
 20
318.3594705992558
 30
0.0
 40
12.70000000000004
  0
ARC
  5
8592
330
17
100
AcDbEntity
  8
M04
100
AcDbCircle
 10
499.3574011414088
 20
318.3594705992558
 30
0.0
 40
14.0
100
AcDbArc
 50
98.2132107017375
 51
81.82813681560181
  0
LINE
  5
8593
330
17
100
AcDbEntity
  8
M04
100
AcDbLine
 10
505.3574011414091
 20
451.6862200544552
 30
0.0
 11
505.3574011414087
 21
342.9099192509609
 31
0.0
  0
LINE
  5
8594
330
17
100
AcDbEntity
  8
M04
100
AcDbLine
 10
493.3574011414091
 20
451.6862200544552
 30
0.0
 11
493.3574011414086
 21
342.9099192509608
 31
0.0
  0
LINE
  5
8595
330
17
100
AcDbEntity
  8
M01
100
AcDbLine
 10
501.3524011414086
 20
388.3459687483064
 30
0.0
 11
497.3624011414087
 21
388.3459687483064
 31
0.0
  0
LINE
  5
8596
330
17
100
AcDbEntity
  8
M01
100
AcDbLine
 10
502.8624011414088
 20
416.3459687483066
 30
0.0
 11
495.8624011414086
 21
416.3459687483062
 31
0.0
  0
LINE
  5
8597
330
17
100
AcDbEntity
  8
M01
100
AcDbLine
 10
502.8624011414088
 20
406.3459687483065
 30
0.0
 11
502.8624011414088
 21
416.3459687483066
 31
0.0
  0
LINE
  5
8598
330
17
100
AcDbEntity
  8
M01
100
AcDbLine
 10
501.3524011414086
 20
388.3459687483064
 30
0.0
 11
502.3624011414088
 21
398.2707119326385
 31
0.0
  0
LINE
  5
8599
330
17
100
AcDbEntity
  8
M01
100
AcDbLine
 10
495.8624011414086
 20
406.3459687483061
 30
0.0
 11
495.8624011414086
 21
416.3459687483062
 31
0.0
  0
LINE
  5
859A
330
17
100
AcDbEntity
  8
M01
100
AcDbLine
 10
497.3624011414089
 20
388.3459687483064
 30
0.0
 11
496.3624011414084
 21
398.270711932639
 31
0.0
  0
LINE
  5
859B
330
17
100
AcDbEntity
  8
M01
100
AcDbLine
 10
496.3624011414084
 20
398.270711932639
 30
0.0
 11
496.3624011414085
 21
406.3459687483064
 31
0.0
  0
LINE
  5
859C
330
17
100
AcDbEntity
  8
M01
100
AcDbLine
 10
502.3624011414088
 20
398.2707119326385
 30
0.0
 11
502.3624011414086
 21
406.3459687483064
 31
0.0
  0
LINE
  5
859D
330
17
100
AcDbEntity
  8
M01
100
AcDbLine
 10
496.3624011414084
 20
398.270711932639
 30
0.0
 11
502.3624011414088
 21
398.2707119326385
 31
0.0
  0
LINE
  5
859E
330
17
100
AcDbEntity
  8
M01
100
AcDbLine
 10
502.8624011414088
 20
406.3459687483065
 30
0.0
 11
495.8624011414086
 21
406.3459687483061
 31
0.0
  0
LINE
  5
859F
330
17
100
AcDbEntity
  8
CENTRE
 48
0.7
100
AcDbLine
 10
499.3574011414087
 20
288.0864705992557
 30
0.0
 11
499.3574011414087
 21
451.6862200544551
 31
0.0
  0
LINE
  5
85B3
330
17
100
AcDbEntity
  8
M01
100
AcDbLine
 10
501.612401141409
 20
416.3459687483065
 30
0.0
 11
501.6124011414091
 21
416.4021211752226
 31
0.0
  0
LINE
  5
85D7
330
17
100
AcDbEntity
  8
M01
100
AcDbLine
 10
497.357401141409
 20
388.3459687483064
 30
0.0
 11
497.357401141409
 21
330.9010016062742
 31
0.0
  0
LINE
  5
85D8
330
17
100
AcDbEntity
  8
M01
100
AcDbLine
 10
501.3474011414088
 20
388.3459687483063
 30
0.0
 11
501.3474011414091
 21
330.9025922202879
 31
0.0
  0
LINE
  5
8658
330
17
100
AcDbEntity
  8
M04
 48
0.7
100
AcDbLine
 10
769.8809522081337
 20
298.3594705992558
 30
0.0
 11
773.0559522081335
 21
298.3594705992558
 31
0.0
  0
LINE
  5
865A
330
17
100
AcDbEntity
  8
M04
100
AcDbLine
 10
773.0559522081335
 20
298.3594705992558
 30
0.0
 11
778.7059522081335
 21
292.7094705992558
 31
0.0
  0
LINE
  5
8ACB
330
17
100
AcDbEntity
  8
M01
100
AcDbLine
 10
766.7059522081335
 20
343.6344705992558
 30
0.0
 11
766.7059522081334
 21
293.0844705992559
 31
0.0
  0
LINE
  5
8ACC
330
17
100
AcDbEntity
  8
M01
100
AcDbLine
 10
769.8809522081333
 20
337.3479705992558
 30
0.0
 11
769.8809522081337
 21
299.3709705992559
 31
0.0
  0
LINE
  5
8ACD
330
17
100
AcDbEntity
  8
M01
100
AcDbLine
 10
741.3059522081336
 20
342.8724705992559
 30
0.0
 11
741.3059522081336
 21
293.8464705992558
 31
0.0
  0
LINE
  5
8AD0
330
17
100
AcDbEntity
  8
M01
100
AcDbLine
 10
744.5059522081336
 20
343.6324705992559
 30
0.0
 11
744.5059522081336
 21
293.0864705992559
 31
0.0
  0
LINE
  5
8AD2
330
17
100
AcDbEntity
  8
M01
100
AcDbLine
 10
742.0659522081336
 20
293.0864705992558
 30
0.0
 11
744.5059522081336
 21
293.0864705992559
 31
0.0
  0
LINE
  5
8AD3
330
17
100
AcDbEntity
  8
M01
100
AcDbLine
 10
742.0659522081336
 20
343.6324705992559
 30
0.0
 11
744.5059522081336
 21
343.6324705992559
 31
0.0
  0
LINE
  5
8AD4
330
17
100
AcDbEntity
  8
M01
100
AcDbLine
 10
741.3059522081336
 20
293.8464705992558
 30
0.0
 11
742.0659522081336
 21
293.0864705992558
 31
0.0
  0
LINE
  5
8AD5
330
17
100
AcDbEntity
  8
M01
100
AcDbLine
 10
741.3059522081336
 20
342.8724705992559
 30
0.0
 11
742.0659522081336
 21
343.6324705992559
 31
0.0
  0
LINE
  5
8AD6
330
17
100
AcDbEntity
  8
M01
100
AcDbLine
 10
742.0659522081336
 20
343.6324705992559
 30
0.0
 11
742.0659522081336
 21
293.0864705992558
 31
0.0
  0
LINE
  5
8AE7
330
17
100
AcDbEntity
  8
M01
100
AcDbLine
 10
765.9459522081335
 20
342.4894705992558
 30
0.0
 11
764.2059522081334
 21
342.4894705992558
 31
0.0
  0
LINE
  5
8AE8
330
17
100
AcDbEntity
  8
M01
100
AcDbLine
 10
765.9459522081335
 20
294.2294705992558
 30
0.0
 11
764.2059522081334
 21
294.2294705992558
 31
0.0
  0
LINE
  5
8AEB
330
17
100
AcDbEntity
  8
M01
100
AcDbLine
 10
769.1209522081333
 20
338.1079705992558
 30
0.0
 11
766.7059522081335
 21
338.1079705992558
 31
0.0
  0
LINE
  5
8AEC
330
17
100
AcDbEntity
  8
M01
100
AcDbLine
 10
769.1209522081337
 20
298.6109705992559
 30
0.0
 11
766.7059522081335
 21
298.6109705992559
 31
0.0
  0
LINE
  5
8AEE
330
17
100
AcDbEntity
  8
M01
100
AcDbLine
 10
764.2059522081336
 20
342.4894705992558
 30
0.0
 11
764.2059522081336
 21
294.2294705992559
 31
0.0
  0
LINE
  5
8AEF
330
17
100
AcDbEntity
  8
M01
100
AcDbLine
 10
761.7059522081335
 20
342.4894705992558
 30
0.0
 11
761.7059522081335
 21
294.2294705992559
 31
0.0
  0
LINE
  5
8AF3
330
17
100
AcDbEntity
  8
M01
100
AcDbLine
 10
761.7059522081335
 20
296.7694705992558
 30
0.0
 11
764.2059522081336
 21
296.7694705992558
 31
0.0
  0
LINE
  5
8AF4
330
17
100
AcDbEntity
  8
M01
100
AcDbLine
 10
761.7059522081335
 20
339.9494705992558
 30
0.0
 11
764.2059522081336
 21
339.9494705992558
 31
0.0
  0
LINE
  5
8AF5
330
17
100
AcDbEntity
  8
M01
100
AcDbLine
 10
761.7059522081335
 20
294.2294705992558
 30
0.0
 11
744.5059522081336
 21
294.2294705992558
 31
0.0
  0
LINE
  5
8AF6
330
17
100
AcDbEntity
  8
M01
100
AcDbLine
 10
761.7059522081335
 20
342.4894705992558
 30
0.0
 11
744.5059522081336
 21
342.4894705992558
 31
0.0
  0
LINE
  5
8AF7
330
17
100
AcDbEntity
  8
M01
100
AcDbLine
 10
765.9459522081335
 20
342.4894705992558
 30
0.0
 11
766.7059522081335
 21
341.7294705992558
 31
0.0
  0
LINE
  5
8AF8
330
17
100
AcDbEntity
  8
M01
100
AcDbLine
 10
765.9459522081335
 20
294.2294705992558
 30
0.0
 11
766.7059522081335
 21
294.9894705992558
 31
0.0
  0
LINE
  5
8AF9
330
17
100
AcDbEntity
  8
M01
100
AcDbLine
 10
769.1209522081337
 20
298.6109705992559
 30
0.0
 11
769.8809522081337
 21
299.3709705992559
 31
0.0
  0
LINE
  5
8AFA
330
17
100
AcDbEntity
  8
M01
100
AcDbLine
 10
769.1209522081333
 20
338.1079705992558
 30
0.0
 11
769.8809522081333
 21
337.3479705992558
 31
0.0
  0
LINE
  5
8AFB
330
17
100
AcDbEntity
  8
M01
100
AcDbLine
 10
769.1209522081333
 20
338.1079705992558
 30
0.0
 11
769.1209522081333
 21
298.6109705992559
 31
0.0
  0
LINE
  5
8AFC
330
17
100
AcDbEntity
  8
M01
100
AcDbLine
 10
765.9459522081335
 20
342.4894705992558
 30
0.0
 11
765.9459522081335
 21
294.2294705992558
 31
0.0
  0
LINE
  5
8B01
330
17
100
AcDbEntity
  8
M03
 62
     6
100
AcDbLine
 10
622.6059522081332
 20
322.3594705992558
 30
0.0
 11
619.5270102918889
 21
321.5344705992558
 31
0.0
  0
LINE
  5
8B02
330
17
100
AcDbEntity
  8
M03
 62
     6
100
AcDbLine
 10
622.6059522081332
 20
314.3594705992558
 30
0.0
 11
619.5270102918889
 21
315.1844705992558
 31
0.0
  0
LINE
  5
8B03
330
17
100
AcDbEntity
  8
M03
 62
     6
100
AcDbLine
 10
619.5270102918889
 20
321.5344705992559
 30
0.0
 11
601.6059522081332
 21
321.5344705992558
 31
0.0
  0
LINE
  5
8B04
330
17
100
AcDbEntity
  8
M03
 62
     6
100
AcDbLine
 10
619.5270102918889
 20
315.1844705992558
 30
0.0
 11
601.6059522081332
 21
315.1844705992558
 31
0.0
  0
LINE
  5
8B05
330
17
100
AcDbEntity
  8
M03
 62
     6
100
AcDbLine
 10
619.5270102918889
 20
321.5344705992559
 30
0.0
 11
619.5270102918889
 21
315.1844705992558
 31
0.0
  0
LINE
  5
8B06
330
17
100
AcDbEntity
  8
M03
 62
     6
100
AcDbLine
 10
622.6059522081332
 20
322.3594705992558
 30
0.0
 11
622.6059522081329
 21
314.3594705992559
 31
0.0
  0
LINE
  5
8B08
330
17
100
AcDbEntity
  8
M01
100
AcDbLine
 10
756.5459522081338
 20
348.6397341853287
 30
0.0
 11
756.5459522081338
 21
342.4894705992558
 31
0.0
  0
LINE
  5
8B09
330
17
100
AcDbEntity
  8
M01
100
AcDbLine
 10
752.5459522081336
 20
349.3396862605879
 30
0.0
 11
752.5459522081336
 21
342.4894705992558
 31
0.0
  0
LINE
  5
8B30
330
17
100
AcDbEntity
  8
M04
100
AcDbLine
 10
757.8809522081334
 20
451.6862200544552
 30
0.0
 11
757.8809522081333
 21
379.3889655358678
 31
0.0
  0
LINE
  5
8B36
330
17
100
AcDbEntity
  8
M01
100
AcDbLine
 10
757.7343934477767
 20
355.4312919599214
 30
0.0
 11
764.6825109684906
 21
374.6764968676588
 31
0.0
  0
LINE
  5
8B37
330
17
100
AcDbEntity
  8
M01
100
AcDbLine
 10
753.7343934477766
 20
356.1312440351804
 30
0.0
 11
760.6925109684907
 21
375.404147387642
 31
0.0
  0
ARC
  5
8B38
330
17
100
AcDbEntity
  8
M01
100
AcDbCircle
 10
741.8809522081336
 20
382.1957051622347
 30
0.0
 40
20.0
100
AcDbArc
 50
340.1488411351243
 51
0.0
  0
ARC
  5
8B39
330
17
100
AcDbEntity
  8
M01
100
AcDbCircle
 10
776.5459522081338
 20
348.6397341853287
 30
0.0
 40
20.0
100
AcDbArc
 50
160.1488411351243
 51
180.0
  0
ARC
  5
8B3A
330
17
100
AcDbEntity
  8
M01
100
AcDbCircle
 10
772.5459522081337
 20
349.3396862605877
 30
0.0
 40
20.0
100
AcDbArc
 50
160.1488411351242
 51
179.9999999999993
  0
ARC
  5
8B3B
330
17
100
AcDbEntity
  8
M01
100
AcDbCircle
 10
745.8709522081335
 20
381.4680546422516
 30
0.0
 40
20.0
100
AcDbArc
 50
340.1488411351243
 51
0.0000000000001781
  0
LINE
  5
8B3E
330
17
100
AcDbEntity
  8
0
100
AcDbLine
 10
750.8809522081333
 20
362.4894705992558
 30
0.0
 11
757.8809522081333
 21
379.3889655358676
 31
0.0
  0
LINE
  5
8B44
330
17
100
AcDbEntity
  8
0
100
AcDbLine
 10
741.3059522081336
 20
293.0864705992559
 30
0.0
 11
746.3059522081334
 21
293.0864705992559
 31
0.0
  0
LINE
  5
8B48
330
17
100
AcDbEntity
  8
0
100
AcDbLine
 10
741.3059522081336
 20
293.8464705992558
 30
0.0
 11
741.3059522081336
 21
293.0864705992559
 31
0.0
  0
LINE
  5
8B49
330
17
100
AcDbEntity
  8
0
100
AcDbLine
 10
746.3059522081335
 20
294.2294705992558
 30
0.0
 11
746.3059522081335
 21
293.0864705992558
 31
0.0
  0
LINE
  5
8B4D
330
17
100
AcDbEntity
  8
0
100
AcDbLine
 10
746.3059522081335
 20
293.0864705992559
 30
0.0
 11
746.7256858538345
 21
292.3594705992558
 31
0.0
  0
LINE
  5
8B4E
330
17
100
AcDbEntity
  8
0
100
AcDbLine
 10
746.7256858538345
 20
292.3594705992558
 30
0.0
 11
769.8809522081337
 21
292.3594705992558
 31
0.0
  0
LINE
  5
8B4F
330
17
100
AcDbEntity
  8
0
100
AcDbLine
 10
746.7256858538345
 20
292.3594705992558
 30
0.0
 11
746.7256858538345
 21
294.2294705992558
 31
0.0
  0
LINE
  5
8B50
330
17
100
AcDbEntity
  8
0
100
AcDbLine
 10
741.3059522081336
 20
343.6324705992557
 30
0.0
 11
746.3059522081334
 21
343.6324705992557
 31
0.0
  0
LINE
  5
8B51
330
17
100
AcDbEntity
  8
0
100
AcDbLine
 10
746.3059522081335
 20
342.4894705992558
 30
0.0
 11
746.3059522081335
 21
343.6324705992559
 31
0.0
  0
LINE
  5
8B52
330
17
100
AcDbEntity
  8
0
100
AcDbLine
 10
746.3059522081335
 20
343.6324705992557
 30
0.0
 11
746.7256858538345
 21
344.3594705992558
 31
0.0
  0
LINE
  5
8B53
330
17
100
AcDbEntity
  8
0
100
AcDbLine
 10
746.7256858538345
 20
344.3594705992558
 30
0.0
 11
750.8809522081333
 21
344.3594705992558
 31
0.0
  0
LINE
  5
8B54
330
17
100
AcDbEntity
  8
0
100
AcDbLine
 10
746.7256858538345
 20
344.3594705992558
 30
0.0
 11
746.7256858538345
 21
342.4894705992558
 31
0.0
  0
LINE
  5
8B55
330
17
100
AcDbEntity
  8
0
100
AcDbLine
 10
741.3059522081336
 20
342.8724705992559
 30
0.0
 11
741.3059522081336
 21
343.6324705992557
 31
0.0
  0
LINE
  5
8B59
330
17
100
AcDbEntity
  8
M01
100
AcDbLine
 10
769.1209522081333
 20
338.1079705992558
 30
0.0
 11
769.8809522081334
 21
338.8679705992558
 31
0.0
  0
LINE
  5
8B5A
330
17
100
AcDbEntity
  8
M01
100
AcDbLine
 10
769.8809522081333
 20
338.8679705992558
 30
0.0
 11
769.8809522081333
 21
343.6344705992558
 31
0.0
  0
LINE
  5
8B5B
330
17
100
AcDbEntity
  8
M01
100
AcDbLine
 10
766.7059522081335
 20
343.6344705992558
 30
0.0
 11
769.8809522081333
 21
343.6344705992558
 31
0.0
  0
LINE
  5
8B5C
330
17
100
AcDbEntity
  8
M01
100
AcDbLine
 10
769.1209522081333
 20
298.6109705992554
 30
0.0
 11
769.8809522081337
 21
297.850970599255
 31
0.0
  0
LINE
  5
8B5D
330
17
100
AcDbEntity
  8
M01
100
AcDbLine
 10
766.7059522081334
 20
293.0844705992559
 30
0.0
 11
769.8809522081338
 21
293.0844705992559
 31
0.0
  0
LINE
  5
8B5F
330
17
100
AcDbEntity
  8
M01
100
AcDbLine
 10
769.8809522081337
 20
297.850970599255
 30
0.0
 11
769.8809522081338
 21
293.0844705992559
 31
0.0
  0
LINE
  5
8B65
330
17
100
AcDbEntity
  8
M04
100
AcDbLine
 10
769.8809522081337
 20
338.3594705992558
 30
0.0
 11
769.8809522081336
 21
344.3594705992558
 31
0.0
  0
LINE
  5
8B66
330
17
100
AcDbEntity
  8
M04
 48
0.7
100
AcDbLine
 10
769.8809522081337
 20
338.3594705992558
 30
0.0
 11
773.0559522081335
 21
338.3594705992559
 31
0.0
  0
LINE
  5
8B67
330
17
100
AcDbEntity
  8
M04
100
AcDbLine
 10
773.0559522081335
 20
338.3594705992559
 30
0.0
 11
778.7059522081334
 21
344.0094705992559
 31
0.0
  0
LINE
  5
8B68
330
17
100
AcDbEntity
  8
0
100
AcDbLine
 10
773.0559522081335
 20
338.3594705992559
 30
0.0
 11
773.0559522081335
 21
298.3594705992558
 31
0.0
  0
HATCH
  5
8B91
330
17
100
AcDbEntity
  8
M01
 62
     1
100
AcDbHatch
 10
0.0
 20
0.0
 30
0.0
210
0.0
220
0.0
230
1.0
  2
ANSI31
 70
     0
 71
     0
 91
        2
 92
        7
 72
     0
 73
     1
 93
        5
 10
769.8809522081337
 20
343.6344705992558
 10
766.7059522081335
 20
343.6344705992558
 10
766.7059522081335
 20
338.1079705992558
 10
769.1209522081333
 20
338.1079705992558
 10
769.8809522081337
 20
338.8679705992562
 97
        0
 92
        7
 72
     0
 73
     1
 93
        5
 10
769.8809522081337
 20
297.850970599255
 10
769.1209522081329
 20
298.6109705992559
 10
766.7059522081334
 20
298.6109705992559
 10
766.7059522081334
 20
293.0844705992559
 10
769.8809522081338
 20
293.0844705992559
 97
        0
 75
     0
 76
     1
 52
0.0
 41
5.0
 77
     0
 78
     1
 53
45.0
 43
692.7833765754193
 44
409.2077421121927
 45
-0.4419417382415922
 46
0.4419417382415923
 79
     0
 47
0.1095052059876863
 98
        2
 10
768.1786290711973
 20
339.5238432355911
 10
767.9594560501757
 20
295.5027483480542
  0
DIMENSION
  5
8BDD
330
17
100
AcDbEntity
  8
DIMS
 62
     4
100
AcDbDimension
  2
*D2
 10
769.8809522081337
 20
262.0512524478141
 30
0.0
 11
781.666666493848
 21
265.0512524478141
 31
0.0
 70
    32
  1
{\C4;<>}
 71
     5
 42
3.175000000000295
  3
DIM1
100
AcDbAlignedDimension
 13
766.7059522081334
 23
284.9138244926716
 33
0.0
 14
769.8809522081337
 24
292.3594705992558
 34
0.0
100
AcDbRotatedDimension
1001
ACAD
1000
DSTYLE
1002
{
1070
   144
1040
1.0
1002
}
  0
CIRCLE
  5
8C26
330
17
100
AcDbEntity
  8
M04
100
AcDbCircle
 10
601.6059522081332
 20
318.3594705992558
 30
0.0
 40
1.25
  0
LINE
  5
8C29
330
17
100
AcDbEntity
  8
M04
100
AcDbLine
 10
766.7059522081335
 20
343.6344705992558
 30
0.0
 11
766.7059522081335
 21
368.3594705992558
 31
0.0
  0
LINE
  5
8C2A
330
17
100
AcDbEntity
  8
M04
100
AcDbLine
 10
766.7059522081335
 20
368.3594705992558
 30
0.0
 11
775.7059522081334
 21
368.3594705992558
 31
0.0
  0
LINE
  5
8C2C
330
17
100
AcDbEntity
  8
M04
100
AcDbLine
 10
769.8809522081337
 20
368.3594705992558
 30
0.0
 11
769.8809522081337
 21
451.6862200544552
 31
0.0
  0
LINE
  5
8C2E
330
17
100
AcDbEntity
  8
M04
100
AcDbLine
 10
778.7059522081334
 20
344.0094705992559
 30
0.0
 11
778.7059522081334
 21
366.6274197916868
 31
0.0
  0
LINE
  5
8C30
330
17
100
AcDbEntity
  8
M04
100
AcDbLine
 10
775.7059522081335
 20
368.3594705992558
 30
0.0
 11
778.7059522081334
 21
366.6274197916869
 31
0.0
  0
LINE
  5
8C31
330
17
100
AcDbEntity
  8
M04
100
AcDbLine
 10
778.7059522081334
 20
344.0094705992559
 30
0.0
 11
778.7059522081334
 21
279.9406655588557
 31
0.0
  0
LINE
  5
8C33
330
17
100
AcDbEntity
  8
M04
100
AcDbLine
 10
766.7059522081334
 20
292.3594705992558
 30
0.0
 11
766.7059522081334
 21
279.9406655588557
 31
0.0
  0
LINE
  5
8C34
330
17
100
AcDbEntity
  8
0
100
AcDbLine
 10
766.7059522081337
 20
344.3594705992558
 30
0.0
 11
769.8809522081337
 21
344.3594705992558
 31
0.0
  0
LINE
  5
8C38
330
17
100
AcDbEntity
  8
M01
100
AcDbLine
 10
761.3809522081335
 20
441.3666433246353
 30
0.0
 11
761.3809522081334
 21
416.3459687483062
 31
0.0
  0
LINE
  5
8C3A
330
17
100
AcDbEntity
  8
M01
100
AcDbLine
 10
766.3809522081335
 20
442.7063892867909
 30
0.0
 11
766.3809522081335
 21
416.3459687483065
 31
0.0
  0
HATCH
  5
8C43
330
17
100
AcDbEntity
  8
M01
100
AcDbHatch
 10
0.0
 20
0.0
 30
0.0
210
0.0
220
0.0
230
1.0
  2
ANSI31
 70
     0
 71
     0
 91
        2
 92
        7
 72
     0
 73
     1
 93
        4
 10
763.8809522081335
 20
442.0365163057131
 10
761.3809522081335
 20
441.3666433246354
 10
761.3809522081334
 20
416.3459687483062
 10
763.8809522081333
 20
416.3459687483063
 97
        0
 92
        7
 72
     0
 73
     1
 93
        4
 10
766.3809522081335
 20
442.7063892867909
 10
763.8809522081335
 20
442.0365163057131
 10
763.8809522081333
 20
416.3459687483063
 10
766.3809522081335
 20
416.3459687483065
 97
        0
 75
     0
 76
     1
 52
0.0
 41
10.0
 77
     0
 78
     1
 53
45.0
 43
692.7833765754193
 44
409.2077421121927
 45
-0.8838834764831842
 46
0.8838834764831844
 79
     0
 47
0.1095052059876858
 98
        2
 10
761.8667754199766
 20
437.753234641164
 10
764.6064473314734
 20
438.1912570152818
  0
HATCH
  5
8C4C
330
17
100
AcDbEntity
  8
M01
100
AcDbHatch
 10
0.0
 20
0.0
 30
0.0
210
0.0
220
0.0
230
1.0
  2
ANSI31
 70
     0
 71
     0
 91
        2
 92
        7
 72
     0
 73
     1
 93
        4
 10
763.8809522081335
 20
442.0365163057131
 10
761.3809522081335
 20
441.3666433246354
 10
761.3809522081334
 20
416.3459687483062
 10
763.8809522081333
 20
416.3459687483063
 97
        0
 92
        7
 72
     0
 73
     1
 93
        4
 10
766.3809522081335
 20
442.7063892867909
 10
763.8809522081335
 20
442.0365163057131
 10
763.8809522081333
 20
416.3459687483063
 10
766.3809522081335
 20
416.3459687483065
 97
        0
 75
     0
 76
     1
 52
90.0
 41
10.0
 77
     0
 78
     1
 53
135.0
 43
692.7833765754193
 44
409.2077421121927
 45
-0.8838834764831844
 46
-0.8838834764831842
 79
     0
 47
0.1095052059876858
 98
        2
 10
762.4147110221067
 20
434.4680795629679
 10
764.8256234020707
 20
434.6870897709737
  0
LINE
  5
8C4D
330
17
100
AcDbEntity
  8
M01
100
AcDbLine
 10
496.8624011414089
 20
441.3666433246354
 30
0.0
 11
496.8624011414087
 21
416.3459687483062
 31
0.0
  0
LINE
  5
8C4E
330
17
100
AcDbEntity
  8
M01
100
AcDbLine
 10
501.8624011414089
 20
442.706389286791
 30
0.0
 11
501.8624011414089
 21
416.3459687483065
 31
0.0
  0
HATCH
  5
8C4F
330
17
100
AcDbEntity
  8
M01
100
AcDbHatch
 10
0.0
 20
0.0
 30
0.0
210
0.0
220
0.0
230
1.0
  2
ANSI31
 70
     0
 71
     0
 91
        2
 92
        7
 72
     0
 73
     1
 93
        4
 10
499.3624011414088
 20
442.0365163057132
 10
496.8624011414089
 20
441.3666433246354
 10
496.8624011414087
 20
416.3459687483062
 10
499.3624011414087
 20
416.3459687483063
 97
        0
 92
        7
 72
     0
 73
     1
 93
        4
 10
501.8624011414089
 20
442.706389286791
 10
499.3624011414088
 20
442.0365163057132
 10
499.3624011414087
 20
416.3459687483063
 10
501.8624011414089
 20
416.3459687483065
 97
        0
 75
     0
 76
     1
 52
0.0
 41
10.0
 77
     0
 78
     1
 53
45.0
 43
428.2648255086947
 44
409.2077421121928
 45
-0.8838834764831842
 46
0.8838834764831844
 79
     0
 47
0.1095052059876858
 98
        2
 10
497.348224353252
 20
437.7532346411641
 10
500.0878962647488
 20
438.1912570152818
  0
HATCH
  5
8C50
330
17
100
AcDbEntity
  8
M01
100
AcDbHatch
 10
0.0
 20
0.0
 30
0.0
210
0.0
220
0.0
230
1.0
  2
ANSI31
 70
     0
 71
     0
 91
        2
 92
        7
 72
     0
 73
     1
 93
        4
 10
499.3624011414088
 20
442.0365163057132
 10
496.8624011414089
 20
441.3666433246354
 10
496.8624011414087
 20
416.3459687483062
 10
499.3624011414087
 20
416.3459687483063
 97
        0
 92
        7
 72
     0
 73
     1
 93
        4
 10
501.8624011414089
 20
442.706389286791
 10
499.3624011414088
 20
442.0365163057132
 10
499.3624011414087
 20
416.3459687483063
 10
501.8624011414089
 20
416.3459687483065
 97
        0
 75
     0
 76
     1
 52
90.0
 41
10.0
 77
     0
 78
     1
 53
135.0
 43
428.2648255086947
 44
409.2077421121928
 45
-0.8838834764831844
 46
-0.8838834764831842
 79
     0
 47
0.1095052059876858
 98
        2
 10
497.8961599553821
 20
434.4680795629679
 10
500.307072335346
 20
434.6870897709737
  0
ARC
  5
8C52
330
17
100
AcDbEntity
  8
M01
100
AcDbCircle
 10
499.3574011414088
 20
318.3594705992558
 30
0.0
 40
25.27300000000008
100
AcDbArc
 50
94.53889533959708
 51
85.48384637268375
  0
LINE
  5
8C55
330
17
100
AcDbEntity
  8
CENTRE
100
AcDbLine
 10
509.3574011414087
 20
298.3594705992558
 30
0.0
 11
489.3574011414087
 21
298.3594705992558
 31
0.0
  0
CIRCLE
  5
8C58
330
17
100
AcDbEntity
  8
M01
 62
     0
100
AcDbCircle
 10
499.3574011414088
 20
298.3594705992558
 30
0.0
 40
3.0
  0
LINE
  5
8C59
330
17
100
AcDbEntity
  8
CENTRE
 48
0.7
100
AcDbLine
 10
725.3059522081335
 20
298.3594705992558
 30
0.0
 11
747.5059522081336
 21
298.3594705992558
 31
0.0
  0
LINE
  5
8C5D
330
17
100
AcDbEntity
  8
M04
100
AcDbLine
 10
741.3059522081336
 20
301.3594705992558
 30
0.0
 11
730.3059522081335
 21
301.3594705992558
 31
0.0
  0
LINE
  5
8C5E
330
17
100
AcDbEntity
  8
M04
100
AcDbLine
 10
730.3059522081335
 20
301.3594705992558
 30
0.0
 11
730.3059522081335
 21
295.3594705992558
 31
0.0
  0
LINE
  5
8C5F
330
17
100
AcDbEntity
  8
M04
100
AcDbLine
 10
730.3059522081335
 20
295.3594705992558
 30
0.0
 11
741.3059522081336
 21
295.3594705992558
 31
0.0
  0
LINE
  5
8C60
330
17
100
AcDbEntity
  8
M04
100
AcDbLine
 10
730.3059522081335
 20
301.3594705992558
 30
0.0
 11
728.5739014005648
 21
298.3594705992558
 31
0.0
  0
LINE
  5
8C61
330
17
100
AcDbEntity
  8
M04
100
AcDbLine
 10
730.3059522081335
 20
295.3594705992558
 30
0.0
 11
728.5739014005647
 21
298.3594705992558
 31
0.0
  0
ARC
  5
8C68
330
17
100
AcDbEntity
  8
M03
 62
     6
100
AcDbCircle
 10
781.8809522081335
 20
318.3594705992558
 30
0.0
 40
15.0
100
AcDbArc
 50
143.1301023541569
 51
216.8698976458442
  0
DIMENSION
  5
8C7F
330
17
100
AcDbEntity
  8
DIMS
 62
     4
100
AcDbDimension
  2
*D3
 10
797.546600156865
 20
293.0864705992559
 30
0.0
 11
794.5466001568648
 21
318.3594705992559
 31
0.0
 70
    32
  1
{\C4;Ø<>}
 71
     5
 42
50.54599999999982
  3
DIM1
100
AcDbAlignedDimension
 13
746.3059522081334
 23
343.6324705992557
 33
0.0
 14
746.3059522081334
 24
293.0864705992559
 34
0.0
 50
90.0
100
AcDbRotatedDimension
1001
ACAD
1000
DSTYLE
1002
{
1070
   144
1040
1.0
1002
}
  0
LEADER
  5
8CB4
330
17
100
AcDbEntity
  8
DIMS
100
AcDbLeader
  3
DIM1$7
 73
     0
 74
     0
 75
     1
 40
3.0
 41
22.57142857142856
 76
     3
 10
769.8809522081336
 20
344.3594705992558
 30
0.0
 10
784.2579598708334
 20
361.7364782619556
 30
0.0
 10
787.2579598708333
 20
361.7364782619556
 30
0.0
340
8CB5
  0
MTEXT
  5
8CB5
102
{ACAD_REACTORS
330
8CB4
102
}
330
17
100
AcDbEntity
  8
DIMS
 62
     2
100
AcDbMText
 10
788.7579598708334
 20
361.7364782619556
 30
0.0
 40
3.0
 41
0.0
 71
     4
 72
     1
  1
{\C4;MAO10042}
 73
     1
 44
1.0
  0
ARC
  5
8CB7
330
17
100
AcDbEntity
  8
M01
100
AcDbCircle
 10
499.3574011414088
 20
318.3594705992558
 30
0.0
 40
20.0
100
AcDbArc
 50
95.73917047726629
 51
261.3975553906589
  0
LINE
  5
8CBB
330
17
100
AcDbEntity
  8
M01
100
AcDbLine
 10
502.3574011414088
 20
343.4537832816149
 30
0.0
 11
502.3574011414088
 21
338.133190532541
 31
0.0
  0
LINE
  5
8CBC
330
17
100
AcDbEntity
  8
M01
100
AcDbLine
 10
496.3574011414087
 20
343.4537832816148
 30
0.0
 11
496.3574011414087
 21
338.133190532541
 31
0.0
  0
LINE
  5
8CBD
330
17
100
AcDbEntity
  8
M01
100
AcDbLine
 10
502.3489517426856
 20
298.5844705992558
 30
0.0
 11
502.3489517426856
 21
293.2641492424769
 31
0.0
  0
LINE
  5
8CBE
330
17
100
AcDbEntity
  8
M01
100
AcDbLine
 10
496.3574011414087
 20
298.3594705992558
 30
0.0
 11
496.3574011414088
 21
293.2651579168969
 31
0.0
  0
ARC
  5
8CBF
330
17
100
AcDbEntity
  8
M01
100
AcDbCircle
 10
499.3574011414088
 20
318.3594705992558
 30
0.0
 40
20.0
100
AcDbArc
 50
278.6024446093403
 51
84.28962100943754
  0
HATCH
  5
8CC7
330
17
100
AcDbEntity
  8
M01
 62
     0
100
AcDbHatch
 10
0.0
 20
0.0
 30
0.0
210
0.0
220
0.0
230
1.0
  2
ANSI31
 70
     0
 71
     0
 91
        2
 92
        7
 72
     1
 73
     1
 93
        4
 10
499.3574011414087
 20
301.3594705992558
 42
0.0
 10
499.3574011414087
 20
298.3594705992558
 42
0.0
 10
502.3489517426856
 20
298.3594705992558
 42
0.0
 10
502.3489517426856
 20
298.584470599256
 42
0.3923929914752182
 97
        0
 92
        7
 72
     1
 73
     1
 93
        3
 10
499.3574011414087
 20
298.3594705992558
 42
0.0
 10
496.3574011414087
 20
298.3594705992558
 42
0.4142135623730909
 10
499.3574011414087
 20
295.3594705992557
 42
0.0
 97
        0
 75
     0
 76
     1
 52
0.0
 41
5.0
 77
     0
 78
     1
 53
45.0
 43
578.4833765754188
 44
409.2077421121927
 45
-0.4419417382415922
 46
0.4419417382415923
 79
     0
 47
0.1095052059876863
 98
        2
 10
500.5465619728642
 20
299.9537576108274
 10
498.4644121740079
 20
297.6541484686584
  0
LINE
  5
8F49
102
{ACAD_REACTORS
330
8F54
102
}
330
17
100
AcDbEntity
  8
M01
100
AcDbLine
 10
602.6059522081332
 20
331.3844705992558
 30
0.0
 11
603.8759522081333
 21
331.3844705992558
 31
0.0
  0
LINE
  5
8F4A
102
{ACAD_REACTORS
330
8F54
102
}
330
17
100
AcDbEntity
  8
M01
100
AcDbLine
 10
602.605952208133
 20
306.9344705992559
 30
0.0
 11
603.8759522081329
 21
306.9344705992558
 31
0.0
  0
HATCH
  5
8F54
330
17
100
AcDbEntity
  8
M01
100
AcDbHatch
 10
0.0
 20
0.0
 30
0.0
210
0.0
220
0.0
230
1.0
  2
ANSI31
 70
     0
 71
     1
 91
        2
 92
        7
 72
     0
 73
     1
 93
        4
 10
603.8759522081333
 20
331.3844705992558
 10
602.6059522081332
 20
331.3844705992558
 10
602.6059522081332
 20
327.3844705992558
 10
603.8759522081333
 20
327.3844705992558
 97
        4
330
8F49
330
84E6
330
84F3
330
84E5
 92
        7
 72
     0
 73
     1
 93
        4
 10
603.8759522081331
 20
309.3344705992557
 10
602.6059522081331
 20
309.3344705992559
 10
602.6059522081331
 20
306.9344705992559
 10
603.8759522081331
 20
306.9344705992558
 97
        4
330
84EC
330
84E6
330
8F4A
330
84E5
 75
     0
 76
     1
 52
0.0
 41
5.0
 77
     0
 78
     1
 53
45.0
 43
578.4833765754188
 44
409.2077421121927
 45
-0.4419417382415922
 46
0.4419417382415923
 79
     0
 47
0.1095052080273797
 98
        2
 10
602.9539628985867
 20
330.0646099934255
 10
602.9539628985867
 20
308.6015880696722
  0
ENDSEC
  0
SECTION
  2
OBJECTS
  0
DICTIONARY
  5
C
330
0
100
AcDbDictionary
281
     1
  3
ACAD_GROUP
350
D
  3
ACAD_LAYOUT
350
8ABF
  3
ACAD_MLINESTYLE
350
1A
  3
ACAD_PLOTSETTINGS
350
8AC0
  3
ACAD_PLOTSTYLENAME
350
8ABD
  3
ACAD_WIPEOUT_VARS
350
4846
  3
ACDBVARIABLEDICTIONARY
350
33
  3
CONTENTDICTIONARY
350
1149
  0
DICTIONARY
  5
20BE
330
17
100
AcDbDictionary
280
     1
281
     1
  3
ACAD_SORTENTS
360
20BF
  0
DICTIONARY
  5
D
102
{ACAD_REACTORS
330
C
102
}
330
C
100
AcDbDictionary
281
     1
  3
*A1
350
484B
  3
*A2
350
484E
  3
*A3
350
6B86
  0
DICTIONARY
  5
8ABF
102
{ACAD_REACTORS
330
C
102
}
330
C
100
AcDbDictionary
281
     1
  3
Layout1
350
8AC2
  3
Model
350
8AC1
  0
DICTIONARY
  5
1A
102
{ACAD_REACTORS
330
C
102
}
330
C
100
AcDbDictionary
281
     1
  3
STANDARD
350
1B
  0
DICTIONARY
  5
8AC0
102
{ACAD_REACTORS
330
C
102
}
330
C
100
AcDbDictionary
281
     1
  0
ACDBDICTIONARYWDFLT
  5
8ABD
102
{ACAD_REACTORS
330
C
102
}
330
C
100
AcDbDictionary
281
     1
  3
Normal
350
8ABE
100
AcDbDictionaryWithDefault
340
8ABE
  0
ACAD_PROXY_OBJECT
  5
4846
102
{ACAD_REACTORS
330
C
102
}
330
C
100
AcDbProxyObject
 90
      499
 91
      504
 95
   589845
 70
     0
 93
        2
310
B4
 94
        0
  0
DICTIONARY
  5
33
102
{ACAD_REACTORS
330
C
102
}
330
C
100
AcDbDictionary
281
     1
  3
DIMADEC
350
34
  3
DIMASSOC
350
8AC5
  3
SORTENTS
350
1D6E
  0
DICTIONARY
  5
1149
102
{ACAD_REACTORS
330
C
102
}
330
C
100
AcDbDictionary
281
     1
  0
SORTENTSTABLE
  5
20BF
102
{ACAD_REACTORS
330
20BE
102
}
330
20BE
100
AcDbSortentsTable
330
17
  0
GROUP
  5
484B
102
{ACAD_REACTORS
330
D
102
}
330
D
100
AcDbGroup
300
In use by TEXTMASK
 70
     1
 71
     1
  0
GROUP
  5
484E
102
{ACAD_REACTORS
330
D
102
}
330
D
100
AcDbGroup
300

 70
     1
 71
     1
  0
GROUP
  5
6B86
102
{ACAD_REACTORS
330
D
102
}
330
D
100
AcDbGroup
300

 70
     1
 71
     1
  0
LAYOUT
  5
8AC2
102
{ACAD_REACTORS
330
8ABF
102
}
330
8ABF
100
AcDbPlotSettings
  1

  2
C:\PROGRAM FILES\AUTOCAD LT 2002\plotters\PublishToWeb DWF.pc3
  4

  6

 40
0.0
 41
0.0
 42
0.0
 43
0.0
 44
0.0
 45
0.0
 46
0.0
 47
0.0
 48
0.0
 49
0.0
140
0.0
141
0.0
142
1.0
143
1.0
 70
   688
 72
     0
 73
     0
 74
     5
  7

 75
    16
147
1.0
148
0.0
149
0.0
100
AcDbLayout
  1
Layout1
 70
     0
 71
     1
 10
0.0
 20
0.0
 11
12.0
 21
9.0
 12
0.0
 22
0.0
 32
0.0
 14
1.000000000000000E+20
 24
1.000000000000000E+20
 34
1.000000000000000E+20
 15
-1.000000000000000E+20
 25
-1.000000000000000E+20
 35
-1.000000000000000E+20
146
0.0
 13
0.0
 23
0.0
 33
0.0
 16
1.0
 26
0.0
 36
0.0
 17
0.0
 27
1.0
 37
0.0
 76
     0
330
14
  0
LAYOUT
  5
8AC1
102
{ACAD_REACTORS
330
8ABF
102
}
330
8ABF
100
AcDbPlotSettings
  1

  2
SHARP AR-C172M PCL5c
  4
A3
  6

 40
5.027083396911621
 41
5.027085304260253
 42
5.027099609375
 43
5.027069091796875
 44
296.9259948730469
 45
419.9466552734374
 46
38.56
 47
33.77
 48
0.0
 49
0.0
140
0.0
141
0.0
142
1.0
143
1.0
 70
 11956
 72
     1
 73
     1
 74
     1
  7

 75
    16
147
1.0
148
-469.0432314638087
149
-241.9979575620939
100
AcDbLayout
  1
Model
 70
     1
 71
     0
 10
0.0
 20
0.0
 11
12.0
 21
9.0
 12
0.0
 22
0.0
 32
0.0
 14
0.0
 24
0.0
 34
0.0
 15
0.0
 25
0.0
 35
0.0
146
0.0
 13
0.0
 23
0.0
 33
0.0
 16
1.0
 26
0.0
 36
0.0
 17
0.0
 27
1.0
 37
0.0
 76
     0
330
17
  0
MLINESTYLE
  5
1B
102
{ACAD_REACTORS
330
1A
102
}
330
1A
100
AcDbMlineStyle
  2
STANDARD
 70
     0
  3

 62
   256
 51
90.0
 52
90.0
 71
     2
 49
0.5
 62
   256
  6
BYLAYER
 49
-0.5
 62
   256
  6
BYLAYER
  0
ACDBPLACEHOLDER
  5
8ABE
102
{ACAD_REACTORS
330
8ABD
102
}
330
8ABD
  0
DICTIONARYVAR
  5
34
102
{ACAD_REACTORS
330
33
102
}
330
33
100
DictionaryVariables
280
     0
  1
3
  0
DICTIONARYVAR
  5
8AC5
102
{ACAD_REACTORS
330
33
102
}
330
33
100
DictionaryVariables
280
     0
  1
1
  0
DICTIONARYVAR
  5
1D6E
102
{ACAD_REACTORS
330
33
102
}
330
33
100
DictionaryVariables
280
     0
  1
127
  0
ENDSEC
  0
EOF
