  0
SECTION
  2
HEADER
  9
$ACADVER
  1
AC1014
  9
$ACADMAINTVER
 70
     9
  9
$DWGCODEPAGE
  3
ANSI_1252
  9
$INSBASE
 10
0.0
 20
0.0
 30
0.0
  9
$EXTMIN
 10
128.17508
 20
46.661789
 30
-0.222949
  9
$EXTMAX
 10
1154.759695
 20
905.430788
 30
0.0
  9
$LIMMIN
 10
0.0
 20
0.0
  9
$LIMMAX
 10
1189.0
 20
841.0
  9
$ORTHOMODE
 70
     1
  9
$REGENMODE
 70
     1
  9
$FILLMODE
 70
     1
  9
$QTEXTMODE
 70
     0
  9
$MIRRTEXT
 70
     1
  9
$DRAGMODE
 70
     2
  9
$LTSCALE
 40
8.0
  9
$OSMODE
 70
     0
  9
$ATTMODE
 70
     1
  9
$TEXTSIZE
 40
2.5
  9
$TRACEWID
 40
10.0
  9
$TEXTSTYLE
  7
STANDARD
  9
$CLAYER
  8
DIMS
  9
$CELTYPE
  6
BYLAYER
  9
$CECOLOR
 62
   256
  9
$CELTSCALE
 40
1.0
  9
$DELOBJ
 70
     1
  9
$DISPSILH
 70
     0
  9
$DIMSCALE
 40
1.0
  9
$DIMASZ
 40
3.0
  9
$DIMEXO
 40
1.0
  9
$DIMDLI
 40
10.0
  9
$DIMRND
 40
0.01
  9
$DIMDLE
 40
1.25
  9
$DIMEXE
 40
2.5
  9
$DIMTP
 40
0.05
  9
$DIMTM
 40
0.0
  9
$DIMTXT
 40
3.0
  9
$DIMCEN
 40
-1.7
  9
$DIMTSZ
 40
0.0
  9
$DIMTOL
 70
     0
  9
$DIMLIM
 70
     0
  9
$DIMTIH
 70
     0
  9
$DIMTOH
 70
     0
  9
$DIMSE1
 70
     0
  9
$DIMSE2
 70
     0
  9
$DIMTAD
 70
     3
  9
$DIMZIN
 70
     1
  9
$DIMBLK
  1

  9
$DIMASO
 70
     1
  9
$DIMSHO
 70
     0
  9
$DIMPOST
  1

  9
$DIMAPOST
  1

  9
$DIMALT
 70
     0
  9
$DIMALTD
 70
     2
  9
$DIMALTF
 40
0.039
  9
$DIMLFAC
 40
1.0
  9
$DIMTOFL
 70
     0
  9
$DIMTVP
 40
1.5
  9
$DIMTIX
 70
     0
  9
$DIMSOXD
 70
     0
  9
$DIMSAH
 70
     0
  9
$DIMBLK1
  1

  9
$DIMBLK2
  1

  9
$DIMSTYLE
  2
DIM1
  9
$DIMCLRD
 70
     4
  9
$DIMCLRE
 70
     4
  9
$DIMCLRT
 70
     2
  9
$DIMTFAC
 40
0.7
  9
$DIMGAP
 40
1.5
  9
$DIMJUST
 70
     0
  9
$DIMSD1
 70
     0
  9
$DIMSD2
 70
     0
  9
$DIMTOLJ
 70
     1
  9
$DIMTZIN
 70
     1
  9
$DIMALTZ
 70
     1
  9
$DIMALTTZ
 70
     1
  9
$DIMFIT
 70
     0
  9
$DIMUPT
 70
     0
  9
$DIMUNIT
 70
     2
  9
$DIMDEC
 70
     2
  9
$DIMTDEC
 70
     2
  9
$DIMALTU
 70
     2
  9
$DIMALTTD
 70
     2
  9
$DIMTXSTY
  7
STANDARD
  9
$DIMAUNIT
 70
     0
  9
$LUNITS
 70
     2
  9
$LUPREC
 70
     2
  9
$SKETCHINC
 40
1.0
  9
$FILLETRAD
 40
15.0
  9
$AUNITS
 70
     0
  9
$AUPREC
 70
     3
  9
$MENU
  1
ACAD
  9
$ELEVATION
 40
0.0
  9
$PELEVATION
 40
0.0
  9
$THICKNESS
 40
0.0
  9
$LIMCHECK
 70
     0
  9
$BLIPMODE
 70
     1
  9
$CHAMFERA
 40
12.0
  9
$CHAMFERB
 40
12.0
  9
$CHAMFERC
 40
0.0
  9
$CHAMFERD
 40
0.0
  9
$SKPOLY
 70
     1
  9
$TDCREATE
 40
2449993.725698611
  9
$TDUPDATE
 40
2452213.561790868
  9
$TDINDWG
 40
0.9219358796
  9
$TDUSRTIMER
 40
0.9219358796
  9
$USRTIMER
 70
     1
  9
$ANGBASE
 50
0.0
  9
$ANGDIR
 70
     0
  9
$PDMODE
 70
     3
  9
$PDSIZE
 40
0.0
  9
$PLINEWID
 40
0.0
  9
$COORDS
 70
     2
  9
$SPLFRAME
 70
     0
  9
$SPLINETYPE
 70
     6
  9
$SPLINESEGS
 70
     6
  9
$ATTDIA
 70
     1
  9
$ATTREQ
 70
     1
  9
$HANDLING
 70
     1
  9
$HANDSEED
  5
654
  9
$SURFTAB1
 70
    12
  9
$SURFTAB2
 70
    12
  9
$SURFTYPE
 70
     6
  9
$SURFU
 70
    12
  9
$SURFV
 70
    12
  9
$UCSNAME
  2

  9
$UCSORG
 10
0.0
 20
0.0
 30
0.0
  9
$UCSXDIR
 10
1.0
 20
0.0
 30
0.0
  9
$UCSYDIR
 10
0.0
 20
1.0
 30
0.0
  9
$PUCSNAME
  2

  9
$PUCSORG
 10
0.0
 20
0.0
 30
0.0
  9
$PUCSXDIR
 10
1.0
 20
0.0
 30
0.0
  9
$PUCSYDIR
 10
0.0
 20
1.0
 30
0.0
  9
$USERI1
 70
     0
  9
$USERI2
 70
     0
  9
$USERI3
 70
     0
  9
$USERI4
 70
     0
  9
$USERI5
 70
     0
  9
$USERR1
 40
0.0
  9
$USERR2
 40
0.0
  9
$USERR3
 40
0.0
  9
$USERR4
 40
0.0
  9
$USERR5
 40
0.0
  9
$WORLDVIEW
 70
     0
  9
$SHADEDGE
 70
     3
  9
$SHADEDIF
 70
    70
  9
$TILEMODE
 70
     1
  9
$MAXACTVP
 70
    16
  9
$PINSBASE
 10
0.0
 20
0.0
 30
0.0
  9
$PLIMCHECK
 70
     0
  9
$PEXTMIN
 10
1.000000E+20
 20
1.000000E+20
 30
1.000000E+20
  9
$PEXTMAX
 10
-1.000000E+20
 20
-1.000000E+20
 30
-1.000000E+20
  9
$PLIMMIN
 10
0.0
 20
0.0
  9
$PLIMMAX
 10
12.0
 20
9.0
  9
$UNITMODE
 70
     0
  9
$VISRETAIN
 70
     0
  9
$PLINEGEN
 70
     0
  9
$PSLTSCALE
 70
     0
  9
$TREEDEPTH
 70
  3020
  9
$PICKSTYLE
 70
     1
  9
$CMLSTYLE
  2
STANDARD
  9
$CMLJUST
 70
     0
  9
$CMLSCALE
 40
1.0
  9
$PROXYGRAPHICS
 70
     1
  9
$MEASUREMENT
 70
     0
  0
ENDSEC
  0
SECTION
  2
CLASSES
  0
CLASS
  1
DICTIONARYVAR
  2
AcDbDictionaryVar
  3
"AutoCAD"
 90
        0
280
     0
281
     0
  0
CLASS
  1
LWPOLYLINE
  2
AcDbPolyline
  3
"AutoCAD"
 90
        0
280
     0
281
     1
  0
CLASS
  1
HATCH
  2
AcDbHatch
  3
"ACAD_SEDONA"
 90
        0
280
     0
281
     1
  0
CLASS
  1
SORTENTSTABLE
  2
AcDbSortentsTable
  3
"AutoCAD"
 90
        0
280
     0
281
     0
  0
CLASS
  1
WIPEOUTVARIABLES
  2
AcDbWipeoutVariables
  3
WIPEOUT
 90
        0
280
     0
281
     0
  0
CLASS
  1
WIPEOUT
  2
AcDbWipeout
  3
WIPEOUT
 90
      127
280
     0
281
     1
  0
ENDSEC
  0
SECTION
  2
TABLES
  0
TABLE
  2
VPORT
  5
14
100
AcDbSymbolTable
 70
     2
  0
VPORT
  5
653
100
AcDbSymbolTableRecord
100
AcDbViewportTableRecord
  2
*ACTIVE
 70
     0
 10
0.0
 20
0.0
 11
1.0
 21
1.0
 12
578.186679
 22
439.957006
 13
0.0
 23
0.0
 14
10.0
 24
10.0
 15
0.0
 25
0.0
 16
0.0
 26
0.0
 36
1.0
 17
16.313321
 27
12.779115
 37
0.222949
 40
912.138296
 41
1.470516
 42
50.0
 43
0.0
 44
0.0
 50
0.0
 51
0.0
 71
     0
 72
  2000
 73
     1
 74
     2
 75
     0
 76
     0
 77
     0
 78
     1
  0
ENDTAB
  0
TABLE
  2
LTYPE
  5
F
100
AcDbSymbolTable
 70
     3
  0
LTYPE
  5
10
100
AcDbSymbolTableRecord
100
AcDbLinetypeTableRecord
  2
BYBLOCK
 70
     0
  3

 72
    65
 73
     0
 40
0.0
  0
LTYPE
  5
11
100
AcDbSymbolTableRecord
100
AcDbLinetypeTableRecord
  2
BYLAYER
 70
     0
  3

 72
    65
 73
     0
 40
0.0
  0
LTYPE
  5
7
100
AcDbSymbolTableRecord
100
AcDbLinetypeTableRecord
  2
CONTINUOUS
 70
     0
  3
Solid line
 72
    65
 73
     0
 40
0.0
  0
LTYPE
  5
156
100
AcDbSymbolTableRecord
100
AcDbLinetypeTableRecord
  2
CENTER
 70
     0
  3
Center ____ _ ____ _ ____ _ ____ _ ____ _ ____
 72
    65
 73
     4
 40
2.0
 49
1.25
 74
     0
 49
-0.25
 74
     0
 49
0.25
 74
     0
 49
-0.25
 74
     0
  0
LTYPE
  5
E2
100
AcDbSymbolTableRecord
100
AcDbLinetypeTableRecord
  2
HIDDEN
 70
     0
  3
Hidden __ __ __ __ __ __ __ __ __ __ __ __ __ _
 72
    65
 73
     2
 40
0.375
 49
0.25
 74
     0
 49
-0.125
 74
     0
  0
ENDTAB
  0
TABLE
  2
LAYER
  5
C
100
AcDbSymbolTable
 70
    11
  0
LAYER
  5
6
100
AcDbSymbolTableRecord
100
AcDbLayerTableRecord
  2
0
 70
     0
 62
     7
  6
CONTINUOUS
  0
LAYER
  5
155
100
AcDbSymbolTableRecord
100
AcDbLayerTableRecord
  2
CENTRE
 70
     0
 62
     3
  6
CENTER
  0
LAYER
  5
38
100
AcDbSymbolTableRecord
100
AcDbLayerTableRecord
  2
M01
 70
     0
 62
     1
  6
CONTINUOUS
  0
LAYER
  5
206
100
AcDbSymbolTableRecord
100
AcDbLayerTableRecord
  2
M02
 70
     0
 62
     2
  6
CONTINUOUS
  0
LAYER
  5
E1
100
AcDbSymbolTableRecord
100
AcDbLayerTableRecord
  2
M03
 70
     0
 62
     2
  6
HIDDEN
  0
LAYER
  5
27
100
AcDbSymbolTableRecord
100
AcDbLayerTableRecord
  2
M04
 70
     0
 62
     7
  6
CONTINUOUS
  0
LAYER
  5
21B
100
AcDbSymbolTableRecord
100
AcDbLayerTableRecord
  2
M05
 70
     0
 62
     5
  6
CONTINUOUS
  0
LAYER
  5
1D
100
AcDbSymbolTableRecord
100
AcDbLayerTableRecord
  2
DIMS
 70
     0
 62
     4
  6
CONTINUOUS
  0
LAYER
  5
21
100
AcDbSymbolTableRecord
100
AcDbLayerTableRecord
  2
TEXT
 70
     0
 62
     2
  6
CONTINUOUS
  0
LAYER
  5
28A
100
AcDbSymbolTableRecord
100
AcDbLayerTableRecord
  2
HATCH
 70
     0
 62
     4
  6
CONTINUOUS
  0
LAYER
  5
51
100
AcDbSymbolTableRecord
100
AcDbLayerTableRecord
  2
DEFPOINTS
 70
     0
 62
     7
  6
CONTINUOUS
  0
ENDTAB
  0
TABLE
  2
STYLE
  5
D
100
AcDbSymbolTable
 70
     1
  0
STYLE
  5
E
100
AcDbSymbolTableRecord
100
AcDbTextStyleTableRecord
  2
STANDARD
 70
     0
 40
0.0
 41
1.0
 50
0.0
 71
     0
 42
2.5
  3
SIMPLEX
  4

  0
ENDTAB
  0
TABLE
  2
VIEW
  5
12
100
AcDbSymbolTable
 70
     0
  0
ENDTAB
  0
TABLE
  2
UCS
  5
13
100
AcDbSymbolTable
 70
     0
  0
ENDTAB
  0
TABLE
  2
APPID
  5
16
100
AcDbSymbolTable
 70
     1
  0
APPID
  5
17
100
AcDbSymbolTableRecord
100
AcDbRegAppTableRecord
  2
ACAD
 70
     0
  0
ENDTAB
  0
TABLE
  2
DIMSTYLE
  5
18
100
AcDbSymbolTable
 70
     2
  0
DIMSTYLE
105
1F
102
{ACAD_REACTORS
330
51D
330
52B
330
539
330
207
330
A5
330
98
330
8B
330
7F
330
73
330
66
330
59
330
48
330
27C
330
26F
330
262
330
255
102
}
100
AcDbSymbolTableRecord
100
AcDbDimStyleTableRecord
  2
DIM1
 70
     0
  3

  4

  5

  6

  7

 40
1.0
 41
3.0
 42
1.0
 43
10.0
 44
2.5
 45
0.01
 46
1.25
 47
0.05
 48
0.0
140
3.0
141
-1.7
142
0.0
143
0.039
144
0.2
145
1.5
146
0.7
147
1.5
 71
     0
 72
     0
 73
     0
 74
     0
 75
     0
 76
     0
 77
     3
 78
     1
170
     0
171
     2
172
     0
173
     0
174
     0
175
     0
176
     4
177
     4
178
     2
270
     2
271
     2
272
     2
273
     2
274
     2
340
E
275
     0
280
     0
281
     0
282
     0
283
     1
284
     1
285
     1
286
     1
287
     0
288
     0
  0
DIMSTYLE
105
565
100
AcDbSymbolTableRecord
100
AcDbDimStyleTableRecord
  2
DIM1$7
 70
     0
  3

  4

  5

  6

  7

 40
1.0
 41
3.0
 42
1.0
 43
10.0
 44
2.5
 45
0.01
 46
1.25
 47
0.0
 48
0.0
140
3.0
141
-1.7
142
0.0
143
0.039
144
1.0
145
0.0
146
1.0
147
1.5
 71
     0
 72
     0
 73
     0
 74
     0
 75
     0
 76
     0
 77
     0
 78
     1
170
     0
171
     2
172
     0
173
     0
174
     0
175
     0
176
     4
177
     4
178
     2
270
     2
271
     2
272
     2
273
     2
274
     2
340
E
275
     0
280
     0
281
     0
282
     0
283
     1
284
     1
285
     1
286
     1
287
     0
288
     0
  0
ENDTAB
  0
TABLE
  2
BLOCK_RECORD
  5
1
100
AcDbSymbolTable
 70
    17
  0
BLOCK_RECORD
  5
2
102
{ACAD_XDICTIONARY
360
3
102
}
100
AcDbSymbolTableRecord
100
AcDbBlockTableRecord
  2
*MODEL_SPACE
  0
BLOCK_RECORD
  5
9
100
AcDbSymbolTableRecord
100
AcDbBlockTableRecord
  2
*PAPER_SPACE
  0
BLOCK_RECORD
  5
242
100
AcDbSymbolTableRecord
100
AcDbBlockTableRecord
  2
ARROW1
  0
BLOCK_RECORD
  5
51E
100
AcDbSymbolTableRecord
100
AcDbBlockTableRecord
  2
*D1
  0
BLOCK_RECORD
  5
52C
100
AcDbSymbolTableRecord
100
AcDbBlockTableRecord
  2
*D2
  0
BLOCK_RECORD
  5
53A
100
AcDbSymbolTableRecord
100
AcDbBlockTableRecord
  2
*D3
  0
BLOCK_RECORD
  5
27D
100
AcDbSymbolTableRecord
100
AcDbBlockTableRecord
  2
*D4
  0
BLOCK_RECORD
  5
270
100
AcDbSymbolTableRecord
100
AcDbBlockTableRecord
  2
*D5
  0
BLOCK_RECORD
  5
263
100
AcDbSymbolTableRecord
100
AcDbBlockTableRecord
  2
*D6
  0
BLOCK_RECORD
  5
256
100
AcDbSymbolTableRecord
100
AcDbBlockTableRecord
  2
*D7
  0
BLOCK_RECORD
  5
208
100
AcDbSymbolTableRecord
100
AcDbBlockTableRecord
  2
*D8
  0
BLOCK_RECORD
  5
A6
100
AcDbSymbolTableRecord
100
AcDbBlockTableRecord
  2
*D9
  0
BLOCK_RECORD
  5
99
100
AcDbSymbolTableRecord
100
AcDbBlockTableRecord
  2
*D10
  0
BLOCK_RECORD
  5
8C
100
AcDbSymbolTableRecord
100
AcDbBlockTableRecord
  2
*D11
  0
BLOCK_RECORD
  5
80
100
AcDbSymbolTableRecord
100
AcDbBlockTableRecord
  2
*D12
  0
BLOCK_RECORD
  5
74
100
AcDbSymbolTableRecord
100
AcDbBlockTableRecord
  2
*D13
  0
BLOCK_RECORD
  5
67
100
AcDbSymbolTableRecord
100
AcDbBlockTableRecord
  2
*D14
  0
BLOCK_RECORD
  5
5A
100
AcDbSymbolTableRecord
100
AcDbBlockTableRecord
  2
*D15
  0
BLOCK_RECORD
  5
49
100
AcDbSymbolTableRecord
100
AcDbBlockTableRecord
  2
*D16
  0
ENDTAB
  0
ENDSEC
  0
SECTION
  2
BLOCKS
  0
BLOCK
  5
5
100
AcDbEntity
  8
0
100
AcDbBlockBegin
  2
*MODEL_SPACE
 70
     0
 10
0.0
 20
0.0
 30
0.0
  3
*MODEL_SPACE
  1

  0
ENDBLK
  5
8
100
AcDbEntity
  8
0
100
AcDbBlockEnd
  0
BLOCK
  5
A
100
AcDbEntity
 67
     1
  8
0
100
AcDbBlockBegin
  2
*PAPER_SPACE
 70
     0
 10
0.0
 20
0.0
 30
0.0
  3
*PAPER_SPACE
  1

  0
ENDBLK
  5
B
100
AcDbEntity
 67
     1
  8
0
100
AcDbBlockEnd
  0
BLOCK
  5
246
100
AcDbEntity
  8
0
100
AcDbBlockBegin
  2
ARROW1
 70
     0
 10
0.0
 20
0.0
 30
0.0
  3
ARROW1
  1

  0
LINE
  5
243
100
AcDbEntity
  8
0
100
AcDbLine
 10
-1.0
 20
-0.2
 30
0.0
 11
-1.0
 21
0.0
 31
0.0
  0
LINE
  5
244
100
AcDbEntity
  8
0
100
AcDbLine
 10
0.0
 20
0.0
 30
0.0
 11
-1.0
 21
-0.2
 31
0.0
  0
SOLID
  5
245
100
AcDbEntity
  8
0
100
AcDbTrace
 10
0.0
 20
0.0
 30
0.0
 11
-1.0
 21
0.2
 31
0.0
 12
-1.0
 22
0.0
 32
0.0
 13
-1.0
 23
0.0
 33
0.0
  0
ENDBLK
  5
247
100
AcDbEntity
  8
0
100
AcDbBlockEnd
  0
BLOCK
  5
529
100
AcDbEntity
  8
0
100
AcDbBlockBegin
  2
*D1
 70
     1
 10
0.0
 20
0.0
 30
0.0
  3
*D1
  1

  0
LINE
  5
51F
100
AcDbEntity
  8
0
  6
BYBLOCK
 62
     4
100
AcDbLine
 10
904.644674
 20
326.299226
 30
0.0
 11
904.644674
 21
277.377479
 31
0.0
  0
LINE
  5
520
100
AcDbEntity
  8
0
  6
BYBLOCK
 62
     4
100
AcDbLine
 10
897.644674
 20
312.126607
 30
0.0
 11
897.644674
 21
277.377479
 31
0.0
  0
LINE
  5
521
100
AcDbEntity
  8
0
  6
BYBLOCK
 62
     4
100
AcDbLine
 10
907.644674
 20
279.877479
 30
0.0
 11
910.644674
 21
279.877479
 31
0.0
  0
LINE
  5
522
100
AcDbEntity
  8
0
  6
BYBLOCK
 62
     4
100
AcDbLine
 10
894.644674
 20
279.877479
 30
0.0
 11
882.358959
 21
279.877479
 31
0.0
  0
SOLID
  5
523
100
AcDbEntity
  8
0
  6
BYBLOCK
 62
     4
100
AcDbTrace
 10
907.644674
 20
280.377479
 30
0.0
 11
907.644674
 21
279.377479
 31
0.0
 12
904.644674
 22
279.877479
 32
0.0
 13
904.644674
 23
279.877479
 33
0.0
  0
SOLID
  5
524
100
AcDbEntity
  8
0
  6
BYBLOCK
 62
     4
100
AcDbTrace
 10
894.644674
 20
280.377479
 30
0.0
 11
894.644674
 21
279.377479
 31
0.0
 12
897.644674
 22
279.877479
 32
0.0
 13
897.644674
 23
279.877479
 33
0.0
  0
MTEXT
  5
525
100
AcDbEntity
  8
0
  6
BYBLOCK
 62
     2
100
AcDbMText
 10
887.001816
 20
282.877479
 30
0.0
 40
3.0
 41
0.0
 71
     5
 72
     1
  1
\A1;7.0
  0
POINT
  5
526
100
AcDbEntity
  8
DEFPOINTS
  6
BYBLOCK
 62
     0
100
AcDbPoint
 10
904.644674
 20
327.299226
 30
0.0
  0
POINT
  5
527
100
AcDbEntity
  8
DEFPOINTS
  6
BYBLOCK
 62
     0
100
AcDbPoint
 10
897.644674
 20
313.126607
 30
0.0
  0
POINT
  5
528
100
AcDbEntity
  8
DEFPOINTS
  6
BYBLOCK
 62
     0
100
AcDbPoint
 10
897.644674
 20
279.877479
 30
0.0
  0
ENDBLK
  5
52A
100
AcDbEntity
  8
0
100
AcDbBlockEnd
  0
BLOCK
  5
537
100
AcDbEntity
  8
0
100
AcDbBlockBegin
  2
*D2
 70
     1
 10
0.0
 20
0.0
 30
0.0
  3
*D2
  1

  0
LINE
  5
52D
100
AcDbEntity
  8
0
  6
BYBLOCK
 62
     4
100
AcDbLine
 10
964.644674
 20
326.252807
 30
0.0
 11
964.644674
 21
277.377479
 31
0.0
  0
LINE
  5
52E
100
AcDbEntity
  8
0
  6
BYBLOCK
 62
     4
100
AcDbLine
 10
971.644674
 20
300.613216
 30
0.0
 11
971.644674
 21
277.377479
 31
0.0
  0
LINE
  5
52F
100
AcDbEntity
  8
0
  6
BYBLOCK
 62
     4
100
AcDbLine
 10
961.644674
 20
279.877479
 30
0.0
 11
958.644674
 21
279.877479
 31
0.0
  0
LINE
  5
530
100
AcDbEntity
  8
0
  6
BYBLOCK
 62
     4
100
AcDbLine
 10
974.644674
 20
279.877479
 30
0.0
 11
986.930388
 21
279.877479
 31
0.0
  0
SOLID
  5
531
100
AcDbEntity
  8
0
  6
BYBLOCK
 62
     4
100
AcDbTrace
 10
961.644674
 20
280.377479
 30
0.0
 11
961.644674
 21
279.377479
 31
0.0
 12
964.644674
 22
279.877479
 32
0.0
 13
964.644674
 23
279.877479
 33
0.0
  0
SOLID
  5
532
100
AcDbEntity
  8
0
  6
BYBLOCK
 62
     4
100
AcDbTrace
 10
974.644674
 20
280.377479
 30
0.0
 11
974.644674
 21
279.377479
 31
0.0
 12
971.644674
 22
279.877479
 32
0.0
 13
971.644674
 23
279.877479
 33
0.0
  0
MTEXT
  5
533
100
AcDbEntity
  8
0
  6
BYBLOCK
 62
     2
100
AcDbMText
 10
982.287531
 20
282.877479
 30
0.0
 40
3.0
 41
0.0
 71
     5
 72
     1
  1
\A1;7.0
  0
POINT
  5
534
100
AcDbEntity
  8
DEFPOINTS
  6
BYBLOCK
 62
     0
100
AcDbPoint
 10
964.644674
 20
327.252807
 30
0.0
  0
POINT
  5
535
100
AcDbEntity
  8
DEFPOINTS
  6
BYBLOCK
 62
     0
100
AcDbPoint
 10
971.644674
 20
301.613216
 30
0.0
  0
POINT
  5
536
100
AcDbEntity
  8
DEFPOINTS
  6
BYBLOCK
 62
     0
100
AcDbPoint
 10
971.644674
 20
279.877479
 30
0.0
  0
ENDBLK
  5
538
100
AcDbEntity
  8
0
100
AcDbBlockEnd
  0
BLOCK
  5
544
100
AcDbEntity
  8
0
100
AcDbBlockBegin
  2
*D3
 70
     1
 10
0.0
 20
0.0
 30
0.0
  3
*D3
  1

  0
LINE
  5
53B
100
AcDbEntity
  8
0
  6
BYBLOCK
 62
     4
100
AcDbLine
 10
904.644674
 20
326.299226
 30
0.0
 11
904.644674
 21
277.377479
 31
0.0
  0
LINE
  5
53C
100
AcDbEntity
  8
0
  6
BYBLOCK
 62
     4
100
AcDbLine
 10
964.644674
 20
326.252807
 30
0.0
 11
964.644674
 21
277.377479
 31
0.0
  0
LINE
  5
53D
100
AcDbEntity
  8
0
  6
BYBLOCK
 62
     4
100
AcDbLine
 10
907.644674
 20
279.877479
 30
0.0
 11
961.644674
 21
279.877479
 31
0.0
  0
SOLID
  5
53E
100
AcDbEntity
  8
0
  6
BYBLOCK
 62
     4
100
AcDbTrace
 10
907.644674
 20
280.377479
 30
0.0
 11
907.644674
 21
279.377479
 31
0.0
 12
904.644674
 22
279.877479
 32
0.0
 13
904.644674
 23
279.877479
 33
0.0
  0
SOLID
  5
53F
100
AcDbEntity
  8
0
  6
BYBLOCK
 62
     4
100
AcDbTrace
 10
961.644674
 20
280.377479
 30
0.0
 11
961.644674
 21
279.377479
 31
0.0
 12
964.644674
 22
279.877479
 32
0.0
 13
964.644674
 23
279.877479
 33
0.0
  0
MTEXT
  5
540
100
AcDbEntity
  8
0
  6
BYBLOCK
 62
     2
100
AcDbMText
 10
934.644674
 20
282.877479
 30
0.0
 40
3.0
 41
0.0
 71
     5
 72
     1
  1
\A1;60.00
  0
POINT
  5
541
100
AcDbEntity
  8
DEFPOINTS
  6
BYBLOCK
 62
     0
100
AcDbPoint
 10
904.644674
 20
327.299226
 30
0.0
  0
POINT
  5
542
100
AcDbEntity
  8
DEFPOINTS
  6
BYBLOCK
 62
     0
100
AcDbPoint
 10
964.644674
 20
327.252807
 30
0.0
  0
POINT
  5
543
100
AcDbEntity
  8
DEFPOINTS
  6
BYBLOCK
 62
     0
100
AcDbPoint
 10
964.644674
 20
279.877479
 30
0.0
  0
ENDBLK
  5
545
100
AcDbEntity
  8
0
100
AcDbBlockEnd
  0
BLOCK
  5
287
100
AcDbEntity
  8
0
100
AcDbBlockBegin
  2
*D4
 70
     1
 10
0.0
 20
0.0
 30
0.0
  3
*D4
  1

  0
LINE
  5
27E
100
AcDbEntity
  8
0
  6
BYBLOCK
 62
     4
100
AcDbLine
 10
990.762332
 20
148.37426
 30
0.0
 11
969.830536
 21
148.37426
 31
0.0
  0
LINE
  5
27F
100
AcDbEntity
  8
0
  6
BYBLOCK
 62
     4
100
AcDbLine
 10
1000.537332
 20
161.77426
 30
0.0
 11
969.830536
 21
161.77426
 31
0.0
  0
LINE
  5
280
100
AcDbEntity
  8
0
  6
BYBLOCK
 62
     4
100
AcDbLine
 10
972.330536
 20
151.37426
 30
0.0
 11
972.330536
 21
158.77426
 31
0.0
  0
SOLID
  5
281
100
AcDbEntity
  8
0
  6
BYBLOCK
 62
     4
100
AcDbTrace
 10
971.830536
 20
151.37426
 30
0.0
 11
972.830536
 21
151.37426
 31
0.0
 12
972.330536
 22
148.37426
 32
0.0
 13
972.330536
 23
148.37426
 33
0.0
  0
SOLID
  5
282
100
AcDbEntity
  8
0
  6
BYBLOCK
 62
     4
100
AcDbTrace
 10
971.830536
 20
158.77426
 30
0.0
 11
972.830536
 21
158.77426
 31
0.0
 12
972.330536
 22
161.77426
 32
0.0
 13
972.330536
 23
161.77426
 33
0.0
  0
MTEXT
  5
283
100
AcDbEntity
  8
0
  6
BYBLOCK
 62
     2
100
AcDbMText
 10
969.330536
 20
155.07426
 30
0.0
 40
3.0
 41
0.0
 71
     5
 72
     1
  1
\A1;13.4
 11
0.0
 21
1.0
 31
0.0
  0
POINT
  5
284
100
AcDbEntity
  8
DEFPOINTS
  6
BYBLOCK
 62
     0
100
AcDbPoint
 10
991.762332
 20
148.37426
 30
0.0
  0
POINT
  5
285
100
AcDbEntity
  8
DEFPOINTS
  6
BYBLOCK
 62
     0
100
AcDbPoint
 10
1001.537332
 20
161.77426
 30
0.0
  0
POINT
  5
286
100
AcDbEntity
  8
DEFPOINTS
  6
BYBLOCK
 62
     0
100
AcDbPoint
 10
972.330536
 20
161.77426
 30
0.0
  0
ENDBLK
  5
288
100
AcDbEntity
  8
0
100
AcDbBlockEnd
  0
BLOCK
  5
27A
100
AcDbEntity
  8
0
100
AcDbBlockBegin
  2
*D5
 70
     1
 10
0.0
 20
0.0
 30
0.0
  3
*D5
  1

  0
LINE
  5
271
100
AcDbEntity
  8
0
  6
BYBLOCK
 62
     4
100
AcDbLine
 10
547.74378
 20
182.726459
 30
0.0
 11
547.74378
 21
205.933041
 31
0.0
  0
LINE
  5
272
100
AcDbEntity
  8
0
  6
BYBLOCK
 62
     4
100
AcDbLine
 10
503.29378
 20
182.726459
 30
0.0
 11
503.29378
 21
205.933041
 31
0.0
  0
LINE
  5
273
100
AcDbEntity
  8
0
  6
BYBLOCK
 62
     4
100
AcDbLine
 10
544.74378
 20
203.433041
 30
0.0
 11
506.29378
 21
203.433041
 31
0.0
  0
SOLID
  5
274
100
AcDbEntity
  8
0
  6
BYBLOCK
 62
     4
100
AcDbTrace
 10
544.74378
 20
203.933041
 30
0.0
 11
544.74378
 21
202.933041
 31
0.0
 12
547.74378
 22
203.433041
 32
0.0
 13
547.74378
 23
203.433041
 33
0.0
  0
SOLID
  5
275
100
AcDbEntity
  8
0
  6
BYBLOCK
 62
     4
100
AcDbTrace
 10
506.29378
 20
203.933041
 30
0.0
 11
506.29378
 21
202.933041
 31
0.0
 12
503.29378
 22
203.433041
 32
0.0
 13
503.29378
 23
203.433041
 33
0.0
  0
MTEXT
  5
276
100
AcDbEntity
  8
0
  6
BYBLOCK
 62
     2
100
AcDbMText
 10
526.483991
 20
206.433041
 30
0.0
 40
3.0
 41
0.0
 71
     5
 72
     1
  1
\A1;\U+220544.45 H7
  0
POINT
  5
277
100
AcDbEntity
  8
DEFPOINTS
  6
BYBLOCK
 62
     0
100
AcDbPoint
 10
547.74378
 20
181.726459
 30
0.0
  0
POINT
  5
278
100
AcDbEntity
  8
DEFPOINTS
  6
BYBLOCK
 62
     0
100
AcDbPoint
 10
503.29378
 20
181.726459
 30
0.0
  0
POINT
  5
279
100
AcDbEntity
  8
DEFPOINTS
  6
BYBLOCK
 62
     0
100
AcDbPoint
 10
503.29378
 20
203.433041
 30
0.0
  0
ENDBLK
  5
27B
100
AcDbEntity
  8
0
100
AcDbBlockEnd
  0
BLOCK
  5
26D
100
AcDbEntity
  8
0
100
AcDbBlockBegin
  2
*D6
 70
     1
 10
0.0
 20
0.0
 30
0.0
  3
*D6
  1

  0
LINE
  5
264
100
AcDbEntity
  8
0
  6
BYBLOCK
 62
     4
100
AcDbLine
 10
502.29378
 20
177.149109
 30
0.0
 11
502.29378
 21
215.974272
 31
0.0
  0
LINE
  5
265
100
AcDbEntity
  8
0
  6
BYBLOCK
 62
     4
100
AcDbLine
 10
548.74378
 20
177.149109
 30
0.0
 11
548.74378
 21
215.974272
 31
0.0
  0
LINE
  5
266
100
AcDbEntity
  8
0
  6
BYBLOCK
 62
     4
100
AcDbLine
 10
505.29378
 20
213.474272
 30
0.0
 11
545.74378
 21
213.474272
 31
0.0
  0
SOLID
  5
267
100
AcDbEntity
  8
0
  6
BYBLOCK
 62
     4
100
AcDbTrace
 10
505.29378
 20
213.974272
 30
0.0
 11
505.29378
 21
212.974272
 31
0.0
 12
502.29378
 22
213.474272
 32
0.0
 13
502.29378
 23
213.474272
 33
0.0
  0
SOLID
  5
268
100
AcDbEntity
  8
0
  6
BYBLOCK
 62
     4
100
AcDbTrace
 10
545.74378
 20
213.974272
 30
0.0
 11
545.74378
 21
212.974272
 31
0.0
 12
548.74378
 22
213.474272
 32
0.0
 13
548.74378
 23
213.474272
 33
0.0
  0
MTEXT
  5
269
100
AcDbEntity
  8
0
  6
BYBLOCK
 62
     2
100
AcDbMText
 10
526.824232
 20
216.474272
 30
0.0
 40
3.0
 41
0.0
 71
     5
 72
     1
  1
\A1;\U+220546.5
  0
POINT
  5
26A
100
AcDbEntity
  8
DEFPOINTS
  6
BYBLOCK
 62
     0
100
AcDbPoint
 10
502.29378
 20
176.149109
 30
0.0
  0
POINT
  5
26B
100
AcDbEntity
  8
DEFPOINTS
  6
BYBLOCK
 62
     0
100
AcDbPoint
 10
548.74378
 20
176.149109
 30
0.0
  0
POINT
  5
26C
100
AcDbEntity
  8
DEFPOINTS
  6
BYBLOCK
 62
     0
100
AcDbPoint
 10
548.74378
 20
213.474272
 30
0.0
  0
ENDBLK
  5
26E
100
AcDbEntity
  8
0
100
AcDbBlockEnd
  0
BLOCK
  5
260
100
AcDbEntity
  8
0
100
AcDbBlockBegin
  2
*D7
 70
     1
 10
0.0
 20
0.0
 30
0.0
  3
*D7
  1

  0
LINE
  5
257
100
AcDbEntity
  8
0
  6
BYBLOCK
 62
     4
100
AcDbLine
 10
549.74378
 20
156.326459
 30
0.0
 11
573.785879
 21
156.326459
 31
0.0
  0
LINE
  5
258
100
AcDbEntity
  8
0
  6
BYBLOCK
 62
     4
100
AcDbLine
 10
548.74378
 20
181.726459
 30
0.0
 11
573.785879
 21
181.726459
 31
0.0
  0
LINE
  5
259
100
AcDbEntity
  8
0
  6
BYBLOCK
 62
     4
100
AcDbLine
 10
571.285879
 20
159.326459
 30
0.0
 11
571.285879
 21
178.726459
 31
0.0
  0
SOLID
  5
25A
100
AcDbEntity
  8
0
  6
BYBLOCK
 62
     4
100
AcDbTrace
 10
570.785879
 20
159.326459
 30
0.0
 11
571.785879
 21
159.326459
 31
0.0
 12
571.285879
 22
156.326459
 32
0.0
 13
571.285879
 23
156.326459
 33
0.0
  0
SOLID
  5
25B
100
AcDbEntity
  8
0
  6
BYBLOCK
 62
     4
100
AcDbTrace
 10
570.785879
 20
178.726459
 30
0.0
 11
571.785879
 21
178.726459
 31
0.0
 12
571.285879
 22
181.726459
 32
0.0
 13
571.285879
 23
181.726459
 33
0.0
  0
MTEXT
  5
25C
100
AcDbEntity
  8
0
  6
BYBLOCK
 62
     2
100
AcDbMText
 10
568.285879
 20
171.027876
 30
0.0
 40
3.0
 41
0.0
 71
     5
 72
     1
  1
\A1;25.40
 11
0.0
 21
1.0
 31
0.0
  0
POINT
  5
25D
100
AcDbEntity
  8
DEFPOINTS
  6
BYBLOCK
 62
     0
100
AcDbPoint
 10
548.74378
 20
156.326459
 30
0.0
  0
POINT
  5
25E
100
AcDbEntity
  8
DEFPOINTS
  6
BYBLOCK
 62
     0
100
AcDbPoint
 10
547.74378
 20
181.726459
 30
0.0
  0
POINT
  5
25F
100
AcDbEntity
  8
DEFPOINTS
  6
BYBLOCK
 62
     0
100
AcDbPoint
 10
571.285879
 20
181.726459
 30
0.0
  0
ENDBLK
  5
261
100
AcDbEntity
  8
0
100
AcDbBlockEnd
  0
BLOCK
  5
213
100
AcDbEntity
  8
0
100
AcDbBlockBegin
  2
*D8
 70
     1
 10
0.0
 20
0.0
 30
0.0
  3
*D8
  1

  0
LINE
  5
209
100
AcDbEntity
  8
0
  6
BYBLOCK
 62
     4
100
AcDbLine
 10
666.524052
 20
177.326459
 30
0.0
 11
666.524052
 21
193.502624
 31
0.0
  0
LINE
  5
20A
100
AcDbEntity
  8
0
  6
BYBLOCK
 62
     4
100
AcDbLine
 10
658.524052
 20
177.326459
 30
0.0
 11
658.524052
 21
193.502624
 31
0.0
  0
LINE
  5
20B
100
AcDbEntity
  8
0
  6
BYBLOCK
 62
     4
100
AcDbLine
 10
669.524052
 20
191.002624
 30
0.0
 11
672.524052
 21
191.002624
 31
0.0
  0
LINE
  5
20C
100
AcDbEntity
  8
0
  6
BYBLOCK
 62
     4
100
AcDbLine
 10
655.524052
 20
191.002624
 30
0.0
 11
628.952624
 21
191.002624
 31
0.0
  0
SOLID
  5
20D
100
AcDbEntity
  8
0
  6
BYBLOCK
 62
     4
100
AcDbTrace
 10
669.524052
 20
191.502624
 30
0.0
 11
669.524052
 21
190.502624
 31
0.0
 12
666.524052
 22
191.002624
 32
0.0
 13
666.524052
 23
191.002624
 33
0.0
  0
SOLID
  5
20E
100
AcDbEntity
  8
0
  6
BYBLOCK
 62
     4
100
AcDbTrace
 10
655.524052
 20
191.502624
 30
0.0
 11
655.524052
 21
190.502624
 31
0.0
 12
658.524052
 22
191.002624
 32
0.0
 13
658.524052
 23
191.002624
 33
0.0
  0
MTEXT
  5
20F
100
AcDbEntity
  8
0
  6
BYBLOCK
 62
     2
100
AcDbMText
 10
640.738338
 20
194.002624
 30
0.0
 40
3.0
 41
0.0
 71
     5
 72
     1
  1
\A1;\U+22058.00 H7
  0
POINT
  5
210
100
AcDbEntity
  8
DEFPOINTS
  6
BYBLOCK
 62
     0
100
AcDbPoint
 10
666.524052
 20
176.326459
 30
0.0
  0
POINT
  5
211
100
AcDbEntity
  8
DEFPOINTS
  6
BYBLOCK
 62
     0
100
AcDbPoint
 10
658.524052
 20
176.326459
 30
0.0
  0
POINT
  5
212
100
AcDbEntity
  8
DEFPOINTS
  6
BYBLOCK
 62
     0
100
AcDbPoint
 10
658.524052
 20
191.002624
 30
0.0
  0
ENDBLK
  5
214
100
AcDbEntity
  8
0
100
AcDbBlockEnd
  0
BLOCK
  5
B0
100
AcDbEntity
  8
0
100
AcDbBlockBegin
  2
*D9
 70
     1
 10
0.0
 20
0.0
 30
0.0
  3
*D9
  1

  0
LINE
  5
A7
100
AcDbEntity
  8
0
  6
BYBLOCK
 62
     4
100
AcDbLine
 10
282.81878
 20
357.559226
 30
0.0
 11
207.696662
 21
357.559226
 31
0.0
  0
LINE
  5
A8
100
AcDbEntity
  8
0
  6
BYBLOCK
 62
     4
100
AcDbLine
 10
282.81878
 20
507.559226
 30
0.0
 11
207.696662
 21
507.559226
 31
0.0
  0
LINE
  5
A9
100
AcDbEntity
  8
0
  6
BYBLOCK
 62
     4
100
AcDbLine
 10
210.196662
 20
360.559226
 30
0.0
 11
210.196662
 21
504.559226
 31
0.0
  0
SOLID
  5
AA
100
AcDbEntity
  8
0
  6
BYBLOCK
 62
     4
100
AcDbTrace
 10
209.696662
 20
360.559226
 30
0.0
 11
210.696662
 21
360.559226
 31
0.0
 12
210.196662
 22
357.559226
 32
0.0
 13
210.196662
 23
357.559226
 33
0.0
  0
SOLID
  5
AB
100
AcDbEntity
  8
0
  6
BYBLOCK
 62
     4
100
AcDbTrace
 10
209.696662
 20
504.559226
 30
0.0
 11
210.696662
 21
504.559226
 31
0.0
 12
210.196662
 22
507.559226
 32
0.0
 13
210.196662
 23
507.559226
 33
0.0
  0
MTEXT
  5
AC
100
AcDbEntity
  8
0
  6
BYBLOCK
 62
     2
100
AcDbMText
 10
207.196662
 20
432.559226
 30
0.0
 40
3.0
 41
0.0
 71
     5
 72
     1
  1
\A1;C=150.00
 11
0.0
 21
1.0
 31
0.0
  0
POINT
  5
AD
100
AcDbEntity
  8
DEFPOINTS
  6
BYBLOCK
 62
     0
100
AcDbPoint
 10
283.81878
 20
357.559226
 30
0.0
  0
POINT
  5
AE
100
AcDbEntity
  8
DEFPOINTS
  6
BYBLOCK
 62
     0
100
AcDbPoint
 10
283.81878
 20
507.559226
 30
0.0
  0
POINT
  5
AF
100
AcDbEntity
  8
DEFPOINTS
  6
BYBLOCK
 62
     0
100
AcDbPoint
 10
210.196662
 20
507.559226
 30
0.0
  0
ENDBLK
  5
B1
100
AcDbEntity
  8
0
100
AcDbBlockEnd
  0
BLOCK
  5
A3
100
AcDbEntity
  8
0
100
AcDbBlockBegin
  2
*D10
 70
     1
 10
0.0
 20
0.0
 30
0.0
  3
*D10
  1

  0
LINE
  5
9A
100
AcDbEntity
  8
0
  6
BYBLOCK
 62
     4
100
AcDbLine
 10
290.261558
 20
321.559226
 30
0.0
 11
197.431152
 21
321.559226
 31
0.0
  0
LINE
  5
9B
100
AcDbEntity
  8
0
  6
BYBLOCK
 62
     4
100
AcDbLine
 10
290.261558
 20
543.559226
 30
0.0
 11
197.431152
 21
543.559226
 31
0.0
  0
LINE
  5
9C
100
AcDbEntity
  8
0
  6
BYBLOCK
 62
     4
100
AcDbLine
 10
199.931152
 20
324.559226
 30
0.0
 11
199.931152
 21
540.559226
 31
0.0
  0
SOLID
  5
9D
100
AcDbEntity
  8
0
  6
BYBLOCK
 62
     4
100
AcDbTrace
 10
199.431152
 20
324.559226
 30
0.0
 11
200.431152
 21
324.559226
 31
0.0
 12
199.931152
 22
321.559226
 32
0.0
 13
199.931152
 23
321.559226
 33
0.0
  0
SOLID
  5
9E
100
AcDbEntity
  8
0
  6
BYBLOCK
 62
     4
100
AcDbTrace
 10
199.431152
 20
540.559226
 30
0.0
 11
200.431152
 21
540.559226
 31
0.0
 12
199.931152
 22
543.559226
 32
0.0
 13
199.931152
 23
543.559226
 33
0.0
  0
MTEXT
  5
9F
100
AcDbEntity
  8
0
  6
BYBLOCK
 62
     2
100
AcDbMText
 10
196.931152
 20
432.559226
 30
0.0
 40
3.0
 41
0.0
 71
     5
 72
     1
  1
\A1;L1=222.00
 11
0.0
 21
1.0
 31
0.0
  0
POINT
  5
A0
100
AcDbEntity
  8
DEFPOINTS
  6
BYBLOCK
 62
     0
100
AcDbPoint
 10
291.261558
 20
321.559226
 30
0.0
  0
POINT
  5
A1
100
AcDbEntity
  8
DEFPOINTS
  6
BYBLOCK
 62
     0
100
AcDbPoint
 10
291.261558
 20
543.559226
 30
0.0
  0
POINT
  5
A2
100
AcDbEntity
  8
DEFPOINTS
  6
BYBLOCK
 62
     0
100
AcDbPoint
 10
199.931152
 20
543.559226
 30
0.0
  0
ENDBLK
  5
A4
100
AcDbEntity
  8
0
100
AcDbBlockEnd
  0
BLOCK
  5
96
100
AcDbEntity
  8
0
100
AcDbBlockBegin
  2
*D11
 70
     1
 10
0.0
 20
0.0
 30
0.0
  3
*D11
  1

  0
LINE
  5
8D
100
AcDbEntity
  8
0
  6
BYBLOCK
 62
     4
100
AcDbLine
 10
300.51878
 20
525.259226
 30
0.0
 11
300.51878
 21
667.811891
 31
0.0
  0
LINE
  5
8E
100
AcDbEntity
  8
0
  6
BYBLOCK
 62
     4
100
AcDbLine
 10
450.51878
 20
525.259226
 30
0.0
 11
450.51878
 21
667.811891
 31
0.0
  0
LINE
  5
8F
100
AcDbEntity
  8
0
  6
BYBLOCK
 62
     4
100
AcDbLine
 10
303.51878
 20
665.311891
 30
0.0
 11
447.51878
 21
665.311891
 31
0.0
  0
SOLID
  5
90
100
AcDbEntity
  8
0
  6
BYBLOCK
 62
     4
100
AcDbTrace
 10
303.51878
 20
665.811891
 30
0.0
 11
303.51878
 21
664.811891
 31
0.0
 12
300.51878
 22
665.311891
 32
0.0
 13
300.51878
 23
665.311891
 33
0.0
  0
SOLID
  5
91
100
AcDbEntity
  8
0
  6
BYBLOCK
 62
     4
100
AcDbTrace
 10
447.51878
 20
665.811891
 30
0.0
 11
447.51878
 21
664.811891
 31
0.0
 12
450.51878
 22
665.311891
 32
0.0
 13
450.51878
 23
665.311891
 33
0.0
  0
MTEXT
  5
92
100
AcDbEntity
  8
0
  6
BYBLOCK
 62
     2
100
AcDbMText
 10
375.51878
 20
668.311891
 30
0.0
 40
3.0
 41
0.0
 71
     5
 72
     1
  1
\A1;A=150.00
  0
POINT
  5
93
100
AcDbEntity
  8
DEFPOINTS
  6
BYBLOCK
 62
     0
100
AcDbPoint
 10
300.51878
 20
524.259226
 30
0.0
  0
POINT
  5
94
100
AcDbEntity
  8
DEFPOINTS
  6
BYBLOCK
 62
     0
100
AcDbPoint
 10
450.51878
 20
524.259226
 30
0.0
  0
POINT
  5
95
100
AcDbEntity
  8
DEFPOINTS
  6
BYBLOCK
 62
     0
100
AcDbPoint
 10
450.51878
 20
665.311891
 30
0.0
  0
ENDBLK
  5
97
100
AcDbEntity
  8
0
100
AcDbBlockEnd
  0
BLOCK
  5
89
100
AcDbEntity
  8
0
100
AcDbBlockBegin
  2
*D12
 70
     1
 10
0.0
 20
0.0
 30
0.0
  3
*D12
  1

  0
LINE
  5
81
100
AcDbEntity
  8
0
  6
BYBLOCK
 62
     4
100
AcDbLine
 10
600.51878
 20
525.259226
 30
0.0
 11
600.51878
 21
667.811891
 31
0.0
  0
LINE
  5
82
100
AcDbEntity
  8
0
  6
BYBLOCK
 62
     4
100
AcDbLine
 10
453.51878
 20
665.311891
 30
0.0
 11
597.51878
 21
665.311891
 31
0.0
  0
SOLID
  5
83
100
AcDbEntity
  8
0
  6
BYBLOCK
 62
     4
100
AcDbTrace
 10
453.51878
 20
665.811891
 30
0.0
 11
453.51878
 21
664.811891
 31
0.0
 12
450.51878
 22
665.311891
 32
0.0
 13
450.51878
 23
665.311891
 33
0.0
  0
SOLID
  5
84
100
AcDbEntity
  8
0
  6
BYBLOCK
 62
     4
100
AcDbTrace
 10
597.51878
 20
665.811891
 30
0.0
 11
597.51878
 21
664.811891
 31
0.0
 12
600.51878
 22
665.311891
 32
0.0
 13
600.51878
 23
665.311891
 33
0.0
  0
MTEXT
  5
85
100
AcDbEntity
  8
0
  6
BYBLOCK
 62
     2
100
AcDbMText
 10
525.51878
 20
668.311891
 30
0.0
 40
3.0
 41
0.0
 71
     5
 72
     1
  1
\A1;B=150.00
  0
POINT
  5
86
100
AcDbEntity
  8
DEFPOINTS
  6
BYBLOCK
 62
     0
100
AcDbPoint
 10
450.51878
 20
524.259226
 30
0.0
  0
POINT
  5
87
100
AcDbEntity
  8
DEFPOINTS
  6
BYBLOCK
 62
     0
100
AcDbPoint
 10
600.51878
 20
524.259226
 30
0.0
  0
POINT
  5
88
100
AcDbEntity
  8
DEFPOINTS
  6
BYBLOCK
 62
     0
100
AcDbPoint
 10
600.51878
 20
665.311891
 30
0.0
  0
ENDBLK
  5
8A
100
AcDbEntity
  8
0
100
AcDbBlockEnd
  0
BLOCK
  5
7D
100
AcDbEntity
  8
0
100
AcDbBlockBegin
  2
*D13
 70
     1
 10
0.0
 20
0.0
 30
0.0
  3
*D13
  1

  0
LINE
  5
75
100
AcDbEntity
  8
0
  6
BYBLOCK
 62
     4
100
AcDbLine
 10
750.51878
 20
525.259226
 30
0.0
 11
750.51878
 21
667.811891
 31
0.0
  0
LINE
  5
76
100
AcDbEntity
  8
0
  6
BYBLOCK
 62
     4
100
AcDbLine
 10
603.51878
 20
665.311891
 30
0.0
 11
747.51878
 21
665.311891
 31
0.0
  0
SOLID
  5
77
100
AcDbEntity
  8
0
  6
BYBLOCK
 62
     4
100
AcDbTrace
 10
603.51878
 20
665.811891
 30
0.0
 11
603.51878
 21
664.811891
 31
0.0
 12
600.51878
 22
665.311891
 32
0.0
 13
600.51878
 23
665.311891
 33
0.0
  0
SOLID
  5
78
100
AcDbEntity
  8
0
  6
BYBLOCK
 62
     4
100
AcDbTrace
 10
747.51878
 20
665.811891
 30
0.0
 11
747.51878
 21
664.811891
 31
0.0
 12
750.51878
 22
665.311891
 32
0.0
 13
750.51878
 23
665.311891
 33
0.0
  0
MTEXT
  5
79
100
AcDbEntity
  8
0
  6
BYBLOCK
 62
     2
100
AcDbMText
 10
675.51878
 20
668.311891
 30
0.0
 40
3.0
 41
0.0
 71
     5
 72
     1
  1
\A1;A=150.00
  0
POINT
  5
7A
100
AcDbEntity
  8
DEFPOINTS
  6
BYBLOCK
 62
     0
100
AcDbPoint
 10
600.51878
 20
524.259226
 30
0.0
  0
POINT
  5
7B
100
AcDbEntity
  8
DEFPOINTS
  6
BYBLOCK
 62
     0
100
AcDbPoint
 10
750.51878
 20
524.259226
 30
0.0
  0
POINT
  5
7C
100
AcDbEntity
  8
DEFPOINTS
  6
BYBLOCK
 62
     0
100
AcDbPoint
 10
750.51878
 20
665.311891
 30
0.0
  0
ENDBLK
  5
7E
100
AcDbEntity
  8
0
100
AcDbBlockEnd
  0
BLOCK
  5
71
100
AcDbEntity
  8
0
100
AcDbBlockBegin
  2
*D14
 70
     1
 10
0.0
 20
0.0
 30
0.0
  3
*D14
  1

  0
LINE
  5
68
100
AcDbEntity
  8
0
  6
BYBLOCK
 62
     4
100
AcDbLine
 10
264.51878
 20
517.816448
 30
0.0
 11
264.51878
 21
677.454702
 31
0.0
  0
LINE
  5
69
100
AcDbEntity
  8
0
  6
BYBLOCK
 62
     4
100
AcDbLine
 10
786.51878
 20
517.816448
 30
0.0
 11
786.51878
 21
677.454702
 31
0.0
  0
LINE
  5
6A
100
AcDbEntity
  8
0
  6
BYBLOCK
 62
     4
100
AcDbLine
 10
267.51878
 20
674.954702
 30
0.0
 11
783.51878
 21
674.954702
 31
0.0
  0
SOLID
  5
6B
100
AcDbEntity
  8
0
  6
BYBLOCK
 62
     4
100
AcDbTrace
 10
267.51878
 20
675.454702
 30
0.0
 11
267.51878
 21
674.454702
 31
0.0
 12
264.51878
 22
674.954702
 32
0.0
 13
264.51878
 23
674.954702
 33
0.0
  0
SOLID
  5
6C
100
AcDbEntity
  8
0
  6
BYBLOCK
 62
     4
100
AcDbTrace
 10
783.51878
 20
675.454702
 30
0.0
 11
783.51878
 21
674.454702
 31
0.0
 12
786.51878
 22
674.954702
 32
0.0
 13
786.51878
 23
674.954702
 33
0.0
  0
MTEXT
  5
6D
100
AcDbEntity
  8
0
  6
BYBLOCK
 62
     2
100
AcDbMText
 10
525.51878
 20
677.954702
 30
0.0
 40
3.0
 41
0.0
 71
     5
 72
     1
  1
\A1;L=522.00
  0
POINT
  5
6E
100
AcDbEntity
  8
DEFPOINTS
  6
BYBLOCK
 62
     0
100
AcDbPoint
 10
264.51878
 20
516.816448
 30
0.0
  0
POINT
  5
6F
100
AcDbEntity
  8
DEFPOINTS
  6
BYBLOCK
 62
     0
100
AcDbPoint
 10
786.51878
 20
516.816448
 30
0.0
  0
POINT
  5
70
100
AcDbEntity
  8
DEFPOINTS
  6
BYBLOCK
 62
     0
100
AcDbPoint
 10
786.51878
 20
674.954702
 30
0.0
  0
ENDBLK
  5
72
100
AcDbEntity
  8
0
100
AcDbBlockEnd
  0
BLOCK
  5
64
100
AcDbEntity
  8
0
100
AcDbBlockBegin
  2
*D15
 70
     1
 10
0.0
 20
0.0
 30
0.0
  3
*D15
  1

  0
LINE
  5
5B
100
AcDbEntity
  8
0
  6
BYBLOCK
 62
     4
100
AcDbLine
 10
441.971052
 20
320.852119
 30
0.0
 11
474.489559
 21
288.333613
 31
0.0
  0
LINE
  5
5C
100
AcDbEntity
  8
0
  6
BYBLOCK
 62
     4
100
AcDbLine
 10
487.225886
 20
366.106953
 30
0.0
 11
519.744393
 21
333.588447
 31
0.0
  0
LINE
  5
5D
100
AcDbEntity
  8
0
  6
BYBLOCK
 62
     4
100
AcDbLine
 10
474.843112
 20
292.2227
 30
0.0
 11
515.855306
 21
333.234893
 31
0.0
  0
SOLID
  5
5E
100
AcDbEntity
  8
0
  6
BYBLOCK
 62
     4
100
AcDbTrace
 10
474.489559
 20
292.576253
 30
0.0
 11
475.196666
 21
291.869147
 31
0.0
 12
472.721792
 22
290.10138
 32
0.0
 13
472.721792
 23
290.10138
 33
0.0
  0
SOLID
  5
5F
100
AcDbEntity
  8
0
  6
BYBLOCK
 62
     4
100
AcDbTrace
 10
515.501752
 20
333.588447
 30
0.0
 11
516.208859
 21
332.88134
 31
0.0
 12
517.976626
 22
335.356214
 32
0.0
 13
517.976626
 23
335.356214
 33
0.0
  0
MTEXT
  5
60
100
AcDbEntity
  8
0
  6
BYBLOCK
 62
     2
100
AcDbMText
 10
493.227889
 20
314.850117
 30
0.0
 40
3.0
 41
0.0
 71
     5
 72
     1
  1
\A1;W=64.00
 11
0.707107
 21
0.707107
 31
0.0
  0
POINT
  5
61
100
AcDbEntity
  8
DEFPOINTS
  6
BYBLOCK
 62
     0
100
AcDbPoint
 10
441.263946
 20
321.559226
 30
0.0
  0
POINT
  5
62
100
AcDbEntity
  8
DEFPOINTS
  6
BYBLOCK
 62
     0
100
AcDbPoint
 10
486.51878
 20
366.81406
 30
0.0
  0
POINT
  5
63
100
AcDbEntity
  8
DEFPOINTS
  6
BYBLOCK
 62
     0
100
AcDbPoint
 10
517.976626
 20
335.356214
 30
0.0
  0
ENDBLK
  5
65
100
AcDbEntity
  8
0
100
AcDbBlockEnd
  0
BLOCK
  5
54
100
AcDbEntity
  8
0
100
AcDbBlockBegin
  2
*D16
 70
     1
 10
0.0
 20
0.0
 30
0.0
  3
*D16
  1

  0
LINE
  5
4A
100
AcDbEntity
  8
0
  6
BYBLOCK
 62
     4
100
AcDbLine
 10
505.51878
 20
115.02182
 30
0.0
 11
505.51878
 21
70.522131
 31
0.0
  0
LINE
  5
4B
100
AcDbEntity
  8
0
  6
BYBLOCK
 62
     4
100
AcDbLine
 10
545.51878
 20
115.02182
 30
0.0
 11
545.51878
 21
70.522131
 31
0.0
  0
LINE
  5
4C
100
AcDbEntity
  8
0
  6
BYBLOCK
 62
     4
100
AcDbLine
 10
508.51878
 20
73.022131
 30
0.0
 11
542.51878
 21
73.022131
 31
0.0
  0
SOLID
  5
4D
100
AcDbEntity
  8
0
  6
BYBLOCK
 62
     4
100
AcDbTrace
 10
508.51878
 20
73.522131
 30
0.0
 11
508.51878
 21
72.522131
 31
0.0
 12
505.51878
 22
73.022131
 32
0.0
 13
505.51878
 23
73.022131
 33
0.0
  0
SOLID
  5
4E
100
AcDbEntity
  8
0
  6
BYBLOCK
 62
     4
100
AcDbTrace
 10
542.51878
 20
73.522131
 30
0.0
 11
542.51878
 21
72.522131
 31
0.0
 12
545.51878
 22
73.022131
 32
0.0
 13
545.51878
 23
73.022131
 33
0.0
  0
MTEXT
  5
4F
100
AcDbEntity
  8
0
  6
BYBLOCK
 62
     2
100
AcDbMText
 10
525.51878
 20
76.022131
 30
0.0
 40
3.0
 41
0.0
 71
     5
 72
     1
  1
\A1;\U+220540.00 H7
  0
POINT
  5
50
100
AcDbEntity
  8
DEFPOINTS
  6
BYBLOCK
 62
     0
100
AcDbPoint
 10
505.51878
 20
116.02182
 30
0.0
  0
POINT
  5
52
100
AcDbEntity
  8
DEFPOINTS
  6
BYBLOCK
 62
     0
100
AcDbPoint
 10
545.51878
 20
116.02182
 30
0.0
  0
POINT
  5
53
100
AcDbEntity
  8
DEFPOINTS
  6
BYBLOCK
 62
     0
100
AcDbPoint
 10
545.51878
 20
73.022131
 30
0.0
  0
ENDBLK
  5
55
100
AcDbEntity
  8
0
100
AcDbBlockEnd
  0
ENDSEC
  0
SECTION
  2
ENTITIES
  0
TEXT
  5
20
100
AcDbEntity
  8
TEXT
100
AcDbText
 10
905.175364
 20
686.599003
 30
0.0
 40
6.0
  1
depending on the bush size to be used.
100
AcDbText
  0
TEXT
  5
22
100
AcDbEntity
  8
TEXT
100
AcDbText
 10
872.509409
 20
696.695411
 30
0.0
 40
6.0
  1
NOTE: Manifold width `W' can be 50mm or 64mm
100
AcDbText
  0
TEXT
  5
23
100
AcDbEntity
  8
TEXT
100
AcDbText
 10
151.850067
 20
48.661789
 30
0.0
 40
6.0
  1
design may vary from this example !
100
AcDbText
  0
TEXT
  5
24
100
AcDbEntity
  8
TEXT
100
AcDbText
 10
151.4692
 20
58.758197
 30
0.0
 40
6.0
  1
you finalize your tool design, as our final system
100
AcDbText
  0
TEXT
  5
25
100
AcDbEntity
  8
TEXT
100
AcDbText
 10
128.17508
 20
68.854605
 30
0.0
 40
6.0
  1
N.B. ALL designs MUST be approved by Fast Heat BEFORE
100
AcDbText
  0
ARC
  5
26
100
AcDbEntity
  8
M04
100
AcDbCircle
 10
300.517586
 20
323.616907
 30
0.0
 40
15.0
100
AcDbArc
 50
225.0
 51
315.0
  0
ARC
  5
28
100
AcDbEntity
  8
M04
100
AcDbCircle
 10
266.57646
 20
357.558032
 30
0.0
 40
15.0
100
AcDbArc
 50
135.0
 51
225.0
  0
ARC
  5
29
100
AcDbEntity
  8
M04
100
AcDbCircle
 10
266.57646
 20
507.56042
 30
0.0
 40
15.0
100
AcDbArc
 50
135.0
 51
225.0
  0
ARC
  5
2A
100
AcDbEntity
  8
M04
100
AcDbCircle
 10
300.517586
 20
541.501545
 30
0.0
 40
15.0
100
AcDbArc
 50
45.0
 51
135.0
  0
ARC
  5
2B
100
AcDbEntity
  8
M04
100
AcDbCircle
 10
450.519973
 20
541.501545
 30
0.0
 40
15.0
100
AcDbArc
 50
45.0
 51
135.0
  0
ARC
  5
2C
100
AcDbEntity
  8
M04
100
AcDbCircle
 10
484.461099
 20
357.558032
 30
0.0
 40
15.0
100
AcDbArc
 50
315.0
 51
45.0
  0
ARC
  5
2D
100
AcDbEntity
  8
M04
100
AcDbCircle
 10
450.519973
 20
323.616907
 30
0.0
 40
15.0
100
AcDbArc
 50
225.0
 51
315.0
  0
ARC
  5
2E
100
AcDbEntity
  8
M04
100
AcDbCircle
 10
484.461099
 20
507.56042
 30
0.0
 40
15.0
100
AcDbArc
 50
315.0
 51
45.0
  0
ARC
  5
2F
100
AcDbEntity
  8
M04
100
AcDbCircle
 10
784.461099
 20
357.558032
 30
0.0
 40
15.0
100
AcDbArc
 50
315.0
 51
45.0
  0
ARC
  5
30
100
AcDbEntity
  8
M04
100
AcDbCircle
 10
750.519974
 20
323.616907
 30
0.0
 40
15.0
100
AcDbArc
 50
225.0
 51
315.0
  0
ARC
  5
31
100
AcDbEntity
  8
M04
100
AcDbCircle
 10
600.517586
 20
323.616907
 30
0.0
 40
15.0
100
AcDbArc
 50
225.0
 51
315.0
  0
ARC
  5
32
100
AcDbEntity
  8
M04
100
AcDbCircle
 10
566.57646
 20
357.558032
 30
0.0
 40
15.0
100
AcDbArc
 50
135.0
 51
225.0
  0
ARC
  5
33
100
AcDbEntity
  8
M04
100
AcDbCircle
 10
600.517586
 20
541.501545
 30
0.0
 40
15.0
100
AcDbArc
 50
45.0
 51
135.0
  0
ARC
  5
34
100
AcDbEntity
  8
M04
100
AcDbCircle
 10
566.57646
 20
507.56042
 30
0.0
 40
15.0
100
AcDbArc
 50
135.0
 51
225.0
  0
ARC
  5
35
100
AcDbEntity
  8
M04
100
AcDbCircle
 10
750.519973
 20
541.501545
 30
0.0
 40
15.0
100
AcDbArc
 50
45.0
 51
135.0
  0
ARC
  5
36
100
AcDbEntity
  8
M04
100
AcDbCircle
 10
784.461099
 20
507.56042
 30
0.0
 40
15.0
100
AcDbArc
 50
315.0
 51
45.0
  0
LINE
  5
37
100
AcDbEntity
  8
M01
100
AcDbLine
 10
459.776001
 20
321.559226
 30
0.0
 11
486.51878
 21
348.302005
 31
0.0
  0
LINE
  5
39
100
AcDbEntity
  8
M04
100
AcDbLine
 10
461.126575
 20
313.010305
 30
0.0
 11
495.067701
 21
346.95143
 31
0.0
  0
LINE
  5
3A
100
AcDbEntity
  8
M01
100
AcDbLine
 10
291.261558
 20
321.559226
 30
0.0
 11
264.51878
 21
348.302005
 31
0.0
  0
LINE
  5
3B
100
AcDbEntity
  8
M04
100
AcDbLine
 10
289.910984
 20
313.010305
 30
0.0
 11
255.969859
 21
346.95143
 31
0.0
  0
LINE
  5
3C
100
AcDbEntity
  8
M01
100
AcDbLine
 10
291.261558
 20
543.559226
 30
0.0
 11
264.51878
 21
516.816448
 31
0.0
  0
LINE
  5
3D
100
AcDbEntity
  8
M04
100
AcDbLine
 10
289.910984
 20
552.108147
 30
0.0
 11
255.969859
 21
518.167022
 31
0.0
  0
LINE
  5
3E
100
AcDbEntity
  8
M01
100
AcDbLine
 10
459.776001
 20
543.559226
 30
0.0
 11
486.51878
 21
516.816448
 31
0.0
  0
LINE
  5
3F
100
AcDbEntity
  8
M04
100
AcDbLine
 10
461.126575
 20
552.108147
 30
0.0
 11
495.067701
 21
518.167022
 31
0.0
  0
LINE
  5
40
100
AcDbEntity
  8
M01
100
AcDbLine
 10
591.261558
 20
543.559226
 30
0.0
 11
564.51878
 21
516.816448
 31
0.0
  0
LINE
  5
41
100
AcDbEntity
  8
M04
100
AcDbLine
 10
589.910984
 20
552.108147
 30
0.0
 11
555.969859
 21
518.167022
 31
0.0
  0
LINE
  5
42
100
AcDbEntity
  8
M01
100
AcDbLine
 10
591.261558
 20
321.559226
 30
0.0
 11
564.51878
 21
348.302005
 31
0.0
  0
LINE
  5
43
100
AcDbEntity
  8
M04
100
AcDbLine
 10
589.910984
 20
313.010305
 30
0.0
 11
555.969859
 21
346.95143
 31
0.0
  0
LINE
  5
44
100
AcDbEntity
  8
M01
100
AcDbLine
 10
759.776001
 20
321.559226
 30
0.0
 11
786.51878
 21
348.302005
 31
0.0
  0
LINE
  5
45
100
AcDbEntity
  8
M04
100
AcDbLine
 10
761.126575
 20
313.010305
 30
0.0
 11
795.067701
 21
346.95143
 31
0.0
  0
LINE
  5
46
100
AcDbEntity
  8
M04
100
AcDbLine
 10
761.126575
 20
552.108147
 30
0.0
 11
795.067701
 21
518.167022
 31
0.0
  0
LINE
  5
47
100
AcDbEntity
  8
M01
100
AcDbLine
 10
759.776001
 20
543.559226
 30
0.0
 11
786.51878
 21
516.816448
 31
0.0
  0
DIMENSION
  5
48
100
AcDbEntity
  8
DIMS
100
AcDbDimension
  2
*D16
 10
545.51878
 20
73.022131
 30
0.0
 11
525.51878
 21
76.022131
 31
0.0
  1
%%c<> H7
  3
DIM1
100
AcDbAlignedDimension
 13
505.51878
 23
116.02182
 33
0.0
 14
545.51878
 24
116.02182
 34
0.0
100
AcDbRotatedDimension
1001
ACAD
1000
DSTYLE
1002
{
1070
   144
1040
1.0
1002
}
  0
HATCH
  5
56
100
AcDbEntity
  8
DIMS
100
AcDbHatch
 10
0.0
 20
0.0
 30
0.0
210
0.0
220
0.0
230
1.0
  2
_U
 70
     0
 71
     1
 91
       10
 92
       23
 72
     0
 73
     1
 93
        4
 10
375.5187795381627
 20
179.5218204909275
 10
375.5187795381627
 20
191.0218204909276
 10
304.5187795381627
 20
191.0218204909276
 10
304.5187795381627
 20
179.5218204909275
 97
        4
330
442
330
358
330
357
330
34C
 92
        7
 72
     1
 73
     1
 93
       25
 10
300.5187795381627
 20
171.5218204909275
 42
-0.4142135623730951
 10
296.5187795381627
 20
175.5218204909275
 42
0.0
 10
296.5187795381627
 20
191.0218204909276
 42
0.0
 10
281.5187795381627
 20
191.0218204909276
 42
0.0
 10
281.5187795381627
 20
187.0218204909278
 42
-1.0
 10
273.5187795381627
 20
187.0218204909278
 42
0.0
 10
273.5187795381627
 20
191.0218204909276
 42
0.0
 10
269.1687795381628
 20
191.0218204909276
 42
0.0
 10
267.1687795381628
 20
189.0218204909276
 42
0.0
 10
267.1687795381628
 20
133.0218204909276
 42
0.0
 10
269.1687795381628
 20
131.0218204909276
 42
0.0
 10
273.5187795381627
 20
131.0218204909276
 42
0.0
 10
273.5187795381627
 20
135.0218204909275
 42
-1.0
 10
281.5187795381627
 20
135.0218204909275
 42
0.0
 10
281.5187795381627
 20
131.0218204909276
 42
0.0
 10
286.5187795381627
 20
131.0218204909276
 42
0.0
 10
286.5187795381627
 20
131.3218204909276
 42
0.0
 10
287.2187795381628
 20
132.0218204909276
 42
0.0
 10
313.8187795381627
 20
132.0218204909276
 42
0.0
 10
314.5187795381627
 20
131.3218204909276
 42
0.0
 10
314.5187795381627
 20
131.0218204909276
 42
0.0
 10
375.5187795381627
 20
131.0218204909276
 42
0.0
 10
375.5187795381627
 20
154.0218204909274
 42
-0.4142135623730951
 10
371.5187795381627
 20
158.0218204909274
 42
0.0
 10
371.5187795381628
 20
171.5218204909275
 42
0.0
 97
       22
330
34A
330
35A
330
359
330
442
330
383
330
385
330
384
330
43D
330
440
330
43E
330
441
330
37B
330
37C
330
37A
330
3F7
330
3F6
330
3FC
330
3F1
330
3F2
330
34C
330
351
330
350
 92
        7
 72
     0
 73
     1
 93
        4
 10
292.6598975507057
 20
131.0218204909276
 10
292.3598975507058
 20
131.3218204909276
 10
286.5187795381627
 20
131.3218204909276
 10
286.5187795381627
 20
131.0218204909276
 97
        4
330
3F0
330
3F7
330
441
330
3E8
 92
       23
 72
     0
 73
     1
 93
        4
 10
292.3598975507057
 20
131.3218204909276
 10
291.6598975507056
 20
132.0218204909275
 10
287.2187795381628
 20
132.0218204909276
 10
286.5187795381627
 20
131.3218204909276
 97
        4
330
3FC
330
3F6
330
3F0
330
3DD
 92
       23
 72
     0
 73
     1
 93
        4
 10
308.37766152562
 20
131.0218204909277
 10
308.6776615256198
 20
131.3218204909276
 10
300.5187795381628
 20
131.3218204909276
 10
300.5187795381629
 20
131.0218204909276
 97
        4
330
3F0
330
3FE
330
441
330
3EA
 92
       23
 72
     0
 73
     1
 93
        4
 10
308.6776615256199
 20
131.3218204909276
 10
309.3776615256199
 20
132.0218204909275
 10
300.5187795381627
 20
132.0218204909275
 10
300.5187795381627
 20
131.3218204909276
 97
        4
330
3FC
330
3FE
330
3F0
330
3DE
 92
        7
 72
     0
 73
     1
 93
        4
 10
292.3598975507058
 20
131.3218204909276
 10
292.6598975507057
 20
131.0218204909276
 10
300.5187795381627
 20
131.0218204909276
 10
300.5187795381627
 20
131.3218204909276
 97
        4
330
3F0
330
3E8
330
441
330
3FE
 92
       23
 72
     0
 73
     1
 93
        4
 10
300.5187795381627
 20
131.3218204909276
 10
300.5187795381628
 20
132.0218204909276
 10
291.6598975507056
 20
132.0218204909276
 10
292.3598975507056
 20
131.3218204909276
 97
        4
330
3FC
330
3DD
330
3F0
330
3FE
 92
       23
 72
     0
 73
     1
 93
        4
 10
309.3776615256199
 20
132.0218204909276
 10
308.6776615256198
 20
131.3218204909276
 10
314.5187795381628
 20
131.3218204909276
 10
313.8187795381627
 20
132.0218204909276
 97
        4
330
3FC
330
3DE
330
3F0
330
3F1
 92
       23
 72
     0
 73
     1
 93
        4
 10
308.6776615256199
 20
131.3218204909276
 10
308.37766152562
 20
131.0218204909276
 10
314.5187795381628
 20
131.0218204909276
 10
314.5187795381628
 20
131.3218204909276
 97
        4
330
3F0
330
3EA
330
441
330
3F2
 75
     0
 76
     0
 52
135.0
 41
6.0
 77
     0
 78
     1
 53
135.0
 43
0.0
 44
34.695361
 45
-4.242640687119285
 46
-4.242640687119284
 79
     0
 47
0.02856
 98
       10
 10
344.98532
 20
183.609409
 10
341.948024
 20
163.641198
 10
290.950134
 20
131.159352
 10
290.83585
 20
131.473509
 10
306.978428
 20
131.159352
 10
306.949855
 20
131.616307
 10
299.207134
 20
131.216472
 10
299.235704
 20
131.616307
 10
310.321224
 20
131.701987
 10
309.57838
 20
131.187912
  0
HATCH
  5
57
100
AcDbEntity
  8
DIMS
100
AcDbHatch
 10
0.0
 20
0.0
 30
0.0
210
0.0
220
0.0
230
1.0
  2
_U
 70
     0
 71
     1
 91
       11
 92
        7
 72
     0
 73
     1
 93
        4
 10
882.5597371111587
 20
432.5592260810632
 10
871.0597371111591
 20
432.5592260810631
 10
871.0597371111587
 20
361.5592260810632
 10
882.5597371111584
 20
361.5592260810632
 97
        4
330
643
330
652
330
55F
330
254
 92
        7
 72
     1
 73
     1
 93
       27
 10
931.0597371111587
 20
432.5592260810632
 42
0.0
 10
908.0597371111586
 20
432.5592260810632
 42
-0.4142135623730951
 10
904.0597371111587
 20
428.5592260810632
 42
0.0
 10
890.5597371111587
 20
428.5592260810632
 42
0.0
 10
890.5597371111587
 20
357.5592260810632
 42
-0.4142135623730951
 10
886.5597371111586
 20
353.5592260810632
 42
0.0
 10
871.0597371111591
 20
353.5592260810631
 42
0.0
 10
871.0597371111589
 20
338.5592260810633
 42
0.0
 10
875.0597371111588
 20
338.5592260810632
 42
-0.4142135623730784
 10
879.0597371111585
 20
334.5592260810632
 42
-0.4142135623730951
 10
875.0597371111586
 20
330.5592260810632
 42
0.0
 10
871.0597371111591
 20
330.5592260810632
 42
0.0
 10
871.0597371111587
 20
327.2992260810632
 42
0.0
 10
873.0597371111588
 20
325.2992260810632
 42
0.0
 10
929.0597371111587
 20
325.2992260810632
 42
0.0
 10
931.0597371111587
 20
327.2992260810632
 42
0.0
 10
931.0597371111587
 20
330.5592260810632
 42
0.0
 10
927.0597371111584
 20
330.5592260810632
 42
-0.4142135623730951
 10
923.0597371111585
 20
334.5592260810632
 42
-0.4142135623730951
 10
927.0597371111584
 20
338.5592260810632
 42
0.0
 10
931.0597371111587
 20
338.5592260810632
 42
0.0
 10
931.0597371111589
 20
343.5592260810632
 42
0.0
 10
930.7597371111587
 20
343.5592260810632
 42
0.0
 10
930.0597371111585
 20
344.2592260810634
 42
0.0
 10
930.0597371111585
 20
370.8592260810628
 42
0.0
 10
930.7597371111587
 20
371.5592260810633
 42
0.0
 10
931.0597371111587
 20
371.5592260810633
 42
0.0
 97
       22
330
643
330
24D
330
640
330
253
330
251
330
55E
330
652
330
55B
330
55D
330
55A
330
64E
330
650
330
64B
330
64F
330
558
330
55C
330
559
330
626
330
625
330
62B
330
620
330
621
 92
       22
 72
     0
 73
     1
 93
        4
 10
930.7597371111587
 20
371.5592260810631
 10
930.0597371111585
 20
370.8592260810631
 10
930.0597371111589
 20
366.4181080685202
 10
930.7597371111587
 20
365.7181080685202
 97
        4
330
620
330
62B
330
60D
330
61F
 92
       22
 72
     0
 73
     1
 93
        4
 10
931.0597371111587
 20
371.5592260810633
 10
930.7597371111587
 20
371.5592260810632
 10
930.7597371111587
 20
365.7181080685205
 10
931.0597371111585
 20
365.4181080685202
 97
        4
330
621
330
61F
330
619
330
64F
 92
       23
 72
     0
 73
     1
 93
        4
 10
930.7597371111587
 20
365.7181080685203
 10
930.0597371111585
 20
366.4181080685202
 10
930.0597371111585
 20
357.5592260810631
 10
930.7597371111587
 20
357.5592260810631
 97
        4
330
60D
330
62B
330
24A
330
61F
 92
       23
 72
     0
 73
     1
 93
        4
 10
931.0597371111589
 20
365.4181080685204
 10
930.7597371111587
 20
365.7181080685202
 10
930.7597371111587
 20
357.5592260810631
 10
931.0597371111587
 20
357.559226081063
 97
        4
330
619
330
61F
330
24A
330
64F
 92
       23
 72
     0
 73
     1
 93
        4
 10
930.7597371111587
 20
357.5592260810632
 10
930.0597371111587
 20
357.5592260810632
 10
930.0597371111585
 20
348.7003440936059
 10
930.7597371111587
 20
349.4003440936062
 97
        4
330
24A
330
62B
330
60C
330
61F
 92
       23
 72
     0
 73
     1
 93
        4
 10
931.0597371111589
 20
357.5592260810632
 10
930.7597371111587
 20
357.5592260810632
 10
930.7597371111587
 20
349.400344093606
 10
931.0597371111585
 20
349.700344093606
 97
        4
330
24A
330
61F
330
617
330
64F
 92
       23
 72
     0
 73
     1
 93
        4
 10
930.7597371111587
 20
349.4003440936061
 10
930.0597371111585
 20
348.7003440936059
 10
930.0597371111585
 20
344.2592260810633
 10
930.7597371111587
 20
343.5592260810631
 97
        4
330
60C
330
62B
330
625
330
61F
 92
       23
 72
     0
 73
     1
 93
        4
 10
931.0597371111587
 20
349.700344093606
 10
930.7597371111587
 20
349.4003440936061
 10
930.7597371111587
 20
343.5592260810632
 10
931.0597371111587
 20
343.5592260810632
 97
        4
330
617
330
61F
330
626
330
64F
 92
       24
 93
        4
 72
     1
 10
896.322335
 20
339.247076
 11
910.522335
 21
339.247076
 72
     1
 10
910.522335
 20
339.247076
 11
910.522335
 21
342.247076
 72
     1
 10
910.522335
 20
342.247076
 11
896.322335
 21
342.247076
 72
     1
 10
896.322335
 20
342.247076
 11
896.322335
 21
339.247076
 97
        1
330
23D
 75
     0
 76
     0
 52
135.0
 41
6.0
 77
     0
 78
     1
 53
135.0
 43
0.0
 44
0.0
 45
-4.242640687119285
 46
-4.242640687119284
 79
     0
 47
0.046705
 98
       10
 10
879.071816
 20
410.854963
 10
910.986413
 20
387.653459
 10
930.430199
 20
368.788892
 10
930.944162
 20
368.742188
 10
930.430199
 20
364.632104
 10
930.990885
 20
364.67881
 10
930.383476
 20
353.562905
 10
930.897439
 20
353.749727
 10
930.57037
 20
347.958247
 10
930.990885
 20
348.565418
  0
HATCH
  5
58
100
AcDbEntity
  8
DIMS
100
AcDbHatch
 10
0.0
 20
0.0
 30
0.0
210
0.0
220
0.0
230
1.0
  2
_U
 70
     0
 71
     1
 91
        2
 92
        7
 72
     0
 73
     1
 93
       11
 10
938.0597371111592
 20
368.0592260810636
 10
938.0597371111592
 20
370.8592260810627
 10
937.3597371111587
 20
371.5592260810631
 10
931.7597371111586
 20
371.5592260810633
 10
931.0597371111585
 20
370.8592260810632
 10
931.0597371111587
 20
365.4181080685203
 10
935.4186190986157
 20
361.0592260810632
 10
938.0597371111591
 20
361.0592260810631
 10
938.0597371111591
 20
364.0592260810634
 10
937.0597371111587
 20
365.0592260810636
 10
937.0597371111587
 20
367.0592260810633
 97
       10
330
644
330
623
330
624
330
622
330
64F
330
619
330
614
330
556
330
557
330
555
 92
        7
 72
     0
 73
     1
 93
       11
 10
937.0597371111585
 20
350.0592260810627
 10
938.0597371111589
 20
351.0592260810627
 10
938.0597371111589
 20
354.0592260810631
 10
935.4186190986157
 20
354.0592260810631
 10
931.0597371111589
 20
349.7003440936062
 10
931.0597371111589
 20
344.2592260810631
 10
931.7597371111585
 20
343.5592260810631
 10
937.3597371111589
 20
343.5592260810633
 10
938.0597371111589
 20
344.2592260810632
 10
938.0597371111591
 20
347.0592260810631
 10
937.0597371111585
 20
348.0592260810634
 97
       10
330
553
330
5FD
330
615
330
617
330
64F
330
627
330
62C
330
628
330
552
330
554
 75
     0
 76
     0
 52
135.0
 41
1.5
 77
     0
 78
     1
 53
135.0
 43
0.0
 44
0.0
 45
-1.060660171779821
 46
-1.060660171779821
 79
     0
 47
0.119576
 98
        2
 10
934.509699
 20
367.49565
 10
934.629321
 20
348.722263
  0
DIMENSION
  5
59
100
AcDbEntity
  8
DIMS
100
AcDbDimension
  2
*D15
 10
517.976626
 20
335.356214
 30
0.0
 11
493.227889
 21
314.850117
 31
0.0
 70
     1
  1
W=<>
  3
DIM1
100
AcDbAlignedDimension
 13
441.263946
 23
321.559226
 33
0.0
 14
486.51878
 24
366.81406
 34
0.0
1001
ACAD
1000
DSTYLE
1002
{
1070
   144
1040
1.0
1002
}
  0
DIMENSION
  5
66
100
AcDbEntity
  8
DIMS
100
AcDbDimension
  2
*D14
 10
786.51878
 20
674.954702
 30
0.0
 11
525.51878
 21
677.954702
 31
0.0
  1
L=<>
  3
DIM1
100
AcDbAlignedDimension
 13
264.51878
 23
516.816448
 33
0.0
 14
786.51878
 24
516.816448
 34
0.0
100
AcDbRotatedDimension
1001
ACAD
1000
DSTYLE
1002
{
1070
   144
1040
1.0
1002
}
  0
DIMENSION
  5
73
100
AcDbEntity
  8
DIMS
100
AcDbDimension
  2
*D13
 10
750.51878
 20
665.311891
 30
0.0
 11
675.51878
 21
668.311891
 31
0.0
  1
A=<>
  3
DIM1
100
AcDbAlignedDimension
 13
600.51878
 23
524.259226
 33
0.0
 14
750.51878
 24
524.259226
 34
0.0
100
AcDbRotatedDimension
1001
ACAD
1000
DSTYLE
1002
{
1070
    75
1070
     1
1070
   144
1040
1.0
1070
   287
1070
     4
1002
}
  0
DIMENSION
  5
7F
100
AcDbEntity
  8
DIMS
100
AcDbDimension
  2
*D12
 10
600.51878
 20
665.311891
 30
0.0
 11
525.51878
 21
668.311891
 31
0.0
  1
B=<>
  3
DIM1
100
AcDbAlignedDimension
 13
450.51878
 23
524.259226
 33
0.0
 14
600.51878
 24
524.259226
 34
0.0
100
AcDbRotatedDimension
1001
ACAD
1000
DSTYLE
1002
{
1070
    75
1070
     1
1070
   144
1040
1.0
1070
   287
1070
     4
1002
}
  0
DIMENSION
  5
8B
100
AcDbEntity
  8
DIMS
100
AcDbDimension
  2
*D11
 10
450.51878
 20
665.311891
 30
0.0
 11
375.51878
 21
668.311891
 31
0.0
  1
A=<>
  3
DIM1
100
AcDbAlignedDimension
 13
300.51878
 23
524.259226
 33
0.0
 14
450.51878
 24
524.259226
 34
0.0
100
AcDbRotatedDimension
1001
ACAD
1000
DSTYLE
1002
{
1070
   144
1040
1.0
1002
}
  0
DIMENSION
  5
98
100
AcDbEntity
  8
DIMS
100
AcDbDimension
  2
*D10
 10
199.931152
 20
543.559226
 30
0.0
 11
196.931152
 21
432.559226
 31
0.0
  1
L1=<>
  3
DIM1
100
AcDbAlignedDimension
 13
291.261558
 23
321.559226
 33
0.0
 14
291.261558
 24
543.559226
 34
0.0
 50
90.0
100
AcDbRotatedDimension
1001
ACAD
1000
DSTYLE
1002
{
1070
   144
1040
1.0
1002
}
  0
DIMENSION
  5
A5
100
AcDbEntity
  8
DIMS
100
AcDbDimension
  2
*D9
 10
210.196662
 20
507.559226
 30
0.0
 11
207.196662
 21
432.559226
 31
0.0
  1
C=<>
  3
DIM1
100
AcDbAlignedDimension
 13
283.81878
 23
357.559226
 33
0.0
 14
283.81878
 24
507.559226
 34
0.0
 50
90.0
100
AcDbRotatedDimension
1001
ACAD
1000
DSTYLE
1002
{
1070
   144
1040
1.0
1002
}
  0
LINE
  5
B2
100
AcDbEntity
  8
DIMS
 62
     4
100
AcDbLine
 10
551.51878
 20
382.959226
 30
0.0
 11
551.51878
 21
387.759226
 31
0.0
  0
LINE
  5
B3
100
AcDbEntity
  8
DIMS
 62
     4
100
AcDbLine
 10
551.51878
 20
376.159226
 30
0.0
 11
551.51878
 21
371.359226
 31
0.0
  0
LINE
  5
B4
100
AcDbEntity
  8
DIMS
 62
     4
100
AcDbLine
 10
554.91878
 20
379.559226
 30
0.0
 11
559.71878
 21
379.559226
 31
0.0
  0
LINE
  5
B5
100
AcDbEntity
  8
DIMS
 62
     4
100
AcDbLine
 10
548.11878
 20
379.559226
 30
0.0
 11
543.31878
 21
379.559226
 31
0.0
  0
LINE
  5
B6
100
AcDbEntity
  8
DIMS
 62
     4
100
AcDbLine
 10
551.51878
 20
377.859226
 30
0.0
 11
551.51878
 21
381.259226
 31
0.0
  0
LINE
  5
B7
100
AcDbEntity
  8
DIMS
 62
     4
100
AcDbLine
 10
549.81878
 20
379.559226
 30
0.0
 11
553.21878
 21
379.559226
 31
0.0
  0
LINE
  5
B8
100
AcDbEntity
  8
DIMS
 62
     4
100
AcDbLine
 10
499.51878
 20
382.959226
 30
0.0
 11
499.51878
 21
387.759226
 31
0.0
  0
LINE
  5
B9
100
AcDbEntity
  8
DIMS
 62
     4
100
AcDbLine
 10
499.51878
 20
376.159226
 30
0.0
 11
499.51878
 21
371.359226
 31
0.0
  0
LINE
  5
BA
100
AcDbEntity
  8
DIMS
 62
     4
100
AcDbLine
 10
502.91878
 20
379.559226
 30
0.0
 11
507.71878
 21
379.559226
 31
0.0
  0
LINE
  5
BB
100
AcDbEntity
  8
DIMS
 62
     4
100
AcDbLine
 10
496.11878
 20
379.559226
 30
0.0
 11
491.31878
 21
379.559226
 31
0.0
  0
LINE
  5
BC
100
AcDbEntity
  8
DIMS
 62
     4
100
AcDbLine
 10
499.51878
 20
377.859226
 30
0.0
 11
499.51878
 21
381.259226
 31
0.0
  0
LINE
  5
BD
100
AcDbEntity
  8
DIMS
 62
     4
100
AcDbLine
 10
497.81878
 20
379.559226
 30
0.0
 11
501.21878
 21
379.559226
 31
0.0
  0
CIRCLE
  5
BE
100
AcDbEntity
  8
M04
100
AcDbCircle
 10
499.51878
 20
379.559226
 30
0.0
 40
6.5
  0
CIRCLE
  5
BF
100
AcDbEntity
  8
M04
100
AcDbCircle
 10
551.51878
 20
379.559226
 30
0.0
 40
6.5
  0
LINE
  5
C0
100
AcDbEntity
  8
DIMS
 62
     4
100
AcDbLine
 10
335.91878
 20
546.559226
 30
0.0
 11
340.71878
 21
546.559226
 31
0.0
  0
LINE
  5
C1
100
AcDbEntity
  8
DIMS
 62
     4
100
AcDbLine
 10
418.51878
 20
543.159226
 30
0.0
 11
418.51878
 21
538.359226
 31
0.0
  0
LINE
  5
C2
100
AcDbEntity
  8
DIMS
 62
     4
100
AcDbLine
 10
418.51878
 20
549.959226
 30
0.0
 11
418.51878
 21
554.759226
 31
0.0
  0
LINE
  5
C3
100
AcDbEntity
  8
DIMS
 62
     4
100
AcDbLine
 10
421.91878
 20
546.559226
 30
0.0
 11
426.71878
 21
546.559226
 31
0.0
  0
LINE
  5
C4
100
AcDbEntity
  8
DIMS
 62
     4
100
AcDbLine
 10
415.11878
 20
546.559226
 30
0.0
 11
410.31878
 21
546.559226
 31
0.0
  0
LINE
  5
C5
100
AcDbEntity
  8
DIMS
 62
     4
100
AcDbLine
 10
418.51878
 20
548.259226
 30
0.0
 11
418.51878
 21
544.859226
 31
0.0
  0
LINE
  5
C6
100
AcDbEntity
  8
DIMS
 62
     4
100
AcDbLine
 10
416.81878
 20
546.559226
 30
0.0
 11
420.21878
 21
546.559226
 31
0.0
  0
CIRCLE
  5
C7
100
AcDbEntity
  8
M04
100
AcDbCircle
 10
418.51878
 20
546.559226
 30
0.0
 40
6.5
  0
LINE
  5
C8
100
AcDbEntity
  8
DIMS
 62
     4
100
AcDbLine
 10
450.51878
 20
360.959226
 30
0.0
 11
450.51878
 21
374.259226
 31
0.0
  0
LINE
  5
C9
100
AcDbEntity
  8
DIMS
 62
     4
100
AcDbLine
 10
450.51878
 20
354.159226
 30
0.0
 11
450.51878
 21
340.859226
 31
0.0
  0
LINE
  5
CA
100
AcDbEntity
  8
DIMS
 62
     4
100
AcDbLine
 10
447.11878
 20
357.559226
 30
0.0
 11
433.81878
 21
357.559226
 31
0.0
  0
LINE
  5
CB
100
AcDbEntity
  8
DIMS
 62
     4
100
AcDbLine
 10
453.91878
 20
357.559226
 30
0.0
 11
467.21878
 21
357.559226
 31
0.0
  0
LINE
  5
CC
100
AcDbEntity
  8
DIMS
 62
     4
100
AcDbLine
 10
450.51878
 20
355.859226
 30
0.0
 11
450.51878
 21
359.259226
 31
0.0
  0
LINE
  5
CD
100
AcDbEntity
  8
DIMS
 62
     4
100
AcDbLine
 10
452.21878
 20
357.559226
 30
0.0
 11
448.81878
 21
357.559226
 31
0.0
  0
LINE
  5
CE
100
AcDbEntity
  8
DIMS
 62
     4
100
AcDbLine
 10
300.51878
 20
360.959226
 30
0.0
 11
300.51878
 21
374.259226
 31
0.0
  0
LINE
  5
CF
100
AcDbEntity
  8
DIMS
 62
     4
100
AcDbLine
 10
300.51878
 20
354.159226
 30
0.0
 11
300.51878
 21
340.859226
 31
0.0
  0
LINE
  5
D0
100
AcDbEntity
  8
DIMS
 62
     4
100
AcDbLine
 10
297.11878
 20
357.559226
 30
0.0
 11
283.81878
 21
357.559226
 31
0.0
  0
LINE
  5
D1
100
AcDbEntity
  8
DIMS
 62
     4
100
AcDbLine
 10
303.91878
 20
357.559226
 30
0.0
 11
317.21878
 21
357.559226
 31
0.0
  0
LINE
  5
D2
100
AcDbEntity
  8
DIMS
 62
     4
100
AcDbLine
 10
300.51878
 20
355.859226
 30
0.0
 11
300.51878
 21
359.259226
 31
0.0
  0
LINE
  5
D3
100
AcDbEntity
  8
DIMS
 62
     4
100
AcDbLine
 10
302.21878
 20
357.559226
 30
0.0
 11
298.81878
 21
357.559226
 31
0.0
  0
LINE
  5
D4
100
AcDbEntity
  8
DIMS
 62
     4
100
AcDbLine
 10
300.51878
 20
510.959226
 30
0.0
 11
300.51878
 21
524.259226
 31
0.0
  0
LINE
  5
D5
100
AcDbEntity
  8
DIMS
 62
     4
100
AcDbLine
 10
300.51878
 20
504.159226
 30
0.0
 11
300.51878
 21
490.859226
 31
0.0
  0
LINE
  5
D6
100
AcDbEntity
  8
DIMS
 62
     4
100
AcDbLine
 10
297.11878
 20
507.559226
 30
0.0
 11
283.81878
 21
507.559226
 31
0.0
  0
LINE
  5
D7
100
AcDbEntity
  8
DIMS
 62
     4
100
AcDbLine
 10
303.91878
 20
507.559226
 30
0.0
 11
317.21878
 21
507.559226
 31
0.0
  0
LINE
  5
D8
100
AcDbEntity
  8
DIMS
 62
     4
100
AcDbLine
 10
300.51878
 20
505.859226
 30
0.0
 11
300.51878
 21
509.259226
 31
0.0
  0
LINE
  5
D9
100
AcDbEntity
  8
DIMS
 62
     4
100
AcDbLine
 10
302.21878
 20
507.559226
 30
0.0
 11
298.81878
 21
507.559226
 31
0.0
  0
LINE
  5
DA
100
AcDbEntity
  8
DIMS
 62
     4
100
AcDbLine
 10
450.51878
 20
510.959226
 30
0.0
 11
450.51878
 21
524.259226
 31
0.0
  0
LINE
  5
DB
100
AcDbEntity
  8
DIMS
 62
     4
100
AcDbLine
 10
450.51878
 20
504.159226
 30
0.0
 11
450.51878
 21
490.859226
 31
0.0
  0
LINE
  5
DC
100
AcDbEntity
  8
DIMS
 62
     4
100
AcDbLine
 10
447.11878
 20
507.559226
 30
0.0
 11
433.81878
 21
507.559226
 31
0.0
  0
LINE
  5
DD
100
AcDbEntity
  8
DIMS
 62
     4
100
AcDbLine
 10
453.91878
 20
507.559226
 30
0.0
 11
467.21878
 21
507.559226
 31
0.0
  0
LINE
  5
DE
100
AcDbEntity
  8
DIMS
 62
     4
100
AcDbLine
 10
450.51878
 20
505.859226
 30
0.0
 11
450.51878
 21
509.259226
 31
0.0
  0
LINE
  5
DF
100
AcDbEntity
  8
DIMS
 62
     4
100
AcDbLine
 10
452.21878
 20
507.559226
 30
0.0
 11
448.81878
 21
507.559226
 31
0.0
  0
CIRCLE
  5
E0
100
AcDbEntity
  8
M03
100
AcDbCircle
 10
450.51878
 20
357.559226
 30
0.0
 40
15.0
  0
CIRCLE
  5
E3
100
AcDbEntity
  8
M03
100
AcDbCircle
 10
450.51878
 20
357.559226
 30
0.0
 40
14.0
  0
CIRCLE
  5
E4
100
AcDbEntity
  8
M03
100
AcDbCircle
 10
300.51878
 20
357.559226
 30
0.0
 40
15.0
  0
CIRCLE
  5
E5
100
AcDbEntity
  8
M03
100
AcDbCircle
 10
300.51878
 20
357.559226
 30
0.0
 40
14.0
  0
CIRCLE
  5
E6
100
AcDbEntity
  8
M03
100
AcDbCircle
 10
450.51878
 20
507.559226
 30
0.0
 40
15.0
  0
CIRCLE
  5
E7
100
AcDbEntity
  8
M03
100
AcDbCircle
 10
450.51878
 20
507.559226
 30
0.0
 40
14.0
  0
LINE
  5
E8
100
AcDbEntity
  8
DIMS
 62
     4
100
AcDbLine
 10
499.51878
 20
482.159226
 30
0.0
 11
499.51878
 21
477.359226
 31
0.0
  0
LINE
  5
E9
100
AcDbEntity
  8
DIMS
 62
     4
100
AcDbLine
 10
499.51878
 20
488.959226
 30
0.0
 11
499.51878
 21
493.759226
 31
0.0
  0
LINE
  5
EA
100
AcDbEntity
  8
DIMS
 62
     4
100
AcDbLine
 10
502.91878
 20
485.559226
 30
0.0
 11
507.71878
 21
485.559226
 31
0.0
  0
LINE
  5
EB
100
AcDbEntity
  8
DIMS
 62
     4
100
AcDbLine
 10
496.11878
 20
485.559226
 30
0.0
 11
491.31878
 21
485.559226
 31
0.0
  0
LINE
  5
EC
100
AcDbEntity
  8
DIMS
 62
     4
100
AcDbLine
 10
499.51878
 20
487.259226
 30
0.0
 11
499.51878
 21
483.859226
 31
0.0
  0
LINE
  5
ED
100
AcDbEntity
  8
DIMS
 62
     4
100
AcDbLine
 10
497.81878
 20
485.559226
 30
0.0
 11
501.21878
 21
485.559226
 31
0.0
  0
CIRCLE
  5
EE
100
AcDbEntity
  8
M04
100
AcDbCircle
 10
499.51878
 20
485.559226
 30
0.0
 40
6.5
  0
LINE
  5
EF
100
AcDbEntity
  8
DIMS
 62
     4
100
AcDbLine
 10
265.163441
 20
468.803887
 30
0.0
 11
265.163441
 21
464.003887
 31
0.0
  0
LINE
  5
F0
100
AcDbEntity
  8
DIMS
 62
     4
100
AcDbLine
 10
265.163441
 20
475.603887
 30
0.0
 11
265.163441
 21
480.403887
 31
0.0
  0
LINE
  5
F1
100
AcDbEntity
  8
DIMS
 62
     4
100
AcDbLine
 10
261.763441
 20
472.203887
 30
0.0
 11
256.963441
 21
472.203887
 31
0.0
  0
LINE
  5
F2
100
AcDbEntity
  8
DIMS
 62
     4
100
AcDbLine
 10
268.563441
 20
472.203887
 30
0.0
 11
273.363441
 21
472.203887
 31
0.0
  0
LINE
  5
F3
100
AcDbEntity
  8
DIMS
 62
     4
100
AcDbLine
 10
265.163441
 20
473.903887
 30
0.0
 11
265.163441
 21
470.503887
 31
0.0
  0
LINE
  5
F4
100
AcDbEntity
  8
DIMS
 62
     4
100
AcDbLine
 10
266.863441
 20
472.203887
 30
0.0
 11
263.463441
 21
472.203887
 31
0.0
  0
LINE
  5
F5
100
AcDbEntity
  8
DIMS
 62
     4
100
AcDbLine
 10
332.51878
 20
543.159226
 30
0.0
 11
332.51878
 21
538.359226
 31
0.0
  0
LINE
  5
F6
100
AcDbEntity
  8
DIMS
 62
     4
100
AcDbLine
 10
332.51878
 20
549.959226
 30
0.0
 11
332.51878
 21
554.759226
 31
0.0
  0
LINE
  5
F7
100
AcDbEntity
  8
DIMS
 62
     4
100
AcDbLine
 10
329.11878
 20
546.559226
 30
0.0
 11
324.31878
 21
546.559226
 31
0.0
  0
LINE
  5
F8
100
AcDbEntity
  8
DIMS
 62
     4
100
AcDbLine
 10
332.51878
 20
548.259226
 30
0.0
 11
332.51878
 21
544.859226
 31
0.0
  0
LINE
  5
F9
100
AcDbEntity
  8
DIMS
 62
     4
100
AcDbLine
 10
334.21878
 20
546.559226
 30
0.0
 11
330.81878
 21
546.559226
 31
0.0
  0
CIRCLE
  5
FA
100
AcDbEntity
  8
M04
100
AcDbCircle
 10
265.163441
 20
472.203887
 30
0.0
 40
6.5
  0
CIRCLE
  5
FB
100
AcDbEntity
  8
M04
100
AcDbCircle
 10
332.51878
 20
546.559226
 30
0.0
 40
6.5
  0
LINE
  5
FC
100
AcDbEntity
  8
DIMS
 62
     4
100
AcDbLine
 10
415.163441
 20
325.603887
 30
0.0
 11
415.163441
 21
330.403887
 31
0.0
  0
LINE
  5
FD
100
AcDbEntity
  8
DIMS
 62
     4
100
AcDbLine
 10
415.163441
 20
318.803887
 30
0.0
 11
415.163441
 21
314.003887
 31
0.0
  0
LINE
  5
FE
100
AcDbEntity
  8
DIMS
 62
     4
100
AcDbLine
 10
418.563441
 20
322.203887
 30
0.0
 11
423.363441
 21
322.203887
 31
0.0
  0
LINE
  5
FF
100
AcDbEntity
  8
DIMS
 62
     4
100
AcDbLine
 10
411.763441
 20
322.203887
 30
0.0
 11
406.963441
 21
322.203887
 31
0.0
  0
LINE
  5
100
100
AcDbEntity
  8
DIMS
 62
     4
100
AcDbLine
 10
415.163441
 20
320.503887
 30
0.0
 11
415.163441
 21
323.903887
 31
0.0
  0
LINE
  5
101
100
AcDbEntity
  8
DIMS
 62
     4
100
AcDbLine
 10
413.463441
 20
322.203887
 30
0.0
 11
416.863441
 21
322.203887
 31
0.0
  0
CIRCLE
  5
102
100
AcDbEntity
  8
M04
100
AcDbCircle
 10
415.163441
 20
322.203887
 30
0.0
 40
6.5
  0
ARC
  5
103
100
AcDbEntity
  8
M04
100
AcDbCircle
 10
484.744176
 20
385.559226
 30
0.0
 40
5.0
100
AcDbArc
 50
90.0
 51
225.0
  0
ARC
  5
104
100
AcDbEntity
  8
M04
100
AcDbCircle
 10
375.518779
 20
370.333829
 30
0.0
 40
5.0
100
AcDbArc
 50
45.0
 51
135.0
  0
ARC
  5
105
100
AcDbEntity
  8
M04
100
AcDbCircle
 10
313.293383
 20
432.559226
 30
0.0
 40
5.0
100
AcDbArc
 50
315.0
 51
45.0
  0
ARC
  5
106
100
AcDbEntity
  8
M04
100
AcDbCircle
 10
338.51878
 20
531.784623
 30
0.0
 40
5.0
100
AcDbArc
 50
225.0
 51
0.0
  0
ARC
  5
107
100
AcDbEntity
  8
M04
100
AcDbCircle
 10
412.51878
 20
531.784623
 30
0.0
 40
5.0
100
AcDbArc
 50
180.0
 51
315.0
  0
ARC
  5
108
100
AcDbEntity
  8
M04
100
AcDbCircle
 10
484.744176
 20
479.559226
 30
0.0
 40
5.0
100
AcDbArc
 50
135.0
 51
270.0
  0
ARC
  5
109
100
AcDbEntity
  8
M01
100
AcDbCircle
 10
484.744176
 20
479.559226
 30
0.0
 40
12.0
100
AcDbArc
 50
135.0
 51
270.0
  0
ARC
  5
10A
100
AcDbEntity
  8
M01
100
AcDbCircle
 10
484.744176
 20
385.559226
 30
0.0
 40
12.0
100
AcDbArc
 50
90.0
 51
225.0
  0
ARC
  5
10B
100
AcDbEntity
  8
M01
100
AcDbCircle
 10
375.518779
 20
370.333829
 30
0.0
 40
12.0
100
AcDbArc
 50
45.0
 51
135.0
  0
ARC
  5
10C
100
AcDbEntity
  8
M01
100
AcDbCircle
 10
313.293383
 20
432.559226
 30
0.0
 40
12.0
100
AcDbArc
 50
315.0
 51
45.0
  0
ARC
  5
10D
100
AcDbEntity
  8
M01
100
AcDbCircle
 10
341.51878
 20
528.784623
 30
0.0
 40
12.0
100
AcDbArc
 50
225.0
 51
360.0
  0
ARC
  5
10E
100
AcDbEntity
  8
M01
100
AcDbCircle
 10
409.51878
 20
528.784623
 30
0.0
 40
12.0
100
AcDbArc
 50
180.0
 51
315.0
  0
LINE
  5
10F
100
AcDbEntity
  8
M01
100
AcDbLine
 10
441.263946
 20
321.559226
 30
0.0
 11
459.776001
 21
321.559226
 31
0.0
  0
LINE
  5
110
100
AcDbEntity
  8
M01
100
AcDbLine
 10
486.51878
 20
348.302005
 30
0.0
 11
486.51878
 21
366.81406
 31
0.0
  0
LINE
  5
111
100
AcDbEntity
  8
M01
100
AcDbLine
 10
476.258895
 20
377.073945
 30
0.0
 11
486.51878
 21
366.81406
 31
0.0
  0
LINE
  5
112
100
AcDbEntity
  8
M01
100
AcDbLine
 10
384.004061
 20
378.819111
 30
0.0
 11
441.263946
 21
321.559226
 31
0.0
  0
LINE
  5
113
100
AcDbEntity
  8
M04
100
AcDbLine
 10
379.054313
 20
373.869363
 30
0.0
 11
439.913372
 21
313.010305
 31
0.0
  0
LINE
  5
114
100
AcDbEntity
  8
M04
100
AcDbLine
 10
481.208642
 20
382.023692
 30
0.0
 11
495.067701
 21
368.164634
 31
0.0
  0
LINE
  5
115
100
AcDbEntity
  8
M01
100
AcDbLine
 10
309.773614
 20
321.559226
 30
0.0
 11
291.261558
 21
321.559226
 31
0.0
  0
LINE
  5
116
100
AcDbEntity
  8
M01
100
AcDbLine
 10
264.51878
 20
348.302005
 30
0.0
 11
264.51878
 21
366.81406
 31
0.0
  0
LINE
  5
117
100
AcDbEntity
  8
M01
100
AcDbLine
 10
321.778664
 20
424.073945
 30
0.0
 11
264.51878
 21
366.81406
 31
0.0
  0
LINE
  5
118
100
AcDbEntity
  8
M01
100
AcDbLine
 10
367.033498
 20
378.819111
 30
0.0
 11
309.773614
 21
321.559226
 31
0.0
  0
LINE
  5
119
100
AcDbEntity
  8
M04
100
AcDbLine
 10
371.983246
 20
373.869363
 30
0.0
 11
311.124187
 21
313.010305
 31
0.0
  0
LINE
  5
11A
100
AcDbEntity
  8
M04
100
AcDbLine
 10
316.828917
 20
429.023692
 30
0.0
 11
255.969859
 21
368.164634
 31
0.0
  0
LINE
  5
11B
100
AcDbEntity
  8
M01
100
AcDbLine
 10
441.263946
 20
543.559226
 30
0.0
 11
459.776001
 21
543.559226
 31
0.0
  0
LINE
  5
11C
100
AcDbEntity
  8
M01
100
AcDbLine
 10
486.51878
 20
516.816448
 30
0.0
 11
486.51878
 21
498.304392
 31
0.0
  0
LINE
  5
11D
100
AcDbEntity
  8
M01
100
AcDbLine
 10
476.258895
 20
488.044507
 30
0.0
 11
486.51878
 21
498.304392
 31
0.0
  0
LINE
  5
11E
100
AcDbEntity
  8
M01
100
AcDbLine
 10
418.004061
 20
520.299341
 30
0.0
 11
441.263946
 21
543.559226
 31
0.0
  0
LINE
  5
11F
100
AcDbEntity
  8
M04
100
AcDbLine
 10
416.054313
 20
528.249089
 30
0.0
 11
439.913372
 21
552.108147
 31
0.0
  0
LINE
  5
120
100
AcDbEntity
  8
M04
100
AcDbLine
 10
481.208642
 20
483.09476
 30
0.0
 11
495.067701
 21
496.953818
 31
0.0
  0
LINE
  5
121
100
AcDbEntity
  8
M01
100
AcDbLine
 10
309.773614
 20
543.559226
 30
0.0
 11
291.261558
 21
543.559226
 31
0.0
  0
LINE
  5
122
100
AcDbEntity
  8
M01
100
AcDbLine
 10
264.51878
 20
516.816448
 30
0.0
 11
264.51878
 21
498.304392
 31
0.0
  0
LINE
  5
123
100
AcDbEntity
  8
M01
100
AcDbLine
 10
321.778664
 20
441.044508
 30
0.0
 11
264.51878
 21
498.304392
 31
0.0
  0
LINE
  5
124
100
AcDbEntity
  8
M01
100
AcDbLine
 10
333.033498
 20
520.299341
 30
0.0
 11
309.773614
 21
543.559226
 31
0.0
  0
LINE
  5
125
100
AcDbEntity
  8
M04
100
AcDbLine
 10
334.983246
 20
528.249089
 30
0.0
 11
311.124187
 21
552.108147
 31
0.0
  0
LINE
  5
126
100
AcDbEntity
  8
M04
100
AcDbLine
 10
316.828917
 20
436.09476
 30
0.0
 11
255.969859
 21
496.953818
 31
0.0
  0
LINE
  5
127
100
AcDbEntity
  8
DIMS
 62
     4
100
AcDbLine
 10
265.163441
 20
396.314565
 30
0.0
 11
265.163441
 21
401.114565
 31
0.0
  0
LINE
  5
128
100
AcDbEntity
  8
DIMS
 62
     4
100
AcDbLine
 10
265.163441
 20
389.514565
 30
0.0
 11
265.163441
 21
384.714565
 31
0.0
  0
LINE
  5
129
100
AcDbEntity
  8
DIMS
 62
     4
100
AcDbLine
 10
261.763441
 20
392.914565
 30
0.0
 11
256.963441
 21
392.914565
 31
0.0
  0
LINE
  5
12A
100
AcDbEntity
  8
DIMS
 62
     4
100
AcDbLine
 10
268.563441
 20
392.914565
 30
0.0
 11
273.363441
 21
392.914565
 31
0.0
  0
LINE
  5
12B
100
AcDbEntity
  8
DIMS
 62
     4
100
AcDbLine
 10
265.163441
 20
391.214565
 30
0.0
 11
265.163441
 21
394.614565
 31
0.0
  0
LINE
  5
12C
100
AcDbEntity
  8
DIMS
 62
     4
100
AcDbLine
 10
266.863441
 20
392.914565
 30
0.0
 11
263.463441
 21
392.914565
 31
0.0
  0
LINE
  5
12D
100
AcDbEntity
  8
DIMS
 62
     4
100
AcDbLine
 10
335.874119
 20
325.603887
 30
0.0
 11
335.874119
 21
330.403887
 31
0.0
  0
LINE
  5
12E
100
AcDbEntity
  8
DIMS
 62
     4
100
AcDbLine
 10
335.874119
 20
318.803887
 30
0.0
 11
335.874119
 21
314.003887
 31
0.0
  0
LINE
  5
12F
100
AcDbEntity
  8
DIMS
 62
     4
100
AcDbLine
 10
332.474119
 20
322.203887
 30
0.0
 11
327.674119
 21
322.203887
 31
0.0
  0
LINE
  5
130
100
AcDbEntity
  8
DIMS
 62
     4
100
AcDbLine
 10
339.274119
 20
322.203887
 30
0.0
 11
344.074119
 21
322.203887
 31
0.0
  0
LINE
  5
131
100
AcDbEntity
  8
DIMS
 62
     4
100
AcDbLine
 10
335.874119
 20
320.503887
 30
0.0
 11
335.874119
 21
323.903887
 31
0.0
  0
LINE
  5
132
100
AcDbEntity
  8
DIMS
 62
     4
100
AcDbLine
 10
337.574119
 20
322.203887
 30
0.0
 11
334.174119
 21
322.203887
 31
0.0
  0
CIRCLE
  5
133
100
AcDbEntity
  8
M04
100
AcDbCircle
 10
265.163441
 20
392.914565
 30
0.0
 40
6.5
  0
CIRCLE
  5
134
100
AcDbEntity
  8
M04
100
AcDbCircle
 10
335.874119
 20
322.203887
 30
0.0
 40
6.5
  0
CIRCLE
  5
135
100
AcDbEntity
  8
M03
100
AcDbCircle
 10
300.51878
 20
507.559226
 30
0.0
 40
15.0
  0
CIRCLE
  5
136
100
AcDbEntity
  8
M03
100
AcDbCircle
 10
300.51878
 20
507.559226
 30
0.0
 40
14.0
  0
HATCH
  5
137
100
AcDbEntity
  8
M03
100
AcDbHatch
 10
0.0
 20
0.0
 30
0.0
210
0.0
220
0.0
230
1.0
  2
_U
 70
     0
 71
     0
 91
        1
 92
        7
 72
     0
 73
     1
 93
        4
 10
288.2568085907873
 20
480.0817959257544
 10
267.5820956672509
 20
500.7565088492908
 10
266.2385927829966
 20
499.4130059650363
 10
286.913305706533
 20
478.7382930415001
 97
        0
 75
     0
 76
     0
 52
285.0
 41
0.7
 77
     0
 78
     1
 53
285.0
 43
-345.027603
 44
541.374485
 45
0.676148078402348
 46
0.181173331571764
 79
     0
 47
0.060863
 98
        1
 10
284.807115
 20
481.852208
  0
HATCH
  5
138
100
AcDbEntity
  8
M03
100
AcDbHatch
 10
0.0
 20
0.0
 30
0.0
210
0.0
220
0.0
230
1.0
  2
_U
 70
     0
 71
     0
 91
        1
 92
        7
 72
     0
 73
     1
 93
        4
 10
288.2568085907873
 20
480.0817959257543
 10
267.5820956672509
 20
500.7565088492908
 10
266.2385927829964
 20
499.4130059650363
 10
286.913305706533
 20
478.7382930415
 97
        0
 75
     0
 76
     0
 52
-15.0
 41
0.7
 77
     0
 78
     1
 53
345.0
 43
-345.027603
 44
541.374485
 45
0.1811733315717648
 46
0.6761480784023477
 79
     0
 47
0.060863
 98
        1
 10
284.850099
 20
482.153518
  0
LINE
  5
139
100
AcDbEntity
  8
M03
100
AcDbLine
 10
309.616428
 20
477.955481
 30
0.0
 11
308.929053
 21
480.520798
 31
0.0
  0
LINE
  5
13A
100
AcDbEntity
  8
M03
100
AcDbLine
 10
306.363736
 20
481.208173
 30
0.0
 11
308.929053
 21
480.520798
 31
0.0
  0
LINE
  5
13B
100
AcDbEntity
  8
M03
100
AcDbLine
 10
306.363736
 20
481.208173
 30
0.0
 11
309.616428
 21
477.955481
 31
0.0
  0
LINE
  5
13C
100
AcDbEntity
  8
M03
100
AcDbLine
 10
304.808101
 20
480.642487
 30
0.0
 11
309.050742
 21
476.399847
 31
0.0
  0
LINE
  5
13D
100
AcDbEntity
  8
M03
100
AcDbLine
 10
288.256809
 20
480.081796
 30
0.0
 11
267.582096
 21
500.756509
 31
0.0
  0
LINE
  5
13E
100
AcDbEntity
  8
M03
100
AcDbLine
 10
286.913306
 20
478.738293
 30
0.0
 11
266.238593
 21
499.413006
 31
0.0
  0
LINE
  5
13F
100
AcDbEntity
  8
M03
100
AcDbLine
 10
293.418688
 20
475.34418
 30
0.0
 11
303.535309
 21
465.227559
 31
0.0
  0
LINE
  5
140
100
AcDbEntity
  8
M03
100
AcDbLine
 10
293.245614
 20
476.648626
 30
0.0
 11
292.679928
 21
476.08294
 31
0.0
  0
LINE
  5
141
100
AcDbEntity
  8
M03
100
AcDbLine
 10
288.468941
 20
480.293928
 30
0.0
 11
286.701174
 21
478.526161
 31
0.0
  0
LINE
  5
142
100
AcDbEntity
  8
M03
100
AcDbLine
 10
286.701174
 20
478.526161
 30
0.0
 11
291.650921
 21
473.576414
 31
0.0
  0
LINE
  5
143
100
AcDbEntity
  8
M03
100
AcDbLine
 10
293.418688
 20
475.34418
 30
0.0
 11
291.650921
 21
473.576414
 31
0.0
  0
LINE
  5
144
100
AcDbEntity
  8
M03
100
AcDbLine
 10
304.100995
 20
465.793245
 30
0.0
 11
303.535309
 21
465.227559
 31
0.0
  0
ARC
  5
145
100
AcDbEntity
  8
M03
100
AcDbCircle
 10
300.37181
 20
471.963555
 30
0.0
 40
5.826136
100
AcDbArc
 50
160.69541
 51
289.30459
  0
LINE
  5
146
100
AcDbEntity
  8
M03
100
AcDbLine
 10
307.282975
 20
474.63208
 30
0.0
 11
307.282975
 21
475.622029
 31
0.0
  0
LINE
  5
147
100
AcDbEntity
  8
M03
100
AcDbLine
 10
303.040334
 20
478.87472
 30
0.0
 11
304.030284
 21
478.87472
 31
0.0
  0
LINE
  5
148
100
AcDbEntity
  8
M03
100
AcDbLine
 10
303.040334
 20
478.87472
 30
0.0
 11
307.282975
 21
474.63208
 31
0.0
  0
LINE
  5
149
100
AcDbEntity
  8
M03
100
AcDbLine
 10
304.030284
 20
478.87472
 30
0.0
 11
307.282975
 21
475.622029
 31
0.0
  0
LINE
  5
14A
100
AcDbEntity
  8
M03
100
AcDbLine
 10
301.272568
 20
468.621672
 30
0.0
 11
306.222315
 21
463.671924
 31
0.0
  0
LINE
  5
14B
100
AcDbEntity
  8
M03
100
AcDbLine
 10
289.463884
 20
480.430355
 30
0.0
 11
288.898199
 21
479.86467
 31
0.0
  0
LINE
  5
14C
100
AcDbEntity
  8
M03
100
AcDbLine
 10
301.767542
 20
468.126697
 30
0.0
 11
301.201857
 21
467.561012
 31
0.0
  0
LINE
  5
14D
100
AcDbEntity
  8
M03
100
AcDbLine
 10
309.616428
 20
477.955481
 30
0.0
 11
300.211907
 21
468.550961
 31
0.0
  0
LINE
  5
14E
100
AcDbEntity
  8
M03
100
AcDbLine
 10
306.363736
 20
481.208173
 30
0.0
 11
296.959216
 21
471.803652
 31
0.0
  0
LINE
  5
14F
100
AcDbEntity
  8
M03
100
AcDbLine
 10
304.808101
 20
480.642487
 30
0.0
 11
296.464241
 21
472.298627
 31
0.0
  0
LINE
  5
150
100
AcDbEntity
  8
M03
100
AcDbLine
 10
309.050742
 20
476.399847
 30
0.0
 11
300.706882
 21
468.055986
 31
0.0
  0
LINE
  5
151
100
AcDbEntity
  8
M03
100
AcDbLine
 10
288.468941
 20
480.293928
 30
0.0
 11
292.679928
 21
476.08294
 31
0.0
  0
LINE
  5
152
100
AcDbEntity
  8
M03
100
AcDbLine
 10
306.222315
 20
463.671924
 30
0.0
 11
302.686781
 21
460.136391
 31
0.0
  0
LINE
  5
153
100
AcDbEntity
  8
M03
100
AcDbLine
 10
264.51878
 20
505.37546
 30
0.0
 11
297.029927
 21
472.864313
 31
0.0
  0
LINE
  5
154
100
AcDbEntity
  8
CENTRE
100
AcDbLine
 10
312.019652
 20
483.611397
 30
0.0
 11
292.814526
 21
464.406271
 31
0.0
  0
CIRCLE
  5
157
100
AcDbEntity
  8
M03
100
AcDbCircle
 10
300.51878
 20
357.559226
 30
0.0
 40
2.3
  0
ARC
  5
158
100
AcDbEntity
  8
M03
100
AcDbCircle
 10
300.51878
 20
357.559226
 30
0.0
 40
3.0
100
AcDbArc
 50
83.076897
 51
12.215364
  0
LINE
  5
159
100
AcDbEntity
  8
M03
100
AcDbLine
 10
301.06878
 20
363.533965
 30
0.0
 11
301.06878
 21
351.584488
 31
0.0
  0
LINE
  5
15A
100
AcDbEntity
  8
M03
100
AcDbLine
 10
299.96878
 20
363.533965
 30
0.0
 11
299.96878
 21
351.584488
 31
0.0
  0
CIRCLE
  5
15B
100
AcDbEntity
  8
M03
100
AcDbCircle
 10
300.51878
 20
357.559226
 30
0.0
 40
7.858882
  0
CIRCLE
  5
15C
100
AcDbEntity
  8
M03
100
AcDbCircle
 10
300.51878
 20
357.559226
 30
0.0
 40
6.0
  0
CIRCLE
  5
15D
100
AcDbEntity
  8
M03
100
AcDbCircle
 10
450.51878
 20
357.559226
 30
0.0
 40
2.3
  0
ARC
  5
15E
100
AcDbEntity
  8
M03
100
AcDbCircle
 10
450.51878
 20
357.559226
 30
0.0
 40
3.0
100
AcDbArc
 50
77.784636
 51
6.923103
  0
LINE
  5
15F
100
AcDbEntity
  8
M03
100
AcDbLine
 10
449.96878
 20
363.533965
 30
0.0
 11
449.96878
 21
351.584488
 31
0.0
  0
LINE
  5
160
100
AcDbEntity
  8
M03
100
AcDbLine
 10
451.06878
 20
363.533965
 30
0.0
 11
451.06878
 21
351.584488
 31
0.0
  0
CIRCLE
  5
161
100
AcDbEntity
  8
M03
100
AcDbCircle
 10
450.51878
 20
357.559226
 30
0.0
 40
7.858882
  0
CIRCLE
  5
162
100
AcDbEntity
  8
M03
100
AcDbCircle
 10
450.51878
 20
357.559226
 30
0.0
 40
6.0
  0
CIRCLE
  5
163
100
AcDbEntity
  8
M03
100
AcDbCircle
 10
300.51878
 20
507.559226
 30
0.0
 40
2.3
  0
ARC
  5
164
100
AcDbEntity
  8
M03
100
AcDbCircle
 10
300.51878
 20
507.559226
 30
0.0
 40
3.0
100
AcDbArc
 50
77.784636
 51
6.923103
  0
LINE
  5
165
100
AcDbEntity
  8
M03
100
AcDbLine
 10
301.06878
 20
501.584488
 30
0.0
 11
301.06878
 21
513.533965
 31
0.0
  0
LINE
  5
166
100
AcDbEntity
  8
M03
100
AcDbLine
 10
299.96878
 20
501.584488
 30
0.0
 11
299.96878
 21
513.533965
 31
0.0
  0
CIRCLE
  5
167
100
AcDbEntity
  8
M03
100
AcDbCircle
 10
300.51878
 20
507.559226
 30
0.0
 40
7.858882
  0
CIRCLE
  5
168
100
AcDbEntity
  8
M03
100
AcDbCircle
 10
300.51878
 20
507.559226
 30
0.0
 40
6.0
  0
CIRCLE
  5
169
100
AcDbEntity
  8
M03
100
AcDbCircle
 10
450.51878
 20
507.559226
 30
0.0
 40
2.3
  0
ARC
  5
16A
100
AcDbEntity
  8
M03
100
AcDbCircle
 10
450.51878
 20
507.559226
 30
0.0
 40
3.0
100
AcDbArc
 50
83.076897
 51
12.215364
  0
LINE
  5
16B
100
AcDbEntity
  8
M03
100
AcDbLine
 10
449.96878
 20
501.584488
 30
0.0
 11
449.96878
 21
513.533965
 31
0.0
  0
LINE
  5
16C
100
AcDbEntity
  8
M03
100
AcDbLine
 10
451.06878
 20
501.584488
 30
0.0
 11
451.06878
 21
513.533965
 31
0.0
  0
CIRCLE
  5
16D
100
AcDbEntity
  8
M03
100
AcDbCircle
 10
450.51878
 20
507.559226
 30
0.0
 40
7.858882
  0
CIRCLE
  5
16E
100
AcDbEntity
  8
M03
100
AcDbCircle
 10
450.51878
 20
507.559226
 30
0.0
 40
6.0
  0
LINE
  5
16F
100
AcDbEntity
  8
CENTRE
100
AcDbLine
 10
464.660915
 20
521.701362
 30
0.0
 11
254.866448
 21
311.906894
 31
0.0
  0
LINE
  5
170
100
AcDbEntity
  8
CENTRE
100
AcDbLine
 10
464.660915
 20
343.41709
 30
0.0
 11
254.866448
 21
553.211558
 31
0.0
  0
LINE
  5
171
100
AcDbEntity
  8
M03
100
AcDbLine
 10
369.861925
 20
432.559226
 30
0.0
 11
297.690352
 21
360.387653
 31
0.0
  0
LINE
  5
172
100
AcDbEntity
  8
M03
100
AcDbLine
 10
375.51878
 20
438.21608
 30
0.0
 11
303.347207
 21
510.387653
 31
0.0
  0
LINE
  5
173
100
AcDbEntity
  8
M03
100
AcDbLine
 10
369.861925
 20
432.559226
 30
0.0
 11
297.690352
 21
504.730799
 31
0.0
  0
LINE
  5
174
100
AcDbEntity
  8
M03
100
AcDbLine
 10
375.51878
 20
426.902372
 30
0.0
 11
303.347207
 21
354.730799
 31
0.0
  0
LINE
  5
175
100
AcDbEntity
  8
M03
100
AcDbLine
 10
453.347207
 20
504.730799
 30
0.0
 11
381.175634
 21
432.559226
 31
0.0
  0
LINE
  5
176
100
AcDbEntity
  8
M03
100
AcDbLine
 10
447.690352
 20
510.387653
 30
0.0
 11
375.51878
 21
438.21608
 31
0.0
  0
LINE
  5
177
100
AcDbEntity
  8
M03
100
AcDbLine
 10
447.690352
 20
354.730799
 30
0.0
 11
375.51878
 21
426.902372
 31
0.0
  0
LINE
  5
178
100
AcDbEntity
  8
M03
100
AcDbLine
 10
453.347207
 20
360.387653
 30
0.0
 11
381.175634
 21
432.559226
 31
0.0
  0
CIRCLE
  5
179
100
AcDbEntity
  8
M01
100
AcDbCircle
 10
450.51878
 20
357.559226
 30
0.0
 40
4.0
  0
CIRCLE
  5
17A
100
AcDbEntity
  8
M01
100
AcDbCircle
 10
300.51878
 20
357.559226
 30
0.0
 40
4.0
  0
CIRCLE
  5
17B
100
AcDbEntity
  8
M01
100
AcDbCircle
 10
300.51878
 20
507.559226
 30
0.0
 40
4.0
  0
CIRCLE
  5
17C
100
AcDbEntity
  8
M01
100
AcDbCircle
 10
450.51878
 20
507.559226
 30
0.0
 40
4.0
  0
LINE
  5
17D
100
AcDbEntity
  8
M04
100
AcDbLine
 10
407.51878
 20
602.559226
 30
0.0
 11
407.51878
 21
531.784623
 31
0.0
  0
LINE
  5
17E
100
AcDbEntity
  8
M04
100
AcDbLine
 10
343.51878
 20
602.559226
 30
0.0
 11
343.51878
 21
531.784623
 31
0.0
  0
LINE
  5
17F
100
AcDbEntity
  8
M01
100
AcDbLine
 10
353.51878
 20
555.559226
 30
0.0
 11
353.51878
 21
528.784623
 31
0.0
  0
LINE
  5
180
100
AcDbEntity
  8
M01
100
AcDbLine
 10
397.51878
 20
555.559226
 30
0.0
 11
397.51878
 21
528.784623
 31
0.0
  0
LINE
  5
181
100
AcDbEntity
  8
CENTRE
100
AcDbLine
 10
375.51878
 20
652.003033
 30
0.0
 11
375.51878
 21
312.074032
 31
0.0
  0
LINE
  5
182
100
AcDbEntity
  8
DIMS
 62
     4
100
AcDbLine
 10
632.51878
 20
543.159226
 30
0.0
 11
632.51878
 21
538.359226
 31
0.0
  0
LINE
  5
183
100
AcDbEntity
  8
DIMS
 62
     4
100
AcDbLine
 10
632.51878
 20
549.959226
 30
0.0
 11
632.51878
 21
554.759226
 31
0.0
  0
LINE
  5
184
100
AcDbEntity
  8
DIMS
 62
     4
100
AcDbLine
 10
629.11878
 20
546.559226
 30
0.0
 11
624.31878
 21
546.559226
 31
0.0
  0
LINE
  5
185
100
AcDbEntity
  8
DIMS
 62
     4
100
AcDbLine
 10
635.91878
 20
546.559226
 30
0.0
 11
640.71878
 21
546.559226
 31
0.0
  0
LINE
  5
186
100
AcDbEntity
  8
DIMS
 62
     4
100
AcDbLine
 10
632.51878
 20
548.259226
 30
0.0
 11
632.51878
 21
544.859226
 31
0.0
  0
LINE
  5
187
100
AcDbEntity
  8
DIMS
 62
     4
100
AcDbLine
 10
634.21878
 20
546.559226
 30
0.0
 11
630.81878
 21
546.559226
 31
0.0
  0
CIRCLE
  5
188
100
AcDbEntity
  8
M04
100
AcDbCircle
 10
632.51878
 20
546.559226
 30
0.0
 40
6.5
  0
LINE
  5
189
100
AcDbEntity
  8
DIMS
 62
     4
100
AcDbLine
 10
600.51878
 20
360.959226
 30
0.0
 11
600.51878
 21
374.259226
 31
0.0
  0
LINE
  5
18A
100
AcDbEntity
  8
DIMS
 62
     4
100
AcDbLine
 10
600.51878
 20
354.159226
 30
0.0
 11
600.51878
 21
340.859226
 31
0.0
  0
LINE
  5
18B
100
AcDbEntity
  8
DIMS
 62
     4
100
AcDbLine
 10
603.91878
 20
357.559226
 30
0.0
 11
617.21878
 21
357.559226
 31
0.0
  0
LINE
  5
18C
100
AcDbEntity
  8
DIMS
 62
     4
100
AcDbLine
 10
597.11878
 20
357.559226
 30
0.0
 11
583.81878
 21
357.559226
 31
0.0
  0
LINE
  5
18D
100
AcDbEntity
  8
DIMS
 62
     4
100
AcDbLine
 10
600.51878
 20
355.859226
 30
0.0
 11
600.51878
 21
359.259226
 31
0.0
  0
LINE
  5
18E
100
AcDbEntity
  8
DIMS
 62
     4
100
AcDbLine
 10
598.81878
 20
357.559226
 30
0.0
 11
602.21878
 21
357.559226
 31
0.0
  0
LINE
  5
18F
100
AcDbEntity
  8
DIMS
 62
     4
100
AcDbLine
 10
750.51878
 20
360.959226
 30
0.0
 11
750.51878
 21
374.259226
 31
0.0
  0
LINE
  5
190
100
AcDbEntity
  8
DIMS
 62
     4
100
AcDbLine
 10
750.51878
 20
354.159226
 30
0.0
 11
750.51878
 21
340.859226
 31
0.0
  0
LINE
  5
191
100
AcDbEntity
  8
DIMS
 62
     4
100
AcDbLine
 10
753.91878
 20
357.559226
 30
0.0
 11
767.21878
 21
357.559226
 31
0.0
  0
LINE
  5
192
100
AcDbEntity
  8
DIMS
 62
     4
100
AcDbLine
 10
747.11878
 20
357.559226
 30
0.0
 11
733.81878
 21
357.559226
 31
0.0
  0
LINE
  5
193
100
AcDbEntity
  8
DIMS
 62
     4
100
AcDbLine
 10
750.51878
 20
355.859226
 30
0.0
 11
750.51878
 21
359.259226
 31
0.0
  0
LINE
  5
194
100
AcDbEntity
  8
DIMS
 62
     4
100
AcDbLine
 10
748.81878
 20
357.559226
 30
0.0
 11
752.21878
 21
357.559226
 31
0.0
  0
LINE
  5
195
100
AcDbEntity
  8
DIMS
 62
     4
100
AcDbLine
 10
750.51878
 20
510.959226
 30
0.0
 11
750.51878
 21
524.259226
 31
0.0
  0
LINE
  5
196
100
AcDbEntity
  8
DIMS
 62
     4
100
AcDbLine
 10
750.51878
 20
504.159226
 30
0.0
 11
750.51878
 21
490.859226
 31
0.0
  0
LINE
  5
197
100
AcDbEntity
  8
DIMS
 62
     4
100
AcDbLine
 10
753.91878
 20
507.559226
 30
0.0
 11
767.21878
 21
507.559226
 31
0.0
  0
LINE
  5
198
100
AcDbEntity
  8
DIMS
 62
     4
100
AcDbLine
 10
747.11878
 20
507.559226
 30
0.0
 11
733.81878
 21
507.559226
 31
0.0
  0
LINE
  5
199
100
AcDbEntity
  8
DIMS
 62
     4
100
AcDbLine
 10
750.51878
 20
505.859226
 30
0.0
 11
750.51878
 21
509.259226
 31
0.0
  0
LINE
  5
19A
100
AcDbEntity
  8
DIMS
 62
     4
100
AcDbLine
 10
748.81878
 20
507.559226
 30
0.0
 11
752.21878
 21
507.559226
 31
0.0
  0
LINE
  5
19B
100
AcDbEntity
  8
DIMS
 62
     4
100
AcDbLine
 10
600.51878
 20
510.959226
 30
0.0
 11
600.51878
 21
524.259226
 31
0.0
  0
LINE
  5
19C
100
AcDbEntity
  8
DIMS
 62
     4
100
AcDbLine
 10
600.51878
 20
504.159226
 30
0.0
 11
600.51878
 21
490.859226
 31
0.0
  0
LINE
  5
19D
100
AcDbEntity
  8
DIMS
 62
     4
100
AcDbLine
 10
603.91878
 20
507.559226
 30
0.0
 11
617.21878
 21
507.559226
 31
0.0
  0
LINE
  5
19E
100
AcDbEntity
  8
DIMS
 62
     4
100
AcDbLine
 10
597.11878
 20
507.559226
 30
0.0
 11
583.81878
 21
507.559226
 31
0.0
  0
LINE
  5
19F
100
AcDbEntity
  8
DIMS
 62
     4
100
AcDbLine
 10
600.51878
 20
505.859226
 30
0.0
 11
600.51878
 21
509.259226
 31
0.0
  0
LINE
  5
1A0
100
AcDbEntity
  8
DIMS
 62
     4
100
AcDbLine
 10
598.81878
 20
507.559226
 30
0.0
 11
602.21878
 21
507.559226
 31
0.0
  0
CIRCLE
  5
1A1
100
AcDbEntity
  8
M03
100
AcDbCircle
 10
600.51878
 20
357.559226
 30
0.0
 40
15.0
  0
CIRCLE
  5
1A2
100
AcDbEntity
  8
M03
100
AcDbCircle
 10
600.51878
 20
357.559226
 30
0.0
 40
14.0
  0
CIRCLE
  5
1A3
100
AcDbEntity
  8
M03
100
AcDbCircle
 10
750.51878
 20
357.559226
 30
0.0
 40
15.0
  0
CIRCLE
  5
1A4
100
AcDbEntity
  8
M03
100
AcDbCircle
 10
750.51878
 20
357.559226
 30
0.0
 40
14.0
  0
CIRCLE
  5
1A5
100
AcDbEntity
  8
M03
100
AcDbCircle
 10
600.51878
 20
507.559226
 30
0.0
 40
15.0
  0
CIRCLE
  5
1A6
100
AcDbEntity
  8
M03
100
AcDbCircle
 10
600.51878
 20
507.559226
 30
0.0
 40
14.0
  0
HATCH
  5
1A7
100
AcDbEntity
  8
DIMS
100
AcDbHatch
 10
0.0
 20
0.0
 30
0.0
210
0.0
220
0.0
230
1.0
  2
_U
 70
     0
 71
     0
 91
        2
 92
        7
 72
     0
 73
     1
 93
       11
 10
314.5187795381626
 20
124.7218204909275
 10
314.5187795381628
 20
130.3218204909276
 10
313.8187795381627
 20
131.0218204909276
 10
308.37766152562
 20
131.0218204909276
 10
304.0187795381628
 20
126.6629385034705
 10
304.0187795381628
 20
124.0218204909276
 10
307.0187795381635
 20
124.0218204909276
 10
308.0187795381632
 20
125.0218204909275
 10
310.0187795381628
 20
125.0218204909274
 10
311.0187795381627
 20
124.0218204909276
 10
313.8187795381627
 20
124.0218204909275
 97
        0
 92
        7
 72
     0
 73
     1
 93
       11
 10
287.2187795381628
 20
131.0218204909276
 10
286.5187795381628
 20
130.3218204909277
 10
286.5187795381629
 20
124.7218204909274
 10
287.2187795381628
 20
124.0218204909276
 10
290.018779538163
 20
124.0218204909276
 10
291.0187795381627
 20
125.0218204909274
 10
293.0187795381622
 20
125.0218204909276
 10
294.0187795381621
 20
124.0218204909276
 10
297.0187795381626
 20
124.0218204909275
 10
297.0187795381626
 20
126.6629385034706
 10
292.6598975507057
 20
131.0218204909276
 97
        0
 75
     0
 76
     0
 52
135.0
 41
1.5
 77
     0
 78
     1
 53
135.0
 43
75.0
 44
34.695361
 45
-1.060660171779821
 46
-1.060660171779821
 79
     0
 47
0.096225
 98
        2
 10
316.181523
 20
128.095055
 10
290.190438
 20
128.287506
  0
HATCH
  5
1A8
100
AcDbEntity
  8
DIMS
100
AcDbHatch
 10
0.0
 20
0.0
 30
0.0
210
0.0
220
0.0
230
1.0
  2
_U
 70
     0
 71
     1
 91
        1
 92
        7
 72
     0
 73
     1
 93
        4
 10
934.0597371111584
 20
342.5592260810631
 10
931.0597371111587
 20
342.5592260810633
 10
931.0597371111585
 20
327.2992260810632
 10
934.0597371111584
 20
327.2992260810632
 97
        4
330
62A
330
64F
330
62D
330
62E
 75
     0
 76
     0
 52
135.0
 41
0.8
 77
     0
 78
     1
 53
135.0
 43
-96.28504
 44
25.0
 45
-0.5656854249492382
 46
-0.565685424949238
 79
     0
 47
0.154148
 98
        1
 10
933.183388
 20
330.234965
  0
HATCH
  5
1A9
100
AcDbEntity
  8
DIMS
100
AcDbHatch
 10
0.0
 20
0.0
 30
0.0
210
0.0
220
0.0
230
1.0
  2
_U
 70
     0
 71
     1
 91
        1
 92
        7
 72
     0
 73
     1
 93
        4
 10
269.1687795381628
 20
131.0218204909276
 10
269.1687795381628
 20
128.0218204909276
 10
285.5187795381626
 20
128.0218204909276
 10
285.5187795381628
 20
131.0218204909276
 97
        4
330
441
330
437
330
435
330
3FB
 75
     0
 76
     0
 52
135.0
 41
0.8
 77
     0
 78
     1
 53
135.0
 43
75.0
 44
34.695361
 45
-0.5656854249492382
 46
-0.565685424949238
 79
     0
 47
0.088752
 98
        1
 10
272.921927
 20
130.377372
  0
LINE
  5
1AA
100
AcDbEntity
  8
DIMS
 62
     4
100
AcDbLine
 10
551.51878
 20
482.159226
 30
0.0
 11
551.51878
 21
477.359226
 31
0.0
  0
LINE
  5
1AB
100
AcDbEntity
  8
DIMS
 62
     4
100
AcDbLine
 10
551.51878
 20
488.959226
 30
0.0
 11
551.51878
 21
493.759226
 31
0.0
  0
LINE
  5
1AC
100
AcDbEntity
  8
DIMS
 62
     4
100
AcDbLine
 10
548.11878
 20
485.559226
 30
0.0
 11
543.31878
 21
485.559226
 31
0.0
  0
LINE
  5
1AD
100
AcDbEntity
  8
DIMS
 62
     4
100
AcDbLine
 10
554.91878
 20
485.559226
 30
0.0
 11
559.71878
 21
485.559226
 31
0.0
  0
LINE
  5
1AE
100
AcDbEntity
  8
DIMS
 62
     4
100
AcDbLine
 10
551.51878
 20
487.259226
 30
0.0
 11
551.51878
 21
483.859226
 31
0.0
  0
LINE
  5
1AF
100
AcDbEntity
  8
DIMS
 62
     4
100
AcDbLine
 10
553.21878
 20
485.559226
 30
0.0
 11
549.81878
 21
485.559226
 31
0.0
  0
CIRCLE
  5
1B0
100
AcDbEntity
  8
M04
100
AcDbCircle
 10
551.51878
 20
485.559226
 30
0.0
 40
6.5
  0
LINE
  5
1B1
100
AcDbEntity
  8
DIMS
 62
     4
100
AcDbLine
 10
785.874119
 20
468.803887
 30
0.0
 11
785.874119
 21
464.003887
 31
0.0
  0
LINE
  5
1B2
100
AcDbEntity
  8
DIMS
 62
     4
100
AcDbLine
 10
785.874119
 20
475.603887
 30
0.0
 11
785.874119
 21
480.403887
 31
0.0
  0
LINE
  5
1B3
100
AcDbEntity
  8
DIMS
 62
     4
100
AcDbLine
 10
789.274119
 20
472.203887
 30
0.0
 11
794.074119
 21
472.203887
 31
0.0
  0
LINE
  5
1B4
100
AcDbEntity
  8
DIMS
 62
     4
100
AcDbLine
 10
782.474119
 20
472.203887
 30
0.0
 11
777.674119
 21
472.203887
 31
0.0
  0
LINE
  5
1B5
100
AcDbEntity
  8
DIMS
 62
     4
100
AcDbLine
 10
785.874119
 20
473.903887
 30
0.0
 11
785.874119
 21
470.503887
 31
0.0
  0
LINE
  5
1B6
100
AcDbEntity
  8
DIMS
 62
     4
100
AcDbLine
 10
784.174119
 20
472.203887
 30
0.0
 11
787.574119
 21
472.203887
 31
0.0
  0
LINE
  5
1B7
100
AcDbEntity
  8
DIMS
 62
     4
100
AcDbLine
 10
718.51878
 20
543.159226
 30
0.0
 11
718.51878
 21
538.359226
 31
0.0
  0
LINE
  5
1B8
100
AcDbEntity
  8
DIMS
 62
     4
100
AcDbLine
 10
718.51878
 20
549.959226
 30
0.0
 11
718.51878
 21
554.759226
 31
0.0
  0
LINE
  5
1B9
100
AcDbEntity
  8
DIMS
 62
     4
100
AcDbLine
 10
721.91878
 20
546.559226
 30
0.0
 11
726.71878
 21
546.559226
 31
0.0
  0
LINE
  5
1BA
100
AcDbEntity
  8
DIMS
 62
     4
100
AcDbLine
 10
715.11878
 20
546.559226
 30
0.0
 11
710.31878
 21
546.559226
 31
0.0
  0
LINE
  5
1BB
100
AcDbEntity
  8
DIMS
 62
     4
100
AcDbLine
 10
718.51878
 20
548.259226
 30
0.0
 11
718.51878
 21
544.859226
 31
0.0
  0
LINE
  5
1BC
100
AcDbEntity
  8
DIMS
 62
     4
100
AcDbLine
 10
716.81878
 20
546.559226
 30
0.0
 11
720.21878
 21
546.559226
 31
0.0
  0
CIRCLE
  5
1BD
100
AcDbEntity
  8
M04
100
AcDbCircle
 10
785.874119
 20
472.203887
 30
0.0
 40
6.5
  0
CIRCLE
  5
1BE
100
AcDbEntity
  8
M04
100
AcDbCircle
 10
718.51878
 20
546.559226
 30
0.0
 40
6.5
  0
LINE
  5
1BF
100
AcDbEntity
  8
DIMS
 62
     4
100
AcDbLine
 10
635.874119
 20
325.603887
 30
0.0
 11
635.874119
 21
330.403887
 31
0.0
  0
LINE
  5
1C0
100
AcDbEntity
  8
DIMS
 62
     4
100
AcDbLine
 10
635.874119
 20
318.803887
 30
0.0
 11
635.874119
 21
314.003887
 31
0.0
  0
LINE
  5
1C1
100
AcDbEntity
  8
DIMS
 62
     4
100
AcDbLine
 10
632.474119
 20
322.203887
 30
0.0
 11
627.674119
 21
322.203887
 31
0.0
  0
LINE
  5
1C2
100
AcDbEntity
  8
DIMS
 62
     4
100
AcDbLine
 10
639.274119
 20
322.203887
 30
0.0
 11
644.074119
 21
322.203887
 31
0.0
  0
LINE
  5
1C3
100
AcDbEntity
  8
DIMS
 62
     4
100
AcDbLine
 10
635.874119
 20
320.503887
 30
0.0
 11
635.874119
 21
323.903887
 31
0.0
  0
LINE
  5
1C4
100
AcDbEntity
  8
DIMS
 62
     4
100
AcDbLine
 10
637.574119
 20
322.203887
 30
0.0
 11
634.174119
 21
322.203887
 31
0.0
  0
CIRCLE
  5
1C5
100
AcDbEntity
  8
M04
100
AcDbCircle
 10
635.874119
 20
322.203887
 30
0.0
 40
6.5
  0
ARC
  5
1C6
100
AcDbEntity
  8
M04
100
AcDbCircle
 10
566.293383
 20
385.559226
 30
0.0
 40
5.0
100
AcDbArc
 50
315.0
 51
90.0
  0
ARC
  5
1C7
100
AcDbEntity
  8
M04
100
AcDbCircle
 10
675.51878
 20
370.333829
 30
0.0
 40
5.0
100
AcDbArc
 50
45.0
 51
135.0
  0
ARC
  5
1C8
100
AcDbEntity
  8
M04
100
AcDbCircle
 10
737.744176
 20
432.559226
 30
0.0
 40
5.0
100
AcDbArc
 50
135.0
 51
225.0
  0
ARC
  5
1C9
100
AcDbEntity
  8
M04
100
AcDbCircle
 10
712.51878
 20
531.784623
 30
0.0
 40
5.0
100
AcDbArc
 50
180.0
 51
315.0
  0
ARC
  5
1CA
100
AcDbEntity
  8
M04
100
AcDbCircle
 10
638.51878
 20
531.784623
 30
0.0
 40
5.0
100
AcDbArc
 50
225.0
 51
0.0
  0
ARC
  5
1CB
100
AcDbEntity
  8
M04
100
AcDbCircle
 10
566.293383
 20
479.559226
 30
0.0
 40
5.0
100
AcDbArc
 50
270.0
 51
45.0
  0
ARC
  5
1CC
100
AcDbEntity
  8
M01
100
AcDbCircle
 10
566.293383
 20
479.559226
 30
0.0
 40
12.0
100
AcDbArc
 50
270.0
 51
45.0
  0
ARC
  5
1CD
100
AcDbEntity
  8
M01
100
AcDbCircle
 10
566.293383
 20
385.559226
 30
0.0
 40
12.0
100
AcDbArc
 50
315.0
 51
90.0
  0
ARC
  5
1CE
100
AcDbEntity
  8
M01
100
AcDbCircle
 10
675.51878
 20
370.333829
 30
0.0
 40
12.0
100
AcDbArc
 50
45.0
 51
135.0
  0
ARC
  5
1CF
100
AcDbEntity
  8
M01
100
AcDbCircle
 10
737.744176
 20
432.559226
 30
0.0
 40
12.0
100
AcDbArc
 50
135.0
 51
225.0
  0
ARC
  5
1D0
100
AcDbEntity
  8
M01
100
AcDbCircle
 10
709.51878
 20
528.784623
 30
0.0
 40
12.0
100
AcDbArc
 50
180.0
 51
315.0
  0
ARC
  5
1D1
100
AcDbEntity
  8
M01
100
AcDbCircle
 10
641.51878
 20
528.784623
 30
0.0
 40
12.0
100
AcDbArc
 50
225.0
 51
360.0
  0
LINE
  5
1D2
100
AcDbEntity
  8
M01
100
AcDbLine
 10
609.773614
 20
321.559226
 30
0.0
 11
591.261558
 21
321.559226
 31
0.0
  0
LINE
  5
1D3
100
AcDbEntity
  8
M01
100
AcDbLine
 10
564.51878
 20
348.302005
 30
0.0
 11
564.51878
 21
366.81406
 31
0.0
  0
LINE
  5
1D4
100
AcDbEntity
  8
M01
100
AcDbLine
 10
574.778664
 20
377.073945
 30
0.0
 11
564.51878
 21
366.81406
 31
0.0
  0
LINE
  5
1D5
100
AcDbEntity
  8
M01
100
AcDbLine
 10
667.033498
 20
378.819111
 30
0.0
 11
609.773614
 21
321.559226
 31
0.0
  0
LINE
  5
1D6
100
AcDbEntity
  8
M04
100
AcDbLine
 10
671.983246
 20
373.869363
 30
0.0
 11
611.124187
 21
313.010305
 31
0.0
  0
LINE
  5
1D7
100
AcDbEntity
  8
M04
100
AcDbLine
 10
569.828917
 20
382.023692
 30
0.0
 11
555.969859
 21
368.164634
 31
0.0
  0
LINE
  5
1D8
100
AcDbEntity
  8
M01
100
AcDbLine
 10
741.263946
 20
321.559226
 30
0.0
 11
759.776001
 21
321.559226
 31
0.0
  0
LINE
  5
1D9
100
AcDbEntity
  8
M01
100
AcDbLine
 10
786.51878
 20
348.302005
 30
0.0
 11
786.51878
 21
366.81406
 31
0.0
  0
LINE
  5
1DA
100
AcDbEntity
  8
M01
100
AcDbLine
 10
729.258895
 20
424.073945
 30
0.0
 11
786.51878
 21
366.81406
 31
0.0
  0
LINE
  5
1DB
100
AcDbEntity
  8
M01
100
AcDbLine
 10
684.004061
 20
378.819111
 30
0.0
 11
741.263946
 21
321.559226
 31
0.0
  0
LINE
  5
1DC
100
AcDbEntity
  8
M04
100
AcDbLine
 10
679.054313
 20
373.869363
 30
0.0
 11
739.913372
 21
313.010305
 31
0.0
  0
LINE
  5
1DD
100
AcDbEntity
  8
M04
100
AcDbLine
 10
734.208642
 20
429.023692
 30
0.0
 11
795.067701
 21
368.164634
 31
0.0
  0
LINE
  5
1DE
100
AcDbEntity
  8
M01
100
AcDbLine
 10
609.773614
 20
543.559226
 30
0.0
 11
591.261558
 21
543.559226
 31
0.0
  0
LINE
  5
1DF
100
AcDbEntity
  8
M01
100
AcDbLine
 10
564.51878
 20
516.816448
 30
0.0
 11
564.51878
 21
498.304392
 31
0.0
  0
LINE
  5
1E0
100
AcDbEntity
  8
M01
100
AcDbLine
 10
574.778664
 20
488.044507
 30
0.0
 11
564.51878
 21
498.304392
 31
0.0
  0
LINE
  5
1E1
100
AcDbEntity
  8
M01
100
AcDbLine
 10
633.033498
 20
520.299341
 30
0.0
 11
609.773614
 21
543.559226
 31
0.0
  0
LINE
  5
1E2
100
AcDbEntity
  8
M04
100
AcDbLine
 10
634.983246
 20
528.249089
 30
0.0
 11
611.124188
 21
552.108147
 31
0.0
  0
LINE
  5
1E3
100
AcDbEntity
  8
M04
100
AcDbLine
 10
569.828917
 20
483.09476
 30
0.0
 11
555.969859
 21
496.953818
 31
0.0
  0
LINE
  5
1E4
100
AcDbEntity
  8
M01
100
AcDbLine
 10
741.263946
 20
543.559226
 30
0.0
 11
759.776001
 21
543.559226
 31
0.0
  0
LINE
  5
1E5
100
AcDbEntity
  8
M01
100
AcDbLine
 10
786.51878
 20
516.816448
 30
0.0
 11
786.51878
 21
498.304392
 31
0.0
  0
LINE
  5
1E6
100
AcDbEntity
  8
M01
100
AcDbLine
 10
729.258895
 20
441.044508
 30
0.0
 11
786.51878
 21
498.304392
 31
0.0
  0
LINE
  5
1E7
100
AcDbEntity
  8
M01
100
AcDbLine
 10
718.004061
 20
520.299341
 30
0.0
 11
741.263946
 21
543.559226
 31
0.0
  0
LINE
  5
1E8
100
AcDbEntity
  8
M04
100
AcDbLine
 10
716.054313
 20
528.249089
 30
0.0
 11
739.913372
 21
552.108147
 31
0.0
  0
LINE
  5
1E9
100
AcDbEntity
  8
M04
100
AcDbLine
 10
734.208642
 20
436.09476
 30
0.0
 11
795.067701
 21
496.953818
 31
0.0
  0
LINE
  5
1EA
100
AcDbEntity
  8
DIMS
 62
     4
100
AcDbLine
 10
785.874119
 20
396.314565
 30
0.0
 11
785.874119
 21
401.114565
 31
0.0
  0
LINE
  5
1EB
100
AcDbEntity
  8
DIMS
 62
     4
100
AcDbLine
 10
785.874119
 20
389.514565
 30
0.0
 11
785.874119
 21
384.714565
 31
0.0
  0
LINE
  5
1EC
100
AcDbEntity
  8
DIMS
 62
     4
100
AcDbLine
 10
789.274119
 20
392.914565
 30
0.0
 11
794.074119
 21
392.914565
 31
0.0
  0
LINE
  5
1ED
100
AcDbEntity
  8
DIMS
 62
     4
100
AcDbLine
 10
782.474119
 20
392.914565
 30
0.0
 11
777.674119
 21
392.914565
 31
0.0
  0
LINE
  5
1EE
100
AcDbEntity
  8
DIMS
 62
     4
100
AcDbLine
 10
785.874119
 20
391.214565
 30
0.0
 11
785.874119
 21
394.614565
 31
0.0
  0
LINE
  5
1EF
100
AcDbEntity
  8
DIMS
 62
     4
100
AcDbLine
 10
784.174119
 20
392.914565
 30
0.0
 11
787.574119
 21
392.914565
 31
0.0
  0
LINE
  5
1F0
100
AcDbEntity
  8
DIMS
 62
     4
100
AcDbLine
 10
715.163441
 20
325.603887
 30
0.0
 11
715.163441
 21
330.403887
 31
0.0
  0
LINE
  5
1F1
100
AcDbEntity
  8
DIMS
 62
     4
100
AcDbLine
 10
715.163441
 20
318.803887
 30
0.0
 11
715.163441
 21
314.003887
 31
0.0
  0
LINE
  5
1F2
100
AcDbEntity
  8
DIMS
 62
     4
100
AcDbLine
 10
718.563441
 20
322.203887
 30
0.0
 11
723.363441
 21
322.203887
 31
0.0
  0
LINE
  5
1F3
100
AcDbEntity
  8
DIMS
 62
     4
100
AcDbLine
 10
711.763441
 20
322.203887
 30
0.0
 11
706.963441
 21
322.203887
 31
0.0
  0
LINE
  5
1F4
100
AcDbEntity
  8
DIMS
 62
     4
100
AcDbLine
 10
715.163441
 20
320.503887
 30
0.0
 11
715.163441
 21
323.903887
 31
0.0
  0
LINE
  5
1F5
100
AcDbEntity
  8
DIMS
 62
     4
100
AcDbLine
 10
713.463441
 20
322.203887
 30
0.0
 11
716.863441
 21
322.203887
 31
0.0
  0
CIRCLE
  5
1F6
100
AcDbEntity
  8
M04
100
AcDbCircle
 10
785.874119
 20
392.914565
 30
0.0
 40
6.5
  0
CIRCLE
  5
1F7
100
AcDbEntity
  8
M04
100
AcDbCircle
 10
715.163441
 20
322.203887
 30
0.0
 40
6.5
  0
HATCH
  5
1F8
100
AcDbEntity
  8
DIMS
100
AcDbHatch
 10
0.0
 20
0.0
 30
0.0
210
0.0
220
0.0
230
1.0
  2
_U
 70
     0
 71
     1
 91
        1
 92
        7
 72
     0
 73
     1
 93
        4
 10
548.7437795381628
 20
194.0218204909276
 10
548.7437795381629
 20
191.0218204909276
 10
629.5240520922635
 20
191.0218204909276
 10
629.5240520922635
 20
194.0218204909276
 97
        4
330
434
330
347
330
442
330
22D
 75
     0
 76
     0
 52
135.0
 41
0.8
 77
     0
 78
     1
 53
135.0
 43
25.0
 44
34.695361
 45
-0.5656854249492382
 46
-0.565685424949238
 79
     0
 47
0.233369
 98
        1
 10
581.974651
 20
192.701599
  0
HATCH
  5
1F9
100
AcDbEntity
  8
DIMS
100
AcDbHatch
 10
0.0
 20
0.0
 30
0.0
210
0.0
220
0.0
230
1.0
  2
_U
 70
     0
 71
     1
 91
        2
 92
        7
 72
     0
 73
     1
 93
        4
 10
931.0597371111587
 20
372.5592260810631
 10
934.059737111159
 20
372.5592260810632
 10
934.0597371111588
 20
432.5592260810631
 10
931.0597371111587
 20
432.5592260810631
 97
        4
330
643
330
64F
330
629
330
649
 92
        7
 72
     0
 73
     1
 93
        4
 10
931.0597371111585
 20
432.559226081063
 10
934.0597371111588
 20
432.559226081063
 10
934.0597371111586
 20
555.5592260810631
 10
931.0597371111587
 20
555.5592260810631
 97
        4
330
647
330
64F
330
643
330
649
 75
     0
 76
     0
 52
135.0
 41
0.8
 77
     0
 78
     1
 53
135.0
 43
-33.584937
 44
0.0
 45
-0.5656854249492382
 46
-0.565685424949238
 79
     0
 47
0.398893
 98
        2
 10
932.142395
 20
429.642783
 10
932.142395
 20
434.4295
  0
HATCH
  5
1FA
100
AcDbEntity
  8
DIMS
100
AcDbHatch
 10
0.0
 20
0.0
 30
0.0
210
0.0
220
0.0
230
1.0
  2
_U
 70
     0
 71
     1
 91
        1
 92
        7
 72
     0
 73
     1
 93
        4
 10
871.0597371111589
 20
339.559226081063
 10
868.0597371111593
 20
339.5592260810631
 10
868.0597371111593
 20
327.2992260810632
 10
871.0597371111589
 20
327.2992260810632
 97
        4
330
51C
330
64A
330
648
330
652
 75
     0
 76
     0
 52
135.0
 41
0.8
 77
     0
 78
     1
 53
135.0
 43
-33.584937
 44
0.0
 45
-0.5656854249492382
 46
-0.565685424949238
 79
     0
 47
0.398893
 98
        1
 10
869.890629
 20
337.498471
  0
HATCH
  5
1FB
100
AcDbEntity
  8
DIMS
100
AcDbHatch
 10
0.0
 20
0.0
 30
0.0
210
0.0
220
0.0
230
1.0
  2
_U
 70
     0
 71
     1
 91
        2
 92
        7
 72
     0
 73
     1
 93
        4
 10
868.0597371111593
 20
375.5592260810631
 10
871.0597371111589
 20
375.5592260810633
 10
871.0597371111591
 20
432.5592260810631
 10
868.0597371111591
 20
432.5592260810632
 97
        4
330
643
330
64A
330
62F
330
652
 92
        7
 72
     0
 73
     1
 93
        4
 10
871.0597371111591
 20
555.5592260810634
 10
868.0597371111586
 20
555.5592260810634
 10
868.0597371111591
 20
432.5592260810632
 10
871.0597371111591
 20
432.5592260810632
 97
        4
330
646
330
64A
330
643
330
652
 75
     0
 76
     0
 52
135.0
 41
0.8
 77
     0
 78
     1
 53
135.0
 43
-33.584937
 44
0.0
 45
-0.5656854249492382
 46
-0.565685424949238
 79
     0
 47
0.398893
 98
        2
 10
869.49158
 20
382.1745
 10
869.890629
 20
435.227286
  0
HATCH
  5
1FC
100
AcDbEntity
  8
DIMS
100
AcDbHatch
 10
0.0
 20
0.0
 30
0.0
210
0.0
220
0.0
230
1.0
  2
_U
 70
     0
 71
     1
 91
        1
 92
        7
 72
     0
 73
     1
 93
        4
 10
282.5187795381627
 20
191.0218204909276
 10
282.5187795381627
 20
194.0218204909276
 10
269.1687795381627
 20
194.0218204909276
 10
269.1687795381628
 20
191.0218204909276
 97
        4
330
438
330
43A
330
442
330
353
 75
     0
 76
     0
 52
135.0
 41
0.8
 77
     0
 78
     1
 53
135.0
 43
0.0
 44
34.695361
 45
-0.5656854249492382
 46
-0.565685424949238
 79
     0
 47
0.322883
 98
        1
 10
279.956154
 20
191.922685
  0
HATCH
  5
1FD
100
AcDbEntity
  8
DIMS
100
AcDbHatch
 10
0.0
 20
0.0
 30
0.0
210
0.0
220
0.0
230
1.0
  2
_U
 70
     0
 71
     1
 91
        2
 92
        7
 72
     0
 73
     1
 93
        4
 10
375.5187795381627
 20
194.0218204909276
 10
375.5187795381627
 20
191.0218204909276
 10
502.2937795381628
 20
191.0218204909276
 10
502.2937795381628
 20
194.0218204909276
 97
        4
330
438
330
34C
330
442
330
326
 92
        7
 72
     0
 73
     1
 93
        4
 10
318.5187795381628
 20
191.0218204909276
 10
375.5187795381627
 20
191.0218204909276
 10
375.5187795381627
 20
194.0218204909276
 10
318.5187795381628
 20
194.0218204909276
 97
        4
330
438
330
352
330
442
330
34C
 75
     0
 76
     0
 52
135.0
 41
0.8
 77
     0
 78
     1
 53
135.0
 43
50.0
 44
34.695361
 45
-0.5656854249492382
 46
-0.565685424949238
 79
     0
 47
0.322883
 98
        2
 10
430.735346
 20
192.568453
 10
422.33708
 20
192.245569
  0
HATCH
  5
1FE
100
AcDbEntity
  8
DIMS
100
AcDbHatch
 10
0.0
 20
0.0
 30
0.0
210
0.0
220
0.0
230
1.0
  2
_U
 70
     0
 71
     1
 91
        2
 92
        7
 72
     0
 73
     1
 93
        4
 10
375.5187795381628
 20
131.0218204909277
 10
375.5187795381628
 20
128.0218204909276
 10
490.5187795381627
 20
128.0218204909276
 10
490.5187795381626
 20
131.0218204909277
 97
        4
330
441
330
34C
330
3CE
330
405
 92
        7
 72
     0
 73
     1
 93
        4
 10
315.5187795381627
 20
131.0218204909276
 10
315.5187795381627
 20
128.0218204909276
 10
375.5187795381628
 20
128.0218204909276
 10
375.5187795381628
 20
131.0218204909276
 97
        4
330
441
330
3FA
330
3CE
330
34C
 75
     0
 76
     0
 52
135.0
 41
0.8
 77
     0
 78
     1
 53
135.0
 43
0.0
 44
34.695361
 45
-0.5656854249492382
 46
-0.565685424949238
 79
     0
 47
0.322883
 98
        2
 10
440.815252
 20
129.606186
 10
342.94315
 20
129.606186
  0
HATCH
  5
1FF
100
AcDbEntity
  8
DIMS
100
AcDbHatch
 10
0.0
 20
0.0
 30
0.0
210
0.0
220
0.0
230
1.0
  2
_U
 70
     0
 71
     1
 91
        1
 92
        7
 72
     0
 73
     1
 93
        4
 10
560.518779538163
 20
131.0218204909277
 10
560.5187795381628
 20
128.0218204909275
 10
723.7441762825786
 20
128.0218204909276
 10
723.7441762825788
 20
131.0218204909276
 97
        4
330
427
330
322
330
436
330
3B2
 75
     0
 76
     0
 52
135.0
 41
0.8
 77
     0
 78
     1
 53
135.0
 43
0.0
 44
34.695361
 45
-0.5656854249492382
 46
-0.565685424949238
 79
     0
 47
0.348279
 98
        1
 10
641.063815
 20
130.192454
  0
HATCH
  5
200
100
AcDbEntity
  8
DIMS
100
AcDbHatch
 10
0.0
 20
0.0
 30
0.0
210
0.0
220
0.0
230
1.0
  2
_U
 70
     0
 71
     1
 91
        1
 92
        7
 72
     0
 73
     1
 93
        4
 10
645.5240520922635
 20
194.0218204909276
 10
645.5240520922635
 20
191.0218204909277
 10
723.744176282579
 20
191.0218204909277
 10
723.7441762825786
 20
194.0218204909276
 97
        4
330
205
330
22E
330
203
330
439
 75
     0
 76
     0
 52
135.0
 41
0.8
 77
     0
 78
     1
 53
135.0
 43
0.0
 44
34.695361
 45
-0.5656854249492382
 46
-0.565685424949238
 79
     0
 47
0.348279
 98
        1
 10
658.484591
 20
192.534351
  0
HATCH
  5
201
100
AcDbEntity
  8
DIMS
100
AcDbHatch
 10
0.0
 20
0.0
 30
0.0
210
0.0
220
0.0
230
1.0
  2
_U
 70
     0
 71
     1
 91
        4
 92
        7
 72
     1
 73
     1
 93
       11
 10
525.5187795381629
 20
162.0218204909274
 42
0.0
 10
525.518779538163
 20
186.0218204909276
 42
0.0
 10
517.0187795381629
 20
186.0218204909276
 42
0.0
 10
516.0187795381629
 20
186.0218204909276
 42
0.0
 10
516.0187795381629
 20
187.0218204909276
 42
0.0
 10
516.0187795381629
 20
190.3218204909276
 42
0.0
 10
515.3187795381629
 20
191.0218204909277
 42
0.0
 10
375.5187795381628
 20
191.0218204909277
 42
0.0
 10
375.5187795381628
 20
179.5218204909275
 42
-0.4142135623730909
 10
379.5187795381627
 20
175.5218204909275
 42
0.0
 10
379.5187795381627
 20
162.0218204909274
 42
0.0
 97
       11
330
368
330
362
330
363
330
323
330
36A
330
442
330
34C
330
249
330
34F
330
35D
330
444
 92
        7
 72
     1
 73
     1
 93
       46
 10
535.0187795381629
 20
186.0218204909276
 42
0.0
 10
534.0187795381629
 20
186.0218204909276
 42
0.0
 10
525.5187795381628
 20
186.0218204909276
 42
0.0
 10
525.5187795381628
 20
162.0218204909274
 42
0.0
 10
671.5187795381628
 20
162.0218204909274
 42
0.0
 10
671.5187795381628
 20
175.5218204909275
 42
-1.0
 10
679.5187795381628
 20
175.5218204909275
 42
0.0
 10
679.5187795381628
 20
158.0218204909274
 42
-0.4142135623730951
 10
675.5187795381628
 20
154.0218204909274
 42
0.0
 10
529.5187795381628
 20
154.0218204909274
 42
0.0
 10
529.5187795381628
 20
141.0218204909274
 42
0.0
 10
534.5187795381626
 20
141.0218204909274
 42
0.0
 10
535.5187795381625
 20
141.0218204909274
 42
0.0
 10
535.5187795381627
 20
140.0218204909274
 42
0.0
 10
535.5187795381627
 20
131.5218204909273
 42
0.0
 10
536.0187795381624
 20
131.0218204909277
 42
0.0
 10
548.5187795381627
 20
131.0218204909277
 42
0.0
 10
548.5187795381627
 20
138.3218204909276
 42
0.0
 10
548.5187795381627
 20
140.8218204909275
 42
0.0
 10
549.2187795381629
 20
140.8218204909275
 42
0.0
 10
549.2187795381628
 20
142.3218204909275
 42
0.0
 10
551.5187795381628
 20
143.6497261100636
 42
0.0
 10
553.8187795381627
 20
142.3218204909274
 42
0.0
 10
553.8187795381627
 20
140.8218204909275
 42
0.0
 10
554.5187795381628
 20
140.8218204909275
 42
0.0
 10
554.5187795381628
 20
138.3218204909277
 42
0.0
 10
554.5187795381628
 20
131.0218204909276
 42
0.0
 10
712.744176282579
 20
131.0218204909276
 42
0.0
 10
712.744176282579
 20
135.0218204909275
 42
-1.0
 10
720.744176282579
 20
135.0218204909275
 42
0.0
 10
720.744176282579
 20
131.0218204909275
 42
0.0
 10
723.744176282579
 20
131.0218204909276
 42
0.0
 10
725.744176282579
 20
133.0218204909276
 42
0.0
 10
725.744176282579
 20
189.0218204909276
 42
0.0
 10
723.7441762825791
 20
191.0218204909276
 42
0.0
 10
720.7441762825789
 20
191.0218204909276
 42
0.0
 10
720.744176282579
 20
187.0218204909279
 42
-1.0
 10
712.744176282579
 20
187.0218204909278
 42
0.0
 10
712.744176282579
 20
191.0218204909276
 42
0.0
 10
645.5240520922635
 20
191.0218204909276
 42
0.0
 10
645.5240520922635
 20
185.0218204909276
 42
0.0
 10
629.5240520922635
 20
185.0218204909276
 42
0.0
 10
629.5240520922635
 20
191.0218204909276
 42
0.0
 10
535.7187795381628
 20
191.0218204909276
 42
0.0
 10
535.0187795381629
 20
190.3218204909275
 42
0.0
 10
535.0187795381629
 20
187.0218204909276
 42
0.0
 97
       43
330
360
330
361
330
35E
330
411
330
430
330
42D
330
42C
330
432
330
422
330
406
330
3C9
330
3B3
330
3BF
330
3B4
330
3BD
330
3BC
330
3B6
330
3B5
330
3CA
330
3B2
330
38C
330
38E
330
38D
330
43B
330
43F
330
43C
330
203
330
396
330
397
330
395
330
230
330
22F
330
231
330
442
330
36B
330
324
330
365
330
364
330
368
330
444
330
35D
330
35F
330
240
 92
        7
 72
     0
 73
     1
 93
       20
 10
375.5187795381628
 20
154.0218204909274
 10
375.5187795381627
 20
131.0218204909276
 10
496.5187795381628
 20
131.0218204909277
 10
496.5187795381628
 20
138.3218204909276
 10
496.5187795381628
 20
140.8218204909275
 10
497.2187795381628
 20
140.8218204909275
 10
497.2187795381628
 20
142.3218204909275
 10
499.5187795381628
 20
143.6497261100636
 10
501.8187795381627
 20
142.3218204909274
 10
501.8187795381627
 20
140.8218204909275
 10
502.5187795381628
 20
140.8218204909275
 10
502.5187795381627
 20
138.3218204909277
 10
502.5187795381627
 20
131.0218204909277
 10
515.0187795381628
 20
131.0218204909277
 10
515.5187795381627
 20
131.5218204909273
 10
515.5187795381627
 20
140.0218204909275
 10
515.518779538163
 20
141.0218204909275
 10
516.5187795381629
 20
141.0218204909275
 10
521.5187795381628
 20
141.0218204909275
 10
521.5187795381628
 20
154.0218204909274
 97
       18
330
34E
330
34C
330
441
330
3AF
330
39A
330
3A4
330
39B
330
3A1
330
3A2
330
399
330
398
330
3AE
330
421
330
431
330
42A
330
42B
330
430
330
40D
 92
       24
 93
        4
 72
     1
 10
670.377306
 20
140.393386
 11
684.577306
 21
140.393386
 72
     1
 10
684.577306
 20
140.393386
 11
684.577306
 21
143.393386
 72
     1
 10
684.577306
 20
143.393386
 11
670.377306
 21
143.393386
 72
     1
 10
670.377306
 20
143.393386
 11
670.377306
 21
140.393386
 97
        1
330
23F
 75
     0
 76
     0
 52
45.0
 41
6.0
 77
     0
 78
     1
 53
45.0
 43
0.0
 44
34.695361
 45
-4.242640687119284
 46
4.242640687119285
 79
     0
 47
0.348279
 98
        3
 10
494.032458
 20
172.334184
 10
543.855881
 20
176.16525
 10
457.448827
 20
146.561556
  0
HATCH
  5
202
100
AcDbEntity
  8
DIMS
100
AcDbHatch
 10
0.0
 20
0.0
 30
0.0
210
0.0
220
0.0
230
1.0
  2
_U
 70
     0
 71
     1
 91
        1
 92
        7
 72
     1
 73
     1
 93
       10
 10
931.0597371111585
 20
555.5592260810633
 42
0.0
 10
929.0597371111587
 20
557.5592260810631
 42
0.0
 10
873.0597371111587
 20
557.5592260810631
 42
0.0
 10
871.0597371111592
 20
555.5592260810634
 42
0.0
 10
871.0597371111589
 20
432.5592260810632
 42
0.0
 10
882.5597371111587
 20
432.5592260810632
 42
-0.4142135623730992
 10
886.5597371111586
 20
436.5592260810632
 42
0.0
 10
904.0597371111587
 20
436.5592260810631
 42
-0.4142135623730909
 10
908.0597371111586
 20
432.5592260810632
 42
0.0
 10
931.0597371111587
 20
432.5592260810632
 42
0.0
 97
        9
330
64C
330
651
330
64D
330
652
330
643
330
24F
330
641
330
24D
330
64F
 75
     0
 76
     0
 52
45.0
 41
6.0
 77
     0
 78
     1
 53
45.0
 43
-33.584937
 44
0.0
 45
-4.242640687119284
 46
4.242640687119285
 79
     0
 47
0.246375
 98
        1
 10
906.806468
 20
517.907485
  0
LINE
  5
203
102
{ACAD_REACTORS
330
201
330
200
102
}
100
AcDbEntity
  8
M01
100
AcDbLine
 10
641.524052
 20
191.02182
 30
0.0
 11
723.744176
 21
191.02182
 31
0.0
  0
LINE
  5
204
100
AcDbEntity
  8
M04
100
AcDbLine
 10
641.524052
 20
198.02182
 30
0.0
 11
732.744176
 21
198.02182
 31
0.0
  0
LINE
  5
205
102
{ACAD_REACTORS
330
200
102
}
100
AcDbEntity
  8
M02
100
AcDbLine
 10
641.524052
 20
194.02182
 30
0.0
 11
723.744176
 21
194.02182
 31
0.0
  0
DIMENSION
  5
207
100
AcDbEntity
  8
DIMS
100
AcDbDimension
  2
*D8
 10
633.524052
 20
225.697985
 30
0.0
 11
640.738338
 21
228.697985
 31
0.0
 12
-25.0
 22
34.695361
 32
0.0
  1
%%c<> H7
  3
DIM1
100
AcDbAlignedDimension
 13
641.524052
 23
211.02182
 33
0.0
 14
633.524052
 24
211.02182
 34
0.0
100
AcDbRotatedDimension
1001
ACAD
1000
DSTYLE
1002
{
1070
   144
1040
1.0
1002
}
  0
LINE
  5
215
100
AcDbEntity
  8
M04
100
AcDbLine
 10
637.524052
 20
213.331222
 30
0.0
 11
641.524052
 21
211.02182
 31
0.0
  0
LINE
  5
216
100
AcDbEntity
  8
M04
100
AcDbLine
 10
633.524052
 20
211.02182
 30
0.0
 11
637.524052
 21
213.331222
 31
0.0
  0
LINE
  5
217
100
AcDbEntity
  8
M04
100
AcDbLine
 10
633.524052
 20
208.02182
 30
0.0
 11
633.524052
 21
211.02182
 31
0.0
  0
LINE
  5
218
100
AcDbEntity
  8
M04
100
AcDbLine
 10
641.524052
 20
211.02182
 30
0.0
 11
633.524052
 21
211.02182
 31
0.0
  0
LINE
  5
219
100
AcDbEntity
  8
M04
100
AcDbLine
 10
641.524052
 20
208.02182
 30
0.0
 11
641.524052
 21
211.02182
 31
0.0
  0
ARC
  5
21A
100
AcDbEntity
  8
M05
100
AcDbCircle
 10
637.524052
 20
198.684116
 30
0.0
 40
10.837705
100
AcDbArc
 50
71.372238
 51
108.627762
  0
LINE
  5
21C
100
AcDbEntity
  8
M05
100
AcDbLine
 10
633.524052
 20
208.02182
 30
0.0
 11
634.062289
 21
208.954074
 31
0.0
  0
LINE
  5
21D
100
AcDbEntity
  8
M05
100
AcDbLine
 10
640.985815
 20
208.954074
 30
0.0
 11
634.062289
 21
208.954074
 31
0.0
  0
LINE
  5
21E
100
AcDbEntity
  8
M05
100
AcDbLine
 10
641.524052
 20
208.02182
 30
0.0
 11
640.985815
 21
208.954074
 31
0.0
  0
LINE
  5
21F
100
AcDbEntity
  8
M05
100
AcDbLine
 10
641.524052
 20
208.02182
 30
0.0
 11
633.524052
 21
208.02182
 31
0.0
  0
LINE
  5
220
100
AcDbEntity
  8
M04
100
AcDbLine
 10
633.524052
 20
198.52182
 30
0.0
 11
633.024052
 21
198.02182
 31
0.0
  0
LINE
  5
221
100
AcDbEntity
  8
M04
100
AcDbLine
 10
641.524052
 20
198.52182
 30
0.0
 11
642.024052
 21
198.02182
 31
0.0
  0
ARC
  5
222
100
AcDbEntity
  8
M05
100
AcDbCircle
 10
637.524052
 20
199.155154
 30
0.0
 40
13.633333
100
AcDbArc
 50
252.938469
 51
287.061531
  0
LINE
  5
223
100
AcDbEntity
  8
M05
100
AcDbLine
 10
641.524052
 20
186.12182
 30
0.0
 11
633.524052
 21
186.12182
 31
0.0
  0
LINE
  5
224
100
AcDbEntity
  8
M05
100
AcDbLine
 10
633.524052
 20
208.02182
 30
0.0
 11
633.524052
 21
186.12182
 31
0.0
  0
LINE
  5
225
100
AcDbEntity
  8
M05
100
AcDbLine
 10
641.524052
 20
208.02182
 30
0.0
 11
641.524052
 21
186.12182
 31
0.0
  0
LINE
  5
226
100
AcDbEntity
  8
CENTRE
100
AcDbLine
 10
637.524052
 20
218.367938
 30
0.0
 11
637.524052
 21
180.278239
 31
0.0
  0
LINE
  5
227
100
AcDbEntity
  8
DIMS
 62
     4
100
AcDbLine
 10
904.059737
 20
435.959226
 30
0.0
 11
904.059737
 21
438.259226
 31
0.0
  0
LINE
  5
228
100
AcDbEntity
  8
DIMS
 62
     4
100
AcDbLine
 10
904.059737
 20
429.159226
 30
0.0
 11
904.059737
 21
426.859226
 31
0.0
  0
LINE
  5
229
100
AcDbEntity
  8
DIMS
 62
     4
100
AcDbLine
 10
904.059737
 20
430.859226
 30
0.0
 11
904.059737
 21
434.259226
 31
0.0
  0
LINE
  5
22A
100
AcDbEntity
  8
DIMS
 62
     4
100
AcDbLine
 10
678.91878
 20
175.52182
 30
0.0
 11
681.21878
 21
175.52182
 31
0.0
  0
LINE
  5
22B
100
AcDbEntity
  8
DIMS
 62
     4
100
AcDbLine
 10
672.11878
 20
175.52182
 30
0.0
 11
669.81878
 21
175.52182
 31
0.0
  0
LINE
  5
22C
100
AcDbEntity
  8
DIMS
 62
     4
100
AcDbLine
 10
673.81878
 20
175.52182
 30
0.0
 11
677.21878
 21
175.52182
 31
0.0
  0
LINE
  5
22D
102
{ACAD_REACTORS
330
1F8
102
}
100
AcDbEntity
  8
M02
100
AcDbLine
 10
629.524052
 20
191.02182
 30
0.0
 11
629.524052
 21
194.02182
 31
0.0
  0
LINE
  5
22E
102
{ACAD_REACTORS
330
200
102
}
100
AcDbEntity
  8
M02
100
AcDbLine
 10
645.524052
 20
191.02182
 30
0.0
 11
645.524052
 21
194.02182
 31
0.0
  0
LINE
  5
22F
102
{ACAD_REACTORS
330
201
102
}
100
AcDbEntity
  8
M01
100
AcDbLine
 10
629.524052
 20
185.02182
 30
0.0
 11
645.524052
 21
185.02182
 31
0.0
  0
LINE
  5
230
102
{ACAD_REACTORS
330
201
102
}
100
AcDbEntity
  8
M01
100
AcDbLine
 10
645.524052
 20
191.02182
 30
0.0
 11
645.524052
 21
185.02182
 31
0.0
  0
LINE
  5
231
102
{ACAD_REACTORS
330
201
102
}
100
AcDbEntity
  8
M01
100
AcDbLine
 10
629.524052
 20
191.02182
 30
0.0
 11
629.524052
 21
185.02182
 31
0.0
  0
ARC
  5
232
100
AcDbEntity
  8
M01
100
AcDbCircle
 10
641.514052
 20
432.559226
 30
0.0
 40
4.0
100
AcDbArc
 50
270.0
 51
90.0
  0
LINE
  5
233
100
AcDbEntity
  8
DIMS
 62
     4
100
AcDbLine
 10
637.514052
 20
429.159226
 30
0.0
 11
637.514052
 21
426.859226
 31
0.0
  0
LINE
  5
234
100
AcDbEntity
  8
DIMS
 62
     4
100
AcDbLine
 10
637.514052
 20
435.959226
 30
0.0
 11
637.514052
 21
438.259226
 31
0.0
  0
LINE
  5
235
100
AcDbEntity
  8
DIMS
 62
     4
100
AcDbLine
 10
637.514052
 20
434.259226
 30
0.0
 11
637.514052
 21
430.859226
 31
0.0
  0
LWPOLYLINE
  5
236
100
AcDbEntity
  8
M01
100
AcDbPolyline
 90
        2
 70
     0
 43
4.0
 10
637.514052
 20
434.559226
 42
0.414214
 10
635.514052
 20
432.559226
  0
LWPOLYLINE
  5
237
100
AcDbEntity
  8
M01
100
AcDbPolyline
 90
        2
 70
     0
 43
4.0
 10
637.514052
 20
430.559226
 42
0.414214
 10
639.514052
 20
432.559226
  0
CIRCLE
  5
238
100
AcDbEntity
  8
M01
100
AcDbCircle
 10
637.514052
 20
432.559226
 30
0.0
 40
4.0
  0
LINE
  5
239
100
AcDbEntity
  8
M01
100
AcDbLine
 10
633.514052
 20
428.559226
 30
0.0
 11
641.514052
 21
428.559226
 31
0.0
  0
LINE
  5
23A
100
AcDbEntity
  8
M01
100
AcDbLine
 10
633.514052
 20
436.559226
 30
0.0
 11
641.514052
 21
436.559226
 31
0.0
  0
ARC
  5
23B
100
AcDbEntity
  8
M01
100
AcDbCircle
 10
633.514052
 20
432.559226
 30
0.0
 40
4.0
100
AcDbArc
 50
90.0
 51
270.0
  0
WIPEOUT
  5
23C
100
AcDbEntity
  8
TEXT
 92
      140
310
8C00000001000000840000000600000005000000AA78402494FE8B40A0214A06F42B7540000000000000000061E61BDB01728C409F214A06F42B7540000000000000000061E61BDB01728C409F214A06F46B75400000000000000000AA78402494FE8B409F214A06F46B75400000000000000000AA78402494FE8B40A0214A
310
06F42B75400000000000000000
100
AcDbWipeout
 90
        0
 10
895.822335
 20
324.925648
 30
0.0
 11
17.821429
 21
0.0
 31
0.0
 12
0.0
 22
17.821429
 32
0.0
 13
0.0
 23
0.0
340
0
 70
     7
280
     1
281
    50
282
    50
283
     0
360
0
 71
     2
 91
        5
 14
-0.5
 24
-0.275551
 14
0.309619
 24
-0.275551
 14
0.309619
 24
-0.5
 14
-0.5
 24
-0.5
 14
-0.5
 24
-0.275551
  0
TEXT
  5
23D
102
{ACAD_REACTORS
330
57
102
}
100
AcDbEntity
  8
TEXT
100
AcDbText
 10
896.822335
 20
339.747076
 30
0.0
 40
2.0
  1
MM010132
 41
0.9
100
AcDbText
  0
WIPEOUT
  5
23E
100
AcDbEntity
  8
TEXT
 92
      140
310
8C00000001000000840000000600000005000000BB3CE0B804EF84406ED2879D967C6140000000000000000072AABB6F726285406ED2879D967C6140000000000000000072AABB6F726285406DD2879D96FC61400000000000000000BB3CE0B804EF84406ED2879D96FC61400000000000000000BB3CE0B804EF84406ED287
310
9D967C61400000000000000000
100
AcDbWipeout
 90
        0
 10
669.877306
 20
108.6166
 30
0.0
 11
35.276786
 21
0.0
 31
0.0
 12
0.0
 22
35.276786
 32
0.0
 13
0.0
 23
0.0
340
0
 70
     7
280
     1
281
    50
282
    50
283
     0
360
0
 71
     2
 91
        5
 14
-0.5
 24
-0.386611
 14
-0.09099
 24
-0.386611
 14
-0.09099
 24
-0.5
 14
-0.5
 24
-0.5
 14
-0.5
 24
-0.386611
  0
TEXT
  5
23F
102
{ACAD_REACTORS
330
201
102
}
100
AcDbEntity
  8
TEXT
100
AcDbText
 10
670.877306
 20
140.893386
 30
0.0
 40
2.0
  1
MM010132
 41
0.9
100
AcDbText
  0
CIRCLE
  5
240
102
{ACAD_REACTORS
330
201
102
}
100
AcDbEntity
  8
M01
100
AcDbCircle
 10
675.51878
 20
175.52182
 30
0.0
 40
4.0
  0
INSERT
  5
241
100
AcDbEntity
  8
DIMS
100
AcDbBlockReference
  2
ARROW1
 10
808.503974
 20
457.461469
 30
0.0
 41
10.0
 42
10.0
 43
10.0
 50
90.0
  0
LINE
  5
248
100
AcDbEntity
  8
DIMS
100
AcDbLine
 10
808.503974
 20
457.461469
 30
0.0
 11
808.503974
 21
432.559226
 31
0.0
  0
ARC
  5
249
102
{ACAD_REACTORS
330
201
102
}
100
AcDbEntity
  8
M01
100
AcDbCircle
 10
375.51878
 20
175.52182
 30
0.0
 40
4.0
100
AcDbArc
 50
0.0
 51
90.0
  0
LINE
  5
24A
102
{ACAD_REACTORS
330
57
102
}
100
AcDbEntity
  8
CENTRE
100
AcDbLine
 10
922.76191
 20
357.559226
 30
0.0
 11
959.803005
 21
357.559226
 31
0.0
  0
LINE
  5
24B
100
AcDbEntity
  8
DIMS
100
AcDbLine
 10
254.866448
 20
578.113801
 30
0.0
 11
254.866448
 21
553.211558
 31
0.0
  0
INSERT
  5
24C
100
AcDbEntity
  8
DIMS
100
AcDbBlockReference
  2
ARROW1
 10
254.866448
 20
578.113801
 30
0.0
 41
10.0
 42
10.0
 43
10.0
 50
90.0
  0
CIRCLE
  5
24D
102
{ACAD_REACTORS
330
202
330
57
102
}
100
AcDbEntity
  8
M01
100
AcDbCircle
 10
904.059737
 20
432.559226
 30
0.0
 40
4.0
  0
LINE
  5
24E
100
AcDbEntity
  8
M01
100
AcDbLine
 10
886.559737
 20
432.559226
 30
0.0
 11
890.559737
 21
428.559226
 31
0.0
  0
ARC
  5
24F
102
{ACAD_REACTORS
330
202
102
}
100
AcDbEntity
  8
M01
100
AcDbCircle
 10
886.559737
 20
432.559226
 30
0.0
 40
4.0
100
AcDbArc
 50
90.0
 51
180.0
  0
LINE
  5
250
100
AcDbEntity
  8
M01
100
AcDbLine
 10
882.559737
 20
361.559226
 30
0.0
 11
886.559737
 21
357.559226
 31
0.0
  0
ARC
  5
251
102
{ACAD_REACTORS
330
57
102
}
100
AcDbEntity
  8
M01
100
AcDbCircle
 10
886.559737
 20
357.559226
 30
0.0
 40
4.0
100
AcDbArc
 50
270.0
 51
0.0
  0
LINE
  5
252
100
AcDbEntity
  8
CENTRE
100
AcDbLine
 10
886.559737
 20
440.559226
 30
0.0
 11
886.559737
 21
349.559226
 31
0.0
  0
LINE
  5
253
102
{ACAD_REACTORS
330
57
102
}
100
AcDbEntity
  8
M01
100
AcDbLine
 10
890.559737
 20
428.559226
 30
0.0
 11
890.559737
 21
357.559226
 31
0.0
  0
LINE
  5
254
102
{ACAD_REACTORS
330
57
102
}
100
AcDbEntity
  8
M01
100
AcDbLine
 10
882.559737
 20
432.559226
 30
0.0
 11
882.559737
 21
361.559226
 31
0.0
  0
DIMENSION
  5
255
100
AcDbEntity
  8
DIMS
100
AcDbDimension
  2
*D7
 10
571.285879
 20
216.42182
 30
0.0
 11
571.285879
 21
205.723237
 31
0.0
 12
0.0
 22
34.695361
 32
0.0
 70
   128
  3
DIM1
100
AcDbAlignedDimension
 13
548.74378
 23
191.02182
 33
0.0
 14
547.74378
 24
216.42182
 34
0.0
 50
270.0
100
AcDbRotatedDimension
1001
ACAD
1000
DSTYLE
1002
{
1070
   288
1070
     1
1070
   144
1040
1.0
1002
}
  0
DIMENSION
  5
262
100
AcDbEntity
  8
DIMS
100
AcDbDimension
  2
*D6
 10
548.74378
 20
248.169633
 30
0.0
 11
526.824232
 21
248.169633
 31
0.0
 12
0.0
 22
34.695361
 32
0.0
 70
   128
  1
%%c46.5
  3
DIM1
100
AcDbAlignedDimension
 13
502.29378
 23
210.84447
 33
0.0
 14
548.74378
 24
210.84447
 34
0.0
100
AcDbRotatedDimension
1001
ACAD
1000
DSTYLE
1002
{
1070
   288
1070
     1
1070
   144
1040
1.0
1002
}
  0
DIMENSION
  5
26F
100
AcDbEntity
  8
DIMS
100
AcDbDimension
  2
*D5
 10
503.29378
 20
238.128402
 30
0.0
 11
526.483991
 21
238.128402
 31
0.0
 12
0.0
 22
34.695361
 32
0.0
 70
   128
  1
%%c<> H7
  3
DIM1
100
AcDbAlignedDimension
 13
547.74378
 23
216.42182
 33
0.0
 14
503.29378
 24
216.42182
 34
0.0
100
AcDbRotatedDimension
1001
ACAD
1000
DSTYLE
1002
{
1070
   288
1070
     1
1070
   144
1040
1.0
1002
}
  0
DIMENSION
  5
27C
100
AcDbEntity
  8
DIMS
100
AcDbDimension
  2
*D4
 10
474.086984
 20
211.42182
 30
0.0
 11
474.086984
 21
204.72182
 31
0.0
 12
-498.243552
 22
49.64756
 32
0.0
 70
   128
  1
13.4
  3
DIM1
100
AcDbAlignedDimension
 13
493.51878
 23
198.02182
 33
0.0
 14
503.29378
 24
211.42182
 34
0.0
 50
270.0
100
AcDbRotatedDimension
1001
ACAD
1000
DSTYLE
1002
{
1070
   288
1070
     1
1070
   144
1040
1.0
1002
}
  0
HATCH
  5
289
100
AcDbEntity
  8
HATCH
100
AcDbHatch
 10
0.0
 20
0.0
 30
0.0
210
0.0
220
0.0
230
1.0
  2
_U
 70
     0
 71
     1
 91
        1
 92
        7
 72
     1
 73
     1
 93
        2
 10
923.0597371111585
 20
334.5592260810632
 42
1.0
 10
931.0597371111585
 20
334.5592260810632
 42
1.0
 97
        1
330
55C
 75
     0
 76
     0
 52
45.0
 41
0.8
 77
     0
 78
     1
 53
45.0
 43
-144.426384
 44
0.0
 45
-0.565685424949238
 46
0.565685424949238
 79
     0
 47
0.31172
 98
        1
 10
928.35187
 20
336.204284
  0
HATCH
  5
28B
100
AcDbEntity
  8
HATCH
100
AcDbHatch
 10
0.0
 20
0.0
 30
0.0
210
0.0
220
0.0
230
1.0
  2
_U
 70
     0
 71
     0
 91
        1
 92
        7
 72
     1
 73
     1
 93
        2
 10
871.0597371111585
 20
334.5592260810632
 42
1.0
 10
879.0597371111585
 20
334.5592260810632
 42
1.0
 97
        0
 75
     0
 76
     0
 52
45.0
 41
0.8
 77
     0
 78
     1
 53
45.0
 43
-144.426384
 44
0.0
 45
-0.565685424949238
 46
0.565685424949238
 79
     0
 47
0.31172
 98
        1
 10
873.467596
 20
336.204284
  0
LINE
  5
28C
100
AcDbEntity
  8
M01
100
AcDbLine
 10
925.047749
 20
615.794894
 30
0.0
 11
927.027457
 21
617.001623
 31
0.0
  0
LINE
  5
28D
100
AcDbEntity
  8
M01
100
AcDbLine
 10
932.781716
 20
627.248121
 30
0.0
 11
932.781716
 21
635.822933
 31
0.0
  0
LINE
  5
28E
100
AcDbEntity
  8
M01
100
AcDbLine
 10
928.781716
 20
627.248121
 30
0.0
 11
928.781716
 21
635.822933
 31
0.0
  0
ARC
  5
28F
100
AcDbEntity
  8
M01
100
AcDbCircle
 10
920.781716
 20
627.248121
 30
0.0
 40
12.0
100
AcDbArc
 50
301.364349
 51
0.0
  0
ARC
  5
290
100
AcDbEntity
  8
M01
100
AcDbCircle
 10
920.781716
 20
627.248121
 30
0.0
 40
8.0
100
AcDbArc
 50
308.846454
 51
0.0
  0
LINE
  5
291
100
AcDbEntity
  8
M01
100
AcDbLine
 10
911.416388
 20
612.170441
 30
0.0
 11
921.6438
 21
618.404549
 31
0.0
  0
LINE
  5
292
100
AcDbEntity
  8
M01
100
AcDbLine
 10
913.498302
 20
608.754942
 30
0.0
 11
913.821834
 21
608.952151
 31
0.0
  0
LINE
  5
293
100
AcDbEntity
  8
M01
100
AcDbLine
 10
912.059737
 20
601.752534
 30
0.0
 11
912.059737
 21
601.159226
 31
0.0
  0
LINE
  5
294
100
AcDbEntity
  8
M01
100
AcDbLine
 10
908.059737
 20
606.193317
 30
0.0
 11
908.059737
 21
603.467473
 31
0.0
  0
ARC
  5
295
100
AcDbEntity
  8
M01
100
AcDbCircle
 10
915.059737
 20
606.193317
 30
0.0
 40
3.0
100
AcDbArc
 50
121.364349
 51
151.672691
  0
ARC
  5
296
100
AcDbEntity
  8
M01
100
AcDbCircle
 10
915.059737
 20
606.193317
 30
0.0
 40
7.0
100
AcDbArc
 50
121.364349
 51
180.0
  0
ARC
  5
297
100
AcDbEntity
  8
M01
100
AcDbCircle
 10
915.059737
 20
601.159226
 30
0.0
 40
7.0
100
AcDbArc
 50
202.678679
 51
270.0
  0
ARC
  5
298
100
AcDbEntity
  8
M01
100
AcDbCircle
 10
915.059737
 20
601.159226
 30
0.0
 40
3.0
100
AcDbArc
 50
180.0
 51
270.0
  0
ARC
  5
299
100
AcDbEntity
  8
M01
100
AcDbCircle
 10
913.7996
 20
619.975701
 30
0.0
 40
12.0
100
AcDbArc
 50
313.586993
 51
0.0
  0
ARC
  5
29A
100
AcDbEntity
  8
M01
100
AcDbCircle
 10
913.7996
 20
619.975701
 30
0.0
 40
8.0
100
AcDbArc
 50
313.586993
 51
0.0
  0
LINE
  5
29B
100
AcDbEntity
  8
M01
100
AcDbLine
 10
915.059737
 20
598.159226
 30
0.0
 11
920.059737
 21
598.159226
 31
0.0
  0
LINE
  5
29C
100
AcDbEntity
  8
M01
100
AcDbLine
 10
916.059737
 20
598.159226
 30
0.0
 11
916.059737
 21
594.159226
 31
0.0
  0
LINE
  5
29D
100
AcDbEntity
  8
M01
100
AcDbLine
 10
920.059737
 20
598.159226
 30
0.0
 11
920.059737
 21
594.159226
 31
0.0
  0
LINE
  5
29E
100
AcDbEntity
  8
M01
100
AcDbLine
 10
872.059737
 20
594.159226
 30
0.0
 11
899.284275
 21
594.159226
 31
0.0
  0
LINE
  5
29F
100
AcDbEntity
  8
M01
100
AcDbLine
 10
899.284275
 20
598.159226
 30
0.0
 11
882.059737
 21
598.159226
 31
0.0
  0
ARC
  5
2A0
100
AcDbEntity
  8
M01
100
AcDbCircle
 10
899.284275
 20
606.159226
 30
0.0
 40
12.0
100
AcDbArc
 50
270.0
 51
313.586993
  0
ARC
  5
2A1
100
AcDbEntity
  8
M01
100
AcDbCircle
 10
899.284275
 20
606.159226
 30
0.0
 40
8.0
100
AcDbArc
 50
270.0
 51
313.586993
  0
LINE
  5
2A2
100
AcDbEntity
  8
M01
100
AcDbLine
 10
886.059737
 20
598.159226
 30
0.0
 11
886.059737
 21
594.159226
 31
0.0
  0
LINE
  5
2A3
100
AcDbEntity
  8
M01
100
AcDbLine
 10
882.059737
 20
598.159226
 30
0.0
 11
882.059737
 21
594.159226
 31
0.0
  0
LINE
  5
2A4
100
AcDbEntity
  8
M01
100
AcDbLine
 10
922.073061
 20
611.28376
 30
0.0
 11
907.557737
 21
597.467285
 31
0.0
  0
LINE
  5
2A5
100
AcDbEntity
  8
M01
100
AcDbLine
 10
919.315241
 20
614.181074
 30
0.0
 11
904.799917
 21
600.364599
 31
0.0
  0
LINE
  5
2A6
100
AcDbEntity
  8
M01
100
AcDbLine
 10
925.7996
 20
635.814191
 30
0.0
 11
925.7996
 21
619.975701
 31
0.0
  0
LINE
  5
2A7
100
AcDbEntity
  8
M01
100
AcDbLine
 10
921.7996
 20
635.814191
 30
0.0
 11
921.7996
 21
619.975701
 31
0.0
  0
LINE
  5
2A8
100
AcDbEntity
  8
M01
100
AcDbLine
 10
921.809737
 20
579.503326
 30
0.0
 11
928.309737
 21
579.503326
 31
0.0
  0
LINE
  5
2A9
100
AcDbEntity
  8
M01
100
AcDbLine
 10
921.809737
 20
587.615126
 30
0.0
 11
928.309737
 21
587.615126
 31
0.0
  0
LINE
  5
2AA
100
AcDbEntity
  8
M01
100
AcDbLine
 10
921.809737
 20
579.503326
 30
0.0
 11
921.809737
 21
577.559226
 31
0.0
  0
ARC
  5
2AB
100
AcDbEntity
  8
M01
100
AcDbCircle
 10
920.559737
 20
581.064576
 30
0.0
 40
2.0
100
AcDbArc
 50
308.682187
 51
0.0
  0
ARC
  5
2AC
100
AcDbEntity
  8
M01
100
AcDbCircle
 10
920.559737
 20
586.053876
 30
0.0
 40
2.0
100
AcDbArc
 50
0.0
 51
51.317813
  0
LINE
  5
2AD
100
AcDbEntity
  8
M01
100
AcDbLine
 10
921.809737
 20
589.559226
 30
0.0
 11
921.809737
 21
587.615126
 31
0.0
  0
LINE
  5
2AE
100
AcDbEntity
  8
M01
100
AcDbLine
 10
922.559737
 20
586.053876
 30
0.0
 11
922.559737
 21
581.064576
 31
0.0
  0
LINE
  5
2AF
100
AcDbEntity
  8
M01
100
AcDbLine
 10
928.309737
 20
579.503326
 30
0.0
 11
928.309737
 21
577.559226
 31
0.0
  0
ARC
  5
2B0
100
AcDbEntity
  8
M01
100
AcDbCircle
 10
929.559737
 20
581.064576
 30
0.0
 40
2.0
100
AcDbArc
 50
180.0
 51
231.317813
  0
ARC
  5
2B1
100
AcDbEntity
  8
M01
100
AcDbCircle
 10
929.559737
 20
586.053876
 30
0.0
 40
2.0
100
AcDbArc
 50
128.682187
 51
180.0
  0
LINE
  5
2B2
100
AcDbEntity
  8
M01
100
AcDbLine
 10
928.309737
 20
589.559226
 30
0.0
 11
928.309737
 21
587.615126
 31
0.0
  0
LINE
  5
2B3
100
AcDbEntity
  8
M01
100
AcDbLine
 10
927.559737
 20
586.053876
 30
0.0
 11
927.559737
 21
581.064576
 31
0.0
  0
LINE
  5
2B4
100
AcDbEntity
  8
M01
100
AcDbLine
 10
920.059737
 20
572.559226
 30
0.0
 11
930.059737
 21
572.559226
 31
0.0
  0
LINE
  5
2B5
100
AcDbEntity
  8
M01
100
AcDbLine
 10
873.809737
 20
579.503326
 30
0.0
 11
880.309737
 21
579.503326
 31
0.0
  0
LINE
  5
2B6
100
AcDbEntity
  8
M01
100
AcDbLine
 10
873.809737
 20
587.615126
 30
0.0
 11
880.309737
 21
587.615126
 31
0.0
  0
LINE
  5
2B7
100
AcDbEntity
  8
M01
100
AcDbLine
 10
873.809737
 20
579.503326
 30
0.0
 11
873.809737
 21
577.559226
 31
0.0
  0
ARC
  5
2B8
100
AcDbEntity
  8
M01
100
AcDbCircle
 10
872.559737
 20
581.064576
 30
0.0
 40
2.0
100
AcDbArc
 50
308.682187
 51
0.0
  0
ARC
  5
2B9
100
AcDbEntity
  8
M01
100
AcDbCircle
 10
872.559737
 20
586.053876
 30
0.0
 40
2.0
100
AcDbArc
 50
0.0
 51
51.317813
  0
LINE
  5
2BA
100
AcDbEntity
  8
M01
100
AcDbLine
 10
873.809737
 20
589.559226
 30
0.0
 11
873.809737
 21
587.615126
 31
0.0
  0
LINE
  5
2BB
100
AcDbEntity
  8
M01
100
AcDbLine
 10
874.559737
 20
586.053876
 30
0.0
 11
874.559737
 21
581.064576
 31
0.0
  0
LINE
  5
2BC
100
AcDbEntity
  8
M01
100
AcDbLine
 10
880.309737
 20
579.503326
 30
0.0
 11
880.309737
 21
577.559226
 31
0.0
  0
ARC
  5
2BD
100
AcDbEntity
  8
M01
100
AcDbCircle
 10
881.559737
 20
581.064576
 30
0.0
 40
2.0
100
AcDbArc
 50
180.0
 51
231.317813
  0
ARC
  5
2BE
100
AcDbEntity
  8
M01
100
AcDbCircle
 10
881.559737
 20
586.053876
 30
0.0
 40
2.0
100
AcDbArc
 50
128.682187
 51
180.0
  0
LINE
  5
2BF
100
AcDbEntity
  8
M01
100
AcDbLine
 10
880.309737
 20
589.559226
 30
0.0
 11
880.309737
 21
587.615126
 31
0.0
  0
LINE
  5
2C0
100
AcDbEntity
  8
M01
100
AcDbLine
 10
879.559737
 20
586.053876
 30
0.0
 11
879.559737
 21
581.064576
 31
0.0
  0
LINE
  5
2C1
100
AcDbEntity
  8
M01
100
AcDbLine
 10
872.059737
 20
572.559226
 30
0.0
 11
882.059737
 21
572.559226
 31
0.0
  0
LINE
  5
2C2
100
AcDbEntity
  8
M01
100
AcDbLine
 10
930.059737
 20
577.559226
 30
0.0
 11
930.059737
 21
556.559226
 31
0.0
  0
LINE
  5
2C3
100
AcDbEntity
  8
M01
100
AcDbLine
 10
920.059737
 20
577.559226
 30
0.0
 11
920.059737
 21
557.559226
 31
0.0
  0
LINE
  5
2C4
100
AcDbEntity
  8
M01
100
AcDbLine
 10
872.059737
 20
577.559226
 30
0.0
 11
872.059737
 21
556.559226
 31
0.0
  0
LINE
  5
2C5
100
AcDbEntity
  8
M01
100
AcDbLine
 10
882.059737
 20
577.559226
 30
0.0
 11
882.059737
 21
557.559226
 31
0.0
  0
LINE
  5
2C6
100
AcDbEntity
  8
M01
100
AcDbLine
 10
922.028648
 20
599.459226
 30
0.0
 11
928.090826
 21
599.459226
 31
0.0
  0
ARC
  5
2C7
100
AcDbEntity
  8
M01
100
AcDbCircle
 10
928.090826
 20
597.609921
 30
0.0
 40
1.150694
100
AcDbArc
 50
208.592423
 51
331.407577
  0
ARC
  5
2C8
100
AcDbEntity
  8
M01
100
AcDbCircle
 10
925.059737
 20
600.162004
 30
0.0
 40
3.702778
100
AcDbArc
 50
236.92527
 51
303.07473
  0
ARC
  5
2C9
100
AcDbEntity
  8
M01
100
AcDbCircle
 10
922.028648
 20
597.609921
 30
0.0
 40
1.150694
100
AcDbArc
 50
208.592423
 51
331.407577
  0
ARC
  5
2CA
100
AcDbEntity
  8
M01
100
AcDbCircle
 10
928.090826
 20
598.308532
 30
0.0
 40
1.150694
100
AcDbArc
 50
28.592423
 51
151.407577
  0
ARC
  5
2CB
100
AcDbEntity
  8
M01
100
AcDbCircle
 10
925.059737
 20
595.756448
 30
0.0
 40
3.702778
100
AcDbArc
 50
56.92527
 51
123.07473
  0
LINE
  5
2CC
100
AcDbEntity
  8
M01
100
AcDbLine
 10
927.080463
 20
598.859226
 30
0.0
 11
927.080463
 21
597.059226
 31
0.0
  0
LINE
  5
2CD
100
AcDbEntity
  8
M01
100
AcDbLine
 10
929.101189
 20
598.859226
 30
0.0
 11
929.101189
 21
597.059226
 31
0.0
  0
ARC
  5
2CE
100
AcDbEntity
  8
M01
100
AcDbCircle
 10
922.028648
 20
598.308532
 30
0.0
 40
1.150694
100
AcDbArc
 50
28.592423
 51
151.407577
  0
LINE
  5
2CF
100
AcDbEntity
  8
M01
100
AcDbLine
 10
923.039011
 20
598.859226
 30
0.0
 11
923.039011
 21
597.059226
 31
0.0
  0
LINE
  5
2D0
100
AcDbEntity
  8
M01
100
AcDbLine
 10
921.018285
 20
598.859226
 30
0.0
 11
921.018285
 21
597.059226
 31
0.0
  0
LINE
  5
2D1
100
AcDbEntity
  8
M01
100
AcDbLine
 10
930.059737
 20
594.159226
 30
0.0
 11
930.059737
 21
595.659226
 31
0.0
  0
LINE
  5
2D2
100
AcDbEntity
  8
M01
100
AcDbLine
 10
920.059737
 20
594.159226
 30
0.0
 11
920.059737
 21
595.659226
 31
0.0
  0
LINE
  5
2D3
100
AcDbEntity
  8
M01
100
AcDbLine
 10
929.559737
 20
595.659226
 30
0.0
 11
929.559737
 21
596.459226
 31
0.0
  0
LINE
  5
2D4
100
AcDbEntity
  8
M01
100
AcDbLine
 10
920.559737
 20
595.659226
 30
0.0
 11
920.559737
 21
596.459226
 31
0.0
  0
LINE
  5
2D5
100
AcDbEntity
  8
M01
100
AcDbLine
 10
920.559737
 20
596.459226
 30
0.0
 11
929.559737
 21
596.459226
 31
0.0
  0
LINE
  5
2D6
100
AcDbEntity
  8
M01
100
AcDbLine
 10
920.059737
 20
595.659226
 30
0.0
 11
930.059737
 21
595.659226
 31
0.0
  0
LINE
  5
2D7
100
AcDbEntity
  8
M01
100
AcDbLine
 10
929.559737
 20
593.359226
 30
0.0
 11
929.559737
 21
594.159226
 31
0.0
  0
LINE
  5
2D8
100
AcDbEntity
  8
M01
100
AcDbLine
 10
920.559737
 20
593.359226
 30
0.0
 11
920.559737
 21
594.159226
 31
0.0
  0
LINE
  5
2D9
100
AcDbEntity
  8
M01
100
AcDbLine
 10
915.059737
 20
594.159226
 30
0.0
 11
930.059737
 21
594.159226
 31
0.0
  0
ARC
  5
2DA
100
AcDbEntity
  8
M01
100
AcDbCircle
 10
928.090826
 20
591.509921
 30
0.0
 40
1.150694
100
AcDbArc
 50
208.592423
 51
331.407577
  0
ARC
  5
2DB
100
AcDbEntity
  8
M01
100
AcDbCircle
 10
925.059737
 20
594.062004
 30
0.0
 40
3.702778
100
AcDbArc
 50
236.92527
 51
303.07473
  0
ARC
  5
2DC
100
AcDbEntity
  8
M01
100
AcDbCircle
 10
922.028648
 20
591.509921
 30
0.0
 40
1.150694
100
AcDbArc
 50
208.592423
 51
331.407577
  0
ARC
  5
2DD
100
AcDbEntity
  8
M01
100
AcDbCircle
 10
928.090826
 20
592.208532
 30
0.0
 40
1.150694
100
AcDbArc
 50
28.592423
 51
151.407577
  0
ARC
  5
2DE
100
AcDbEntity
  8
M01
100
AcDbCircle
 10
925.059737
 20
589.656448
 30
0.0
 40
3.702778
100
AcDbArc
 50
56.92527
 51
123.07473
  0
LINE
  5
2DF
100
AcDbEntity
  8
M01
100
AcDbLine
 10
927.080463
 20
592.759226
 30
0.0
 11
927.080463
 21
590.959226
 31
0.0
  0
LINE
  5
2E0
100
AcDbEntity
  8
M01
100
AcDbLine
 10
929.101189
 20
592.759226
 30
0.0
 11
929.101189
 21
590.959226
 31
0.0
  0
ARC
  5
2E1
100
AcDbEntity
  8
M01
100
AcDbCircle
 10
922.028648
 20
592.208532
 30
0.0
 40
1.150694
100
AcDbArc
 50
28.592423
 51
151.407577
  0
LINE
  5
2E2
100
AcDbEntity
  8
M01
100
AcDbLine
 10
923.039011
 20
592.759226
 30
0.0
 11
923.039011
 21
590.959226
 31
0.0
  0
LINE
  5
2E3
100
AcDbEntity
  8
M01
100
AcDbLine
 10
921.018285
 20
592.759226
 30
0.0
 11
921.018285
 21
590.959226
 31
0.0
  0
LINE
  5
2E4
100
AcDbEntity
  8
M01
100
AcDbLine
 10
920.559737
 20
593.359226
 30
0.0
 11
929.559737
 21
593.359226
 31
0.0
  0
LINE
  5
2E5
100
AcDbEntity
  8
M01
100
AcDbLine
 10
920.559737
 20
590.359226
 30
0.0
 11
929.559737
 21
590.359226
 31
0.0
  0
LINE
  5
2E6
100
AcDbEntity
  8
M01
100
AcDbLine
 10
920.559737
 20
589.559226
 30
0.0
 11
929.559737
 21
589.559226
 31
0.0
  0
LINE
  5
2E7
100
AcDbEntity
  8
M01
100
AcDbLine
 10
926.559737
 20
602.559226
 30
0.0
 11
927.059737
 21
602.059226
 31
0.0
  0
LINE
  5
2E8
100
AcDbEntity
  8
M01
100
AcDbLine
 10
923.059737
 20
602.059226
 30
0.0
 11
923.559737
 21
602.559226
 31
0.0
  0
LINE
  5
2E9
100
AcDbEntity
  8
M01
100
AcDbLine
 10
923.059737
 20
602.059226
 30
0.0
 11
927.059737
 21
602.059226
 31
0.0
  0
LINE
  5
2EA
100
AcDbEntity
  8
M01
100
AcDbLine
 10
926.559737
 20
602.559226
 30
0.0
 11
926.559737
 21
599.459226
 31
0.0
  0
LINE
  5
2EB
100
AcDbEntity
  8
M01
100
AcDbLine
 10
923.559737
 20
602.559226
 30
0.0
 11
923.559737
 21
599.459226
 31
0.0
  0
LINE
  5
2EC
100
AcDbEntity
  8
M01
100
AcDbLine
 10
923.059737
 20
602.059226
 30
0.0
 11
923.059737
 21
599.459226
 31
0.0
  0
LINE
  5
2ED
100
AcDbEntity
  8
M01
100
AcDbLine
 10
927.059737
 20
602.059226
 30
0.0
 11
927.059737
 21
599.459226
 31
0.0
  0
LINE
  5
2EE
100
AcDbEntity
  8
M01
100
AcDbLine
 10
923.559737
 20
602.559226
 30
0.0
 11
926.559737
 21
602.559226
 31
0.0
  0
LINE
  5
2EF
100
AcDbEntity
  8
M01
100
AcDbLine
 10
920.059737
 20
577.559226
 30
0.0
 11
930.059737
 21
577.559226
 31
0.0
  0
LINE
  5
2F0
100
AcDbEntity
  8
M01
100
AcDbLine
 10
929.559737
 20
590.359226
 30
0.0
 11
929.559737
 21
589.559226
 31
0.0
  0
LINE
  5
2F1
100
AcDbEntity
  8
M01
100
AcDbLine
 10
920.559737
 20
590.359226
 30
0.0
 11
920.559737
 21
589.559226
 31
0.0
  0
LINE
  5
2F2
100
AcDbEntity
  8
CENTRE
100
AcDbLine
 10
925.059737
 20
608.720115
 30
0.0
 11
925.059737
 21
545.126684
 31
0.0
  0
LINE
  5
2F3
100
AcDbEntity
  8
M01
100
AcDbLine
 10
880.090826
 20
599.459226
 30
0.0
 11
874.028648
 21
599.459226
 31
0.0
  0
ARC
  5
2F4
100
AcDbEntity
  8
M01
100
AcDbCircle
 10
874.028648
 20
597.609921
 30
0.0
 40
1.150694
100
AcDbArc
 50
208.592423
 51
331.407577
  0
ARC
  5
2F5
100
AcDbEntity
  8
M01
100
AcDbCircle
 10
877.059737
 20
600.162004
 30
0.0
 40
3.702778
100
AcDbArc
 50
236.92527
 51
303.07473
  0
ARC
  5
2F6
100
AcDbEntity
  8
M01
100
AcDbCircle
 10
880.090826
 20
597.609921
 30
0.0
 40
1.150694
100
AcDbArc
 50
208.592423
 51
331.407577
  0
ARC
  5
2F7
100
AcDbEntity
  8
M01
100
AcDbCircle
 10
874.028648
 20
598.308532
 30
0.0
 40
1.150694
100
AcDbArc
 50
28.592423
 51
151.407577
  0
ARC
  5
2F8
100
AcDbEntity
  8
M01
100
AcDbCircle
 10
877.059737
 20
595.756448
 30
0.0
 40
3.702778
100
AcDbArc
 50
56.92527
 51
123.07473
  0
LINE
  5
2F9
100
AcDbEntity
  8
M01
100
AcDbLine
 10
875.039011
 20
598.859226
 30
0.0
 11
875.039011
 21
597.059226
 31
0.0
  0
LINE
  5
2FA
100
AcDbEntity
  8
M01
100
AcDbLine
 10
873.018285
 20
598.859226
 30
0.0
 11
873.018285
 21
597.059226
 31
0.0
  0
ARC
  5
2FB
100
AcDbEntity
  8
M01
100
AcDbCircle
 10
880.090826
 20
598.308532
 30
0.0
 40
1.150694
100
AcDbArc
 50
28.592423
 51
151.407577
  0
LINE
  5
2FC
100
AcDbEntity
  8
M01
100
AcDbLine
 10
879.080463
 20
598.859226
 30
0.0
 11
879.080463
 21
597.059226
 31
0.0
  0
LINE
  5
2FD
100
AcDbEntity
  8
M01
100
AcDbLine
 10
881.101189
 20
598.859226
 30
0.0
 11
881.101189
 21
597.059226
 31
0.0
  0
LINE
  5
2FE
100
AcDbEntity
  8
M01
100
AcDbLine
 10
872.059737
 20
594.159226
 30
0.0
 11
872.059737
 21
595.659226
 31
0.0
  0
LINE
  5
2FF
100
AcDbEntity
  8
M01
100
AcDbLine
 10
872.559737
 20
595.659226
 30
0.0
 11
872.559737
 21
596.459226
 31
0.0
  0
LINE
  5
300
100
AcDbEntity
  8
M01
100
AcDbLine
 10
881.559737
 20
595.659226
 30
0.0
 11
881.559737
 21
596.459226
 31
0.0
  0
LINE
  5
301
100
AcDbEntity
  8
M01
100
AcDbLine
 10
881.559737
 20
596.459226
 30
0.0
 11
872.559737
 21
596.459226
 31
0.0
  0
LINE
  5
302
100
AcDbEntity
  8
M01
100
AcDbLine
 10
882.059737
 20
595.659226
 30
0.0
 11
872.059737
 21
595.659226
 31
0.0
  0
LINE
  5
303
100
AcDbEntity
  8
M01
100
AcDbLine
 10
872.559737
 20
593.359226
 30
0.0
 11
872.559737
 21
594.159226
 31
0.0
  0
LINE
  5
304
100
AcDbEntity
  8
M01
100
AcDbLine
 10
881.559737
 20
593.359226
 30
0.0
 11
881.559737
 21
594.159226
 31
0.0
  0
ARC
  5
305
100
AcDbEntity
  8
M01
100
AcDbCircle
 10
874.028648
 20
591.509921
 30
0.0
 40
1.150694
100
AcDbArc
 50
208.592423
 51
331.407577
  0
ARC
  5
306
100
AcDbEntity
  8
M01
100
AcDbCircle
 10
877.059737
 20
594.062004
 30
0.0
 40
3.702778
100
AcDbArc
 50
236.92527
 51
303.07473
  0
ARC
  5
307
100
AcDbEntity
  8
M01
100
AcDbCircle
 10
880.090826
 20
591.509921
 30
0.0
 40
1.150694
100
AcDbArc
 50
208.592423
 51
331.407577
  0
ARC
  5
308
100
AcDbEntity
  8
M01
100
AcDbCircle
 10
874.028648
 20
592.208532
 30
0.0
 40
1.150694
100
AcDbArc
 50
28.592423
 51
151.407577
  0
ARC
  5
309
100
AcDbEntity
  8
M01
100
AcDbCircle
 10
877.059737
 20
589.656448
 30
0.0
 40
3.702778
100
AcDbArc
 50
56.92527
 51
123.07473
  0
LINE
  5
30A
100
AcDbEntity
  8
M01
100
AcDbLine
 10
875.039011
 20
592.759226
 30
0.0
 11
875.039011
 21
590.959226
 31
0.0
  0
LINE
  5
30B
100
AcDbEntity
  8
M01
100
AcDbLine
 10
873.018285
 20
592.759226
 30
0.0
 11
873.018285
 21
590.959226
 31
0.0
  0
ARC
  5
30C
100
AcDbEntity
  8
M01
100
AcDbCircle
 10
880.090826
 20
592.208532
 30
0.0
 40
1.150694
100
AcDbArc
 50
28.592423
 51
151.407577
  0
LINE
  5
30D
100
AcDbEntity
  8
M01
100
AcDbLine
 10
879.080463
 20
592.759226
 30
0.0
 11
879.080463
 21
590.959226
 31
0.0
  0
LINE
  5
30E
100
AcDbEntity
  8
M01
100
AcDbLine
 10
881.101189
 20
592.759226
 30
0.0
 11
881.101189
 21
590.959226
 31
0.0
  0
LINE
  5
30F
100
AcDbEntity
  8
M01
100
AcDbLine
 10
881.559737
 20
593.359226
 30
0.0
 11
872.559737
 21
593.359226
 31
0.0
  0
LINE
  5
310
100
AcDbEntity
  8
M01
100
AcDbLine
 10
881.559737
 20
590.359226
 30
0.0
 11
872.559737
 21
590.359226
 31
0.0
  0
LINE
  5
311
100
AcDbEntity
  8
M01
100
AcDbLine
 10
881.559737
 20
589.559226
 30
0.0
 11
872.559737
 21
589.559226
 31
0.0
  0
LINE
  5
312
100
AcDbEntity
  8
M01
100
AcDbLine
 10
875.559737
 20
602.559226
 30
0.0
 11
875.059737
 21
602.059226
 31
0.0
  0
LINE
  5
313
100
AcDbEntity
  8
M01
100
AcDbLine
 10
879.059737
 20
602.059226
 30
0.0
 11
878.559737
 21
602.559226
 31
0.0
  0
LINE
  5
314
100
AcDbEntity
  8
M01
100
AcDbLine
 10
879.059737
 20
602.059226
 30
0.0
 11
875.059737
 21
602.059226
 31
0.0
  0
LINE
  5
315
100
AcDbEntity
  8
M01
100
AcDbLine
 10
875.559737
 20
602.559226
 30
0.0
 11
875.559737
 21
599.459226
 31
0.0
  0
LINE
  5
316
100
AcDbEntity
  8
M01
100
AcDbLine
 10
878.559737
 20
602.559226
 30
0.0
 11
878.559737
 21
599.459226
 31
0.0
  0
LINE
  5
317
100
AcDbEntity
  8
M01
100
AcDbLine
 10
879.059737
 20
602.059226
 30
0.0
 11
879.059737
 21
599.459226
 31
0.0
  0
LINE
  5
318
100
AcDbEntity
  8
M01
100
AcDbLine
 10
875.059737
 20
602.059226
 30
0.0
 11
875.059737
 21
599.459226
 31
0.0
  0
LINE
  5
319
100
AcDbEntity
  8
M01
100
AcDbLine
 10
878.559737
 20
602.559226
 30
0.0
 11
875.559737
 21
602.559226
 31
0.0
  0
LINE
  5
31A
100
AcDbEntity
  8
M01
100
AcDbLine
 10
882.059737
 20
577.559226
 30
0.0
 11
872.059737
 21
577.559226
 31
0.0
  0
LINE
  5
31B
100
AcDbEntity
  8
M01
100
AcDbLine
 10
872.559737
 20
590.359226
 30
0.0
 11
872.559737
 21
589.559226
 31
0.0
  0
LINE
  5
31C
100
AcDbEntity
  8
M01
100
AcDbLine
 10
881.559737
 20
590.359226
 30
0.0
 11
881.559737
 21
589.559226
 31
0.0
  0
LINE
  5
31D
100
AcDbEntity
  8
CENTRE
100
AcDbLine
 10
877.059737
 20
608.720115
 30
0.0
 11
877.059737
 21
545.126684
 31
0.0
  0
LINE
  5
31E
100
AcDbEntity
  8
M03
100
AcDbLine
 10
375.51878
 20
428.559226
 30
0.0
 11
675.51878
 21
428.559226
 31
0.0
  0
LINE
  5
31F
100
AcDbEntity
  8
M03
100
AcDbLine
 10
375.51878
 20
436.559226
 30
0.0
 11
675.51878
 21
436.559226
 31
0.0
  0
CIRCLE
  5
320
100
AcDbEntity
  8
M03
100
AcDbCircle
 10
375.51878
 20
432.559226
 30
0.0
 40
4.0
  0
CIRCLE
  5
321
100
AcDbEntity
  8
M03
100
AcDbCircle
 10
675.51878
 20
432.559226
 30
0.0
 40
4.0
  0
LINE
  5
322
102
{ACAD_REACTORS
330
1FF
102
}
100
AcDbEntity
  8
M02
100
AcDbLine
 10
559.51878
 20
128.02182
 30
0.0
 11
723.744176
 21
128.02182
 31
0.0
  0
LINE
  5
323
102
{ACAD_REACTORS
330
201
102
}
100
AcDbEntity
  8
M05
100
AcDbLine
 10
516.01878
 20
191.02182
 30
0.0
 11
516.01878
 21
187.02182
 31
0.0
  0
LINE
  5
324
102
{ACAD_REACTORS
330
201
102
}
100
AcDbEntity
  8
M05
100
AcDbLine
 10
535.01878
 20
191.02182
 30
0.0
 11
535.01878
 21
187.02182
 31
0.0
  0
TEXT
  5
325
100
AcDbEntity
  8
TEXT
100
AcDbText
 10
531.230153
 20
193.742547
 30
0.0
 40
2.0
  1
MA010002
 41
0.9
100
AcDbText
  0
LINE
  5
326
102
{ACAD_REACTORS
330
1FD
102
}
100
AcDbEntity
  8
M02
100
AcDbLine
 10
502.29378
 20
194.02182
 30
0.0
 11
502.29378
 21
191.02182
 31
0.0
  0
LINE
  5
327
100
AcDbEntity
  8
M03
100
AcDbLine
 10
527.81878
 20
198.42182
 30
0.0
 11
527.81878
 21
186.02182
 31
0.0
  0
LINE
  5
328
100
AcDbEntity
  8
M03
100
AcDbLine
 10
523.21878
 20
198.42182
 30
0.0
 11
523.21878
 21
186.02182
 31
0.0
  0
LINE
  5
329
100
AcDbEntity
  8
M03
100
AcDbLine
 10
522.51878
 20
198.42182
 30
0.0
 11
522.51878
 21
186.02182
 31
0.0
  0
LINE
  5
32A
100
AcDbEntity
  8
M03
100
AcDbLine
 10
528.51878
 20
198.42182
 30
0.0
 11
528.51878
 21
186.02182
 31
0.0
  0
ARC
  5
32B
100
AcDbEntity
  8
M03
100
AcDbCircle
 10
514.01878
 20
203.42182
 30
0.0
 40
5.0
100
AcDbArc
 50
180.0
 51
270.0
  0
ARC
  5
32C
100
AcDbEntity
  8
M03
100
AcDbCircle
 10
537.01878
 20
203.42182
 30
0.0
 40
5.0
100
AcDbArc
 50
270.0
 51
0.0
  0
LINE
  5
32D
100
AcDbEntity
  8
M03
100
AcDbLine
 10
509.01878
 20
216.42182
 30
0.0
 11
509.01878
 21
203.42182
 31
0.0
  0
LINE
  5
32E
100
AcDbEntity
  8
M03
100
AcDbLine
 10
542.01878
 20
216.42182
 30
0.0
 11
542.01878
 21
203.42182
 31
0.0
  0
LINE
  5
32F
100
AcDbEntity
  8
M03
100
AcDbLine
 10
537.01878
 20
198.42182
 30
0.0
 11
514.01878
 21
198.42182
 31
0.0
  0
LINE
  5
330
100
AcDbEntity
  8
M05
100
AcDbLine
 10
503.79378
 20
191.72182
 30
0.0
 11
547.24378
 21
191.72182
 31
0.0
  0
LINE
  5
331
100
AcDbEntity
  8
M05
100
AcDbLine
 10
546.54378
 20
191.02182
 30
0.0
 11
547.24378
 21
191.72182
 31
0.0
  0
LINE
  5
332
100
AcDbEntity
  8
M05
100
AcDbLine
 10
503.79378
 20
191.72182
 30
0.0
 11
504.49378
 21
191.02182
 31
0.0
  0
LINE
  5
333
100
AcDbEntity
  8
M05
100
AcDbLine
 10
503.79378
 20
211.42182
 30
0.0
 11
503.79378
 21
191.72182
 31
0.0
  0
LINE
  5
334
100
AcDbEntity
  8
M04
100
AcDbLine
 10
502.29378
 20
210.84447
 30
0.0
 11
503.79378
 21
210.84447
 31
0.0
  0
LINE
  5
335
100
AcDbEntity
  8
M04
100
AcDbLine
 10
502.29378
 20
210.84447
 30
0.0
 11
502.29378
 21
198.02182
 31
0.0
  0
LINE
  5
336
100
AcDbEntity
  8
M04
100
AcDbLine
 10
503.29378
 20
211.42182
 30
0.0
 11
502.29378
 21
210.84447
 31
0.0
  0
LINE
  5
337
100
AcDbEntity
  8
M04
100
AcDbLine
 10
503.29378
 20
215.42182
 30
0.0
 11
503.29378
 21
216.42182
 31
0.0
  0
LINE
  5
338
100
AcDbEntity
  8
M04
100
AcDbLine
 10
504.29378
 20
216.42182
 30
0.0
 11
503.29378
 21
216.42182
 31
0.0
  0
LINE
  5
339
100
AcDbEntity
  8
M05
100
AcDbLine
 10
504.29378
 20
216.42182
 30
0.0
 11
503.29378
 21
215.42182
 31
0.0
  0
LINE
  5
33A
100
AcDbEntity
  8
M05
100
AcDbLine
 10
503.29378
 20
215.42182
 30
0.0
 11
503.29378
 21
211.42182
 31
0.0
  0
LINE
  5
33B
100
AcDbEntity
  8
M05
100
AcDbLine
 10
547.24378
 20
211.42182
 30
0.0
 11
547.24378
 21
191.72182
 31
0.0
  0
LINE
  5
33C
100
AcDbEntity
  8
M04
100
AcDbLine
 10
548.74378
 20
210.84447
 30
0.0
 11
547.24378
 21
210.84447
 31
0.0
  0
LINE
  5
33D
100
AcDbEntity
  8
M04
100
AcDbLine
 10
548.74378
 20
210.84447
 30
0.0
 11
548.74378
 21
198.02182
 31
0.0
  0
LINE
  5
33E
100
AcDbEntity
  8
M04
100
AcDbLine
 10
547.74378
 20
211.42182
 30
0.0
 11
548.74378
 21
210.84447
 31
0.0
  0
LINE
  5
33F
100
AcDbEntity
  8
M04
100
AcDbLine
 10
547.74378
 20
215.42182
 30
0.0
 11
547.74378
 21
216.42182
 31
0.0
  0
LINE
  5
340
100
AcDbEntity
  8
M04
100
AcDbLine
 10
546.74378
 20
216.42182
 30
0.0
 11
547.74378
 21
216.42182
 31
0.0
  0
LINE
  5
341
100
AcDbEntity
  8
M05
100
AcDbLine
 10
516.01878
 20
187.02182
 30
0.0
 11
535.01878
 21
187.02182
 31
0.0
  0
LINE
  5
342
100
AcDbEntity
  8
M05
100
AcDbLine
 10
503.29378
 20
215.42182
 30
0.0
 11
547.74378
 21
215.42182
 31
0.0
  0
LINE
  5
343
100
AcDbEntity
  8
M05
100
AcDbLine
 10
546.74378
 20
216.42182
 30
0.0
 11
547.74378
 21
215.42182
 31
0.0
  0
LINE
  5
344
100
AcDbEntity
  8
M05
100
AcDbLine
 10
547.74378
 20
215.42182
 30
0.0
 11
547.74378
 21
211.42182
 31
0.0
  0
LINE
  5
345
100
AcDbEntity
  8
M05
100
AcDbLine
 10
547.74378
 20
211.42182
 30
0.0
 11
503.29378
 21
211.42182
 31
0.0
  0
LINE
  5
346
100
AcDbEntity
  8
M05
100
AcDbLine
 10
546.74378
 20
216.42182
 30
0.0
 11
504.29378
 21
216.42182
 31
0.0
  0
LINE
  5
347
102
{ACAD_REACTORS
330
1F8
102
}
100
AcDbEntity
  8
M02
100
AcDbLine
 10
548.74378
 20
194.02182
 30
0.0
 11
548.74378
 21
191.02182
 31
0.0
  0
LINE
  5
348
100
AcDbEntity
  8
CENTRE
100
AcDbLine
 10
683.51878
 20
158.02182
 30
0.0
 11
367.51878
 21
158.02182
 31
0.0
  0
HATCH
  5
349
100
AcDbEntity
  8
HATCH
100
AcDbHatch
 10
0.0
 20
0.0
 30
0.0
210
0.0
220
0.0
230
1.0
  2
_U
 70
     0
 71
     1
 91
        2
 92
        7
 72
     1
 73
     1
 93
        2
 10
712.744176282579
 20
187.0218204909278
 42
1.0
 10
720.744176282579
 20
187.0218204909278
 42
1.0
 97
        1
330
397
 92
        7
 72
     1
 73
     1
 93
        2
 10
712.744176282579
 20
135.0218204909275
 42
1.0
 10
720.744176282579
 20
135.0218204909275
 42
1.0
 97
        1
330
38E
 75
     0
 76
     0
 52
45.0
 41
0.8
 77
     0
 78
     1
 53
45.0
 43
182.978642
 44
-88.992065
 45
-0.565685424949238
 46
0.565685424949238
 79
     0
 47
0.270666
 98
        2
 10
715.751149
 20
188.277901
 10
717.917368
 20
136.8514
  0
LINE
  5
34A
102
{ACAD_REACTORS
330
56
102
}
100
AcDbEntity
  8
M01
100
AcDbLine
 10
371.51878
 20
171.52182
 30
0.0
 11
300.51878
 21
171.52182
 31
0.0
  0
LINE
  5
34B
100
AcDbEntity
  8
M01
100
AcDbLine
 10
375.51878
 20
175.52182
 30
0.0
 11
371.51878
 21
171.52182
 31
0.0
  0
LINE
  5
34C
102
{ACAD_REACTORS
330
201
330
1FE
330
1FD
330
56
102
}
100
AcDbEntity
  8
CENTRE
100
AcDbLine
 10
375.51878
 20
112.02182
 30
0.0
 11
375.51878
 21
210.02182
 31
0.0
  0
LINE
  5
34D
100
AcDbEntity
  8
M01
100
AcDbLine
 10
379.51878
 20
162.02182
 30
0.0
 11
375.51878
 21
158.02182
 31
0.0
  0
LINE
  5
34E
102
{ACAD_REACTORS
330
201
102
}
100
AcDbEntity
  8
M01
100
AcDbLine
 10
521.51878
 20
154.02182
 30
0.0
 11
375.51878
 21
154.02182
 31
0.0
  0
LINE
  5
34F
102
{ACAD_REACTORS
330
201
102
}
100
AcDbEntity
  8
M01
100
AcDbLine
 10
379.51878
 20
162.02182
 30
0.0
 11
379.51878
 21
175.52182
 31
0.0
  0
LINE
  5
350
102
{ACAD_REACTORS
330
56
102
}
100
AcDbEntity
  8
M01
100
AcDbLine
 10
371.51878
 20
158.02182
 30
0.0
 11
371.51878
 21
171.52182
 31
0.0
  0
ARC
  5
351
102
{ACAD_REACTORS
330
56
102
}
100
AcDbEntity
  8
M01
100
AcDbCircle
 10
375.51878
 20
158.02182
 30
0.0
 40
4.0
100
AcDbArc
 50
180.0
 51
270.0
  0
LINE
  5
352
102
{ACAD_REACTORS
330
1FD
102
}
100
AcDbEntity
  8
M02
100
AcDbLine
 10
318.51878
 20
191.02182
 30
0.0
 11
318.51878
 21
194.02182
 31
0.0
  0
LINE
  5
353
102
{ACAD_REACTORS
330
1FC
102
}
100
AcDbEntity
  8
M02
100
AcDbLine
 10
282.51878
 20
191.02182
 30
0.0
 11
282.51878
 21
194.02182
 31
0.0
  0
LINE
  5
354
100
AcDbEntity
  8
CENTRE
100
AcDbLine
 10
383.635538
 20
175.52182
 30
0.0
 11
292.51878
 21
175.52182
 31
0.0
  0
LINE
  5
355
100
AcDbEntity
  8
CENTRE
100
AcDbLine
 10
300.51878
 20
167.405062
 30
0.0
 11
300.51878
 21
201.370118
 31
0.0
  0
LINE
  5
356
100
AcDbEntity
  8
M01
100
AcDbLine
 10
304.51878
 20
179.52182
 30
0.0
 11
300.51878
 21
175.52182
 31
0.0
  0
LINE
  5
357
102
{ACAD_REACTORS
330
56
102
}
100
AcDbEntity
  8
M01
100
AcDbLine
 10
375.51878
 20
179.52182
 30
0.0
 11
304.51878
 21
179.52182
 31
0.0
  0
LINE
  5
358
102
{ACAD_REACTORS
330
56
102
}
100
AcDbEntity
  8
M01
100
AcDbLine
 10
304.51878
 20
179.52182
 30
0.0
 11
304.51878
 21
191.02182
 31
0.0
  0
LINE
  5
359
102
{ACAD_REACTORS
330
56
102
}
100
AcDbEntity
  8
M01
100
AcDbLine
 10
296.51878
 20
175.52182
 30
0.0
 11
296.51878
 21
191.02182
 31
0.0
  0
ARC
  5
35A
102
{ACAD_REACTORS
330
56
102
}
100
AcDbEntity
  8
M01
100
AcDbCircle
 10
300.51878
 20
175.52182
 30
0.0
 40
4.0
100
AcDbArc
 50
180.0
 51
270.0
  0
LINE
  5
35B
100
AcDbEntity
  8
CENTRE
100
AcDbLine
 10
675.51878
 20
149.905062
 30
0.0
 11
675.51878
 21
183.638579
 31
0.0
  0
LINE
  5
35C
100
AcDbEntity
  8
M01
100
AcDbLine
 10
671.51878
 20
162.02182
 30
0.0
 11
675.51878
 21
158.02182
 31
0.0
  0
LINE
  5
35D
102
{ACAD_REACTORS
330
201
102
}
100
AcDbEntity
  8
M01
100
AcDbLine
 10
379.51878
 20
162.02182
 30
0.0
 11
671.51878
 21
162.02182
 31
0.0
  0
LINE
  5
35E
102
{ACAD_REACTORS
330
201
102
}
100
AcDbEntity
  8
M01
100
AcDbLine
 10
529.51878
 20
154.02182
 30
0.0
 11
675.51878
 21
154.02182
 31
0.0
  0
LINE
  5
35F
102
{ACAD_REACTORS
330
201
102
}
100
AcDbEntity
  8
M01
100
AcDbLine
 10
671.51878
 20
162.02182
 30
0.0
 11
671.51878
 21
175.52182
 31
0.0
  0
LINE
  5
360
102
{ACAD_REACTORS
330
201
102
}
100
AcDbEntity
  8
M01
100
AcDbLine
 10
679.51878
 20
158.02182
 30
0.0
 11
679.51878
 21
175.52182
 31
0.0
  0
ARC
  5
361
102
{ACAD_REACTORS
330
201
102
}
100
AcDbEntity
  8
M01
100
AcDbCircle
 10
675.51878
 20
158.02182
 30
0.0
 40
4.0
100
AcDbArc
 50
270.0
 51
0.0
  0
LINE
  5
362
102
{ACAD_REACTORS
330
201
102
}
100
AcDbEntity
  8
M04
100
AcDbLine
 10
517.01878
 20
186.02182
 30
0.0
 11
516.01878
 21
186.02182
 31
0.0
  0
LINE
  5
363
102
{ACAD_REACTORS
330
201
102
}
100
AcDbEntity
  8
M04
100
AcDbLine
 10
516.01878
 20
187.02182
 30
0.0
 11
516.01878
 21
186.02182
 31
0.0
  0
LINE
  5
364
102
{ACAD_REACTORS
330
201
102
}
100
AcDbEntity
  8
M04
100
AcDbLine
 10
534.01878
 20
186.02182
 30
0.0
 11
535.01878
 21
186.02182
 31
0.0
  0
LINE
  5
365
102
{ACAD_REACTORS
330
201
102
}
100
AcDbEntity
  8
M04
100
AcDbLine
 10
535.01878
 20
187.02182
 30
0.0
 11
535.01878
 21
186.02182
 31
0.0
  0
LINE
  5
366
100
AcDbEntity
  8
M05
100
AcDbLine
 10
517.01878
 20
186.02182
 30
0.0
 11
516.01878
 21
187.02182
 31
0.0
  0
LINE
  5
367
100
AcDbEntity
  8
M05
100
AcDbLine
 10
535.01878
 20
187.02182
 30
0.0
 11
534.01878
 21
186.02182
 31
0.0
  0
LINE
  5
368
102
{ACAD_REACTORS
330
201
102
}
100
AcDbEntity
  8
M05
100
AcDbLine
 10
534.01878
 20
186.02182
 30
0.0
 11
517.01878
 21
186.02182
 31
0.0
  0
POINT
  5
369
100
AcDbEntity
  8
DEFPOINTS
  6
BYBLOCK
 62
     0
100
AcDbPoint
 10
525.51878
 20
191.02182
 30
0.0
  0
LINE
  5
36A
102
{ACAD_REACTORS
330
201
102
}
100
AcDbEntity
  8
M04
100
AcDbLine
 10
515.31878
 20
191.02182
 30
0.0
 11
516.01878
 21
190.32182
 31
0.0
  0
LINE
  5
36B
102
{ACAD_REACTORS
330
201
102
}
100
AcDbEntity
  8
M04
100
AcDbLine
 10
535.71878
 20
191.02182
 30
0.0
 11
535.01878
 21
190.32182
 31
0.0
  0
HATCH
  5
36C
100
AcDbEntity
  8
HATCH
100
AcDbHatch
 10
0.0
 20
0.0
 30
0.0
210
0.0
220
0.0
230
1.0
  2
_U
 70
     0
 71
     1
 91
        2
 92
        7
 72
     1
 73
     1
 93
        2
 10
273.5187795381627
 20
187.0218204909278
 42
1.0
 10
281.5187795381627
 20
187.0218204909278
 42
1.0
 97
        1
330
385
 92
        7
 72
     1
 73
     1
 93
        2
 10
281.5187795381627
 20
135.0218204909275
 42
1.0
 10
273.5187795381627
 20
135.0218204909275
 42
1.0
 97
        1
330
37C
 75
     0
 76
     0
 52
45.0
 41
0.8
 77
     0
 78
     1
 53
45.0
 43
-167.428461
 44
-103.464654
 45
-0.565685424949238
 46
0.565685424949238
 79
     0
 47
0.251927
 98
        2
 10
276.055677
 20
188.792881
 10
279.080051
 20
149.996083
  0
LINE
  5
36D
100
AcDbEntity
  8
M05
100
AcDbLine
 10
310.01878
 20
125.02182
 30
0.0
 11
311.01878
 21
124.02182
 31
0.0
  0
LINE
  5
36E
100
AcDbEntity
  8
M05
100
AcDbLine
 10
308.01878
 20
125.02182
 30
0.0
 11
307.01878
 21
124.02182
 31
0.0
  0
LINE
  5
36F
100
AcDbEntity
  8
M05
100
AcDbLine
 10
310.01878
 20
125.02182
 30
0.0
 11
308.01878
 21
125.02182
 31
0.0
  0
LINE
  5
370
100
AcDbEntity
  8
M05
100
AcDbLine
 10
291.01878
 20
125.02182
 30
0.0
 11
290.01878
 21
124.02182
 31
0.0
  0
LINE
  5
371
100
AcDbEntity
  8
M05
100
AcDbLine
 10
293.01878
 20
125.02182
 30
0.0
 11
294.01878
 21
124.02182
 31
0.0
  0
LINE
  5
372
100
AcDbEntity
  8
M05
100
AcDbLine
 10
291.01878
 20
125.02182
 30
0.0
 11
293.01878
 21
125.02182
 31
0.0
  0
HATCH
  5
373
100
AcDbEntity
  8
DIMS
100
AcDbHatch
 10
0.0
 20
0.0
 30
0.0
210
0.0
220
0.0
230
1.0
  2
_U
 70
     0
 71
     1
 91
        5
 92
        7
 72
     0
 73
     1
 93
        9
 10
557.0187795381627
 20
129.0218204909274
 10
557.0187795381627
 20
125.0218204909275
 10
558.8187795381628
 20
125.0218204909275
 10
559.518779538163
 20
125.7218204909275
 10
559.518779538163
 20
130.3218204909274
 10
558.8187795381628
 20
131.0218204909276
 10
555.2187795381628
 20
131.0218204909277
 10
555.2187795381627
 20
129.0218204909275
 10
556.768779538163
 20
129.0218204909275
 97
        9
330
425
330
3B2
330
3C6
330
3B7
330
3CB
330
3B9
330
428
330
426
330
429
 92
        7
 72
     1
 73
     1
 93
       16
 10
544.8187795381627
 20
120.0218204909275
 42
0.0
 10
545.5187795381629
 20
120.7218204909276
 42
0.0
 10
545.5187795381627
 20
122.0218204909276
 42
0.0
 10
545.0187795381627
 20
122.0218204909275
 42
0.0
 10
545.0187795381627
 20
125.0218204909275
 42
0.0
 10
546.0187795381629
 20
125.0218204909275
 42
0.0
 10
546.0187795381629
 20
129.0218204909275
 42
0.0
 10
546.2687795381628
 20
129.0218204909275
 42
0.0
 10
547.8187795381627
 20
129.0218204909275
 42
0.0
 10
547.8187795381627
 20
131.0218204909277
 42
0.0
 10
535.5187795381627
 20
131.0218204909277
 42
0.0
 10
535.5187795381627
 20
140.0218204909274
 42
0.0
 10
534.5187795381626
 20
141.0218204909274
 42
0.0
 10
529.5187795381628
 20
141.0218204909275
 42
0.0
 10
528.5596535360586
 20
122.7206061440287
 42
-0.1092323044357264
 10
534.6839309280742
 20
120.0218204909274
 42
0.0
 97
       16
330
428
330
3BA
330
3B8
330
3B7
330
3C5
330
406
330
432
330
42E
330
430
330
40F
330
410
330
41E
330
41D
330
420
330
41B
330
41A
 92
        7
 72
     1
 73
     1
 93
       16
 10
522.4779055402666
 20
122.7206061440286
 42
0.0
 10
521.5187795381628
 20
141.0218204909275
 42
0.0
 10
516.5187795381627
 20
141.0218204909275
 42
0.0
 10
515.5187795381627
 20
140.0218204909275
 42
0.0
 10
515.5187795381627
 20
131.0218204909277
 42
0.0
 10
503.2187795381627
 20
131.0218204909277
 42
0.0
 10
503.2187795381629
 20
129.0218204909275
 42
0.0
 10
504.7687795381627
 20
129.0218204909275
 42
0.0
 10
505.0187795381626
 20
129.0218204909275
 42
0.0
 10
505.0187795381626
 20
125.0218204909276
 42
0.0
 10
506.0187795381628
 20
125.0218204909276
 42
0.0
 10
506.0187795381628
 20
122.0218204909273
 42
0.0
 10
505.5187795381628
 20
122.0218204909273
 42
0.0
 10
505.5187795381628
 20
120.7218204909273
 42
0.0
 10
506.2187795381628
 20
120.0218204909272
 42
0.0
 10
516.3536281482511
 20
120.0218204909273
 42
-0.1092323044357262
 97
       16
330
430
330
42F
330
431
330
441
330
3AA
330
39C
330
39D
330
39F
330
418
330
419
330
417
330
41F
330
41C
330
41E
330
40C
330
40E
 92
        7
 72
     0
 73
     1
 93
        9
 10
494.0187795381627
 20
129.0218204909274
 10
494.2687795381625
 20
129.0218204909274
 10
495.8187795381626
 20
129.0218204909274
 10
495.8187795381626
 20
131.0218204909276
 10
492.2187795381627
 20
131.0218204909276
 10
491.5187795381624
 20
130.3218204909275
 10
491.5187795381625
 20
125.7218204909276
 10
492.2187795381623
 20
125.0218204909276
 10
494.0187795381627
 20
125.0218204909276
 97
        9
330
441
330
423
330
424
330
404
330
418
330
39E
330
3B0
330
39C
330
3AB
 92
       24
 93
        4
 72
     1
 10
530.09286
 20
126.089308
 11
544.464289
 21
126.089308
 72
     1
 10
544.464289
 20
126.089308
 11
544.464289
 21
129.089308
 72
     1
 10
544.464289
 20
129.089308
 11
530.09286
 21
129.089308
 72
     1
 10
530.09286
 20
129.089308
 11
530.09286
 21
126.089308
 97
        1
330
401
 75
     0
 76
     0
 52
135.0
 41
2.5
 77
     0
 78
     1
 53
135.0
 43
-29.928461
 44
-116.464654
 45
-1.767766952966368
 46
-1.767766952966368
 79
     0
 47
0.085632
 98
        4
 10
558.015742
 20
129.379805
 10
540.368297
 20
123.385575
 10
517.580818
 20
124.584422
 10
493.336999
 20
129.379805
  0
LINE
  5
374
100
AcDbEntity
  8
DIMS
 62
     4
100
AcDbLine
 10
274.11878
 20
135.02182
 30
0.0
 11
271.81878
 21
135.02182
 31
0.0
  0
LINE
  5
375
100
AcDbEntity
  8
DIMS
 62
     4
100
AcDbLine
 10
280.91878
 20
135.02182
 30
0.0
 11
283.21878
 21
135.02182
 31
0.0
  0
LINE
  5
376
100
AcDbEntity
  8
DIMS
 62
     4
100
AcDbLine
 10
277.51878
 20
138.42182
 30
0.0
 11
277.51878
 21
140.72182
 31
0.0
  0
LINE
  5
377
100
AcDbEntity
  8
DIMS
 62
     4
100
AcDbLine
 10
277.51878
 20
131.62182
 30
0.0
 11
277.51878
 21
129.32182
 31
0.0
  0
LINE
  5
378
100
AcDbEntity
  8
DIMS
 62
     4
100
AcDbLine
 10
279.21878
 20
135.02182
 30
0.0
 11
275.81878
 21
135.02182
 31
0.0
  0
LINE
  5
379
100
AcDbEntity
  8
DIMS
 62
     4
100
AcDbLine
 10
277.51878
 20
133.32182
 30
0.0
 11
277.51878
 21
136.72182
 31
0.0
  0
LINE
  5
37A
102
{ACAD_REACTORS
330
56
102
}
100
AcDbEntity
  8
M01
100
AcDbLine
 10
281.51878
 20
135.02182
 30
0.0
 11
281.51878
 21
131.02182
 31
0.0
  0
LINE
  5
37B
102
{ACAD_REACTORS
330
56
102
}
100
AcDbEntity
  8
M01
100
AcDbLine
 10
273.51878
 20
135.02182
 30
0.0
 11
273.51878
 21
131.02182
 31
0.0
  0
CIRCLE
  5
37C
102
{ACAD_REACTORS
330
36C
330
56
102
}
100
AcDbEntity
  8
M01
100
AcDbCircle
 10
277.51878
 20
135.02182
 30
0.0
 40
4.0
  0
LINE
  5
37D
100
AcDbEntity
  8
DIMS
 62
     4
100
AcDbLine
 10
274.11878
 20
187.02182
 30
0.0
 11
271.81878
 21
187.02182
 31
0.0
  0
LINE
  5
37E
100
AcDbEntity
  8
DIMS
 62
     4
100
AcDbLine
 10
280.91878
 20
187.02182
 30
0.0
 11
283.21878
 21
187.02182
 31
0.0
  0
LINE
  5
37F
100
AcDbEntity
  8
DIMS
 62
     4
100
AcDbLine
 10
277.51878
 20
183.62182
 30
0.0
 11
277.51878
 21
181.32182
 31
0.0
  0
LINE
  5
380
100
AcDbEntity
  8
DIMS
 62
     4
100
AcDbLine
 10
277.51878
 20
190.42182
 30
0.0
 11
277.51878
 21
192.72182
 31
0.0
  0
LINE
  5
381
100
AcDbEntity
  8
DIMS
 62
     4
100
AcDbLine
 10
279.21878
 20
187.02182
 30
0.0
 11
275.81878
 21
187.02182
 31
0.0
  0
LINE
  5
382
100
AcDbEntity
  8
DIMS
 62
     4
100
AcDbLine
 10
277.51878
 20
188.72182
 30
0.0
 11
277.51878
 21
185.32182
 31
0.0
  0
LINE
  5
383
102
{ACAD_REACTORS
330
56
102
}
100
AcDbEntity
  8
M01
100
AcDbLine
 10
281.51878
 20
187.02182
 30
0.0
 11
281.51878
 21
191.02182
 31
0.0
  0
LINE
  5
384
102
{ACAD_REACTORS
330
56
102
}
100
AcDbEntity
  8
M01
100
AcDbLine
 10
273.51878
 20
187.02182
 30
0.0
 11
273.51878
 21
191.02182
 31
0.0
  0
CIRCLE
  5
385
102
{ACAD_REACTORS
330
36C
330
56
102
}
100
AcDbEntity
  8
M01
100
AcDbCircle
 10
277.51878
 20
187.02182
 30
0.0
 40
4.0
  0
LINE
  5
386
100
AcDbEntity
  8
DIMS
 62
     4
100
AcDbLine
 10
720.144176
 20
135.02182
 30
0.0
 11
722.444176
 21
135.02182
 31
0.0
  0
LINE
  5
387
100
AcDbEntity
  8
DIMS
 62
     4
100
AcDbLine
 10
713.344176
 20
135.02182
 30
0.0
 11
711.044176
 21
135.02182
 31
0.0
  0
LINE
  5
388
100
AcDbEntity
  8
DIMS
 62
     4
100
AcDbLine
 10
716.744176
 20
138.42182
 30
0.0
 11
716.744176
 21
140.72182
 31
0.0
  0
LINE
  5
389
100
AcDbEntity
  8
DIMS
 62
     4
100
AcDbLine
 10
716.744176
 20
131.62182
 30
0.0
 11
716.744176
 21
129.32182
 31
0.0
  0
LINE
  5
38A
100
AcDbEntity
  8
DIMS
 62
     4
100
AcDbLine
 10
715.044176
 20
135.02182
 30
0.0
 11
718.444176
 21
135.02182
 31
0.0
  0
LINE
  5
38B
100
AcDbEntity
  8
DIMS
 62
     4
100
AcDbLine
 10
716.744176
 20
133.32182
 30
0.0
 11
716.744176
 21
136.72182
 31
0.0
  0
LINE
  5
38C
102
{ACAD_REACTORS
330
201
102
}
100
AcDbEntity
  8
M01
100
AcDbLine
 10
712.744176
 20
135.02182
 30
0.0
 11
712.744176
 21
131.02182
 31
0.0
  0
LINE
  5
38D
102
{ACAD_REACTORS
330
201
102
}
100
AcDbEntity
  8
M01
100
AcDbLine
 10
720.744176
 20
135.02182
 30
0.0
 11
720.744176
 21
131.02182
 31
0.0
  0
CIRCLE
  5
38E
102
{ACAD_REACTORS
330
349
330
201
102
}
100
AcDbEntity
  8
M01
100
AcDbCircle
 10
716.744176
 20
135.02182
 30
0.0
 40
4.0
  0
LINE
  5
38F
100
AcDbEntity
  8
DIMS
 62
     4
100
AcDbLine
 10
720.144176
 20
187.02182
 30
0.0
 11
722.444176
 21
187.02182
 31
0.0
  0
LINE
  5
390
100
AcDbEntity
  8
DIMS
 62
     4
100
AcDbLine
 10
713.344176
 20
187.02182
 30
0.0
 11
711.044176
 21
187.02182
 31
0.0
  0
LINE
  5
391
100
AcDbEntity
  8
DIMS
 62
     4
100
AcDbLine
 10
716.744176
 20
183.62182
 30
0.0
 11
716.744176
 21
181.32182
 31
0.0
  0
LINE
  5
392
100
AcDbEntity
  8
DIMS
 62
     4
100
AcDbLine
 10
716.744176
 20
190.42182
 30
0.0
 11
716.744176
 21
192.72182
 31
0.0
  0
LINE
  5
393
100
AcDbEntity
  8
DIMS
 62
     4
100
AcDbLine
 10
715.044176
 20
187.02182
 30
0.0
 11
718.444176
 21
187.02182
 31
0.0
  0
LINE
  5
394
100
AcDbEntity
  8
DIMS
 62
     4
100
AcDbLine
 10
716.744176
 20
188.72182
 30
0.0
 11
716.744176
 21
185.32182
 31
0.0
  0
LINE
  5
395
102
{ACAD_REACTORS
330
201
102
}
100
AcDbEntity
  8
M01
100
AcDbLine
 10
712.744176
 20
187.02182
 30
0.0
 11
712.744176
 21
191.02182
 31
0.0
  0
LINE
  5
396
102
{ACAD_REACTORS
330
201
102
}
100
AcDbEntity
  8
M01
100
AcDbLine
 10
720.744176
 20
187.02182
 30
0.0
 11
720.744176
 21
191.02182
 31
0.0
  0
CIRCLE
  5
397
102
{ACAD_REACTORS
330
349
330
201
102
}
100
AcDbEntity
  8
M01
100
AcDbCircle
 10
716.744176
 20
187.02182
 30
0.0
 40
4.0
  0
LINE
  5
398
102
{ACAD_REACTORS
330
201
102
}
100
AcDbEntity
  8
M04
100
AcDbLine
 10
502.51878
 20
138.32182
 30
0.0
 11
502.51878
 21
140.82182
 31
0.0
  0
LINE
  5
399
102
{ACAD_REACTORS
330
201
102
}
100
AcDbEntity
  8
M04
100
AcDbLine
 10
501.81878
 20
139.02182
 30
0.0
 11
501.81878
 21
142.32182
 31
0.0
  0
LINE
  5
39A
102
{ACAD_REACTORS
330
201
102
}
100
AcDbEntity
  8
M04
100
AcDbLine
 10
496.51878
 20
138.32182
 30
0.0
 11
496.51878
 21
140.82182
 31
0.0
  0
LINE
  5
39B
102
{ACAD_REACTORS
330
201
102
}
100
AcDbEntity
  8
M04
100
AcDbLine
 10
497.21878
 20
139.02182
 30
0.0
 11
497.21878
 21
142.32182
 31
0.0
  0
LINE
  5
39C
102
{ACAD_REACTORS
330
373
102
}
100
AcDbEntity
  8
M05
100
AcDbLine
 10
494.26878
 20
129.02182
 30
0.0
 11
504.76878
 21
129.02182
 31
0.0
  0
LINE
  5
39D
102
{ACAD_REACTORS
330
373
102
}
100
AcDbEntity
  8
M04
100
AcDbLine
 10
504.76878
 20
129.02182
 30
0.0
 11
505.01878
 21
129.02182
 31
0.0
  0
LINE
  5
39E
102
{ACAD_REACTORS
330
373
102
}
100
AcDbEntity
  8
M04
100
AcDbLine
 10
494.01878
 20
129.02182
 30
0.0
 11
494.01878
 21
125.02182
 31
0.0
  0
LINE
  5
39F
102
{ACAD_REACTORS
330
373
102
}
100
AcDbEntity
  8
M04
100
AcDbLine
 10
505.01878
 20
129.02182
 30
0.0
 11
505.01878
 21
125.02182
 31
0.0
  0
LINE
  5
3A0
100
AcDbEntity
  8
M05
100
AcDbLine
 10
502.51878
 20
130.02182
 30
0.0
 11
496.51878
 21
130.02182
 31
0.0
  0
LINE
  5
3A1
102
{ACAD_REACTORS
330
201
102
}
100
AcDbEntity
  8
M04
100
AcDbLine
 10
497.21878
 20
142.32182
 30
0.0
 11
499.51878
 21
143.649726
 31
0.0
  0
LINE
  5
3A2
102
{ACAD_REACTORS
330
201
102
}
100
AcDbEntity
  8
M04
100
AcDbLine
 10
501.81878
 20
142.32182
 30
0.0
 11
499.51878
 21
143.649726
 31
0.0
  0
LINE
  5
3A3
100
AcDbEntity
  8
M04
100
AcDbLine
 10
501.81878
 20
142.32182
 30
0.0
 11
497.21878
 21
142.32182
 31
0.0
  0
LINE
  5
3A4
102
{ACAD_REACTORS
330
201
102
}
100
AcDbEntity
  8
M04
100
AcDbLine
 10
502.51878
 20
140.82182
 30
0.0
 11
496.51878
 21
140.82182
 31
0.0
  0
ARC
  5
3A5
100
AcDbEntity
  8
M05
100
AcDbCircle
 10
499.51878
 20
131.547957
 30
0.0
 40
5.826136
100
AcDbArc
 50
205.69541
 51
334.30459
  0
LINE
  5
3A6
100
AcDbEntity
  8
M05
100
AcDbLine
 10
496.51878
 20
138.32182
 30
0.0
 11
497.21878
 21
139.02182
 31
0.0
  0
LINE
  5
3A7
100
AcDbEntity
  8
M05
100
AcDbLine
 10
502.51878
 20
138.32182
 30
0.0
 11
501.81878
 21
139.02182
 31
0.0
  0
LINE
  5
3A8
100
AcDbEntity
  8
M05
100
AcDbLine
 10
502.51878
 20
138.32182
 30
0.0
 11
496.51878
 21
138.32182
 31
0.0
  0
LINE
  5
3A9
100
AcDbEntity
  8
M05
100
AcDbLine
 10
501.81878
 20
139.02182
 30
0.0
 11
497.21878
 21
139.02182
 31
0.0
  0
LINE
  5
3AA
102
{ACAD_REACTORS
330
373
102
}
100
AcDbEntity
  8
M04
100
AcDbLine
 10
503.21878
 20
131.02182
 30
0.0
 11
503.21878
 21
129.02182
 31
0.0
  0
LINE
  5
3AB
102
{ACAD_REACTORS
330
373
102
}
100
AcDbEntity
  8
M04
100
AcDbLine
 10
495.81878
 20
131.02182
 30
0.0
 11
495.81878
 21
129.02182
 31
0.0
  0
LINE
  5
3AC
100
AcDbEntity
  8
M05
100
AcDbLine
 10
497.21878
 20
139.02182
 30
0.0
 11
497.21878
 21
130.02182
 31
0.0
  0
LINE
  5
3AD
100
AcDbEntity
  8
M05
100
AcDbLine
 10
501.81878
 20
139.02182
 30
0.0
 11
501.81878
 21
130.02182
 31
0.0
  0
LINE
  5
3AE
102
{ACAD_REACTORS
330
201
102
}
100
AcDbEntity
  8
M05
100
AcDbLine
 10
502.51878
 20
138.32182
 30
0.0
 11
502.51878
 21
129.02182
 31
0.0
  0
LINE
  5
3AF
102
{ACAD_REACTORS
330
201
102
}
100
AcDbEntity
  8
M05
100
AcDbLine
 10
496.51878
 20
138.32182
 30
0.0
 11
496.51878
 21
129.02182
 31
0.0
  0
LINE
  5
3B0
102
{ACAD_REACTORS
330
373
102
}
100
AcDbEntity
  8
M04
100
AcDbLine
 10
494.01878
 20
129.02182
 30
0.0
 11
494.26878
 21
129.02182
 31
0.0
  0
LINE
  5
3B1
100
AcDbEntity
  8
CENTRE
100
AcDbLine
 10
499.51878
 20
146.288321
 30
0.0
 11
499.51878
 21
121.375632
 31
0.0
  0
LINE
  5
3B2
102
{ACAD_REACTORS
330
373
330
201
330
1FF
102
}
100
AcDbEntity
  8
M01
100
AcDbLine
 10
554.51878
 20
131.02182
 30
0.0
 11
723.744176
 21
131.02182
 31
0.0
  0
LINE
  5
3B3
102
{ACAD_REACTORS
330
201
102
}
100
AcDbEntity
  8
M04
100
AcDbLine
 10
548.51878
 20
138.32182
 30
0.0
 11
548.51878
 21
140.82182
 31
0.0
  0
LINE
  5
3B4
102
{ACAD_REACTORS
330
201
102
}
100
AcDbEntity
  8
M04
100
AcDbLine
 10
549.21878
 20
139.02182
 30
0.0
 11
549.21878
 21
142.32182
 31
0.0
  0
LINE
  5
3B5
102
{ACAD_REACTORS
330
201
102
}
100
AcDbEntity
  8
M04
100
AcDbLine
 10
554.51878
 20
138.32182
 30
0.0
 11
554.51878
 21
140.82182
 31
0.0
  0
LINE
  5
3B6
102
{ACAD_REACTORS
330
201
102
}
100
AcDbEntity
  8
M04
100
AcDbLine
 10
553.81878
 20
139.02182
 30
0.0
 11
553.81878
 21
142.32182
 31
0.0
  0
LINE
  5
3B7
102
{ACAD_REACTORS
330
373
102
}
100
AcDbEntity
  8
M05
100
AcDbLine
 10
556.76878
 20
129.02182
 30
0.0
 11
546.26878
 21
129.02182
 31
0.0
  0
LINE
  5
3B8
102
{ACAD_REACTORS
330
373
102
}
100
AcDbEntity
  8
M04
100
AcDbLine
 10
546.26878
 20
129.02182
 30
0.0
 11
546.01878
 21
129.02182
 31
0.0
  0
LINE
  5
3B9
102
{ACAD_REACTORS
330
373
102
}
100
AcDbEntity
  8
M04
100
AcDbLine
 10
557.01878
 20
129.02182
 30
0.0
 11
557.01878
 21
125.02182
 31
0.0
  0
LINE
  5
3BA
102
{ACAD_REACTORS
330
373
102
}
100
AcDbEntity
  8
M04
100
AcDbLine
 10
546.01878
 20
129.02182
 30
0.0
 11
546.01878
 21
125.02182
 31
0.0
  0
LINE
  5
3BB
100
AcDbEntity
  8
M05
100
AcDbLine
 10
548.51878
 20
130.02182
 30
0.0
 11
554.51878
 21
130.02182
 31
0.0
  0
LINE
  5
3BC
102
{ACAD_REACTORS
330
201
102
}
100
AcDbEntity
  8
M04
100
AcDbLine
 10
553.81878
 20
142.32182
 30
0.0
 11
551.51878
 21
143.649726
 31
0.0
  0
LINE
  5
3BD
102
{ACAD_REACTORS
330
201
102
}
100
AcDbEntity
  8
M04
100
AcDbLine
 10
549.21878
 20
142.32182
 30
0.0
 11
551.51878
 21
143.649726
 31
0.0
  0
LINE
  5
3BE
100
AcDbEntity
  8
M04
100
AcDbLine
 10
549.21878
 20
142.32182
 30
0.0
 11
553.81878
 21
142.32182
 31
0.0
  0
LINE
  5
3BF
102
{ACAD_REACTORS
330
201
102
}
100
AcDbEntity
  8
M04
100
AcDbLine
 10
548.51878
 20
140.82182
 30
0.0
 11
554.51878
 21
140.82182
 31
0.0
  0
ARC
  5
3C0
100
AcDbEntity
  8
M05
100
AcDbCircle
 10
551.51878
 20
131.547957
 30
0.0
 40
5.826136
100
AcDbArc
 50
205.69541
 51
334.30459
  0
LINE
  5
3C1
100
AcDbEntity
  8
M05
100
AcDbLine
 10
554.51878
 20
138.32182
 30
0.0
 11
553.81878
 21
139.02182
 31
0.0
  0
LINE
  5
3C2
100
AcDbEntity
  8
M05
100
AcDbLine
 10
548.51878
 20
138.32182
 30
0.0
 11
549.21878
 21
139.02182
 31
0.0
  0
LINE
  5
3C3
100
AcDbEntity
  8
M05
100
AcDbLine
 10
548.51878
 20
138.32182
 30
0.0
 11
554.51878
 21
138.32182
 31
0.0
  0
LINE
  5
3C4
100
AcDbEntity
  8
M05
100
AcDbLine
 10
549.21878
 20
139.02182
 30
0.0
 11
553.81878
 21
139.02182
 31
0.0
  0
LINE
  5
3C5
102
{ACAD_REACTORS
330
373
102
}
100
AcDbEntity
  8
M04
100
AcDbLine
 10
547.81878
 20
131.02182
 30
0.0
 11
547.81878
 21
129.02182
 31
0.0
  0
LINE
  5
3C6
102
{ACAD_REACTORS
330
373
102
}
100
AcDbEntity
  8
M04
100
AcDbLine
 10
555.21878
 20
131.02182
 30
0.0
 11
555.21878
 21
129.02182
 31
0.0
  0
LINE
  5
3C7
100
AcDbEntity
  8
M05
100
AcDbLine
 10
553.81878
 20
139.02182
 30
0.0
 11
553.81878
 21
130.02182
 31
0.0
  0
LINE
  5
3C8
100
AcDbEntity
  8
M05
100
AcDbLine
 10
549.21878
 20
139.02182
 30
0.0
 11
549.21878
 21
130.02182
 31
0.0
  0
LINE
  5
3C9
102
{ACAD_REACTORS
330
201
102
}
100
AcDbEntity
  8
M05
100
AcDbLine
 10
548.51878
 20
138.32182
 30
0.0
 11
548.51878
 21
129.02182
 31
0.0
  0
LINE
  5
3CA
102
{ACAD_REACTORS
330
201
102
}
100
AcDbEntity
  8
M05
100
AcDbLine
 10
554.51878
 20
138.32182
 30
0.0
 11
554.51878
 21
129.02182
 31
0.0
  0
LINE
  5
3CB
102
{ACAD_REACTORS
330
373
102
}
100
AcDbEntity
  8
M04
100
AcDbLine
 10
557.01878
 20
129.02182
 30
0.0
 11
556.76878
 21
129.02182
 31
0.0
  0
LINE
  5
3CC
100
AcDbEntity
  8
CENTRE
100
AcDbLine
 10
551.51878
 20
146.288321
 30
0.0
 11
551.51878
 21
121.375632
 31
0.0
  0
LINE
  5
3CD
100
AcDbEntity
  8
M04
100
AcDbLine
 10
303.51878
 20
124.02182
 30
0.0
 11
506.01878
 21
124.02182
 31
0.0
  0
LINE
  5
3CE
102
{ACAD_REACTORS
330
1FE
102
}
100
AcDbEntity
  8
M02
100
AcDbLine
 10
314.51878
 20
128.02182
 30
0.0
 11
491.51878
 21
128.02182
 31
0.0
  0
LINE
  5
3CF
100
AcDbEntity
  8
M04
100
AcDbLine
 10
300.51878
 20
106.193915
 30
0.0
 11
302.81878
 21
107.52182
 31
0.0
  0
LINE
  5
3D0
100
AcDbEntity
  8
M04
100
AcDbLine
 10
298.21878
 20
107.52182
 30
0.0
 11
300.51878
 21
106.193915
 31
0.0
  0
LINE
  5
3D1
100
AcDbEntity
  8
M04
100
AcDbLine
 10
298.21878
 20
107.52182
 30
0.0
 11
302.81878
 21
107.52182
 31
0.0
  0
LINE
  5
3D2
100
AcDbEntity
  8
M04
100
AcDbLine
 10
297.51878
 20
112.582939
 30
0.0
 11
297.51878
 21
109.02182
 31
0.0
  0
LINE
  5
3D3
100
AcDbEntity
  8
M04
100
AcDbLine
 10
298.21878
 20
111.882939
 30
0.0
 11
298.21878
 21
107.52182
 31
0.0
  0
LINE
  5
3D4
100
AcDbEntity
  8
M04
100
AcDbLine
 10
303.51878
 20
112.582939
 30
0.0
 11
303.51878
 21
109.02182
 31
0.0
  0
LINE
  5
3D5
100
AcDbEntity
  8
M04
100
AcDbLine
 10
302.81878
 20
111.882939
 30
0.0
 11
302.81878
 21
107.52182
 31
0.0
  0
LINE
  5
3D6
100
AcDbEntity
  8
M05
100
AcDbLine
 10
302.81878
 20
111.882939
 30
0.0
 11
303.51878
 21
112.582939
 31
0.0
  0
LINE
  5
3D7
100
AcDbEntity
  8
M05
100
AcDbLine
 10
297.51878
 20
112.582939
 30
0.0
 11
298.21878
 21
111.882939
 31
0.0
  0
LINE
  5
3D8
100
AcDbEntity
  8
M05
100
AcDbLine
 10
302.81878
 20
124.662939
 30
0.0
 11
302.81878
 21
111.882939
 31
0.0
  0
LINE
  5
3D9
100
AcDbEntity
  8
M05
100
AcDbLine
 10
298.21878
 20
124.662939
 30
0.0
 11
298.21878
 21
111.882939
 31
0.0
  0
LINE
  5
3DA
100
AcDbEntity
  8
M05
100
AcDbLine
 10
297.51878
 20
112.582939
 30
0.0
 11
303.51878
 21
112.582939
 31
0.0
  0
LINE
  5
3DB
100
AcDbEntity
  8
M04
100
AcDbLine
 10
297.51878
 20
109.02182
 30
0.0
 11
303.51878
 21
109.02182
 31
0.0
  0
LINE
  5
3DC
100
AcDbEntity
  8
M05
100
AcDbLine
 10
298.21878
 20
111.882939
 30
0.0
 11
302.81878
 21
111.882939
 31
0.0
  0
LINE
  5
3DD
102
{ACAD_REACTORS
330
56
102
}
100
AcDbEntity
  8
M05
  6
HIDDEN
100
AcDbLine
 10
292.359898
 20
131.32182
 30
0.0
 11
291.659898
 21
132.02182
 31
0.0
  0
LINE
  5
3DE
102
{ACAD_REACTORS
330
56
102
}
100
AcDbEntity
  8
M05
  6
HIDDEN
100
AcDbLine
 10
308.677662
 20
131.32182
 30
0.0
 11
309.377662
 21
132.02182
 31
0.0
  0
LINE
  5
3DF
100
AcDbEntity
  8
M05
100
AcDbLine
 10
297.51878
 20
124.662939
 30
0.0
 11
303.51878
 21
124.662939
 31
0.0
  0
LINE
  5
3E0
100
AcDbEntity
  8
M05
100
AcDbLine
 10
301.06878
 20
129.162939
 30
0.0
 11
306.51878
 21
129.162939
 31
0.0
  0
LINE
  5
3E1
100
AcDbEntity
  8
M05
100
AcDbLine
 10
301.06878
 20
129.882939
 30
0.0
 11
306.51878
 21
129.882939
 31
0.0
  0
LINE
  5
3E2
100
AcDbEntity
  8
M05
100
AcDbLine
 10
301.06878
 20
129.882939
 30
0.0
 11
301.06878
 21
128.382939
 31
0.0
  0
LINE
  5
3E3
100
AcDbEntity
  8
M05
100
AcDbLine
 10
299.96878
 20
129.882939
 30
0.0
 11
299.96878
 21
128.382939
 31
0.0
  0
LINE
  5
3E4
100
AcDbEntity
  8
M05
100
AcDbLine
 10
299.96878
 20
128.382939
 30
0.0
 11
301.06878
 21
128.382939
 31
0.0
  0
LINE
  5
3E5
100
AcDbEntity
  8
M05
100
AcDbLine
 10
304.01878
 20
126.662939
 30
0.0
 11
304.01878
 21
124.02182
 31
0.0
  0
LINE
  5
3E6
100
AcDbEntity
  8
M05
100
AcDbLine
 10
297.01878
 20
126.662939
 30
0.0
 11
297.01878
 21
124.02182
 31
0.0
  0
LINE
  5
3E7
100
AcDbEntity
  8
M05
100
AcDbLine
 10
294.51878
 20
129.162939
 30
0.0
 11
299.96878
 21
129.162939
 31
0.0
  0
LINE
  5
3E8
102
{ACAD_REACTORS
330
56
102
}
100
AcDbEntity
  8
M05
100
AcDbLine
 10
297.51878
 20
126.162939
 30
0.0
 11
292.359898
 21
131.32182
 31
0.0
  0
LINE
  5
3E9
100
AcDbEntity
  8
M05
100
AcDbLine
 10
294.51878
 20
129.882939
 30
0.0
 11
294.51878
 21
129.162939
 31
0.0
  0
LINE
  5
3EA
102
{ACAD_REACTORS
330
56
102
}
100
AcDbEntity
  8
M05
100
AcDbLine
 10
303.51878
 20
126.162939
 30
0.0
 11
308.677662
 21
131.32182
 31
0.0
  0
LINE
  5
3EB
100
AcDbEntity
  8
M05
100
AcDbLine
 10
297.51878
 20
126.162939
 30
0.0
 11
303.51878
 21
126.162939
 31
0.0
  0
LINE
  5
3EC
100
AcDbEntity
  8
M05
100
AcDbLine
 10
297.51878
 20
126.162939
 30
0.0
 11
297.51878
 21
112.582939
 31
0.0
  0
LINE
  5
3ED
100
AcDbEntity
  8
M05
100
AcDbLine
 10
303.51878
 20
126.162939
 30
0.0
 11
303.51878
 21
112.582939
 31
0.0
  0
LINE
  5
3EE
100
AcDbEntity
  8
M05
100
AcDbLine
 10
306.51878
 20
129.882939
 30
0.0
 11
306.51878
 21
129.162939
 31
0.0
  0
LINE
  5
3EF
100
AcDbEntity
  8
M05
100
AcDbLine
 10
294.51878
 20
129.882939
 30
0.0
 11
299.96878
 21
129.882939
 31
0.0
  0
LINE
  5
3F0
102
{ACAD_REACTORS
330
56
102
}
100
AcDbEntity
  8
M05
  6
HIDDEN
100
AcDbLine
 10
286.51878
 20
131.32182
 30
0.0
 11
314.51878
 21
131.32182
 31
0.0
  0
LINE
  5
3F1
102
{ACAD_REACTORS
330
56
102
}
100
AcDbEntity
  8
M05
  6
HIDDEN
100
AcDbLine
 10
314.51878
 20
131.32182
 30
0.0
 11
313.81878
 21
132.02182
 31
0.0
  0
LINE
  5
3F2
102
{ACAD_REACTORS
330
56
102
}
100
AcDbEntity
  8
M05
  6
HIDDEN
100
AcDbLine
 10
314.51878
 20
130.32182
 30
0.0
 11
314.51878
 21
131.32182
 31
0.0
  0
LINE
  5
3F3
100
AcDbEntity
  8
M05
100
AcDbLine
 10
314.51878
 20
130.32182
 30
0.0
 11
313.81878
 21
131.02182
 31
0.0
  0
LINE
  5
3F4
100
AcDbEntity
  8
M05
100
AcDbLine
 10
314.51878
 20
124.72182
 30
0.0
 11
313.81878
 21
124.02182
 31
0.0
  0
LINE
  5
3F5
100
AcDbEntity
  8
M05
100
AcDbLine
 10
314.51878
 20
130.32182
 30
0.0
 11
314.51878
 21
124.72182
 31
0.0
  0
LINE
  5
3F6
102
{ACAD_REACTORS
330
56
102
}
100
AcDbEntity
  8
M05
  6
HIDDEN
100
AcDbLine
 10
286.51878
 20
131.32182
 30
0.0
 11
287.21878
 21
132.02182
 31
0.0
  0
LINE
  5
3F7
102
{ACAD_REACTORS
330
56
102
}
100
AcDbEntity
  8
M05
  6
HIDDEN
100
AcDbLine
 10
286.51878
 20
130.32182
 30
0.0
 11
286.51878
 21
131.32182
 31
0.0
  0
LINE
  5
3F8
100
AcDbEntity
  8
M05
100
AcDbLine
 10
286.51878
 20
130.32182
 30
0.0
 11
287.21878
 21
131.02182
 31
0.0
  0
LINE
  5
3F9
100
AcDbEntity
  8
M05
100
AcDbLine
 10
286.51878
 20
124.72182
 30
0.0
 11
287.21878
 21
124.02182
 31
0.0
  0
LINE
  5
3FA
102
{ACAD_REACTORS
330
1FE
102
}
100
AcDbEntity
  8
M02
100
AcDbLine
 10
315.51878
 20
131.02182
 30
0.0
 11
315.51878
 21
128.02182
 31
0.0
  0
LINE
  5
3FB
102
{ACAD_REACTORS
330
1A9
102
}
100
AcDbEntity
  8
M02
100
AcDbLine
 10
285.51878
 20
131.02182
 30
0.0
 11
285.51878
 21
128.02182
 31
0.0
  0
LINE
  5
3FC
102
{ACAD_REACTORS
330
56
102
}
100
AcDbEntity
  8
M05
  6
HIDDEN
100
AcDbLine
 10
287.21878
 20
132.02182
 30
0.0
 11
313.81878
 21
132.02182
 31
0.0
  0
LINE
  5
3FD
100
AcDbEntity
  8
M05
100
AcDbLine
 10
286.51878
 20
130.32182
 30
0.0
 11
286.51878
 21
124.72182
 31
0.0
  0
LINE
  5
3FE
102
{ACAD_REACTORS
330
56
102
}
100
AcDbEntity
  8
CENTRE
100
AcDbLine
 10
300.51878
 20
136.530931
 30
0.0
 11
300.51878
 21
103.452593
 31
0.0
  0
LINE
  5
3FF
100
AcDbEntity
  8
M01
100
AcDbLine
 10
521.51878
 20
154.02182
 30
0.0
 11
525.51878
 21
158.02182
 31
0.0
  0
LINE
  5
400
100
AcDbEntity
  8
M01
100
AcDbLine
 10
529.51878
 20
154.02182
 30
0.0
 11
525.51878
 21
158.02182
 31
0.0
  0
TEXT
  5
401
102
{ACAD_REACTORS
330
373
102
}
100
AcDbEntity
  8
TEXT
100
AcDbText
 10
530.59286
 20
126.589308
 30
0.0
 40
2.0
  1
MA010000
 41
0.9
100
AcDbText
  0
LINE
  5
402
100
AcDbEntity
  8
M04
100
AcDbLine
 10
495.51878
 20
106.02182
 30
0.0
 11
495.51878
 21
97.02182
 31
0.0
  0
LINE
  5
403
100
AcDbEntity
  8
M04
100
AcDbLine
 10
545.01878
 20
124.02182
 30
0.0
 11
750.294958
 21
124.02182
 31
0.0
  0
LINE
  5
404
102
{ACAD_REACTORS
330
373
102
}
100
AcDbEntity
  8
M05
100
AcDbLine
 10
491.51878
 20
125.72182
 30
0.0
 11
492.21878
 21
125.02182
 31
0.0
  0
LINE
  5
405
102
{ACAD_REACTORS
330
1FE
102
}
100
AcDbEntity
  8
M02
100
AcDbLine
 10
490.51878
 20
131.02182
 30
0.0
 11
490.51878
 21
128.02182
 31
0.0
  0
LINE
  5
406
102
{ACAD_REACTORS
330
373
330
201
102
}
100
AcDbEntity
  8
M01
100
AcDbLine
 10
535.51878
 20
131.02182
 30
0.0
 11
548.51878
 21
131.02182
 31
0.0
  0
LINE
  5
407
100
AcDbEntity
  8
M04
100
AcDbLine
 10
495.51878
 20
106.02182
 30
0.0
 11
555.51878
 21
106.02182
 31
0.0
  0
LINE
  5
408
100
AcDbEntity
  8
M04
100
AcDbLine
 10
505.51878
 20
116.02182
 30
0.0
 11
495.51878
 21
106.02182
 31
0.0
  0
LINE
  5
409
100
AcDbEntity
  8
M04
100
AcDbLine
 10
555.51878
 20
106.02182
 30
0.0
 11
555.51878
 21
97.02182
 31
0.0
  0
LINE
  5
40A
100
AcDbEntity
  8
M04
100
AcDbLine
 10
545.51878
 20
116.02182
 30
0.0
 11
555.51878
 21
106.02182
 31
0.0
  0
LINE
  5
40B
100
AcDbEntity
  8
M05
100
AcDbLine
 10
522.477906
 20
122.720606
 30
0.0
 11
528.559654
 21
122.720606
 31
0.0
  0
ARC
  5
40C
102
{ACAD_REACTORS
330
373
102
}
100
AcDbEntity
  8
M05
100
AcDbCircle
 10
525.51878
 20
107.52182
 30
0.0
 40
15.5
100
AcDbArc
 50
101.313981
 51
126.249321
  0
LINE
  5
40D
102
{ACAD_REACTORS
330
201
102
}
100
AcDbEntity
  8
M01
100
AcDbLine
 10
521.51878
 20
154.02182
 30
0.0
 11
521.51878
 21
141.02182
 31
0.0
  0
LINE
  5
40E
102
{ACAD_REACTORS
330
373
102
}
100
AcDbEntity
  8
M05
100
AcDbLine
 10
521.51878
 20
141.02182
 30
0.0
 11
522.477906
 21
122.720606
 31
0.0
  0
LINE
  5
40F
102
{ACAD_REACTORS
330
373
102
}
100
AcDbEntity
  8
M05
100
AcDbLine
 10
529.51878
 20
141.02182
 30
0.0
 11
528.559654
 21
122.720606
 31
0.0
  0
ARC
  5
410
102
{ACAD_REACTORS
330
373
102
}
100
AcDbEntity
  8
M05
100
AcDbCircle
 10
525.51878
 20
107.52182
 30
0.0
 40
15.5
100
AcDbArc
 50
53.750679
 51
78.686019
  0
LINE
  5
411
102
{ACAD_REACTORS
330
201
102
}
100
AcDbEntity
  8
M01
100
AcDbLine
 10
529.51878
 20
154.02182
 30
0.0
 11
529.51878
 21
141.02182
 31
0.0
  0
LINE
  5
412
100
AcDbEntity
  8
M04
100
AcDbLine
 10
505.51878
 20
122.02182
 30
0.0
 11
505.51878
 21
124.02182
 31
0.0
  0
LINE
  5
413
100
AcDbEntity
  8
M04
100
AcDbLine
 10
505.51878
 20
120.72182
 30
0.0
 11
505.51878
 21
116.02182
 31
0.0
  0
LINE
  5
414
100
AcDbEntity
  8
M04
100
AcDbLine
 10
545.51878
 20
122.02182
 30
0.0
 11
545.51878
 21
124.02182
 31
0.0
  0
LINE
  5
415
100
AcDbEntity
  8
M04
100
AcDbLine
 10
545.51878
 20
120.72182
 30
0.0
 11
545.51878
 21
116.02182
 31
0.0
  0
LINE
  5
416
100
AcDbEntity
  8
M04
100
AcDbLine
 10
545.51878
 20
116.02182
 30
0.0
 11
505.51878
 21
116.02182
 31
0.0
  0
LINE
  5
417
102
{ACAD_REACTORS
330
373
102
}
100
AcDbEntity
  8
M05
100
AcDbLine
 10
506.01878
 20
122.02182
 30
0.0
 11
505.51878
 21
122.02182
 31
0.0
  0
LINE
  5
418
102
{ACAD_REACTORS
330
373
102
}
100
AcDbEntity
  8
M05
100
AcDbLine
 10
506.01878
 20
125.02182
 30
0.0
 11
492.21878
 21
125.02182
 31
0.0
  0
LINE
  5
419
102
{ACAD_REACTORS
330
373
102
}
100
AcDbEntity
  8
M05
100
AcDbLine
 10
506.01878
 20
125.02182
 30
0.0
 11
506.01878
 21
122.02182
 31
0.0
  0
LINE
  5
41A
102
{ACAD_REACTORS
330
373
102
}
100
AcDbEntity
  8
M05
100
AcDbLine
 10
545.01878
 20
125.02182
 30
0.0
 11
545.01878
 21
122.02182
 31
0.0
  0
LINE
  5
41B
102
{ACAD_REACTORS
330
373
102
}
100
AcDbEntity
  8
M05
100
AcDbLine
 10
545.51878
 20
122.02182
 30
0.0
 11
545.01878
 21
122.02182
 31
0.0
  0
LINE
  5
41C
102
{ACAD_REACTORS
330
373
102
}
100
AcDbEntity
  8
M05
100
AcDbLine
 10
506.21878
 20
120.02182
 30
0.0
 11
505.51878
 21
120.72182
 31
0.0
  0
LINE
  5
41D
102
{ACAD_REACTORS
330
373
102
}
100
AcDbEntity
  8
M05
100
AcDbLine
 10
544.81878
 20
120.02182
 30
0.0
 11
545.51878
 21
120.72182
 31
0.0
  0
LINE
  5
41E
102
{ACAD_REACTORS
330
373
102
}
100
AcDbEntity
  8
M05
100
AcDbLine
 10
544.81878
 20
120.02182
 30
0.0
 11
506.21878
 21
120.02182
 31
0.0
  0
LINE
  5
41F
102
{ACAD_REACTORS
330
373
102
}
100
AcDbEntity
  8
M05
100
AcDbLine
 10
505.51878
 20
122.02182
 30
0.0
 11
505.51878
 21
120.72182
 31
0.0
  0
LINE
  5
420
102
{ACAD_REACTORS
330
373
102
}
100
AcDbEntity
  8
M05
100
AcDbLine
 10
545.51878
 20
122.02182
 30
0.0
 11
545.51878
 21
120.72182
 31
0.0
  0
LINE
  5
421
102
{ACAD_REACTORS
330
201
102
}
100
AcDbEntity
  8
M04
100
AcDbLine
 10
515.51878
 20
131.52182
 30
0.0
 11
515.01878
 21
131.02182
 31
0.0
  0
LINE
  5
422
102
{ACAD_REACTORS
330
201
102
}
100
AcDbEntity
  8
M04
100
AcDbLine
 10
535.51878
 20
131.52182
 30
0.0
 11
536.01878
 21
131.02182
 31
0.0
  0
LINE
  5
423
102
{ACAD_REACTORS
330
373
102
}
100
AcDbEntity
  8
M05
100
AcDbLine
 10
491.51878
 20
130.32182
 30
0.0
 11
492.21878
 21
131.02182
 31
0.0
  0
LINE
  5
424
102
{ACAD_REACTORS
330
373
102
}
100
AcDbEntity
  8
M05
100
AcDbLine
 10
491.51878
 20
130.32182
 30
0.0
 11
491.51878
 21
125.72182
 31
0.0
  0
LINE
  5
425
102
{ACAD_REACTORS
330
373
102
}
100
AcDbEntity
  8
M05
100
AcDbLine
 10
559.51878
 20
130.32182
 30
0.0
 11
558.81878
 21
131.02182
 31
0.0
  0
LINE
  5
426
102
{ACAD_REACTORS
330
373
102
}
100
AcDbEntity
  8
M05
100
AcDbLine
 10
559.51878
 20
125.72182
 30
0.0
 11
558.81878
 21
125.02182
 31
0.0
  0
LINE
  5
427
102
{ACAD_REACTORS
330
1FF
102
}
100
AcDbEntity
  8
M02
100
AcDbLine
 10
560.51878
 20
131.02182
 30
0.0
 11
560.51878
 21
128.02182
 31
0.0
  0
LINE
  5
428
102
{ACAD_REACTORS
330
373
102
}
100
AcDbEntity
  8
M05
100
AcDbLine
 10
558.81878
 20
125.02182
 30
0.0
 11
545.01878
 21
125.02182
 31
0.0
  0
LINE
  5
429
102
{ACAD_REACTORS
330
373
102
}
100
AcDbEntity
  8
M05
100
AcDbLine
 10
559.51878
 20
130.32182
 30
0.0
 11
559.51878
 21
125.72182
 31
0.0
  0
LINE
  5
42A
102
{ACAD_REACTORS
330
201
102
}
100
AcDbEntity
  8
M04
100
AcDbLine
 10
515.51878
 20
140.02182
 30
0.0
 11
515.51878
 21
141.02182
 31
0.0
  0
LINE
  5
42B
102
{ACAD_REACTORS
330
201
102
}
100
AcDbEntity
  8
M04
100
AcDbLine
 10
516.51878
 20
141.02182
 30
0.0
 11
515.51878
 21
141.02182
 31
0.0
  0
LINE
  5
42C
102
{ACAD_REACTORS
330
201
102
}
100
AcDbEntity
  8
M04
100
AcDbLine
 10
535.51878
 20
140.02182
 30
0.0
 11
535.51878
 21
141.02182
 31
0.0
  0
LINE
  5
42D
102
{ACAD_REACTORS
330
201
102
}
100
AcDbEntity
  8
M04
100
AcDbLine
 10
534.51878
 20
141.02182
 30
0.0
 11
535.51878
 21
141.02182
 31
0.0
  0
LINE
  5
42E
102
{ACAD_REACTORS
330
373
102
}
100
AcDbEntity
  8
M05
100
AcDbLine
 10
534.51878
 20
141.02182
 30
0.0
 11
535.51878
 21
140.02182
 31
0.0
  0
LINE
  5
42F
102
{ACAD_REACTORS
330
373
102
}
100
AcDbEntity
  8
M05
100
AcDbLine
 10
515.51878
 20
140.02182
 30
0.0
 11
516.51878
 21
141.02182
 31
0.0
  0
LINE
  5
430
102
{ACAD_REACTORS
330
373
330
201
102
}
100
AcDbEntity
  8
M05
100
AcDbLine
 10
534.51878
 20
141.02182
 30
0.0
 11
516.51878
 21
141.02182
 31
0.0
  0
LINE
  5
431
102
{ACAD_REACTORS
330
373
330
201
102
}
100
AcDbEntity
  8
M05
100
AcDbLine
 10
515.51878
 20
140.02182
 30
0.0
 11
515.51878
 21
131.02182
 31
0.0
  0
LINE
  5
432
102
{ACAD_REACTORS
330
373
330
201
102
}
100
AcDbEntity
  8
M05
100
AcDbLine
 10
535.51878
 20
140.02182
 30
0.0
 11
535.51878
 21
131.02182
 31
0.0
  0
LINE
  5
433
100
AcDbEntity
  8
M04
100
AcDbLine
 10
547.24378
 20
198.02182
 30
0.0
 11
633.524052
 21
198.02182
 31
0.0
  0
LINE
  5
434
102
{ACAD_REACTORS
330
1F8
102
}
100
AcDbEntity
  8
M02
100
AcDbLine
 10
547.24378
 20
194.02182
 30
0.0
 11
633.524052
 21
194.02182
 31
0.0
  0
LINE
  5
435
102
{ACAD_REACTORS
330
1A9
102
}
100
AcDbEntity
  8
M02
100
AcDbLine
 10
269.16878
 20
128.02182
 30
0.0
 11
286.51878
 21
128.02182
 31
0.0
  0
LINE
  5
436
102
{ACAD_REACTORS
330
1FF
102
}
100
AcDbEntity
  8
M02
100
AcDbLine
 10
723.744176
 20
131.02182
 30
0.0
 11
723.744176
 21
128.02182
 31
0.0
  0
LINE
  5
437
102
{ACAD_REACTORS
330
1A9
102
}
100
AcDbEntity
  8
M02
100
AcDbLine
 10
269.16878
 20
131.02182
 30
0.0
 11
269.16878
 21
128.02182
 31
0.0
  0
LINE
  5
438
102
{ACAD_REACTORS
330
1FD
330
1FC
102
}
100
AcDbEntity
  8
M02
100
AcDbLine
 10
269.16878
 20
194.02182
 30
0.0
 11
503.79378
 21
194.02182
 31
0.0
  0
LINE
  5
439
102
{ACAD_REACTORS
330
200
102
}
100
AcDbEntity
  8
M02
100
AcDbLine
 10
723.744176
 20
191.02182
 30
0.0
 11
723.744176
 21
194.02182
 31
0.0
  0
LINE
  5
43A
102
{ACAD_REACTORS
330
1FC
102
}
100
AcDbEntity
  8
M02
100
AcDbLine
 10
269.16878
 20
191.02182
 30
0.0
 11
269.16878
 21
194.02182
 31
0.0
  0
LINE
  5
43B
102
{ACAD_REACTORS
330
201
102
}
100
AcDbEntity
  8
M01
100
AcDbLine
 10
725.744176
 20
133.02182
 30
0.0
 11
723.744176
 21
131.02182
 31
0.0
  0
LINE
  5
43C
102
{ACAD_REACTORS
330
201
102
}
100
AcDbEntity
  8
M01
100
AcDbLine
 10
723.744176
 20
191.02182
 30
0.0
 11
725.744176
 21
189.02182
 31
0.0
  0
LINE
  5
43D
102
{ACAD_REACTORS
330
56
102
}
100
AcDbEntity
  8
M01
100
AcDbLine
 10
267.16878
 20
189.02182
 30
0.0
 11
269.16878
 21
191.02182
 31
0.0
  0
LINE
  5
43E
102
{ACAD_REACTORS
330
56
102
}
100
AcDbEntity
  8
M01
100
AcDbLine
 10
269.16878
 20
131.02182
 30
0.0
 11
267.16878
 21
133.02182
 31
0.0
  0
LINE
  5
43F
102
{ACAD_REACTORS
330
201
102
}
100
AcDbEntity
  8
M01
100
AcDbLine
 10
725.744176
 20
189.02182
 30
0.0
 11
725.744176
 21
133.02182
 31
0.0
  0
LINE
  5
440
102
{ACAD_REACTORS
330
56
102
}
100
AcDbEntity
  8
M01
100
AcDbLine
 10
267.16878
 20
189.02182
 30
0.0
 11
267.16878
 21
133.02182
 31
0.0
  0
LINE
  5
441
102
{ACAD_REACTORS
330
373
330
201
330
1FE
330
1A9
330
56
102
}
100
AcDbEntity
  8
M01
100
AcDbLine
 10
269.16878
 20
131.02182
 30
0.0
 11
515.51878
 21
131.02182
 31
0.0
  0
LINE
  5
442
102
{ACAD_REACTORS
330
201
330
1FD
330
1FC
330
1F8
330
56
102
}
100
AcDbEntity
  8
M01
100
AcDbLine
 10
269.16878
 20
191.02182
 30
0.0
 11
633.524052
 21
191.02182
 31
0.0
  0
LINE
  5
443
100
AcDbEntity
  8
M04
100
AcDbLine
 10
260.16878
 20
198.02182
 30
0.0
 11
503.79378
 21
198.02182
 31
0.0
  0
LINE
  5
444
102
{ACAD_REACTORS
330
201
102
}
100
AcDbEntity
  8
CENTRE
100
AcDbLine
 10
525.51878
 20
228.656567
 30
0.0
 11
525.51878
 21
87.701878
 31
0.0
  0
LINE
  5
445
100
AcDbEntity
  8
M04
100
AcDbLine
 10
732.744176
 20
198.02182
 30
0.0
 11
732.744176
 21
124.02182
 31
0.0
  0
LINE
  5
446
100
AcDbEntity
  8
M04
100
AcDbLine
 10
260.16878
 20
198.02182
 30
0.0
 11
260.16878
 21
124.02182
 31
0.0
  0
LINE
  5
447
100
AcDbEntity
  8
M04
100
AcDbLine
 10
242.617998
 20
124.02182
 30
0.0
 11
297.51878
 21
124.02182
 31
0.0
  0
LINE
  5
448
100
AcDbEntity
  8
M04
100
AcDbLine
 10
484.744176
 20
390.559226
 30
0.0
 11
566.293383
 21
390.559226
 31
0.0
  0
LINE
  5
449
100
AcDbEntity
  8
M04
100
AcDbLine
 10
484.744176
 20
474.559226
 30
0.0
 11
566.293383
 21
474.559226
 31
0.0
  0
LINE
  5
44A
100
AcDbEntity
  8
M01
100
AcDbLine
 10
484.744176
 20
397.559226
 30
0.0
 11
566.293383
 21
397.559226
 31
0.0
  0
LINE
  5
44B
100
AcDbEntity
  8
M01
100
AcDbLine
 10
484.744176
 20
467.559226
 30
0.0
 11
566.293383
 21
467.559226
 31
0.0
  0
LINE
  5
44C
100
AcDbEntity
  8
CENTRE
100
AcDbLine
 10
375.51878
 20
652.003033
 30
0.0
 11
375.51878
 21
312.074032
 31
0.0
  0
CIRCLE
  5
44D
100
AcDbEntity
  8
M03
100
AcDbCircle
 10
750.51878
 20
507.559226
 30
0.0
 40
15.0
  0
CIRCLE
  5
44E
100
AcDbEntity
  8
M03
100
AcDbCircle
 10
750.51878
 20
507.559226
 30
0.0
 40
14.0
  0
LINE
  5
44F
100
AcDbEntity
  8
M01
100
AcDbLine
 10
690.76878
 20
579.503326
 30
0.0
 11
684.26878
 21
579.503326
 31
0.0
  0
LINE
  5
450
100
AcDbEntity
  8
M01
100
AcDbLine
 10
690.76878
 20
587.615126
 30
0.0
 11
684.26878
 21
587.615126
 31
0.0
  0
LINE
  5
451
100
AcDbEntity
  8
M01
100
AcDbLine
 10
690.76878
 20
579.503326
 30
0.0
 11
690.76878
 21
577.559226
 31
0.0
  0
ARC
  5
452
100
AcDbEntity
  8
M01
100
AcDbCircle
 10
692.01878
 20
581.064576
 30
0.0
 40
2.0
100
AcDbArc
 50
180.0
 51
231.317813
  0
ARC
  5
453
100
AcDbEntity
  8
M01
100
AcDbCircle
 10
692.01878
 20
586.053876
 30
0.0
 40
2.0
100
AcDbArc
 50
128.682187
 51
180.0
  0
LINE
  5
454
100
AcDbEntity
  8
M01
100
AcDbLine
 10
690.76878
 20
589.559226
 30
0.0
 11
690.76878
 21
587.615126
 31
0.0
  0
LINE
  5
455
100
AcDbEntity
  8
M01
100
AcDbLine
 10
690.01878
 20
586.053876
 30
0.0
 11
690.01878
 21
581.064576
 31
0.0
  0
LINE
  5
456
100
AcDbEntity
  8
M01
100
AcDbLine
 10
684.26878
 20
579.503326
 30
0.0
 11
684.26878
 21
577.559226
 31
0.0
  0
ARC
  5
457
100
AcDbEntity
  8
M01
100
AcDbCircle
 10
683.01878
 20
581.064576
 30
0.0
 40
2.0
100
AcDbArc
 50
308.682187
 51
0.0
  0
ARC
  5
458
100
AcDbEntity
  8
M01
100
AcDbCircle
 10
683.01878
 20
586.053876
 30
0.0
 40
2.0
100
AcDbArc
 50
0.0
 51
51.317813
  0
LINE
  5
459
100
AcDbEntity
  8
M01
100
AcDbLine
 10
684.26878
 20
589.559226
 30
0.0
 11
684.26878
 21
587.615126
 31
0.0
  0
LINE
  5
45A
100
AcDbEntity
  8
M01
100
AcDbLine
 10
685.01878
 20
586.053876
 30
0.0
 11
685.01878
 21
581.064576
 31
0.0
  0
LINE
  5
45B
100
AcDbEntity
  8
M01
100
AcDbLine
 10
683.01878
 20
589.559226
 30
0.0
 11
692.01878
 21
589.559226
 31
0.0
  0
LINE
  5
45C
100
AcDbEntity
  8
M01
100
AcDbLine
 10
692.01878
 20
590.359226
 30
0.0
 11
692.01878
 21
589.559226
 31
0.0
  0
LINE
  5
45D
100
AcDbEntity
  8
M01
100
AcDbLine
 10
683.01878
 20
590.359226
 30
0.0
 11
683.01878
 21
589.559226
 31
0.0
  0
LINE
  5
45E
100
AcDbEntity
  8
M01
100
AcDbLine
 10
660.26878
 20
579.503326
 30
0.0
 11
666.76878
 21
579.503326
 31
0.0
  0
LINE
  5
45F
100
AcDbEntity
  8
M01
100
AcDbLine
 10
660.26878
 20
587.615126
 30
0.0
 11
666.76878
 21
587.615126
 31
0.0
  0
LINE
  5
460
100
AcDbEntity
  8
M01
100
AcDbLine
 10
660.26878
 20
579.503326
 30
0.0
 11
660.26878
 21
577.559226
 31
0.0
  0
ARC
  5
461
100
AcDbEntity
  8
M01
100
AcDbCircle
 10
659.01878
 20
581.064576
 30
0.0
 40
2.0
100
AcDbArc
 50
308.682187
 51
0.0
  0
ARC
  5
462
100
AcDbEntity
  8
M01
100
AcDbCircle
 10
659.01878
 20
586.053876
 30
0.0
 40
2.0
100
AcDbArc
 50
0.0
 51
51.317813
  0
LINE
  5
463
100
AcDbEntity
  8
M01
100
AcDbLine
 10
660.26878
 20
589.559226
 30
0.0
 11
660.26878
 21
587.615126
 31
0.0
  0
LINE
  5
464
100
AcDbEntity
  8
M01
100
AcDbLine
 10
661.01878
 20
586.053876
 30
0.0
 11
661.01878
 21
581.064576
 31
0.0
  0
LINE
  5
465
100
AcDbEntity
  8
M01
100
AcDbLine
 10
666.76878
 20
579.503326
 30
0.0
 11
666.76878
 21
577.559226
 31
0.0
  0
ARC
  5
466
100
AcDbEntity
  8
M01
100
AcDbCircle
 10
668.01878
 20
581.064576
 30
0.0
 40
2.0
100
AcDbArc
 50
180.0
 51
231.317813
  0
ARC
  5
467
100
AcDbEntity
  8
M01
100
AcDbCircle
 10
668.01878
 20
586.053876
 30
0.0
 40
2.0
100
AcDbArc
 50
128.682187
 51
180.0
  0
LINE
  5
468
100
AcDbEntity
  8
M01
100
AcDbLine
 10
666.76878
 20
589.559226
 30
0.0
 11
666.76878
 21
587.615126
 31
0.0
  0
LINE
  5
469
100
AcDbEntity
  8
M01
100
AcDbLine
 10
666.01878
 20
586.053876
 30
0.0
 11
666.01878
 21
581.064576
 31
0.0
  0
LINE
  5
46A
100
AcDbEntity
  8
M01
100
AcDbLine
 10
692.51878
 20
572.559226
 30
0.0
 11
682.51878
 21
572.559226
 31
0.0
  0
LINE
  5
46B
100
AcDbEntity
  8
M01
100
AcDbLine
 10
658.51878
 20
572.559226
 30
0.0
 11
668.51878
 21
572.559226
 31
0.0
  0
LINE
  5
46C
100
AcDbEntity
  8
M01
100
AcDbLine
 10
658.51878
 20
577.559226
 30
0.0
 11
658.51878
 21
557.559226
 31
0.0
  0
LINE
  5
46D
100
AcDbEntity
  8
M01
100
AcDbLine
 10
668.51878
 20
577.559226
 30
0.0
 11
668.51878
 21
557.559226
 31
0.0
  0
LINE
  5
46E
100
AcDbEntity
  8
M01
100
AcDbLine
 10
682.51878
 20
577.559226
 30
0.0
 11
682.51878
 21
557.559226
 31
0.0
  0
LINE
  5
46F
100
AcDbEntity
  8
M01
100
AcDbLine
 10
692.51878
 20
577.559226
 30
0.0
 11
692.51878
 21
557.559226
 31
0.0
  0
LINE
  5
470
100
AcDbEntity
  8
M01
100
AcDbLine
 10
690.549868
 20
599.459226
 30
0.0
 11
684.487691
 21
599.459226
 31
0.0
  0
ARC
  5
471
100
AcDbEntity
  8
M01
100
AcDbCircle
 10
684.487691
 20
597.609921
 30
0.0
 40
1.150694
100
AcDbArc
 50
208.592423
 51
331.407577
  0
ARC
  5
472
100
AcDbEntity
  8
M01
100
AcDbCircle
 10
687.51878
 20
600.162004
 30
0.0
 40
3.702778
100
AcDbArc
 50
236.92527
 51
303.07473
  0
ARC
  5
473
100
AcDbEntity
  8
M01
100
AcDbCircle
 10
690.549868
 20
597.609921
 30
0.0
 40
1.150694
100
AcDbArc
 50
208.592423
 51
331.407577
  0
ARC
  5
474
100
AcDbEntity
  8
M01
100
AcDbCircle
 10
684.487691
 20
598.308532
 30
0.0
 40
1.150694
100
AcDbArc
 50
28.592423
 51
151.407577
  0
ARC
  5
475
100
AcDbEntity
  8
M01
100
AcDbCircle
 10
687.51878
 20
595.756448
 30
0.0
 40
3.702778
100
AcDbArc
 50
56.92527
 51
123.07473
  0
LINE
  5
476
100
AcDbEntity
  8
M01
100
AcDbLine
 10
685.498054
 20
598.859226
 30
0.0
 11
685.498054
 21
597.059226
 31
0.0
  0
LINE
  5
477
100
AcDbEntity
  8
M01
100
AcDbLine
 10
683.477328
 20
598.859226
 30
0.0
 11
683.477328
 21
597.059226
 31
0.0
  0
ARC
  5
478
100
AcDbEntity
  8
M01
100
AcDbCircle
 10
690.549868
 20
598.308532
 30
0.0
 40
1.150694
100
AcDbArc
 50
28.592423
 51
151.407577
  0
LINE
  5
479
100
AcDbEntity
  8
M01
100
AcDbLine
 10
689.539505
 20
598.859226
 30
0.0
 11
689.539505
 21
597.059226
 31
0.0
  0
LINE
  5
47A
100
AcDbEntity
  8
M01
100
AcDbLine
 10
691.560231
 20
598.859226
 30
0.0
 11
691.560231
 21
597.059226
 31
0.0
  0
LINE
  5
47B
100
AcDbEntity
  8
M01
100
AcDbLine
 10
682.51878
 20
594.159226
 30
0.0
 11
682.51878
 21
595.659226
 31
0.0
  0
LINE
  5
47C
100
AcDbEntity
  8
M01
100
AcDbLine
 10
692.51878
 20
594.159226
 30
0.0
 11
692.51878
 21
595.659226
 31
0.0
  0
LINE
  5
47D
100
AcDbEntity
  8
M01
100
AcDbLine
 10
683.01878
 20
595.659226
 30
0.0
 11
683.01878
 21
596.459226
 31
0.0
  0
LINE
  5
47E
100
AcDbEntity
  8
M01
100
AcDbLine
 10
692.01878
 20
595.659226
 30
0.0
 11
692.01878
 21
596.459226
 31
0.0
  0
LINE
  5
47F
100
AcDbEntity
  8
M01
100
AcDbLine
 10
692.01878
 20
596.459226
 30
0.0
 11
683.01878
 21
596.459226
 31
0.0
  0
LINE
  5
480
100
AcDbEntity
  8
M01
100
AcDbLine
 10
692.51878
 20
595.659226
 30
0.0
 11
682.51878
 21
595.659226
 31
0.0
  0
LINE
  5
481
100
AcDbEntity
  8
M01
100
AcDbLine
 10
683.01878
 20
593.359226
 30
0.0
 11
683.01878
 21
594.159226
 31
0.0
  0
LINE
  5
482
100
AcDbEntity
  8
M01
100
AcDbLine
 10
692.01878
 20
593.359226
 30
0.0
 11
692.01878
 21
594.159226
 31
0.0
  0
LINE
  5
483
100
AcDbEntity
  8
M01
100
AcDbLine
 10
692.51878
 20
594.159226
 30
0.0
 11
682.51878
 21
594.159226
 31
0.0
  0
ARC
  5
484
100
AcDbEntity
  8
M01
100
AcDbCircle
 10
684.487691
 20
591.509921
 30
0.0
 40
1.150694
100
AcDbArc
 50
208.592423
 51
331.407577
  0
ARC
  5
485
100
AcDbEntity
  8
M01
100
AcDbCircle
 10
687.51878
 20
594.062004
 30
0.0
 40
3.702778
100
AcDbArc
 50
236.92527
 51
303.07473
  0
ARC
  5
486
100
AcDbEntity
  8
M01
100
AcDbCircle
 10
690.549868
 20
591.509921
 30
0.0
 40
1.150694
100
AcDbArc
 50
208.592423
 51
331.407577
  0
ARC
  5
487
100
AcDbEntity
  8
M01
100
AcDbCircle
 10
684.487691
 20
592.208532
 30
0.0
 40
1.150694
100
AcDbArc
 50
28.592423
 51
151.407577
  0
ARC
  5
488
100
AcDbEntity
  8
M01
100
AcDbCircle
 10
687.51878
 20
589.656448
 30
0.0
 40
3.702778
100
AcDbArc
 50
56.92527
 51
123.07473
  0
LINE
  5
489
100
AcDbEntity
  8
M01
100
AcDbLine
 10
685.498054
 20
592.759226
 30
0.0
 11
685.498054
 21
590.959226
 31
0.0
  0
LINE
  5
48A
100
AcDbEntity
  8
M01
100
AcDbLine
 10
683.477328
 20
592.759226
 30
0.0
 11
683.477328
 21
590.959226
 31
0.0
  0
ARC
  5
48B
100
AcDbEntity
  8
M01
100
AcDbCircle
 10
690.549868
 20
592.208532
 30
0.0
 40
1.150694
100
AcDbArc
 50
28.592423
 51
151.407577
  0
LINE
  5
48C
100
AcDbEntity
  8
M01
100
AcDbLine
 10
689.539505
 20
592.759226
 30
0.0
 11
689.539505
 21
590.959226
 31
0.0
  0
LINE
  5
48D
100
AcDbEntity
  8
M01
100
AcDbLine
 10
691.560231
 20
592.759226
 30
0.0
 11
691.560231
 21
590.959226
 31
0.0
  0
LINE
  5
48E
100
AcDbEntity
  8
M01
100
AcDbLine
 10
692.01878
 20
593.359226
 30
0.0
 11
683.01878
 21
593.359226
 31
0.0
  0
LINE
  5
48F
100
AcDbEntity
  8
M01
100
AcDbLine
 10
692.01878
 20
590.359226
 30
0.0
 11
683.01878
 21
590.359226
 31
0.0
  0
LINE
  5
490
100
AcDbEntity
  8
M01
100
AcDbLine
 10
686.01878
 20
602.559226
 30
0.0
 11
685.51878
 21
602.059226
 31
0.0
  0
LINE
  5
491
100
AcDbEntity
  8
M01
100
AcDbLine
 10
689.51878
 20
602.059226
 30
0.0
 11
689.01878
 21
602.559226
 31
0.0
  0
LINE
  5
492
100
AcDbEntity
  8
M01
100
AcDbLine
 10
689.51878
 20
602.059226
 30
0.0
 11
685.51878
 21
602.059226
 31
0.0
  0
LINE
  5
493
100
AcDbEntity
  8
M01
100
AcDbLine
 10
686.01878
 20
602.559226
 30
0.0
 11
686.01878
 21
599.459226
 31
0.0
  0
LINE
  5
494
100
AcDbEntity
  8
M01
100
AcDbLine
 10
689.01878
 20
602.559226
 30
0.0
 11
689.01878
 21
599.459226
 31
0.0
  0
LINE
  5
495
100
AcDbEntity
  8
M01
100
AcDbLine
 10
689.51878
 20
602.059226
 30
0.0
 11
689.51878
 21
599.459226
 31
0.0
  0
LINE
  5
496
100
AcDbEntity
  8
M01
100
AcDbLine
 10
685.51878
 20
602.059226
 30
0.0
 11
685.51878
 21
599.459226
 31
0.0
  0
LINE
  5
497
100
AcDbEntity
  8
M01
100
AcDbLine
 10
689.01878
 20
602.559226
 30
0.0
 11
686.01878
 21
602.559226
 31
0.0
  0
LINE
  5
498
100
AcDbEntity
  8
M01
100
AcDbLine
 10
692.51878
 20
577.559226
 30
0.0
 11
682.51878
 21
577.559226
 31
0.0
  0
LINE
  5
499
100
AcDbEntity
  8
CENTRE
100
AcDbLine
 10
687.51878
 20
608.720115
 30
0.0
 11
687.51878
 21
545.126684
 31
0.0
  0
LINE
  5
49A
100
AcDbEntity
  8
M01
100
AcDbLine
 10
660.487691
 20
599.459226
 30
0.0
 11
666.549868
 21
599.459226
 31
0.0
  0
ARC
  5
49B
100
AcDbEntity
  8
M01
100
AcDbCircle
 10
666.549868
 20
597.609921
 30
0.0
 40
1.150694
100
AcDbArc
 50
208.592423
 51
331.407577
  0
ARC
  5
49C
100
AcDbEntity
  8
M01
100
AcDbCircle
 10
663.51878
 20
600.162004
 30
0.0
 40
3.702778
100
AcDbArc
 50
236.92527
 51
303.07473
  0
ARC
  5
49D
100
AcDbEntity
  8
M01
100
AcDbCircle
 10
660.487691
 20
597.609921
 30
0.0
 40
1.150694
100
AcDbArc
 50
208.592423
 51
331.407577
  0
ARC
  5
49E
100
AcDbEntity
  8
M01
100
AcDbCircle
 10
666.549868
 20
598.308532
 30
0.0
 40
1.150694
100
AcDbArc
 50
28.592423
 51
151.407577
  0
ARC
  5
49F
100
AcDbEntity
  8
M01
100
AcDbCircle
 10
663.51878
 20
595.756448
 30
0.0
 40
3.702778
100
AcDbArc
 50
56.92527
 51
123.07473
  0
LINE
  5
4A0
100
AcDbEntity
  8
M01
100
AcDbLine
 10
665.539505
 20
598.859226
 30
0.0
 11
665.539505
 21
597.059226
 31
0.0
  0
LINE
  5
4A1
100
AcDbEntity
  8
M01
100
AcDbLine
 10
667.560231
 20
598.859226
 30
0.0
 11
667.560231
 21
597.059226
 31
0.0
  0
ARC
  5
4A2
100
AcDbEntity
  8
M01
100
AcDbCircle
 10
660.487691
 20
598.308532
 30
0.0
 40
1.150694
100
AcDbArc
 50
28.592423
 51
151.407577
  0
LINE
  5
4A3
100
AcDbEntity
  8
M01
100
AcDbLine
 10
661.498054
 20
598.859226
 30
0.0
 11
661.498054
 21
597.059226
 31
0.0
  0
LINE
  5
4A4
100
AcDbEntity
  8
M01
100
AcDbLine
 10
659.477328
 20
598.859226
 30
0.0
 11
659.477328
 21
597.059226
 31
0.0
  0
LINE
  5
4A5
100
AcDbEntity
  8
M01
100
AcDbLine
 10
668.51878
 20
594.159226
 30
0.0
 11
668.51878
 21
595.659226
 31
0.0
  0
LINE
  5
4A6
100
AcDbEntity
  8
M01
100
AcDbLine
 10
658.51878
 20
594.159226
 30
0.0
 11
658.51878
 21
595.659226
 31
0.0
  0
LINE
  5
4A7
100
AcDbEntity
  8
M01
100
AcDbLine
 10
668.01878
 20
595.659226
 30
0.0
 11
668.01878
 21
596.459226
 31
0.0
  0
LINE
  5
4A8
100
AcDbEntity
  8
M01
100
AcDbLine
 10
659.01878
 20
595.659226
 30
0.0
 11
659.01878
 21
596.459226
 31
0.0
  0
LINE
  5
4A9
100
AcDbEntity
  8
M01
100
AcDbLine
 10
659.01878
 20
596.459226
 30
0.0
 11
668.01878
 21
596.459226
 31
0.0
  0
LINE
  5
4AA
100
AcDbEntity
  8
M01
100
AcDbLine
 10
658.51878
 20
595.659226
 30
0.0
 11
668.51878
 21
595.659226
 31
0.0
  0
LINE
  5
4AB
100
AcDbEntity
  8
M01
100
AcDbLine
 10
668.01878
 20
593.359226
 30
0.0
 11
668.01878
 21
594.159226
 31
0.0
  0
LINE
  5
4AC
100
AcDbEntity
  8
M01
100
AcDbLine
 10
659.01878
 20
593.359226
 30
0.0
 11
659.01878
 21
594.159226
 31
0.0
  0
LINE
  5
4AD
100
AcDbEntity
  8
M01
100
AcDbLine
 10
658.51878
 20
594.159226
 30
0.0
 11
668.51878
 21
594.159226
 31
0.0
  0
ARC
  5
4AE
100
AcDbEntity
  8
M01
100
AcDbCircle
 10
666.549868
 20
591.509921
 30
0.0
 40
1.150694
100
AcDbArc
 50
208.592423
 51
331.407577
  0
ARC
  5
4AF
100
AcDbEntity
  8
M01
100
AcDbCircle
 10
663.51878
 20
594.062004
 30
0.0
 40
3.702778
100
AcDbArc
 50
236.92527
 51
303.07473
  0
ARC
  5
4B0
100
AcDbEntity
  8
M01
100
AcDbCircle
 10
660.487691
 20
591.509921
 30
0.0
 40
1.150694
100
AcDbArc
 50
208.592423
 51
331.407577
  0
ARC
  5
4B1
100
AcDbEntity
  8
M01
100
AcDbCircle
 10
666.549868
 20
592.208532
 30
0.0
 40
1.150694
100
AcDbArc
 50
28.592423
 51
151.407577
  0
ARC
  5
4B2
100
AcDbEntity
  8
M01
100
AcDbCircle
 10
663.51878
 20
589.656448
 30
0.0
 40
3.702778
100
AcDbArc
 50
56.92527
 51
123.07473
  0
LINE
  5
4B3
100
AcDbEntity
  8
M01
100
AcDbLine
 10
665.539505
 20
592.759226
 30
0.0
 11
665.539505
 21
590.959226
 31
0.0
  0
LINE
  5
4B4
100
AcDbEntity
  8
M01
100
AcDbLine
 10
667.560231
 20
592.759226
 30
0.0
 11
667.560231
 21
590.959226
 31
0.0
  0
ARC
  5
4B5
100
AcDbEntity
  8
M01
100
AcDbCircle
 10
660.487691
 20
592.208532
 30
0.0
 40
1.150694
100
AcDbArc
 50
28.592423
 51
151.407577
  0
LINE
  5
4B6
100
AcDbEntity
  8
M01
100
AcDbLine
 10
661.498054
 20
592.759226
 30
0.0
 11
661.498054
 21
590.959226
 31
0.0
  0
LINE
  5
4B7
100
AcDbEntity
  8
M01
100
AcDbLine
 10
659.477328
 20
592.759226
 30
0.0
 11
659.477328
 21
590.959226
 31
0.0
  0
LINE
  5
4B8
100
AcDbEntity
  8
M01
100
AcDbLine
 10
659.01878
 20
593.359226
 30
0.0
 11
668.01878
 21
593.359226
 31
0.0
  0
LINE
  5
4B9
100
AcDbEntity
  8
M01
100
AcDbLine
 10
659.01878
 20
590.359226
 30
0.0
 11
668.01878
 21
590.359226
 31
0.0
  0
LINE
  5
4BA
100
AcDbEntity
  8
M01
100
AcDbLine
 10
659.01878
 20
589.559226
 30
0.0
 11
668.01878
 21
589.559226
 31
0.0
  0
LINE
  5
4BB
100
AcDbEntity
  8
M01
100
AcDbLine
 10
665.01878
 20
602.559226
 30
0.0
 11
665.51878
 21
602.059226
 31
0.0
  0
LINE
  5
4BC
100
AcDbEntity
  8
M01
100
AcDbLine
 10
661.51878
 20
602.059226
 30
0.0
 11
662.01878
 21
602.559226
 31
0.0
  0
LINE
  5
4BD
100
AcDbEntity
  8
M01
100
AcDbLine
 10
661.51878
 20
602.059226
 30
0.0
 11
665.51878
 21
602.059226
 31
0.0
  0
LINE
  5
4BE
100
AcDbEntity
  8
M01
100
AcDbLine
 10
665.01878
 20
602.559226
 30
0.0
 11
665.01878
 21
599.459226
 31
0.0
  0
LINE
  5
4BF
100
AcDbEntity
  8
M01
100
AcDbLine
 10
662.01878
 20
602.559226
 30
0.0
 11
662.01878
 21
599.459226
 31
0.0
  0
LINE
  5
4C0
100
AcDbEntity
  8
M01
100
AcDbLine
 10
661.51878
 20
602.059226
 30
0.0
 11
661.51878
 21
599.459226
 31
0.0
  0
LINE
  5
4C1
100
AcDbEntity
  8
M01
100
AcDbLine
 10
665.51878
 20
602.059226
 30
0.0
 11
665.51878
 21
599.459226
 31
0.0
  0
LINE
  5
4C2
100
AcDbEntity
  8
M01
100
AcDbLine
 10
662.01878
 20
602.559226
 30
0.0
 11
665.01878
 21
602.559226
 31
0.0
  0
LINE
  5
4C3
100
AcDbEntity
  8
M01
100
AcDbLine
 10
658.51878
 20
577.559226
 30
0.0
 11
668.51878
 21
577.559226
 31
0.0
  0
LINE
  5
4C4
100
AcDbEntity
  8
M01
100
AcDbLine
 10
668.01878
 20
590.359226
 30
0.0
 11
668.01878
 21
589.559226
 31
0.0
  0
LINE
  5
4C5
100
AcDbEntity
  8
M01
100
AcDbLine
 10
659.01878
 20
590.359226
 30
0.0
 11
659.01878
 21
589.559226
 31
0.0
  0
LINE
  5
4C6
100
AcDbEntity
  8
CENTRE
100
AcDbLine
 10
663.51878
 20
608.720115
 30
0.0
 11
663.51878
 21
545.126684
 31
0.0
  0
HATCH
  5
4C7
100
AcDbEntity
  8
M03
100
AcDbHatch
 10
0.0
 20
0.0
 30
0.0
210
0.0
220
0.0
230
1.0
  2
_U
 70
     0
 71
     0
 91
        1
 92
        7
 72
     0
 73
     1
 93
        4
 10
762.7807504855382
 20
480.0817959257544
 10
783.4554634090745
 20
500.7565088492908
 10
784.7989662933289
 20
499.4130059650363
 10
764.1242533697925
 20
478.7382930415001
 97
        0
 75
     0
 76
     0
 52
285.0
 41
0.7
 77
     0
 78
     1
 53
255.0
 43
1396.065162
 44
541.374485
 45
-0.676148078402348
 46
0.181173331571764
 79
     0
 47
0.060863
 98
        1
 10
766.230444
 20
481.852208
  0
HATCH
  5
4C8
100
AcDbEntity
  8
M03
100
AcDbHatch
 10
0.0
 20
0.0
 30
0.0
210
0.0
220
0.0
230
1.0
  2
_U
 70
     0
 71
     0
 91
        1
 92
        7
 72
     0
 73
     1
 93
        4
 10
762.7807504855382
 20
480.0817959257543
 10
783.4554634090745
 20
500.7565088492908
 10
784.7989662933291
 20
499.4130059650363
 10
764.1242533697925
 20
478.7382930415
 97
        0
 75
     0
 76
     0
 52
-15.0
 41
0.7
 77
     0
 78
     1
 53
195.0
 43
1396.065162
 44
541.374485
 45
-0.1811733315717648
 46
0.6761480784023477
 79
     0
 47
0.060863
 98
        1
 10
766.18746
 20
482.153518
  0
LINE
  5
4C9
100
AcDbEntity
  8
M03
100
AcDbLine
 10
741.421132
 20
477.955481
 30
0.0
 11
742.108506
 21
480.520798
 31
0.0
  0
LINE
  5
4CA
100
AcDbEntity
  8
M03
100
AcDbLine
 10
744.673823
 20
481.208173
 30
0.0
 11
742.108506
 21
480.520798
 31
0.0
  0
LINE
  5
4CB
100
AcDbEntity
  8
M03
100
AcDbLine
 10
744.673823
 20
481.208173
 30
0.0
 11
741.421132
 21
477.955481
 31
0.0
  0
LINE
  5
4CC
100
AcDbEntity
  8
M03
100
AcDbLine
 10
746.229458
 20
480.642487
 30
0.0
 11
741.986817
 21
476.399847
 31
0.0
  0
LINE
  5
4CD
100
AcDbEntity
  8
M03
100
AcDbLine
 10
762.78075
 20
480.081796
 30
0.0
 11
783.455463
 21
500.756509
 31
0.0
  0
LINE
  5
4CE
100
AcDbEntity
  8
M03
100
AcDbLine
 10
764.124253
 20
478.738293
 30
0.0
 11
784.798966
 21
499.413006
 31
0.0
  0
LINE
  5
4CF
100
AcDbEntity
  8
M03
100
AcDbLine
 10
757.618871
 20
475.34418
 30
0.0
 11
747.50225
 21
465.227559
 31
0.0
  0
LINE
  5
4D0
100
AcDbEntity
  8
M03
100
AcDbLine
 10
757.791945
 20
476.648626
 30
0.0
 11
758.357631
 21
476.08294
 31
0.0
  0
LINE
  5
4D1
100
AcDbEntity
  8
M03
100
AcDbLine
 10
762.568618
 20
480.293928
 30
0.0
 11
764.336385
 21
478.526161
 31
0.0
  0
LINE
  5
4D2
100
AcDbEntity
  8
M03
100
AcDbLine
 10
764.336385
 20
478.526161
 30
0.0
 11
759.386638
 21
473.576414
 31
0.0
  0
LINE
  5
4D3
100
AcDbEntity
  8
M03
100
AcDbLine
 10
757.618871
 20
475.34418
 30
0.0
 11
759.386638
 21
473.576414
 31
0.0
  0
LINE
  5
4D4
100
AcDbEntity
  8
M03
100
AcDbLine
 10
746.936564
 20
465.793245
 30
0.0
 11
747.50225
 21
465.227559
 31
0.0
  0
ARC
  5
4D5
100
AcDbEntity
  8
M03
100
AcDbCircle
 10
750.665749
 20
471.963555
 30
0.0
 40
5.826136
100
AcDbArc
 50
250.69541
 51
19.30459
  0
LINE
  5
4D6
100
AcDbEntity
  8
M03
100
AcDbLine
 10
743.754584
 20
474.63208
 30
0.0
 11
743.754584
 21
475.622029
 31
0.0
  0
LINE
  5
4D7
100
AcDbEntity
  8
M03
100
AcDbLine
 10
747.997225
 20
478.87472
 30
0.0
 11
747.007275
 21
478.87472
 31
0.0
  0
LINE
  5
4D8
100
AcDbEntity
  8
M03
100
AcDbLine
 10
747.997225
 20
478.87472
 30
0.0
 11
743.754584
 21
474.63208
 31
0.0
  0
LINE
  5
4D9
100
AcDbEntity
  8
M03
100
AcDbLine
 10
747.007275
 20
478.87472
 30
0.0
 11
743.754584
 21
475.622029
 31
0.0
  0
LINE
  5
4DA
100
AcDbEntity
  8
M03
100
AcDbLine
 10
749.764992
 20
468.621672
 30
0.0
 11
744.815244
 21
463.671924
 31
0.0
  0
LINE
  5
4DB
100
AcDbEntity
  8
M03
100
AcDbLine
 10
761.573675
 20
480.430355
 30
0.0
 11
762.13936
 21
479.86467
 31
0.0
  0
LINE
  5
4DC
100
AcDbEntity
  8
M03
100
AcDbLine
 10
749.270017
 20
468.126697
 30
0.0
 11
749.835702
 21
467.561012
 31
0.0
  0
LINE
  5
4DD
100
AcDbEntity
  8
M03
100
AcDbLine
 10
741.421132
 20
477.955481
 30
0.0
 11
750.825652
 21
468.550961
 31
0.0
  0
LINE
  5
4DE
100
AcDbEntity
  8
M03
100
AcDbLine
 10
744.673823
 20
481.208173
 30
0.0
 11
754.078343
 21
471.803652
 31
0.0
  0
LINE
  5
4DF
100
AcDbEntity
  8
M03
100
AcDbLine
 10
746.229458
 20
480.642487
 30
0.0
 11
754.573318
 21
472.298627
 31
0.0
  0
LINE
  5
4E0
100
AcDbEntity
  8
M03
100
AcDbLine
 10
741.986817
 20
476.399847
 30
0.0
 11
750.330677
 21
468.055986
 31
0.0
  0
LINE
  5
4E1
100
AcDbEntity
  8
M03
100
AcDbLine
 10
762.568618
 20
480.293928
 30
0.0
 11
758.357631
 21
476.08294
 31
0.0
  0
LINE
  5
4E2
100
AcDbEntity
  8
M03
100
AcDbLine
 10
744.815244
 20
463.671924
 30
0.0
 11
748.350778
 21
460.136391
 31
0.0
  0
LINE
  5
4E3
100
AcDbEntity
  8
M03
100
AcDbLine
 10
786.51878
 20
505.37546
 30
0.0
 11
754.007632
 21
472.864313
 31
0.0
  0
LINE
  5
4E4
100
AcDbEntity
  8
CENTRE
100
AcDbLine
 10
739.017907
 20
483.611397
 30
0.0
 11
758.223033
 21
464.406271
 31
0.0
  0
CIRCLE
  5
4E5
100
AcDbEntity
  8
M03
100
AcDbCircle
 10
750.51878
 20
357.559226
 30
0.0
 40
2.3
  0
ARC
  5
4E6
100
AcDbEntity
  8
M03
100
AcDbCircle
 10
750.51878
 20
357.559226
 30
0.0
 40
3.0
100
AcDbArc
 50
167.784636
 51
96.923103
  0
LINE
  5
4E7
100
AcDbEntity
  8
M03
100
AcDbLine
 10
749.96878
 20
363.533965
 30
0.0
 11
749.96878
 21
351.584488
 31
0.0
  0
LINE
  5
4E8
100
AcDbEntity
  8
M03
100
AcDbLine
 10
751.06878
 20
363.533965
 30
0.0
 11
751.06878
 21
351.584488
 31
0.0
  0
CIRCLE
  5
4E9
100
AcDbEntity
  8
M03
100
AcDbCircle
 10
750.51878
 20
357.559226
 30
0.0
 40
7.858882
  0
CIRCLE
  5
4EA
100
AcDbEntity
  8
M03
100
AcDbCircle
 10
750.51878
 20
357.559226
 30
0.0
 40
6.0
  0
CIRCLE
  5
4EB
100
AcDbEntity
  8
M03
100
AcDbCircle
 10
600.51878
 20
357.559226
 30
0.0
 40
2.3
  0
ARC
  5
4EC
100
AcDbEntity
  8
M03
100
AcDbCircle
 10
600.51878
 20
357.559226
 30
0.0
 40
3.0
100
AcDbArc
 50
173.076897
 51
102.215364
  0
LINE
  5
4ED
100
AcDbEntity
  8
M03
100
AcDbLine
 10
601.06878
 20
363.533965
 30
0.0
 11
601.06878
 21
351.584488
 31
0.0
  0
LINE
  5
4EE
100
AcDbEntity
  8
M03
100
AcDbLine
 10
599.96878
 20
363.533965
 30
0.0
 11
599.96878
 21
351.584488
 31
0.0
  0
CIRCLE
  5
4EF
100
AcDbEntity
  8
M03
100
AcDbCircle
 10
600.51878
 20
357.559226
 30
0.0
 40
7.858882
  0
CIRCLE
  5
4F0
100
AcDbEntity
  8
M03
100
AcDbCircle
 10
600.51878
 20
357.559226
 30
0.0
 40
6.0
  0
CIRCLE
  5
4F1
100
AcDbEntity
  8
M03
100
AcDbCircle
 10
750.51878
 20
507.559226
 30
0.0
 40
2.3
  0
ARC
  5
4F2
100
AcDbEntity
  8
M03
100
AcDbCircle
 10
750.51878
 20
507.559226
 30
0.0
 40
3.0
100
AcDbArc
 50
173.076897
 51
102.215364
  0
LINE
  5
4F3
100
AcDbEntity
  8
M03
100
AcDbLine
 10
749.96878
 20
501.584488
 30
0.0
 11
749.96878
 21
513.533965
 31
0.0
  0
LINE
  5
4F4
100
AcDbEntity
  8
M03
100
AcDbLine
 10
751.06878
 20
501.584488
 30
0.0
 11
751.06878
 21
513.533965
 31
0.0
  0
CIRCLE
  5
4F5
100
AcDbEntity
  8
M03
100
AcDbCircle
 10
750.51878
 20
507.559226
 30
0.0
 40
7.858882
  0
CIRCLE
  5
4F6
100
AcDbEntity
  8
M03
100
AcDbCircle
 10
750.51878
 20
507.559226
 30
0.0
 40
6.0
  0
CIRCLE
  5
4F7
100
AcDbEntity
  8
M03
100
AcDbCircle
 10
600.51878
 20
507.559226
 30
0.0
 40
2.3
  0
ARC
  5
4F8
100
AcDbEntity
  8
M03
100
AcDbCircle
 10
600.51878
 20
507.559226
 30
0.0
 40
3.0
100
AcDbArc
 50
167.784636
 51
96.923103
  0
LINE
  5
4F9
100
AcDbEntity
  8
M03
100
AcDbLine
 10
601.06878
 20
501.584488
 30
0.0
 11
601.06878
 21
513.533965
 31
0.0
  0
LINE
  5
4FA
100
AcDbEntity
  8
M03
100
AcDbLine
 10
599.96878
 20
501.584488
 30
0.0
 11
599.96878
 21
513.533965
 31
0.0
  0
CIRCLE
  5
4FB
100
AcDbEntity
  8
M03
100
AcDbCircle
 10
600.51878
 20
507.559226
 30
0.0
 40
7.858882
  0
CIRCLE
  5
4FC
100
AcDbEntity
  8
M03
100
AcDbCircle
 10
600.51878
 20
507.559226
 30
0.0
 40
6.0
  0
LINE
  5
4FD
100
AcDbEntity
  8
CENTRE
100
AcDbLine
 10
586.376644
 20
521.701362
 30
0.0
 11
764.660915
 21
343.41709
 31
0.0
  0
LINE
  5
4FE
100
AcDbEntity
  8
CENTRE
100
AcDbLine
 10
586.376644
 20
343.41709
 30
0.0
 11
764.660915
 21
521.701362
 31
0.0
  0
LINE
  5
4FF
100
AcDbEntity
  8
M03
100
AcDbLine
 10
681.175634
 20
432.559226
 30
0.0
 11
753.347207
 21
360.387653
 31
0.0
  0
LINE
  5
500
100
AcDbEntity
  8
M03
100
AcDbLine
 10
675.51878
 20
438.21608
 30
0.0
 11
747.690352
 21
510.387653
 31
0.0
  0
LINE
  5
501
100
AcDbEntity
  8
M03
100
AcDbLine
 10
681.175634
 20
432.559226
 30
0.0
 11
753.347207
 21
504.730799
 31
0.0
  0
LINE
  5
502
100
AcDbEntity
  8
M03
100
AcDbLine
 10
675.51878
 20
426.902372
 30
0.0
 11
747.690352
 21
354.730799
 31
0.0
  0
LINE
  5
503
100
AcDbEntity
  8
M03
100
AcDbLine
 10
597.690352
 20
504.730799
 30
0.0
 11
669.861925
 21
432.559226
 31
0.0
  0
LINE
  5
504
100
AcDbEntity
  8
M03
100
AcDbLine
 10
603.347207
 20
510.387653
 30
0.0
 11
675.51878
 21
438.21608
 31
0.0
  0
LINE
  5
505
100
AcDbEntity
  8
M03
100
AcDbLine
 10
603.347207
 20
354.730799
 30
0.0
 11
675.51878
 21
426.902372
 31
0.0
  0
LINE
  5
506
100
AcDbEntity
  8
M03
100
AcDbLine
 10
597.690352
 20
360.387653
 30
0.0
 11
669.861925
 21
432.559226
 31
0.0
  0
CIRCLE
  5
507
100
AcDbEntity
  8
M01
100
AcDbCircle
 10
600.51878
 20
357.559226
 30
0.0
 40
4.0
  0
CIRCLE
  5
508
100
AcDbEntity
  8
M01
100
AcDbCircle
 10
750.51878
 20
357.559226
 30
0.0
 40
4.0
  0
CIRCLE
  5
509
100
AcDbEntity
  8
M01
100
AcDbCircle
 10
750.51878
 20
507.559226
 30
0.0
 40
4.0
  0
CIRCLE
  5
50A
100
AcDbEntity
  8
M01
100
AcDbCircle
 10
600.51878
 20
507.559226
 30
0.0
 40
4.0
  0
LINE
  5
50B
100
AcDbEntity
  8
M04
100
AcDbLine
 10
692.51878
 20
617.559226
 30
0.0
 11
692.51878
 21
638.230704
 31
0.0
  0
LINE
  5
50C
100
AcDbEntity
  8
M04
100
AcDbLine
 10
658.51878
 20
617.559226
 30
0.0
 11
658.51878
 21
638.230704
 31
0.0
  0
ARC
  5
50D
100
AcDbEntity
  8
M04
100
AcDbCircle
 10
692.51878
 20
602.559226
 30
0.0
 40
15.0
100
AcDbArc
 50
360.0
 51
90.0
  0
ARC
  5
50E
100
AcDbEntity
  8
M04
100
AcDbCircle
 10
658.51878
 20
602.559226
 30
0.0
 40
15.0
100
AcDbArc
 50
90.0
 51
180.0
  0
LINE
  5
50F
100
AcDbEntity
  8
M04
100
AcDbLine
 10
658.51878
 20
617.559226
 30
0.0
 11
692.51878
 21
617.559226
 31
0.0
  0
LINE
  5
510
100
AcDbEntity
  8
M04
100
AcDbLine
 10
643.51878
 20
602.559226
 30
0.0
 11
643.51878
 21
531.784623
 31
0.0
  0
LINE
  5
511
100
AcDbEntity
  8
M04
100
AcDbLine
 10
707.51878
 20
602.559226
 30
0.0
 11
707.51878
 21
531.784623
 31
0.0
  0
LINE
  5
512
100
AcDbEntity
  8
M01
100
AcDbLine
 10
695.51878
 20
557.559226
 30
0.0
 11
697.51878
 21
555.559226
 31
0.0
  0
LINE
  5
513
100
AcDbEntity
  8
M01
100
AcDbLine
 10
653.51878
 20
555.559226
 30
0.0
 11
655.51878
 21
557.559226
 31
0.0
  0
LINE
  5
514
100
AcDbEntity
  8
M01
100
AcDbLine
 10
655.51878
 20
557.559226
 30
0.0
 11
695.51878
 21
557.559226
 31
0.0
  0
LINE
  5
515
100
AcDbEntity
  8
M01
100
AcDbLine
 10
697.51878
 20
555.559226
 30
0.0
 11
697.51878
 21
528.784623
 31
0.0
  0
LINE
  5
516
100
AcDbEntity
  8
M01
100
AcDbLine
 10
653.51878
 20
555.559226
 30
0.0
 11
653.51878
 21
528.784623
 31
0.0
  0
LINE
  5
517
100
AcDbEntity
  8
CENTRE
100
AcDbLine
 10
675.51878
 20
652.003033
 30
0.0
 11
675.51878
 21
312.074032
 31
0.0
  0
HATCH
  5
518
100
AcDbEntity
  8
HATCH
100
AcDbHatch
 10
0.0
 20
0.0
 30
0.0
210
0.0
220
0.0
230
1.0
  2
_U
 70
     0
 71
     0
 91
       16
 92
        7
 72
     1
 73
     1
 93
        5
 10
525.5187795381628
 20
452.5592260810632
 42
0.0
 10
525.5187795381628
 20
453.0592260810632
 42
-0.1856631955229143
 10
521.8334407935956
 20
454.4765457926017
 42
0.3157147729334966
 10
503.6566976382155
 20
436.5592260810632
 42
0.0
 10
505.9228615958975
 20
436.5592260810632
 42
-0.3563939586925999
 97
        0
 92
       22
 72
     1
 73
     1
 93
        4
 10
525.5187795381628
 20
452.5592260810632
 42
0.3563939586925999
 10
505.9228615958975
 20
436.5592260810632
 42
0.0
 10
516.9019355683558
 20
436.5592260810632
 42
-0.2919418509678903
 10
525.5187795381628
 20
442.0592260810632
 42
0.0
 97
        0
 92
        6
 72
     1
 73
     1
 93
        3
 10
525.5187795381628
 20
442.0592260810632
 42
0.2919418509678903
 10
516.9019355683558
 20
436.5592260810632
 42
0.0
 10
525.5187795381628
 20
436.5592260810632
 42
0.0
 97
        0
 92
        7
 72
     1
 73
     1
 93
        4
 10
525.5187795381628
 20
436.5592260810632
 42
0.0
 10
516.9019355683558
 20
436.5592260810632
 42
0.1090809576248918
 10
516.0187795381627
 20
432.5592260810632
 42
0.0
 10
521.5187795381628
 20
432.5592260810632
 42
-0.4142135623730992
 97
        0
 92
       22
 72
     1
 73
     1
 93
        3
 10
525.5187795381628
 20
436.5592260810632
 42
0.4142135623730992
 10
521.5187795381628
 20
432.5592260810632
 42
0.0
 10
525.518779538163
 20
432.5592260810631
 42
0.0
 97
        0
 92
        7
 72
     1
 73
     1
 93
        4
 10
516.9019355683558
 20
436.5592260810632
 42
0.0
 10
505.9228615958975
 20
436.5592260810632
 42
0.0503820444848851
 10
505.5187795381628
 20
432.5592260810632
 42
0.0
 10
516.0187795381627
 20
432.5592260810632
 42
-0.1090809576248918
 97
        0
 92
        7
 72
     1
 73
     1
 93
        5
 10
505.9228615958975
 20
436.5592260810632
 42
0.0
 10
503.6566976382155
 20
436.5592260810632
 42
0.003593667114849
 10
503.6014598266245
 20
436.2445648256303
 42
-0.1856631955229133
 10
505.0187795381628
 20
432.5592260810632
 42
0.0
 10
505.5187795381628
 20
432.5592260810632
 42
-0.0503820444848851
 97
        0
 92
        7
 72
     1
 73
     1
 93
        3
 10
503.6014598266245
 20
436.2445648256303
 42
0.0416713391594355
 10
503.2937795381628
 20
432.5592260810632
 42
0.0
 10
505.0187795381628
 20
432.5592260810632
 42
0.1856631955229133
 97
        0
 92
       22
 72
     1
 73
     1
 93
        3
 10
529.5187795381628
 20
432.5592260810632
 42
0.0
 10
525.518779538163
 20
432.5592260810632
 42
0.0
 10
525.518779538163
 20
428.5592260810632
 42
0.4142135623730826
 97
        0
 92
        7
 72
     1
 73
     1
 93
        4
 10
535.0187795381628
 20
432.5592260810632
 42
0.0
 10
529.5187795381628
 20
432.5592260810632
 42
-0.4142135623730909
 10
525.5187795381628
 20
428.5592260810632
 42
0.0
 10
534.1356235079699
 20
428.5592260810632
 42
0.1090809576248888
 97
        0
 92
        6
 72
     1
 73
     1
 93
        3
 10
534.1356235079699
 20
428.5592260810632
 42
0.0
 10
525.5187795381628
 20
428.5592260810632
 42
0.0
 10
525.5187795381628
 20
423.0592260810632
 42
0.2919418509678903
 97
        0
 92
       22
 72
     1
 73
     1
 93
        4
 10
545.1146974804283
 20
428.5592260810632
 42
0.0
 10
534.1356235079699
 20
428.5592260810632
 42
-0.2919418509678903
 10
525.5187795381628
 20
423.0592260810632
 42
0.0
 10
525.5187795381628
 20
412.5592260810632
 42
0.3563939586925999
 97
        0
 92
        7
 72
     1
 73
     1
 93
        4
 10
545.5187795381627
 20
432.5592260810632
 42
0.0
 10
535.0187795381628
 20
432.5592260810632
 42
-0.1090809576248888
 10
534.1356235079699
 20
428.5592260810632
 42
0.0
 10
545.1146974804283
 20
428.5592260810632
 42
0.0503820444848837
 97
        0
 92
        7
 72
     1
 73
     1
 93
        5
 10
546.0187795381627
 20
432.5592260810632
 42
0.0
 10
545.5187795381627
 20
432.5592260810632
 42
-0.0503820444848837
 10
545.1146974804283
 20
428.5592260810632
 42
0.0
 10
547.38086143811
 20
428.5592260810632
 42
0.003593667114849
 10
547.4360992497013
 20
428.8738873364961
 42
-0.185663195522908
 97
        0
 92
        7
 72
     1
 73
     1
 93
        3
 10
547.7437795381629
 20
432.5592260810632
 42
0.0
 10
546.0187795381627
 20
432.5592260810632
 42
0.185663195522908
 10
547.4360992497013
 20
428.8738873364961
 42
0.0416713391594342
 97
        0
 92
        7
 72
     1
 73
     1
 93
        4
 10
547.38086143811
 20
428.5592260810632
 42
0.0
 10
545.1146974804283
 20
428.5592260810632
 42
-0.3563939586925999
 10
525.5187795381628
 20
412.5592260810632
 42
0.0
 10
525.5187795381628
 20
410.3342260810632
 42
0.3621506593782504
 97
        0
 75
     0
 76
     0
 52
45.0
 41
2.0
 77
     1
 78
     2
 53
45.0
 43
-29.928461
 44
0.0
 45
-1.414213562373094
 46
1.414213562373095
 79
     0
 53
135.0
 43
-29.928461
 44
0.0
 45
-1.414213562373095
 46
-1.414213562373094
 79
     0
 47
0.113412
 98
       16
 10
513.202625
 20
449.879146
 10
514.904501
 20
446.023152
 10
523.073505
 20
439.672104
 10
520.010128
 20
435.022228
 10
524.208089
 20
434.681993
 10
512.975708
 20
434.568582
 10
504.920162
 20
435.929521
 10
504.352871
 20
433.888112
 10
527.838758
 20
430.485764
 10
531.809801
 20
430.599175
 10
528.519508
 20
426.176123
 10
535.553928
 20
424.47495
 10
539.298055
 20
430.258941
 10
545.878642
 20
429.691883
 10
547.353601
 20
430.939411
 10
545.992101
 20
424.928596
  0
CIRCLE
  5
519
100
AcDbEntity
  8
M03
100
AcDbCircle
 10
525.51878
 20
432.559226
 30
0.0
 40
20.0
  0
CIRCLE
  5
51A
100
AcDbEntity
  8
M01
100
AcDbCircle
 10
525.51878
 20
432.559226
 30
0.0
 40
22.225
  0
CIRCLE
  5
51B
100
AcDbEntity
  8
M03
100
AcDbCircle
 10
525.51878
 20
432.559226
 30
0.0
 40
9.5
  0
LINE
  5
51C
102
{ACAD_REACTORS
330
1FA
102
}
100
AcDbEntity
  8
M02
100
AcDbLine
 10
868.059737
 20
339.559226
 30
0.0
 11
871.059737
 21
339.559226
 31
0.0
  0
DIMENSION
  5
51D
100
AcDbEntity
  8
DIMS
100
AcDbDimension
  2
*D1
 10
864.059737
 20
279.877479
 30
0.0
 11
853.41688
 21
282.877479
 31
0.0
 12
-33.584937
 22
0.0
 32
0.0
  1
7.0
  3
DIM1
100
AcDbAlignedDimension
 13
871.059737
 23
327.299226
 33
0.0
 14
864.059737
 24
313.126607
 34
0.0
100
AcDbRotatedDimension
1001
ACAD
1000
DSTYLE
1002
{
1070
   144
1040
1.0
1002
}
  0
DIMENSION
  5
52B
100
AcDbEntity
  8
DIMS
100
AcDbDimension
  2
*D2
 10
938.059737
 20
279.877479
 30
0.0
 11
948.702594
 21
282.877479
 31
0.0
 12
-33.584937
 22
0.0
 32
0.0
  1
7.0
  3
DIM1
100
AcDbAlignedDimension
 13
931.059737
 23
327.252807
 33
0.0
 14
938.059737
 24
301.613216
 34
0.0
100
AcDbRotatedDimension
1001
ACAD
1000
DSTYLE
1002
{
1070
   144
1040
1.0
1002
}
  0
DIMENSION
  5
539
100
AcDbEntity
  8
DIMS
100
AcDbDimension
  2
*D3
 10
931.059737
 20
279.877479
 30
0.0
 11
901.059737
 21
282.877479
 31
0.0
 12
-33.584937
 22
0.0
 32
0.0
  3
DIM1
100
AcDbAlignedDimension
 13
871.059737
 23
327.299226
 33
0.0
 14
931.059737
 24
327.252807
 34
0.0
100
AcDbRotatedDimension
1001
ACAD
1000
DSTYLE
1002
{
1070
   144
1040
1.0
1002
}
  0
LINE
  5
546
100
AcDbEntity
  8
DIMS
 62
     4
100
AcDbLine
 10
875.059737
 20
337.959226
 30
0.0
 11
875.059737
 21
340.259226
 31
0.0
  0
LINE
  5
547
100
AcDbEntity
  8
DIMS
 62
     4
100
AcDbLine
 10
875.059737
 20
331.159226
 30
0.0
 11
875.059737
 21
328.859226
 31
0.0
  0
LINE
  5
548
100
AcDbEntity
  8
DIMS
 62
     4
100
AcDbLine
 10
878.459737
 20
334.559226
 30
0.0
 11
880.759737
 21
334.559226
 31
0.0
  0
LINE
  5
549
100
AcDbEntity
  8
DIMS
 62
     4
100
AcDbLine
 10
871.659737
 20
334.559226
 30
0.0
 11
869.359737
 21
334.559226
 31
0.0
  0
LINE
  5
54A
100
AcDbEntity
  8
DIMS
 62
     4
100
AcDbLine
 10
875.059737
 20
332.859226
 30
0.0
 11
875.059737
 21
336.259226
 31
0.0
  0
LINE
  5
54B
100
AcDbEntity
  8
DIMS
 62
     4
100
AcDbLine
 10
873.359737
 20
334.559226
 30
0.0
 11
876.759737
 21
334.559226
 31
0.0
  0
LINE
  5
54C
100
AcDbEntity
  8
DIMS
 62
     4
100
AcDbLine
 10
927.059737
 20
337.959226
 30
0.0
 11
927.059737
 21
340.259226
 31
0.0
  0
LINE
  5
54D
100
AcDbEntity
  8
DIMS
 62
     4
100
AcDbLine
 10
927.059737
 20
331.159226
 30
0.0
 11
927.059737
 21
328.859226
 31
0.0
  0
LINE
  5
54E
100
AcDbEntity
  8
DIMS
 62
     4
100
AcDbLine
 10
930.459737
 20
334.559226
 30
0.0
 11
932.759737
 21
334.559226
 31
0.0
  0
LINE
  5
54F
100
AcDbEntity
  8
DIMS
 62
     4
100
AcDbLine
 10
923.659737
 20
334.559226
 30
0.0
 11
921.359737
 21
334.559226
 31
0.0
  0
LINE
  5
550
100
AcDbEntity
  8
DIMS
 62
     4
100
AcDbLine
 10
927.059737
 20
332.859226
 30
0.0
 11
927.059737
 21
336.259226
 31
0.0
  0
LINE
  5
551
100
AcDbEntity
  8
DIMS
 62
     4
100
AcDbLine
 10
925.359737
 20
334.559226
 30
0.0
 11
928.759737
 21
334.559226
 31
0.0
  0
LINE
  5
552
102
{ACAD_REACTORS
330
58
102
}
100
AcDbEntity
  8
M05
100
AcDbLine
 10
937.059737
 20
348.059226
 30
0.0
 11
938.059737
 21
347.059226
 31
0.0
  0
LINE
  5
553
102
{ACAD_REACTORS
330
58
102
}
100
AcDbEntity
  8
M05
100
AcDbLine
 10
937.059737
 20
350.059226
 30
0.0
 11
938.059737
 21
351.059226
 31
0.0
  0
LINE
  5
554
102
{ACAD_REACTORS
330
58
102
}
100
AcDbEntity
  8
M05
100
AcDbLine
 10
937.059737
 20
348.059226
 30
0.0
 11
937.059737
 21
350.059226
 31
0.0
  0
LINE
  5
555
102
{ACAD_REACTORS
330
58
102
}
100
AcDbEntity
  8
M05
100
AcDbLine
 10
937.059737
 20
367.059226
 30
0.0
 11
938.059737
 21
368.059226
 31
0.0
  0
LINE
  5
556
102
{ACAD_REACTORS
330
58
102
}
100
AcDbEntity
  8
M05
100
AcDbLine
 10
937.059737
 20
365.059226
 30
0.0
 11
938.059737
 21
364.059226
 31
0.0
  0
LINE
  5
557
102
{ACAD_REACTORS
330
58
102
}
100
AcDbEntity
  8
M05
100
AcDbLine
 10
937.059737
 20
367.059226
 30
0.0
 11
937.059737
 21
365.059226
 31
0.0
  0
LINE
  5
558
102
{ACAD_REACTORS
330
57
102
}
100
AcDbEntity
  8
M01
100
AcDbLine
 10
927.059737
 20
330.559226
 30
0.0
 11
931.059737
 21
330.559226
 31
0.0
  0
LINE
  5
559
102
{ACAD_REACTORS
330
57
102
}
100
AcDbEntity
  8
M01
100
AcDbLine
 10
927.059737
 20
338.559226
 30
0.0
 11
931.059737
 21
338.559226
 31
0.0
  0
LINE
  5
55A
102
{ACAD_REACTORS
330
57
102
}
100
AcDbEntity
  8
M01
100
AcDbLine
 10
875.059737
 20
330.559226
 30
0.0
 11
871.059737
 21
330.559226
 31
0.0
  0
LINE
  5
55B
102
{ACAD_REACTORS
330
57
102
}
100
AcDbEntity
  8
M01
100
AcDbLine
 10
875.059737
 20
338.559226
 30
0.0
 11
871.059737
 21
338.559226
 31
0.0
  0
CIRCLE
  5
55C
102
{ACAD_REACTORS
330
289
330
57
102
}
100
AcDbEntity
  8
M01
100
AcDbCircle
 10
927.059737
 20
334.559226
 30
0.0
 40
4.0
  0
CIRCLE
  5
55D
102
{ACAD_REACTORS
330
57
102
}
100
AcDbEntity
  8
M01
100
AcDbCircle
 10
875.059737
 20
334.559226
 30
0.0
 40
4.0
  0
LINE
  5
55E
102
{ACAD_REACTORS
330
57
102
}
100
AcDbEntity
  8
M01
100
AcDbLine
 10
886.559737
 20
353.559226
 30
0.0
 11
871.059737
 21
353.559226
 31
0.0
  0
LINE
  5
55F
102
{ACAD_REACTORS
330
57
102
}
100
AcDbEntity
  8
M01
100
AcDbLine
 10
882.559737
 20
361.559226
 30
0.0
 11
871.059737
 21
361.559226
 31
0.0
  0
SOLID
  5
560
100
AcDbEntity
  8
0
  6
BYBLOCK
 62
     4
100
AcDbTrace
 10
410.83545
 20
313.731717
 30
0.0
 11
411.749052
 21
313.325109
 31
0.0
 12
412.512077
 22
316.26922
 32
0.0
 13
412.512077
 23
316.26922
 33
0.0
  0
LINE
  5
561
100
AcDbEntity
  8
0
  6
BYBLOCK
 62
     4
100
AcDbLine
 10
411.292251
 20
313.528413
 30
0.0
 11
402.83534
 21
294.032508
 31
0.0
  0
MTEXT
  5
562
100
AcDbEntity
  8
0
  6
BYBLOCK
 62
     2
100
AcDbMText
 10
297.053906
 20
287.805353
 30
-0.222949
 40
3.0
 41
0.0
 71
     4
 72
     1
  1
M12 PLATE RETAINING SCREWS SHOULD ALSO BE FITTED.\PMINIMUM 2 PER DROP & ALSO AROUND MANIFOLD POCKET.
  0
MTEXT
  5
563
102
{ACAD_REACTORS
330
564
102
}
100
AcDbEntity
  8
DIMS
 62
     2
100
AcDbMText
 10
252.085555
 20
476.347892
 30
-0.222949
 40
3.0
 41
0.0
 71
     9
 72
     5
  1
HGX10037 (x2)
  0
LEADER
  5
564
100
AcDbEntity
  8
DIMS
 62
     4
100
AcDbLeader
  3
DIM1$7
 73
     0
 75
     1
 40
4.571429
 41
33.714286
 76
     3
 10
269.156006
 20
498.201029
 30
-0.222949
 10
256.585555
 20
477.847892
 30
-0.222949
 10
253.585555
 20
477.847892
 30
-0.222949
 77
   256
340
563
213
0.0
223
1.5
233
0.0
1001
ACAD
1000
DSTYLE
1002
{
1070
   288
1070
     1
1070
   144
1040
1.0
1002
}
  0
LINE
  5
566
100
AcDbEntity
  8
M01
100
AcDbLine
 10
390.76878
 20
579.503326
 30
0.0
 11
384.26878
 21
579.503326
 31
0.0
  0
LINE
  5
567
100
AcDbEntity
  8
M01
100
AcDbLine
 10
390.76878
 20
587.615126
 30
0.0
 11
384.26878
 21
587.615126
 31
0.0
  0
LINE
  5
568
100
AcDbEntity
  8
M01
100
AcDbLine
 10
390.76878
 20
579.503326
 30
0.0
 11
390.76878
 21
577.559226
 31
0.0
  0
ARC
  5
569
100
AcDbEntity
  8
M01
100
AcDbCircle
 10
392.01878
 20
581.064576
 30
0.0
 40
2.0
100
AcDbArc
 50
180.0
 51
231.317813
  0
ARC
  5
56A
100
AcDbEntity
  8
M01
100
AcDbCircle
 10
392.01878
 20
586.053876
 30
0.0
 40
2.0
100
AcDbArc
 50
128.682187
 51
180.0
  0
LINE
  5
56B
100
AcDbEntity
  8
M01
100
AcDbLine
 10
390.76878
 20
589.559226
 30
0.0
 11
390.76878
 21
587.615126
 31
0.0
  0
LINE
  5
56C
100
AcDbEntity
  8
M01
100
AcDbLine
 10
390.01878
 20
586.053876
 30
0.0
 11
390.01878
 21
581.064576
 31
0.0
  0
LINE
  5
56D
100
AcDbEntity
  8
M01
100
AcDbLine
 10
384.26878
 20
579.503326
 30
0.0
 11
384.26878
 21
577.559226
 31
0.0
  0
ARC
  5
56E
100
AcDbEntity
  8
M01
100
AcDbCircle
 10
383.01878
 20
581.064576
 30
0.0
 40
2.0
100
AcDbArc
 50
308.682187
 51
0.0
  0
ARC
  5
56F
100
AcDbEntity
  8
M01
100
AcDbCircle
 10
383.01878
 20
586.053876
 30
0.0
 40
2.0
100
AcDbArc
 50
0.0
 51
51.317813
  0
LINE
  5
570
100
AcDbEntity
  8
M01
100
AcDbLine
 10
384.26878
 20
589.559226
 30
0.0
 11
384.26878
 21
587.615126
 31
0.0
  0
LINE
  5
571
100
AcDbEntity
  8
M01
100
AcDbLine
 10
385.01878
 20
586.053876
 30
0.0
 11
385.01878
 21
581.064576
 31
0.0
  0
LINE
  5
572
100
AcDbEntity
  8
M01
100
AcDbLine
 10
383.01878
 20
589.559226
 30
0.0
 11
392.01878
 21
589.559226
 31
0.0
  0
LINE
  5
573
100
AcDbEntity
  8
M01
100
AcDbLine
 10
392.01878
 20
590.359226
 30
0.0
 11
392.01878
 21
589.559226
 31
0.0
  0
LINE
  5
574
100
AcDbEntity
  8
M01
100
AcDbLine
 10
383.01878
 20
590.359226
 30
0.0
 11
383.01878
 21
589.559226
 31
0.0
  0
LINE
  5
575
100
AcDbEntity
  8
M01
100
AcDbLine
 10
360.26878
 20
579.503326
 30
0.0
 11
366.76878
 21
579.503326
 31
0.0
  0
LINE
  5
576
100
AcDbEntity
  8
M01
100
AcDbLine
 10
360.26878
 20
587.615126
 30
0.0
 11
366.76878
 21
587.615126
 31
0.0
  0
LINE
  5
577
100
AcDbEntity
  8
M01
100
AcDbLine
 10
360.26878
 20
579.503326
 30
0.0
 11
360.26878
 21
577.559226
 31
0.0
  0
ARC
  5
578
100
AcDbEntity
  8
M01
100
AcDbCircle
 10
359.01878
 20
581.064576
 30
0.0
 40
2.0
100
AcDbArc
 50
308.682187
 51
0.0
  0
ARC
  5
579
100
AcDbEntity
  8
M01
100
AcDbCircle
 10
359.01878
 20
586.053876
 30
0.0
 40
2.0
100
AcDbArc
 50
0.0
 51
51.317813
  0
LINE
  5
57A
100
AcDbEntity
  8
M01
100
AcDbLine
 10
360.26878
 20
589.559226
 30
0.0
 11
360.26878
 21
587.615126
 31
0.0
  0
LINE
  5
57B
100
AcDbEntity
  8
M01
100
AcDbLine
 10
361.01878
 20
586.053876
 30
0.0
 11
361.01878
 21
581.064576
 31
0.0
  0
LINE
  5
57C
100
AcDbEntity
  8
M01
100
AcDbLine
 10
366.76878
 20
579.503326
 30
0.0
 11
366.76878
 21
577.559226
 31
0.0
  0
ARC
  5
57D
100
AcDbEntity
  8
M01
100
AcDbCircle
 10
368.01878
 20
581.064576
 30
0.0
 40
2.0
100
AcDbArc
 50
180.0
 51
231.317813
  0
ARC
  5
57E
100
AcDbEntity
  8
M01
100
AcDbCircle
 10
368.01878
 20
586.053876
 30
0.0
 40
2.0
100
AcDbArc
 50
128.682187
 51
180.0
  0
LINE
  5
57F
100
AcDbEntity
  8
M01
100
AcDbLine
 10
366.76878
 20
589.559226
 30
0.0
 11
366.76878
 21
587.615126
 31
0.0
  0
LINE
  5
580
100
AcDbEntity
  8
M01
100
AcDbLine
 10
366.01878
 20
586.053876
 30
0.0
 11
366.01878
 21
581.064576
 31
0.0
  0
LINE
  5
581
100
AcDbEntity
  8
M01
100
AcDbLine
 10
392.51878
 20
572.559226
 30
0.0
 11
382.51878
 21
572.559226
 31
0.0
  0
LINE
  5
582
100
AcDbEntity
  8
M01
100
AcDbLine
 10
358.51878
 20
572.559226
 30
0.0
 11
368.51878
 21
572.559226
 31
0.0
  0
LINE
  5
583
100
AcDbEntity
  8
M01
100
AcDbLine
 10
358.51878
 20
577.559226
 30
0.0
 11
358.51878
 21
557.559226
 31
0.0
  0
LINE
  5
584
100
AcDbEntity
  8
M01
100
AcDbLine
 10
368.51878
 20
577.559226
 30
0.0
 11
368.51878
 21
557.559226
 31
0.0
  0
LINE
  5
585
100
AcDbEntity
  8
M01
100
AcDbLine
 10
382.51878
 20
577.559226
 30
0.0
 11
382.51878
 21
557.559226
 31
0.0
  0
LINE
  5
586
100
AcDbEntity
  8
M01
100
AcDbLine
 10
392.51878
 20
577.559226
 30
0.0
 11
392.51878
 21
557.559226
 31
0.0
  0
LINE
  5
587
100
AcDbEntity
  8
M01
100
AcDbLine
 10
390.549868
 20
599.459226
 30
0.0
 11
384.487691
 21
599.459226
 31
0.0
  0
ARC
  5
588
100
AcDbEntity
  8
M01
100
AcDbCircle
 10
384.487691
 20
597.609921
 30
0.0
 40
1.150694
100
AcDbArc
 50
208.592423
 51
331.407577
  0
ARC
  5
589
100
AcDbEntity
  8
M01
100
AcDbCircle
 10
387.51878
 20
600.162004
 30
0.0
 40
3.702778
100
AcDbArc
 50
236.92527
 51
303.07473
  0
ARC
  5
58A
100
AcDbEntity
  8
M01
100
AcDbCircle
 10
390.549868
 20
597.609921
 30
0.0
 40
1.150694
100
AcDbArc
 50
208.592423
 51
331.407577
  0
ARC
  5
58B
100
AcDbEntity
  8
M01
100
AcDbCircle
 10
384.487691
 20
598.308532
 30
0.0
 40
1.150694
100
AcDbArc
 50
28.592423
 51
151.407577
  0
ARC
  5
58C
100
AcDbEntity
  8
M01
100
AcDbCircle
 10
387.51878
 20
595.756448
 30
0.0
 40
3.702778
100
AcDbArc
 50
56.92527
 51
123.07473
  0
LINE
  5
58D
100
AcDbEntity
  8
M01
100
AcDbLine
 10
385.498054
 20
598.859226
 30
0.0
 11
385.498054
 21
597.059226
 31
0.0
  0
LINE
  5
58E
100
AcDbEntity
  8
M01
100
AcDbLine
 10
383.477328
 20
598.859226
 30
0.0
 11
383.477328
 21
597.059226
 31
0.0
  0
ARC
  5
58F
100
AcDbEntity
  8
M01
100
AcDbCircle
 10
390.549868
 20
598.308532
 30
0.0
 40
1.150694
100
AcDbArc
 50
28.592423
 51
151.407577
  0
LINE
  5
590
100
AcDbEntity
  8
M01
100
AcDbLine
 10
389.539505
 20
598.859226
 30
0.0
 11
389.539505
 21
597.059226
 31
0.0
  0
LINE
  5
591
100
AcDbEntity
  8
M01
100
AcDbLine
 10
391.560231
 20
598.859226
 30
0.0
 11
391.560231
 21
597.059226
 31
0.0
  0
LINE
  5
592
100
AcDbEntity
  8
M01
100
AcDbLine
 10
382.51878
 20
594.159226
 30
0.0
 11
382.51878
 21
595.659226
 31
0.0
  0
LINE
  5
593
100
AcDbEntity
  8
M01
100
AcDbLine
 10
392.51878
 20
594.159226
 30
0.0
 11
392.51878
 21
595.659226
 31
0.0
  0
LINE
  5
594
100
AcDbEntity
  8
M01
100
AcDbLine
 10
383.01878
 20
595.659226
 30
0.0
 11
383.01878
 21
596.459226
 31
0.0
  0
LINE
  5
595
100
AcDbEntity
  8
M01
100
AcDbLine
 10
392.01878
 20
595.659226
 30
0.0
 11
392.01878
 21
596.459226
 31
0.0
  0
LINE
  5
596
100
AcDbEntity
  8
M01
100
AcDbLine
 10
392.01878
 20
596.459226
 30
0.0
 11
383.01878
 21
596.459226
 31
0.0
  0
LINE
  5
597
100
AcDbEntity
  8
M01
100
AcDbLine
 10
392.51878
 20
595.659226
 30
0.0
 11
382.51878
 21
595.659226
 31
0.0
  0
LINE
  5
598
100
AcDbEntity
  8
M01
100
AcDbLine
 10
383.01878
 20
593.359226
 30
0.0
 11
383.01878
 21
594.159226
 31
0.0
  0
LINE
  5
599
100
AcDbEntity
  8
M01
100
AcDbLine
 10
392.01878
 20
593.359226
 30
0.0
 11
392.01878
 21
594.159226
 31
0.0
  0
LINE
  5
59A
100
AcDbEntity
  8
M01
100
AcDbLine
 10
392.51878
 20
594.159226
 30
0.0
 11
382.51878
 21
594.159226
 31
0.0
  0
ARC
  5
59B
100
AcDbEntity
  8
M01
100
AcDbCircle
 10
384.487691
 20
591.509921
 30
0.0
 40
1.150694
100
AcDbArc
 50
208.592423
 51
331.407577
  0
ARC
  5
59C
100
AcDbEntity
  8
M01
100
AcDbCircle
 10
387.51878
 20
594.062004
 30
0.0
 40
3.702778
100
AcDbArc
 50
236.92527
 51
303.07473
  0
ARC
  5
59D
100
AcDbEntity
  8
M01
100
AcDbCircle
 10
390.549868
 20
591.509921
 30
0.0
 40
1.150694
100
AcDbArc
 50
208.592423
 51
331.407577
  0
ARC
  5
59E
100
AcDbEntity
  8
M01
100
AcDbCircle
 10
384.487691
 20
592.208532
 30
0.0
 40
1.150694
100
AcDbArc
 50
28.592423
 51
151.407577
  0
ARC
  5
59F
100
AcDbEntity
  8
M01
100
AcDbCircle
 10
387.51878
 20
589.656448
 30
0.0
 40
3.702778
100
AcDbArc
 50
56.92527
 51
123.07473
  0
LINE
  5
5A0
100
AcDbEntity
  8
M01
100
AcDbLine
 10
385.498054
 20
592.759226
 30
0.0
 11
385.498054
 21
590.959226
 31
0.0
  0
LINE
  5
5A1
100
AcDbEntity
  8
M01
100
AcDbLine
 10
383.477328
 20
592.759226
 30
0.0
 11
383.477328
 21
590.959226
 31
0.0
  0
ARC
  5
5A2
100
AcDbEntity
  8
M01
100
AcDbCircle
 10
390.549868
 20
592.208532
 30
0.0
 40
1.150694
100
AcDbArc
 50
28.592423
 51
151.407577
  0
LINE
  5
5A3
100
AcDbEntity
  8
M01
100
AcDbLine
 10
389.539505
 20
592.759226
 30
0.0
 11
389.539505
 21
590.959226
 31
0.0
  0
LINE
  5
5A4
100
AcDbEntity
  8
M01
100
AcDbLine
 10
391.560231
 20
592.759226
 30
0.0
 11
391.560231
 21
590.959226
 31
0.0
  0
LINE
  5
5A5
100
AcDbEntity
  8
M01
100
AcDbLine
 10
392.01878
 20
593.359226
 30
0.0
 11
383.01878
 21
593.359226
 31
0.0
  0
LINE
  5
5A6
100
AcDbEntity
  8
M01
100
AcDbLine
 10
392.01878
 20
590.359226
 30
0.0
 11
383.01878
 21
590.359226
 31
0.0
  0
LINE
  5
5A7
100
AcDbEntity
  8
M01
100
AcDbLine
 10
386.01878
 20
602.559226
 30
0.0
 11
385.51878
 21
602.059226
 31
0.0
  0
LINE
  5
5A8
100
AcDbEntity
  8
M01
100
AcDbLine
 10
389.51878
 20
602.059226
 30
0.0
 11
389.01878
 21
602.559226
 31
0.0
  0
LINE
  5
5A9
100
AcDbEntity
  8
M01
100
AcDbLine
 10
389.51878
 20
602.059226
 30
0.0
 11
385.51878
 21
602.059226
 31
0.0
  0
LINE
  5
5AA
100
AcDbEntity
  8
M01
100
AcDbLine
 10
386.01878
 20
602.559226
 30
0.0
 11
386.01878
 21
599.459226
 31
0.0
  0
LINE
  5
5AB
100
AcDbEntity
  8
M01
100
AcDbLine
 10
389.01878
 20
602.559226
 30
0.0
 11
389.01878
 21
599.459226
 31
0.0
  0
LINE
  5
5AC
100
AcDbEntity
  8
M01
100
AcDbLine
 10
389.51878
 20
602.059226
 30
0.0
 11
389.51878
 21
599.459226
 31
0.0
  0
LINE
  5
5AD
100
AcDbEntity
  8
M01
100
AcDbLine
 10
385.51878
 20
602.059226
 30
0.0
 11
385.51878
 21
599.459226
 31
0.0
  0
LINE
  5
5AE
100
AcDbEntity
  8
M01
100
AcDbLine
 10
389.01878
 20
602.559226
 30
0.0
 11
386.01878
 21
602.559226
 31
0.0
  0
LINE
  5
5AF
100
AcDbEntity
  8
M01
100
AcDbLine
 10
392.51878
 20
577.559226
 30
0.0
 11
382.51878
 21
577.559226
 31
0.0
  0
LINE
  5
5B0
100
AcDbEntity
  8
CENTRE
100
AcDbLine
 10
387.51878
 20
608.720115
 30
0.0
 11
387.51878
 21
545.126684
 31
0.0
  0
LINE
  5
5B1
100
AcDbEntity
  8
M01
100
AcDbLine
 10
360.487691
 20
599.459226
 30
0.0
 11
366.549868
 21
599.459226
 31
0.0
  0
ARC
  5
5B2
100
AcDbEntity
  8
M01
100
AcDbCircle
 10
366.549868
 20
597.609921
 30
0.0
 40
1.150694
100
AcDbArc
 50
208.592423
 51
331.407577
  0
ARC
  5
5B3
100
AcDbEntity
  8
M01
100
AcDbCircle
 10
363.51878
 20
600.162004
 30
0.0
 40
3.702778
100
AcDbArc
 50
236.92527
 51
303.07473
  0
ARC
  5
5B4
100
AcDbEntity
  8
M01
100
AcDbCircle
 10
360.487691
 20
597.609921
 30
0.0
 40
1.150694
100
AcDbArc
 50
208.592423
 51
331.407577
  0
ARC
  5
5B5
100
AcDbEntity
  8
M01
100
AcDbCircle
 10
366.549868
 20
598.308532
 30
0.0
 40
1.150694
100
AcDbArc
 50
28.592423
 51
151.407577
  0
ARC
  5
5B6
100
AcDbEntity
  8
M01
100
AcDbCircle
 10
363.51878
 20
595.756448
 30
0.0
 40
3.702778
100
AcDbArc
 50
56.92527
 51
123.07473
  0
LINE
  5
5B7
100
AcDbEntity
  8
M01
100
AcDbLine
 10
365.539505
 20
598.859226
 30
0.0
 11
365.539505
 21
597.059226
 31
0.0
  0
LINE
  5
5B8
100
AcDbEntity
  8
M01
100
AcDbLine
 10
367.560231
 20
598.859226
 30
0.0
 11
367.560231
 21
597.059226
 31
0.0
  0
ARC
  5
5B9
100
AcDbEntity
  8
M01
100
AcDbCircle
 10
360.487691
 20
598.308532
 30
0.0
 40
1.150694
100
AcDbArc
 50
28.592423
 51
151.407577
  0
LINE
  5
5BA
100
AcDbEntity
  8
M01
100
AcDbLine
 10
361.498054
 20
598.859226
 30
0.0
 11
361.498054
 21
597.059226
 31
0.0
  0
LINE
  5
5BB
100
AcDbEntity
  8
M01
100
AcDbLine
 10
359.477328
 20
598.859226
 30
0.0
 11
359.477328
 21
597.059226
 31
0.0
  0
LINE
  5
5BC
100
AcDbEntity
  8
M01
100
AcDbLine
 10
368.51878
 20
594.159226
 30
0.0
 11
368.51878
 21
595.659226
 31
0.0
  0
LINE
  5
5BD
100
AcDbEntity
  8
M01
100
AcDbLine
 10
358.51878
 20
594.159226
 30
0.0
 11
358.51878
 21
595.659226
 31
0.0
  0
LINE
  5
5BE
100
AcDbEntity
  8
M01
100
AcDbLine
 10
368.01878
 20
595.659226
 30
0.0
 11
368.01878
 21
596.459226
 31
0.0
  0
LINE
  5
5BF
100
AcDbEntity
  8
M01
100
AcDbLine
 10
359.01878
 20
595.659226
 30
0.0
 11
359.01878
 21
596.459226
 31
0.0
  0
LINE
  5
5C0
100
AcDbEntity
  8
M01
100
AcDbLine
 10
359.01878
 20
596.459226
 30
0.0
 11
368.01878
 21
596.459226
 31
0.0
  0
LINE
  5
5C1
100
AcDbEntity
  8
M01
100
AcDbLine
 10
358.51878
 20
595.659226
 30
0.0
 11
368.51878
 21
595.659226
 31
0.0
  0
LINE
  5
5C2
100
AcDbEntity
  8
M01
100
AcDbLine
 10
368.01878
 20
593.359226
 30
0.0
 11
368.01878
 21
594.159226
 31
0.0
  0
LINE
  5
5C3
100
AcDbEntity
  8
M01
100
AcDbLine
 10
359.01878
 20
593.359226
 30
0.0
 11
359.01878
 21
594.159226
 31
0.0
  0
LINE
  5
5C4
100
AcDbEntity
  8
M01
100
AcDbLine
 10
358.51878
 20
594.159226
 30
0.0
 11
368.51878
 21
594.159226
 31
0.0
  0
ARC
  5
5C5
100
AcDbEntity
  8
M01
100
AcDbCircle
 10
366.549868
 20
591.509921
 30
0.0
 40
1.150694
100
AcDbArc
 50
208.592423
 51
331.407577
  0
ARC
  5
5C6
100
AcDbEntity
  8
M01
100
AcDbCircle
 10
363.51878
 20
594.062004
 30
0.0
 40
3.702778
100
AcDbArc
 50
236.92527
 51
303.07473
  0
ARC
  5
5C7
100
AcDbEntity
  8
M01
100
AcDbCircle
 10
360.487691
 20
591.509921
 30
0.0
 40
1.150694
100
AcDbArc
 50
208.592423
 51
331.407577
  0
ARC
  5
5C8
100
AcDbEntity
  8
M01
100
AcDbCircle
 10
366.549868
 20
592.208532
 30
0.0
 40
1.150694
100
AcDbArc
 50
28.592423
 51
151.407577
  0
ARC
  5
5C9
100
AcDbEntity
  8
M01
100
AcDbCircle
 10
363.51878
 20
589.656448
 30
0.0
 40
3.702778
100
AcDbArc
 50
56.92527
 51
123.07473
  0
LINE
  5
5CA
100
AcDbEntity
  8
M01
100
AcDbLine
 10
365.539505
 20
592.759226
 30
0.0
 11
365.539505
 21
590.959226
 31
0.0
  0
LINE
  5
5CB
100
AcDbEntity
  8
M01
100
AcDbLine
 10
367.560231
 20
592.759226
 30
0.0
 11
367.560231
 21
590.959226
 31
0.0
  0
ARC
  5
5CC
100
AcDbEntity
  8
M01
100
AcDbCircle
 10
360.487691
 20
592.208532
 30
0.0
 40
1.150694
100
AcDbArc
 50
28.592423
 51
151.407577
  0
LINE
  5
5CD
100
AcDbEntity
  8
M01
100
AcDbLine
 10
361.498054
 20
592.759226
 30
0.0
 11
361.498054
 21
590.959226
 31
0.0
  0
LINE
  5
5CE
100
AcDbEntity
  8
M01
100
AcDbLine
 10
359.477328
 20
592.759226
 30
0.0
 11
359.477328
 21
590.959226
 31
0.0
  0
LINE
  5
5CF
100
AcDbEntity
  8
M01
100
AcDbLine
 10
359.01878
 20
593.359226
 30
0.0
 11
368.01878
 21
593.359226
 31
0.0
  0
LINE
  5
5D0
100
AcDbEntity
  8
M01
100
AcDbLine
 10
359.01878
 20
590.359226
 30
0.0
 11
368.01878
 21
590.359226
 31
0.0
  0
LINE
  5
5D1
100
AcDbEntity
  8
M01
100
AcDbLine
 10
359.01878
 20
589.559226
 30
0.0
 11
368.01878
 21
589.559226
 31
0.0
  0
LINE
  5
5D2
100
AcDbEntity
  8
M01
100
AcDbLine
 10
365.01878
 20
602.559226
 30
0.0
 11
365.51878
 21
602.059226
 31
0.0
  0
LINE
  5
5D3
100
AcDbEntity
  8
M01
100
AcDbLine
 10
361.51878
 20
602.059226
 30
0.0
 11
362.01878
 21
602.559226
 31
0.0
  0
LINE
  5
5D4
100
AcDbEntity
  8
M01
100
AcDbLine
 10
361.51878
 20
602.059226
 30
0.0
 11
365.51878
 21
602.059226
 31
0.0
  0
LINE
  5
5D5
100
AcDbEntity
  8
M01
100
AcDbLine
 10
365.01878
 20
602.559226
 30
0.0
 11
365.01878
 21
599.459226
 31
0.0
  0
LINE
  5
5D6
100
AcDbEntity
  8
M01
100
AcDbLine
 10
362.01878
 20
602.559226
 30
0.0
 11
362.01878
 21
599.459226
 31
0.0
  0
LINE
  5
5D7
100
AcDbEntity
  8
M01
100
AcDbLine
 10
361.51878
 20
602.059226
 30
0.0
 11
361.51878
 21
599.459226
 31
0.0
  0
LINE
  5
5D8
100
AcDbEntity
  8
M01
100
AcDbLine
 10
365.51878
 20
602.059226
 30
0.0
 11
365.51878
 21
599.459226
 31
0.0
  0
LINE
  5
5D9
100
AcDbEntity
  8
M01
100
AcDbLine
 10
362.01878
 20
602.559226
 30
0.0
 11
365.01878
 21
602.559226
 31
0.0
  0
LINE
  5
5DA
100
AcDbEntity
  8
M01
100
AcDbLine
 10
358.51878
 20
577.559226
 30
0.0
 11
368.51878
 21
577.559226
 31
0.0
  0
LINE
  5
5DB
100
AcDbEntity
  8
M01
100
AcDbLine
 10
368.01878
 20
590.359226
 30
0.0
 11
368.01878
 21
589.559226
 31
0.0
  0
LINE
  5
5DC
100
AcDbEntity
  8
M01
100
AcDbLine
 10
359.01878
 20
590.359226
 30
0.0
 11
359.01878
 21
589.559226
 31
0.0
  0
LINE
  5
5DD
100
AcDbEntity
  8
CENTRE
100
AcDbLine
 10
363.51878
 20
608.720115
 30
0.0
 11
363.51878
 21
545.126684
 31
0.0
  0
LINE
  5
5DE
100
AcDbEntity
  8
DIMS
 62
     4
100
AcDbLine
 10
528.91878
 20
406.559226
 30
0.0
 11
532.71878
 21
406.559226
 31
0.0
  0
LINE
  5
5DF
100
AcDbEntity
  8
DIMS
 62
     4
100
AcDbLine
 10
522.11878
 20
406.559226
 30
0.0
 11
518.31878
 21
406.559226
 31
0.0
  0
LINE
  5
5E0
100
AcDbEntity
  8
DIMS
 62
     4
100
AcDbLine
 10
523.81878
 20
406.559226
 30
0.0
 11
527.21878
 21
406.559226
 31
0.0
  0
CIRCLE
  5
5E1
100
AcDbEntity
  8
M03
100
AcDbCircle
 10
525.51878
 20
406.559226
 30
0.0
 40
2.3
  0
ARC
  5
5E2
100
AcDbEntity
  8
M03
100
AcDbCircle
 10
525.51878
 20
406.559226
 30
0.0
 40
3.0
100
AcDbArc
 50
167.784636
 51
96.923103
  0
CIRCLE
  5
5E3
100
AcDbEntity
  8
M03
100
AcDbCircle
 10
525.51878
 20
406.559226
 30
0.0
 40
5.5
  0
LINE
  5
5E4
100
AcDbEntity
  8
DIMS
 62
     4
100
AcDbLine
 10
499.51878
 20
435.959226
 30
0.0
 11
499.51878
 21
439.759226
 31
0.0
  0
LINE
  5
5E5
100
AcDbEntity
  8
DIMS
 62
     4
100
AcDbLine
 10
499.51878
 20
429.159226
 30
0.0
 11
499.51878
 21
425.359226
 31
0.0
  0
LINE
  5
5E6
100
AcDbEntity
  8
DIMS
 62
     4
100
AcDbLine
 10
499.51878
 20
430.859226
 30
0.0
 11
499.51878
 21
434.259226
 31
0.0
  0
LINE
  5
5E7
100
AcDbEntity
  8
DIMS
 62
     4
100
AcDbLine
 10
551.51878
 20
435.959226
 30
0.0
 11
551.51878
 21
439.759226
 31
0.0
  0
LINE
  5
5E8
100
AcDbEntity
  8
DIMS
 62
     4
100
AcDbLine
 10
551.51878
 20
429.159226
 30
0.0
 11
551.51878
 21
425.359226
 31
0.0
  0
LINE
  5
5E9
100
AcDbEntity
  8
DIMS
 62
     4
100
AcDbLine
 10
551.51878
 20
430.859226
 30
0.0
 11
551.51878
 21
434.259226
 31
0.0
  0
LINE
  5
5EA
100
AcDbEntity
  8
DIMS
 62
     4
100
AcDbLine
 10
528.91878
 20
458.559226
 30
0.0
 11
532.71878
 21
458.559226
 31
0.0
  0
LINE
  5
5EB
100
AcDbEntity
  8
DIMS
 62
     4
100
AcDbLine
 10
522.11878
 20
458.559226
 30
0.0
 11
518.31878
 21
458.559226
 31
0.0
  0
LINE
  5
5EC
100
AcDbEntity
  8
DIMS
 62
     4
100
AcDbLine
 10
523.81878
 20
458.559226
 30
0.0
 11
527.21878
 21
458.559226
 31
0.0
  0
CIRCLE
  5
5ED
100
AcDbEntity
  8
M03
100
AcDbCircle
 10
551.51878
 20
432.559226
 30
0.0
 40
2.3
  0
ARC
  5
5EE
100
AcDbEntity
  8
M03
100
AcDbCircle
 10
551.51878
 20
432.559226
 30
0.0
 40
3.0
100
AcDbArc
 50
167.784636
 51
96.923103
  0
CIRCLE
  5
5EF
100
AcDbEntity
  8
M03
100
AcDbCircle
 10
551.51878
 20
432.559226
 30
0.0
 40
5.5
  0
CIRCLE
  5
5F0
100
AcDbEntity
  8
M03
100
AcDbCircle
 10
499.51878
 20
432.559226
 30
0.0
 40
2.3
  0
ARC
  5
5F1
100
AcDbEntity
  8
M03
100
AcDbCircle
 10
499.51878
 20
432.559226
 30
0.0
 40
3.0
100
AcDbArc
 50
167.784636
 51
96.923103
  0
CIRCLE
  5
5F2
100
AcDbEntity
  8
M03
100
AcDbCircle
 10
499.51878
 20
432.559226
 30
0.0
 40
5.5
  0
CIRCLE
  5
5F3
100
AcDbEntity
  8
M03
100
AcDbCircle
 10
525.51878
 20
458.559226
 30
0.0
 40
2.3
  0
ARC
  5
5F4
100
AcDbEntity
  8
M03
100
AcDbCircle
 10
525.51878
 20
458.559226
 30
0.0
 40
3.0
100
AcDbArc
 50
167.784636
 51
96.923103
  0
CIRCLE
  5
5F5
100
AcDbEntity
  8
M03
100
AcDbCircle
 10
525.51878
 20
458.559226
 30
0.0
 40
5.5
  0
LINE
  5
5F6
100
AcDbEntity
  8
DIMS
100
AcDbLine
 10
350.616537
 20
652.003033
 30
0.0
 11
375.51878
 21
652.003033
 31
0.0
  0
INSERT
  5
5F7
100
AcDbEntity
  8
DIMS
100
AcDbBlockReference
  2
ARROW1
 10
350.616537
 20
652.003033
 30
0.0
 41
10.0
 42
10.0
 43
10.0
 50
180.0
  0
LINE
  5
5F8
100
AcDbEntity
  8
DIMS
100
AcDbLine
 10
229.964205
 20
311.906894
 30
0.0
 11
254.866448
 21
311.906894
 31
0.0
  0
INSERT
  5
5F9
100
AcDbEntity
  8
DIMS
100
AcDbBlockReference
  2
ARROW1
 10
229.964205
 20
311.906894
 30
0.0
 41
10.0
 42
10.0
 43
10.0
 50
180.0
  0
POINT
  5
5FA
100
AcDbEntity
  8
DEFPOINTS
  6
BYBLOCK
 62
     0
100
AcDbPoint
 10
375.51878
 20
432.559226
 30
0.0
  0
MTEXT
  5
5FB
102
{ACAD_REACTORS
330
5FC
102
}
100
AcDbEntity
  8
HATCH
 62
     2
100
AcDbMText
 10
958.795504
 20
337.022405
 30
0.0
 40
3.0
 41
0.0
 71
     1
 72
     5
  1
MAO10006 (x8)
  0
LEADER
  5
5FC
100
AcDbEntity
  8
HATCH
 62
     4
100
AcDbLeader
  3
DIM1$7
 73
     0
 74
     0
 75
     1
 40
4.571429
 41
34.428571
 76
     3
 10
935.65087
 20
346.447884
 30
0.0
 10
954.295504
 20
335.522405
 30
0.0
 10
957.295504
 20
335.522405
 30
0.0
 77
   256
340
5FB
213
0.0
223
-1.5
233
0.0
1001
ACAD
1000
DSTYLE
1002
{
1070
   144
1040
1.0
1002
}
  0
LINE
  5
5FD
102
{ACAD_REACTORS
330
58
102
}
100
AcDbEntity
  8
M04
100
AcDbLine
 10
938.059737
 20
354.559226
 30
0.0
 11
938.059737
 21
301.613216
 31
0.0
  0
LINE
  5
5FE
100
AcDbEntity
  8
M04
100
AcDbLine
 10
955.887643
 20
357.559226
 30
0.0
 11
954.559737
 21
359.859226
 31
0.0
  0
LINE
  5
5FF
100
AcDbEntity
  8
M04
100
AcDbLine
 10
954.559737
 20
355.259226
 30
0.0
 11
955.887643
 21
357.559226
 31
0.0
  0
LINE
  5
600
100
AcDbEntity
  8
M04
100
AcDbLine
 10
954.559737
 20
355.259226
 30
0.0
 11
954.559737
 21
359.859226
 31
0.0
  0
LINE
  5
601
100
AcDbEntity
  8
M04
100
AcDbLine
 10
949.498619
 20
354.559226
 30
0.0
 11
953.059737
 21
354.559226
 31
0.0
  0
LINE
  5
602
100
AcDbEntity
  8
M04
100
AcDbLine
 10
950.198619
 20
355.259226
 30
0.0
 11
954.559737
 21
355.259226
 31
0.0
  0
LINE
  5
603
100
AcDbEntity
  8
M04
100
AcDbLine
 10
949.498619
 20
360.559226
 30
0.0
 11
953.059737
 21
360.559226
 31
0.0
  0
LINE
  5
604
100
AcDbEntity
  8
M04
100
AcDbLine
 10
950.198619
 20
359.859226
 30
0.0
 11
954.559737
 21
359.859226
 31
0.0
  0
LINE
  5
605
100
AcDbEntity
  8
M05
100
AcDbLine
 10
950.198619
 20
359.859226
 30
0.0
 11
949.498619
 21
360.559226
 31
0.0
  0
LINE
  5
606
100
AcDbEntity
  8
M05
100
AcDbLine
 10
949.498619
 20
354.559226
 30
0.0
 11
950.198619
 21
355.259226
 31
0.0
  0
LINE
  5
607
100
AcDbEntity
  8
M05
100
AcDbLine
 10
937.418619
 20
359.859226
 30
0.0
 11
950.198619
 21
359.859226
 31
0.0
  0
LINE
  5
608
100
AcDbEntity
  8
M05
100
AcDbLine
 10
937.418619
 20
355.259226
 30
0.0
 11
950.198619
 21
355.259226
 31
0.0
  0
LINE
  5
609
100
AcDbEntity
  8
M05
100
AcDbLine
 10
949.498619
 20
354.559226
 30
0.0
 11
949.498619
 21
360.559226
 31
0.0
  0
LINE
  5
60A
100
AcDbEntity
  8
M04
100
AcDbLine
 10
953.059737
 20
354.559226
 30
0.0
 11
953.059737
 21
360.559226
 31
0.0
  0
LINE
  5
60B
100
AcDbEntity
  8
M05
100
AcDbLine
 10
950.198619
 20
355.259226
 30
0.0
 11
950.198619
 21
359.859226
 31
0.0
  0
LINE
  5
60C
102
{ACAD_REACTORS
330
57
102
}
100
AcDbEntity
  8
M05
  6
HIDDEN
100
AcDbLine
 10
930.759737
 20
349.400344
 30
0.0
 11
930.059737
 21
348.700344
 31
0.0
  0
LINE
  5
60D
102
{ACAD_REACTORS
330
57
102
}
100
AcDbEntity
  8
M05
  6
HIDDEN
100
AcDbLine
 10
930.759737
 20
365.718108
 30
0.0
 11
930.059737
 21
366.418108
 31
0.0
  0
LINE
  5
60E
100
AcDbEntity
  8
M05
100
AcDbLine
 10
937.418619
 20
354.559226
 30
0.0
 11
937.418619
 21
360.559226
 31
0.0
  0
LINE
  5
60F
100
AcDbEntity
  8
M05
100
AcDbLine
 10
932.918619
 20
358.109226
 30
0.0
 11
932.918619
 21
363.559226
 31
0.0
  0
LINE
  5
610
100
AcDbEntity
  8
M05
100
AcDbLine
 10
932.198619
 20
358.109226
 30
0.0
 11
932.198619
 21
363.559226
 31
0.0
  0
LINE
  5
611
100
AcDbEntity
  8
M05
100
AcDbLine
 10
932.198619
 20
358.109226
 30
0.0
 11
933.698619
 21
358.109226
 31
0.0
  0
LINE
  5
612
100
AcDbEntity
  8
M05
100
AcDbLine
 10
932.198619
 20
357.009226
 30
0.0
 11
933.698619
 21
357.009226
 31
0.0
  0
LINE
  5
613
100
AcDbEntity
  8
M05
100
AcDbLine
 10
933.698619
 20
357.009226
 30
0.0
 11
933.698619
 21
358.109226
 31
0.0
  0
LINE
  5
614
102
{ACAD_REACTORS
330
58
102
}
100
AcDbEntity
  8
M05
100
AcDbLine
 10
935.418619
 20
361.059226
 30
0.0
 11
938.059737
 21
361.059226
 31
0.0
  0
LINE
  5
615
102
{ACAD_REACTORS
330
58
102
}
100
AcDbEntity
  8
M05
100
AcDbLine
 10
935.418619
 20
354.059226
 30
0.0
 11
938.059737
 21
354.059226
 31
0.0
  0
LINE
  5
616
100
AcDbEntity
  8
M05
100
AcDbLine
 10
932.918619
 20
351.559226
 30
0.0
 11
932.918619
 21
357.009226
 31
0.0
  0
LINE
  5
617
102
{ACAD_REACTORS
330
58
330
57
102
}
100
AcDbEntity
  8
M05
100
AcDbLine
 10
935.918619
 20
354.559226
 30
0.0
 11
930.759737
 21
349.400344
 31
0.0
  0
LINE
  5
618
100
AcDbEntity
  8
M05
100
AcDbLine
 10
932.198619
 20
351.559226
 30
0.0
 11
932.918619
 21
351.559226
 31
0.0
  0
LINE
  5
619
102
{ACAD_REACTORS
330
58
330
57
102
}
100
AcDbEntity
  8
M05
100
AcDbLine
 10
935.918619
 20
360.559226
 30
0.0
 11
930.759737
 21
365.718108
 31
0.0
  0
LINE
  5
61A
100
AcDbEntity
  8
M05
100
AcDbLine
 10
935.918619
 20
354.559226
 30
0.0
 11
935.918619
 21
360.559226
 31
0.0
  0
LINE
  5
61B
100
AcDbEntity
  8
M05
100
AcDbLine
 10
935.918619
 20
354.559226
 30
0.0
 11
949.498619
 21
354.559226
 31
0.0
  0
LINE
  5
61C
100
AcDbEntity
  8
M05
100
AcDbLine
 10
935.918619
 20
360.559226
 30
0.0
 11
949.498619
 21
360.559226
 31
0.0
  0
LINE
  5
61D
100
AcDbEntity
  8
M05
100
AcDbLine
 10
932.198619
 20
363.559226
 30
0.0
 11
932.918619
 21
363.559226
 31
0.0
  0
LINE
  5
61E
100
AcDbEntity
  8
M05
100
AcDbLine
 10
932.198619
 20
351.559226
 30
0.0
 11
932.198619
 21
357.009226
 31
0.0
  0
LINE
  5
61F
102
{ACAD_REACTORS
330
57
102
}
100
AcDbEntity
  8
M05
  6
HIDDEN
100
AcDbLine
 10
930.759737
 20
343.559226
 30
0.0
 11
930.759737
 21
371.559226
 31
0.0
  0
LINE
  5
620
102
{ACAD_REACTORS
330
57
102
}
100
AcDbEntity
  8
M05
  6
HIDDEN
100
AcDbLine
 10
930.759737
 20
371.559226
 30
0.0
 11
930.059737
 21
370.859226
 31
0.0
  0
LINE
  5
621
102
{ACAD_REACTORS
330
57
102
}
100
AcDbEntity
  8
M05
  6
HIDDEN
100
AcDbLine
 10
931.759737
 20
371.559226
 30
0.0
 11
930.759737
 21
371.559226
 31
0.0
  0
LINE
  5
622
102
{ACAD_REACTORS
330
58
102
}
100
AcDbEntity
  8
M05
100
AcDbLine
 10
931.759737
 20
371.559226
 30
0.0
 11
931.059737
 21
370.859226
 31
0.0
  0
LINE
  5
623
102
{ACAD_REACTORS
330
58
102
}
100
AcDbEntity
  8
M05
100
AcDbLine
 10
937.359737
 20
371.559226
 30
0.0
 11
938.059737
 21
370.859226
 31
0.0
  0
LINE
  5
624
102
{ACAD_REACTORS
330
58
102
}
100
AcDbEntity
  8
M05
100
AcDbLine
 10
931.759737
 20
371.559226
 30
0.0
 11
937.359737
 21
371.559226
 31
0.0
  0
LINE
  5
625
102
{ACAD_REACTORS
330
57
102
}
100
AcDbEntity
  8
M05
  6
HIDDEN
100
AcDbLine
 10
930.759737
 20
343.559226
 30
0.0
 11
930.059737
 21
344.259226
 31
0.0
  0
LINE
  5
626
102
{ACAD_REACTORS
330
57
102
}
100
AcDbEntity
  8
M05
  6
HIDDEN
100
AcDbLine
 10
931.759737
 20
343.559226
 30
0.0
 11
930.759737
 21
343.559226
 31
0.0
  0
LINE
  5
627
102
{ACAD_REACTORS
330
58
102
}
100
AcDbEntity
  8
M05
100
AcDbLine
 10
931.759737
 20
343.559226
 30
0.0
 11
931.059737
 21
344.259226
 31
0.0
  0
LINE
  5
628
102
{ACAD_REACTORS
330
58
102
}
100
AcDbEntity
  8
M05
100
AcDbLine
 10
937.359737
 20
343.559226
 30
0.0
 11
938.059737
 21
344.259226
 31
0.0
  0
LINE
  5
629
102
{ACAD_REACTORS
330
1F9
102
}
100
AcDbEntity
  8
M02
100
AcDbLine
 10
931.059737
 20
372.559226
 30
0.0
 11
934.059737
 21
372.559226
 31
0.0
  0
LINE
  5
62A
102
{ACAD_REACTORS
330
1A8
102
}
100
AcDbEntity
  8
M02
100
AcDbLine
 10
931.059737
 20
342.559226
 30
0.0
 11
934.059737
 21
342.559226
 31
0.0
  0
LINE
  5
62B
102
{ACAD_REACTORS
330
57
102
}
100
AcDbEntity
  8
M05
  6
HIDDEN
100
AcDbLine
 10
930.059737
 20
344.259226
 30
0.0
 11
930.059737
 21
370.859226
 31
0.0
  0
LINE
  5
62C
102
{ACAD_REACTORS
330
58
102
}
100
AcDbEntity
  8
M05
100
AcDbLine
 10
931.759737
 20
343.559226
 30
0.0
 11
937.359737
 21
343.559226
 31
0.0
  0
LINE
  5
62D
102
{ACAD_REACTORS
330
1A8
102
}
100
AcDbEntity
  8
M02
100
AcDbLine
 10
931.059737
 20
327.299226
 30
0.0
 11
934.059737
 21
327.299226
 31
0.0
  0
LINE
  5
62E
102
{ACAD_REACTORS
330
1A8
102
}
100
AcDbEntity
  8
M02
100
AcDbLine
 10
934.059737
 20
327.299226
 30
0.0
 11
934.059737
 21
343.559226
 31
0.0
  0
LINE
  5
62F
102
{ACAD_REACTORS
330
1FB
102
}
100
AcDbEntity
  8
M02
100
AcDbLine
 10
868.059737
 20
375.559226
 30
0.0
 11
871.059737
 21
375.559226
 31
0.0
  0
LINE
  5
630
100
AcDbEntity
  8
CENTRE
100
AcDbLine
 10
859.965014
 20
357.559226
 30
0.0
 11
894.559737
 21
357.559226
 31
0.0
  0
CIRCLE
  5
631
100
AcDbEntity
  8
M03
100
AcDbCircle
 10
525.51878
 20
432.559226
 30
0.0
 40
34.0
  0
CIRCLE
  5
632
100
AcDbEntity
  8
M03
100
AcDbCircle
 10
525.51878
 20
432.559226
 30
0.0
 40
4.0
  0
LINE
  5
633
100
AcDbEntity
  8
M04
100
AcDbLine
 10
392.51878
 20
617.559226
 30
0.0
 11
392.51878
 21
638.230704
 31
0.0
  0
LINE
  5
634
100
AcDbEntity
  8
M04
100
AcDbLine
 10
358.51878
 20
617.559226
 30
0.0
 11
358.51878
 21
638.230704
 31
0.0
  0
ARC
  5
635
100
AcDbEntity
  8
M04
100
AcDbCircle
 10
392.51878
 20
602.559226
 30
0.0
 40
15.0
100
AcDbArc
 50
360.0
 51
90.0
  0
ARC
  5
636
100
AcDbEntity
  8
M04
100
AcDbCircle
 10
358.51878
 20
602.559226
 30
0.0
 40
15.0
100
AcDbArc
 50
90.0
 51
180.0
  0
LINE
  5
637
100
AcDbEntity
  8
M04
100
AcDbLine
 10
358.51878
 20
617.559226
 30
0.0
 11
392.51878
 21
617.559226
 31
0.0
  0
LINE
  5
638
100
AcDbEntity
  8
M01
100
AcDbLine
 10
395.51878
 20
557.559226
 30
0.0
 11
397.51878
 21
555.559226
 31
0.0
  0
LINE
  5
639
100
AcDbEntity
  8
M01
100
AcDbLine
 10
353.51878
 20
555.559226
 30
0.0
 11
355.51878
 21
557.559226
 31
0.0
  0
LINE
  5
63A
100
AcDbEntity
  8
M01
100
AcDbLine
 10
355.51878
 20
557.559226
 30
0.0
 11
395.51878
 21
557.559226
 31
0.0
  0
LINE
  5
63B
100
AcDbEntity
  8
CENTRE
100
AcDbLine
 10
525.51878
 20
553.044421
 30
0.0
 11
525.51878
 21
312.074032
 31
0.0
  0
LINE
  5
63C
100
AcDbEntity
  8
CENTRE
100
AcDbLine
 10
255.033585
 20
432.559226
 30
0.0
 11
808.503974
 21
432.559226
 31
0.0
  0
LINE
  5
63D
100
AcDbEntity
  8
M04
100
AcDbLine
 10
910.059737
 20
617.559226
 30
0.0
 11
920.059737
 21
627.559226
 31
0.0
  0
LINE
  5
63E
100
AcDbEntity
  8
M04
100
AcDbLine
 10
920.059737
 20
638.230704
 30
0.0
 11
920.059737
 21
627.559226
 31
0.0
  0
LINE
  5
63F
100
AcDbEntity
  8
M04
100
AcDbLine
 10
864.059737
 20
617.559226
 30
0.0
 11
938.059737
 21
617.559226
 31
0.0
  0
LINE
  5
640
102
{ACAD_REACTORS
330
57
102
}
100
AcDbEntity
  8
M01
100
AcDbLine
 10
890.559737
 20
428.559226
 30
0.0
 11
904.059737
 21
428.559226
 31
0.0
  0
LINE
  5
641
102
{ACAD_REACTORS
330
202
102
}
100
AcDbEntity
  8
M01
100
AcDbLine
 10
886.559737
 20
436.559226
 30
0.0
 11
904.059737
 21
436.559226
 31
0.0
  0
LINE
  5
642
100
AcDbEntity
  8
M04
100
AcDbLine
 10
864.059737
 20
617.559226
 30
0.0
 11
864.059737
 21
313.126607
 31
0.0
  0
LINE
  5
643
102
{ACAD_REACTORS
330
202
330
1FB
330
1F9
330
57
102
}
100
AcDbEntity
  8
CENTRE
100
AcDbLine
 10
852.059737
 20
432.559226
 30
0.0
 11
950.059737
 21
432.559226
 31
0.0
  0
LINE
  5
644
102
{ACAD_REACTORS
330
58
102
}
100
AcDbEntity
  8
M04
100
AcDbLine
 10
938.059737
 20
638.230704
 30
0.0
 11
938.059737
 21
360.559226
 31
0.0
  0
LINE
  5
645
100
AcDbEntity
  8
M04
100
AcDbLine
 10
864.059737
 20
313.126607
 30
0.0
 11
938.059737
 21
313.126607
 31
0.0
  0
LINE
  5
646
102
{ACAD_REACTORS
330
1FB
102
}
100
AcDbEntity
  8
M02
100
AcDbLine
 10
871.059737
 20
555.559226
 30
0.0
 11
868.059737
 21
555.559226
 31
0.0
  0
LINE
  5
647
102
{ACAD_REACTORS
330
1F9
102
}
100
AcDbEntity
  8
M02
100
AcDbLine
 10
931.059737
 20
555.559226
 30
0.0
 11
934.059737
 21
555.559226
 31
0.0
  0
LINE
  5
648
102
{ACAD_REACTORS
330
1FA
102
}
100
AcDbEntity
  8
M02
100
AcDbLine
 10
871.059737
 20
327.299226
 30
0.0
 11
868.059737
 21
327.299226
 31
0.0
  0
LINE
  5
649
102
{ACAD_REACTORS
330
1F9
102
}
100
AcDbEntity
  8
M02
100
AcDbLine
 10
934.059737
 20
555.559226
 30
0.0
 11
934.059737
 21
371.559226
 31
0.0
  0
LINE
  5
64A
102
{ACAD_REACTORS
330
1FB
330
1FA
102
}
100
AcDbEntity
  8
M02
100
AcDbLine
 10
868.059737
 20
555.559226
 30
0.0
 11
868.059737
 21
327.299226
 31
0.0
  0
LINE
  5
64B
102
{ACAD_REACTORS
330
57
102
}
100
AcDbEntity
  8
M01
100
AcDbLine
 10
931.059737
 20
327.299226
 30
0.0
 11
929.059737
 21
325.299226
 31
0.0
  0
LINE
  5
64C
102
{ACAD_REACTORS
330
202
102
}
100
AcDbEntity
  8
M01
100
AcDbLine
 10
929.059737
 20
557.559226
 30
0.0
 11
931.059737
 21
555.559226
 31
0.0
  0
LINE
  5
64D
102
{ACAD_REACTORS
330
202
102
}
100
AcDbEntity
  8
M01
100
AcDbLine
 10
871.059737
 20
555.559226
 30
0.0
 11
873.059737
 21
557.559226
 31
0.0
  0
LINE
  5
64E
102
{ACAD_REACTORS
330
57
102
}
100
AcDbEntity
  8
M01
100
AcDbLine
 10
873.059737
 20
325.299226
 30
0.0
 11
871.059737
 21
327.299226
 31
0.0
  0
LINE
  5
64F
102
{ACAD_REACTORS
330
202
330
1F9
330
1A8
330
58
330
57
102
}
100
AcDbEntity
  8
M01
100
AcDbLine
 10
931.059737
 20
555.559226
 30
0.0
 11
931.059737
 21
327.299226
 31
0.0
  0
LINE
  5
650
102
{ACAD_REACTORS
330
57
102
}
100
AcDbEntity
  8
M01
100
AcDbLine
 10
873.059737
 20
325.299226
 30
0.0
 11
929.059737
 21
325.299226
 31
0.0
  0
LINE
  5
651
102
{ACAD_REACTORS
330
202
102
}
100
AcDbEntity
  8
M01
100
AcDbLine
 10
873.059737
 20
557.559226
 30
0.0
 11
929.059737
 21
557.559226
 31
0.0
  0
LINE
  5
652
102
{ACAD_REACTORS
330
202
330
1FB
330
1FA
330
57
102
}
100
AcDbEntity
  8
M01
100
AcDbLine
 10
871.059737
 20
555.559226
 30
0.0
 11
871.059737
 21
327.299226
 31
0.0
  0
ENDSEC
  0
SECTION
  2
OBJECTS
  0
DICTIONARY
  5
1C
100
AcDbDictionary
  3
ACAD_GROUP
350
1A
  3
ACAD_MLINESTYLE
350
1B
  0
DICTIONARY
  5
3
100
AcDbDictionary
280
     1
  3
ACAD_SORTENTS
360
4
  0
DICTIONARY
  5
1A
102
{ACAD_REACTORS
330
1C
102
}
100
AcDbDictionary
  0
DICTIONARY
  5
1B
102
{ACAD_REACTORS
330
1C
102
}
100
AcDbDictionary
  3
STANDARD
350
1E
  0
SORTENTSTABLE
  5
4
102
{ACAD_REACTORS
330
3
102
}
100
AcDbSortentsTable
330
2
  0
MLINESTYLE
  5
1E
102
{ACAD_REACTORS
330
1B
102
}
100
AcDbMlineStyle
  2
STANDARD
 70
     0
  3

 62
   256
 51
90.0
 52
90.0
 71
     2
 49
0.5
 62
   256
  6
BYLAYER
 49
-0.5
 62
   256
  6
BYLAYER
  0
ENDSEC
  0
EOF
