  0
SECTION
  2
HEADER
  9
$ACADVER
  1
AC1014
  9
$ACADMAINTVER
 70
     9
  9
$DWGCODEPAGE
  3
ANSI_1252
  9
$INSBASE
 10
0.0
 20
0.0
 30
0.0
  9
$EXTMIN
 10
253.065349
 20
129.471615
 30
-0.222949
  9
$EXTMAX
 10
1227.144914
 20
779.429694
 30
0.0
  9
$LIMMIN
 10
0.0
 20
0.0
  9
$LIMMAX
 10
1189.0
 20
841.0
  9
$ORTHOMODE
 70
     1
  9
$REGENMODE
 70
     1
  9
$FILLMODE
 70
     1
  9
$QTEXTMODE
 70
     0
  9
$MIRRTEXT
 70
     0
  9
$DRAGMODE
 70
     2
  9
$LTSCALE
 40
8.0
  9
$OSMODE
 70
     0
  9
$ATTMODE
 70
     1
  9
$TEXTSIZE
 40
2.5
  9
$TRACEWID
 40
10.0
  9
$TEXTSTYLE
  7
STANDARD
  9
$CLAYER
  8
HATCH
  9
$CELTYPE
  6
BYLAYER
  9
$CECOLOR
 62
   256
  9
$CELTSCALE
 40
1.0
  9
$DELOBJ
 70
     1
  9
$DISPSILH
 70
     0
  9
$DIMSCALE
 40
1.0
  9
$DIMASZ
 40
3.0
  9
$DIMEXO
 40
1.0
  9
$DIMDLI
 40
10.0
  9
$DIMRND
 40
0.01
  9
$DIMDLE
 40
1.25
  9
$DIMEXE
 40
2.5
  9
$DIMTP
 40
0.05
  9
$DIMTM
 40
0.0
  9
$DIMTXT
 40
3.0
  9
$DIMCEN
 40
-1.7
  9
$DIMTSZ
 40
0.0
  9
$DIMTOL
 70
     0
  9
$DIMLIM
 70
     0
  9
$DIMTIH
 70
     0
  9
$DIMTOH
 70
     0
  9
$DIMSE1
 70
     0
  9
$DIMSE2
 70
     0
  9
$DIMTAD
 70
     3
  9
$DIMZIN
 70
     1
  9
$DIMBLK
  1

  9
$DIMASO
 70
     1
  9
$DIMSHO
 70
     0
  9
$DIMPOST
  1

  9
$DIMAPOST
  1

  9
$DIMALT
 70
     0
  9
$DIMALTD
 70
     2
  9
$DIMALTF
 40
0.039
  9
$DIMLFAC
 40
1.0
  9
$DIMTOFL
 70
     0
  9
$DIMTVP
 40
1.5
  9
$DIMTIX
 70
     0
  9
$DIMSOXD
 70
     0
  9
$DIMSAH
 70
     0
  9
$DIMBLK1
  1

  9
$DIMBLK2
  1

  9
$DIMSTYLE
  2
DIM1
  9
$DIMCLRD
 70
     4
  9
$DIMCLRE
 70
     4
  9
$DIMCLRT
 70
     2
  9
$DIMTFAC
 40
0.7
  9
$DIMGAP
 40
1.5
  9
$DIMJUST
 70
     0
  9
$DIMSD1
 70
     0
  9
$DIMSD2
 70
     0
  9
$DIMTOLJ
 70
     1
  9
$DIMTZIN
 70
     1
  9
$DIMALTZ
 70
     1
  9
$DIMALTTZ
 70
     1
  9
$DIMFIT
 70
     0
  9
$DIMUPT
 70
     0
  9
$DIMUNIT
 70
     2
  9
$DIMDEC
 70
     2
  9
$DIMTDEC
 70
     2
  9
$DIMALTU
 70
     2
  9
$DIMALTTD
 70
     2
  9
$DIMTXSTY
  7
STANDARD
  9
$DIMAUNIT
 70
     0
  9
$LUNITS
 70
     2
  9
$LUPREC
 70
     2
  9
$SKETCHINC
 40
1.0
  9
$FILLETRAD
 40
0.0
  9
$AUNITS
 70
     0
  9
$AUPREC
 70
     3
  9
$MENU
  1
ACAD
  9
$ELEVATION
 40
0.0
  9
$PELEVATION
 40
0.0
  9
$THICKNESS
 40
0.0
  9
$LIMCHECK
 70
     0
  9
$BLIPMODE
 70
     1
  9
$CHAMFERA
 40
7.0
  9
$CHAMFERB
 40
7.0
  9
$CHAMFERC
 40
0.0
  9
$CHAMFERD
 40
0.0
  9
$SKPOLY
 70
     1
  9
$TDCREATE
 40
2449993.725698611
  9
$TDUPDATE
 40
2452025.588334108
  9
$TDINDWG
 40
0.9759685417
  9
$TDUSRTIMER
 40
0.9759685417
  9
$USRTIMER
 70
     1
  9
$ANGBASE
 50
0.0
  9
$ANGDIR
 70
     0
  9
$PDMODE
 70
     3
  9
$PDSIZE
 40
0.0
  9
$PLINEWID
 40
0.0
  9
$COORDS
 70
     2
  9
$SPLFRAME
 70
     0
  9
$SPLINETYPE
 70
     6
  9
$SPLINESEGS
 70
     6
  9
$ATTDIA
 70
     1
  9
$ATTREQ
 70
     1
  9
$HANDLING
 70
     1
  9
$HANDSEED
  5
647
  9
$SURFTAB1
 70
    12
  9
$SURFTAB2
 70
    12
  9
$SURFTYPE
 70
     6
  9
$SURFU
 70
    12
  9
$SURFV
 70
    12
  9
$UCSNAME
  2

  9
$UCSORG
 10
0.0
 20
0.0
 30
0.0
  9
$UCSXDIR
 10
1.0
 20
0.0
 30
0.0
  9
$UCSYDIR
 10
0.0
 20
1.0
 30
0.0
  9
$PUCSNAME
  2

  9
$PUCSORG
 10
0.0
 20
0.0
 30
0.0
  9
$PUCSXDIR
 10
1.0
 20
0.0
 30
0.0
  9
$PUCSYDIR
 10
0.0
 20
1.0
 30
0.0
  9
$USERI1
 70
     0
  9
$USERI2
 70
     0
  9
$USERI3
 70
     0
  9
$USERI4
 70
     0
  9
$USERI5
 70
     0
  9
$USERR1
 40
0.0
  9
$USERR2
 40
0.0
  9
$USERR3
 40
0.0
  9
$USERR4
 40
0.0
  9
$USERR5
 40
0.0
  9
$WORLDVIEW
 70
     0
  9
$SHADEDGE
 70
     3
  9
$SHADEDIF
 70
    70
  9
$TILEMODE
 70
     1
  9
$MAXACTVP
 70
    16
  9
$PINSBASE
 10
0.0
 20
0.0
 30
0.0
  9
$PLIMCHECK
 70
     0
  9
$PEXTMIN
 10
1.000000E+20
 20
1.000000E+20
 30
1.000000E+20
  9
$PEXTMAX
 10
-1.000000E+20
 20
-1.000000E+20
 30
-1.000000E+20
  9
$PLIMMIN
 10
0.0
 20
0.0
  9
$PLIMMAX
 10
12.0
 20
9.0
  9
$UNITMODE
 70
     0
  9
$VISRETAIN
 70
     0
  9
$PLINEGEN
 70
     0
  9
$PSLTSCALE
 70
     0
  9
$TREEDEPTH
 70
  3020
  9
$PICKSTYLE
 70
     1
  9
$CMLSTYLE
  2
STANDARD
  9
$CMLJUST
 70
     0
  9
$CMLSCALE
 40
1.0
  9
$PROXYGRAPHICS
 70
     1
  9
$MEASUREMENT
 70
     0
  0
ENDSEC
  0
SECTION
  2
CLASSES
  0
CLASS
  1
DICTIONARYVAR
  2
AcDbDictionaryVar
  3
"AutoCAD"
 90
        0
280
     0
281
     0
  0
CLASS
  1
LWPOLYLINE
  2
AcDbPolyline
  3
"AutoCAD"
 90
        0
280
     0
281
     1
  0
CLASS
  1
HATCH
  2
AcDbHatch
  3
"ACAD_SEDONA"
 90
        0
280
     0
281
     1
  0
CLASS
  1
SORTENTSTABLE
  2
AcDbSortentsTable
  3
"AutoCAD"
 90
        0
280
     0
281
     0
  0
CLASS
  1
WIPEOUTVARIABLES
  2
AcDbWipeoutVariables
  3
WIPEOUT
 90
        0
280
     0
281
     0
  0
CLASS
  1
WIPEOUT
  2
AcDbWipeout
  3
WIPEOUT
 90
      127
280
     0
281
     1
  0
ENDSEC
  0
SECTION
  2
TABLES
  0
TABLE
  2
VPORT
  5
14
100
AcDbSymbolTable
 70
     2
  0
VPORT
  5
646
100
AcDbSymbolTableRecord
100
AcDbViewportTableRecord
  2
*ACTIVE
 70
     0
 10
0.0
 20
0.0
 11
1.0
 21
1.0
 12
597.277862
 22
407.720885
 13
0.0
 23
0.0
 14
10.0
 24
10.0
 15
0.0
 25
0.0
 16
0.0
 26
0.0
 36
1.0
 17
16.313321
 27
12.779115
 37
0.222949
 40
847.191411
 41
1.470516
 42
50.0
 43
0.0
 44
0.0
 50
0.0
 51
0.0
 71
     0
 72
  2000
 73
     1
 74
     2
 75
     0
 76
     0
 77
     0
 78
     1
  0
ENDTAB
  0
TABLE
  2
LTYPE
  5
F
100
AcDbSymbolTable
 70
     3
  0
LTYPE
  5
10
100
AcDbSymbolTableRecord
100
AcDbLinetypeTableRecord
  2
BYBLOCK
 70
     0
  3

 72
    65
 73
     0
 40
0.0
  0
LTYPE
  5
11
100
AcDbSymbolTableRecord
100
AcDbLinetypeTableRecord
  2
BYLAYER
 70
     0
  3

 72
    65
 73
     0
 40
0.0
  0
LTYPE
  5
7
100
AcDbSymbolTableRecord
100
AcDbLinetypeTableRecord
  2
CONTINUOUS
 70
     0
  3
Solid line
 72
    65
 73
     0
 40
0.0
  0
LTYPE
  5
BB
100
AcDbSymbolTableRecord
100
AcDbLinetypeTableRecord
  2
CENTER
 70
     0
  3
Center ____ _ ____ _ ____ _ ____ _ ____ _ ____
 72
    65
 73
     4
 40
2.0
 49
1.25
 74
     0
 49
-0.25
 74
     0
 49
0.25
 74
     0
 49
-0.25
 74
     0
  0
LTYPE
  5
C8
100
AcDbSymbolTableRecord
100
AcDbLinetypeTableRecord
  2
HIDDEN
 70
     0
  3
Hidden __ __ __ __ __ __ __ __ __ __ __ __ __ _
 72
    65
 73
     2
 40
0.375
 49
0.25
 74
     0
 49
-0.125
 74
     0
  0
ENDTAB
  0
TABLE
  2
LAYER
  5
C
100
AcDbSymbolTable
 70
    11
  0
LAYER
  5
6
100
AcDbSymbolTableRecord
100
AcDbLayerTableRecord
  2
0
 70
     0
 62
     7
  6
CONTINUOUS
  0
LAYER
  5
BA
100
AcDbSymbolTableRecord
100
AcDbLayerTableRecord
  2
CENTRE
 70
     0
 62
     3
  6
CENTER
  0
LAYER
  5
22
100
AcDbSymbolTableRecord
100
AcDbLayerTableRecord
  2
M01
 70
     0
 62
     1
  6
CONTINUOUS
  0
LAYER
  5
225
100
AcDbSymbolTableRecord
100
AcDbLayerTableRecord
  2
M02
 70
     0
 62
     2
  6
CONTINUOUS
  0
LAYER
  5
C7
100
AcDbSymbolTableRecord
100
AcDbLayerTableRecord
  2
M03
 70
     0
 62
     2
  6
HIDDEN
  0
LAYER
  5
30
100
AcDbSymbolTableRecord
100
AcDbLayerTableRecord
  2
M04
 70
     0
 62
     7
  6
CONTINUOUS
  0
LAYER
  5
1F1
100
AcDbSymbolTableRecord
100
AcDbLayerTableRecord
  2
M05
 70
     0
 62
     5
  6
CONTINUOUS
  0
LAYER
  5
29
100
AcDbSymbolTableRecord
100
AcDbLayerTableRecord
  2
DIMS
 70
     0
 62
     4
  6
CONTINUOUS
  0
LAYER
  5
B7
100
AcDbSymbolTableRecord
100
AcDbLayerTableRecord
  2
TEXT
 70
     0
 62
     2
  6
CONTINUOUS
  0
LAYER
  5
1D
100
AcDbSymbolTableRecord
100
AcDbLayerTableRecord
  2
HATCH
 70
     0
 62
     4
  6
CONTINUOUS
  0
LAYER
  5
9D
100
AcDbSymbolTableRecord
100
AcDbLayerTableRecord
  2
DEFPOINTS
 70
     0
 62
     7
  6
CONTINUOUS
  0
ENDTAB
  0
TABLE
  2
STYLE
  5
D
100
AcDbSymbolTable
 70
     1
  0
STYLE
  5
E
100
AcDbSymbolTableRecord
100
AcDbTextStyleTableRecord
  2
STANDARD
 70
     0
 40
0.0
 41
1.0
 50
0.0
 71
     0
 42
2.5
  3
SIMPLEX
  4

  0
ENDTAB
  0
TABLE
  2
VIEW
  5
12
100
AcDbSymbolTable
 70
     0
  0
ENDTAB
  0
TABLE
  2
UCS
  5
13
100
AcDbSymbolTable
 70
     0
  0
ENDTAB
  0
TABLE
  2
APPID
  5
16
100
AcDbSymbolTable
 70
     1
  0
APPID
  5
17
100
AcDbSymbolTableRecord
100
AcDbRegAppTableRecord
  2
ACAD
 70
     0
  0
ENDTAB
  0
TABLE
  2
DIMSTYLE
  5
18
100
AcDbSymbolTable
 70
     2
  0
DIMSTYLE
105
1F
102
{ACAD_REACTORS
330
4CA
330
27F
330
272
330
265
330
258
330
1DE
330
1C0
330
1B4
330
1A7
330
19A
330
18E
330
182
330
175
330
1CC
330
A9
102
}
100
AcDbSymbolTableRecord
100
AcDbDimStyleTableRecord
  2
DIM1
 70
     0
  3

  4

  5

  6

  7

 40
1.0
 41
3.0
 42
1.0
 43
10.0
 44
2.5
 45
0.01
 46
1.25
 47
0.05
 48
0.0
140
3.0
141
-1.7
142
0.0
143
0.039
144
0.2
145
1.5
146
0.7
147
1.5
 71
     0
 72
     0
 73
     0
 74
     0
 75
     0
 76
     0
 77
     3
 78
     1
170
     0
171
     2
172
     0
173
     0
174
     0
175
     0
176
     4
177
     4
178
     2
270
     2
271
     2
272
     2
273
     2
274
     2
340
E
275
     0
280
     0
281
     0
282
     0
283
     1
284
     1
285
     1
286
     1
287
     0
288
     0
  0
DIMSTYLE
105
2CD
100
AcDbSymbolTableRecord
100
AcDbDimStyleTableRecord
  2
DIM1$7
 70
     0
  3

  4

  5

  6

  7

 40
1.0
 41
3.0
 42
1.0
 43
10.0
 44
2.5
 45
0.01
 46
1.25
 47
0.0
 48
0.0
140
3.0
141
-1.7
142
0.0
143
0.039
144
1.0
145
0.0
146
1.0
147
1.5
 71
     0
 72
     0
 73
     0
 74
     0
 75
     0
 76
     0
 77
     0
 78
     1
170
     0
171
     2
172
     0
173
     0
174
     0
175
     0
176
     4
177
     4
178
     2
270
     2
271
     2
272
     2
273
     2
274
     2
340
E
275
     0
280
     0
281
     0
282
     0
283
     1
284
     1
285
     1
286
     1
287
     0
288
     0
  0
ENDTAB
  0
TABLE
  2
BLOCK_RECORD
  5
1
100
AcDbSymbolTable
 70
    16
  0
BLOCK_RECORD
  5
2
102
{ACAD_XDICTIONARY
360
3
102
}
100
AcDbSymbolTableRecord
100
AcDbBlockTableRecord
  2
*MODEL_SPACE
  0
BLOCK_RECORD
  5
9
100
AcDbSymbolTableRecord
100
AcDbBlockTableRecord
  2
*PAPER_SPACE
  0
BLOCK_RECORD
  5
2C4
100
AcDbSymbolTableRecord
100
AcDbBlockTableRecord
  2
ARROW1
  0
BLOCK_RECORD
  5
4CB
100
AcDbSymbolTableRecord
100
AcDbBlockTableRecord
  2
*D1
  0
BLOCK_RECORD
  5
280
100
AcDbSymbolTableRecord
100
AcDbBlockTableRecord
  2
*D2
  0
BLOCK_RECORD
  5
273
100
AcDbSymbolTableRecord
100
AcDbBlockTableRecord
  2
*D3
  0
BLOCK_RECORD
  5
266
100
AcDbSymbolTableRecord
100
AcDbBlockTableRecord
  2
*D4
  0
BLOCK_RECORD
  5
259
100
AcDbSymbolTableRecord
100
AcDbBlockTableRecord
  2
*D5
  0
BLOCK_RECORD
  5
1DF
100
AcDbSymbolTableRecord
100
AcDbBlockTableRecord
  2
*D6
  0
BLOCK_RECORD
  5
1CD
100
AcDbSymbolTableRecord
100
AcDbBlockTableRecord
  2
*D7
  0
BLOCK_RECORD
  5
1C1
100
AcDbSymbolTableRecord
100
AcDbBlockTableRecord
  2
*D8
  0
BLOCK_RECORD
  5
1B5
100
AcDbSymbolTableRecord
100
AcDbBlockTableRecord
  2
*D9
  0
BLOCK_RECORD
  5
1A8
100
AcDbSymbolTableRecord
100
AcDbBlockTableRecord
  2
*D10
  0
BLOCK_RECORD
  5
19B
100
AcDbSymbolTableRecord
100
AcDbBlockTableRecord
  2
*D11
  0
BLOCK_RECORD
  5
18F
100
AcDbSymbolTableRecord
100
AcDbBlockTableRecord
  2
*D12
  0
BLOCK_RECORD
  5
183
100
AcDbSymbolTableRecord
100
AcDbBlockTableRecord
  2
*D13
  0
BLOCK_RECORD
  5
176
100
AcDbSymbolTableRecord
100
AcDbBlockTableRecord
  2
*D14
  0
BLOCK_RECORD
  5
AA
100
AcDbSymbolTableRecord
100
AcDbBlockTableRecord
  2
*D15
  0
ENDTAB
  0
ENDSEC
  0
SECTION
  2
BLOCKS
  0
BLOCK
  5
5
100
AcDbEntity
  8
0
100
AcDbBlockBegin
  2
*MODEL_SPACE
 70
     0
 10
0.0
 20
0.0
 30
0.0
  3
*MODEL_SPACE
  1

  0
ENDBLK
  5
8
100
AcDbEntity
  8
0
100
AcDbBlockEnd
  0
BLOCK
  5
A
100
AcDbEntity
 67
     1
  8
0
100
AcDbBlockBegin
  2
*PAPER_SPACE
 70
     0
 10
0.0
 20
0.0
 30
0.0
  3
*PAPER_SPACE
  1

  0
ENDBLK
  5
B
100
AcDbEntity
 67
     1
  8
0
100
AcDbBlockEnd
  0
BLOCK
  5
2C8
100
AcDbEntity
  8
0
100
AcDbBlockBegin
  2
ARROW1
 70
     0
 10
0.0
 20
0.0
 30
0.0
  3
ARROW1
  1

  0
LINE
  5
2C5
100
AcDbEntity
  8
0
100
AcDbLine
 10
-1.0
 20
-0.2
 30
0.0
 11
-1.0
 21
0.0
 31
0.0
  0
LINE
  5
2C6
100
AcDbEntity
  8
0
100
AcDbLine
 10
0.0
 20
0.0
 30
0.0
 11
-1.0
 21
-0.2
 31
0.0
  0
SOLID
  5
2C7
100
AcDbEntity
  8
0
100
AcDbTrace
 10
0.0
 20
0.0
 30
0.0
 11
-1.0
 21
0.2
 31
0.0
 12
-1.0
 22
0.0
 32
0.0
 13
-1.0
 23
0.0
 33
0.0
  0
ENDBLK
  5
2C9
100
AcDbEntity
  8
0
100
AcDbBlockEnd
  0
BLOCK
  5
4D6
100
AcDbEntity
  8
0
100
AcDbBlockBegin
  2
*D1
 70
     1
 10
0.0
 20
0.0
 30
0.0
  3
*D1
  1

  0
LINE
  5
4CC
100
AcDbEntity
  8
0
  6
BYBLOCK
 62
     4
100
AcDbLine
 10
771.341868
 20
250.583762
 30
0.0
 11
771.341868
 21
266.759927
 31
0.0
  0
LINE
  5
4CD
100
AcDbEntity
  8
0
  6
BYBLOCK
 62
     4
100
AcDbLine
 10
763.341868
 20
250.583762
 30
0.0
 11
763.341868
 21
266.759927
 31
0.0
  0
LINE
  5
4CE
100
AcDbEntity
  8
0
  6
BYBLOCK
 62
     4
100
AcDbLine
 10
774.341868
 20
264.259927
 30
0.0
 11
777.341868
 21
264.259927
 31
0.0
  0
LINE
  5
4CF
100
AcDbEntity
  8
0
  6
BYBLOCK
 62
     4
100
AcDbLine
 10
760.341868
 20
264.259927
 30
0.0
 11
733.77044
 21
264.259927
 31
0.0
  0
SOLID
  5
4D0
100
AcDbEntity
  8
0
  6
BYBLOCK
 62
     4
100
AcDbTrace
 10
774.341868
 20
264.759927
 30
0.0
 11
774.341868
 21
263.759927
 31
0.0
 12
771.341868
 22
264.259927
 32
0.0
 13
771.341868
 23
264.259927
 33
0.0
  0
SOLID
  5
4D1
100
AcDbEntity
  8
0
  6
BYBLOCK
 62
     4
100
AcDbTrace
 10
760.341868
 20
264.759927
 30
0.0
 11
760.341868
 21
263.759927
 31
0.0
 12
763.341868
 22
264.259927
 32
0.0
 13
763.341868
 23
264.259927
 33
0.0
  0
MTEXT
  5
4D2
100
AcDbEntity
  8
0
  6
BYBLOCK
 62
     2
100
AcDbMText
 10
745.556154
 20
267.259927
 30
0.0
 40
3.0
 41
0.0
 71
     5
 72
     1
  1
\A1;\U+22058.00 H7
  0
POINT
  5
4D3
100
AcDbEntity
  8
DEFPOINTS
  6
BYBLOCK
 62
     0
100
AcDbPoint
 10
771.341868
 20
249.583762
 30
0.0
  0
POINT
  5
4D4
100
AcDbEntity
  8
DEFPOINTS
  6
BYBLOCK
 62
     0
100
AcDbPoint
 10
763.341868
 20
249.583762
 30
0.0
  0
POINT
  5
4D5
100
AcDbEntity
  8
DEFPOINTS
  6
BYBLOCK
 62
     0
100
AcDbPoint
 10
763.341868
 20
264.259927
 30
0.0
  0
ENDBLK
  5
4D7
100
AcDbEntity
  8
0
100
AcDbBlockEnd
  0
BLOCK
  5
28A
100
AcDbEntity
  8
0
100
AcDbBlockBegin
  2
*D2
 70
     1
 10
0.0
 20
0.0
 30
0.0
  3
*D2
  1

  0
LINE
  5
281
100
AcDbEntity
  8
0
  6
BYBLOCK
 62
     4
100
AcDbLine
 10
698.361529
 20
583.957944
 30
0.0
 11
677.429734
 21
583.957944
 31
0.0
  0
LINE
  5
282
100
AcDbEntity
  8
0
  6
BYBLOCK
 62
     4
100
AcDbLine
 10
708.136529
 20
597.357944
 30
0.0
 11
677.429734
 21
597.357944
 31
0.0
  0
LINE
  5
283
100
AcDbEntity
  8
0
  6
BYBLOCK
 62
     4
100
AcDbLine
 10
679.929734
 20
586.957944
 30
0.0
 11
679.929734
 21
594.357944
 31
0.0
  0
SOLID
  5
284
100
AcDbEntity
  8
0
  6
BYBLOCK
 62
     4
100
AcDbTrace
 10
679.429734
 20
586.957944
 30
0.0
 11
680.429734
 21
586.957944
 31
0.0
 12
679.929734
 22
583.957944
 32
0.0
 13
679.929734
 23
583.957944
 33
0.0
  0
SOLID
  5
285
100
AcDbEntity
  8
0
  6
BYBLOCK
 62
     4
100
AcDbTrace
 10
679.429734
 20
594.357944
 30
0.0
 11
680.429734
 21
594.357944
 31
0.0
 12
679.929734
 22
597.357944
 32
0.0
 13
679.929734
 23
597.357944
 33
0.0
  0
MTEXT
  5
286
100
AcDbEntity
  8
0
  6
BYBLOCK
 62
     2
100
AcDbMText
 10
676.929734
 20
590.657944
 30
0.0
 40
3.0
 41
0.0
 71
     5
 72
     1
  1
\A1;13.4
 11
0.0
 21
1.0
 31
0.0
  0
POINT
  5
287
100
AcDbEntity
  8
DEFPOINTS
  6
BYBLOCK
 62
     0
100
AcDbPoint
 10
699.361529
 20
583.957944
 30
0.0
  0
POINT
  5
288
100
AcDbEntity
  8
DEFPOINTS
  6
BYBLOCK
 62
     0
100
AcDbPoint
 10
709.136529
 20
597.357944
 30
0.0
  0
POINT
  5
289
100
AcDbEntity
  8
DEFPOINTS
  6
BYBLOCK
 62
     0
100
AcDbPoint
 10
679.929734
 20
597.357944
 30
0.0
  0
ENDBLK
  5
28B
100
AcDbEntity
  8
0
100
AcDbBlockEnd
  0
BLOCK
  5
27D
100
AcDbEntity
  8
0
100
AcDbBlockBegin
  2
*D3
 70
     1
 10
0.0
 20
0.0
 30
0.0
  3
*D3
  1

  0
LINE
  5
274
100
AcDbEntity
  8
0
  6
BYBLOCK
 62
     4
100
AcDbLine
 10
753.586529
 20
603.357944
 30
0.0
 11
753.586529
 21
626.564525
 31
0.0
  0
LINE
  5
275
100
AcDbEntity
  8
0
  6
BYBLOCK
 62
     4
100
AcDbLine
 10
709.136529
 20
603.357944
 30
0.0
 11
709.136529
 21
626.564525
 31
0.0
  0
LINE
  5
276
100
AcDbEntity
  8
0
  6
BYBLOCK
 62
     4
100
AcDbLine
 10
750.586529
 20
624.064525
 30
0.0
 11
712.136529
 21
624.064525
 31
0.0
  0
SOLID
  5
277
100
AcDbEntity
  8
0
  6
BYBLOCK
 62
     4
100
AcDbTrace
 10
750.586529
 20
624.564525
 30
0.0
 11
750.586529
 21
623.564525
 31
0.0
 12
753.586529
 22
624.064525
 32
0.0
 13
753.586529
 23
624.064525
 33
0.0
  0
SOLID
  5
278
100
AcDbEntity
  8
0
  6
BYBLOCK
 62
     4
100
AcDbTrace
 10
712.136529
 20
624.564525
 30
0.0
 11
712.136529
 21
623.564525
 31
0.0
 12
709.136529
 22
624.064525
 32
0.0
 13
709.136529
 23
624.064525
 33
0.0
  0
MTEXT
  5
279
100
AcDbEntity
  8
0
  6
BYBLOCK
 62
     2
100
AcDbMText
 10
732.326741
 20
627.064525
 30
0.0
 40
3.0
 41
0.0
 71
     5
 72
     1
  1
\A1;\U+220544.45 H7
  0
POINT
  5
27A
100
AcDbEntity
  8
DEFPOINTS
  6
BYBLOCK
 62
     0
100
AcDbPoint
 10
753.586529
 20
602.357944
 30
0.0
  0
POINT
  5
27B
100
AcDbEntity
  8
DEFPOINTS
  6
BYBLOCK
 62
     0
100
AcDbPoint
 10
709.136529
 20
602.357944
 30
0.0
  0
POINT
  5
27C
100
AcDbEntity
  8
DEFPOINTS
  6
BYBLOCK
 62
     0
100
AcDbPoint
 10
709.136529
 20
624.064525
 30
0.0
  0
ENDBLK
  5
27E
100
AcDbEntity
  8
0
100
AcDbBlockEnd
  0
BLOCK
  5
270
100
AcDbEntity
  8
0
100
AcDbBlockBegin
  2
*D4
 70
     1
 10
0.0
 20
0.0
 30
0.0
  3
*D4
  1

  0
LINE
  5
267
100
AcDbEntity
  8
0
  6
BYBLOCK
 62
     4
100
AcDbLine
 10
708.136529
 20
597.780594
 30
0.0
 11
708.136529
 21
636.605757
 31
0.0
  0
LINE
  5
268
100
AcDbEntity
  8
0
  6
BYBLOCK
 62
     4
100
AcDbLine
 10
754.586529
 20
597.780594
 30
0.0
 11
754.586529
 21
636.605757
 31
0.0
  0
LINE
  5
269
100
AcDbEntity
  8
0
  6
BYBLOCK
 62
     4
100
AcDbLine
 10
711.136529
 20
634.105757
 30
0.0
 11
751.586529
 21
634.105757
 31
0.0
  0
SOLID
  5
26A
100
AcDbEntity
  8
0
  6
BYBLOCK
 62
     4
100
AcDbTrace
 10
711.136529
 20
634.605757
 30
0.0
 11
711.136529
 21
633.605757
 31
0.0
 12
708.136529
 22
634.105757
 32
0.0
 13
708.136529
 23
634.105757
 33
0.0
  0
SOLID
  5
26B
100
AcDbEntity
  8
0
  6
BYBLOCK
 62
     4
100
AcDbTrace
 10
751.586529
 20
634.605757
 30
0.0
 11
751.586529
 21
633.605757
 31
0.0
 12
754.586529
 22
634.105757
 32
0.0
 13
754.586529
 23
634.105757
 33
0.0
  0
MTEXT
  5
26C
100
AcDbEntity
  8
0
  6
BYBLOCK
 62
     2
100
AcDbMText
 10
732.666981
 20
637.105757
 30
0.0
 40
3.0
 41
0.0
 71
     5
 72
     1
  1
\A1;\U+220546.5
  0
POINT
  5
26D
100
AcDbEntity
  8
DEFPOINTS
  6
BYBLOCK
 62
     0
100
AcDbPoint
 10
708.136529
 20
596.780594
 30
0.0
  0
POINT
  5
26E
100
AcDbEntity
  8
DEFPOINTS
  6
BYBLOCK
 62
     0
100
AcDbPoint
 10
754.586529
 20
596.780594
 30
0.0
  0
POINT
  5
26F
100
AcDbEntity
  8
DEFPOINTS
  6
BYBLOCK
 62
     0
100
AcDbPoint
 10
754.586529
 20
634.105757
 30
0.0
  0
ENDBLK
  5
271
100
AcDbEntity
  8
0
100
AcDbBlockEnd
  0
BLOCK
  5
263
100
AcDbEntity
  8
0
100
AcDbBlockBegin
  2
*D5
 70
     1
 10
0.0
 20
0.0
 30
0.0
  3
*D5
  1

  0
LINE
  5
25A
100
AcDbEntity
  8
0
  6
BYBLOCK
 62
     4
100
AcDbLine
 10
755.586529
 20
576.957944
 30
0.0
 11
779.628629
 21
576.957944
 31
0.0
  0
LINE
  5
25B
100
AcDbEntity
  8
0
  6
BYBLOCK
 62
     4
100
AcDbLine
 10
754.586529
 20
602.357944
 30
0.0
 11
779.628629
 21
602.357944
 31
0.0
  0
LINE
  5
25C
100
AcDbEntity
  8
0
  6
BYBLOCK
 62
     4
100
AcDbLine
 10
777.128629
 20
579.957944
 30
0.0
 11
777.128629
 21
599.357944
 31
0.0
  0
SOLID
  5
25D
100
AcDbEntity
  8
0
  6
BYBLOCK
 62
     4
100
AcDbTrace
 10
776.628629
 20
579.957944
 30
0.0
 11
777.628629
 21
579.957944
 31
0.0
 12
777.128629
 22
576.957944
 32
0.0
 13
777.128629
 23
576.957944
 33
0.0
  0
SOLID
  5
25E
100
AcDbEntity
  8
0
  6
BYBLOCK
 62
     4
100
AcDbTrace
 10
776.628629
 20
599.357944
 30
0.0
 11
777.628629
 21
599.357944
 31
0.0
 12
777.128629
 22
602.357944
 32
0.0
 13
777.128629
 23
602.357944
 33
0.0
  0
MTEXT
  5
25F
100
AcDbEntity
  8
0
  6
BYBLOCK
 62
     2
100
AcDbMText
 10
774.128629
 20
591.65936
 30
0.0
 40
3.0
 41
0.0
 71
     5
 72
     1
  1
\A1;25.40
 11
0.0
 21
1.0
 31
0.0
  0
POINT
  5
260
100
AcDbEntity
  8
DEFPOINTS
  6
BYBLOCK
 62
     0
100
AcDbPoint
 10
754.586529
 20
576.957944
 30
0.0
  0
POINT
  5
261
100
AcDbEntity
  8
DEFPOINTS
  6
BYBLOCK
 62
     0
100
AcDbPoint
 10
753.586529
 20
602.357944
 30
0.0
  0
POINT
  5
262
100
AcDbEntity
  8
DEFPOINTS
  6
BYBLOCK
 62
     0
100
AcDbPoint
 10
777.128629
 20
602.357944
 30
0.0
  0
ENDBLK
  5
264
100
AcDbEntity
  8
0
100
AcDbBlockEnd
  0
BLOCK
  5
1E9
100
AcDbEntity
  8
0
100
AcDbBlockBegin
  2
*D6
 70
     1
 10
0.0
 20
0.0
 30
0.0
  3
*D6
  1

  0
LINE
  5
1E0
100
AcDbEntity
  8
0
  6
BYBLOCK
 62
     4
100
AcDbLine
 10
474.968567
 20
179.279792
 30
0.0
 11
474.968567
 21
142.167644
 31
0.0
  0
LINE
  5
1E1
100
AcDbEntity
  8
0
  6
BYBLOCK
 62
     4
100
AcDbLine
 10
514.968567
 20
179.279792
 30
0.0
 11
514.968567
 21
142.167644
 31
0.0
  0
LINE
  5
1E2
100
AcDbEntity
  8
0
  6
BYBLOCK
 62
     4
100
AcDbLine
 10
477.968567
 20
144.667644
 30
0.0
 11
511.968567
 21
144.667644
 31
0.0
  0
SOLID
  5
1E3
100
AcDbEntity
  8
0
  6
BYBLOCK
 62
     4
100
AcDbTrace
 10
477.968567
 20
145.167644
 30
0.0
 11
477.968567
 21
144.167644
 31
0.0
 12
474.968567
 22
144.667644
 32
0.0
 13
474.968567
 23
144.667644
 33
0.0
  0
SOLID
  5
1E4
100
AcDbEntity
  8
0
  6
BYBLOCK
 62
     4
100
AcDbTrace
 10
511.968567
 20
145.167644
 30
0.0
 11
511.968567
 21
144.167644
 31
0.0
 12
514.968567
 22
144.667644
 32
0.0
 13
514.968567
 23
144.667644
 33
0.0
  0
MTEXT
  5
1E5
100
AcDbEntity
  8
0
  6
BYBLOCK
 62
     2
100
AcDbMText
 10
494.968567
 20
147.667644
 30
0.0
 40
3.0
 41
0.0
 71
     5
 72
     1
  1
\A1;\U+220540.00 H7
  0
POINT
  5
1E6
100
AcDbEntity
  8
DEFPOINTS
  6
BYBLOCK
 62
     0
100
AcDbPoint
 10
474.968567
 20
180.279792
 30
0.0
  0
POINT
  5
1E7
100
AcDbEntity
  8
DEFPOINTS
  6
BYBLOCK
 62
     0
100
AcDbPoint
 10
514.968567
 20
180.279792
 30
0.0
  0
POINT
  5
1E8
100
AcDbEntity
  8
DEFPOINTS
  6
BYBLOCK
 62
     0
100
AcDbPoint
 10
514.968567
 20
144.667644
 30
0.0
  0
ENDBLK
  5
1EA
100
AcDbEntity
  8
0
100
AcDbBlockEnd
  0
BLOCK
  5
1D7
100
AcDbEntity
  8
0
100
AcDbBlockBegin
  2
*D7
 70
     1
 10
0.0
 20
0.0
 30
0.0
  3
*D7
  1

  0
LINE
  5
1CE
100
AcDbEntity
  8
0
  6
BYBLOCK
 62
     4
100
AcDbLine
 10
707.341868
 20
665.747034
 30
0.0
 11
707.341868
 21
729.416679
 31
0.0
  0
LINE
  5
1CF
100
AcDbEntity
  8
0
  6
BYBLOCK
 62
     4
100
AcDbLine
 10
607.341868
 20
665.747034
 30
0.0
 11
607.341868
 21
729.416679
 31
0.0
  0
LINE
  5
1D0
100
AcDbEntity
  8
0
  6
BYBLOCK
 62
     4
100
AcDbLine
 10
704.341868
 20
726.916679
 30
0.0
 11
610.341868
 21
726.916679
 31
0.0
  0
SOLID
  5
1D1
100
AcDbEntity
  8
0
  6
BYBLOCK
 62
     4
100
AcDbTrace
 10
704.341868
 20
727.416679
 30
0.0
 11
704.341868
 21
726.416679
 31
0.0
 12
707.341868
 22
726.916679
 32
0.0
 13
707.341868
 23
726.916679
 33
0.0
  0
SOLID
  5
1D2
100
AcDbEntity
  8
0
  6
BYBLOCK
 62
     4
100
AcDbTrace
 10
610.341868
 20
727.416679
 30
0.0
 11
610.341868
 21
726.416679
 31
0.0
 12
607.341868
 22
726.916679
 32
0.0
 13
607.341868
 23
726.916679
 33
0.0
  0
MTEXT
  5
1D3
100
AcDbEntity
  8
0
  6
BYBLOCK
 62
     2
100
AcDbMText
 10
657.341868
 20
729.916679
 30
0.0
 40
3.0
 41
0.0
 71
     5
 72
     1
  1
\A1;B=100.00
  0
POINT
  5
1D4
100
AcDbEntity
  8
DEFPOINTS
  6
BYBLOCK
 62
     0
100
AcDbPoint
 10
707.341868
 20
664.747034
 30
0.0
  0
POINT
  5
1D5
100
AcDbEntity
  8
DEFPOINTS
  6
BYBLOCK
 62
     0
100
AcDbPoint
 10
607.341868
 20
664.747034
 30
0.0
  0
POINT
  5
1D6
100
AcDbEntity
  8
DEFPOINTS
  6
BYBLOCK
 62
     0
100
AcDbPoint
 10
607.341868
 20
726.916679
 30
0.0
  0
ENDBLK
  5
1D8
100
AcDbEntity
  8
0
100
AcDbBlockEnd
  0
BLOCK
  5
1CA
100
AcDbEntity
  8
0
100
AcDbBlockBegin
  2
*D8
 70
     1
 10
0.0
 20
0.0
 30
0.0
  3
*D8
  1

  0
LINE
  5
1C2
100
AcDbEntity
  8
0
  6
BYBLOCK
 62
     4
100
AcDbLine
 10
519.841868
 20
665.747034
 30
0.0
 11
519.841868
 21
729.416679
 31
0.0
  0
LINE
  5
1C3
100
AcDbEntity
  8
0
  6
BYBLOCK
 62
     4
100
AcDbLine
 10
616.841868
 20
726.916679
 30
0.0
 11
522.841868
 21
726.916679
 31
0.0
  0
SOLID
  5
1C4
100
AcDbEntity
  8
0
  6
BYBLOCK
 62
     4
100
AcDbTrace
 10
616.841868
 20
727.416679
 30
0.0
 11
616.841868
 21
726.416679
 31
0.0
 12
619.841868
 22
726.916679
 32
0.0
 13
619.841868
 23
726.916679
 33
0.0
  0
SOLID
  5
1C5
100
AcDbEntity
  8
0
  6
BYBLOCK
 62
     4
100
AcDbTrace
 10
522.841868
 20
727.416679
 30
0.0
 11
522.841868
 21
726.416679
 31
0.0
 12
519.841868
 22
726.916679
 32
0.0
 13
519.841868
 23
726.916679
 33
0.0
  0
MTEXT
  5
1C6
100
AcDbEntity
  8
0
  6
BYBLOCK
 62
     2
100
AcDbMText
 10
569.841868
 20
729.916679
 30
0.0
 40
3.0
 41
0.0
 71
     5
 72
     1
  1
\A1;D=100.00
  0
POINT
  5
1C7
100
AcDbEntity
  8
DEFPOINTS
  6
BYBLOCK
 62
     0
100
AcDbPoint
 10
619.841868
 20
664.747034
 30
0.0
  0
POINT
  5
1C8
100
AcDbEntity
  8
DEFPOINTS
  6
BYBLOCK
 62
     0
100
AcDbPoint
 10
519.841868
 20
664.747034
 30
0.0
  0
POINT
  5
1C9
100
AcDbEntity
  8
DEFPOINTS
  6
BYBLOCK
 62
     0
100
AcDbPoint
 10
519.841868
 20
726.916679
 30
0.0
  0
ENDBLK
  5
1CB
100
AcDbEntity
  8
0
100
AcDbBlockEnd
  0
BLOCK
  5
1BE
100
AcDbEntity
  8
0
100
AcDbBlockBegin
  2
*D9
 70
     1
 10
0.0
 20
0.0
 30
0.0
  3
*D9
  1

  0
LINE
  5
1B6
100
AcDbEntity
  8
0
  6
BYBLOCK
 62
     4
100
AcDbLine
 10
419.841868
 20
703.247034
 30
0.0
 11
419.841868
 21
766.916679
 31
0.0
  0
LINE
  5
1B7
100
AcDbEntity
  8
0
  6
BYBLOCK
 62
     4
100
AcDbLine
 10
516.841868
 20
764.416679
 30
0.0
 11
422.841868
 21
764.416679
 31
0.0
  0
SOLID
  5
1B8
100
AcDbEntity
  8
0
  6
BYBLOCK
 62
     4
100
AcDbTrace
 10
516.841868
 20
764.916679
 30
0.0
 11
516.841868
 21
763.916679
 31
0.0
 12
519.841868
 22
764.416679
 32
0.0
 13
519.841868
 23
764.416679
 33
0.0
  0
SOLID
  5
1B9
100
AcDbEntity
  8
0
  6
BYBLOCK
 62
     4
100
AcDbTrace
 10
422.841868
 20
764.916679
 30
0.0
 11
422.841868
 21
763.916679
 31
0.0
 12
419.841868
 22
764.416679
 32
0.0
 13
419.841868
 23
764.416679
 33
0.0
  0
MTEXT
  5
1BA
100
AcDbEntity
  8
0
  6
BYBLOCK
 62
     2
100
AcDbMText
 10
469.841868
 20
767.416679
 30
0.0
 40
3.0
 41
0.0
 71
     5
 72
     1
  1
\A1;B=100.00
  0
POINT
  5
1BB
100
AcDbEntity
  8
DEFPOINTS
  6
BYBLOCK
 62
     0
100
AcDbPoint
 10
519.841868
 20
702.247034
 30
0.0
  0
POINT
  5
1BC
100
AcDbEntity
  8
DEFPOINTS
  6
BYBLOCK
 62
     0
100
AcDbPoint
 10
419.841868
 20
702.247034
 30
0.0
  0
POINT
  5
1BD
100
AcDbEntity
  8
DEFPOINTS
  6
BYBLOCK
 62
     0
100
AcDbPoint
 10
419.841868
 20
764.416679
 30
0.0
  0
ENDBLK
  5
1BF
100
AcDbEntity
  8
0
100
AcDbBlockEnd
  0
BLOCK
  5
1B2
100
AcDbEntity
  8
0
100
AcDbBlockBegin
  2
*D10
 70
     1
 10
0.0
 20
0.0
 30
0.0
  3
*D10
  1

  0
LINE
  5
1A9
100
AcDbEntity
  8
0
  6
BYBLOCK
 62
     4
100
AcDbLine
 10
394.841868
 20
665.747034
 30
0.0
 11
394.841868
 21
739.929694
 31
0.0
  0
LINE
  5
1AA
100
AcDbEntity
  8
0
  6
BYBLOCK
 62
     4
100
AcDbLine
 10
744.841868
 20
665.747034
 30
0.0
 11
744.841868
 21
739.929694
 31
0.0
  0
LINE
  5
1AB
100
AcDbEntity
  8
0
  6
BYBLOCK
 62
     4
100
AcDbLine
 10
397.841868
 20
737.429694
 30
0.0
 11
741.841868
 21
737.429694
 31
0.0
  0
SOLID
  5
1AC
100
AcDbEntity
  8
0
  6
BYBLOCK
 62
     4
100
AcDbTrace
 10
397.841868
 20
737.929694
 30
0.0
 11
397.841868
 21
736.929694
 31
0.0
 12
394.841868
 22
737.429694
 32
0.0
 13
394.841868
 23
737.429694
 33
0.0
  0
SOLID
  5
1AD
100
AcDbEntity
  8
0
  6
BYBLOCK
 62
     4
100
AcDbTrace
 10
741.841868
 20
737.929694
 30
0.0
 11
741.841868
 21
736.929694
 31
0.0
 12
744.841868
 22
737.429694
 32
0.0
 13
744.841868
 23
737.429694
 33
0.0
  0
MTEXT
  5
1AE
100
AcDbEntity
  8
0
  6
BYBLOCK
 62
     2
100
AcDbMText
 10
569.841868
 20
740.429694
 30
0.0
 40
3.0
 41
0.0
 71
     5
 72
     1
  1
\A1;L1=350.00
  0
POINT
  5
1AF
100
AcDbEntity
  8
DEFPOINTS
  6
BYBLOCK
 62
     0
100
AcDbPoint
 10
394.841868
 20
664.747034
 30
0.0
  0
POINT
  5
1B0
100
AcDbEntity
  8
DEFPOINTS
  6
BYBLOCK
 62
     0
100
AcDbPoint
 10
744.841868
 20
664.747034
 30
0.0
  0
POINT
  5
1B1
100
AcDbEntity
  8
DEFPOINTS
  6
BYBLOCK
 62
     0
100
AcDbPoint
 10
744.841868
 20
737.429694
 30
0.0
  0
ENDBLK
  5
1B3
100
AcDbEntity
  8
0
100
AcDbBlockEnd
  0
BLOCK
  5
1A5
100
AcDbEntity
  8
0
100
AcDbBlockBegin
  2
*D11
 70
     1
 10
0.0
 20
0.0
 30
0.0
  3
*D11
  1

  0
LINE
  5
19C
100
AcDbEntity
  8
0
  6
BYBLOCK
 62
     4
100
AcDbLine
 10
737.541868
 20
682.247034
 30
0.0
 11
890.004135
 21
682.247034
 31
0.0
  0
LINE
  5
19D
100
AcDbEntity
  8
0
  6
BYBLOCK
 62
     4
100
AcDbLine
 10
737.541868
 20
582.247034
 30
0.0
 11
890.004135
 21
582.247034
 31
0.0
  0
LINE
  5
19E
100
AcDbEntity
  8
0
  6
BYBLOCK
 62
     4
100
AcDbLine
 10
887.504135
 20
679.247034
 30
0.0
 11
887.504135
 21
585.247034
 31
0.0
  0
SOLID
  5
19F
100
AcDbEntity
  8
0
  6
BYBLOCK
 62
     4
100
AcDbTrace
 10
887.004135
 20
679.247034
 30
0.0
 11
888.004135
 21
679.247034
 31
0.0
 12
887.504135
 22
682.247034
 32
0.0
 13
887.504135
 23
682.247034
 33
0.0
  0
SOLID
  5
1A0
100
AcDbEntity
  8
0
  6
BYBLOCK
 62
     4
100
AcDbTrace
 10
887.004135
 20
585.247034
 30
0.0
 11
888.004135
 21
585.247034
 31
0.0
 12
887.504135
 22
582.247034
 32
0.0
 13
887.504135
 23
582.247034
 33
0.0
  0
MTEXT
  5
1A1
100
AcDbEntity
  8
0
  6
BYBLOCK
 62
     2
100
AcDbMText
 10
884.504135
 20
632.247034
 30
0.0
 40
3.0
 41
0.0
 71
     5
 72
     1
  1
\A1;A=100.00
 11
0.0
 21
1.0
 31
0.0
  0
POINT
  5
1A2
100
AcDbEntity
  8
DEFPOINTS
  6
BYBLOCK
 62
     0
100
AcDbPoint
 10
736.541868
 20
682.247034
 30
0.0
  0
POINT
  5
1A3
100
AcDbEntity
  8
DEFPOINTS
  6
BYBLOCK
 62
     0
100
AcDbPoint
 10
736.541868
 20
582.247034
 30
0.0
  0
POINT
  5
1A4
100
AcDbEntity
  8
DEFPOINTS
  6
BYBLOCK
 62
     0
100
AcDbPoint
 10
887.504135
 20
582.247034
 30
0.0
  0
ENDBLK
  5
1A6
100
AcDbEntity
  8
0
100
AcDbBlockEnd
  0
BLOCK
  5
198
100
AcDbEntity
  8
0
100
AcDbBlockBegin
  2
*D12
 70
     1
 10
0.0
 20
0.0
 30
0.0
  3
*D12
  1

  0
LINE
  5
190
100
AcDbEntity
  8
0
  6
BYBLOCK
 62
     4
100
AcDbLine
 10
737.541868
 20
482.247034
 30
0.0
 11
890.004135
 21
482.247034
 31
0.0
  0
LINE
  5
191
100
AcDbEntity
  8
0
  6
BYBLOCK
 62
     4
100
AcDbLine
 10
887.504135
 20
579.247034
 30
0.0
 11
887.504135
 21
485.247034
 31
0.0
  0
SOLID
  5
192
100
AcDbEntity
  8
0
  6
BYBLOCK
 62
     4
100
AcDbTrace
 10
887.004135
 20
579.247034
 30
0.0
 11
888.004135
 21
579.247034
 31
0.0
 12
887.504135
 22
582.247034
 32
0.0
 13
887.504135
 23
582.247034
 33
0.0
  0
SOLID
  5
193
100
AcDbEntity
  8
0
  6
BYBLOCK
 62
     4
100
AcDbTrace
 10
887.004135
 20
485.247034
 30
0.0
 11
888.004135
 21
485.247034
 31
0.0
 12
887.504135
 22
482.247034
 32
0.0
 13
887.504135
 23
482.247034
 33
0.0
  0
MTEXT
  5
194
100
AcDbEntity
  8
0
  6
BYBLOCK
 62
     2
100
AcDbMText
 10
884.504135
 20
532.247034
 30
0.0
 40
3.0
 41
0.0
 71
     5
 72
     1
  1
\A1;C=100.00
 11
0.0
 21
1.0
 31
0.0
  0
POINT
  5
195
100
AcDbEntity
  8
DEFPOINTS
  6
BYBLOCK
 62
     0
100
AcDbPoint
 10
736.541868
 20
582.247034
 30
0.0
  0
POINT
  5
196
100
AcDbEntity
  8
DEFPOINTS
  6
BYBLOCK
 62
     0
100
AcDbPoint
 10
736.541868
 20
482.247034
 30
0.0
  0
POINT
  5
197
100
AcDbEntity
  8
DEFPOINTS
  6
BYBLOCK
 62
     0
100
AcDbPoint
 10
887.504135
 20
482.247034
 30
0.0
  0
ENDBLK
  5
199
100
AcDbEntity
  8
0
100
AcDbBlockEnd
  0
BLOCK
  5
18C
100
AcDbEntity
  8
0
100
AcDbBlockBegin
  2
*D13
 70
     1
 10
0.0
 20
0.0
 30
0.0
  3
*D13
  1

  0
LINE
  5
184
100
AcDbEntity
  8
0
  6
BYBLOCK
 62
     4
100
AcDbLine
 10
737.541868
 20
382.247034
 30
0.0
 11
890.004135
 21
382.247034
 31
0.0
  0
LINE
  5
185
100
AcDbEntity
  8
0
  6
BYBLOCK
 62
     4
100
AcDbLine
 10
887.504135
 20
479.247034
 30
0.0
 11
887.504135
 21
385.247034
 31
0.0
  0
SOLID
  5
186
100
AcDbEntity
  8
0
  6
BYBLOCK
 62
     4
100
AcDbTrace
 10
887.004135
 20
479.247034
 30
0.0
 11
888.004135
 21
479.247034
 31
0.0
 12
887.504135
 22
482.247034
 32
0.0
 13
887.504135
 23
482.247034
 33
0.0
  0
SOLID
  5
187
100
AcDbEntity
  8
0
  6
BYBLOCK
 62
     4
100
AcDbTrace
 10
887.004135
 20
385.247034
 30
0.0
 11
888.004135
 21
385.247034
 31
0.0
 12
887.504135
 22
382.247034
 32
0.0
 13
887.504135
 23
382.247034
 33
0.0
  0
MTEXT
  5
188
100
AcDbEntity
  8
0
  6
BYBLOCK
 62
     2
100
AcDbMText
 10
884.504135
 20
432.247034
 30
0.0
 40
3.0
 41
0.0
 71
     5
 72
     1
  1
\A1;A=100.00
 11
0.0
 21
1.0
 31
0.0
  0
POINT
  5
189
100
AcDbEntity
  8
DEFPOINTS
  6
BYBLOCK
 62
     0
100
AcDbPoint
 10
724.041868
 20
482.247034
 30
0.0
  0
POINT
  5
18A
100
AcDbEntity
  8
DEFPOINTS
  6
BYBLOCK
 62
     0
100
AcDbPoint
 10
736.541868
 20
382.247034
 30
0.0
  0
POINT
  5
18B
100
AcDbEntity
  8
DEFPOINTS
  6
BYBLOCK
 62
     0
100
AcDbPoint
 10
887.504135
 20
382.247034
 30
0.0
  0
ENDBLK
  5
18D
100
AcDbEntity
  8
0
100
AcDbBlockEnd
  0
BLOCK
  5
180
100
AcDbEntity
  8
0
100
AcDbBlockBegin
  2
*D14
 70
     1
 10
0.0
 20
0.0
 30
0.0
  3
*D14
  1

  0
LINE
  5
177
100
AcDbEntity
  8
0
  6
BYBLOCK
 62
     4
100
AcDbLine
 10
733.841868
 20
350.247034
 30
0.0
 11
899.581488
 21
350.247034
 31
0.0
  0
LINE
  5
178
100
AcDbEntity
  8
0
  6
BYBLOCK
 62
     4
100
AcDbLine
 10
733.841868
 20
714.247034
 30
0.0
 11
899.581488
 21
714.247034
 31
0.0
  0
LINE
  5
179
100
AcDbEntity
  8
0
  6
BYBLOCK
 62
     4
100
AcDbLine
 10
897.081488
 20
353.247034
 30
0.0
 11
897.081488
 21
711.247034
 31
0.0
  0
SOLID
  5
17A
100
AcDbEntity
  8
0
  6
BYBLOCK
 62
     4
100
AcDbTrace
 10
896.581488
 20
353.247034
 30
0.0
 11
897.581488
 21
353.247034
 31
0.0
 12
897.081488
 22
350.247034
 32
0.0
 13
897.081488
 23
350.247034
 33
0.0
  0
SOLID
  5
17B
100
AcDbEntity
  8
0
  6
BYBLOCK
 62
     4
100
AcDbTrace
 10
896.581488
 20
711.247034
 30
0.0
 11
897.581488
 21
711.247034
 31
0.0
 12
897.081488
 22
714.247034
 32
0.0
 13
897.081488
 23
714.247034
 33
0.0
  0
MTEXT
  5
17C
100
AcDbEntity
  8
0
  6
BYBLOCK
 62
     2
100
AcDbMText
 10
894.081488
 20
532.247034
 30
0.0
 40
3.0
 41
0.0
 71
     5
 72
     1
  1
\A1;L=364.00
 11
0.0
 21
1.0
 31
0.0
  0
POINT
  5
17D
100
AcDbEntity
  8
DEFPOINTS
  6
BYBLOCK
 62
     0
100
AcDbPoint
 10
732.841868
 20
350.247034
 30
0.0
  0
POINT
  5
17E
100
AcDbEntity
  8
DEFPOINTS
  6
BYBLOCK
 62
     0
100
AcDbPoint
 10
732.841868
 20
714.247034
 30
0.0
  0
POINT
  5
17F
100
AcDbEntity
  8
DEFPOINTS
  6
BYBLOCK
 62
     0
100
AcDbPoint
 10
897.081488
 20
714.247034
 30
0.0
  0
ENDBLK
  5
181
100
AcDbEntity
  8
0
100
AcDbBlockEnd
  0
BLOCK
  5
B4
100
AcDbEntity
  8
0
100
AcDbBlockBegin
  2
*D15
 70
     1
 10
0.0
 20
0.0
 30
0.0
  3
*D15
  1

  0
LINE
  5
AB
100
AcDbEntity
  8
0
  6
BYBLOCK
 62
     4
100
AcDbLine
 10
433.341868
 20
256.610727
 30
0.0
 11
397.506515
 21
256.610727
 31
0.0
  0
LINE
  5
AC
100
AcDbEntity
  8
0
  6
BYBLOCK
 62
     4
100
AcDbLine
 10
433.341868
 20
209.610727
 30
0.0
 11
397.506515
 21
209.610727
 31
0.0
  0
LINE
  5
AD
100
AcDbEntity
  8
0
  6
BYBLOCK
 62
     4
100
AcDbLine
 10
400.006515
 20
253.610727
 30
0.0
 11
400.006515
 21
212.610727
 31
0.0
  0
SOLID
  5
AE
100
AcDbEntity
  8
0
  6
BYBLOCK
 62
     4
100
AcDbTrace
 10
399.506515
 20
253.610727
 30
0.0
 11
400.506515
 21
253.610727
 31
0.0
 12
400.006515
 22
256.610727
 32
0.0
 13
400.006515
 23
256.610727
 33
0.0
  0
SOLID
  5
AF
100
AcDbEntity
  8
0
  6
BYBLOCK
 62
     4
100
AcDbTrace
 10
399.506515
 20
212.610727
 30
0.0
 11
400.506515
 21
212.610727
 31
0.0
 12
400.006515
 22
209.610727
 32
0.0
 13
400.006515
 23
209.610727
 33
0.0
  0
MTEXT
  5
B0
100
AcDbEntity
  8
0
  6
BYBLOCK
 62
     2
100
AcDbMText
 10
397.006515
 20
233.110727
 30
0.0
 40
3.0
 41
0.0
 71
     5
 72
     1
  1
\A1;47.00
 11
0.0
 21
1.0
 31
0.0
  0
POINT
  5
B1
100
AcDbEntity
  8
DEFPOINTS
  6
BYBLOCK
 62
     0
100
AcDbPoint
 10
434.341868
 20
256.610727
 30
0.0
  0
POINT
  5
B2
100
AcDbEntity
  8
DEFPOINTS
  6
BYBLOCK
 62
     0
100
AcDbPoint
 10
434.341868
 20
209.610727
 30
0.0
  0
POINT
  5
B3
100
AcDbEntity
  8
DEFPOINTS
  6
BYBLOCK
 62
     0
100
AcDbPoint
 10
400.006515
 20
209.610727
 30
0.0
  0
ENDBLK
  5
B5
100
AcDbEntity
  8
0
100
AcDbBlockEnd
  0
ENDSEC
  0
SECTION
  2
ENTITIES
  0
HATCH
  5
20
100
AcDbEntity
  8
HATCH
100
AcDbHatch
 10
0.0
 20
0.0
 30
0.0
210
0.0
220
0.0
230
1.0
  2
_U
 70
     0
 71
     1
 91
       11
 92
        7
 72
     1
 73
     1
 93
        6
 10
491.8418684629997
 20
229.5837624368931
 42
0.0
 10
423.841868463
 20
229.5837624368932
 42
0.0
 10
423.841868463
 20
206.0837624368933
 42
0.0
 10
465.841868463
 20
206.0837624368933
 42
-1.0
 10
473.841868463
 20
206.0837624368933
 42
0.0
 10
491.8418684629998
 20
206.0837624368934
 42
0.0
 97
        5
330
630
330
614
330
615
330
257
330
2CA
 92
        7
 72
     1
 73
     1
 93
       10
 10
491.8418684629998
 20
206.0837624368934
 42
0.0
 10
473.841868463
 20
206.0837624368934
 42
-1.0
 10
465.841868463
 20
206.0837624368933
 42
0.0
 10
423.841868463
 20
206.0837624368933
 42
-0.4142135623730992
 10
419.841868463
 20
202.0837624368934
 42
0.0
 10
419.841868463
 20
183.5837624368929
 42
0.0
 10
433.1418684629998
 20
183.5837624368928
 42
0.0
 10
433.8418684629998
 20
182.883762436893
 42
0.0
 10
433.8418684629998
 20
182.5837624368933
 42
0.0
 10
491.8418684629998
 20
182.5837624368932
 42
0.0
 97
        9
330
615
330
257
330
2BC
330
616
330
4B5
330
4AC
330
4AD
330
61E
330
2CA
 92
        7
 72
     1
 73
     1
 93
       16
 10
419.841868463
 20
202.0837624368934
 42
-0.4142135623730909
 10
415.841868463
 20
206.0837624368933
 42
0.0
 10
415.841868463
 20
229.5837624368932
 42
0.0
 10
407.8418684629999
 20
229.5837624368932
 42
0.0
 10
407.841868463
 20
225.5837624368934
 42
-1.0
 10
399.841868463
 20
225.5837624368934
 42
0.0
 10
399.841868463
 20
229.5837624368932
 42
0.0
 10
396.8418684630001
 20
229.5837624368932
 42
0.0
 10
394.8418684630001
 20
227.5837624368933
 42
0.0
 10
394.841868463
 20
184.5837624368934
 42
0.0
 10
396.8418684630002
 20
182.5837624368934
 42
0.0
 10
399.841868463
 20
182.5837624368934
 42
0.0
 10
399.841868463
 20
186.5837624368934
 42
-1.0
 10
407.841868463
 20
186.5837624368933
 42
0.0
 10
407.8418684629999
 20
183.5837624368929
 42
0.0
 10
419.841868463
 20
183.5837624368928
 42
0.0
 97
       15
330
2BC
330
613
330
630
330
4C7
330
4C9
330
4C6
330
642
330
644
330
63F
330
61E
330
4C4
330
4C8
330
4C5
330
4B5
330
616
 92
        7
 72
     0
 73
     1
 93
        4
 10
411.6829864755429
 20
182.8837624368929
 10
407.8418684629999
 20
182.8837624368929
 10
407.8418684629999
 20
182.5837624368933
 10
411.9829864755426
 20
182.5837624368933
 97
        4
330
4AB
330
4C5
330
61E
330
4A3
 92
       22
 72
     0
 73
     1
 93
        4
 10
410.9829864755425
 20
183.5837624368929
 10
407.8418684629999
 20
183.5837624368929
 10
407.8418684629999
 20
182.8837624368929
 10
411.6829864755427
 20
182.8837624368929
 97
        4
330
4B5
330
4C5
330
4AB
330
498
 92
       22
 72
     0
 73
     1
 93
        4
 10
419.841868463
 20
183.5837624368929
 10
410.9829864755426
 20
183.5837624368929
 10
411.6829864755427
 20
182.8837624368929
 10
419.841868463
 20
182.8837624368929
 97
        4
330
4B5
330
498
330
4AB
330
616
 92
        7
 72
     0
 73
     1
 93
        4
 10
419.841868463
 20
182.8837624368929
 10
411.6829864755429
 20
182.8837624368929
 10
411.9829864755424
 20
182.5837624368933
 10
419.841868463
 20
182.5837624368933
 97
        4
330
4AB
330
4A3
330
61E
330
616
 92
       23
 72
     0
 73
     1
 93
        4
 10
428.7007504504569
 20
183.5837624368929
 10
419.841868463
 20
183.5837624368929
 10
419.841868463
 20
182.8837624368929
 10
428.0007504504568
 20
182.8837624368929
 97
        4
330
4B5
330
616
330
4AB
330
499
 92
       23
 72
     0
 73
     1
 93
        4
 10
428.0007504504568
 20
182.8837624368929
 10
419.841868463
 20
182.8837624368929
 10
419.841868463
 20
182.5837624368933
 10
427.7007504504572
 20
182.5837624368933
 97
        4
330
4AB
330
616
330
61E
330
4A5
 92
       22
 72
     0
 73
     1
 93
        4
 10
433.1418684629997
 20
183.5837624368929
 10
428.7007504504568
 20
183.5837624368929
 10
428.0007504504568
 20
182.8837624368929
 10
433.8418684629999
 20
182.883762436893
 97
        4
330
4B5
330
499
330
4AB
330
4AC
 92
       22
 72
     0
 73
     1
 93
        4
 10
433.8418684629997
 20
182.8837624368929
 10
428.0007504504568
 20
182.8837624368929
 10
427.7007504504572
 20
182.5837624368933
 10
433.8418684629998
 20
182.5837624368933
 97
        4
330
4AB
330
4A5
330
61E
330
4AD
 75
     0
 76
     0
 52
135.0
 41
6.0
 77
     0
 78
     1
 53
135.0
 43
0.0
 44
0.0
 45
-4.242640687119285
 46
-4.242640687119284
 79
     0
 47
0.030096
 98
       11
 10
479.29953
 20
220.686316
 10
456.729731
 20
196.016879
 10
411.168265
 20
195.384329
 10
409.879515
 20
182.749352
 10
409.96984
 20
183.050315
 10
412.920433
 20
183.110507
 10
412.830108
 20
182.809545
 10
420.688321
 20
183.230894
 10
420.537779
 20
182.719255
 10
430.50356
 20
183.260988
 10
429.871291
 20
182.719255
  0
LINE
  5
21
100
AcDbEntity
  8
M01
100
AcDbLine
 10
706.841868
 20
350.247034
 30
0.0
 11
694.841868
 21
362.247034
 31
0.0
  0
ARC
  5
23
100
AcDbEntity
  8
M01
100
AcDbCircle
 10
682.841868
 20
385.247034
 30
0.0
 40
12.0
100
AcDbArc
 50
360.0
 51
90.0
  0
LINE
  5
24
100
AcDbEntity
  8
M01
100
AcDbLine
 10
694.841868
 20
385.247034
 30
0.0
 11
694.841868
 21
362.247034
 31
0.0
  0
ARC
  5
25
100
AcDbEntity
  8
M01
100
AcDbCircle
 10
656.841868
 20
385.247034
 30
0.0
 40
12.0
100
AcDbArc
 50
90.0
 51
180.0
  0
LINE
  5
26
100
AcDbEntity
  8
M01
100
AcDbLine
 10
644.841868
 20
385.247034
 30
0.0
 11
644.841868
 21
362.247034
 31
0.0
  0
LINE
  5
27
100
AcDbEntity
  8
M01
100
AcDbLine
 10
682.841868
 20
397.247034
 30
0.0
 11
656.841868
 21
397.247034
 31
0.0
  0
LINE
  5
28
100
AcDbEntity
  8
DIMS
 62
     4
100
AcDbLine
 10
669.841868
 20
375.847034
 30
0.0
 11
669.841868
 21
371.047034
 31
0.0
  0
LINE
  5
2A
100
AcDbEntity
  8
DIMS
 62
     4
100
AcDbLine
 10
669.841868
 20
382.647034
 30
0.0
 11
669.841868
 21
387.447034
 31
0.0
  0
LINE
  5
2B
100
AcDbEntity
  8
DIMS
 62
     4
100
AcDbLine
 10
666.441868
 20
379.247034
 30
0.0
 11
661.641868
 21
379.247034
 31
0.0
  0
LINE
  5
2C
100
AcDbEntity
  8
DIMS
 62
     4
100
AcDbLine
 10
673.241868
 20
379.247034
 30
0.0
 11
678.041868
 21
379.247034
 31
0.0
  0
LINE
  5
2D
100
AcDbEntity
  8
DIMS
 62
     4
100
AcDbLine
 10
669.841868
 20
380.947034
 30
0.0
 11
669.841868
 21
377.547034
 31
0.0
  0
LINE
  5
2E
100
AcDbEntity
  8
DIMS
 62
     4
100
AcDbLine
 10
671.541868
 20
379.247034
 30
0.0
 11
668.141868
 21
379.247034
 31
0.0
  0
CIRCLE
  5
2F
100
AcDbEntity
  8
M04
100
AcDbCircle
 10
669.841868
 20
379.247034
 30
0.0
 40
6.5
  0
LINE
  5
31
100
AcDbEntity
  8
DIMS
 62
     4
100
AcDbLine
 10
469.841868
 20
375.847034
 30
0.0
 11
469.841868
 21
371.047034
 31
0.0
  0
LINE
  5
32
100
AcDbEntity
  8
DIMS
 62
     4
100
AcDbLine
 10
469.841868
 20
382.647034
 30
0.0
 11
469.841868
 21
387.447034
 31
0.0
  0
LINE
  5
33
100
AcDbEntity
  8
DIMS
 62
     4
100
AcDbLine
 10
473.241868
 20
379.247034
 30
0.0
 11
478.041868
 21
379.247034
 31
0.0
  0
LINE
  5
34
100
AcDbEntity
  8
DIMS
 62
     4
100
AcDbLine
 10
466.441868
 20
379.247034
 30
0.0
 11
461.641868
 21
379.247034
 31
0.0
  0
LINE
  5
35
100
AcDbEntity
  8
DIMS
 62
     4
100
AcDbLine
 10
469.841868
 20
380.947034
 30
0.0
 11
469.841868
 21
377.547034
 31
0.0
  0
LINE
  5
36
100
AcDbEntity
  8
DIMS
 62
     4
100
AcDbLine
 10
468.141868
 20
379.247034
 30
0.0
 11
471.541868
 21
379.247034
 31
0.0
  0
CIRCLE
  5
37
100
AcDbEntity
  8
M04
100
AcDbCircle
 10
469.841868
 20
379.247034
 30
0.0
 40
6.5
  0
LINE
  5
38
100
AcDbEntity
  8
DIMS
 62
     4
100
AcDbLine
 10
573.241868
 20
477.247034
 30
0.0
 11
578.041868
 21
477.247034
 31
0.0
  0
LINE
  5
39
100
AcDbEntity
  8
DIMS
 62
     4
100
AcDbLine
 10
566.441868
 20
477.247034
 30
0.0
 11
561.641868
 21
477.247034
 31
0.0
  0
LINE
  5
3A
100
AcDbEntity
  8
DIMS
 62
     4
100
AcDbLine
 10
568.141868
 20
477.247034
 30
0.0
 11
571.541868
 21
477.247034
 31
0.0
  0
CIRCLE
  5
3B
100
AcDbEntity
  8
M04
100
AcDbCircle
 10
569.841868
 20
477.247034
 30
0.0
 40
6.5
  0
LINE
  5
3C
100
AcDbEntity
  8
DIMS
 62
     4
100
AcDbLine
 10
573.241868
 20
382.247034
 30
0.0
 11
578.041868
 21
382.247034
 31
0.0
  0
LINE
  5
3D
100
AcDbEntity
  8
DIMS
 62
     4
100
AcDbLine
 10
566.441868
 20
382.247034
 30
0.0
 11
561.641868
 21
382.247034
 31
0.0
  0
LINE
  5
3E
100
AcDbEntity
  8
DIMS
 62
     4
100
AcDbLine
 10
568.141868
 20
382.247034
 30
0.0
 11
571.541868
 21
382.247034
 31
0.0
  0
CIRCLE
  5
3F
100
AcDbEntity
  8
M04
100
AcDbCircle
 10
569.841868
 20
382.247034
 30
0.0
 40
6.5
  0
LINE
  5
40
100
AcDbEntity
  8
M04
100
AcDbLine
 10
658.841868
 20
390.247034
 30
0.0
 11
651.841868
 21
383.247034
 31
0.0
  0
LINE
  5
41
100
AcDbEntity
  8
M04
100
AcDbLine
 10
687.841868
 20
383.247034
 30
0.0
 11
680.841868
 21
390.247034
 31
0.0
  0
ARC
  5
42
100
AcDbEntity
  8
M04
100
AcDbCircle
 10
636.841868
 20
358.247034
 30
0.0
 40
15.0
100
AcDbArc
 50
270.0
 51
0.0
  0
ARC
  5
43
100
AcDbEntity
  8
M04
100
AcDbCircle
 10
702.841868
 20
358.247034
 30
0.0
 40
15.0
100
AcDbArc
 50
180.0
 51
270.0
  0
LINE
  5
44
100
AcDbEntity
  8
M04
100
AcDbLine
 10
651.841868
 20
383.247034
 30
0.0
 11
651.841868
 21
358.247034
 31
0.0
  0
LINE
  5
45
100
AcDbEntity
  8
M04
100
AcDbLine
 10
687.841868
 20
383.247034
 30
0.0
 11
687.841868
 21
358.247034
 31
0.0
  0
LINE
  5
46
100
AcDbEntity
  8
M04
100
AcDbLine
 10
680.841868
 20
390.247034
 30
0.0
 11
658.841868
 21
390.247034
 31
0.0
  0
LINE
  5
47
100
AcDbEntity
  8
M01
100
AcDbLine
 10
632.841868
 20
350.247034
 30
0.0
 11
644.841868
 21
362.247034
 31
0.0
  0
LINE
  5
48
100
AcDbEntity
  8
M04
100
AcDbLine
 10
580.841868
 20
490.247034
 30
0.0
 11
587.841868
 21
483.247034
 31
0.0
  0
LINE
  5
49
100
AcDbEntity
  8
M04
100
AcDbLine
 10
551.841868
 20
483.247034
 30
0.0
 11
558.841868
 21
490.247034
 31
0.0
  0
LINE
  5
4A
100
AcDbEntity
  8
M04
100
AcDbLine
 10
480.841868
 20
390.247034
 30
0.0
 11
487.841868
 21
383.247034
 31
0.0
  0
LINE
  5
4B
100
AcDbEntity
  8
M04
100
AcDbLine
 10
451.841868
 20
383.247034
 30
0.0
 11
458.841868
 21
390.247034
 31
0.0
  0
ARC
  5
4C
100
AcDbEntity
  8
M04
100
AcDbCircle
 10
502.841868
 20
358.247034
 30
0.0
 40
15.0
100
AcDbArc
 50
180.0
 51
270.0
  0
ARC
  5
4D
100
AcDbEntity
  8
M04
100
AcDbCircle
 10
436.841868
 20
358.247034
 30
0.0
 40
15.0
100
AcDbArc
 50
270.0
 51
0.0
  0
LINE
  5
4E
100
AcDbEntity
  8
M04
100
AcDbLine
 10
558.841868
 20
490.247034
 30
0.0
 11
580.841868
 21
490.247034
 31
0.0
  0
LINE
  5
4F
100
AcDbEntity
  8
M04
100
AcDbLine
 10
487.841868
 20
383.247034
 30
0.0
 11
487.841868
 21
358.247034
 31
0.0
  0
LINE
  5
50
100
AcDbEntity
  8
M04
100
AcDbLine
 10
451.841868
 20
383.247034
 30
0.0
 11
451.841868
 21
358.247034
 31
0.0
  0
LINE
  5
51
100
AcDbEntity
  8
M04
100
AcDbLine
 10
458.841868
 20
390.247034
 30
0.0
 11
480.841868
 21
390.247034
 31
0.0
  0
ARC
  5
52
100
AcDbEntity
  8
M01
100
AcDbCircle
 10
456.841868
 20
385.247034
 30
0.0
 40
12.0
100
AcDbArc
 50
90.0
 51
180.0
  0
LINE
  5
53
100
AcDbEntity
  8
M01
100
AcDbLine
 10
444.841868
 20
385.247034
 30
0.0
 11
444.841868
 21
362.247034
 31
0.0
  0
LINE
  5
54
100
AcDbEntity
  8
M01
100
AcDbLine
 10
432.841868
 20
350.247034
 30
0.0
 11
444.841868
 21
362.247034
 31
0.0
  0
ARC
  5
55
100
AcDbEntity
  8
M01
100
AcDbCircle
 10
482.841868
 20
385.247034
 30
0.0
 40
12.0
100
AcDbArc
 50
360.0
 51
90.0
  0
LINE
  5
56
100
AcDbEntity
  8
M01
100
AcDbLine
 10
494.841868
 20
385.247034
 30
0.0
 11
494.841868
 21
362.247034
 31
0.0
  0
ARC
  5
57
100
AcDbEntity
  8
M01
100
AcDbCircle
 10
582.841868
 20
485.247034
 30
0.0
 40
12.0
100
AcDbArc
 50
0.0
 51
90.0
  0
ARC
  5
58
100
AcDbEntity
  8
M01
100
AcDbCircle
 10
556.841868
 20
485.247034
 30
0.0
 40
12.0
100
AcDbArc
 50
90.0
 51
180.0
  0
LINE
  5
59
100
AcDbEntity
  8
M01
100
AcDbLine
 10
556.841868
 20
497.247034
 30
0.0
 11
582.841868
 21
497.247034
 31
0.0
  0
LINE
  5
5A
100
AcDbEntity
  8
M01
100
AcDbLine
 10
456.841868
 20
397.247034
 30
0.0
 11
482.841868
 21
397.247034
 31
0.0
  0
ARC
  5
5B
100
AcDbEntity
  8
M04
100
AcDbCircle
 10
602.841868
 20
358.247034
 30
0.0
 40
15.0
100
AcDbArc
 50
180.0
 51
270.0
  0
ARC
  5
5C
100
AcDbEntity
  8
M04
100
AcDbCircle
 10
536.841868
 20
358.247034
 30
0.0
 40
15.0
100
AcDbArc
 50
270.0
 51
360.0
  0
LINE
  5
5D
100
AcDbEntity
  8
M04
100
AcDbLine
 10
587.841868
 20
483.247034
 30
0.0
 11
587.841868
 21
358.247034
 31
0.0
  0
LINE
  5
5E
100
AcDbEntity
  8
M04
100
AcDbLine
 10
551.841868
 20
483.247034
 30
0.0
 11
551.841868
 21
358.247034
 31
0.0
  0
LINE
  5
5F
100
AcDbEntity
  8
M01
100
AcDbLine
 10
594.841868
 20
485.247034
 30
0.0
 11
594.841868
 21
362.247034
 31
0.0
  0
LINE
  5
60
100
AcDbEntity
  8
M01
100
AcDbLine
 10
544.841868
 20
485.247034
 30
0.0
 11
544.841868
 21
362.247034
 31
0.0
  0
LINE
  5
61
100
AcDbEntity
  8
M01
100
AcDbLine
 10
594.841868
 20
362.247034
 30
0.0
 11
606.841868
 21
350.247034
 31
0.0
  0
LINE
  5
62
100
AcDbEntity
  8
M01
100
AcDbLine
 10
506.841868
 20
350.247034
 30
0.0
 11
494.841868
 21
362.247034
 31
0.0
  0
LINE
  5
63
100
AcDbEntity
  8
M01
100
AcDbLine
 10
544.841868
 20
362.247034
 30
0.0
 11
532.841868
 21
350.247034
 31
0.0
  0
LINE
  5
64
100
AcDbEntity
  8
DIMS
 62
     4
100
AcDbLine
 10
669.841868
 20
688.647034
 30
0.0
 11
669.841868
 21
693.447034
 31
0.0
  0
LINE
  5
65
100
AcDbEntity
  8
DIMS
 62
     4
100
AcDbLine
 10
669.841868
 20
681.847034
 30
0.0
 11
669.841868
 21
677.047034
 31
0.0
  0
LINE
  5
66
100
AcDbEntity
  8
DIMS
 62
     4
100
AcDbLine
 10
666.441868
 20
685.247034
 30
0.0
 11
661.641868
 21
685.247034
 31
0.0
  0
LINE
  5
67
100
AcDbEntity
  8
DIMS
 62
     4
100
AcDbLine
 10
673.241868
 20
685.247034
 30
0.0
 11
678.041868
 21
685.247034
 31
0.0
  0
LINE
  5
68
100
AcDbEntity
  8
DIMS
 62
     4
100
AcDbLine
 10
669.841868
 20
683.547034
 30
0.0
 11
669.841868
 21
686.947034
 31
0.0
  0
LINE
  5
69
100
AcDbEntity
  8
DIMS
 62
     4
100
AcDbLine
 10
671.541868
 20
685.247034
 30
0.0
 11
668.141868
 21
685.247034
 31
0.0
  0
CIRCLE
  5
6A
100
AcDbEntity
  8
M04
100
AcDbCircle
 10
669.841868
 20
685.247034
 30
0.0
 40
6.5
  0
LINE
  5
6B
100
AcDbEntity
  8
DIMS
 62
     4
100
AcDbLine
 10
469.841868
 20
688.647034
 30
0.0
 11
469.841868
 21
693.447034
 31
0.0
  0
LINE
  5
6C
100
AcDbEntity
  8
DIMS
 62
     4
100
AcDbLine
 10
469.841868
 20
681.847034
 30
0.0
 11
469.841868
 21
677.047034
 31
0.0
  0
LINE
  5
6D
100
AcDbEntity
  8
DIMS
 62
     4
100
AcDbLine
 10
473.241868
 20
685.247034
 30
0.0
 11
478.041868
 21
685.247034
 31
0.0
  0
LINE
  5
6E
100
AcDbEntity
  8
DIMS
 62
     4
100
AcDbLine
 10
466.441868
 20
685.247034
 30
0.0
 11
461.641868
 21
685.247034
 31
0.0
  0
LINE
  5
6F
100
AcDbEntity
  8
DIMS
 62
     4
100
AcDbLine
 10
469.841868
 20
683.547034
 30
0.0
 11
469.841868
 21
686.947034
 31
0.0
  0
LINE
  5
70
100
AcDbEntity
  8
DIMS
 62
     4
100
AcDbLine
 10
468.141868
 20
685.247034
 30
0.0
 11
471.541868
 21
685.247034
 31
0.0
  0
CIRCLE
  5
71
100
AcDbEntity
  8
M04
100
AcDbCircle
 10
469.841868
 20
685.247034
 30
0.0
 40
6.5
  0
LINE
  5
72
100
AcDbEntity
  8
DIMS
 62
     4
100
AcDbLine
 10
573.241868
 20
587.247034
 30
0.0
 11
578.041868
 21
587.247034
 31
0.0
  0
LINE
  5
73
100
AcDbEntity
  8
DIMS
 62
     4
100
AcDbLine
 10
566.441868
 20
587.247034
 30
0.0
 11
561.641868
 21
587.247034
 31
0.0
  0
LINE
  5
74
100
AcDbEntity
  8
DIMS
 62
     4
100
AcDbLine
 10
568.141868
 20
587.247034
 30
0.0
 11
571.541868
 21
587.247034
 31
0.0
  0
CIRCLE
  5
75
100
AcDbEntity
  8
M04
100
AcDbCircle
 10
569.841868
 20
587.247034
 30
0.0
 40
6.5
  0
LINE
  5
76
100
AcDbEntity
  8
DIMS
 62
     4
100
AcDbLine
 10
573.241868
 20
682.247034
 30
0.0
 11
578.041868
 21
682.247034
 31
0.0
  0
LINE
  5
77
100
AcDbEntity
  8
DIMS
 62
     4
100
AcDbLine
 10
566.441868
 20
682.247034
 30
0.0
 11
561.641868
 21
682.247034
 31
0.0
  0
LINE
  5
78
100
AcDbEntity
  8
DIMS
 62
     4
100
AcDbLine
 10
568.141868
 20
682.247034
 30
0.0
 11
571.541868
 21
682.247034
 31
0.0
  0
CIRCLE
  5
79
100
AcDbEntity
  8
M04
100
AcDbCircle
 10
569.841868
 20
682.247034
 30
0.0
 40
6.5
  0
LINE
  5
7A
100
AcDbEntity
  8
M04
100
AcDbLine
 10
658.841868
 20
674.247034
 30
0.0
 11
651.841868
 21
681.247034
 31
0.0
  0
LINE
  5
7B
100
AcDbEntity
  8
M04
100
AcDbLine
 10
687.841868
 20
681.247034
 30
0.0
 11
680.841868
 21
674.247034
 31
0.0
  0
ARC
  5
7C
100
AcDbEntity
  8
M04
100
AcDbCircle
 10
636.841868
 20
706.247034
 30
0.0
 40
15.0
100
AcDbArc
 50
360.0
 51
90.0
  0
ARC
  5
7D
100
AcDbEntity
  8
M04
100
AcDbCircle
 10
702.841868
 20
706.247034
 30
0.0
 40
15.0
100
AcDbArc
 50
90.0
 51
180.0
  0
LINE
  5
7E
100
AcDbEntity
  8
M04
100
AcDbLine
 10
651.841868
 20
681.247034
 30
0.0
 11
651.841868
 21
706.247034
 31
0.0
  0
LINE
  5
7F
100
AcDbEntity
  8
M04
100
AcDbLine
 10
687.841868
 20
681.247034
 30
0.0
 11
687.841868
 21
706.247034
 31
0.0
  0
LINE
  5
80
100
AcDbEntity
  8
M04
100
AcDbLine
 10
680.841868
 20
674.247034
 30
0.0
 11
658.841868
 21
674.247034
 31
0.0
  0
ARC
  5
81
100
AcDbEntity
  8
M01
100
AcDbCircle
 10
682.841868
 20
679.247034
 30
0.0
 40
12.0
100
AcDbArc
 50
270.0
 51
0.0
  0
LINE
  5
82
100
AcDbEntity
  8
M01
100
AcDbLine
 10
694.841868
 20
679.247034
 30
0.0
 11
694.841868
 21
702.247034
 31
0.0
  0
LINE
  5
83
100
AcDbEntity
  8
M01
100
AcDbLine
 10
706.841868
 20
714.247034
 30
0.0
 11
694.841868
 21
702.247034
 31
0.0
  0
ARC
  5
84
100
AcDbEntity
  8
M01
100
AcDbCircle
 10
656.841868
 20
679.247034
 30
0.0
 40
12.0
100
AcDbArc
 50
180.0
 51
270.0
  0
LINE
  5
85
100
AcDbEntity
  8
M01
100
AcDbLine
 10
644.841868
 20
679.247034
 30
0.0
 11
644.841868
 21
702.247034
 31
0.0
  0
LINE
  5
86
100
AcDbEntity
  8
M01
100
AcDbLine
 10
682.841868
 20
667.247034
 30
0.0
 11
656.841868
 21
667.247034
 31
0.0
  0
LINE
  5
87
100
AcDbEntity
  8
M01
100
AcDbLine
 10
632.841868
 20
714.247034
 30
0.0
 11
644.841868
 21
702.247034
 31
0.0
  0
LINE
  5
88
100
AcDbEntity
  8
M04
100
AcDbLine
 10
580.841868
 20
574.247034
 30
0.0
 11
587.841868
 21
581.247034
 31
0.0
  0
LINE
  5
89
100
AcDbEntity
  8
M04
100
AcDbLine
 10
551.841868
 20
581.247034
 30
0.0
 11
558.841868
 21
574.247034
 31
0.0
  0
LINE
  5
8A
100
AcDbEntity
  8
M04
100
AcDbLine
 10
480.841868
 20
674.247034
 30
0.0
 11
487.841868
 21
681.247034
 31
0.0
  0
LINE
  5
8B
100
AcDbEntity
  8
M04
100
AcDbLine
 10
451.841868
 20
681.247034
 30
0.0
 11
458.841868
 21
674.247034
 31
0.0
  0
ARC
  5
8C
100
AcDbEntity
  8
M04
100
AcDbCircle
 10
502.841868
 20
706.247034
 30
0.0
 40
15.0
100
AcDbArc
 50
90.0
 51
180.0
  0
ARC
  5
8D
100
AcDbEntity
  8
M04
100
AcDbCircle
 10
436.841868
 20
706.247034
 30
0.0
 40
15.0
100
AcDbArc
 50
360.0
 51
90.0
  0
LINE
  5
8E
100
AcDbEntity
  8
M04
100
AcDbLine
 10
558.841868
 20
574.247034
 30
0.0
 11
580.841868
 21
574.247034
 31
0.0
  0
LINE
  5
8F
100
AcDbEntity
  8
M04
100
AcDbLine
 10
487.841868
 20
681.247034
 30
0.0
 11
487.841868
 21
706.247034
 31
0.0
  0
LINE
  5
90
100
AcDbEntity
  8
M04
100
AcDbLine
 10
451.841868
 20
681.247034
 30
0.0
 11
451.841868
 21
706.247034
 31
0.0
  0
LINE
  5
91
100
AcDbEntity
  8
M04
100
AcDbLine
 10
458.841868
 20
674.247034
 30
0.0
 11
480.841868
 21
674.247034
 31
0.0
  0
ARC
  5
92
100
AcDbEntity
  8
M01
100
AcDbCircle
 10
456.841868
 20
679.247034
 30
0.0
 40
12.0
100
AcDbArc
 50
180.0
 51
270.0
  0
LINE
  5
93
100
AcDbEntity
  8
M01
100
AcDbLine
 10
444.841868
 20
679.247034
 30
0.0
 11
444.841868
 21
702.247034
 31
0.0
  0
LINE
  5
94
100
AcDbEntity
  8
M01
100
AcDbLine
 10
432.841868
 20
714.247034
 30
0.0
 11
444.841868
 21
702.247034
 31
0.0
  0
ARC
  5
95
100
AcDbEntity
  8
M01
100
AcDbCircle
 10
482.841868
 20
679.247034
 30
0.0
 40
12.0
100
AcDbArc
 50
270.0
 51
0.0
  0
LINE
  5
96
100
AcDbEntity
  8
M01
100
AcDbLine
 10
494.841868
 20
679.247034
 30
0.0
 11
494.841868
 21
702.247034
 31
0.0
  0
ARC
  5
97
100
AcDbEntity
  8
M01
100
AcDbCircle
 10
582.841868
 20
579.247034
 30
0.0
 40
12.0
100
AcDbArc
 50
270.0
 51
0.0
  0
ARC
  5
98
100
AcDbEntity
  8
M01
100
AcDbCircle
 10
556.841868
 20
579.247034
 30
0.0
 40
12.0
100
AcDbArc
 50
180.0
 51
270.0
  0
LINE
  5
99
100
AcDbEntity
  8
M01
100
AcDbLine
 10
556.841868
 20
567.247034
 30
0.0
 11
582.841868
 21
567.247034
 31
0.0
  0
LINE
  5
9A
100
AcDbEntity
  8
M01
100
AcDbLine
 10
456.841868
 20
667.247034
 30
0.0
 11
482.841868
 21
667.247034
 31
0.0
  0
HATCH
  5
9B
100
AcDbEntity
  8
HATCH
100
AcDbHatch
 10
0.0
 20
0.0
 30
0.0
210
0.0
220
0.0
230
1.0
  2
_U
 70
     0
 71
     1
 91
        1
 92
        7
 72
     0
 73
     1
 93
        4
 10
770.8418684630003
 20
182.5837624368933
 10
604.8418684630002
 20
182.5837624368932
 10
604.8418684630002
 20
179.5837624368933
 10
770.8418684630002
 20
179.5837624368933
 97
        4
330
643
330
245
330
63D
330
63B
 75
     0
 76
     0
 52
135.0
 41
0.8
 77
     0
 78
     1
 53
135.0
 43
0.0
 44
0.0
 45
-0.5656854249492382
 46
-0.565685424949238
 79
     0
 47
0.242955
 98
        1
 10
626.777515
 20
180.949354
  0
POINT
  5
9C
100
AcDbEntity
  8
DEFPOINTS
  6
BYBLOCK
 62
     0
100
AcDbPoint
 10
362.506515
 20
236.583762
 30
0.0
  0
SOLID
  5
9E
100
AcDbEntity
  8
0
  6
BYBLOCK
 62
     4
100
AcDbTrace
 10
362.006515
 20
239.583762
 30
0.0
 11
363.006515
 21
239.583762
 31
0.0
 12
362.506515
 22
236.583762
 32
0.0
 13
362.506515
 23
236.583762
 33
0.0
  0
MTEXT
  5
9F
100
AcDbEntity
  8
0
  6
BYBLOCK
 62
     2
100
AcDbMText
 10
359.080012
 20
241.850144
 30
0.0
 40
3.0
 41
0.0
 71
     4
 72
     1
  1
\A1;7.00
 11
0.0
 21
1.0
 31
0.0
  0
LINE
  5
A0
100
AcDbEntity
  8
0
  6
BYBLOCK
 62
     4
100
AcDbLine
 10
362.506515
 20
239.583762
 30
0.0
 11
362.506515
 21
251.112798
 31
0.0
  0
LINE
  5
A1
100
AcDbEntity
  8
0
  6
BYBLOCK
 62
     4
100
AcDbLine
 10
386.798817
 20
236.583762
 30
0.0
 11
360.006515
 21
236.583762
 31
0.0
  0
POINT
  5
A2
100
AcDbEntity
  8
DEFPOINTS
  6
BYBLOCK
 62
     0
100
AcDbPoint
 10
362.506515
 20
175.583762
 30
0.0
  0
POINT
  5
A3
100
AcDbEntity
  8
DEFPOINTS
  6
BYBLOCK
 62
     0
100
AcDbPoint
 10
376.328477
 20
175.583762
 30
0.0
  0
POINT
  5
A4
100
AcDbEntity
  8
DEFPOINTS
  6
BYBLOCK
 62
     0
100
AcDbPoint
 10
396.841868
 20
182.583762
 30
0.0
  0
SOLID
  5
A5
100
AcDbEntity
  8
0
  6
BYBLOCK
 62
     4
100
AcDbTrace
 10
362.006515
 20
172.583762
 30
0.0
 11
363.006515
 21
172.583762
 31
0.0
 12
362.506515
 22
175.583762
 32
0.0
 13
362.506515
 23
175.583762
 33
0.0
  0
MTEXT
  5
A6
100
AcDbEntity
  8
0
  6
BYBLOCK
 62
     2
100
AcDbMText
 10
359.080012
 20
161.169764
 30
0.0
 40
3.0
 41
0.0
 71
     4
 72
     1
  1
\A1;7.00
 11
0.0
 21
1.0
 31
0.0
  0
LINE
  5
A7
100
AcDbEntity
  8
0
  6
BYBLOCK
 62
     4
100
AcDbLine
 10
362.506515
 20
172.583762
 30
0.0
 11
362.506515
 21
161.054727
 31
0.0
  0
LINE
  5
A8
100
AcDbEntity
  8
0
  6
BYBLOCK
 62
     4
100
AcDbLine
 10
375.328477
 20
175.583762
 30
0.0
 11
360.006515
 21
175.583762
 31
0.0
  0
DIMENSION
  5
A9
100
AcDbEntity
  8
DIMS
100
AcDbDimension
  2
*D15
 10
362.506515
 20
182.583762
 30
0.0
 11
397.006515
 21
206.083762
 31
0.0
 12
-37.5
 22
-27.026965
 32
0.0
  3
DIM1
100
AcDbAlignedDimension
 13
396.841868
 23
229.583762
 33
0.0
 14
396.841868
 24
182.583762
 34
0.0
 50
90.0
100
AcDbRotatedDimension
1001
ACAD
1000
DSTYLE
1002
{
1070
   144
1040
1.0
1002
}
  0
WIPEOUT
  5
B6
100
AcDbEntity
  8
TEXT
 92
      140
310
8C000000010000008400000006000000050000005E31037B6B138740CF1ED95E3D0868400000000000000000AE3878CB72908740CE1ED95E3D0868400000000000000000AE3878CB72908740CE1ED95E3D88684000000000000000005E31037B6B138740CF1ED95E3D88684000000000000000005E31037B6B138740CF1ED9
310
5E3D0868400000000000000000
100
AcDbWipeout
 90
        0
 10
708.741766
 20
154.757492
 30
0.0
 11
45.314286
 21
0.0
 31
0.0
 12
0.0
 22
45.314286
 32
0.0
 13
0.0
 23
0.0
340
0
 70
     7
280
     1
281
    50
282
    50
283
     0
360
0
 71
     2
 91
        5
 14
0.155107
 24
-0.327554
 14
0.5
 24
-0.327554
 14
0.5
 24
-0.415826
 14
0.155107
 24
-0.415826
 14
0.155107
 24
-0.327554
  0
TEXT
  5
B8
100
AcDbEntity
  8
TEXT
100
AcDbText
 10
739.427481
 20
193.257492
 30
0.0
 40
2.0
  1
MM010046
 41
0.9
100
AcDbText
  0
LINE
  5
B9
100
AcDbEntity
  8
CENTRE
100
AcDbLine
 10
419.841868
 20
362.247034
 30
0.0
 11
419.841868
 21
502.247034
 31
0.0
  0
LINE
  5
BC
100
AcDbEntity
  8
CENTRE
100
AcDbLine
 10
519.841868
 20
362.247034
 30
0.0
 11
519.841868
 21
502.247034
 31
0.0
  0
LINE
  5
BD
100
AcDbEntity
  8
DIMS
 62
     4
100
AcDbLine
 10
423.241868
 20
382.247034
 30
0.0
 11
436.541868
 21
382.247034
 31
0.0
  0
LINE
  5
BE
100
AcDbEntity
  8
DIMS
 62
     4
100
AcDbLine
 10
416.441868
 20
382.247034
 30
0.0
 11
403.141868
 21
382.247034
 31
0.0
  0
LINE
  5
BF
100
AcDbEntity
  8
DIMS
 62
     4
100
AcDbLine
 10
418.141868
 20
382.247034
 30
0.0
 11
421.541868
 21
382.247034
 31
0.0
  0
LINE
  5
C0
100
AcDbEntity
  8
DIMS
 62
     4
100
AcDbLine
 10
516.441868
 20
482.247034
 30
0.0
 11
503.141868
 21
482.247034
 31
0.0
  0
LINE
  5
C1
100
AcDbEntity
  8
DIMS
 62
     4
100
AcDbLine
 10
523.241868
 20
482.247034
 30
0.0
 11
536.541868
 21
482.247034
 31
0.0
  0
LINE
  5
C2
100
AcDbEntity
  8
DIMS
 62
     4
100
AcDbLine
 10
521.541868
 20
482.247034
 30
0.0
 11
518.141868
 21
482.247034
 31
0.0
  0
LINE
  5
C3
100
AcDbEntity
  8
DIMS
 62
     4
100
AcDbLine
 10
516.441868
 20
382.247034
 30
0.0
 11
512.329981
 21
382.247034
 31
0.0
  0
LINE
  5
C4
100
AcDbEntity
  8
DIMS
 62
     4
100
AcDbLine
 10
523.241868
 20
382.247034
 30
0.0
 11
536.541868
 21
382.247034
 31
0.0
  0
LINE
  5
C5
100
AcDbEntity
  8
DIMS
 62
     4
100
AcDbLine
 10
521.541868
 20
382.247034
 30
0.0
 11
518.141868
 21
382.247034
 31
0.0
  0
CIRCLE
  5
C6
100
AcDbEntity
  8
M03
100
AcDbCircle
 10
419.841868
 20
482.247034
 30
0.0
 40
2.25
  0
CIRCLE
  5
C9
100
AcDbEntity
  8
M03
100
AcDbCircle
 10
419.841868
 20
482.247034
 30
0.0
 40
15.0
  0
CIRCLE
  5
CA
100
AcDbEntity
  8
M03
100
AcDbCircle
 10
419.841868
 20
482.247034
 30
0.0
 40
14.0
  0
ARC
  5
CB
100
AcDbEntity
  8
M03
100
AcDbCircle
 10
419.841868
 20
482.247034
 30
0.0
 40
3.0
100
AcDbArc
 50
173.076897
 51
102.215364
  0
LINE
  5
CC
100
AcDbEntity
  8
M03
100
AcDbLine
 10
419.291868
 20
476.272296
 30
0.0
 11
419.291868
 21
488.221773
 31
0.0
  0
LINE
  5
CD
100
AcDbEntity
  8
M03
100
AcDbLine
 10
420.391868
 20
476.272296
 30
0.0
 11
420.391868
 21
488.221773
 31
0.0
  0
CIRCLE
  5
CE
100
AcDbEntity
  8
M03
100
AcDbCircle
 10
419.841868
 20
482.247034
 30
0.0
 40
7.858882
  0
CIRCLE
  5
CF
100
AcDbEntity
  8
M03
100
AcDbCircle
 10
419.841868
 20
482.247034
 30
0.0
 40
6.0
  0
CIRCLE
  5
D0
100
AcDbEntity
  8
M03
100
AcDbCircle
 10
419.841868
 20
382.247034
 30
0.0
 40
2.25
  0
CIRCLE
  5
D1
100
AcDbEntity
  8
M03
100
AcDbCircle
 10
419.841868
 20
382.247034
 30
0.0
 40
15.0
  0
CIRCLE
  5
D2
100
AcDbEntity
  8
M03
100
AcDbCircle
 10
419.841868
 20
382.247034
 30
0.0
 40
14.0
  0
ARC
  5
D3
100
AcDbEntity
  8
M03
100
AcDbCircle
 10
419.841868
 20
382.247034
 30
0.0
 40
3.0
100
AcDbArc
 50
257.784636
 51
186.923103
  0
LINE
  5
D4
100
AcDbEntity
  8
M03
100
AcDbLine
 10
419.291868
 20
388.221773
 30
0.0
 11
419.291868
 21
376.272296
 31
0.0
  0
LINE
  5
D5
100
AcDbEntity
  8
M03
100
AcDbLine
 10
420.391868
 20
388.221773
 30
0.0
 11
420.391868
 21
376.272296
 31
0.0
  0
CIRCLE
  5
D6
100
AcDbEntity
  8
M03
100
AcDbCircle
 10
419.841868
 20
382.247034
 30
0.0
 40
7.858882
  0
CIRCLE
  5
D7
100
AcDbEntity
  8
M03
100
AcDbCircle
 10
419.841868
 20
382.247034
 30
0.0
 40
6.0
  0
CIRCLE
  5
D8
100
AcDbEntity
  8
M03
100
AcDbCircle
 10
519.841868
 20
482.247034
 30
0.0
 40
2.25
  0
CIRCLE
  5
D9
100
AcDbEntity
  8
M03
100
AcDbCircle
 10
519.841868
 20
482.247034
 30
0.0
 40
15.0
  0
CIRCLE
  5
DA
100
AcDbEntity
  8
M03
100
AcDbCircle
 10
519.841868
 20
482.247034
 30
0.0
 40
14.0
  0
ARC
  5
DB
100
AcDbEntity
  8
M03
100
AcDbCircle
 10
519.841868
 20
482.247034
 30
0.0
 40
3.0
100
AcDbArc
 50
77.784636
 51
6.923103
  0
LINE
  5
DC
100
AcDbEntity
  8
M03
100
AcDbLine
 10
520.391868
 20
476.272296
 30
0.0
 11
520.391868
 21
488.221773
 31
0.0
  0
LINE
  5
DD
100
AcDbEntity
  8
M03
100
AcDbLine
 10
519.291868
 20
476.272296
 30
0.0
 11
519.291868
 21
488.221773
 31
0.0
  0
CIRCLE
  5
DE
100
AcDbEntity
  8
M03
100
AcDbCircle
 10
519.841868
 20
482.247034
 30
0.0
 40
7.858882
  0
CIRCLE
  5
DF
100
AcDbEntity
  8
M03
100
AcDbCircle
 10
519.841868
 20
482.247034
 30
0.0
 40
6.0
  0
CIRCLE
  5
E0
100
AcDbEntity
  8
M03
100
AcDbCircle
 10
519.841868
 20
382.247034
 30
0.0
 40
2.25
  0
CIRCLE
  5
E1
100
AcDbEntity
  8
M03
100
AcDbCircle
 10
519.841868
 20
382.247034
 30
0.0
 40
15.0
  0
CIRCLE
  5
E2
100
AcDbEntity
  8
M03
100
AcDbCircle
 10
519.841868
 20
382.247034
 30
0.0
 40
14.0
  0
ARC
  5
E3
100
AcDbEntity
  8
M03
100
AcDbCircle
 10
519.841868
 20
382.247034
 30
0.0
 40
3.0
100
AcDbArc
 50
353.076897
 51
282.215364
  0
LINE
  5
E4
100
AcDbEntity
  8
M03
100
AcDbLine
 10
520.391868
 20
388.221773
 30
0.0
 11
520.391868
 21
376.272296
 31
0.0
  0
LINE
  5
E5
100
AcDbEntity
  8
M03
100
AcDbLine
 10
519.291868
 20
388.221773
 30
0.0
 11
519.291868
 21
376.272296
 31
0.0
  0
CIRCLE
  5
E6
100
AcDbEntity
  8
M03
100
AcDbCircle
 10
519.841868
 20
382.247034
 30
0.0
 40
7.858882
  0
CIRCLE
  5
E7
100
AcDbEntity
  8
M03
100
AcDbCircle
 10
519.841868
 20
382.247034
 30
0.0
 40
6.0
  0
CIRCLE
  5
E8
100
AcDbEntity
  8
M01
100
AcDbCircle
 10
419.841868
 20
482.247034
 30
0.0
 40
4.0
  0
CIRCLE
  5
E9
100
AcDbEntity
  8
M01
100
AcDbCircle
 10
519.841868
 20
482.247034
 30
0.0
 40
4.0
  0
CIRCLE
  5
EA
100
AcDbEntity
  8
M01
100
AcDbCircle
 10
419.841868
 20
382.247034
 30
0.0
 40
4.0
  0
CIRCLE
  5
EB
100
AcDbEntity
  8
M01
100
AcDbCircle
 10
519.841868
 20
382.247034
 30
0.0
 40
4.0
  0
LINE
  5
EC
100
AcDbEntity
  8
DIMS
 62
     4
100
AcDbLine
 10
423.241868
 20
582.247034
 30
0.0
 11
436.541868
 21
582.247034
 31
0.0
  0
LINE
  5
ED
100
AcDbEntity
  8
DIMS
 62
     4
100
AcDbLine
 10
416.441868
 20
582.247034
 30
0.0
 11
403.141868
 21
582.247034
 31
0.0
  0
LINE
  5
EE
100
AcDbEntity
  8
DIMS
 62
     4
100
AcDbLine
 10
418.141868
 20
582.247034
 30
0.0
 11
421.541868
 21
582.247034
 31
0.0
  0
LINE
  5
EF
100
AcDbEntity
  8
DIMS
 62
     4
100
AcDbLine
 10
423.241868
 20
682.247034
 30
0.0
 11
436.541868
 21
682.247034
 31
0.0
  0
LINE
  5
F0
100
AcDbEntity
  8
DIMS
 62
     4
100
AcDbLine
 10
416.441868
 20
682.247034
 30
0.0
 11
403.141868
 21
682.247034
 31
0.0
  0
LINE
  5
F1
100
AcDbEntity
  8
DIMS
 62
     4
100
AcDbLine
 10
418.141868
 20
682.247034
 30
0.0
 11
421.541868
 21
682.247034
 31
0.0
  0
LINE
  5
F2
100
AcDbEntity
  8
CENTRE
100
AcDbLine
 10
419.841868
 20
702.247034
 30
0.0
 11
419.841868
 21
562.247034
 31
0.0
  0
LINE
  5
F3
100
AcDbEntity
  8
DIMS
 62
     4
100
AcDbLine
 10
516.441868
 20
582.247034
 30
0.0
 11
503.141868
 21
582.247034
 31
0.0
  0
LINE
  5
F4
100
AcDbEntity
  8
DIMS
 62
     4
100
AcDbLine
 10
523.241868
 20
582.247034
 30
0.0
 11
536.541868
 21
582.247034
 31
0.0
  0
LINE
  5
F5
100
AcDbEntity
  8
DIMS
 62
     4
100
AcDbLine
 10
521.541868
 20
582.247034
 30
0.0
 11
518.141868
 21
582.247034
 31
0.0
  0
LINE
  5
F6
100
AcDbEntity
  8
DIMS
 62
     4
100
AcDbLine
 10
516.441868
 20
682.247034
 30
0.0
 11
503.141868
 21
682.247034
 31
0.0
  0
LINE
  5
F7
100
AcDbEntity
  8
DIMS
 62
     4
100
AcDbLine
 10
523.241868
 20
682.247034
 30
0.0
 11
536.541868
 21
682.247034
 31
0.0
  0
LINE
  5
F8
100
AcDbEntity
  8
DIMS
 62
     4
100
AcDbLine
 10
521.541868
 20
682.247034
 30
0.0
 11
518.141868
 21
682.247034
 31
0.0
  0
CIRCLE
  5
F9
100
AcDbEntity
  8
M03
100
AcDbCircle
 10
419.841868
 20
582.247034
 30
0.0
 40
2.25
  0
CIRCLE
  5
FA
100
AcDbEntity
  8
M03
100
AcDbCircle
 10
419.841868
 20
582.247034
 30
0.0
 40
15.0
  0
CIRCLE
  5
FB
100
AcDbEntity
  8
M03
100
AcDbCircle
 10
419.841868
 20
582.247034
 30
0.0
 40
14.0
  0
ARC
  5
FC
100
AcDbEntity
  8
M03
100
AcDbCircle
 10
419.841868
 20
582.247034
 30
0.0
 40
3.0
100
AcDbArc
 50
257.784636
 51
186.923103
  0
LINE
  5
FD
100
AcDbEntity
  8
M03
100
AcDbLine
 10
419.291868
 20
588.221773
 30
0.0
 11
419.291868
 21
576.272296
 31
0.0
  0
LINE
  5
FE
100
AcDbEntity
  8
M03
100
AcDbLine
 10
420.391868
 20
588.221773
 30
0.0
 11
420.391868
 21
576.272296
 31
0.0
  0
CIRCLE
  5
FF
100
AcDbEntity
  8
M03
100
AcDbCircle
 10
419.841868
 20
582.247034
 30
0.0
 40
7.858882
  0
CIRCLE
  5
100
100
AcDbEntity
  8
M03
100
AcDbCircle
 10
419.841868
 20
582.247034
 30
0.0
 40
6.0
  0
CIRCLE
  5
101
100
AcDbEntity
  8
M03
100
AcDbCircle
 10
419.841868
 20
682.247034
 30
0.0
 40
2.25
  0
CIRCLE
  5
102
100
AcDbEntity
  8
M03
100
AcDbCircle
 10
419.841868
 20
682.247034
 30
0.0
 40
15.0
  0
CIRCLE
  5
103
100
AcDbEntity
  8
M03
100
AcDbCircle
 10
419.841868
 20
682.247034
 30
0.0
 40
14.0
  0
ARC
  5
104
100
AcDbEntity
  8
M03
100
AcDbCircle
 10
419.841868
 20
682.247034
 30
0.0
 40
3.0
100
AcDbArc
 50
173.076897
 51
102.215364
  0
LINE
  5
105
100
AcDbEntity
  8
M03
100
AcDbLine
 10
419.291868
 20
676.272296
 30
0.0
 11
419.291868
 21
688.221773
 31
0.0
  0
LINE
  5
106
100
AcDbEntity
  8
M03
100
AcDbLine
 10
420.391868
 20
676.272296
 30
0.0
 11
420.391868
 21
688.221773
 31
0.0
  0
CIRCLE
  5
107
100
AcDbEntity
  8
M03
100
AcDbCircle
 10
419.841868
 20
682.247034
 30
0.0
 40
7.858882
  0
CIRCLE
  5
108
100
AcDbEntity
  8
M03
100
AcDbCircle
 10
419.841868
 20
682.247034
 30
0.0
 40
6.0
  0
CIRCLE
  5
109
100
AcDbEntity
  8
M03
100
AcDbCircle
 10
519.841868
 20
582.247034
 30
0.0
 40
2.25
  0
CIRCLE
  5
10A
100
AcDbEntity
  8
M03
100
AcDbCircle
 10
519.841868
 20
582.247034
 30
0.0
 40
15.0
  0
CIRCLE
  5
10B
100
AcDbEntity
  8
M03
100
AcDbCircle
 10
519.841868
 20
582.247034
 30
0.0
 40
14.0
  0
ARC
  5
10C
100
AcDbEntity
  8
M03
100
AcDbCircle
 10
519.841868
 20
582.247034
 30
0.0
 40
3.0
100
AcDbArc
 50
353.076897
 51
282.215364
  0
LINE
  5
10D
100
AcDbEntity
  8
M03
100
AcDbLine
 10
520.391868
 20
588.221773
 30
0.0
 11
520.391868
 21
576.272296
 31
0.0
  0
LINE
  5
10E
100
AcDbEntity
  8
M03
100
AcDbLine
 10
519.291868
 20
588.221773
 30
0.0
 11
519.291868
 21
576.272296
 31
0.0
  0
CIRCLE
  5
10F
100
AcDbEntity
  8
M03
100
AcDbCircle
 10
519.841868
 20
582.247034
 30
0.0
 40
7.858882
  0
CIRCLE
  5
110
100
AcDbEntity
  8
M03
100
AcDbCircle
 10
519.841868
 20
582.247034
 30
0.0
 40
6.0
  0
CIRCLE
  5
111
100
AcDbEntity
  8
M03
100
AcDbCircle
 10
519.841868
 20
682.247034
 30
0.0
 40
2.25
  0
CIRCLE
  5
112
100
AcDbEntity
  8
M03
100
AcDbCircle
 10
519.841868
 20
682.247034
 30
0.0
 40
15.0
  0
CIRCLE
  5
113
100
AcDbEntity
  8
M03
100
AcDbCircle
 10
519.841868
 20
682.247034
 30
0.0
 40
14.0
  0
ARC
  5
114
100
AcDbEntity
  8
M03
100
AcDbCircle
 10
519.841868
 20
682.247034
 30
0.0
 40
3.0
100
AcDbArc
 50
77.784636
 51
6.923103
  0
LINE
  5
115
100
AcDbEntity
  8
M03
100
AcDbLine
 10
520.391868
 20
676.272296
 30
0.0
 11
520.391868
 21
688.221773
 31
0.0
  0
LINE
  5
116
100
AcDbEntity
  8
M03
100
AcDbLine
 10
519.291868
 20
676.272296
 30
0.0
 11
519.291868
 21
688.221773
 31
0.0
  0
CIRCLE
  5
117
100
AcDbEntity
  8
M03
100
AcDbCircle
 10
519.841868
 20
682.247034
 30
0.0
 40
7.858882
  0
CIRCLE
  5
118
100
AcDbEntity
  8
M03
100
AcDbCircle
 10
519.841868
 20
682.247034
 30
0.0
 40
6.0
  0
CIRCLE
  5
119
100
AcDbEntity
  8
M01
100
AcDbCircle
 10
419.841868
 20
582.247034
 30
0.0
 40
4.0
  0
CIRCLE
  5
11A
100
AcDbEntity
  8
M01
100
AcDbCircle
 10
519.841868
 20
582.247034
 30
0.0
 40
4.0
  0
CIRCLE
  5
11B
100
AcDbEntity
  8
M01
100
AcDbCircle
 10
419.841868
 20
682.247034
 30
0.0
 40
4.0
  0
LINE
  5
11C
100
AcDbEntity
  8
CENTRE
100
AcDbLine
 10
519.841868
 20
702.247034
 30
0.0
 11
519.841868
 21
562.247034
 31
0.0
  0
CIRCLE
  5
11D
100
AcDbEntity
  8
M01
100
AcDbCircle
 10
519.841868
 20
682.247034
 30
0.0
 40
4.0
  0
LINE
  5
11E
100
AcDbEntity
  8
DIMS
 62
     4
100
AcDbLine
 10
716.441868
 20
482.247034
 30
0.0
 11
703.141868
 21
482.247034
 31
0.0
  0
LINE
  5
11F
100
AcDbEntity
  8
DIMS
 62
     4
100
AcDbLine
 10
723.241868
 20
482.247034
 30
0.0
 11
736.541868
 21
482.247034
 31
0.0
  0
LINE
  5
120
100
AcDbEntity
  8
DIMS
 62
     4
100
AcDbLine
 10
721.541868
 20
482.247034
 30
0.0
 11
718.141868
 21
482.247034
 31
0.0
  0
LINE
  5
121
100
AcDbEntity
  8
DIMS
 62
     4
100
AcDbLine
 10
716.441868
 20
382.247034
 30
0.0
 11
703.141868
 21
382.247034
 31
0.0
  0
LINE
  5
122
100
AcDbEntity
  8
DIMS
 62
     4
100
AcDbLine
 10
723.241868
 20
382.247034
 30
0.0
 11
736.541868
 21
382.247034
 31
0.0
  0
LINE
  5
123
100
AcDbEntity
  8
DIMS
 62
     4
100
AcDbLine
 10
721.541868
 20
382.247034
 30
0.0
 11
718.141868
 21
382.247034
 31
0.0
  0
LINE
  5
124
100
AcDbEntity
  8
CENTRE
100
AcDbLine
 10
719.841868
 20
362.247034
 30
0.0
 11
719.841868
 21
502.247034
 31
0.0
  0
LINE
  5
125
100
AcDbEntity
  8
DIMS
 62
     4
100
AcDbLine
 10
623.241868
 20
482.247034
 30
0.0
 11
636.541868
 21
482.247034
 31
0.0
  0
LINE
  5
126
100
AcDbEntity
  8
DIMS
 62
     4
100
AcDbLine
 10
616.441868
 20
482.247034
 30
0.0
 11
603.141868
 21
482.247034
 31
0.0
  0
LINE
  5
127
100
AcDbEntity
  8
DIMS
 62
     4
100
AcDbLine
 10
618.141868
 20
482.247034
 30
0.0
 11
621.541868
 21
482.247034
 31
0.0
  0
LINE
  5
128
100
AcDbEntity
  8
DIMS
 62
     4
100
AcDbLine
 10
623.241868
 20
382.247034
 30
0.0
 11
636.541868
 21
382.247034
 31
0.0
  0
LINE
  5
129
100
AcDbEntity
  8
DIMS
 62
     4
100
AcDbLine
 10
616.441868
 20
382.247034
 30
0.0
 11
603.141868
 21
382.247034
 31
0.0
  0
LINE
  5
12A
100
AcDbEntity
  8
DIMS
 62
     4
100
AcDbLine
 10
618.141868
 20
382.247034
 30
0.0
 11
621.541868
 21
382.247034
 31
0.0
  0
CIRCLE
  5
12B
100
AcDbEntity
  8
M03
100
AcDbCircle
 10
719.841868
 20
482.247034
 30
0.0
 40
2.25
  0
CIRCLE
  5
12C
100
AcDbEntity
  8
M03
100
AcDbCircle
 10
719.841868
 20
482.247034
 30
0.0
 40
15.0
  0
CIRCLE
  5
12D
100
AcDbEntity
  8
M03
100
AcDbCircle
 10
719.841868
 20
482.247034
 30
0.0
 40
14.0
  0
ARC
  5
12E
100
AcDbEntity
  8
M03
100
AcDbCircle
 10
719.841868
 20
482.247034
 30
0.0
 40
3.0
100
AcDbArc
 50
77.784636
 51
6.923103
  0
LINE
  5
12F
100
AcDbEntity
  8
M03
100
AcDbLine
 10
720.391868
 20
476.272296
 30
0.0
 11
720.391868
 21
488.221773
 31
0.0
  0
LINE
  5
130
100
AcDbEntity
  8
M03
100
AcDbLine
 10
719.291868
 20
476.272296
 30
0.0
 11
719.291868
 21
488.221773
 31
0.0
  0
CIRCLE
  5
131
100
AcDbEntity
  8
M03
100
AcDbCircle
 10
719.841868
 20
482.247034
 30
0.0
 40
7.858882
  0
CIRCLE
  5
132
100
AcDbEntity
  8
M03
100
AcDbCircle
 10
719.841868
 20
482.247034
 30
0.0
 40
6.0
  0
CIRCLE
  5
133
100
AcDbEntity
  8
M03
100
AcDbCircle
 10
719.841868
 20
382.247034
 30
0.0
 40
2.25
  0
CIRCLE
  5
134
100
AcDbEntity
  8
M03
100
AcDbCircle
 10
719.841868
 20
382.247034
 30
0.0
 40
15.0
  0
CIRCLE
  5
135
100
AcDbEntity
  8
M03
100
AcDbCircle
 10
719.841868
 20
382.247034
 30
0.0
 40
14.0
  0
ARC
  5
136
100
AcDbEntity
  8
M03
100
AcDbCircle
 10
719.841868
 20
382.247034
 30
0.0
 40
3.0
100
AcDbArc
 50
353.076897
 51
282.215364
  0
LINE
  5
137
100
AcDbEntity
  8
M03
100
AcDbLine
 10
720.391868
 20
388.221773
 30
0.0
 11
720.391868
 21
376.272296
 31
0.0
  0
LINE
  5
138
100
AcDbEntity
  8
M03
100
AcDbLine
 10
719.291868
 20
388.221773
 30
0.0
 11
719.291868
 21
376.272296
 31
0.0
  0
CIRCLE
  5
139
100
AcDbEntity
  8
M03
100
AcDbCircle
 10
719.841868
 20
382.247034
 30
0.0
 40
7.858882
  0
CIRCLE
  5
13A
100
AcDbEntity
  8
M03
100
AcDbCircle
 10
719.841868
 20
382.247034
 30
0.0
 40
6.0
  0
CIRCLE
  5
13B
100
AcDbEntity
  8
M03
100
AcDbCircle
 10
619.841868
 20
482.247034
 30
0.0
 40
2.25
  0
CIRCLE
  5
13C
100
AcDbEntity
  8
M03
100
AcDbCircle
 10
619.841868
 20
482.247034
 30
0.0
 40
15.0
  0
CIRCLE
  5
13D
100
AcDbEntity
  8
M03
100
AcDbCircle
 10
619.841868
 20
482.247034
 30
0.0
 40
14.0
  0
ARC
  5
13E
100
AcDbEntity
  8
M03
100
AcDbCircle
 10
619.841868
 20
482.247034
 30
0.0
 40
3.0
100
AcDbArc
 50
173.076897
 51
102.215364
  0
LINE
  5
13F
100
AcDbEntity
  8
M03
100
AcDbLine
 10
619.291868
 20
476.272296
 30
0.0
 11
619.291868
 21
488.221773
 31
0.0
  0
LINE
  5
140
100
AcDbEntity
  8
M03
100
AcDbLine
 10
620.391868
 20
476.272296
 30
0.0
 11
620.391868
 21
488.221773
 31
0.0
  0
CIRCLE
  5
141
100
AcDbEntity
  8
M03
100
AcDbCircle
 10
619.841868
 20
482.247034
 30
0.0
 40
7.858882
  0
CIRCLE
  5
142
100
AcDbEntity
  8
M03
100
AcDbCircle
 10
619.841868
 20
482.247034
 30
0.0
 40
6.0
  0
CIRCLE
  5
143
100
AcDbEntity
  8
M03
100
AcDbCircle
 10
619.841868
 20
382.247034
 30
0.0
 40
2.25
  0
CIRCLE
  5
144
100
AcDbEntity
  8
M03
100
AcDbCircle
 10
619.841868
 20
382.247034
 30
0.0
 40
15.0
  0
CIRCLE
  5
145
100
AcDbEntity
  8
M03
100
AcDbCircle
 10
619.841868
 20
382.247034
 30
0.0
 40
14.0
  0
ARC
  5
146
100
AcDbEntity
  8
M03
100
AcDbCircle
 10
619.841868
 20
382.247034
 30
0.0
 40
3.0
100
AcDbArc
 50
257.784636
 51
186.923103
  0
LINE
  5
147
100
AcDbEntity
  8
M03
100
AcDbLine
 10
619.291868
 20
388.221773
 30
0.0
 11
619.291868
 21
376.272296
 31
0.0
  0
LINE
  5
148
100
AcDbEntity
  8
M03
100
AcDbLine
 10
620.391868
 20
388.221773
 30
0.0
 11
620.391868
 21
376.272296
 31
0.0
  0
CIRCLE
  5
149
100
AcDbEntity
  8
M03
100
AcDbCircle
 10
619.841868
 20
382.247034
 30
0.0
 40
7.858882
  0
CIRCLE
  5
14A
100
AcDbEntity
  8
M03
100
AcDbCircle
 10
619.841868
 20
382.247034
 30
0.0
 40
6.0
  0
CIRCLE
  5
14B
100
AcDbEntity
  8
M01
100
AcDbCircle
 10
719.841868
 20
482.247034
 30
0.0
 40
4.0
  0
CIRCLE
  5
14C
100
AcDbEntity
  8
M01
100
AcDbCircle
 10
619.841868
 20
482.247034
 30
0.0
 40
4.0
  0
CIRCLE
  5
14D
100
AcDbEntity
  8
M01
100
AcDbCircle
 10
719.841868
 20
382.247034
 30
0.0
 40
4.0
  0
LINE
  5
14E
100
AcDbEntity
  8
CENTRE
100
AcDbLine
 10
619.841868
 20
362.247034
 30
0.0
 11
619.841868
 21
502.247034
 31
0.0
  0
CIRCLE
  5
14F
100
AcDbEntity
  8
M01
100
AcDbCircle
 10
619.841868
 20
382.247034
 30
0.0
 40
4.0
  0
LINE
  5
150
100
AcDbEntity
  8
DIMS
 62
     4
100
AcDbLine
 10
716.441868
 20
582.247034
 30
0.0
 11
703.141868
 21
582.247034
 31
0.0
  0
LINE
  5
151
100
AcDbEntity
  8
DIMS
 62
     4
100
AcDbLine
 10
723.241868
 20
582.247034
 30
0.0
 11
736.541868
 21
582.247034
 31
0.0
  0
LINE
  5
152
100
AcDbEntity
  8
DIMS
 62
     4
100
AcDbLine
 10
721.541868
 20
582.247034
 30
0.0
 11
718.141868
 21
582.247034
 31
0.0
  0
LINE
  5
153
100
AcDbEntity
  8
DIMS
 62
     4
100
AcDbLine
 10
716.441868
 20
682.247034
 30
0.0
 11
703.141868
 21
682.247034
 31
0.0
  0
LINE
  5
154
100
AcDbEntity
  8
DIMS
 62
     4
100
AcDbLine
 10
723.241868
 20
682.247034
 30
0.0
 11
736.541868
 21
682.247034
 31
0.0
  0
LINE
  5
155
100
AcDbEntity
  8
DIMS
 62
     4
100
AcDbLine
 10
721.541868
 20
682.247034
 30
0.0
 11
718.141868
 21
682.247034
 31
0.0
  0
LINE
  5
156
100
AcDbEntity
  8
CENTRE
100
AcDbLine
 10
719.841868
 20
702.247034
 30
0.0
 11
719.841868
 21
562.247034
 31
0.0
  0
LINE
  5
157
100
AcDbEntity
  8
DIMS
 62
     4
100
AcDbLine
 10
623.241868
 20
582.247034
 30
0.0
 11
636.541868
 21
582.247034
 31
0.0
  0
LINE
  5
158
100
AcDbEntity
  8
DIMS
 62
     4
100
AcDbLine
 10
616.441868
 20
582.247034
 30
0.0
 11
603.141868
 21
582.247034
 31
0.0
  0
LINE
  5
159
100
AcDbEntity
  8
DIMS
 62
     4
100
AcDbLine
 10
618.141868
 20
582.247034
 30
0.0
 11
621.541868
 21
582.247034
 31
0.0
  0
LINE
  5
15A
100
AcDbEntity
  8
DIMS
 62
     4
100
AcDbLine
 10
623.241868
 20
682.247034
 30
0.0
 11
636.541868
 21
682.247034
 31
0.0
  0
LINE
  5
15B
100
AcDbEntity
  8
DIMS
 62
     4
100
AcDbLine
 10
616.441868
 20
682.247034
 30
0.0
 11
603.141868
 21
682.247034
 31
0.0
  0
LINE
  5
15C
100
AcDbEntity
  8
DIMS
 62
     4
100
AcDbLine
 10
618.141868
 20
682.247034
 30
0.0
 11
621.541868
 21
682.247034
 31
0.0
  0
CIRCLE
  5
15D
100
AcDbEntity
  8
M03
100
AcDbCircle
 10
719.841868
 20
582.247034
 30
0.0
 40
2.25
  0
CIRCLE
  5
15E
100
AcDbEntity
  8
M03
100
AcDbCircle
 10
719.841868
 20
582.247034
 30
0.0
 40
15.0
  0
CIRCLE
  5
15F
100
AcDbEntity
  8
M03
100
AcDbCircle
 10
719.841868
 20
582.247034
 30
0.0
 40
14.0
  0
ARC
  5
160
100
AcDbEntity
  8
M03
100
AcDbCircle
 10
719.841868
 20
582.247034
 30
0.0
 40
3.0
100
AcDbArc
 50
353.076897
 51
282.215364
  0
LINE
  5
161
100
AcDbEntity
  8
M03
100
AcDbLine
 10
720.391868
 20
588.221773
 30
0.0
 11
720.391868
 21
576.272296
 31
0.0
  0
LINE
  5
162
100
AcDbEntity
  8
M03
100
AcDbLine
 10
719.291868
 20
588.221773
 30
0.0
 11
719.291868
 21
576.272296
 31
0.0
  0
CIRCLE
  5
163
100
AcDbEntity
  8
M03
100
AcDbCircle
 10
719.841868
 20
582.247034
 30
0.0
 40
7.858882
  0
CIRCLE
  5
164
100
AcDbEntity
  8
M03
100
AcDbCircle
 10
719.841868
 20
582.247034
 30
0.0
 40
6.0
  0
CIRCLE
  5
165
100
AcDbEntity
  8
M03
100
AcDbCircle
 10
719.841868
 20
682.247034
 30
0.0
 40
2.25
  0
CIRCLE
  5
166
100
AcDbEntity
  8
M03
100
AcDbCircle
 10
719.841868
 20
682.247034
 30
0.0
 40
15.0
  0
CIRCLE
  5
167
100
AcDbEntity
  8
M03
100
AcDbCircle
 10
719.841868
 20
682.247034
 30
0.0
 40
14.0
  0
ARC
  5
168
100
AcDbEntity
  8
M03
100
AcDbCircle
 10
719.841868
 20
682.247034
 30
0.0
 40
3.0
100
AcDbArc
 50
77.784636
 51
6.923103
  0
LINE
  5
169
100
AcDbEntity
  8
M03
100
AcDbLine
 10
720.391868
 20
676.272296
 30
0.0
 11
720.391868
 21
688.221773
 31
0.0
  0
LINE
  5
16A
100
AcDbEntity
  8
M03
100
AcDbLine
 10
719.291868
 20
676.272296
 30
0.0
 11
719.291868
 21
688.221773
 31
0.0
  0
CIRCLE
  5
16B
100
AcDbEntity
  8
M03
100
AcDbCircle
 10
719.841868
 20
682.247034
 30
0.0
 40
7.858882
  0
CIRCLE
  5
16C
100
AcDbEntity
  8
M03
100
AcDbCircle
 10
719.841868
 20
682.247034
 30
0.0
 40
6.0
  0
CIRCLE
  5
16D
100
AcDbEntity
  8
M03
100
AcDbCircle
 10
619.841868
 20
582.247034
 30
0.0
 40
2.25
  0
CIRCLE
  5
16E
100
AcDbEntity
  8
M03
100
AcDbCircle
 10
619.841868
 20
582.247034
 30
0.0
 40
15.0
  0
CIRCLE
  5
16F
100
AcDbEntity
  8
M03
100
AcDbCircle
 10
619.841868
 20
582.247034
 30
0.0
 40
14.0
  0
ARC
  5
170
100
AcDbEntity
  8
M03
100
AcDbCircle
 10
619.841868
 20
582.247034
 30
0.0
 40
3.0
100
AcDbArc
 50
257.784636
 51
186.923103
  0
LINE
  5
171
100
AcDbEntity
  8
M03
100
AcDbLine
 10
619.291868
 20
588.221773
 30
0.0
 11
619.291868
 21
576.272296
 31
0.0
  0
LINE
  5
172
100
AcDbEntity
  8
M03
100
AcDbLine
 10
620.391868
 20
588.221773
 30
0.0
 11
620.391868
 21
576.272296
 31
0.0
  0
CIRCLE
  5
173
100
AcDbEntity
  8
M03
100
AcDbCircle
 10
619.841868
 20
582.247034
 30
0.0
 40
7.858882
  0
CIRCLE
  5
174
100
AcDbEntity
  8
M03
100
AcDbCircle
 10
619.841868
 20
582.247034
 30
0.0
 40
6.0
  0
DIMENSION
  5
175
100
AcDbEntity
  8
DIMS
100
AcDbDimension
  2
*D14
 10
897.081488
 20
714.247034
 30
0.0
 11
894.081488
 21
532.247034
 31
0.0
  1
L=<>
  3
DIM1
100
AcDbAlignedDimension
 13
732.841868
 23
350.247034
 33
0.0
 14
732.841868
 24
714.247034
 34
0.0
 50
90.0
100
AcDbRotatedDimension
1001
ACAD
1000
DSTYLE
1002
{
1070
   144
1040
1.0
1002
}
  0
DIMENSION
  5
182
100
AcDbEntity
  8
DIMS
100
AcDbDimension
  2
*D13
 10
887.504135
 20
382.247034
 30
0.0
 11
884.504135
 21
432.247034
 31
0.0
  1
A=<>
  3
DIM1
100
AcDbAlignedDimension
 13
724.041868
 23
482.247034
 33
0.0
 14
736.541868
 24
382.247034
 34
0.0
 50
90.0
100
AcDbRotatedDimension
1001
ACAD
1000
DSTYLE
1002
{
1070
    75
1070
     1
1070
   144
1040
1.0
1070
   287
1070
     4
1002
}
  0
DIMENSION
  5
18E
100
AcDbEntity
  8
DIMS
100
AcDbDimension
  2
*D12
 10
887.504135
 20
482.247034
 30
0.0
 11
884.504135
 21
532.247034
 31
0.0
  1
C=<>
  3
DIM1
100
AcDbAlignedDimension
 13
736.541868
 23
582.247034
 33
0.0
 14
736.541868
 24
482.247034
 34
0.0
 50
90.0
100
AcDbRotatedDimension
1001
ACAD
1000
DSTYLE
1002
{
1070
    75
1070
     1
1070
   144
1040
1.0
1070
   287
1070
     4
1002
}
  0
DIMENSION
  5
19A
100
AcDbEntity
  8
DIMS
100
AcDbDimension
  2
*D11
 10
887.504135
 20
582.247034
 30
0.0
 11
884.504135
 21
632.247034
 31
0.0
  1
A=<>
  3
DIM1
100
AcDbAlignedDimension
 13
736.541868
 23
682.247034
 33
0.0
 14
736.541868
 24
582.247034
 34
0.0
 50
90.0
100
AcDbRotatedDimension
1001
ACAD
1000
DSTYLE
1002
{
1070
   144
1040
1.0
1002
}
  0
DIMENSION
  5
1A7
100
AcDbEntity
  8
DIMS
100
AcDbDimension
  2
*D10
 10
744.841868
 20
774.929694
 30
0.0
 11
569.841868
 21
740.429694
 31
0.0
 12
0.0
 22
37.5
 32
0.0
  1
L1=<>
  3
DIM1
100
AcDbAlignedDimension
 13
394.841868
 23
702.247034
 33
0.0
 14
744.841868
 24
702.247034
 34
0.0
100
AcDbRotatedDimension
1001
ACAD
1000
DSTYLE
1002
{
1070
   144
1040
1.0
1002
}
  0
DIMENSION
  5
1B4
100
AcDbEntity
  8
DIMS
100
AcDbDimension
  2
*D9
 10
419.841868
 20
764.416679
 30
0.0
 11
469.841868
 21
767.416679
 31
0.0
  1
B=<>
  3
DIM1
100
AcDbAlignedDimension
 13
519.841868
 23
702.247034
 33
0.0
 14
419.841868
 24
702.247034
 34
0.0
100
AcDbRotatedDimension
1001
ACAD
1000
DSTYLE
1002
{
1070
    75
1070
     1
1070
   144
1040
1.0
1070
   287
1070
     4
1002
}
  0
DIMENSION
  5
1C0
100
AcDbEntity
  8
DIMS
100
AcDbDimension
  2
*D8
 10
519.841868
 20
764.416679
 30
0.0
 11
569.841868
 21
729.916679
 31
0.0
 12
0.0
 22
37.5
 32
0.0
  1
D=<>
  3
DIM1
100
AcDbAlignedDimension
 13
619.841868
 23
702.247034
 33
0.0
 14
519.841868
 24
702.247034
 34
0.0
100
AcDbRotatedDimension
1001
ACAD
1000
DSTYLE
1002
{
1070
    75
1070
     1
1070
   144
1040
1.0
1070
   287
1070
     4
1002
}
  0
DIMENSION
  5
1CC
100
AcDbEntity
  8
DIMS
100
AcDbDimension
  2
*D7
 10
619.841868
 20
764.416679
 30
0.0
 11
669.841868
 21
729.916679
 31
0.0
 12
12.5
 22
37.5
 32
0.0
  1
B=<>
  3
DIM1
100
AcDbAlignedDimension
 13
719.841868
 23
702.247034
 33
0.0
 14
619.841868
 24
702.247034
 34
0.0
100
AcDbRotatedDimension
1001
ACAD
1000
DSTYLE
1002
{
1070
   144
1040
1.0
1002
}
  0
HATCH
  5
1D9
100
AcDbEntity
  8
HATCH
100
AcDbHatch
 10
0.0
 20
0.0
 30
0.0
210
0.0
220
0.0
230
1.0
  2
_U
 70
     0
 71
     1
 91
        1
 92
        7
 72
     0
 73
     1
 93
        4
 10
396.841868463
 20
182.5837624368933
 10
396.841868463
 20
179.5837624368934
 10
404.8418684629996
 20
179.5837624368934
 10
404.8418684629998
 20
182.5837624368933
 97
        4
330
61E
330
611
330
612
330
610
 75
     0
 76
     0
 52
135.0
 41
0.8
 77
     0
 78
     1
 53
135.0
 43
-37.626699
 44
-12.69603
 45
-0.5656854249492382
 46
-0.565685424949238
 79
     0
 47
0.169813
 98
        1
 10
325.502735
 20
180.29422
  0
HATCH
  5
1DA
100
AcDbEntity
  8
HATCH
100
AcDbHatch
 10
0.0
 20
0.0
 30
0.0
210
0.0
220
0.0
230
1.0
  2
_U
 70
     0
 71
     1
 91
        3
 92
        7
 72
     0
 73
     1
 93
        4
 10
546.6168684629999
 20
229.5837624368931
 10
546.6168684629999
 20
232.5837624368932
 10
491.8418684629997
 20
232.5837624368932
 10
491.8418684629997
 20
229.5837624368931
 97
        4
330
631
330
2CA
330
630
330
28F
 92
        7
 72
     0
 73
     1
 93
        4
 10
491.8418684629997
 20
232.5837624368932
 10
437.841868463
 20
232.5837624368932
 10
437.8418684629999
 20
229.5837624368932
 10
491.8418684629997
 20
229.5837624368932
 97
        4
330
631
330
488
330
630
330
2CA
 92
        7
 72
     0
 73
     1
 93
        4
 10
401.8418684629999
 20
232.5837624368932
 10
396.841868463
 20
232.5837624368932
 10
396.841868463
 20
229.5837624368932
 10
401.8418684629999
 20
229.5837624368932
 97
        4
330
631
330
63C
330
630
330
489
 75
     0
 76
     0
 52
135.0
 41
0.8
 77
     0
 78
     1
 53
135.0
 43
74.873301
 44
-12.69603
 45
-0.5656854249492382
 46
-0.565685424949238
 79
     0
 47
0.169813
 98
        3
 10
528.37858
 20
230.388973
 10
514.448467
 20
231.238036
 10
438.342493
 20
231.747474
  0
HATCH
  5
1DB
100
AcDbEntity
  8
HATCH
100
AcDbHatch
 10
0.0
 20
0.0
 30
0.0
210
0.0
220
0.0
230
1.0
  2
_U
 70
     0
 71
     1
 91
        1
 92
        7
 72
     0
 73
     1
 93
        4
 10
760.8418684630001
 20
229.583762436893
 10
760.8418684630004
 20
232.5837624368935
 10
593.0668684629999
 20
232.5837624368932
 10
593.0668684629998
 20
229.583762436893
 97
        4
330
63E
330
2B0
330
630
330
638
 75
     0
 76
     0
 52
135.0
 41
0.8
 77
     0
 78
     1
 53
135.0
 43
74.873301
 44
-12.69603
 45
-0.5656854249492382
 46
-0.565685424949238
 79
     0
 47
0.264674
 98
        1
 10
682.203211
 20
230.96575
  0
HATCH
  5
1DC
100
AcDbEntity
  8
HATCH
100
AcDbHatch
 10
0.0
 20
0.0
 30
0.0
210
0.0
220
0.0
230
1.0
  2
_U
 70
     0
 71
     1
 91
        2
 92
        7
 72
     0
 73
     1
 93
        4
 10
534.8418684629998
 20
179.5837624368934
 10
534.8418684629998
 20
182.5837624368931
 10
491.8418684629998
 20
182.5837624368932
 10
491.8418684629998
 20
179.5837624368934
 97
        4
330
61E
330
2CA
330
60E
330
224
 92
        7
 72
     0
 73
     1
 93
        4
 10
434.8418684629998
 20
179.5837624368934
 10
491.8418684629998
 20
179.5837624368934
 10
491.8418684629999
 20
182.5837624368932
 10
434.8418684629999
 20
182.5837624368933
 97
        4
330
61E
330
60F
330
60E
330
2CA
 75
     0
 76
     0
 52
135.0
 41
0.8
 77
     0
 78
     1
 53
135.0
 43
74.873301
 44
-12.69603
 45
-0.5656854249492382
 46
-0.565685424949238
 79
     0
 47
0.264674
 98
        2
 10
529.161781
 20
180.942438
 10
522.542342
 20
180.677765
  0
HATCH
  5
1DD
100
AcDbEntity
  8
HATCH
100
AcDbHatch
 10
0.0
 20
0.0
 30
0.0
210
0.0
220
0.0
230
1.0
  2
_U
 70
     0
 71
     1
 91
        3
 92
        7
 72
     1
 73
     1
 93
       33
 10
580.0418684629999
 20
229.5837624368931
 42
0.0
 10
579.341868463
 20
228.8837624368931
 42
0.0
 10
579.341868463
 20
225.5837624368931
 42
0.0
 10
579.341868463
 20
224.5837624368931
 42
0.0
 10
578.341868463
 20
224.5837624368931
 42
0.0
 10
569.841868463
 20
224.5837624368931
 42
0.0
 10
569.841868463
 20
210.0837624368933
 42
0.0
 10
669.841868463
 20
210.0837624368932
 42
-0.4142135623730868
 10
673.841868463
 20
206.0837624368933
 42
-0.4142135623730951
 10
669.841868463
 20
202.0837624368933
 42
0.0
 10
573.8418684629998
 20
202.0837624368933
 42
0.0
 10
573.8418684629998
 20
192.5837624368933
 42
0.0
 10
578.8418684629998
 20
192.5837624368932
 42
0.0
 10
579.8418684629997
 20
192.5837624368932
 42
0.0
 10
579.8418684629998
 20
191.5837624368932
 42
0.0
 10
579.8418684629998
 20
183.0837624368931
 42
0.0
 10
580.3418684629997
 20
182.5837624368934
 42
0.0
 10
592.8418684629998
 20
182.5837624368934
 42
0.0
 10
592.8418684629999
 20
189.8837624368933
 42
0.0
 10
592.8418684629998
 20
192.3837624368932
 42
0.0
 10
593.541868463
 20
192.3837624368932
 42
0.0
 10
593.541868463
 20
193.8837624368932
 42
0.0
 10
595.8418684629999
 20
195.2116680560294
 42
0.0
 10
598.1418684629999
 20
193.8837624368933
 42
0.0
 10
598.1418684629999
 20
192.3837624368933
 42
0.0
 10
598.841868463
 20
192.3837624368932
 42
0.0
 10
598.841868463
 20
189.8837624368935
 42
0.0
 10
598.841868463
 20
182.5837624368932
 42
0.0
 10
770.8418684630003
 20
182.5837624368933
 42
0.0
 10
772.8418684630002
 20
184.5837624368934
 42
0.0
 10
772.8418684630002
 20
223.5837624368931
 42
0.0
 10
760.8418684630002
 20
223.583762436893
 42
0.0
 10
760.8418684630001
 20
229.583762436893
 42
0.0
 97
       31
330
639
330
630
330
2BA
330
28D
330
2B4
330
2B3
330
2B7
330
633
330
618
330
2CB
330
617
330
61C
330
24E
330
24B
330
24A
330
250
330
240
330
226
330
21D
330
207
330
213
330
208
330
211
330
210
330
20A
330
209
330
21E
330
643
330
640
330
645
330
5E1
 92
        7
 72
     0
 73
     1
 93
        9
 10
491.8418684629997
 20
210.0837624368934
 10
569.8418684629998
 20
210.0837624368933
 10
569.8418684629998
 20
224.5837624368931
 10
561.341868463
 20
224.5837624368931
 10
560.3418684630001
 20
224.5837624368931
 10
560.3418684630001
 20
225.5837624368931
 10
560.3418684630001
 20
228.8837624368932
 10
559.6418684630001
 20
229.5837624368931
 10
491.8418684629997
 20
229.5837624368932
 97
        9
330
2B7
330
2B1
330
2B2
330
28C
330
2B9
330
630
330
2CA
330
618
330
633
 92
        7
 72
     0
 73
     1
 93
       20
 10
560.8418684630001
 20
192.5837624368933
 10
565.841868463
 20
192.5837624368933
 10
565.8418684629999
 20
202.0837624368933
 10
491.8418684629997
 20
202.0837624368933
 10
491.8418684629997
 20
182.5837624368932
 10
540.841868463
 20
182.5837624368931
 10
540.8418684629999
 20
189.8837624368933
 10
540.8418684629999
 20
192.3837624368932
 10
541.541868463
 20
192.3837624368932
 10
541.541868463
 20
193.8837624368932
 10
543.841868463
 20
195.2116680560294
 10
546.1418684629999
 20
193.8837624368932
 10
546.1418684629999
 20
192.3837624368932
 10
546.8418684629999
 20
192.3837624368932
 10
546.8418684629999
 20
189.8837624368935
 10
546.8418684629999
 20
182.5837624368931
 10
559.3418684629998
 20
182.5837624368931
 10
559.8418684629999
 20
183.0837624368929
 10
559.8418684629999
 20
191.5837624368933
 10
559.8418684630002
 20
192.5837624368933
 97
       18
330
2BD
330
2CA
330
61E
330
204
330
1EE
330
1F9
330
1EF
330
1F6
330
1F7
330
1ED
330
1EC
330
203
330
23F
330
24F
330
248
330
249
330
24E
330
2C0
 75
     0
 76
     0
 52
45.0
 41
6.0
 77
     0
 78
     1
 53
45.0
 43
99.873301
 44
-12.69603
 45
-4.242640687119283
 46
4.242640687119286
 79
     0
 47
0.264674
 98
        3
 10
643.921374
 20
220.114131
 10
581.169093
 20
216.408701
 10
581.43387
 20
197.352201
  0
DIMENSION
  5
1DE
100
AcDbEntity
  8
DIMS
100
AcDbDimension
  2
*D6
 10
589.841868
 20
131.971615
 30
0.0
 11
569.841868
 21
134.971615
 31
0.0
 12
74.873301
 22
-12.69603
 32
0.0
  1
%%c<> H7
  3
DIM1
100
AcDbAlignedDimension
 13
549.841868
 23
167.583762
 33
0.0
 14
589.841868
 24
167.583762
 34
0.0
100
AcDbRotatedDimension
1001
ACAD
1000
DSTYLE
1002
{
1070
   144
1040
1.0
1002
}
  0
HATCH
  5
1EB
100
AcDbEntity
  8
DIMS
100
AcDbHatch
 10
0.0
 20
0.0
 30
0.0
210
0.0
220
0.0
230
1.0
  2
_U
 70
     0
 71
     0
 91
        5
 92
        7
 72
     0
 73
     1
 93
        9
 10
601.3418684629999
 20
180.5837624368932
 10
601.3418684629999
 20
176.5837624368933
 10
603.1418684630001
 20
176.5837624368933
 10
603.8418684630002
 20
177.2837624368934
 10
603.8418684630002
 20
181.8837624368932
 10
603.1418684630001
 20
182.5837624368934
 10
599.541868463
 20
182.5837624368934
 10
599.5418684629998
 20
180.5837624368933
 10
601.0918684630001
 20
180.5837624368933
 97
        0
 92
        7
 72
     1
 73
     1
 93
       16
 10
589.1418684629999
 20
171.5837624368933
 42
0.0
 10
589.8418684630001
 20
172.2837624368933
 42
0.0
 10
589.841868463
 20
173.5837624368934
 42
0.0
 10
589.3418684629999
 20
173.5837624368933
 42
0.0
 10
589.3418684629999
 20
176.5837624368933
 42
0.0
 10
590.341868463
 20
176.5837624368933
 42
0.0
 10
590.341868463
 20
180.5837624368933
 42
0.0
 10
590.5918684630001
 20
180.5837624368933
 42
0.0
 10
592.1418684629998
 20
180.5837624368933
 42
0.0
 10
592.141868463
 20
182.5837624368934
 42
0.0
 10
579.8418684629998
 20
182.5837624368934
 42
0.0
 10
579.8418684629998
 20
191.5837624368932
 42
0.0
 10
578.8418684629999
 20
192.5837624368932
 42
0.0
 10
573.841868463
 20
192.5837624368932
 42
0.0
 10
572.8827424608958
 20
174.2825480899944
 42
-0.1092323044357264
 10
579.0070198529114
 20
171.5837624368932
 42
0.0
 97
        0
 92
        7
 72
     1
 73
     1
 93
       16
 10
566.8009944651038
 20
174.2825480899944
 42
0.0
 10
565.8418684629999
 20
192.5837624368932
 42
0.0
 10
560.841868463
 20
192.5837624368932
 42
0.0
 10
559.8418684629999
 20
191.5837624368934
 42
0.0
 10
559.8418684629998
 20
182.5837624368934
 42
0.0
 10
547.5418684629999
 20
182.5837624368934
 42
0.0
 10
547.541868463
 20
180.5837624368933
 42
0.0
 10
549.0918684629998
 20
180.5837624368933
 42
0.0
 10
549.3418684629999
 20
180.5837624368933
 42
0.0
 10
549.3418684629999
 20
176.5837624368934
 42
0.0
 10
550.3418684629999
 20
176.5837624368934
 42
0.0
 10
550.3418684629999
 20
173.5837624368931
 42
0.0
 10
549.8418684629999
 20
173.5837624368931
 42
0.0
 10
549.841868463
 20
172.283762436893
 42
0.0
 10
550.541868463
 20
171.5837624368929
 42
0.0
 10
560.6767170730883
 20
171.583762436893
 42
-0.1092323044357263
 97
        0
 92
        7
 72
     0
 73
     1
 93
        9
 10
538.3418684629999
 20
180.5837624368932
 10
538.5918684629997
 20
180.5837624368932
 10
540.1418684629998
 20
180.5837624368932
 10
540.1418684629999
 20
182.5837624368934
 10
536.5418684629998
 20
182.5837624368934
 10
535.8418684629996
 20
181.8837624368932
 10
535.8418684629997
 20
177.2837624368934
 10
536.5418684629997
 20
176.5837624368934
 10
538.3418684629999
 20
176.5837624368934
 97
        0
 92
       24
 93
        4
 72
     1
 10
574.415949
 20
177.65125
 11
588.787378
 21
177.65125
 72
     1
 10
588.787378
 20
177.65125
 11
588.787378
 21
180.65125
 72
     1
 10
588.787378
 20
180.65125
 11
574.415949
 21
180.65125
 72
     1
 10
574.415949
 20
180.65125
 11
574.415949
 21
177.65125
 97
        0
 75
     0
 76
     0
 52
135.0
 41
2.5
 77
     0
 78
     1
 53
135.0
 43
14.394628
 44
-64.902712
 45
-1.767766952966368
 46
-1.767766952966368
 79
     0
 47
0.085632
 98
        4
 10
602.338831
 20
180.941747
 10
584.691386
 20
174.947517
 10
561.903907
 20
176.146364
 10
537.660088
 20
180.941747
  0
LINE
  5
1EC
102
{ACAD_REACTORS
330
1DD
102
}
100
AcDbEntity
  8
M04
100
AcDbLine
 10
546.841868
 20
189.883762
 30
0.0
 11
546.841868
 21
192.383762
 31
0.0
  0
LINE
  5
1ED
102
{ACAD_REACTORS
330
1DD
102
}
100
AcDbEntity
  8
M04
100
AcDbLine
 10
546.141868
 20
190.583762
 30
0.0
 11
546.141868
 21
193.883762
 31
0.0
  0
LINE
  5
1EE
102
{ACAD_REACTORS
330
1DD
102
}
100
AcDbEntity
  8
M04
100
AcDbLine
 10
540.841868
 20
189.883762
 30
0.0
 11
540.841868
 21
192.383762
 31
0.0
  0
LINE
  5
1EF
102
{ACAD_REACTORS
330
1DD
102
}
100
AcDbEntity
  8
M04
100
AcDbLine
 10
541.541868
 20
190.583762
 30
0.0
 11
541.541868
 21
193.883762
 31
0.0
  0
LINE
  5
1F0
100
AcDbEntity
  8
M05
100
AcDbLine
 10
538.591868
 20
180.583762
 30
0.0
 11
549.091868
 21
180.583762
 31
0.0
  0
LINE
  5
1F2
100
AcDbEntity
  8
M04
100
AcDbLine
 10
549.091868
 20
180.583762
 30
0.0
 11
549.341868
 21
180.583762
 31
0.0
  0
LINE
  5
1F3
100
AcDbEntity
  8
M04
100
AcDbLine
 10
538.341868
 20
180.583762
 30
0.0
 11
538.341868
 21
176.583762
 31
0.0
  0
LINE
  5
1F4
100
AcDbEntity
  8
M04
100
AcDbLine
 10
549.341868
 20
180.583762
 30
0.0
 11
549.341868
 21
176.583762
 31
0.0
  0
LINE
  5
1F5
100
AcDbEntity
  8
M05
100
AcDbLine
 10
546.841868
 20
181.583762
 30
0.0
 11
540.841868
 21
181.583762
 31
0.0
  0
LINE
  5
1F6
102
{ACAD_REACTORS
330
1DD
102
}
100
AcDbEntity
  8
M04
100
AcDbLine
 10
541.541868
 20
193.883762
 30
0.0
 11
543.841868
 21
195.211668
 31
0.0
  0
LINE
  5
1F7
102
{ACAD_REACTORS
330
1DD
102
}
100
AcDbEntity
  8
M04
100
AcDbLine
 10
546.141868
 20
193.883762
 30
0.0
 11
543.841868
 21
195.211668
 31
0.0
  0
LINE
  5
1F8
100
AcDbEntity
  8
M04
100
AcDbLine
 10
546.141868
 20
193.883762
 30
0.0
 11
541.541868
 21
193.883762
 31
0.0
  0
LINE
  5
1F9
102
{ACAD_REACTORS
330
1DD
102
}
100
AcDbEntity
  8
M04
100
AcDbLine
 10
546.841868
 20
192.383762
 30
0.0
 11
540.841868
 21
192.383762
 31
0.0
  0
ARC
  5
1FA
100
AcDbEntity
  8
M05
100
AcDbCircle
 10
543.841868
 20
183.109899
 30
0.0
 40
5.826136
100
AcDbArc
 50
205.69541
 51
334.30459
  0
LINE
  5
1FB
100
AcDbEntity
  8
M05
100
AcDbLine
 10
540.841868
 20
189.883762
 30
0.0
 11
541.541868
 21
190.583762
 31
0.0
  0
LINE
  5
1FC
100
AcDbEntity
  8
M05
100
AcDbLine
 10
546.841868
 20
189.883762
 30
0.0
 11
546.141868
 21
190.583762
 31
0.0
  0
LINE
  5
1FD
100
AcDbEntity
  8
M05
100
AcDbLine
 10
546.841868
 20
189.883762
 30
0.0
 11
540.841868
 21
189.883762
 31
0.0
  0
LINE
  5
1FE
100
AcDbEntity
  8
M05
100
AcDbLine
 10
546.141868
 20
190.583762
 30
0.0
 11
541.541868
 21
190.583762
 31
0.0
  0
LINE
  5
1FF
100
AcDbEntity
  8
M04
100
AcDbLine
 10
547.541868
 20
182.583762
 30
0.0
 11
547.541868
 21
180.583762
 31
0.0
  0
LINE
  5
200
100
AcDbEntity
  8
M04
100
AcDbLine
 10
540.141868
 20
182.583762
 30
0.0
 11
540.141868
 21
180.583762
 31
0.0
  0
LINE
  5
201
100
AcDbEntity
  8
M05
100
AcDbLine
 10
541.541868
 20
190.583762
 30
0.0
 11
541.541868
 21
181.583762
 31
0.0
  0
LINE
  5
202
100
AcDbEntity
  8
M05
100
AcDbLine
 10
546.141868
 20
190.583762
 30
0.0
 11
546.141868
 21
181.583762
 31
0.0
  0
LINE
  5
203
102
{ACAD_REACTORS
330
1DD
102
}
100
AcDbEntity
  8
M05
100
AcDbLine
 10
546.841868
 20
189.883762
 30
0.0
 11
546.841868
 21
180.583762
 31
0.0
  0
LINE
  5
204
102
{ACAD_REACTORS
330
1DD
102
}
100
AcDbEntity
  8
M05
100
AcDbLine
 10
540.841868
 20
189.883762
 30
0.0
 11
540.841868
 21
180.583762
 31
0.0
  0
LINE
  5
205
100
AcDbEntity
  8
M04
100
AcDbLine
 10
538.341868
 20
180.583762
 30
0.0
 11
538.591868
 21
180.583762
 31
0.0
  0
LINE
  5
206
100
AcDbEntity
  8
CENTRE
100
AcDbLine
 10
543.841868
 20
197.850263
 30
0.0
 11
543.841868
 21
172.937574
 31
0.0
  0
LINE
  5
207
102
{ACAD_REACTORS
330
1DD
102
}
100
AcDbEntity
  8
M04
100
AcDbLine
 10
592.841868
 20
189.883762
 30
0.0
 11
592.841868
 21
192.383762
 31
0.0
  0
LINE
  5
208
102
{ACAD_REACTORS
330
1DD
102
}
100
AcDbEntity
  8
M04
100
AcDbLine
 10
593.541868
 20
190.583762
 30
0.0
 11
593.541868
 21
193.883762
 31
0.0
  0
LINE
  5
209
102
{ACAD_REACTORS
330
1DD
102
}
100
AcDbEntity
  8
M04
100
AcDbLine
 10
598.841868
 20
189.883762
 30
0.0
 11
598.841868
 21
192.383762
 31
0.0
  0
LINE
  5
20A
102
{ACAD_REACTORS
330
1DD
102
}
100
AcDbEntity
  8
M04
100
AcDbLine
 10
598.141868
 20
190.583762
 30
0.0
 11
598.141868
 21
193.883762
 31
0.0
  0
LINE
  5
20B
100
AcDbEntity
  8
M05
100
AcDbLine
 10
601.091868
 20
180.583762
 30
0.0
 11
590.591868
 21
180.583762
 31
0.0
  0
LINE
  5
20C
100
AcDbEntity
  8
M04
100
AcDbLine
 10
590.591868
 20
180.583762
 30
0.0
 11
590.341868
 21
180.583762
 31
0.0
  0
LINE
  5
20D
100
AcDbEntity
  8
M04
100
AcDbLine
 10
601.341868
 20
180.583762
 30
0.0
 11
601.341868
 21
176.583762
 31
0.0
  0
LINE
  5
20E
100
AcDbEntity
  8
M04
100
AcDbLine
 10
590.341868
 20
180.583762
 30
0.0
 11
590.341868
 21
176.583762
 31
0.0
  0
LINE
  5
20F
100
AcDbEntity
  8
M05
100
AcDbLine
 10
592.841868
 20
181.583762
 30
0.0
 11
598.841868
 21
181.583762
 31
0.0
  0
LINE
  5
210
102
{ACAD_REACTORS
330
1DD
102
}
100
AcDbEntity
  8
M04
100
AcDbLine
 10
598.141868
 20
193.883762
 30
0.0
 11
595.841868
 21
195.211668
 31
0.0
  0
LINE
  5
211
102
{ACAD_REACTORS
330
1DD
102
}
100
AcDbEntity
  8
M04
100
AcDbLine
 10
593.541868
 20
193.883762
 30
0.0
 11
595.841868
 21
195.211668
 31
0.0
  0
LINE
  5
212
100
AcDbEntity
  8
M04
100
AcDbLine
 10
593.541868
 20
193.883762
 30
0.0
 11
598.141868
 21
193.883762
 31
0.0
  0
LINE
  5
213
102
{ACAD_REACTORS
330
1DD
102
}
100
AcDbEntity
  8
M04
100
AcDbLine
 10
592.841868
 20
192.383762
 30
0.0
 11
598.841868
 21
192.383762
 31
0.0
  0
ARC
  5
214
100
AcDbEntity
  8
M05
100
AcDbCircle
 10
595.841868
 20
183.109899
 30
0.0
 40
5.826136
100
AcDbArc
 50
205.69541
 51
334.30459
  0
LINE
  5
215
100
AcDbEntity
  8
M05
100
AcDbLine
 10
598.841868
 20
189.883762
 30
0.0
 11
598.141868
 21
190.583762
 31
0.0
  0
LINE
  5
216
100
AcDbEntity
  8
M05
100
AcDbLine
 10
592.841868
 20
189.883762
 30
0.0
 11
593.541868
 21
190.583762
 31
0.0
  0
LINE
  5
217
100
AcDbEntity
  8
M05
100
AcDbLine
 10
592.841868
 20
189.883762
 30
0.0
 11
598.841868
 21
189.883762
 31
0.0
  0
LINE
  5
218
100
AcDbEntity
  8
M05
100
AcDbLine
 10
593.541868
 20
190.583762
 30
0.0
 11
598.141868
 21
190.583762
 31
0.0
  0
LINE
  5
219
100
AcDbEntity
  8
M04
100
AcDbLine
 10
592.141868
 20
182.583762
 30
0.0
 11
592.141868
 21
180.583762
 31
0.0
  0
LINE
  5
21A
100
AcDbEntity
  8
M04
100
AcDbLine
 10
599.541868
 20
182.583762
 30
0.0
 11
599.541868
 21
180.583762
 31
0.0
  0
LINE
  5
21B
100
AcDbEntity
  8
M05
100
AcDbLine
 10
598.141868
 20
190.583762
 30
0.0
 11
598.141868
 21
181.583762
 31
0.0
  0
LINE
  5
21C
100
AcDbEntity
  8
M05
100
AcDbLine
 10
593.541868
 20
190.583762
 30
0.0
 11
593.541868
 21
181.583762
 31
0.0
  0
LINE
  5
21D
102
{ACAD_REACTORS
330
1DD
102
}
100
AcDbEntity
  8
M05
100
AcDbLine
 10
592.841868
 20
189.883762
 30
0.0
 11
592.841868
 21
180.583762
 31
0.0
  0
LINE
  5
21E
102
{ACAD_REACTORS
330
1DD
102
}
100
AcDbEntity
  8
M05
100
AcDbLine
 10
598.841868
 20
189.883762
 30
0.0
 11
598.841868
 21
180.583762
 31
0.0
  0
LINE
  5
21F
100
AcDbEntity
  8
M04
100
AcDbLine
 10
601.341868
 20
180.583762
 30
0.0
 11
601.091868
 21
180.583762
 31
0.0
  0
LINE
  5
220
100
AcDbEntity
  8
CENTRE
100
AcDbLine
 10
595.841868
 20
197.850263
 30
0.0
 11
595.841868
 21
172.937574
 31
0.0
  0
TEXT
  5
221
100
AcDbEntity
  8
TEXT
100
AcDbText
 10
574.915949
 20
178.15125
 30
0.0
 40
2.0
  1
MA010000
 41
0.9
100
AcDbText
  0
LINE
  5
222
100
AcDbEntity
  8
M04
100
AcDbLine
 10
539.841868
 20
157.583762
 30
0.0
 11
539.841868
 21
148.583762
 31
0.0
  0
LINE
  5
223
100
AcDbEntity
  8
M05
100
AcDbLine
 10
535.841868
 20
177.283762
 30
0.0
 11
536.541868
 21
176.583762
 31
0.0
  0
LINE
  5
224
102
{ACAD_REACTORS
330
1DC
102
}
100
AcDbEntity
  8
M02
100
AcDbLine
 10
534.841868
 20
182.583762
 30
0.0
 11
534.841868
 21
179.583762
 31
0.0
  0
LINE
  5
226
102
{ACAD_REACTORS
330
1DD
102
}
100
AcDbEntity
  8
M01
100
AcDbLine
 10
579.841868
 20
182.583762
 30
0.0
 11
592.841868
 21
182.583762
 31
0.0
  0
LINE
  5
227
100
AcDbEntity
  8
M04
100
AcDbLine
 10
539.841868
 20
157.583762
 30
0.0
 11
599.841868
 21
157.583762
 31
0.0
  0
LINE
  5
228
100
AcDbEntity
  8
M04
100
AcDbLine
 10
549.841868
 20
167.583762
 30
0.0
 11
539.841868
 21
157.583762
 31
0.0
  0
LINE
  5
229
100
AcDbEntity
  8
M04
100
AcDbLine
 10
599.841868
 20
157.583762
 30
0.0
 11
599.841868
 21
148.583762
 31
0.0
  0
LINE
  5
22A
100
AcDbEntity
  8
M04
100
AcDbLine
 10
589.841868
 20
167.583762
 30
0.0
 11
599.841868
 21
157.583762
 31
0.0
  0
LINE
  5
22B
100
AcDbEntity
  8
M05
100
AcDbLine
 10
566.800994
 20
174.282548
 30
0.0
 11
572.882742
 21
174.282548
 31
0.0
  0
ARC
  5
22C
100
AcDbEntity
  8
M05
100
AcDbCircle
 10
569.841868
 20
159.083762
 30
0.0
 40
15.5
100
AcDbArc
 50
101.313981
 51
126.249321
  0
LINE
  5
22D
100
AcDbEntity
  8
M05
100
AcDbLine
 10
565.841868
 20
192.583762
 30
0.0
 11
566.800994
 21
174.282548
 31
0.0
  0
LINE
  5
22E
100
AcDbEntity
  8
M05
100
AcDbLine
 10
573.841868
 20
192.583762
 30
0.0
 11
572.882742
 21
174.282548
 31
0.0
  0
ARC
  5
22F
100
AcDbEntity
  8
M05
100
AcDbCircle
 10
569.841868
 20
159.083762
 30
0.0
 40
15.5
100
AcDbArc
 50
53.750679
 51
78.686019
  0
LINE
  5
230
100
AcDbEntity
  8
M04
100
AcDbLine
 10
549.841868
 20
173.583762
 30
0.0
 11
549.841868
 21
175.583762
 31
0.0
  0
LINE
  5
231
100
AcDbEntity
  8
M04
100
AcDbLine
 10
549.841868
 20
172.283762
 30
0.0
 11
549.841868
 21
167.583762
 31
0.0
  0
LINE
  5
232
100
AcDbEntity
  8
M04
100
AcDbLine
 10
589.841868
 20
173.583762
 30
0.0
 11
589.841868
 21
175.583762
 31
0.0
  0
LINE
  5
233
100
AcDbEntity
  8
M04
100
AcDbLine
 10
589.841868
 20
172.283762
 30
0.0
 11
589.841868
 21
167.583762
 31
0.0
  0
LINE
  5
234
100
AcDbEntity
  8
M04
100
AcDbLine
 10
589.841868
 20
167.583762
 30
0.0
 11
549.841868
 21
167.583762
 31
0.0
  0
LINE
  5
235
100
AcDbEntity
  8
M05
100
AcDbLine
 10
550.341868
 20
173.583762
 30
0.0
 11
549.841868
 21
173.583762
 31
0.0
  0
LINE
  5
236
100
AcDbEntity
  8
M05
100
AcDbLine
 10
550.341868
 20
176.583762
 30
0.0
 11
536.541868
 21
176.583762
 31
0.0
  0
LINE
  5
237
100
AcDbEntity
  8
M05
100
AcDbLine
 10
550.341868
 20
176.583762
 30
0.0
 11
550.341868
 21
173.583762
 31
0.0
  0
LINE
  5
238
100
AcDbEntity
  8
M05
100
AcDbLine
 10
589.341868
 20
176.583762
 30
0.0
 11
589.341868
 21
173.583762
 31
0.0
  0
LINE
  5
239
100
AcDbEntity
  8
M05
100
AcDbLine
 10
589.841868
 20
173.583762
 30
0.0
 11
589.341868
 21
173.583762
 31
0.0
  0
LINE
  5
23A
100
AcDbEntity
  8
M05
100
AcDbLine
 10
550.541868
 20
171.583762
 30
0.0
 11
549.841868
 21
172.283762
 31
0.0
  0
LINE
  5
23B
100
AcDbEntity
  8
M05
100
AcDbLine
 10
589.141868
 20
171.583762
 30
0.0
 11
589.841868
 21
172.283762
 31
0.0
  0
LINE
  5
23C
100
AcDbEntity
  8
M05
100
AcDbLine
 10
589.141868
 20
171.583762
 30
0.0
 11
550.541868
 21
171.583762
 31
0.0
  0
LINE
  5
23D
100
AcDbEntity
  8
M05
100
AcDbLine
 10
549.841868
 20
173.583762
 30
0.0
 11
549.841868
 21
172.283762
 31
0.0
  0
LINE
  5
23E
100
AcDbEntity
  8
M05
100
AcDbLine
 10
589.841868
 20
173.583762
 30
0.0
 11
589.841868
 21
172.283762
 31
0.0
  0
LINE
  5
23F
102
{ACAD_REACTORS
330
1DD
102
}
100
AcDbEntity
  8
M04
100
AcDbLine
 10
559.841868
 20
183.083762
 30
0.0
 11
559.341868
 21
182.583762
 31
0.0
  0
LINE
  5
240
102
{ACAD_REACTORS
330
1DD
102
}
100
AcDbEntity
  8
M04
100
AcDbLine
 10
579.841868
 20
183.083762
 30
0.0
 11
580.341868
 21
182.583762
 31
0.0
  0
LINE
  5
241
100
AcDbEntity
  8
M05
100
AcDbLine
 10
535.841868
 20
181.883762
 30
0.0
 11
536.541868
 21
182.583762
 31
0.0
  0
LINE
  5
242
100
AcDbEntity
  8
M05
100
AcDbLine
 10
535.841868
 20
181.883762
 30
0.0
 11
535.841868
 21
177.283762
 31
0.0
  0
LINE
  5
243
100
AcDbEntity
  8
M05
100
AcDbLine
 10
603.841868
 20
181.883762
 30
0.0
 11
603.141868
 21
182.583762
 31
0.0
  0
LINE
  5
244
100
AcDbEntity
  8
M05
100
AcDbLine
 10
603.841868
 20
177.283762
 30
0.0
 11
603.141868
 21
176.583762
 31
0.0
  0
LINE
  5
245
102
{ACAD_REACTORS
330
9B
102
}
100
AcDbEntity
  8
M02
100
AcDbLine
 10
604.841868
 20
182.583762
 30
0.0
 11
604.841868
 21
179.583762
 31
0.0
  0
LINE
  5
246
100
AcDbEntity
  8
M05
100
AcDbLine
 10
603.141868
 20
176.583762
 30
0.0
 11
589.341868
 21
176.583762
 31
0.0
  0
LINE
  5
247
100
AcDbEntity
  8
M05
100
AcDbLine
 10
603.841868
 20
181.883762
 30
0.0
 11
603.841868
 21
177.283762
 31
0.0
  0
LINE
  5
248
102
{ACAD_REACTORS
330
1DD
102
}
100
AcDbEntity
  8
M04
100
AcDbLine
 10
559.841868
 20
191.583762
 30
0.0
 11
559.841868
 21
192.583762
 31
0.0
  0
LINE
  5
249
102
{ACAD_REACTORS
330
1DD
102
}
100
AcDbEntity
  8
M04
100
AcDbLine
 10
560.841868
 20
192.583762
 30
0.0
 11
559.841868
 21
192.583762
 31
0.0
  0
LINE
  5
24A
102
{ACAD_REACTORS
330
1DD
102
}
100
AcDbEntity
  8
M04
100
AcDbLine
 10
579.841868
 20
191.583762
 30
0.0
 11
579.841868
 21
192.583762
 31
0.0
  0
LINE
  5
24B
102
{ACAD_REACTORS
330
1DD
102
}
100
AcDbEntity
  8
M04
100
AcDbLine
 10
578.841868
 20
192.583762
 30
0.0
 11
579.841868
 21
192.583762
 31
0.0
  0
LINE
  5
24C
100
AcDbEntity
  8
M05
100
AcDbLine
 10
578.841868
 20
192.583762
 30
0.0
 11
579.841868
 21
191.583762
 31
0.0
  0
LINE
  5
24D
100
AcDbEntity
  8
M05
100
AcDbLine
 10
559.841868
 20
191.583762
 30
0.0
 11
560.841868
 21
192.583762
 31
0.0
  0
LINE
  5
24E
102
{ACAD_REACTORS
330
1DD
102
}
100
AcDbEntity
  8
M05
100
AcDbLine
 10
578.841868
 20
192.583762
 30
0.0
 11
560.841868
 21
192.583762
 31
0.0
  0
LINE
  5
24F
102
{ACAD_REACTORS
330
1DD
102
}
100
AcDbEntity
  8
M05
100
AcDbLine
 10
559.841868
 20
191.583762
 30
0.0
 11
559.841868
 21
182.583762
 31
0.0
  0
LINE
  5
250
102
{ACAD_REACTORS
330
1DD
102
}
100
AcDbEntity
  8
M05
100
AcDbLine
 10
579.841868
 20
191.583762
 30
0.0
 11
579.841868
 21
182.583762
 31
0.0
  0
LINE
  5
251
100
AcDbEntity
  8
DIMS
 62
     4
100
AcDbLine
 10
669.841868
 20
209.483762
 30
0.0
 11
669.841868
 21
211.783762
 31
0.0
  0
LINE
  5
252
100
AcDbEntity
  8
DIMS
 62
     4
100
AcDbLine
 10
669.841868
 20
202.683762
 30
0.0
 11
669.841868
 21
200.383762
 31
0.0
  0
LINE
  5
253
100
AcDbEntity
  8
DIMS
 62
     4
100
AcDbLine
 10
669.841868
 20
204.383762
 30
0.0
 11
669.841868
 21
207.783762
 31
0.0
  0
LINE
  5
254
100
AcDbEntity
  8
DIMS
 62
     4
100
AcDbLine
 10
469.841868
 20
209.483762
 30
0.0
 11
469.841868
 21
211.783762
 31
0.0
  0
LINE
  5
255
100
AcDbEntity
  8
DIMS
 62
     4
100
AcDbLine
 10
469.841868
 20
202.683762
 30
0.0
 11
469.841868
 21
200.383762
 31
0.0
  0
LINE
  5
256
100
AcDbEntity
  8
DIMS
 62
     4
100
AcDbLine
 10
469.841868
 20
204.383762
 30
0.0
 11
469.841868
 21
207.783762
 31
0.0
  0
CIRCLE
  5
257
102
{ACAD_REACTORS
330
20
102
}
100
AcDbEntity
  8
M01
100
AcDbCircle
 10
469.841868
 20
206.083762
 30
0.0
 40
4.0
  0
DIMENSION
  5
258
100
AcDbEntity
  8
DIMS
100
AcDbDimension
  2
*D5
 10
615.608968
 20
254.983762
 30
0.0
 11
615.608968
 21
244.285179
 31
0.0
 12
-161.519661
 22
-347.374182
 32
0.0
 70
   128
  3
DIM1
100
AcDbAlignedDimension
 13
593.066868
 23
229.583762
 33
0.0
 14
592.066868
 24
254.983762
 34
0.0
 50
270.0
100
AcDbRotatedDimension
1001
ACAD
1000
DSTYLE
1002
{
1070
   288
1070
     1
1070
   144
1040
1.0
1002
}
  0
DIMENSION
  5
265
100
AcDbEntity
  8
DIMS
100
AcDbDimension
  2
*D4
 10
593.066868
 20
286.731575
 30
0.0
 11
571.14732
 21
286.731575
 31
0.0
 12
-161.519661
 22
-347.374182
 32
0.0
 70
   128
  1
%%c46.5
  3
DIM1
100
AcDbAlignedDimension
 13
546.616868
 23
249.406412
 33
0.0
 14
593.066868
 24
249.406412
 34
0.0
100
AcDbRotatedDimension
1001
ACAD
1000
DSTYLE
1002
{
1070
   288
1070
     1
1070
   144
1040
1.0
1002
}
  0
DIMENSION
  5
272
100
AcDbEntity
  8
DIMS
100
AcDbDimension
  2
*D3
 10
547.616868
 20
276.690344
 30
0.0
 11
570.80708
 21
276.690344
 31
0.0
 12
-161.519661
 22
-347.374182
 32
0.0
 70
   128
  1
%%c<> H7
  3
DIM1
100
AcDbAlignedDimension
 13
592.066868
 23
254.983762
 33
0.0
 14
547.616868
 24
254.983762
 34
0.0
100
AcDbRotatedDimension
1001
ACAD
1000
DSTYLE
1002
{
1070
   288
1070
     1
1070
   144
1040
1.0
1002
}
  0
DIMENSION
  5
27F
100
AcDbEntity
  8
DIMS
100
AcDbDimension
  2
*D2
 10
518.410073
 20
249.983762
 30
0.0
 11
518.410073
 21
243.283762
 31
0.0
 12
-161.519661
 22
-347.374182
 32
0.0
 70
   128
  1
13.4
  3
DIM1
100
AcDbAlignedDimension
 13
537.841868
 23
236.583762
 33
0.0
 14
547.616868
 24
249.983762
 34
0.0
 50
270.0
100
AcDbRotatedDimension
1001
ACAD
1000
DSTYLE
1002
{
1070
   288
1070
     1
1070
   144
1040
1.0
1002
}
  0
LINE
  5
28C
102
{ACAD_REACTORS
330
1DD
102
}
100
AcDbEntity
  8
M05
100
AcDbLine
 10
560.341868
 20
229.583762
 30
0.0
 11
560.341868
 21
225.583762
 31
0.0
  0
LINE
  5
28D
102
{ACAD_REACTORS
330
1DD
102
}
100
AcDbEntity
  8
M05
100
AcDbLine
 10
579.341868
 20
229.583762
 30
0.0
 11
579.341868
 21
225.583762
 31
0.0
  0
TEXT
  5
28E
100
AcDbEntity
  8
TEXT
100
AcDbText
 10
575.553242
 20
232.304489
 30
0.0
 40
2.0
  1
MA010002
 41
0.9
100
AcDbText
  0
LINE
  5
28F
102
{ACAD_REACTORS
330
1DA
102
}
100
AcDbEntity
  8
M02
100
AcDbLine
 10
546.616868
 20
232.583762
 30
0.0
 11
546.616868
 21
229.583762
 31
0.0
  0
LINE
  5
290
100
AcDbEntity
  8
M03
100
AcDbLine
 10
572.141868
 20
236.983762
 30
0.0
 11
572.141868
 21
224.583762
 31
0.0
  0
LINE
  5
291
100
AcDbEntity
  8
M03
100
AcDbLine
 10
567.541868
 20
236.983762
 30
0.0
 11
567.541868
 21
224.583762
 31
0.0
  0
LINE
  5
292
100
AcDbEntity
  8
M03
100
AcDbLine
 10
566.841868
 20
236.983762
 30
0.0
 11
566.841868
 21
224.583762
 31
0.0
  0
LINE
  5
293
100
AcDbEntity
  8
M03
100
AcDbLine
 10
572.841868
 20
236.983762
 30
0.0
 11
572.841868
 21
224.583762
 31
0.0
  0
ARC
  5
294
100
AcDbEntity
  8
M03
100
AcDbCircle
 10
558.341868
 20
241.983762
 30
0.0
 40
5.0
100
AcDbArc
 50
180.0
 51
270.0
  0
ARC
  5
295
100
AcDbEntity
  8
M03
100
AcDbCircle
 10
581.341868
 20
241.983762
 30
0.0
 40
5.0
100
AcDbArc
 50
270.0
 51
0.0
  0
LINE
  5
296
100
AcDbEntity
  8
M03
100
AcDbLine
 10
553.341868
 20
254.983762
 30
0.0
 11
553.341868
 21
241.983762
 31
0.0
  0
LINE
  5
297
100
AcDbEntity
  8
M03
100
AcDbLine
 10
586.341868
 20
254.983762
 30
0.0
 11
586.341868
 21
241.983762
 31
0.0
  0
LINE
  5
298
100
AcDbEntity
  8
M03
100
AcDbLine
 10
581.341868
 20
236.983762
 30
0.0
 11
558.341868
 21
236.983762
 31
0.0
  0
LINE
  5
299
100
AcDbEntity
  8
M05
100
AcDbLine
 10
548.116868
 20
230.283762
 30
0.0
 11
591.566868
 21
230.283762
 31
0.0
  0
LINE
  5
29A
100
AcDbEntity
  8
M05
100
AcDbLine
 10
590.866868
 20
229.583762
 30
0.0
 11
591.566868
 21
230.283762
 31
0.0
  0
LINE
  5
29B
100
AcDbEntity
  8
M05
100
AcDbLine
 10
548.116868
 20
230.283762
 30
0.0
 11
548.816868
 21
229.583762
 31
0.0
  0
LINE
  5
29C
100
AcDbEntity
  8
M05
100
AcDbLine
 10
548.116868
 20
249.983762
 30
0.0
 11
548.116868
 21
230.283762
 31
0.0
  0
LINE
  5
29D
100
AcDbEntity
  8
M04
100
AcDbLine
 10
546.616868
 20
249.406412
 30
0.0
 11
548.116868
 21
249.406412
 31
0.0
  0
LINE
  5
29E
100
AcDbEntity
  8
M04
100
AcDbLine
 10
546.616868
 20
249.406412
 30
0.0
 11
546.616868
 21
236.583762
 31
0.0
  0
LINE
  5
29F
100
AcDbEntity
  8
M04
100
AcDbLine
 10
547.616868
 20
249.983762
 30
0.0
 11
546.616868
 21
249.406412
 31
0.0
  0
LINE
  5
2A0
100
AcDbEntity
  8
M04
100
AcDbLine
 10
547.616868
 20
253.983762
 30
0.0
 11
547.616868
 21
254.983762
 31
0.0
  0
LINE
  5
2A1
100
AcDbEntity
  8
M04
100
AcDbLine
 10
548.616868
 20
254.983762
 30
0.0
 11
547.616868
 21
254.983762
 31
0.0
  0
LINE
  5
2A2
100
AcDbEntity
  8
M05
100
AcDbLine
 10
548.616868
 20
254.983762
 30
0.0
 11
547.616868
 21
253.983762
 31
0.0
  0
LINE
  5
2A3
100
AcDbEntity
  8
M05
100
AcDbLine
 10
547.616868
 20
253.983762
 30
0.0
 11
547.616868
 21
249.983762
 31
0.0
  0
LINE
  5
2A4
100
AcDbEntity
  8
M05
100
AcDbLine
 10
591.566868
 20
249.983762
 30
0.0
 11
591.566868
 21
230.283762
 31
0.0
  0
LINE
  5
2A5
100
AcDbEntity
  8
M04
100
AcDbLine
 10
593.066868
 20
249.406412
 30
0.0
 11
591.566868
 21
249.406412
 31
0.0
  0
LINE
  5
2A6
100
AcDbEntity
  8
M04
100
AcDbLine
 10
593.066868
 20
249.406412
 30
0.0
 11
593.066868
 21
236.583762
 31
0.0
  0
LINE
  5
2A7
100
AcDbEntity
  8
M04
100
AcDbLine
 10
592.066868
 20
249.983762
 30
0.0
 11
593.066868
 21
249.406412
 31
0.0
  0
LINE
  5
2A8
100
AcDbEntity
  8
M04
100
AcDbLine
 10
592.066868
 20
253.983762
 30
0.0
 11
592.066868
 21
254.983762
 31
0.0
  0
LINE
  5
2A9
100
AcDbEntity
  8
M04
100
AcDbLine
 10
591.066868
 20
254.983762
 30
0.0
 11
592.066868
 21
254.983762
 31
0.0
  0
LINE
  5
2AA
100
AcDbEntity
  8
M05
100
AcDbLine
 10
560.341868
 20
225.583762
 30
0.0
 11
579.341868
 21
225.583762
 31
0.0
  0
LINE
  5
2AB
100
AcDbEntity
  8
M05
100
AcDbLine
 10
547.616868
 20
253.983762
 30
0.0
 11
592.066868
 21
253.983762
 31
0.0
  0
LINE
  5
2AC
100
AcDbEntity
  8
M05
100
AcDbLine
 10
591.066868
 20
254.983762
 30
0.0
 11
592.066868
 21
253.983762
 31
0.0
  0
LINE
  5
2AD
100
AcDbEntity
  8
M05
100
AcDbLine
 10
592.066868
 20
253.983762
 30
0.0
 11
592.066868
 21
249.983762
 31
0.0
  0
LINE
  5
2AE
100
AcDbEntity
  8
M05
100
AcDbLine
 10
592.066868
 20
249.983762
 30
0.0
 11
547.616868
 21
249.983762
 31
0.0
  0
LINE
  5
2AF
100
AcDbEntity
  8
M05
100
AcDbLine
 10
591.066868
 20
254.983762
 30
0.0
 11
548.616868
 21
254.983762
 31
0.0
  0
LINE
  5
2B0
102
{ACAD_REACTORS
330
1DB
102
}
100
AcDbEntity
  8
M02
100
AcDbLine
 10
593.066868
 20
232.583762
 30
0.0
 11
593.066868
 21
229.583762
 31
0.0
  0
LINE
  5
2B1
102
{ACAD_REACTORS
330
1DD
102
}
100
AcDbEntity
  8
M04
100
AcDbLine
 10
561.341868
 20
224.583762
 30
0.0
 11
560.341868
 21
224.583762
 31
0.0
  0
LINE
  5
2B2
102
{ACAD_REACTORS
330
1DD
102
}
100
AcDbEntity
  8
M04
100
AcDbLine
 10
560.341868
 20
225.583762
 30
0.0
 11
560.341868
 21
224.583762
 31
0.0
  0
LINE
  5
2B3
102
{ACAD_REACTORS
330
1DD
102
}
100
AcDbEntity
  8
M04
100
AcDbLine
 10
578.341868
 20
224.583762
 30
0.0
 11
579.341868
 21
224.583762
 31
0.0
  0
LINE
  5
2B4
102
{ACAD_REACTORS
330
1DD
102
}
100
AcDbEntity
  8
M04
100
AcDbLine
 10
579.341868
 20
225.583762
 30
0.0
 11
579.341868
 21
224.583762
 31
0.0
  0
LINE
  5
2B5
100
AcDbEntity
  8
M05
100
AcDbLine
 10
561.341868
 20
224.583762
 30
0.0
 11
560.341868
 21
225.583762
 31
0.0
  0
LINE
  5
2B6
100
AcDbEntity
  8
M05
100
AcDbLine
 10
579.341868
 20
225.583762
 30
0.0
 11
578.341868
 21
224.583762
 31
0.0
  0
LINE
  5
2B7
102
{ACAD_REACTORS
330
1DD
102
}
100
AcDbEntity
  8
M05
100
AcDbLine
 10
578.341868
 20
224.583762
 30
0.0
 11
561.341868
 21
224.583762
 31
0.0
  0
POINT
  5
2B8
100
AcDbEntity
  8
DEFPOINTS
  6
BYBLOCK
 62
     0
100
AcDbPoint
 10
569.841868
 20
229.583762
 30
0.0
  0
LINE
  5
2B9
102
{ACAD_REACTORS
330
1DD
102
}
100
AcDbEntity
  8
M04
100
AcDbLine
 10
559.641868
 20
229.583762
 30
0.0
 11
560.341868
 21
228.883762
 31
0.0
  0
LINE
  5
2BA
102
{ACAD_REACTORS
330
1DD
102
}
100
AcDbEntity
  8
M04
100
AcDbLine
 10
580.041868
 20
229.583762
 30
0.0
 11
579.341868
 21
228.883762
 31
0.0
  0
HATCH
  5
2BB
100
AcDbEntity
  8
HATCH
100
AcDbHatch
 10
0.0
 20
0.0
 30
0.0
210
0.0
220
0.0
230
1.0
  2
_U
 70
     0
 71
     1
 91
        2
 92
        7
 72
     0
 73
     1
 93
       11
 10
433.1418684629995
 20
182.5837624368933
 10
427.7007504504572
 20
182.5837624368933
 10
423.3418684629998
 20
178.224880449436
 10
423.3418684629998
 20
175.5837624368933
 10
426.3418684630009
 20
175.5837624368933
 10
427.3418684630002
 20
176.5837624368929
 10
429.3418684629998
 20
176.5837624368929
 10
430.3418684629994
 20
175.5837624368933
 10
433.1418684630001
 20
175.5837624368933
 10
433.8418684629998
 20
176.2837624368929
 10
433.8418684629998
 20
181.8837624368931
 97
       10
330
4AE
330
61E
330
4A5
330
4A0
330
61D
330
483
330
484
330
482
330
4AF
330
4B0
 92
        7
 72
     0
 73
     1
 93
       11
 10
406.541868463
 20
182.5837624368933
 10
405.8418684629999
 20
181.8837624368931
 10
405.8418684629999
 20
176.2837624368927
 10
406.5418684629994
 20
175.5837624368933
 10
409.3418684630004
 20
175.5837624368933
 10
410.341868463
 20
176.5837624368929
 10
412.3418684629992
 20
176.5837624368929
 10
413.3418684629988
 20
175.5837624368933
 10
416.3418684629998
 20
175.5837624368933
 10
416.3418684629998
 20
178.2248804494361
 10
411.9829864755425
 20
182.5837624368933
 97
       10
330
61E
330
4B3
330
4B6
330
4B4
330
60D
330
485
330
487
330
486
330
4A1
330
4A3
 75
     0
 76
     0
 52
135.0
 41
1.5
 77
     0
 78
     1
 53
135.0
 43
-0.126699
 44
75.661358
 45
-1.060660171779821
 46
-1.060660171779821
 79
     0
 47
0.062709
 98
        2
 10
441.191142
 20
180.009013
 10
409.197152
 20
179.883595
  0
CIRCLE
  5
2BC
102
{ACAD_REACTORS
330
20
102
}
100
AcDbEntity
  8
M01
100
AcDbCircle
 10
419.841868
 20
206.083762
 30
0.0
 40
4.0
  0
LINE
  5
2BD
102
{ACAD_REACTORS
330
1DD
102
}
100
AcDbEntity
  8
M01
100
AcDbLine
 10
565.841868
 20
202.083762
 30
0.0
 11
491.841868
 21
202.083762
 31
0.0
  0
LINE
  5
2BE
100
AcDbEntity
  8
M01
100
AcDbLine
 10
569.841868
 20
206.083762
 30
0.0
 11
573.841868
 21
202.083762
 31
0.0
  0
LINE
  5
2BF
100
AcDbEntity
  8
M01
100
AcDbLine
 10
565.841868
 20
202.083762
 30
0.0
 11
569.841868
 21
206.083762
 31
0.0
  0
LINE
  5
2C0
102
{ACAD_REACTORS
330
1DD
102
}
100
AcDbEntity
  8
M01
100
AcDbLine
 10
565.841868
 20
202.083762
 30
0.0
 11
565.841868
 21
192.583762
 31
0.0
  0
LINE
  5
2C1
100
AcDbEntity
  8
CENTRE
100
AcDbLine
 10
287.365239
 20
482.247034
 30
0.0
 11
500.550293
 21
482.247034
 31
0.0
  0
LINE
  5
2C2
100
AcDbEntity
  8
DIMS
100
AcDbLine
 10
287.075876
 20
507.149277
 30
0.0
 11
287.075876
 21
482.247034
 31
0.0
  0
INSERT
  5
2C3
100
AcDbEntity
  8
DIMS
100
AcDbBlockReference
  2
ARROW1
 10
287.075876
 20
507.149277
 30
0.0
 41
10.0
 42
10.0
 43
10.0
 50
90.0
  0
LINE
  5
2CA
102
{ACAD_REACTORS
330
1DD
330
1DC
330
1DA
330
20
102
}
100
AcDbEntity
  8
CENTRE
100
AcDbLine
 10
491.841868
 20
240.678486
 30
0.0
 11
491.841868
 21
169.359379
 31
0.0
  0
CIRCLE
  5
2CB
102
{ACAD_REACTORS
330
1DD
102
}
100
AcDbEntity
  8
M01
100
AcDbCircle
 10
669.841868
 20
206.083762
 30
0.0
 40
4.0
  0
LEADER
  5
2CC
100
AcDbEntity
  8
DIMS
 62
     4
100
AcDbLeader
  3
DIM1$7
 76
     2
 10
415.103603
 20
327.797445
 30
0.0
 10
402.632019
 20
314.802685
 30
0.0
 77
   256
1001
ACAD
1000
DSTYLE
1002
{
1070
   144
1040
1.0
1002
}
  0
LINE
  5
2CE
100
AcDbEntity
  8
DIMS
 62
     4
100
AcDbLine
 10
376.841868
 20
485.647034
 30
0.0
 11
376.841868
 21
490.447034
 31
0.0
  0
LINE
  5
2CF
100
AcDbEntity
  8
DIMS
 62
     4
100
AcDbLine
 10
376.841868
 20
478.847034
 30
0.0
 11
376.841868
 21
474.047034
 31
0.0
  0
LINE
  5
2D0
100
AcDbEntity
  8
DIMS
 62
     4
100
AcDbLine
 10
380.241868
 20
382.247034
 30
0.0
 11
385.041868
 21
382.247034
 31
0.0
  0
LINE
  5
2D1
100
AcDbEntity
  8
DIMS
 62
     4
100
AcDbLine
 10
373.441868
 20
382.247034
 30
0.0
 11
368.641868
 21
382.247034
 31
0.0
  0
LINE
  5
2D2
100
AcDbEntity
  8
DIMS
 62
     4
100
AcDbLine
 10
376.841868
 20
480.547034
 30
0.0
 11
376.841868
 21
483.947034
 31
0.0
  0
LINE
  5
2D3
100
AcDbEntity
  8
DIMS
 62
     4
100
AcDbLine
 10
375.141868
 20
382.247034
 30
0.0
 11
378.541868
 21
382.247034
 31
0.0
  0
LINE
  5
2D4
100
AcDbEntity
  8
DIMS
 62
     4
100
AcDbLine
 10
376.841868
 20
385.647034
 30
0.0
 11
376.841868
 21
390.447034
 31
0.0
  0
LINE
  5
2D5
100
AcDbEntity
  8
DIMS
 62
     4
100
AcDbLine
 10
376.841868
 20
378.847034
 30
0.0
 11
376.841868
 21
374.047034
 31
0.0
  0
LINE
  5
2D6
100
AcDbEntity
  8
DIMS
 62
     4
100
AcDbLine
 10
376.841868
 20
380.547034
 30
0.0
 11
376.841868
 21
383.947034
 31
0.0
  0
LINE
  5
2D7
100
AcDbEntity
  8
DIMS
 62
     4
100
AcDbLine
 10
419.841868
 20
335.647034
 30
0.0
 11
419.841868
 21
340.447034
 31
0.0
  0
LINE
  5
2D8
100
AcDbEntity
  8
DIMS
 62
     4
100
AcDbLine
 10
419.841868
 20
328.847034
 30
0.0
 11
419.841868
 21
324.047034
 31
0.0
  0
LINE
  5
2D9
100
AcDbEntity
  8
DIMS
 62
     4
100
AcDbLine
 10
423.241868
 20
332.247034
 30
0.0
 11
428.041868
 21
332.247034
 31
0.0
  0
LINE
  5
2DA
100
AcDbEntity
  8
DIMS
 62
     4
100
AcDbLine
 10
416.441868
 20
332.247034
 30
0.0
 11
411.641868
 21
332.247034
 31
0.0
  0
LINE
  5
2DB
100
AcDbEntity
  8
DIMS
 62
     4
100
AcDbLine
 10
419.841868
 20
330.547034
 30
0.0
 11
419.841868
 21
333.947034
 31
0.0
  0
LINE
  5
2DC
100
AcDbEntity
  8
DIMS
 62
     4
100
AcDbLine
 10
418.141868
 20
332.247034
 30
0.0
 11
421.541868
 21
332.247034
 31
0.0
  0
LINE
  5
2DD
100
AcDbEntity
  8
DIMS
 62
     4
100
AcDbLine
 10
519.841868
 20
335.647034
 30
0.0
 11
519.841868
 21
340.447034
 31
0.0
  0
LINE
  5
2DE
100
AcDbEntity
  8
DIMS
 62
     4
100
AcDbLine
 10
519.841868
 20
328.847034
 30
0.0
 11
519.841868
 21
324.047034
 31
0.0
  0
LINE
  5
2DF
100
AcDbEntity
  8
DIMS
 62
     4
100
AcDbLine
 10
523.241868
 20
332.247034
 30
0.0
 11
528.041868
 21
332.247034
 31
0.0
  0
LINE
  5
2E0
100
AcDbEntity
  8
DIMS
 62
     4
100
AcDbLine
 10
516.441868
 20
332.247034
 30
0.0
 11
511.641868
 21
332.247034
 31
0.0
  0
LINE
  5
2E1
100
AcDbEntity
  8
DIMS
 62
     4
100
AcDbLine
 10
519.841868
 20
330.547034
 30
0.0
 11
519.841868
 21
333.947034
 31
0.0
  0
LINE
  5
2E2
100
AcDbEntity
  8
DIMS
 62
     4
100
AcDbLine
 10
518.141868
 20
332.247034
 30
0.0
 11
521.541868
 21
332.247034
 31
0.0
  0
LINE
  5
2E3
100
AcDbEntity
  8
DIMS
 62
     4
100
AcDbLine
 10
619.841868
 20
335.647034
 30
0.0
 11
619.841868
 21
340.447034
 31
0.0
  0
LINE
  5
2E4
100
AcDbEntity
  8
DIMS
 62
     4
100
AcDbLine
 10
619.841868
 20
328.847034
 30
0.0
 11
619.841868
 21
324.047034
 31
0.0
  0
LINE
  5
2E5
100
AcDbEntity
  8
DIMS
 62
     4
100
AcDbLine
 10
623.241868
 20
332.247034
 30
0.0
 11
628.041868
 21
332.247034
 31
0.0
  0
LINE
  5
2E6
100
AcDbEntity
  8
DIMS
 62
     4
100
AcDbLine
 10
616.441868
 20
332.247034
 30
0.0
 11
611.641868
 21
332.247034
 31
0.0
  0
LINE
  5
2E7
100
AcDbEntity
  8
DIMS
 62
     4
100
AcDbLine
 10
619.841868
 20
330.547034
 30
0.0
 11
619.841868
 21
333.947034
 31
0.0
  0
LINE
  5
2E8
100
AcDbEntity
  8
DIMS
 62
     4
100
AcDbLine
 10
618.141868
 20
332.247034
 30
0.0
 11
621.541868
 21
332.247034
 31
0.0
  0
LINE
  5
2E9
100
AcDbEntity
  8
DIMS
 62
     4
100
AcDbLine
 10
719.841868
 20
335.647034
 30
0.0
 11
719.841868
 21
340.447034
 31
0.0
  0
LINE
  5
2EA
100
AcDbEntity
  8
DIMS
 62
     4
100
AcDbLine
 10
719.841868
 20
328.847034
 30
0.0
 11
719.841868
 21
324.047034
 31
0.0
  0
LINE
  5
2EB
100
AcDbEntity
  8
DIMS
 62
     4
100
AcDbLine
 10
723.241868
 20
332.247034
 30
0.0
 11
728.041868
 21
332.247034
 31
0.0
  0
LINE
  5
2EC
100
AcDbEntity
  8
DIMS
 62
     4
100
AcDbLine
 10
716.441868
 20
332.247034
 30
0.0
 11
711.641868
 21
332.247034
 31
0.0
  0
LINE
  5
2ED
100
AcDbEntity
  8
DIMS
 62
     4
100
AcDbLine
 10
719.841868
 20
330.547034
 30
0.0
 11
719.841868
 21
333.947034
 31
0.0
  0
LINE
  5
2EE
100
AcDbEntity
  8
DIMS
 62
     4
100
AcDbLine
 10
718.141868
 20
332.247034
 30
0.0
 11
721.541868
 21
332.247034
 31
0.0
  0
LINE
  5
2EF
100
AcDbEntity
  8
DIMS
 62
     4
100
AcDbLine
 10
762.841868
 20
385.647034
 30
0.0
 11
762.841868
 21
390.447034
 31
0.0
  0
LINE
  5
2F0
100
AcDbEntity
  8
DIMS
 62
     4
100
AcDbLine
 10
762.841868
 20
378.847034
 30
0.0
 11
762.841868
 21
374.047034
 31
0.0
  0
LINE
  5
2F1
100
AcDbEntity
  8
DIMS
 62
     4
100
AcDbLine
 10
762.841868
 20
380.547034
 30
0.0
 11
762.841868
 21
383.947034
 31
0.0
  0
LINE
  5
2F2
100
AcDbEntity
  8
DIMS
 62
     4
100
AcDbLine
 10
762.841868
 20
485.647034
 30
0.0
 11
762.841868
 21
490.447034
 31
0.0
  0
LINE
  5
2F3
100
AcDbEntity
  8
DIMS
 62
     4
100
AcDbLine
 10
762.841868
 20
478.847034
 30
0.0
 11
762.841868
 21
474.047034
 31
0.0
  0
LINE
  5
2F4
100
AcDbEntity
  8
DIMS
 62
     4
100
AcDbLine
 10
762.841868
 20
480.547034
 30
0.0
 11
762.841868
 21
483.947034
 31
0.0
  0
LINE
  5
2F5
100
AcDbEntity
  8
DIMS
 62
     4
100
AcDbLine
 10
762.841868
 20
585.647034
 30
0.0
 11
762.841868
 21
590.447034
 31
0.0
  0
LINE
  5
2F6
100
AcDbEntity
  8
DIMS
 62
     4
100
AcDbLine
 10
762.841868
 20
578.847034
 30
0.0
 11
762.841868
 21
574.047034
 31
0.0
  0
LINE
  5
2F7
100
AcDbEntity
  8
DIMS
 62
     4
100
AcDbLine
 10
762.841868
 20
580.547034
 30
0.0
 11
762.841868
 21
583.947034
 31
0.0
  0
LINE
  5
2F8
100
AcDbEntity
  8
DIMS
 62
     4
100
AcDbLine
 10
762.841868
 20
685.647034
 30
0.0
 11
762.841868
 21
690.447034
 31
0.0
  0
LINE
  5
2F9
100
AcDbEntity
  8
DIMS
 62
     4
100
AcDbLine
 10
762.841868
 20
678.847034
 30
0.0
 11
762.841868
 21
674.047034
 31
0.0
  0
LINE
  5
2FA
100
AcDbEntity
  8
DIMS
 62
     4
100
AcDbLine
 10
762.841868
 20
680.547034
 30
0.0
 11
762.841868
 21
683.947034
 31
0.0
  0
LINE
  5
2FB
100
AcDbEntity
  8
DIMS
 62
     4
100
AcDbLine
 10
723.241868
 20
732.247034
 30
0.0
 11
728.041868
 21
732.247034
 31
0.0
  0
LINE
  5
2FC
100
AcDbEntity
  8
DIMS
 62
     4
100
AcDbLine
 10
716.441868
 20
732.247034
 30
0.0
 11
711.641868
 21
732.247034
 31
0.0
  0
LINE
  5
2FD
100
AcDbEntity
  8
DIMS
 62
     4
100
AcDbLine
 10
718.141868
 20
732.247034
 30
0.0
 11
721.541868
 21
732.247034
 31
0.0
  0
LINE
  5
2FE
100
AcDbEntity
  8
DIMS
 62
     4
100
AcDbLine
 10
623.241868
 20
732.247034
 30
0.0
 11
628.041868
 21
732.247034
 31
0.0
  0
LINE
  5
2FF
100
AcDbEntity
  8
DIMS
 62
     4
100
AcDbLine
 10
616.441868
 20
732.247034
 30
0.0
 11
611.641868
 21
732.247034
 31
0.0
  0
LINE
  5
300
100
AcDbEntity
  8
DIMS
 62
     4
100
AcDbLine
 10
618.141868
 20
732.247034
 30
0.0
 11
621.541868
 21
732.247034
 31
0.0
  0
LINE
  5
301
100
AcDbEntity
  8
DIMS
 62
     4
100
AcDbLine
 10
523.241868
 20
732.247034
 30
0.0
 11
528.041868
 21
732.247034
 31
0.0
  0
LINE
  5
302
100
AcDbEntity
  8
DIMS
 62
     4
100
AcDbLine
 10
516.441868
 20
732.247034
 30
0.0
 11
511.641868
 21
732.247034
 31
0.0
  0
LINE
  5
303
100
AcDbEntity
  8
DIMS
 62
     4
100
AcDbLine
 10
518.141868
 20
732.247034
 30
0.0
 11
521.541868
 21
732.247034
 31
0.0
  0
LINE
  5
304
100
AcDbEntity
  8
DIMS
 62
     4
100
AcDbLine
 10
423.241868
 20
732.247034
 30
0.0
 11
428.041868
 21
732.247034
 31
0.0
  0
LINE
  5
305
100
AcDbEntity
  8
DIMS
 62
     4
100
AcDbLine
 10
416.441868
 20
732.247034
 30
0.0
 11
411.641868
 21
732.247034
 31
0.0
  0
LINE
  5
306
100
AcDbEntity
  8
DIMS
 62
     4
100
AcDbLine
 10
418.141868
 20
732.247034
 30
0.0
 11
421.541868
 21
732.247034
 31
0.0
  0
LINE
  5
307
100
AcDbEntity
  8
DIMS
 62
     4
100
AcDbLine
 10
376.841868
 20
685.647034
 30
0.0
 11
376.841868
 21
690.447034
 31
0.0
  0
LINE
  5
308
100
AcDbEntity
  8
DIMS
 62
     4
100
AcDbLine
 10
376.841868
 20
678.847034
 30
0.0
 11
376.841868
 21
674.047034
 31
0.0
  0
LINE
  5
309
100
AcDbEntity
  8
DIMS
 62
     4
100
AcDbLine
 10
380.241868
 20
682.247034
 30
0.0
 11
385.041868
 21
682.247034
 31
0.0
  0
LINE
  5
30A
100
AcDbEntity
  8
DIMS
 62
     4
100
AcDbLine
 10
373.441868
 20
682.247034
 30
0.0
 11
368.641868
 21
682.247034
 31
0.0
  0
LINE
  5
30B
100
AcDbEntity
  8
DIMS
 62
     4
100
AcDbLine
 10
376.841868
 20
680.547034
 30
0.0
 11
376.841868
 21
683.947034
 31
0.0
  0
LINE
  5
30C
100
AcDbEntity
  8
DIMS
 62
     4
100
AcDbLine
 10
375.141868
 20
682.247034
 30
0.0
 11
378.541868
 21
682.247034
 31
0.0
  0
LINE
  5
30D
100
AcDbEntity
  8
DIMS
 62
     4
100
AcDbLine
 10
376.841868
 20
585.647034
 30
0.0
 11
376.841868
 21
590.447034
 31
0.0
  0
LINE
  5
30E
100
AcDbEntity
  8
DIMS
 62
     4
100
AcDbLine
 10
376.841868
 20
578.847034
 30
0.0
 11
376.841868
 21
574.047034
 31
0.0
  0
LINE
  5
30F
100
AcDbEntity
  8
DIMS
 62
     4
100
AcDbLine
 10
380.241868
 20
582.247034
 30
0.0
 11
385.041868
 21
582.247034
 31
0.0
  0
LINE
  5
310
100
AcDbEntity
  8
DIMS
 62
     4
100
AcDbLine
 10
373.441868
 20
582.247034
 30
0.0
 11
368.641868
 21
582.247034
 31
0.0
  0
LINE
  5
311
100
AcDbEntity
  8
DIMS
 62
     4
100
AcDbLine
 10
376.841868
 20
580.547034
 30
0.0
 11
376.841868
 21
583.947034
 31
0.0
  0
LINE
  5
312
100
AcDbEntity
  8
DIMS
 62
     4
100
AcDbLine
 10
375.141868
 20
582.247034
 30
0.0
 11
378.541868
 21
582.247034
 31
0.0
  0
CIRCLE
  5
313
100
AcDbEntity
  8
M04
100
AcDbCircle
 10
519.841868
 20
332.247034
 30
0.0
 40
6.5
  0
CIRCLE
  5
314
100
AcDbEntity
  8
M04
100
AcDbCircle
 10
376.841868
 20
482.247034
 30
0.0
 40
6.5
  0
CIRCLE
  5
315
100
AcDbEntity
  8
M04
100
AcDbCircle
 10
419.841868
 20
332.247034
 30
0.0
 40
6.5
  0
CIRCLE
  5
316
100
AcDbEntity
  8
M04
100
AcDbCircle
 10
376.841868
 20
382.247034
 30
0.0
 40
6.5
  0
CIRCLE
  5
317
100
AcDbEntity
  8
M04
100
AcDbCircle
 10
619.841868
 20
332.247034
 30
0.0
 40
6.5
  0
CIRCLE
  5
318
100
AcDbEntity
  8
M04
100
AcDbCircle
 10
762.841868
 20
482.247034
 30
0.0
 40
6.5
  0
CIRCLE
  5
319
100
AcDbEntity
  8
M04
100
AcDbCircle
 10
719.841868
 20
332.247034
 30
0.0
 40
6.5
  0
CIRCLE
  5
31A
100
AcDbEntity
  8
M04
100
AcDbCircle
 10
762.841868
 20
382.247034
 30
0.0
 40
6.5
  0
CIRCLE
  5
31B
100
AcDbEntity
  8
M04
100
AcDbCircle
 10
519.841868
 20
732.247034
 30
0.0
 40
6.5
  0
CIRCLE
  5
31C
100
AcDbEntity
  8
M04
100
AcDbCircle
 10
376.841868
 20
582.247034
 30
0.0
 40
6.5
  0
CIRCLE
  5
31D
100
AcDbEntity
  8
M04
100
AcDbCircle
 10
419.841868
 20
732.247034
 30
0.0
 40
6.5
  0
CIRCLE
  5
31E
100
AcDbEntity
  8
M04
100
AcDbCircle
 10
376.841868
 20
682.247034
 30
0.0
 40
6.5
  0
CIRCLE
  5
31F
100
AcDbEntity
  8
M04
100
AcDbCircle
 10
619.841868
 20
732.247034
 30
0.0
 40
6.5
  0
CIRCLE
  5
320
100
AcDbEntity
  8
M04
100
AcDbCircle
 10
762.841868
 20
582.247034
 30
0.0
 40
6.5
  0
CIRCLE
  5
321
100
AcDbEntity
  8
M04
100
AcDbCircle
 10
719.841868
 20
732.247034
 30
0.0
 40
6.5
  0
CIRCLE
  5
322
100
AcDbEntity
  8
M04
100
AcDbCircle
 10
762.841868
 20
682.247034
 30
0.0
 40
6.5
  0
LINE
  5
323
100
AcDbEntity
  8
CENTRE
100
AcDbLine
 10
500.550293
 20
532.247034
 30
0.0
 11
500.550293
 21
482.247034
 31
0.0
  0
CIRCLE
  5
324
100
AcDbEntity
  8
M03
100
AcDbCircle
 10
619.841868
 20
682.247034
 30
0.0
 40
2.25
  0
HATCH
  5
325
100
AcDbEntity
  8
HATCH
100
AcDbHatch
 10
0.0
 20
0.0
 30
0.0
210
0.0
220
0.0
230
1.0
  2
_U
 70
     0
 71
     0
 91
       16
 92
        7
 72
     1
 73
     1
 93
        5
 10
569.8418684629998
 20
552.2470343545414
 42
0.0
 10
569.8418684629998
 20
552.7470343545415
 42
-0.1856631955229143
 10
566.1565297184327
 20
554.1643540660799
 42
0.3157147729334966
 10
547.9797865630525
 20
536.2470343545415
 42
0.0
 10
550.2459505207346
 20
536.2470343545415
 42
-0.3563939586925999
 97
        0
 92
       22
 72
     1
 73
     1
 93
        4
 10
569.8418684629998
 20
552.2470343545414
 42
0.3563939586925999
 10
550.2459505207346
 20
536.2470343545415
 42
0.0
 10
561.2250244931929
 20
536.2470343545415
 42
-0.2919418509678903
 10
569.8418684629998
 20
541.7470343545415
 42
0.0
 97
        0
 92
        6
 72
     1
 73
     1
 93
        3
 10
569.8418684629998
 20
541.7470343545415
 42
0.2919418509678903
 10
561.2250244931929
 20
536.2470343545415
 42
0.0
 10
569.8418684629998
 20
536.2470343545415
 42
0.0
 97
        0
 92
        7
 72
     1
 73
     1
 93
        4
 10
569.8418684629998
 20
536.2470343545415
 42
0.0
 10
561.2250244931929
 20
536.2470343545415
 42
0.1090809576248918
 10
560.3418684629998
 20
532.2470343545413
 42
0.0
 10
565.8418684629999
 20
532.2470343545413
 42
-0.4142135623730992
 97
        0
 92
       22
 72
     1
 73
     1
 93
        3
 10
569.8418684629998
 20
536.2470343545415
 42
0.4142135623730992
 10
565.8418684629999
 20
532.2470343545413
 42
0.0
 10
569.841868463
 20
532.2470343545412
 42
0.0
 97
        0
 92
        7
 72
     1
 73
     1
 93
        4
 10
561.2250244931929
 20
536.2470343545415
 42
0.0
 10
550.2459505207346
 20
536.2470343545415
 42
0.0503820444848851
 10
549.8418684629998
 20
532.2470343545413
 42
0.0
 10
560.3418684629998
 20
532.2470343545413
 42
-0.1090809576248918
 97
        0
 92
        7
 72
     1
 73
     1
 93
        5
 10
550.2459505207346
 20
536.2470343545415
 42
0.0
 10
547.9797865630525
 20
536.2470343545415
 42
0.003593667114849
 10
547.9245487514615
 20
535.9323730991085
 42
-0.1856631955229133
 10
549.3418684629999
 20
532.2470343545413
 42
0.0
 10
549.8418684629998
 20
532.2470343545413
 42
-0.0503820444848851
 97
        0
 92
        7
 72
     1
 73
     1
 93
        3
 10
547.9245487514615
 20
535.9323730991085
 42
0.0416713391594355
 10
547.6168684629999
 20
532.2470343545413
 42
0.0
 10
549.3418684629999
 20
532.2470343545413
 42
0.1856631955229133
 97
        0
 92
       22
 72
     1
 73
     1
 93
        3
 10
573.8418684629998
 20
532.2470343545413
 42
0.0
 10
569.841868463
 20
532.2470343545413
 42
0.0
 10
569.841868463
 20
528.2470343545415
 42
0.4142135623730826
 97
        0
 92
        7
 72
     1
 73
     1
 93
        4
 10
579.3418684629998
 20
532.2470343545413
 42
0.0
 10
573.8418684629998
 20
532.2470343545413
 42
-0.4142135623730909
 10
569.8418684629998
 20
528.2470343545415
 42
0.0
 10
578.458712432807
 20
528.2470343545415
 42
0.1090809576248888
 97
        0
 92
        6
 72
     1
 73
     1
 93
        3
 10
578.458712432807
 20
528.2470343545415
 42
0.0
 10
569.8418684629998
 20
528.2470343545413
 42
0.0
 10
569.8418684629998
 20
522.7470343545414
 42
0.2919418509678903
 97
        0
 92
       22
 72
     1
 73
     1
 93
        4
 10
589.4377864052653
 20
528.2470343545415
 42
0.0
 10
578.458712432807
 20
528.2470343545415
 42
-0.2919418509678903
 10
569.8418684629998
 20
522.7470343545414
 42
0.0
 10
569.8418684629998
 20
512.2470343545415
 42
0.3563939586925999
 97
        0
 92
        7
 72
     1
 73
     1
 93
        4
 10
589.8418684629998
 20
532.2470343545413
 42
0.0
 10
579.3418684629998
 20
532.2470343545413
 42
-0.1090809576248888
 10
578.458712432807
 20
528.2470343545415
 42
0.0
 10
589.4377864052653
 20
528.2470343545415
 42
0.0503820444848837
 97
        0
 92
        7
 72
     1
 73
     1
 93
        5
 10
590.3418684629998
 20
532.2470343545413
 42
0.0
 10
589.8418684629998
 20
532.2470343545413
 42
-0.0503820444848837
 10
589.4377864052653
 20
528.2470343545415
 42
0.0
 10
591.7039503629471
 20
528.2470343545415
 42
0.003593667114849
 10
591.7591881745384
 20
528.5616956099743
 42
-0.185663195522908
 97
        0
 92
        7
 72
     1
 73
     1
 93
        3
 10
592.0668684629999
 20
532.2470343545413
 42
0.0
 10
590.3418684629998
 20
532.2470343545413
 42
0.185663195522908
 10
591.7591881745384
 20
528.5616956099743
 42
0.0416713391594342
 97
        0
 92
        7
 72
     1
 73
     1
 93
        4
 10
591.7039503629471
 20
528.2470343545415
 42
0.0
 10
589.4377864052653
 20
528.2470343545415
 42
-0.3563939586925999
 10
569.8418684629998
 20
512.2470343545415
 42
0.0
 10
569.8418684629998
 20
510.0220343545413
 42
0.3621506593782504
 97
        0
 75
     0
 76
     0
 52
45.0
 41
2.0
 77
     1
 78
     2
 53
45.0
 43
14.394628
 44
99.687808
 45
-1.414213562373094
 46
1.414213562373095
 79
     0
 53
135.0
 43
14.394628
 44
99.687808
 45
-1.414213562373095
 46
-1.414213562373094
 79
     0
 47
0.113412
 98
       16
 10
557.525714
 20
549.566955
 10
559.227589
 20
545.71096
 10
567.396594
 20
539.359912
 10
564.333216
 20
534.710037
 10
568.531178
 20
534.369801
 10
557.298797
 20
534.25639
 10
549.243251
 20
535.617329
 10
548.67596
 20
533.57592
 10
572.161847
 20
530.173573
 10
576.132889
 20
530.286984
 10
572.842597
 20
525.863932
 10
579.877017
 20
524.162758
 10
583.621144
 20
529.946749
 10
590.201731
 20
529.379691
 10
591.67669
 20
530.627219
 10
590.31519
 20
524.616404
  0
CIRCLE
  5
326
100
AcDbEntity
  8
M01
100
AcDbCircle
 10
569.841868
 20
532.247034
 30
0.0
 40
22.225
  0
CIRCLE
  5
327
100
AcDbEntity
  8
M03
100
AcDbCircle
 10
569.841868
 20
532.247034
 30
0.0
 40
9.5
  0
CIRCLE
  5
328
100
AcDbEntity
  8
M03
100
AcDbCircle
 10
619.841868
 20
682.247034
 30
0.0
 40
15.0
  0
CIRCLE
  5
329
100
AcDbEntity
  8
M03
100
AcDbCircle
 10
619.841868
 20
682.247034
 30
0.0
 40
14.0
  0
ARC
  5
32A
100
AcDbEntity
  8
M03
100
AcDbCircle
 10
619.841868
 20
682.247034
 30
0.0
 40
3.0
100
AcDbArc
 50
173.076897
 51
102.215364
  0
LINE
  5
32B
100
AcDbEntity
  8
M03
100
AcDbLine
 10
619.291868
 20
676.272296
 30
0.0
 11
619.291868
 21
688.221773
 31
0.0
  0
LINE
  5
32C
100
AcDbEntity
  8
M03
100
AcDbLine
 10
620.391868
 20
676.272296
 30
0.0
 11
620.391868
 21
688.221773
 31
0.0
  0
CIRCLE
  5
32D
100
AcDbEntity
  8
M03
100
AcDbCircle
 10
619.841868
 20
682.247034
 30
0.0
 40
7.858882
  0
CIRCLE
  5
32E
100
AcDbEntity
  8
M03
100
AcDbCircle
 10
619.841868
 20
682.247034
 30
0.0
 40
6.0
  0
ARC
  5
32F
100
AcDbEntity
  8
M04
100
AcDbCircle
 10
602.841868
 20
706.247034
 30
0.0
 40
15.0
100
AcDbArc
 50
90.0
 51
180.0
  0
ARC
  5
330
100
AcDbEntity
  8
M04
100
AcDbCircle
 10
536.841868
 20
706.247034
 30
0.0
 40
15.0
100
AcDbArc
 50
0.0
 51
90.0
  0
LINE
  5
331
100
AcDbEntity
  8
M04
100
AcDbLine
 10
587.841868
 20
581.247034
 30
0.0
 11
587.841868
 21
706.247034
 31
0.0
  0
LINE
  5
332
100
AcDbEntity
  8
M04
100
AcDbLine
 10
551.841868
 20
581.247034
 30
0.0
 11
551.841868
 21
706.247034
 31
0.0
  0
LINE
  5
333
100
AcDbEntity
  8
M03
100
AcDbLine
 10
665.841868
 20
528.247034
 30
0.0
 11
665.841868
 21
436.247034
 31
0.0
  0
LINE
  5
334
100
AcDbEntity
  8
M03
100
AcDbLine
 10
473.841868
 20
528.247034
 30
0.0
 11
473.841868
 21
436.247034
 31
0.0
  0
LINE
  5
335
100
AcDbEntity
  8
M03
100
AcDbLine
 10
473.841868
 20
528.247034
 30
0.0
 11
469.841868
 21
532.247034
 31
0.0
  0
LINE
  5
336
100
AcDbEntity
  8
M03
100
AcDbLine
 10
473.841868
 20
536.247034
 30
0.0
 11
469.841868
 21
532.247034
 31
0.0
  0
LINE
  5
337
100
AcDbEntity
  8
M03
100
AcDbLine
 10
473.841868
 20
528.247034
 30
0.0
 11
665.841868
 21
528.247034
 31
0.0
  0
LINE
  5
338
100
AcDbEntity
  8
M03
100
AcDbLine
 10
665.841868
 20
528.247034
 30
0.0
 11
669.841868
 21
532.247034
 31
0.0
  0
LINE
  5
339
100
AcDbEntity
  8
M03
100
AcDbLine
 10
665.841868
 20
536.247034
 30
0.0
 11
669.841868
 21
532.247034
 31
0.0
  0
LINE
  5
33A
100
AcDbEntity
  8
M03
100
AcDbLine
 10
473.841868
 20
536.247034
 30
0.0
 11
665.841868
 21
536.247034
 31
0.0
  0
LINE
  5
33B
100
AcDbEntity
  8
DIMS
100
AcDbLine
 10
865.107861
 20
557.149277
 30
0.0
 11
865.107861
 21
532.247034
 31
0.0
  0
INSERT
  5
33C
100
AcDbEntity
  8
DIMS
100
AcDbBlockReference
  2
ARROW1
 10
865.107861
 20
557.149277
 30
0.0
 41
10.0
 42
10.0
 43
10.0
 50
90.0
  0
LINE
  5
33D
100
AcDbEntity
  8
M01
100
AcDbLine
 10
594.841868
 20
579.247034
 30
0.0
 11
594.841868
 21
702.247034
 31
0.0
  0
LINE
  5
33E
100
AcDbEntity
  8
M01
100
AcDbLine
 10
544.841868
 20
579.247034
 30
0.0
 11
544.841868
 21
702.247034
 31
0.0
  0
LINE
  5
33F
100
AcDbEntity
  8
M03
100
AcDbLine
 10
669.841868
 20
432.247034
 30
0.0
 11
665.841868
 21
436.247034
 31
0.0
  0
LINE
  5
340
100
AcDbEntity
  8
M03
100
AcDbLine
 10
673.841868
 20
436.247034
 30
0.0
 11
669.841868
 21
432.247034
 31
0.0
  0
LINE
  5
341
100
AcDbEntity
  8
M03
100
AcDbLine
 10
665.841868
 20
436.247034
 30
0.0
 11
623.841868
 21
436.247034
 31
0.0
  0
LINE
  5
342
100
AcDbEntity
  8
M03
100
AcDbLine
 10
623.841868
 20
436.247034
 30
0.0
 11
623.841868
 21
482.247034
 31
0.0
  0
LINE
  5
343
100
AcDbEntity
  8
M03
100
AcDbLine
 10
619.841868
 20
432.247034
 30
0.0
 11
623.841868
 21
428.247034
 31
0.0
  0
LINE
  5
344
100
AcDbEntity
  8
M03
100
AcDbLine
 10
623.841868
 20
436.247034
 30
0.0
 11
619.841868
 21
432.247034
 31
0.0
  0
LINE
  5
345
100
AcDbEntity
  8
M03
100
AcDbLine
 10
623.841868
 20
382.247034
 30
0.0
 11
623.841868
 21
428.247034
 31
0.0
  0
LINE
  5
346
100
AcDbEntity
  8
M03
100
AcDbLine
 10
615.841868
 20
382.247034
 30
0.0
 11
615.841868
 21
482.247034
 31
0.0
  0
LINE
  5
347
100
AcDbEntity
  8
M03
100
AcDbLine
 10
665.841868
 20
628.247034
 30
0.0
 11
623.841868
 21
628.247034
 31
0.0
  0
LINE
  5
348
100
AcDbEntity
  8
M03
100
AcDbLine
 10
669.841868
 20
632.247034
 30
0.0
 11
665.841868
 21
628.247034
 31
0.0
  0
LINE
  5
349
100
AcDbEntity
  8
M03
100
AcDbLine
 10
673.841868
 20
628.247034
 30
0.0
 11
669.841868
 21
632.247034
 31
0.0
  0
LINE
  5
34A
100
AcDbEntity
  8
M03
100
AcDbLine
 10
673.841868
 20
628.247034
 30
0.0
 11
673.841868
 21
436.247034
 31
0.0
  0
LINE
  5
34B
100
AcDbEntity
  8
M03
100
AcDbLine
 10
665.841868
 20
628.247034
 30
0.0
 11
665.841868
 21
536.247034
 31
0.0
  0
LINE
  5
34C
100
AcDbEntity
  8
CENTRE
100
AcDbLine
 10
727.841868
 20
432.247034
 30
0.0
 11
611.841868
 21
432.247034
 31
0.0
  0
LINE
  5
34D
100
AcDbEntity
  8
CENTRE
100
AcDbLine
 10
727.841868
 20
632.247034
 30
0.0
 11
611.841868
 21
632.247034
 31
0.0
  0
LINE
  5
34E
100
AcDbEntity
  8
CENTRE
100
AcDbLine
 10
669.841868
 20
640.247034
 30
0.0
 11
669.841868
 21
424.247034
 31
0.0
  0
ARC
  5
34F
100
AcDbEntity
  8
M01
100
AcDbCircle
 10
756.841868
 20
566.247034
 30
0.0
 40
12.0
100
AcDbArc
 50
180.0
 51
270.0
  0
ARC
  5
350
100
AcDbEntity
  8
M01
100
AcDbCircle
 10
756.841868
 20
498.247034
 30
0.0
 40
12.0
100
AcDbArc
 50
90.0
 51
180.0
  0
LINE
  5
351
100
AcDbEntity
  8
M01
100
AcDbLine
 10
744.841868
 20
498.247034
 30
0.0
 11
744.841868
 21
362.247034
 31
0.0
  0
LINE
  5
352
100
AcDbEntity
  8
M04
100
AcDbLine
 10
751.841868
 20
493.247034
 30
0.0
 11
751.841868
 21
358.247034
 31
0.0
  0
ARC
  5
353
100
AcDbEntity
  8
M04
100
AcDbCircle
 10
736.841868
 20
358.247034
 30
0.0
 40
15.0
100
AcDbArc
 50
270.0
 51
0.0
  0
LINE
  5
354
100
AcDbEntity
  8
M04
100
AcDbLine
 10
736.841868
 20
343.247034
 30
0.0
 11
702.841868
 21
343.247034
 31
0.0
  0
LINE
  5
355
100
AcDbEntity
  8
M04
100
AcDbLine
 10
602.841868
 20
343.247034
 30
0.0
 11
636.841868
 21
343.247034
 31
0.0
  0
LINE
  5
356
100
AcDbEntity
  8
M03
100
AcDbLine
 10
719.841868
 20
432.247034
 30
0.0
 11
715.841868
 21
428.247034
 31
0.0
  0
LINE
  5
357
100
AcDbEntity
  8
M03
100
AcDbLine
 10
715.841868
 20
436.247034
 30
0.0
 11
719.841868
 21
432.247034
 31
0.0
  0
LINE
  5
358
100
AcDbEntity
  8
M03
100
AcDbLine
 10
715.841868
 20
382.247034
 30
0.0
 11
715.841868
 21
428.247034
 31
0.0
  0
LINE
  5
359
100
AcDbEntity
  8
M03
100
AcDbLine
 10
715.841868
 20
436.247034
 30
0.0
 11
715.841868
 21
482.247034
 31
0.0
  0
LINE
  5
35A
100
AcDbEntity
  8
M03
100
AcDbLine
 10
715.841868
 20
436.247034
 30
0.0
 11
673.841868
 21
436.247034
 31
0.0
  0
LINE
  5
35B
100
AcDbEntity
  8
M03
100
AcDbLine
 10
715.841868
 20
428.247034
 30
0.0
 11
623.841868
 21
428.247034
 31
0.0
  0
LINE
  5
35C
100
AcDbEntity
  8
M03
100
AcDbLine
 10
723.841868
 20
382.247034
 30
0.0
 11
723.841868
 21
482.247034
 31
0.0
  0
LINE
  5
35D
100
AcDbEntity
  8
M01
100
AcDbLine
 10
606.841868
 20
350.247034
 30
0.0
 11
632.841868
 21
350.247034
 31
0.0
  0
LINE
  5
35E
100
AcDbEntity
  8
M01
100
AcDbLine
 10
744.841868
 20
362.247034
 30
0.0
 11
732.841868
 21
350.247034
 31
0.0
  0
LINE
  5
35F
100
AcDbEntity
  8
M01
100
AcDbLine
 10
732.841868
 20
350.247034
 30
0.0
 11
706.841868
 21
350.247034
 31
0.0
  0
LINE
  5
360
100
AcDbEntity
  8
M01
100
AcDbLine
 10
770.841868
 20
554.247034
 30
0.0
 11
756.841868
 21
554.247034
 31
0.0
  0
CIRCLE
  5
361
100
AcDbEntity
  8
M01
100
AcDbCircle
 10
719.841868
 20
582.247034
 30
0.0
 40
4.0
  0
CIRCLE
  5
362
100
AcDbEntity
  8
M01
100
AcDbCircle
 10
619.841868
 20
582.247034
 30
0.0
 40
4.0
  0
CIRCLE
  5
363
100
AcDbEntity
  8
M01
100
AcDbCircle
 10
719.841868
 20
682.247034
 30
0.0
 40
4.0
  0
HATCH
  5
364
100
AcDbEntity
  8
M03
100
AcDbHatch
 10
0.0
 20
0.0
 30
0.0
210
0.0
220
0.0
230
1.0
  2
_U
 70
     0
 71
     0
 91
        1
 92
        7
 72
     0
 73
     1
 93
        4
 10
740.941868463
 20
390.4399715613566
 10
740.941868463
 20
361.2015121467212
 10
742.8418684630001
 20
361.2015121467212
 10
742.8418684629999
 20
390.4399715613567
 97
        0
 75
     0
 76
     0
 52
240.0
 41
0.7
 77
     0
 78
     1
 53
60.0
 43
1145.401095
 44
-100.700206
 45
-0.6062177826491068
 46
0.3500000000000004
 79
     0
 47
0.060863
 98
        1
 10
742.1293
 20
386.7488
  0
HATCH
  5
365
100
AcDbEntity
  8
M03
100
AcDbHatch
 10
0.0
 20
0.0
 30
0.0
210
0.0
220
0.0
230
1.0
  2
_U
 70
     0
 71
     0
 91
        1
 92
        7
 72
     0
 73
     1
 93
        4
 10
740.941868463
 20
390.4399715613567
 10
740.941868463
 20
361.2015121467211
 10
742.8418684630001
 20
361.2015121467211
 10
742.8418684629999
 20
390.4399715613568
 97
        0
 75
     0
 76
     0
 52
-60.0
 41
0.7
 77
     0
 78
     1
 53
120.0
 43
1145.401095
 44
-100.700206
 45
-0.6062177826491073
 46
-0.3499999999999998
 79
     0
 47
0.060863
 98
        1
 10
741.885847
 20
386.566136
  0
LINE
  5
366
100
AcDbEntity
  8
M03
100
AcDbLine
 10
727.341868
 20
407.047034
 30
0.0
 11
726.013963
 21
404.747034
 31
0.0
  0
LINE
  5
367
100
AcDbEntity
  8
M03
100
AcDbLine
 10
727.341868
 20
402.447034
 30
0.0
 11
726.013963
 21
404.747034
 31
0.0
  0
LINE
  5
368
100
AcDbEntity
  8
M03
100
AcDbLine
 10
727.341868
 20
402.447034
 30
0.0
 11
727.341868
 21
407.047034
 31
0.0
  0
LINE
  5
369
100
AcDbEntity
  8
M03
100
AcDbLine
 10
728.841868
 20
401.747034
 30
0.0
 11
728.841868
 21
407.747034
 31
0.0
  0
LINE
  5
36A
100
AcDbEntity
  8
M03
100
AcDbLine
 10
740.941868
 20
390.439972
 30
0.0
 11
740.941868
 21
361.201512
 31
0.0
  0
LINE
  5
36B
100
AcDbEntity
  8
M03
100
AcDbLine
 10
742.841868
 20
390.439972
 30
0.0
 11
742.841868
 21
361.201512
 31
0.0
  0
LINE
  5
36C
100
AcDbEntity
  8
M03
100
AcDbLine
 10
740.641868
 20
397.439972
 30
0.0
 11
740.641868
 21
411.747034
 31
0.0
  0
LINE
  5
36D
100
AcDbEntity
  8
M03
100
AcDbLine
 10
739.841868
 20
396.395207
 30
0.0
 11
740.641868
 21
396.395207
 31
0.0
  0
LINE
  5
36E
100
AcDbEntity
  8
M03
100
AcDbLine
 10
740.641868
 20
390.439972
 30
0.0
 11
743.141868
 21
390.439972
 31
0.0
  0
LINE
  5
36F
100
AcDbEntity
  8
M03
100
AcDbLine
 10
743.141868
 20
390.439972
 30
0.0
 11
743.141868
 21
397.439972
 31
0.0
  0
LINE
  5
370
100
AcDbEntity
  8
M03
100
AcDbLine
 10
740.641868
 20
397.439972
 30
0.0
 11
743.141868
 21
397.439972
 31
0.0
  0
LINE
  5
371
100
AcDbEntity
  8
M03
100
AcDbLine
 10
739.841868
 20
411.747034
 30
0.0
 11
740.641868
 21
411.747034
 31
0.0
  0
ARC
  5
372
100
AcDbEntity
  8
M03
100
AcDbCircle
 10
738.115732
 20
404.747034
 30
0.0
 40
5.826136
100
AcDbArc
 50
295.69541
 51
64.30459
  0
LINE
  5
373
100
AcDbEntity
  8
M03
100
AcDbLine
 10
731.341868
 20
407.747034
 30
0.0
 11
730.641868
 21
407.047034
 31
0.0
  0
LINE
  5
374
100
AcDbEntity
  8
M03
100
AcDbLine
 10
731.341868
 20
401.747034
 30
0.0
 11
730.641868
 21
402.447034
 31
0.0
  0
LINE
  5
375
100
AcDbEntity
  8
M03
100
AcDbLine
 10
731.341868
 20
401.747034
 30
0.0
 11
731.341868
 21
407.747034
 31
0.0
  0
LINE
  5
376
100
AcDbEntity
  8
M03
100
AcDbLine
 10
730.641868
 20
402.447034
 30
0.0
 11
730.641868
 21
407.047034
 31
0.0
  0
LINE
  5
377
100
AcDbEntity
  8
M03
100
AcDbLine
 10
739.841868
 20
407.747034
 30
0.0
 11
739.841868
 21
414.747034
 31
0.0
  0
LINE
  5
378
100
AcDbEntity
  8
M03
100
AcDbLine
 10
739.841868
 20
391.047034
 30
0.0
 11
740.641868
 21
391.047034
 31
0.0
  0
LINE
  5
379
100
AcDbEntity
  8
M03
100
AcDbLine
 10
739.841868
 20
408.447034
 30
0.0
 11
740.641868
 21
408.447034
 31
0.0
  0
LINE
  5
37A
100
AcDbEntity
  8
M03
100
AcDbLine
 10
727.341868
 20
407.047034
 30
0.0
 11
740.641868
 21
407.047034
 31
0.0
  0
LINE
  5
37B
100
AcDbEntity
  8
M03
100
AcDbLine
 10
727.341868
 20
402.447034
 30
0.0
 11
740.641868
 21
402.447034
 31
0.0
  0
LINE
  5
37C
100
AcDbEntity
  8
M03
100
AcDbLine
 10
728.841868
 20
401.747034
 30
0.0
 11
740.641868
 21
401.747034
 31
0.0
  0
LINE
  5
37D
100
AcDbEntity
  8
M03
100
AcDbLine
 10
728.841868
 20
407.747034
 30
0.0
 11
740.641868
 21
407.747034
 31
0.0
  0
LINE
  5
37E
100
AcDbEntity
  8
M03
100
AcDbLine
 10
740.641868
 20
390.439972
 30
0.0
 11
740.641868
 21
396.395207
 31
0.0
  0
LINE
  5
37F
100
AcDbEntity
  8
M03
100
AcDbLine
 10
739.841868
 20
414.747034
 30
0.0
 11
744.841868
 21
414.747034
 31
0.0
  0
LINE
  5
380
100
AcDbEntity
  8
M03
100
AcDbLine
 10
739.841868
 20
357.247034
 30
0.0
 11
739.841868
 21
401.747034
 31
0.0
  0
LINE
  5
381
100
AcDbEntity
  8
CENTRE
100
AcDbLine
 10
721.643195
 20
404.747034
 30
0.0
 11
748.803345
 21
404.747034
 31
0.0
  0
LINE
  5
382
100
AcDbEntity
  8
M01
100
AcDbLine
 10
794.785969
 20
547.497034
 30
0.0
 11
794.785969
 21
540.997034
 31
0.0
  0
LINE
  5
383
100
AcDbEntity
  8
M01
100
AcDbLine
 10
802.897768
 20
547.497034
 30
0.0
 11
802.897768
 21
540.997034
 31
0.0
  0
LINE
  5
384
100
AcDbEntity
  8
M01
100
AcDbLine
 10
794.785969
 20
547.497034
 30
0.0
 11
792.841868
 21
547.497034
 31
0.0
  0
ARC
  5
385
100
AcDbEntity
  8
M01
100
AcDbCircle
 10
796.347218
 20
548.747034
 30
0.0
 40
2.0
100
AcDbArc
 50
218.682187
 51
270.0
  0
ARC
  5
386
100
AcDbEntity
  8
M01
100
AcDbCircle
 10
801.336519
 20
548.747034
 30
0.0
 40
2.0
100
AcDbArc
 50
270.0
 51
321.317813
  0
LINE
  5
387
100
AcDbEntity
  8
M01
100
AcDbLine
 10
804.841868
 20
547.497034
 30
0.0
 11
802.897768
 21
547.497034
 31
0.0
  0
LINE
  5
388
100
AcDbEntity
  8
M01
100
AcDbLine
 10
801.336519
 20
546.747034
 30
0.0
 11
796.347218
 21
546.747034
 31
0.0
  0
LINE
  5
389
100
AcDbEntity
  8
M01
100
AcDbLine
 10
794.785969
 20
540.997034
 30
0.0
 11
792.841868
 21
540.997034
 31
0.0
  0
ARC
  5
38A
100
AcDbEntity
  8
M01
100
AcDbCircle
 10
796.347218
 20
539.747034
 30
0.0
 40
2.0
100
AcDbArc
 50
90.0
 51
141.317813
  0
ARC
  5
38B
100
AcDbEntity
  8
M01
100
AcDbCircle
 10
801.336519
 20
539.747034
 30
0.0
 40
2.0
100
AcDbArc
 50
38.682187
 51
90.0
  0
LINE
  5
38C
100
AcDbEntity
  8
M01
100
AcDbLine
 10
804.841868
 20
540.997034
 30
0.0
 11
802.897768
 21
540.997034
 31
0.0
  0
LINE
  5
38D
100
AcDbEntity
  8
M01
100
AcDbLine
 10
801.336519
 20
541.747034
 30
0.0
 11
796.347218
 21
541.747034
 31
0.0
  0
LINE
  5
38E
100
AcDbEntity
  8
M01
100
AcDbLine
 10
804.841868
 20
539.747034
 30
0.0
 11
804.841868
 21
548.747034
 31
0.0
  0
LINE
  5
38F
100
AcDbEntity
  8
M01
100
AcDbLine
 10
805.641868
 20
548.747034
 30
0.0
 11
804.841868
 21
548.747034
 31
0.0
  0
LINE
  5
390
100
AcDbEntity
  8
M01
100
AcDbLine
 10
805.641868
 20
539.747034
 30
0.0
 11
804.841868
 21
539.747034
 31
0.0
  0
LINE
  5
391
100
AcDbEntity
  8
M01
100
AcDbLine
 10
794.785969
 20
516.997034
 30
0.0
 11
794.785969
 21
523.497034
 31
0.0
  0
LINE
  5
392
100
AcDbEntity
  8
M01
100
AcDbLine
 10
802.897768
 20
516.997034
 30
0.0
 11
802.897768
 21
523.497034
 31
0.0
  0
LINE
  5
393
100
AcDbEntity
  8
M01
100
AcDbLine
 10
794.785969
 20
516.997034
 30
0.0
 11
792.841868
 21
516.997034
 31
0.0
  0
ARC
  5
394
100
AcDbEntity
  8
M01
100
AcDbCircle
 10
796.347218
 20
515.747034
 30
0.0
 40
2.0
100
AcDbArc
 50
90.0
 51
141.317813
  0
ARC
  5
395
100
AcDbEntity
  8
M01
100
AcDbCircle
 10
801.336519
 20
515.747034
 30
0.0
 40
2.0
100
AcDbArc
 50
38.682187
 51
90.0
  0
LINE
  5
396
100
AcDbEntity
  8
M01
100
AcDbLine
 10
804.841868
 20
516.997034
 30
0.0
 11
802.897768
 21
516.997034
 31
0.0
  0
LINE
  5
397
100
AcDbEntity
  8
M01
100
AcDbLine
 10
801.336519
 20
517.747034
 30
0.0
 11
796.347218
 21
517.747034
 31
0.0
  0
LINE
  5
398
100
AcDbEntity
  8
M01
100
AcDbLine
 10
794.785969
 20
523.497034
 30
0.0
 11
792.841868
 21
523.497034
 31
0.0
  0
ARC
  5
399
100
AcDbEntity
  8
M01
100
AcDbCircle
 10
796.347218
 20
524.747034
 30
0.0
 40
2.0
100
AcDbArc
 50
218.682187
 51
270.0
  0
ARC
  5
39A
100
AcDbEntity
  8
M01
100
AcDbCircle
 10
801.336519
 20
524.747034
 30
0.0
 40
2.0
100
AcDbArc
 50
270.0
 51
321.317813
  0
LINE
  5
39B
100
AcDbEntity
  8
M01
100
AcDbLine
 10
804.841868
 20
523.497034
 30
0.0
 11
802.897768
 21
523.497034
 31
0.0
  0
LINE
  5
39C
100
AcDbEntity
  8
M01
100
AcDbLine
 10
801.336519
 20
522.747034
 30
0.0
 11
796.347218
 21
522.747034
 31
0.0
  0
LINE
  5
39D
100
AcDbEntity
  8
M01
100
AcDbLine
 10
787.841868
 20
549.247034
 30
0.0
 11
787.841868
 21
539.247034
 31
0.0
  0
LINE
  5
39E
100
AcDbEntity
  8
M01
100
AcDbLine
 10
787.841868
 20
515.247034
 30
0.0
 11
787.841868
 21
525.247034
 31
0.0
  0
LINE
  5
39F
100
AcDbEntity
  8
M01
100
AcDbLine
 10
792.841868
 20
515.247034
 30
0.0
 11
772.841868
 21
515.247034
 31
0.0
  0
LINE
  5
3A0
100
AcDbEntity
  8
M01
100
AcDbLine
 10
792.841868
 20
525.247034
 30
0.0
 11
772.841868
 21
525.247034
 31
0.0
  0
LINE
  5
3A1
100
AcDbEntity
  8
M01
100
AcDbLine
 10
792.841868
 20
539.247034
 30
0.0
 11
772.841868
 21
539.247034
 31
0.0
  0
LINE
  5
3A2
100
AcDbEntity
  8
M01
100
AcDbLine
 10
792.841868
 20
549.247034
 30
0.0
 11
772.841868
 21
549.247034
 31
0.0
  0
LINE
  5
3A3
100
AcDbEntity
  8
M01
100
AcDbLine
 10
814.741868
 20
547.278123
 30
0.0
 11
814.741868
 21
541.215945
 31
0.0
  0
ARC
  5
3A4
100
AcDbEntity
  8
M01
100
AcDbCircle
 10
812.892563
 20
541.215945
 30
0.0
 40
1.150694
100
AcDbArc
 50
118.592423
 51
241.407577
  0
ARC
  5
3A5
100
AcDbEntity
  8
M01
100
AcDbCircle
 10
815.444646
 20
544.247034
 30
0.0
 40
3.702778
100
AcDbArc
 50
146.92527
 51
213.07473
  0
ARC
  5
3A6
100
AcDbEntity
  8
M01
100
AcDbCircle
 10
812.892563
 20
547.278123
 30
0.0
 40
1.150694
100
AcDbArc
 50
118.592423
 51
241.407577
  0
ARC
  5
3A7
100
AcDbEntity
  8
M01
100
AcDbCircle
 10
813.591174
 20
541.215945
 30
0.0
 40
1.150694
100
AcDbArc
 50
298.592423
 51
61.407577
  0
ARC
  5
3A8
100
AcDbEntity
  8
M01
100
AcDbCircle
 10
811.039091
 20
544.247034
 30
0.0
 40
3.702778
100
AcDbArc
 50
326.92527
 51
33.07473
  0
LINE
  5
3A9
100
AcDbEntity
  8
M01
100
AcDbLine
 10
814.141868
 20
542.226308
 30
0.0
 11
812.341868
 21
542.226308
 31
0.0
  0
LINE
  5
3AA
100
AcDbEntity
  8
M01
100
AcDbLine
 10
814.141868
 20
540.205582
 30
0.0
 11
812.341868
 21
540.205582
 31
0.0
  0
ARC
  5
3AB
100
AcDbEntity
  8
M01
100
AcDbCircle
 10
813.591174
 20
547.278123
 30
0.0
 40
1.150694
100
AcDbArc
 50
298.592423
 51
61.407577
  0
LINE
  5
3AC
100
AcDbEntity
  8
M01
100
AcDbLine
 10
814.141868
 20
546.26776
 30
0.0
 11
812.341868
 21
546.26776
 31
0.0
  0
LINE
  5
3AD
100
AcDbEntity
  8
M01
100
AcDbLine
 10
814.141868
 20
548.288486
 30
0.0
 11
812.341868
 21
548.288486
 31
0.0
  0
LINE
  5
3AE
100
AcDbEntity
  8
M01
100
AcDbLine
 10
809.441868
 20
539.247034
 30
0.0
 11
810.941868
 21
539.247034
 31
0.0
  0
LINE
  5
3AF
100
AcDbEntity
  8
M01
100
AcDbLine
 10
809.441868
 20
549.247034
 30
0.0
 11
810.941868
 21
549.247034
 31
0.0
  0
LINE
  5
3B0
100
AcDbEntity
  8
M01
100
AcDbLine
 10
810.941868
 20
539.747034
 30
0.0
 11
811.741868
 21
539.747034
 31
0.0
  0
LINE
  5
3B1
100
AcDbEntity
  8
M01
100
AcDbLine
 10
810.941868
 20
548.747034
 30
0.0
 11
811.741868
 21
548.747034
 31
0.0
  0
LINE
  5
3B2
100
AcDbEntity
  8
M01
100
AcDbLine
 10
811.741868
 20
548.747034
 30
0.0
 11
811.741868
 21
539.747034
 31
0.0
  0
LINE
  5
3B3
100
AcDbEntity
  8
M01
100
AcDbLine
 10
810.941868
 20
549.247034
 30
0.0
 11
810.941868
 21
539.247034
 31
0.0
  0
LINE
  5
3B4
100
AcDbEntity
  8
M01
100
AcDbLine
 10
808.641868
 20
539.747034
 30
0.0
 11
809.441868
 21
539.747034
 31
0.0
  0
LINE
  5
3B5
100
AcDbEntity
  8
M01
100
AcDbLine
 10
808.641868
 20
548.747034
 30
0.0
 11
809.441868
 21
548.747034
 31
0.0
  0
LINE
  5
3B6
100
AcDbEntity
  8
M01
100
AcDbLine
 10
809.441868
 20
549.247034
 30
0.0
 11
809.441868
 21
539.247034
 31
0.0
  0
ARC
  5
3B7
100
AcDbEntity
  8
M01
100
AcDbCircle
 10
806.792563
 20
541.215945
 30
0.0
 40
1.150694
100
AcDbArc
 50
118.592423
 51
241.407577
  0
ARC
  5
3B8
100
AcDbEntity
  8
M01
100
AcDbCircle
 10
809.344646
 20
544.247034
 30
0.0
 40
3.702778
100
AcDbArc
 50
146.92527
 51
213.07473
  0
ARC
  5
3B9
100
AcDbEntity
  8
M01
100
AcDbCircle
 10
806.792563
 20
547.278123
 30
0.0
 40
1.150694
100
AcDbArc
 50
118.592423
 51
241.407577
  0
ARC
  5
3BA
100
AcDbEntity
  8
M01
100
AcDbCircle
 10
807.491174
 20
541.215945
 30
0.0
 40
1.150694
100
AcDbArc
 50
298.592423
 51
61.407577
  0
ARC
  5
3BB
100
AcDbEntity
  8
M01
100
AcDbCircle
 10
804.939091
 20
544.247034
 30
0.0
 40
3.702778
100
AcDbArc
 50
326.92527
 51
33.07473
  0
LINE
  5
3BC
100
AcDbEntity
  8
M01
100
AcDbLine
 10
808.041868
 20
542.226308
 30
0.0
 11
806.241868
 21
542.226308
 31
0.0
  0
LINE
  5
3BD
100
AcDbEntity
  8
M01
100
AcDbLine
 10
808.041868
 20
540.205582
 30
0.0
 11
806.241868
 21
540.205582
 31
0.0
  0
ARC
  5
3BE
100
AcDbEntity
  8
M01
100
AcDbCircle
 10
807.491174
 20
547.278123
 30
0.0
 40
1.150694
100
AcDbArc
 50
298.592423
 51
61.407577
  0
LINE
  5
3BF
100
AcDbEntity
  8
M01
100
AcDbLine
 10
808.041868
 20
546.26776
 30
0.0
 11
806.241868
 21
546.26776
 31
0.0
  0
LINE
  5
3C0
100
AcDbEntity
  8
M01
100
AcDbLine
 10
808.041868
 20
548.288486
 30
0.0
 11
806.241868
 21
548.288486
 31
0.0
  0
LINE
  5
3C1
100
AcDbEntity
  8
M01
100
AcDbLine
 10
808.641868
 20
548.747034
 30
0.0
 11
808.641868
 21
539.747034
 31
0.0
  0
LINE
  5
3C2
100
AcDbEntity
  8
M01
100
AcDbLine
 10
805.641868
 20
548.747034
 30
0.0
 11
805.641868
 21
539.747034
 31
0.0
  0
LINE
  5
3C3
100
AcDbEntity
  8
M01
100
AcDbLine
 10
817.841868
 20
542.747034
 30
0.0
 11
817.341868
 21
542.247034
 31
0.0
  0
LINE
  5
3C4
100
AcDbEntity
  8
M01
100
AcDbLine
 10
817.341868
 20
546.247034
 30
0.0
 11
817.841868
 21
545.747034
 31
0.0
  0
LINE
  5
3C5
100
AcDbEntity
  8
M01
100
AcDbLine
 10
817.341868
 20
546.247034
 30
0.0
 11
817.341868
 21
542.247034
 31
0.0
  0
LINE
  5
3C6
100
AcDbEntity
  8
M01
100
AcDbLine
 10
817.841868
 20
542.747034
 30
0.0
 11
814.741868
 21
542.747034
 31
0.0
  0
LINE
  5
3C7
100
AcDbEntity
  8
M01
100
AcDbLine
 10
817.841868
 20
545.747034
 30
0.0
 11
814.741868
 21
545.747034
 31
0.0
  0
LINE
  5
3C8
100
AcDbEntity
  8
M01
100
AcDbLine
 10
817.341868
 20
546.247034
 30
0.0
 11
814.741868
 21
546.247034
 31
0.0
  0
LINE
  5
3C9
100
AcDbEntity
  8
M01
100
AcDbLine
 10
817.341868
 20
542.247034
 30
0.0
 11
814.741868
 21
542.247034
 31
0.0
  0
LINE
  5
3CA
100
AcDbEntity
  8
M01
100
AcDbLine
 10
817.841868
 20
545.747034
 30
0.0
 11
817.841868
 21
542.747034
 31
0.0
  0
LINE
  5
3CB
100
AcDbEntity
  8
M01
100
AcDbLine
 10
792.841868
 20
549.247034
 30
0.0
 11
792.841868
 21
539.247034
 31
0.0
  0
LINE
  5
3CC
100
AcDbEntity
  8
CENTRE
100
AcDbLine
 10
824.002758
 20
544.247034
 30
0.0
 11
760.409326
 21
544.247034
 31
0.0
  0
LINE
  5
3CD
100
AcDbEntity
  8
M01
100
AcDbLine
 10
814.741868
 20
517.215945
 30
0.0
 11
814.741868
 21
523.278123
 31
0.0
  0
ARC
  5
3CE
100
AcDbEntity
  8
M01
100
AcDbCircle
 10
812.892563
 20
523.278123
 30
0.0
 40
1.150694
100
AcDbArc
 50
118.592423
 51
241.407577
  0
ARC
  5
3CF
100
AcDbEntity
  8
M01
100
AcDbCircle
 10
815.444646
 20
520.247034
 30
0.0
 40
3.702778
100
AcDbArc
 50
146.92527
 51
213.07473
  0
ARC
  5
3D0
100
AcDbEntity
  8
M01
100
AcDbCircle
 10
812.892563
 20
517.215945
 30
0.0
 40
1.150694
100
AcDbArc
 50
118.592423
 51
241.407577
  0
ARC
  5
3D1
100
AcDbEntity
  8
M01
100
AcDbCircle
 10
813.591174
 20
523.278123
 30
0.0
 40
1.150694
100
AcDbArc
 50
298.592423
 51
61.407577
  0
ARC
  5
3D2
100
AcDbEntity
  8
M01
100
AcDbCircle
 10
811.039091
 20
520.247034
 30
0.0
 40
3.702778
100
AcDbArc
 50
326.92527
 51
33.07473
  0
LINE
  5
3D3
100
AcDbEntity
  8
M01
100
AcDbLine
 10
814.141868
 20
522.26776
 30
0.0
 11
812.341868
 21
522.26776
 31
0.0
  0
LINE
  5
3D4
100
AcDbEntity
  8
M01
100
AcDbLine
 10
814.141868
 20
524.288486
 30
0.0
 11
812.341868
 21
524.288486
 31
0.0
  0
ARC
  5
3D5
100
AcDbEntity
  8
M01
100
AcDbCircle
 10
813.591174
 20
517.215945
 30
0.0
 40
1.150694
100
AcDbArc
 50
298.592423
 51
61.407577
  0
LINE
  5
3D6
100
AcDbEntity
  8
M01
100
AcDbLine
 10
814.141868
 20
518.226308
 30
0.0
 11
812.341868
 21
518.226308
 31
0.0
  0
LINE
  5
3D7
100
AcDbEntity
  8
M01
100
AcDbLine
 10
814.141868
 20
516.205582
 30
0.0
 11
812.341868
 21
516.205582
 31
0.0
  0
LINE
  5
3D8
100
AcDbEntity
  8
M01
100
AcDbLine
 10
809.441868
 20
525.247034
 30
0.0
 11
810.941868
 21
525.247034
 31
0.0
  0
LINE
  5
3D9
100
AcDbEntity
  8
M01
100
AcDbLine
 10
809.441868
 20
515.247034
 30
0.0
 11
810.941868
 21
515.247034
 31
0.0
  0
LINE
  5
3DA
100
AcDbEntity
  8
M01
100
AcDbLine
 10
810.941868
 20
524.747034
 30
0.0
 11
811.741868
 21
524.747034
 31
0.0
  0
LINE
  5
3DB
100
AcDbEntity
  8
M01
100
AcDbLine
 10
810.941868
 20
515.747034
 30
0.0
 11
811.741868
 21
515.747034
 31
0.0
  0
LINE
  5
3DC
100
AcDbEntity
  8
M01
100
AcDbLine
 10
811.741868
 20
515.747034
 30
0.0
 11
811.741868
 21
524.747034
 31
0.0
  0
LINE
  5
3DD
100
AcDbEntity
  8
M01
100
AcDbLine
 10
810.941868
 20
515.247034
 30
0.0
 11
810.941868
 21
525.247034
 31
0.0
  0
LINE
  5
3DE
100
AcDbEntity
  8
M01
100
AcDbLine
 10
808.641868
 20
524.747034
 30
0.0
 11
809.441868
 21
524.747034
 31
0.0
  0
LINE
  5
3DF
100
AcDbEntity
  8
M01
100
AcDbLine
 10
808.641868
 20
515.747034
 30
0.0
 11
809.441868
 21
515.747034
 31
0.0
  0
LINE
  5
3E0
100
AcDbEntity
  8
M01
100
AcDbLine
 10
809.441868
 20
515.247034
 30
0.0
 11
809.441868
 21
525.247034
 31
0.0
  0
ARC
  5
3E1
100
AcDbEntity
  8
M01
100
AcDbCircle
 10
806.792563
 20
523.278123
 30
0.0
 40
1.150694
100
AcDbArc
 50
118.592423
 51
241.407577
  0
ARC
  5
3E2
100
AcDbEntity
  8
M01
100
AcDbCircle
 10
809.344646
 20
520.247034
 30
0.0
 40
3.702778
100
AcDbArc
 50
146.92527
 51
213.07473
  0
ARC
  5
3E3
100
AcDbEntity
  8
M01
100
AcDbCircle
 10
806.792563
 20
517.215945
 30
0.0
 40
1.150694
100
AcDbArc
 50
118.592423
 51
241.407577
  0
ARC
  5
3E4
100
AcDbEntity
  8
M01
100
AcDbCircle
 10
807.491174
 20
523.278123
 30
0.0
 40
1.150694
100
AcDbArc
 50
298.592423
 51
61.407577
  0
ARC
  5
3E5
100
AcDbEntity
  8
M01
100
AcDbCircle
 10
804.939091
 20
520.247034
 30
0.0
 40
3.702778
100
AcDbArc
 50
326.92527
 51
33.07473
  0
LINE
  5
3E6
100
AcDbEntity
  8
M01
100
AcDbLine
 10
808.041868
 20
522.26776
 30
0.0
 11
806.241868
 21
522.26776
 31
0.0
  0
LINE
  5
3E7
100
AcDbEntity
  8
M01
100
AcDbLine
 10
808.041868
 20
524.288486
 30
0.0
 11
806.241868
 21
524.288486
 31
0.0
  0
ARC
  5
3E8
100
AcDbEntity
  8
M01
100
AcDbCircle
 10
807.491174
 20
517.215945
 30
0.0
 40
1.150694
100
AcDbArc
 50
298.592423
 51
61.407577
  0
LINE
  5
3E9
100
AcDbEntity
  8
M01
100
AcDbLine
 10
808.041868
 20
518.226308
 30
0.0
 11
806.241868
 21
518.226308
 31
0.0
  0
LINE
  5
3EA
100
AcDbEntity
  8
M01
100
AcDbLine
 10
808.041868
 20
516.205582
 30
0.0
 11
806.241868
 21
516.205582
 31
0.0
  0
LINE
  5
3EB
100
AcDbEntity
  8
M01
100
AcDbLine
 10
808.641868
 20
515.747034
 30
0.0
 11
808.641868
 21
524.747034
 31
0.0
  0
LINE
  5
3EC
100
AcDbEntity
  8
M01
100
AcDbLine
 10
805.641868
 20
515.747034
 30
0.0
 11
805.641868
 21
524.747034
 31
0.0
  0
LINE
  5
3ED
100
AcDbEntity
  8
M01
100
AcDbLine
 10
804.841868
 20
515.747034
 30
0.0
 11
804.841868
 21
524.747034
 31
0.0
  0
LINE
  5
3EE
100
AcDbEntity
  8
M01
100
AcDbLine
 10
817.841868
 20
521.747034
 30
0.0
 11
817.341868
 21
522.247034
 31
0.0
  0
LINE
  5
3EF
100
AcDbEntity
  8
M01
100
AcDbLine
 10
817.341868
 20
518.247034
 30
0.0
 11
817.841868
 21
518.747034
 31
0.0
  0
LINE
  5
3F0
100
AcDbEntity
  8
M01
100
AcDbLine
 10
817.341868
 20
518.247034
 30
0.0
 11
817.341868
 21
522.247034
 31
0.0
  0
LINE
  5
3F1
100
AcDbEntity
  8
M01
100
AcDbLine
 10
817.841868
 20
521.747034
 30
0.0
 11
814.741868
 21
521.747034
 31
0.0
  0
LINE
  5
3F2
100
AcDbEntity
  8
M01
100
AcDbLine
 10
817.841868
 20
518.747034
 30
0.0
 11
814.741868
 21
518.747034
 31
0.0
  0
LINE
  5
3F3
100
AcDbEntity
  8
M01
100
AcDbLine
 10
817.341868
 20
518.247034
 30
0.0
 11
814.741868
 21
518.247034
 31
0.0
  0
LINE
  5
3F4
100
AcDbEntity
  8
M01
100
AcDbLine
 10
817.341868
 20
522.247034
 30
0.0
 11
814.741868
 21
522.247034
 31
0.0
  0
LINE
  5
3F5
100
AcDbEntity
  8
M01
100
AcDbLine
 10
817.841868
 20
518.747034
 30
0.0
 11
817.841868
 21
521.747034
 31
0.0
  0
LINE
  5
3F6
100
AcDbEntity
  8
M01
100
AcDbLine
 10
792.841868
 20
515.247034
 30
0.0
 11
792.841868
 21
525.247034
 31
0.0
  0
LINE
  5
3F7
100
AcDbEntity
  8
M01
100
AcDbLine
 10
805.641868
 20
524.747034
 30
0.0
 11
804.841868
 21
524.747034
 31
0.0
  0
LINE
  5
3F8
100
AcDbEntity
  8
M01
100
AcDbLine
 10
805.641868
 20
515.747034
 30
0.0
 11
804.841868
 21
515.747034
 31
0.0
  0
LINE
  5
3F9
100
AcDbEntity
  8
CENTRE
100
AcDbLine
 10
824.002758
 20
520.247034
 30
0.0
 11
760.409326
 21
520.247034
 31
0.0
  0
LINE
  5
3FA
100
AcDbEntity
  8
CENTRE
100
AcDbLine
 10
619.841868
 20
702.247034
 30
0.0
 11
619.841868
 21
562.247034
 31
0.0
  0
LINE
  5
3FB
100
AcDbEntity
  8
M04
100
AcDbLine
 10
758.841868
 20
564.247034
 30
0.0
 11
751.841868
 21
571.247034
 31
0.0
  0
LINE
  5
3FC
100
AcDbEntity
  8
M04
100
AcDbLine
 10
751.841868
 20
493.247034
 30
0.0
 11
758.841868
 21
500.247034
 31
0.0
  0
ARC
  5
3FD
100
AcDbEntity
  8
M04
100
AcDbCircle
 10
736.841868
 20
706.247034
 30
0.0
 40
15.0
100
AcDbArc
 50
0.0
 51
90.0
  0
LINE
  5
3FE
100
AcDbEntity
  8
M04
100
AcDbLine
 10
736.841868
 20
721.247034
 30
0.0
 11
702.841868
 21
721.247034
 31
0.0
  0
LINE
  5
3FF
100
AcDbEntity
  8
M04
100
AcDbLine
 10
602.841868
 20
721.247034
 30
0.0
 11
636.841868
 21
721.247034
 31
0.0
  0
LINE
  5
400
100
AcDbEntity
  8
M04
100
AcDbLine
 10
751.841868
 20
706.247034
 30
0.0
 11
751.841868
 21
571.247034
 31
0.0
  0
LINE
  5
401
100
AcDbEntity
  8
M03
100
AcDbLine
 10
623.841868
 20
628.247034
 30
0.0
 11
623.841868
 21
582.247034
 31
0.0
  0
LINE
  5
402
100
AcDbEntity
  8
M03
100
AcDbLine
 10
619.841868
 20
632.247034
 30
0.0
 11
623.841868
 21
636.247034
 31
0.0
  0
LINE
  5
403
100
AcDbEntity
  8
M03
100
AcDbLine
 10
623.841868
 20
628.247034
 30
0.0
 11
619.841868
 21
632.247034
 31
0.0
  0
LINE
  5
404
100
AcDbEntity
  8
M03
100
AcDbLine
 10
623.841868
 20
682.247034
 30
0.0
 11
623.841868
 21
636.247034
 31
0.0
  0
LINE
  5
405
100
AcDbEntity
  8
M03
100
AcDbLine
 10
615.841868
 20
682.247034
 30
0.0
 11
615.841868
 21
582.247034
 31
0.0
  0
LINE
  5
406
100
AcDbEntity
  8
M03
100
AcDbLine
 10
715.841868
 20
628.247034
 30
0.0
 11
715.841868
 21
582.247034
 31
0.0
  0
LINE
  5
407
100
AcDbEntity
  8
M03
100
AcDbLine
 10
719.841868
 20
632.247034
 30
0.0
 11
715.841868
 21
636.247034
 31
0.0
  0
LINE
  5
408
100
AcDbEntity
  8
M03
100
AcDbLine
 10
715.841868
 20
628.247034
 30
0.0
 11
719.841868
 21
632.247034
 31
0.0
  0
LINE
  5
409
100
AcDbEntity
  8
M03
100
AcDbLine
 10
715.841868
 20
628.247034
 30
0.0
 11
673.841868
 21
628.247034
 31
0.0
  0
LINE
  5
40A
100
AcDbEntity
  8
M03
100
AcDbLine
 10
715.841868
 20
636.247034
 30
0.0
 11
623.841868
 21
636.247034
 31
0.0
  0
LINE
  5
40B
100
AcDbEntity
  8
M03
100
AcDbLine
 10
715.841868
 20
682.247034
 30
0.0
 11
715.841868
 21
636.247034
 31
0.0
  0
LINE
  5
40C
100
AcDbEntity
  8
M03
100
AcDbLine
 10
723.841868
 20
682.247034
 30
0.0
 11
723.841868
 21
582.247034
 31
0.0
  0
LINE
  5
40D
100
AcDbEntity
  8
DIMS
 62
     4
100
AcDbLine
 10
767.341868
 20
535.647034
 30
0.0
 11
767.341868
 21
537.947034
 31
0.0
  0
LINE
  5
40E
100
AcDbEntity
  8
DIMS
 62
     4
100
AcDbLine
 10
767.341868
 20
528.847034
 30
0.0
 11
767.341868
 21
526.547034
 31
0.0
  0
LINE
  5
40F
100
AcDbEntity
  8
DIMS
 62
     4
100
AcDbLine
 10
767.341868
 20
530.547034
 30
0.0
 11
767.341868
 21
533.947034
 31
0.0
  0
LINE
  5
410
100
AcDbEntity
  8
M04
100
AcDbLine
 10
832.841868
 20
549.247034
 30
0.0
 11
853.513347
 21
549.247034
 31
0.0
  0
LINE
  5
411
100
AcDbEntity
  8
M04
100
AcDbLine
 10
832.841868
 20
515.247034
 30
0.0
 11
853.513347
 21
515.247034
 31
0.0
  0
ARC
  5
412
100
AcDbEntity
  8
M04
100
AcDbCircle
 10
817.841868
 20
549.247034
 30
0.0
 40
15.0
100
AcDbArc
 50
0.0
 51
90.0
  0
ARC
  5
413
100
AcDbEntity
  8
M04
100
AcDbCircle
 10
817.841868
 20
515.247034
 30
0.0
 40
15.0
100
AcDbArc
 50
270.0
 51
0.0
  0
LINE
  5
414
100
AcDbEntity
  8
M04
100
AcDbLine
 10
832.841868
 20
515.247034
 30
0.0
 11
832.841868
 21
549.247034
 31
0.0
  0
LINE
  5
415
100
AcDbEntity
  8
M04
100
AcDbLine
 10
817.841868
 20
500.247034
 30
0.0
 11
758.841868
 21
500.247034
 31
0.0
  0
LINE
  5
416
100
AcDbEntity
  8
M04
100
AcDbLine
 10
817.841868
 20
564.247034
 30
0.0
 11
758.841868
 21
564.247034
 31
0.0
  0
LWPOLYLINE
  5
417
100
AcDbEntity
  8
M01
100
AcDbPolyline
 90
        2
 70
     0
 43
4.0
 10
765.341868
 20
532.247034
 42
-0.414214
 10
767.341868
 20
534.247034
  0
LWPOLYLINE
  5
418
100
AcDbEntity
  8
M01
100
AcDbPolyline
 90
        2
 70
     0
 43
4.0
 10
769.341868
 20
532.247034
 42
-0.414214
 10
767.341868
 20
530.247034
  0
CIRCLE
  5
419
100
AcDbEntity
  8
M01
100
AcDbCircle
 10
767.341868
 20
532.247034
 30
0.0
 40
4.0
  0
LINE
  5
41A
100
AcDbEntity
  8
M01
100
AcDbLine
 10
764.841868
 20
536.247034
 30
0.0
 11
772.841868
 21
536.247034
 31
0.0
  0
LINE
  5
41B
100
AcDbEntity
  8
M01
100
AcDbLine
 10
764.841868
 20
528.247034
 30
0.0
 11
772.841868
 21
528.247034
 31
0.0
  0
ARC
  5
41C
100
AcDbEntity
  8
M01
100
AcDbCircle
 10
764.841868
 20
532.247034
 30
0.0
 40
4.0
100
AcDbArc
 50
90.0
 51
270.0
  0
LINE
  5
41D
100
AcDbEntity
  8
M01
100
AcDbLine
 10
772.841868
 20
552.247034
 30
0.0
 11
770.841868
 21
554.247034
 31
0.0
  0
LINE
  5
41E
100
AcDbEntity
  8
M01
100
AcDbLine
 10
770.841868
 20
510.247034
 30
0.0
 11
772.841868
 21
512.247034
 31
0.0
  0
LINE
  5
41F
100
AcDbEntity
  8
M01
100
AcDbLine
 10
772.841868
 20
512.247034
 30
0.0
 11
772.841868
 21
552.247034
 31
0.0
  0
LINE
  5
420
100
AcDbEntity
  8
M01
100
AcDbLine
 10
770.841868
 20
510.247034
 30
0.0
 11
756.841868
 21
510.247034
 31
0.0
  0
LINE
  5
421
100
AcDbEntity
  8
M01
100
AcDbLine
 10
594.841868
 20
702.247034
 30
0.0
 11
606.841868
 21
714.247034
 31
0.0
  0
LINE
  5
422
100
AcDbEntity
  8
M01
100
AcDbLine
 10
606.841868
 20
714.247034
 30
0.0
 11
632.841868
 21
714.247034
 31
0.0
  0
LINE
  5
423
100
AcDbEntity
  8
M01
100
AcDbLine
 10
744.841868
 20
702.247034
 30
0.0
 11
732.841868
 21
714.247034
 31
0.0
  0
LINE
  5
424
100
AcDbEntity
  8
M01
100
AcDbLine
 10
732.841868
 20
714.247034
 30
0.0
 11
706.841868
 21
714.247034
 31
0.0
  0
LINE
  5
425
100
AcDbEntity
  8
M01
100
AcDbLine
 10
744.841868
 20
702.247034
 30
0.0
 11
744.841868
 21
566.247034
 31
0.0
  0
CIRCLE
  5
426
100
AcDbEntity
  8
M01
100
AcDbCircle
 10
619.841868
 20
682.247034
 30
0.0
 40
4.0
  0
LINE
  5
427
100
AcDbEntity
  8
M03
100
AcDbLine
 10
473.841868
 20
436.247034
 30
0.0
 11
515.841868
 21
436.247034
 31
0.0
  0
LINE
  5
428
100
AcDbEntity
  8
M03
100
AcDbLine
 10
469.841868
 20
432.247034
 30
0.0
 11
473.841868
 21
436.247034
 31
0.0
  0
LINE
  5
429
100
AcDbEntity
  8
M03
100
AcDbLine
 10
465.841868
 20
436.247034
 30
0.0
 11
469.841868
 21
432.247034
 31
0.0
  0
LINE
  5
42A
100
AcDbEntity
  8
M03
100
AcDbLine
 10
473.841868
 20
628.247034
 30
0.0
 11
515.841868
 21
628.247034
 31
0.0
  0
LINE
  5
42B
100
AcDbEntity
  8
M03
100
AcDbLine
 10
469.841868
 20
632.247034
 30
0.0
 11
473.841868
 21
628.247034
 31
0.0
  0
LINE
  5
42C
100
AcDbEntity
  8
M03
100
AcDbLine
 10
465.841868
 20
628.247034
 30
0.0
 11
469.841868
 21
632.247034
 31
0.0
  0
LINE
  5
42D
100
AcDbEntity
  8
M03
100
AcDbLine
 10
465.841868
 20
628.247034
 30
0.0
 11
465.841868
 21
436.247034
 31
0.0
  0
LINE
  5
42E
100
AcDbEntity
  8
M03
100
AcDbLine
 10
473.841868
 20
628.247034
 30
0.0
 11
473.841868
 21
536.247034
 31
0.0
  0
LINE
  5
42F
100
AcDbEntity
  8
CENTRE
100
AcDbLine
 10
411.841868
 20
432.247034
 30
0.0
 11
527.841868
 21
432.247034
 31
0.0
  0
LINE
  5
430
100
AcDbEntity
  8
CENTRE
100
AcDbLine
 10
411.841868
 20
632.247034
 30
0.0
 11
527.841868
 21
632.247034
 31
0.0
  0
LINE
  5
431
100
AcDbEntity
  8
CENTRE
100
AcDbLine
 10
469.841868
 20
640.247034
 30
0.0
 11
469.841868
 21
424.247034
 31
0.0
  0
ARC
  5
432
100
AcDbEntity
  8
M01
100
AcDbCircle
 10
382.841868
 20
566.247034
 30
0.0
 40
12.0
100
AcDbArc
 50
270.0
 51
360.0
  0
ARC
  5
433
100
AcDbEntity
  8
M01
100
AcDbCircle
 10
382.841868
 20
498.247034
 30
0.0
 40
12.0
100
AcDbArc
 50
0.0
 51
90.0
  0
LINE
  5
434
100
AcDbEntity
  8
M01
100
AcDbLine
 10
394.841868
 20
498.247034
 30
0.0
 11
394.841868
 21
362.247034
 31
0.0
  0
LINE
  5
435
100
AcDbEntity
  8
M04
100
AcDbLine
 10
387.841868
 20
493.247034
 30
0.0
 11
387.841868
 21
358.247034
 31
0.0
  0
ARC
  5
436
100
AcDbEntity
  8
M04
100
AcDbCircle
 10
402.841868
 20
358.247034
 30
0.0
 40
15.0
100
AcDbArc
 50
180.0
 51
270.0
  0
LINE
  5
437
100
AcDbEntity
  8
M04
100
AcDbLine
 10
402.841868
 20
343.247034
 30
0.0
 11
436.841868
 21
343.247034
 31
0.0
  0
LINE
  5
438
100
AcDbEntity
  8
M04
100
AcDbLine
 10
536.841868
 20
343.247034
 30
0.0
 11
502.841868
 21
343.247034
 31
0.0
  0
LINE
  5
439
100
AcDbEntity
  8
M03
100
AcDbLine
 10
419.841868
 20
432.247034
 30
0.0
 11
423.841868
 21
428.247034
 31
0.0
  0
LINE
  5
43A
100
AcDbEntity
  8
M03
100
AcDbLine
 10
423.841868
 20
436.247034
 30
0.0
 11
419.841868
 21
432.247034
 31
0.0
  0
LINE
  5
43B
100
AcDbEntity
  8
M03
100
AcDbLine
 10
423.841868
 20
382.247034
 30
0.0
 11
423.841868
 21
428.247034
 31
0.0
  0
LINE
  5
43C
100
AcDbEntity
  8
M03
100
AcDbLine
 10
515.841868
 20
436.247034
 30
0.0
 11
515.841868
 21
482.247034
 31
0.0
  0
LINE
  5
43D
100
AcDbEntity
  8
M03
100
AcDbLine
 10
519.841868
 20
432.247034
 30
0.0
 11
515.841868
 21
428.247034
 31
0.0
  0
LINE
  5
43E
100
AcDbEntity
  8
M03
100
AcDbLine
 10
515.841868
 20
436.247034
 30
0.0
 11
519.841868
 21
432.247034
 31
0.0
  0
LINE
  5
43F
100
AcDbEntity
  8
M03
100
AcDbLine
 10
515.841868
 20
382.247034
 30
0.0
 11
515.841868
 21
428.247034
 31
0.0
  0
LINE
  5
440
100
AcDbEntity
  8
M03
100
AcDbLine
 10
523.841868
 20
382.247034
 30
0.0
 11
523.841868
 21
482.247034
 31
0.0
  0
LINE
  5
441
100
AcDbEntity
  8
M03
100
AcDbLine
 10
423.841868
 20
436.247034
 30
0.0
 11
423.841868
 21
482.247034
 31
0.0
  0
LINE
  5
442
100
AcDbEntity
  8
M03
100
AcDbLine
 10
423.841868
 20
436.247034
 30
0.0
 11
465.841868
 21
436.247034
 31
0.0
  0
LINE
  5
443
100
AcDbEntity
  8
M03
100
AcDbLine
 10
423.841868
 20
428.247034
 30
0.0
 11
515.841868
 21
428.247034
 31
0.0
  0
LINE
  5
444
100
AcDbEntity
  8
M03
100
AcDbLine
 10
415.841868
 20
382.247034
 30
0.0
 11
415.841868
 21
482.247034
 31
0.0
  0
LINE
  5
445
100
AcDbEntity
  8
M01
100
AcDbLine
 10
532.841868
 20
350.247034
 30
0.0
 11
506.841868
 21
350.247034
 31
0.0
  0
LINE
  5
446
100
AcDbEntity
  8
M01
100
AcDbLine
 10
394.841868
 20
362.247034
 30
0.0
 11
406.841868
 21
350.247034
 31
0.0
  0
LINE
  5
447
100
AcDbEntity
  8
M01
100
AcDbLine
 10
406.841868
 20
350.247034
 30
0.0
 11
432.841868
 21
350.247034
 31
0.0
  0
LINE
  5
448
100
AcDbEntity
  8
M01
100
AcDbLine
 10
368.841868
 20
554.247034
 30
0.0
 11
382.841868
 21
554.247034
 31
0.0
  0
MTEXT
  5
449
100
AcDbEntity
  8
0
  6
BYBLOCK
 62
     2
100
AcDbMText
 10
426.779635
 20
307.661452
 30
0.0
 40
3.0
 41
0.0
 71
     6
 72
     1
  1
WHERE POSSIBLE M12 PLATE RETAINING SCREWS SHOULD ALSO BE FITTED.\PMINIMUM 2 PER DROP & ALSO AROUND MANIFOLD POCKET.
  0
HATCH
  5
44A
100
AcDbEntity
  8
M03
100
AcDbHatch
 10
0.0
 20
0.0
 30
0.0
210
0.0
220
0.0
230
1.0
  2
_U
 70
     0
 71
     0
 91
        1
 92
        7
 72
     0
 73
     1
 93
        4
 10
398.7418684629997
 20
674.5540971477264
 10
398.7418684629998
 20
703.7925565623618
 10
396.8418684629998
 20
703.7925565623618
 10
396.8418684629998
 20
674.5540971477263
 97
        0
 75
     0
 76
     0
 52
240.0
 41
0.7
 77
     0
 78
     1
 53
240.0
 43
-5.717358
 44
1165.694275
 45
0.6062177826491068
 46
-0.3500000000000004
 79
     0
 47
0.060863
 98
        1
 10
397.554437
 20
678.245269
  0
HATCH
  5
44B
100
AcDbEntity
  8
M03
100
AcDbHatch
 10
0.0
 20
0.0
 30
0.0
210
0.0
220
0.0
230
1.0
  2
_U
 70
     0
 71
     0
 91
        1
 92
        7
 72
     0
 73
     1
 93
        4
 10
398.7418684629997
 20
674.5540971477263
 10
398.7418684629997
 20
703.7925565623619
 10
396.8418684629997
 20
703.7925565623619
 10
396.8418684629998
 20
674.5540971477262
 97
        0
 75
     0
 76
     0
 52
-60.0
 41
0.7
 77
     0
 78
     1
 53
300.0
 43
-5.717358
 44
1165.694275
 45
0.6062177826491073
 46
0.3499999999999998
 79
     0
 47
0.060863
 98
        1
 10
397.79789
 20
678.427933
  0
MTEXT
  5
44C
102
{ACAD_REACTORS
330
44D
102
}
100
AcDbEntity
  8
DIMS
 62
     2
100
AcDbMText
 10
375.396113
 20
640.049156
 30
0.0
 40
3.0
 41
0.0
 71
     9
 72
     5
  1
HGX10037 (x2)
  0
LEADER
  5
44D
100
AcDbEntity
  8
DIMS
 62
     4
100
AcDbLeader
  3
DIM1$7
 73
     0
 75
     1
 40
4.571429
 41
33.714286
 76
     3
 10
397.743469
 20
654.293269
 30
0.0
 10
379.896113
 20
641.549156
 30
0.0
 10
376.896113
 20
641.549156
 30
0.0
 77
   256
340
44C
213
0.0
223
1.5
233
0.0
1001
ACAD
1000
DSTYLE
1002
{
1070
   288
1070
     1
1070
   144
1040
1.0
1002
}
  0
LINE
  5
44E
100
AcDbEntity
  8
M03
100
AcDbLine
 10
412.341868
 20
657.947034
 30
0.0
 11
413.669774
 21
660.247034
 31
0.0
  0
LINE
  5
44F
100
AcDbEntity
  8
M03
100
AcDbLine
 10
412.341868
 20
662.547034
 30
0.0
 11
413.669774
 21
660.247034
 31
0.0
  0
LINE
  5
450
100
AcDbEntity
  8
M03
100
AcDbLine
 10
412.341868
 20
662.547034
 30
0.0
 11
412.341868
 21
657.947034
 31
0.0
  0
LINE
  5
451
100
AcDbEntity
  8
M03
100
AcDbLine
 10
410.841868
 20
663.247034
 30
0.0
 11
410.841868
 21
657.247034
 31
0.0
  0
LINE
  5
452
100
AcDbEntity
  8
M03
100
AcDbLine
 10
398.741868
 20
674.554097
 30
0.0
 11
398.741868
 21
703.792557
 31
0.0
  0
LINE
  5
453
100
AcDbEntity
  8
M03
100
AcDbLine
 10
396.841868
 20
674.554097
 30
0.0
 11
396.841868
 21
703.792557
 31
0.0
  0
LINE
  5
454
100
AcDbEntity
  8
M03
100
AcDbLine
 10
399.041868
 20
667.554097
 30
0.0
 11
399.041868
 21
653.247034
 31
0.0
  0
LINE
  5
455
100
AcDbEntity
  8
M03
100
AcDbLine
 10
399.841868
 20
668.598861
 30
0.0
 11
399.041868
 21
668.598861
 31
0.0
  0
LINE
  5
456
100
AcDbEntity
  8
M03
100
AcDbLine
 10
399.041868
 20
674.554097
 30
0.0
 11
396.541868
 21
674.554097
 31
0.0
  0
LINE
  5
457
100
AcDbEntity
  8
M03
100
AcDbLine
 10
396.541868
 20
674.554097
 30
0.0
 11
396.541868
 21
667.554097
 31
0.0
  0
LINE
  5
458
100
AcDbEntity
  8
M03
100
AcDbLine
 10
399.041868
 20
667.554097
 30
0.0
 11
396.541868
 21
667.554097
 31
0.0
  0
LINE
  5
459
100
AcDbEntity
  8
M03
100
AcDbLine
 10
399.841868
 20
653.247034
 30
0.0
 11
399.041868
 21
653.247034
 31
0.0
  0
ARC
  5
45A
100
AcDbEntity
  8
M03
100
AcDbCircle
 10
401.568005
 20
660.247034
 30
0.0
 40
5.826136
100
AcDbArc
 50
115.69541
 51
244.30459
  0
LINE
  5
45B
100
AcDbEntity
  8
M03
100
AcDbLine
 10
408.341868
 20
657.247034
 30
0.0
 11
409.041868
 21
657.947034
 31
0.0
  0
LINE
  5
45C
100
AcDbEntity
  8
M03
100
AcDbLine
 10
408.341868
 20
663.247034
 30
0.0
 11
409.041868
 21
662.547034
 31
0.0
  0
LINE
  5
45D
100
AcDbEntity
  8
M03
100
AcDbLine
 10
408.341868
 20
663.247034
 30
0.0
 11
408.341868
 21
657.247034
 31
0.0
  0
LINE
  5
45E
100
AcDbEntity
  8
M03
100
AcDbLine
 10
409.041868
 20
662.547034
 30
0.0
 11
409.041868
 21
657.947034
 31
0.0
  0
LINE
  5
45F
100
AcDbEntity
  8
M03
100
AcDbLine
 10
399.841868
 20
657.247034
 30
0.0
 11
399.841868
 21
650.247034
 31
0.0
  0
LINE
  5
460
100
AcDbEntity
  8
M03
100
AcDbLine
 10
399.841868
 20
673.947034
 30
0.0
 11
399.041868
 21
673.947034
 31
0.0
  0
LINE
  5
461
100
AcDbEntity
  8
M03
100
AcDbLine
 10
399.841868
 20
656.547034
 30
0.0
 11
399.041868
 21
656.547034
 31
0.0
  0
LINE
  5
462
100
AcDbEntity
  8
M03
100
AcDbLine
 10
412.341868
 20
657.947034
 30
0.0
 11
399.041868
 21
657.947034
 31
0.0
  0
LINE
  5
463
100
AcDbEntity
  8
M03
100
AcDbLine
 10
412.341868
 20
662.547034
 30
0.0
 11
399.041868
 21
662.547034
 31
0.0
  0
LINE
  5
464
100
AcDbEntity
  8
M03
100
AcDbLine
 10
410.841868
 20
663.247034
 30
0.0
 11
399.041868
 21
663.247034
 31
0.0
  0
LINE
  5
465
100
AcDbEntity
  8
M03
100
AcDbLine
 10
410.841868
 20
657.247034
 30
0.0
 11
399.041868
 21
657.247034
 31
0.0
  0
LINE
  5
466
100
AcDbEntity
  8
M03
100
AcDbLine
 10
399.041868
 20
674.554097
 30
0.0
 11
399.041868
 21
668.598861
 31
0.0
  0
LINE
  5
467
100
AcDbEntity
  8
M03
100
AcDbLine
 10
399.841868
 20
650.247034
 30
0.0
 11
394.841868
 21
650.247034
 31
0.0
  0
LINE
  5
468
100
AcDbEntity
  8
M03
100
AcDbLine
 10
399.841868
 20
707.247034
 30
0.0
 11
399.841868
 21
663.247034
 31
0.0
  0
LINE
  5
469
100
AcDbEntity
  8
CENTRE
100
AcDbLine
 10
418.040542
 20
660.247034
 30
0.0
 11
390.880392
 21
660.247034
 31
0.0
  0
LINE
  5
46A
100
AcDbEntity
  8
DIMS
 62
     4
100
AcDbLine
 10
573.241868
 20
506.247034
 30
0.0
 11
577.041868
 21
506.247034
 31
0.0
  0
LINE
  5
46B
100
AcDbEntity
  8
DIMS
 62
     4
100
AcDbLine
 10
566.441868
 20
506.247034
 30
0.0
 11
562.641868
 21
506.247034
 31
0.0
  0
LINE
  5
46C
100
AcDbEntity
  8
DIMS
 62
     4
100
AcDbLine
 10
568.141868
 20
506.247034
 30
0.0
 11
571.541868
 21
506.247034
 31
0.0
  0
CIRCLE
  5
46D
100
AcDbEntity
  8
M03
100
AcDbCircle
 10
569.841868
 20
506.247034
 30
0.0
 40
2.3
  0
ARC
  5
46E
100
AcDbEntity
  8
M03
100
AcDbCircle
 10
569.841868
 20
506.247034
 30
0.0
 40
3.0
100
AcDbArc
 50
167.784636
 51
96.923103
  0
CIRCLE
  5
46F
100
AcDbEntity
  8
M03
100
AcDbCircle
 10
569.841868
 20
506.247034
 30
0.0
 40
5.5
  0
LINE
  5
470
100
AcDbEntity
  8
DIMS
 62
     4
100
AcDbLine
 10
543.841868
 20
535.647034
 30
0.0
 11
543.841868
 21
539.447034
 31
0.0
  0
LINE
  5
471
100
AcDbEntity
  8
DIMS
 62
     4
100
AcDbLine
 10
543.841868
 20
528.847034
 30
0.0
 11
543.841868
 21
525.047034
 31
0.0
  0
LINE
  5
472
100
AcDbEntity
  8
DIMS
 62
     4
100
AcDbLine
 10
543.841868
 20
530.547034
 30
0.0
 11
543.841868
 21
533.947034
 31
0.0
  0
LINE
  5
473
100
AcDbEntity
  8
DIMS
 62
     4
100
AcDbLine
 10
595.841868
 20
535.647034
 30
0.0
 11
595.841868
 21
539.447034
 31
0.0
  0
LINE
  5
474
100
AcDbEntity
  8
DIMS
 62
     4
100
AcDbLine
 10
595.841868
 20
528.847034
 30
0.0
 11
595.841868
 21
525.047034
 31
0.0
  0
LINE
  5
475
100
AcDbEntity
  8
DIMS
 62
     4
100
AcDbLine
 10
595.841868
 20
530.547034
 30
0.0
 11
595.841868
 21
533.947034
 31
0.0
  0
LINE
  5
476
100
AcDbEntity
  8
DIMS
 62
     4
100
AcDbLine
 10
573.241868
 20
558.247034
 30
0.0
 11
577.041868
 21
558.247034
 31
0.0
  0
LINE
  5
477
100
AcDbEntity
  8
DIMS
 62
     4
100
AcDbLine
 10
566.441868
 20
558.247034
 30
0.0
 11
562.641868
 21
558.247034
 31
0.0
  0
LINE
  5
478
100
AcDbEntity
  8
DIMS
 62
     4
100
AcDbLine
 10
568.141868
 20
558.247034
 30
0.0
 11
571.541868
 21
558.247034
 31
0.0
  0
CIRCLE
  5
479
100
AcDbEntity
  8
M03
100
AcDbCircle
 10
595.841868
 20
532.247034
 30
0.0
 40
2.3
  0
ARC
  5
47A
100
AcDbEntity
  8
M03
100
AcDbCircle
 10
595.841868
 20
532.247034
 30
0.0
 40
3.0
100
AcDbArc
 50
167.784636
 51
96.923103
  0
CIRCLE
  5
47B
100
AcDbEntity
  8
M03
100
AcDbCircle
 10
595.841868
 20
532.247034
 30
0.0
 40
5.5
  0
CIRCLE
  5
47C
100
AcDbEntity
  8
M03
100
AcDbCircle
 10
543.841868
 20
532.247034
 30
0.0
 40
2.3
  0
ARC
  5
47D
100
AcDbEntity
  8
M03
100
AcDbCircle
 10
543.841868
 20
532.247034
 30
0.0
 40
3.0
100
AcDbArc
 50
167.784636
 51
96.923103
  0
CIRCLE
  5
47E
100
AcDbEntity
  8
M03
100
AcDbCircle
 10
543.841868
 20
532.247034
 30
0.0
 40
5.5
  0
CIRCLE
  5
47F
100
AcDbEntity
  8
M03
100
AcDbCircle
 10
569.841868
 20
558.247034
 30
0.0
 40
2.3
  0
ARC
  5
480
100
AcDbEntity
  8
M03
100
AcDbCircle
 10
569.841868
 20
558.247034
 30
0.0
 40
3.0
100
AcDbArc
 50
167.784636
 51
96.923103
  0
CIRCLE
  5
481
100
AcDbEntity
  8
M03
100
AcDbCircle
 10
569.841868
 20
558.247034
 30
0.0
 40
5.5
  0
LINE
  5
482
102
{ACAD_REACTORS
330
2BB
102
}
100
AcDbEntity
  8
M05
100
AcDbLine
 10
429.341868
 20
176.583762
 30
0.0
 11
430.341868
 21
175.583762
 31
0.0
  0
LINE
  5
483
102
{ACAD_REACTORS
330
2BB
102
}
100
AcDbEntity
  8
M05
100
AcDbLine
 10
427.341868
 20
176.583762
 30
0.0
 11
426.341868
 21
175.583762
 31
0.0
  0
LINE
  5
484
102
{ACAD_REACTORS
330
2BB
102
}
100
AcDbEntity
  8
M05
100
AcDbLine
 10
429.341868
 20
176.583762
 30
0.0
 11
427.341868
 21
176.583762
 31
0.0
  0
LINE
  5
485
102
{ACAD_REACTORS
330
2BB
102
}
100
AcDbEntity
  8
M05
100
AcDbLine
 10
410.341868
 20
176.583762
 30
0.0
 11
409.341868
 21
175.583762
 31
0.0
  0
LINE
  5
486
102
{ACAD_REACTORS
330
2BB
102
}
100
AcDbEntity
  8
M05
100
AcDbLine
 10
412.341868
 20
176.583762
 30
0.0
 11
413.341868
 21
175.583762
 31
0.0
  0
LINE
  5
487
102
{ACAD_REACTORS
330
2BB
102
}
100
AcDbEntity
  8
M05
100
AcDbLine
 10
410.341868
 20
176.583762
 30
0.0
 11
412.341868
 21
176.583762
 31
0.0
  0
LINE
  5
488
102
{ACAD_REACTORS
330
1DA
102
}
100
AcDbEntity
  8
M02
100
AcDbLine
 10
437.841868
 20
229.583762
 30
0.0
 11
437.841868
 21
232.583762
 31
0.0
  0
LINE
  5
489
102
{ACAD_REACTORS
330
1DA
102
}
100
AcDbEntity
  8
M02
100
AcDbLine
 10
401.841868
 20
229.583762
 30
0.0
 11
401.841868
 21
232.583762
 31
0.0
  0
LINE
  5
48A
100
AcDbEntity
  8
M04
100
AcDbLine
 10
419.841868
 20
157.755857
 30
0.0
 11
422.141868
 21
159.083762
 31
0.0
  0
LINE
  5
48B
100
AcDbEntity
  8
M04
100
AcDbLine
 10
417.541868
 20
159.083762
 30
0.0
 11
419.841868
 21
157.755857
 31
0.0
  0
LINE
  5
48C
100
AcDbEntity
  8
M04
100
AcDbLine
 10
417.541868
 20
159.083762
 30
0.0
 11
422.141868
 21
159.083762
 31
0.0
  0
LINE
  5
48D
100
AcDbEntity
  8
M04
100
AcDbLine
 10
416.841868
 20
164.14488
 30
0.0
 11
416.841868
 21
160.583762
 31
0.0
  0
LINE
  5
48E
100
AcDbEntity
  8
M04
100
AcDbLine
 10
417.541868
 20
163.44488
 30
0.0
 11
417.541868
 21
159.083762
 31
0.0
  0
LINE
  5
48F
100
AcDbEntity
  8
M04
100
AcDbLine
 10
422.841868
 20
164.14488
 30
0.0
 11
422.841868
 21
160.583762
 31
0.0
  0
LINE
  5
490
100
AcDbEntity
  8
M04
100
AcDbLine
 10
422.141868
 20
163.44488
 30
0.0
 11
422.141868
 21
159.083762
 31
0.0
  0
LINE
  5
491
100
AcDbEntity
  8
M05
100
AcDbLine
 10
422.141868
 20
163.44488
 30
0.0
 11
422.841868
 21
164.14488
 31
0.0
  0
LINE
  5
492
100
AcDbEntity
  8
M05
100
AcDbLine
 10
416.841868
 20
164.14488
 30
0.0
 11
417.541868
 21
163.44488
 31
0.0
  0
LINE
  5
493
100
AcDbEntity
  8
M05
100
AcDbLine
 10
422.141868
 20
176.22488
 30
0.0
 11
422.141868
 21
163.44488
 31
0.0
  0
LINE
  5
494
100
AcDbEntity
  8
M05
100
AcDbLine
 10
417.541868
 20
176.22488
 30
0.0
 11
417.541868
 21
163.44488
 31
0.0
  0
LINE
  5
495
100
AcDbEntity
  8
M05
100
AcDbLine
 10
416.841868
 20
164.14488
 30
0.0
 11
422.841868
 21
164.14488
 31
0.0
  0
LINE
  5
496
100
AcDbEntity
  8
M04
100
AcDbLine
 10
416.841868
 20
160.583762
 30
0.0
 11
422.841868
 21
160.583762
 31
0.0
  0
LINE
  5
497
100
AcDbEntity
  8
M05
100
AcDbLine
 10
417.541868
 20
163.44488
 30
0.0
 11
422.141868
 21
163.44488
 31
0.0
  0
LINE
  5
498
102
{ACAD_REACTORS
330
20
102
}
100
AcDbEntity
  8
M05
  6
HIDDEN
100
AcDbLine
 10
411.682986
 20
182.883762
 30
0.0
 11
410.982986
 21
183.583762
 31
0.0
  0
LINE
  5
499
102
{ACAD_REACTORS
330
20
102
}
100
AcDbEntity
  8
M05
  6
HIDDEN
100
AcDbLine
 10
428.00075
 20
182.883762
 30
0.0
 11
428.70075
 21
183.583762
 31
0.0
  0
LINE
  5
49A
100
AcDbEntity
  8
M05
100
AcDbLine
 10
416.841868
 20
176.22488
 30
0.0
 11
422.841868
 21
176.22488
 31
0.0
  0
LINE
  5
49B
100
AcDbEntity
  8
M05
100
AcDbLine
 10
420.391868
 20
180.72488
 30
0.0
 11
425.841868
 21
180.72488
 31
0.0
  0
LINE
  5
49C
100
AcDbEntity
  8
M05
100
AcDbLine
 10
420.391868
 20
181.44488
 30
0.0
 11
425.841868
 21
181.44488
 31
0.0
  0
LINE
  5
49D
100
AcDbEntity
  8
M05
100
AcDbLine
 10
420.391868
 20
181.44488
 30
0.0
 11
420.391868
 21
179.94488
 31
0.0
  0
LINE
  5
49E
100
AcDbEntity
  8
M05
100
AcDbLine
 10
419.291868
 20
181.44488
 30
0.0
 11
419.291868
 21
179.94488
 31
0.0
  0
LINE
  5
49F
100
AcDbEntity
  8
M05
100
AcDbLine
 10
419.291868
 20
179.94488
 30
0.0
 11
420.391868
 21
179.94488
 31
0.0
  0
LINE
  5
4A0
102
{ACAD_REACTORS
330
2BB
102
}
100
AcDbEntity
  8
M05
100
AcDbLine
 10
423.341868
 20
178.22488
 30
0.0
 11
423.341868
 21
175.583762
 31
0.0
  0
LINE
  5
4A1
102
{ACAD_REACTORS
330
2BB
102
}
100
AcDbEntity
  8
M05
100
AcDbLine
 10
416.341868
 20
178.22488
 30
0.0
 11
416.341868
 21
175.583762
 31
0.0
  0
LINE
  5
4A2
100
AcDbEntity
  8
M05
100
AcDbLine
 10
413.841868
 20
180.72488
 30
0.0
 11
419.291868
 21
180.72488
 31
0.0
  0
LINE
  5
4A3
102
{ACAD_REACTORS
330
2BB
330
20
102
}
100
AcDbEntity
  8
M05
100
AcDbLine
 10
416.841868
 20
177.72488
 30
0.0
 11
411.682986
 21
182.883762
 31
0.0
  0
LINE
  5
4A4
100
AcDbEntity
  8
M05
100
AcDbLine
 10
413.841868
 20
181.44488
 30
0.0
 11
413.841868
 21
180.72488
 31
0.0
  0
LINE
  5
4A5
102
{ACAD_REACTORS
330
2BB
330
20
102
}
100
AcDbEntity
  8
M05
100
AcDbLine
 10
422.841868
 20
177.72488
 30
0.0
 11
428.00075
 21
182.883762
 31
0.0
  0
LINE
  5
4A6
100
AcDbEntity
  8
M05
100
AcDbLine
 10
416.841868
 20
177.72488
 30
0.0
 11
422.841868
 21
177.72488
 31
0.0
  0
LINE
  5
4A7
100
AcDbEntity
  8
M05
100
AcDbLine
 10
416.841868
 20
177.72488
 30
0.0
 11
416.841868
 21
164.14488
 31
0.0
  0
LINE
  5
4A8
100
AcDbEntity
  8
M05
100
AcDbLine
 10
422.841868
 20
177.72488
 30
0.0
 11
422.841868
 21
164.14488
 31
0.0
  0
LINE
  5
4A9
100
AcDbEntity
  8
M05
100
AcDbLine
 10
425.841868
 20
181.44488
 30
0.0
 11
425.841868
 21
180.72488
 31
0.0
  0
LINE
  5
4AA
100
AcDbEntity
  8
M05
100
AcDbLine
 10
413.841868
 20
181.44488
 30
0.0
 11
419.291868
 21
181.44488
 31
0.0
  0
LINE
  5
4AB
102
{ACAD_REACTORS
330
20
102
}
100
AcDbEntity
  8
M05
  6
HIDDEN
100
AcDbLine
 10
405.841868
 20
182.883762
 30
0.0
 11
433.841868
 21
182.883762
 31
0.0
  0
LINE
  5
4AC
102
{ACAD_REACTORS
330
20
102
}
100
AcDbEntity
  8
M05
  6
HIDDEN
100
AcDbLine
 10
433.841868
 20
182.883762
 30
0.0
 11
433.141868
 21
183.583762
 31
0.0
  0
LINE
  5
4AD
102
{ACAD_REACTORS
330
20
102
}
100
AcDbEntity
  8
M05
  6
HIDDEN
100
AcDbLine
 10
433.841868
 20
181.883762
 30
0.0
 11
433.841868
 21
182.883762
 31
0.0
  0
LINE
  5
4AE
102
{ACAD_REACTORS
330
2BB
102
}
100
AcDbEntity
  8
M05
100
AcDbLine
 10
433.841868
 20
181.883762
 30
0.0
 11
433.141868
 21
182.583762
 31
0.0
  0
LINE
  5
4AF
102
{ACAD_REACTORS
330
2BB
102
}
100
AcDbEntity
  8
M05
100
AcDbLine
 10
433.841868
 20
176.283762
 30
0.0
 11
433.141868
 21
175.583762
 31
0.0
  0
LINE
  5
4B0
102
{ACAD_REACTORS
330
2BB
102
}
100
AcDbEntity
  8
M05
100
AcDbLine
 10
433.841868
 20
181.883762
 30
0.0
 11
433.841868
 21
176.283762
 31
0.0
  0
LINE
  5
4B1
100
AcDbEntity
  8
M05
  6
HIDDEN
100
AcDbLine
 10
405.841868
 20
182.883762
 30
0.0
 11
406.541868
 21
183.583762
 31
0.0
  0
LINE
  5
4B2
100
AcDbEntity
  8
M05
  6
HIDDEN
100
AcDbLine
 10
405.841868
 20
181.883762
 30
0.0
 11
405.841868
 21
182.883762
 31
0.0
  0
LINE
  5
4B3
102
{ACAD_REACTORS
330
2BB
102
}
100
AcDbEntity
  8
M05
100
AcDbLine
 10
405.841868
 20
181.883762
 30
0.0
 11
406.541868
 21
182.583762
 31
0.0
  0
LINE
  5
4B4
102
{ACAD_REACTORS
330
2BB
102
}
100
AcDbEntity
  8
M05
100
AcDbLine
 10
405.841868
 20
176.283762
 30
0.0
 11
406.541868
 21
175.583762
 31
0.0
  0
LINE
  5
4B5
102
{ACAD_REACTORS
330
20
102
}
100
AcDbEntity
  8
M05
  6
HIDDEN
100
AcDbLine
 10
406.541868
 20
183.583762
 30
0.0
 11
433.141868
 21
183.583762
 31
0.0
  0
LINE
  5
4B6
102
{ACAD_REACTORS
330
2BB
102
}
100
AcDbEntity
  8
M05
100
AcDbLine
 10
405.841868
 20
181.883762
 30
0.0
 11
405.841868
 21
176.283762
 31
0.0
  0
HATCH
  5
4B7
100
AcDbEntity
  8
HATCH
100
AcDbHatch
 10
0.0
 20
0.0
 30
0.0
210
0.0
220
0.0
230
1.0
  2
_U
 70
     0
 71
     0
 91
        2
 92
        7
 72
     1
 73
     1
 93
        2
 10
403.841868463
 20
221.5837624368934
 42
1.0
 10
403.841868463
 20
229.5837624368934
 42
1.0
 97
        0
 92
        7
 72
     1
 73
     1
 93
        2
 10
403.841868463
 20
190.5837624368935
 42
1.0
 10
403.841868463
 20
182.5837624368934
 42
1.0
 97
        0
 75
     0
 76
     0
 52
45.0
 41
0.8
 77
     0
 78
     1
 53
45.0
 43
37.373301
 44
-12.69603
 45
-0.565685424949238
 46
0.565685424949238
 79
     0
 47
0.095608
 98
        2
 10
403.541227
 20
225.450414
 10
404.688524
 20
186.426223
  0
LINE
  5
4B8
100
AcDbEntity
  8
DIMS
 62
     4
100
AcDbLine
 10
407.241868
 20
186.583762
 30
0.0
 11
409.541868
 21
186.583762
 31
0.0
  0
LINE
  5
4B9
100
AcDbEntity
  8
DIMS
 62
     4
100
AcDbLine
 10
400.441868
 20
186.583762
 30
0.0
 11
398.141868
 21
186.583762
 31
0.0
  0
LINE
  5
4BA
100
AcDbEntity
  8
DIMS
 62
     4
100
AcDbLine
 10
403.841868
 20
183.183762
 30
0.0
 11
403.841868
 21
180.883762
 31
0.0
  0
LINE
  5
4BB
100
AcDbEntity
  8
DIMS
 62
     4
100
AcDbLine
 10
403.841868
 20
189.983762
 30
0.0
 11
403.841868
 21
192.283762
 31
0.0
  0
LINE
  5
4BC
100
AcDbEntity
  8
DIMS
 62
     4
100
AcDbLine
 10
402.141868
 20
186.583762
 30
0.0
 11
405.541868
 21
186.583762
 31
0.0
  0
LINE
  5
4BD
100
AcDbEntity
  8
DIMS
 62
     4
100
AcDbLine
 10
403.841868
 20
188.283762
 30
0.0
 11
403.841868
 21
184.883762
 31
0.0
  0
LINE
  5
4BE
100
AcDbEntity
  8
DIMS
 62
     4
100
AcDbLine
 10
407.241868
 20
225.583762
 30
0.0
 11
409.541868
 21
225.583762
 31
0.0
  0
LINE
  5
4BF
100
AcDbEntity
  8
DIMS
 62
     4
100
AcDbLine
 10
400.441868
 20
225.583762
 30
0.0
 11
398.141868
 21
225.583762
 31
0.0
  0
LINE
  5
4C0
100
AcDbEntity
  8
DIMS
 62
     4
100
AcDbLine
 10
403.841868
 20
222.183762
 30
0.0
 11
403.841868
 21
219.883762
 31
0.0
  0
LINE
  5
4C1
100
AcDbEntity
  8
DIMS
 62
     4
100
AcDbLine
 10
403.841868
 20
228.983762
 30
0.0
 11
403.841868
 21
231.283762
 31
0.0
  0
LINE
  5
4C2
100
AcDbEntity
  8
DIMS
 62
     4
100
AcDbLine
 10
402.141868
 20
225.583762
 30
0.0
 11
405.541868
 21
225.583762
 31
0.0
  0
LINE
  5
4C3
100
AcDbEntity
  8
DIMS
 62
     4
100
AcDbLine
 10
403.841868
 20
227.283762
 30
0.0
 11
403.841868
 21
223.883762
 31
0.0
  0
LINE
  5
4C4
102
{ACAD_REACTORS
330
20
102
}
100
AcDbEntity
  8
M01
100
AcDbLine
 10
399.841868
 20
186.583762
 30
0.0
 11
399.841868
 21
182.583762
 31
0.0
  0
LINE
  5
4C5
102
{ACAD_REACTORS
330
20
102
}
100
AcDbEntity
  8
M01
100
AcDbLine
 10
407.841868
 20
186.583762
 30
0.0
 11
407.841868
 21
182.583762
 31
0.0
  0
LINE
  5
4C6
102
{ACAD_REACTORS
330
20
102
}
100
AcDbEntity
  8
M01
100
AcDbLine
 10
399.841868
 20
225.583762
 30
0.0
 11
399.841868
 21
229.583762
 31
0.0
  0
LINE
  5
4C7
102
{ACAD_REACTORS
330
20
102
}
100
AcDbEntity
  8
M01
100
AcDbLine
 10
407.841868
 20
225.583762
 30
0.0
 11
407.841868
 21
229.583762
 31
0.0
  0
CIRCLE
  5
4C8
102
{ACAD_REACTORS
330
20
102
}
100
AcDbEntity
  8
M01
100
AcDbCircle
 10
403.841868
 20
186.583762
 30
0.0
 40
4.0
  0
CIRCLE
  5
4C9
102
{ACAD_REACTORS
330
20
102
}
100
AcDbEntity
  8
M01
100
AcDbCircle
 10
403.841868
 20
225.583762
 30
0.0
 40
4.0
  0
DIMENSION
  5
4CA
100
AcDbEntity
  8
DIMS
100
AcDbDimension
  2
*D1
 10
763.341868
 20
264.259927
 30
0.0
 11
745.556154
 21
267.259927
 31
0.0
  1
%%c<> H7
  3
DIM1
100
AcDbAlignedDimension
 13
771.341868
 23
249.583762
 33
0.0
 14
763.341868
 24
249.583762
 34
0.0
100
AcDbRotatedDimension
1001
ACAD
1000
DSTYLE
1002
{
1070
   144
1040
1.0
1002
}
  0
LINE
  5
4D8
100
AcDbEntity
  8
M01
100
AcDbLine
 10
344.897768
 20
547.497034
 30
0.0
 11
344.897768
 21
540.997034
 31
0.0
  0
LINE
  5
4D9
100
AcDbEntity
  8
M01
100
AcDbLine
 10
336.785969
 20
547.497034
 30
0.0
 11
336.785969
 21
540.997034
 31
0.0
  0
LINE
  5
4DA
100
AcDbEntity
  8
M01
100
AcDbLine
 10
344.897768
 20
547.497034
 30
0.0
 11
346.841868
 21
547.497034
 31
0.0
  0
ARC
  5
4DB
100
AcDbEntity
  8
M01
100
AcDbCircle
 10
343.336519
 20
548.747034
 30
0.0
 40
2.0
100
AcDbArc
 50
270.0
 51
321.317813
  0
ARC
  5
4DC
100
AcDbEntity
  8
M01
100
AcDbCircle
 10
338.347218
 20
548.747034
 30
0.0
 40
2.0
100
AcDbArc
 50
218.682187
 51
270.0
  0
LINE
  5
4DD
100
AcDbEntity
  8
M01
100
AcDbLine
 10
334.841868
 20
547.497034
 30
0.0
 11
336.785969
 21
547.497034
 31
0.0
  0
LINE
  5
4DE
100
AcDbEntity
  8
M01
100
AcDbLine
 10
338.347218
 20
546.747034
 30
0.0
 11
343.336519
 21
546.747034
 31
0.0
  0
LINE
  5
4DF
100
AcDbEntity
  8
M01
100
AcDbLine
 10
344.897768
 20
540.997034
 30
0.0
 11
346.841868
 21
540.997034
 31
0.0
  0
ARC
  5
4E0
100
AcDbEntity
  8
M01
100
AcDbCircle
 10
343.336519
 20
539.747034
 30
0.0
 40
2.0
100
AcDbArc
 50
38.682187
 51
90.0
  0
ARC
  5
4E1
100
AcDbEntity
  8
M01
100
AcDbCircle
 10
338.347218
 20
539.747034
 30
0.0
 40
2.0
100
AcDbArc
 50
90.0
 51
141.317813
  0
LINE
  5
4E2
100
AcDbEntity
  8
M01
100
AcDbLine
 10
334.841868
 20
540.997034
 30
0.0
 11
336.785969
 21
540.997034
 31
0.0
  0
LINE
  5
4E3
100
AcDbEntity
  8
M01
100
AcDbLine
 10
338.347218
 20
541.747034
 30
0.0
 11
343.336519
 21
541.747034
 31
0.0
  0
LINE
  5
4E4
100
AcDbEntity
  8
M01
100
AcDbLine
 10
334.841868
 20
539.747034
 30
0.0
 11
334.841868
 21
548.747034
 31
0.0
  0
LINE
  5
4E5
100
AcDbEntity
  8
M01
100
AcDbLine
 10
334.041868
 20
548.747034
 30
0.0
 11
334.841868
 21
548.747034
 31
0.0
  0
LINE
  5
4E6
100
AcDbEntity
  8
M01
100
AcDbLine
 10
334.041868
 20
539.747034
 30
0.0
 11
334.841868
 21
539.747034
 31
0.0
  0
LINE
  5
4E7
100
AcDbEntity
  8
M01
100
AcDbLine
 10
344.897768
 20
516.997034
 30
0.0
 11
344.897768
 21
523.497034
 31
0.0
  0
LINE
  5
4E8
100
AcDbEntity
  8
M01
100
AcDbLine
 10
336.785969
 20
516.997034
 30
0.0
 11
336.785969
 21
523.497034
 31
0.0
  0
LINE
  5
4E9
100
AcDbEntity
  8
M01
100
AcDbLine
 10
344.897768
 20
516.997034
 30
0.0
 11
346.841868
 21
516.997034
 31
0.0
  0
ARC
  5
4EA
100
AcDbEntity
  8
M01
100
AcDbCircle
 10
343.336519
 20
515.747034
 30
0.0
 40
2.0
100
AcDbArc
 50
38.682187
 51
90.0
  0
ARC
  5
4EB
100
AcDbEntity
  8
M01
100
AcDbCircle
 10
338.347218
 20
515.747034
 30
0.0
 40
2.0
100
AcDbArc
 50
90.0
 51
141.317813
  0
LINE
  5
4EC
100
AcDbEntity
  8
M01
100
AcDbLine
 10
334.841868
 20
516.997034
 30
0.0
 11
336.785969
 21
516.997034
 31
0.0
  0
LINE
  5
4ED
100
AcDbEntity
  8
M01
100
AcDbLine
 10
338.347218
 20
517.747034
 30
0.0
 11
343.336519
 21
517.747034
 31
0.0
  0
LINE
  5
4EE
100
AcDbEntity
  8
M01
100
AcDbLine
 10
344.897768
 20
523.497034
 30
0.0
 11
346.841868
 21
523.497034
 31
0.0
  0
ARC
  5
4EF
100
AcDbEntity
  8
M01
100
AcDbCircle
 10
343.336519
 20
524.747034
 30
0.0
 40
2.0
100
AcDbArc
 50
270.0
 51
321.317813
  0
ARC
  5
4F0
100
AcDbEntity
  8
M01
100
AcDbCircle
 10
338.347218
 20
524.747034
 30
0.0
 40
2.0
100
AcDbArc
 50
218.682187
 51
270.0
  0
LINE
  5
4F1
100
AcDbEntity
  8
M01
100
AcDbLine
 10
334.841868
 20
523.497034
 30
0.0
 11
336.785969
 21
523.497034
 31
0.0
  0
LINE
  5
4F2
100
AcDbEntity
  8
M01
100
AcDbLine
 10
338.347218
 20
522.747034
 30
0.0
 11
343.336519
 21
522.747034
 31
0.0
  0
LINE
  5
4F3
100
AcDbEntity
  8
M01
100
AcDbLine
 10
351.841868
 20
549.247034
 30
0.0
 11
351.841868
 21
539.247034
 31
0.0
  0
LINE
  5
4F4
100
AcDbEntity
  8
M01
100
AcDbLine
 10
351.841868
 20
515.247034
 30
0.0
 11
351.841868
 21
525.247034
 31
0.0
  0
LINE
  5
4F5
100
AcDbEntity
  8
M01
100
AcDbLine
 10
346.841868
 20
515.247034
 30
0.0
 11
366.841868
 21
515.247034
 31
0.0
  0
LINE
  5
4F6
100
AcDbEntity
  8
M01
100
AcDbLine
 10
346.841868
 20
525.247034
 30
0.0
 11
366.841868
 21
525.247034
 31
0.0
  0
LINE
  5
4F7
100
AcDbEntity
  8
M01
100
AcDbLine
 10
346.841868
 20
539.247034
 30
0.0
 11
366.841868
 21
539.247034
 31
0.0
  0
LINE
  5
4F8
100
AcDbEntity
  8
M01
100
AcDbLine
 10
346.841868
 20
549.247034
 30
0.0
 11
366.841868
 21
549.247034
 31
0.0
  0
LINE
  5
4F9
100
AcDbEntity
  8
M01
100
AcDbLine
 10
324.941868
 20
547.278123
 30
0.0
 11
324.941868
 21
541.215945
 31
0.0
  0
ARC
  5
4FA
100
AcDbEntity
  8
M01
100
AcDbCircle
 10
326.791174
 20
541.215945
 30
0.0
 40
1.150694
100
AcDbArc
 50
298.592423
 51
61.407577
  0
ARC
  5
4FB
100
AcDbEntity
  8
M01
100
AcDbCircle
 10
324.239091
 20
544.247034
 30
0.0
 40
3.702778
100
AcDbArc
 50
326.92527
 51
33.07473
  0
ARC
  5
4FC
100
AcDbEntity
  8
M01
100
AcDbCircle
 10
326.791174
 20
547.278123
 30
0.0
 40
1.150694
100
AcDbArc
 50
298.592423
 51
61.407577
  0
ARC
  5
4FD
100
AcDbEntity
  8
M01
100
AcDbCircle
 10
326.092563
 20
541.215945
 30
0.0
 40
1.150694
100
AcDbArc
 50
118.592423
 51
241.407577
  0
ARC
  5
4FE
100
AcDbEntity
  8
M01
100
AcDbCircle
 10
328.644646
 20
544.247034
 30
0.0
 40
3.702778
100
AcDbArc
 50
146.92527
 51
213.07473
  0
LINE
  5
4FF
100
AcDbEntity
  8
M01
100
AcDbLine
 10
325.541868
 20
542.226308
 30
0.0
 11
327.341868
 21
542.226308
 31
0.0
  0
LINE
  5
500
100
AcDbEntity
  8
M01
100
AcDbLine
 10
325.541868
 20
540.205582
 30
0.0
 11
327.341868
 21
540.205582
 31
0.0
  0
ARC
  5
501
100
AcDbEntity
  8
M01
100
AcDbCircle
 10
326.092563
 20
547.278123
 30
0.0
 40
1.150694
100
AcDbArc
 50
118.592423
 51
241.407577
  0
LINE
  5
502
100
AcDbEntity
  8
M01
100
AcDbLine
 10
325.541868
 20
546.26776
 30
0.0
 11
327.341868
 21
546.26776
 31
0.0
  0
LINE
  5
503
100
AcDbEntity
  8
M01
100
AcDbLine
 10
325.541868
 20
548.288486
 30
0.0
 11
327.341868
 21
548.288486
 31
0.0
  0
LINE
  5
504
100
AcDbEntity
  8
M01
100
AcDbLine
 10
330.241868
 20
539.247034
 30
0.0
 11
328.741868
 21
539.247034
 31
0.0
  0
LINE
  5
505
100
AcDbEntity
  8
M01
100
AcDbLine
 10
330.241868
 20
549.247034
 30
0.0
 11
328.741868
 21
549.247034
 31
0.0
  0
LINE
  5
506
100
AcDbEntity
  8
M01
100
AcDbLine
 10
328.741868
 20
539.747034
 30
0.0
 11
327.941868
 21
539.747034
 31
0.0
  0
LINE
  5
507
100
AcDbEntity
  8
M01
100
AcDbLine
 10
328.741868
 20
548.747034
 30
0.0
 11
327.941868
 21
548.747034
 31
0.0
  0
LINE
  5
508
100
AcDbEntity
  8
M01
100
AcDbLine
 10
327.941868
 20
548.747034
 30
0.0
 11
327.941868
 21
539.747034
 31
0.0
  0
LINE
  5
509
100
AcDbEntity
  8
M01
100
AcDbLine
 10
328.741868
 20
549.247034
 30
0.0
 11
328.741868
 21
539.247034
 31
0.0
  0
LINE
  5
50A
100
AcDbEntity
  8
M01
100
AcDbLine
 10
331.041868
 20
539.747034
 30
0.0
 11
330.241868
 21
539.747034
 31
0.0
  0
LINE
  5
50B
100
AcDbEntity
  8
M01
100
AcDbLine
 10
331.041868
 20
548.747034
 30
0.0
 11
330.241868
 21
548.747034
 31
0.0
  0
LINE
  5
50C
100
AcDbEntity
  8
M01
100
AcDbLine
 10
330.241868
 20
549.247034
 30
0.0
 11
330.241868
 21
539.247034
 31
0.0
  0
ARC
  5
50D
100
AcDbEntity
  8
M01
100
AcDbCircle
 10
332.891174
 20
541.215945
 30
0.0
 40
1.150694
100
AcDbArc
 50
298.592423
 51
61.407577
  0
ARC
  5
50E
100
AcDbEntity
  8
M01
100
AcDbCircle
 10
330.339091
 20
544.247034
 30
0.0
 40
3.702778
100
AcDbArc
 50
326.92527
 51
33.07473
  0
ARC
  5
50F
100
AcDbEntity
  8
M01
100
AcDbCircle
 10
332.891174
 20
547.278123
 30
0.0
 40
1.150694
100
AcDbArc
 50
298.592423
 51
61.407577
  0
ARC
  5
510
100
AcDbEntity
  8
M01
100
AcDbCircle
 10
332.192563
 20
541.215945
 30
0.0
 40
1.150694
100
AcDbArc
 50
118.592423
 51
241.407577
  0
ARC
  5
511
100
AcDbEntity
  8
M01
100
AcDbCircle
 10
334.744646
 20
544.247034
 30
0.0
 40
3.702778
100
AcDbArc
 50
146.92527
 51
213.07473
  0
LINE
  5
512
100
AcDbEntity
  8
M01
100
AcDbLine
 10
331.641868
 20
542.226308
 30
0.0
 11
333.441868
 21
542.226308
 31
0.0
  0
LINE
  5
513
100
AcDbEntity
  8
M01
100
AcDbLine
 10
331.641868
 20
540.205582
 30
0.0
 11
333.441868
 21
540.205582
 31
0.0
  0
ARC
  5
514
100
AcDbEntity
  8
M01
100
AcDbCircle
 10
332.192563
 20
547.278123
 30
0.0
 40
1.150694
100
AcDbArc
 50
118.592423
 51
241.407577
  0
LINE
  5
515
100
AcDbEntity
  8
M01
100
AcDbLine
 10
331.641868
 20
546.26776
 30
0.0
 11
333.441868
 21
546.26776
 31
0.0
  0
LINE
  5
516
100
AcDbEntity
  8
M01
100
AcDbLine
 10
331.641868
 20
548.288486
 30
0.0
 11
333.441868
 21
548.288486
 31
0.0
  0
LINE
  5
517
100
AcDbEntity
  8
M01
100
AcDbLine
 10
331.041868
 20
548.747034
 30
0.0
 11
331.041868
 21
539.747034
 31
0.0
  0
LINE
  5
518
100
AcDbEntity
  8
M01
100
AcDbLine
 10
334.041868
 20
548.747034
 30
0.0
 11
334.041868
 21
539.747034
 31
0.0
  0
LINE
  5
519
100
AcDbEntity
  8
M01
100
AcDbLine
 10
321.841868
 20
542.747034
 30
0.0
 11
322.341868
 21
542.247034
 31
0.0
  0
LINE
  5
51A
100
AcDbEntity
  8
M01
100
AcDbLine
 10
322.341868
 20
546.247034
 30
0.0
 11
321.841868
 21
545.747034
 31
0.0
  0
LINE
  5
51B
100
AcDbEntity
  8
M01
100
AcDbLine
 10
322.341868
 20
546.247034
 30
0.0
 11
322.341868
 21
542.247034
 31
0.0
  0
LINE
  5
51C
100
AcDbEntity
  8
M01
100
AcDbLine
 10
321.841868
 20
542.747034
 30
0.0
 11
324.941868
 21
542.747034
 31
0.0
  0
LINE
  5
51D
100
AcDbEntity
  8
M01
100
AcDbLine
 10
321.841868
 20
545.747034
 30
0.0
 11
324.941868
 21
545.747034
 31
0.0
  0
LINE
  5
51E
100
AcDbEntity
  8
M01
100
AcDbLine
 10
322.341868
 20
546.247034
 30
0.0
 11
324.941868
 21
546.247034
 31
0.0
  0
LINE
  5
51F
100
AcDbEntity
  8
M01
100
AcDbLine
 10
322.341868
 20
542.247034
 30
0.0
 11
324.941868
 21
542.247034
 31
0.0
  0
LINE
  5
520
100
AcDbEntity
  8
M01
100
AcDbLine
 10
321.841868
 20
545.747034
 30
0.0
 11
321.841868
 21
542.747034
 31
0.0
  0
LINE
  5
521
100
AcDbEntity
  8
M01
100
AcDbLine
 10
346.841868
 20
549.247034
 30
0.0
 11
346.841868
 21
539.247034
 31
0.0
  0
LINE
  5
522
100
AcDbEntity
  8
CENTRE
100
AcDbLine
 10
315.680979
 20
544.247034
 30
0.0
 11
379.274411
 21
544.247034
 31
0.0
  0
LINE
  5
523
100
AcDbEntity
  8
M01
100
AcDbLine
 10
324.941868
 20
517.215945
 30
0.0
 11
324.941868
 21
523.278123
 31
0.0
  0
ARC
  5
524
100
AcDbEntity
  8
M01
100
AcDbCircle
 10
326.791174
 20
523.278123
 30
0.0
 40
1.150694
100
AcDbArc
 50
298.592423
 51
61.407577
  0
ARC
  5
525
100
AcDbEntity
  8
M01
100
AcDbCircle
 10
324.239091
 20
520.247034
 30
0.0
 40
3.702778
100
AcDbArc
 50
326.92527
 51
33.07473
  0
ARC
  5
526
100
AcDbEntity
  8
M01
100
AcDbCircle
 10
326.791174
 20
517.215945
 30
0.0
 40
1.150694
100
AcDbArc
 50
298.592423
 51
61.407577
  0
ARC
  5
527
100
AcDbEntity
  8
M01
100
AcDbCircle
 10
326.092563
 20
523.278123
 30
0.0
 40
1.150694
100
AcDbArc
 50
118.592423
 51
241.407577
  0
ARC
  5
528
100
AcDbEntity
  8
M01
100
AcDbCircle
 10
328.644646
 20
520.247034
 30
0.0
 40
3.702778
100
AcDbArc
 50
146.92527
 51
213.07473
  0
LINE
  5
529
100
AcDbEntity
  8
M01
100
AcDbLine
 10
325.541868
 20
522.26776
 30
0.0
 11
327.341868
 21
522.26776
 31
0.0
  0
LINE
  5
52A
100
AcDbEntity
  8
M01
100
AcDbLine
 10
325.541868
 20
524.288486
 30
0.0
 11
327.341868
 21
524.288486
 31
0.0
  0
ARC
  5
52B
100
AcDbEntity
  8
M01
100
AcDbCircle
 10
326.092563
 20
517.215945
 30
0.0
 40
1.150694
100
AcDbArc
 50
118.592423
 51
241.407577
  0
LINE
  5
52C
100
AcDbEntity
  8
M01
100
AcDbLine
 10
325.541868
 20
518.226308
 30
0.0
 11
327.341868
 21
518.226308
 31
0.0
  0
LINE
  5
52D
100
AcDbEntity
  8
M01
100
AcDbLine
 10
325.541868
 20
516.205582
 30
0.0
 11
327.341868
 21
516.205582
 31
0.0
  0
LINE
  5
52E
100
AcDbEntity
  8
M01
100
AcDbLine
 10
330.241868
 20
525.247034
 30
0.0
 11
328.741868
 21
525.247034
 31
0.0
  0
LINE
  5
52F
100
AcDbEntity
  8
M01
100
AcDbLine
 10
330.241868
 20
515.247034
 30
0.0
 11
328.741868
 21
515.247034
 31
0.0
  0
LINE
  5
530
100
AcDbEntity
  8
M01
100
AcDbLine
 10
328.741868
 20
524.747034
 30
0.0
 11
327.941868
 21
524.747034
 31
0.0
  0
LINE
  5
531
100
AcDbEntity
  8
M01
100
AcDbLine
 10
328.741868
 20
515.747034
 30
0.0
 11
327.941868
 21
515.747034
 31
0.0
  0
LINE
  5
532
100
AcDbEntity
  8
M01
100
AcDbLine
 10
327.941868
 20
515.747034
 30
0.0
 11
327.941868
 21
524.747034
 31
0.0
  0
LINE
  5
533
100
AcDbEntity
  8
M01
100
AcDbLine
 10
328.741868
 20
515.247034
 30
0.0
 11
328.741868
 21
525.247034
 31
0.0
  0
LINE
  5
534
100
AcDbEntity
  8
M01
100
AcDbLine
 10
331.041868
 20
524.747034
 30
0.0
 11
330.241868
 21
524.747034
 31
0.0
  0
LINE
  5
535
100
AcDbEntity
  8
M01
100
AcDbLine
 10
331.041868
 20
515.747034
 30
0.0
 11
330.241868
 21
515.747034
 31
0.0
  0
LINE
  5
536
100
AcDbEntity
  8
M01
100
AcDbLine
 10
330.241868
 20
515.247034
 30
0.0
 11
330.241868
 21
525.247034
 31
0.0
  0
ARC
  5
537
100
AcDbEntity
  8
M01
100
AcDbCircle
 10
332.891174
 20
523.278123
 30
0.0
 40
1.150694
100
AcDbArc
 50
298.592423
 51
61.407577
  0
ARC
  5
538
100
AcDbEntity
  8
M01
100
AcDbCircle
 10
330.339091
 20
520.247034
 30
0.0
 40
3.702778
100
AcDbArc
 50
326.92527
 51
33.07473
  0
ARC
  5
539
100
AcDbEntity
  8
M01
100
AcDbCircle
 10
332.891174
 20
517.215945
 30
0.0
 40
1.150694
100
AcDbArc
 50
298.592423
 51
61.407577
  0
ARC
  5
53A
100
AcDbEntity
  8
M01
100
AcDbCircle
 10
332.192563
 20
523.278123
 30
0.0
 40
1.150694
100
AcDbArc
 50
118.592423
 51
241.407577
  0
ARC
  5
53B
100
AcDbEntity
  8
M01
100
AcDbCircle
 10
334.744646
 20
520.247034
 30
0.0
 40
3.702778
100
AcDbArc
 50
146.92527
 51
213.07473
  0
LINE
  5
53C
100
AcDbEntity
  8
M01
100
AcDbLine
 10
331.641868
 20
522.26776
 30
0.0
 11
333.441868
 21
522.26776
 31
0.0
  0
LINE
  5
53D
100
AcDbEntity
  8
M01
100
AcDbLine
 10
331.641868
 20
524.288486
 30
0.0
 11
333.441868
 21
524.288486
 31
0.0
  0
ARC
  5
53E
100
AcDbEntity
  8
M01
100
AcDbCircle
 10
332.192563
 20
517.215945
 30
0.0
 40
1.150694
100
AcDbArc
 50
118.592423
 51
241.407577
  0
LINE
  5
53F
100
AcDbEntity
  8
M01
100
AcDbLine
 10
331.641868
 20
518.226308
 30
0.0
 11
333.441868
 21
518.226308
 31
0.0
  0
LINE
  5
540
100
AcDbEntity
  8
M01
100
AcDbLine
 10
331.641868
 20
516.205582
 30
0.0
 11
333.441868
 21
516.205582
 31
0.0
  0
LINE
  5
541
100
AcDbEntity
  8
M01
100
AcDbLine
 10
331.041868
 20
515.747034
 30
0.0
 11
331.041868
 21
524.747034
 31
0.0
  0
LINE
  5
542
100
AcDbEntity
  8
M01
100
AcDbLine
 10
334.041868
 20
515.747034
 30
0.0
 11
334.041868
 21
524.747034
 31
0.0
  0
LINE
  5
543
100
AcDbEntity
  8
M01
100
AcDbLine
 10
334.841868
 20
515.747034
 30
0.0
 11
334.841868
 21
524.747034
 31
0.0
  0
LINE
  5
544
100
AcDbEntity
  8
M01
100
AcDbLine
 10
321.841868
 20
521.747034
 30
0.0
 11
322.341868
 21
522.247034
 31
0.0
  0
LINE
  5
545
100
AcDbEntity
  8
M01
100
AcDbLine
 10
322.341868
 20
518.247034
 30
0.0
 11
321.841868
 21
518.747034
 31
0.0
  0
LINE
  5
546
100
AcDbEntity
  8
M01
100
AcDbLine
 10
322.341868
 20
518.247034
 30
0.0
 11
322.341868
 21
522.247034
 31
0.0
  0
LINE
  5
547
100
AcDbEntity
  8
M01
100
AcDbLine
 10
321.841868
 20
521.747034
 30
0.0
 11
324.941868
 21
521.747034
 31
0.0
  0
LINE
  5
548
100
AcDbEntity
  8
M01
100
AcDbLine
 10
321.841868
 20
518.747034
 30
0.0
 11
324.941868
 21
518.747034
 31
0.0
  0
LINE
  5
549
100
AcDbEntity
  8
M01
100
AcDbLine
 10
322.341868
 20
518.247034
 30
0.0
 11
324.941868
 21
518.247034
 31
0.0
  0
LINE
  5
54A
100
AcDbEntity
  8
M01
100
AcDbLine
 10
322.341868
 20
522.247034
 30
0.0
 11
324.941868
 21
522.247034
 31
0.0
  0
LINE
  5
54B
100
AcDbEntity
  8
M01
100
AcDbLine
 10
321.841868
 20
518.747034
 30
0.0
 11
321.841868
 21
521.747034
 31
0.0
  0
LINE
  5
54C
100
AcDbEntity
  8
M01
100
AcDbLine
 10
346.841868
 20
515.247034
 30
0.0
 11
346.841868
 21
525.247034
 31
0.0
  0
LINE
  5
54D
100
AcDbEntity
  8
M01
100
AcDbLine
 10
334.041868
 20
524.747034
 30
0.0
 11
334.841868
 21
524.747034
 31
0.0
  0
LINE
  5
54E
100
AcDbEntity
  8
M01
100
AcDbLine
 10
334.041868
 20
515.747034
 30
0.0
 11
334.841868
 21
515.747034
 31
0.0
  0
LINE
  5
54F
100
AcDbEntity
  8
CENTRE
100
AcDbLine
 10
315.680979
 20
520.247034
 30
0.0
 11
379.274411
 21
520.247034
 31
0.0
  0
LINE
  5
550
100
AcDbEntity
  8
M01
100
AcDbLine
 10
831.077536
 20
188.595751
 30
0.0
 11
832.284265
 21
186.616042
 31
0.0
  0
LINE
  5
551
100
AcDbEntity
  8
M01
100
AcDbLine
 10
842.530763
 20
180.861783
 30
0.0
 11
851.105575
 21
180.861783
 31
0.0
  0
LINE
  5
552
100
AcDbEntity
  8
M01
100
AcDbLine
 10
842.530763
 20
184.861783
 30
0.0
 11
851.105575
 21
184.861783
 31
0.0
  0
ARC
  5
553
100
AcDbEntity
  8
M01
100
AcDbCircle
 10
842.530763
 20
192.861783
 30
0.0
 40
12.0
100
AcDbArc
 50
211.364349
 51
270.0
  0
ARC
  5
554
100
AcDbEntity
  8
M01
100
AcDbCircle
 10
842.530763
 20
192.861783
 30
0.0
 40
8.0
100
AcDbArc
 50
218.846454
 51
270.0
  0
LINE
  5
555
100
AcDbEntity
  8
M01
100
AcDbLine
 10
827.453083
 20
202.227111
 30
0.0
 11
833.687191
 21
191.999699
 31
0.0
  0
LINE
  5
556
100
AcDbEntity
  8
M01
100
AcDbLine
 10
824.037584
 20
200.145198
 30
0.0
 11
824.234793
 21
199.821665
 31
0.0
  0
LINE
  5
557
100
AcDbEntity
  8
M01
100
AcDbLine
 10
817.035176
 20
201.583762
 30
0.0
 11
816.441868
 21
201.583762
 31
0.0
  0
LINE
  5
558
100
AcDbEntity
  8
M01
100
AcDbLine
 10
821.47596
 20
205.583762
 30
0.0
 11
818.750116
 21
205.583762
 31
0.0
  0
ARC
  5
559
100
AcDbEntity
  8
M01
100
AcDbCircle
 10
821.47596
 20
198.583762
 30
0.0
 40
3.0
100
AcDbArc
 50
31.364349
 51
61.672691
  0
ARC
  5
55A
100
AcDbEntity
  8
M01
100
AcDbCircle
 10
821.47596
 20
198.583762
 30
0.0
 40
7.0
100
AcDbArc
 50
31.364349
 51
90.0
  0
ARC
  5
55B
100
AcDbEntity
  8
M01
100
AcDbCircle
 10
816.441868
 20
198.583762
 30
0.0
 40
7.0
100
AcDbArc
 50
112.678679
 51
180.0
  0
ARC
  5
55C
100
AcDbEntity
  8
M01
100
AcDbCircle
 10
816.441868
 20
198.583762
 30
0.0
 40
3.0
100
AcDbArc
 50
90.0
 51
180.0
  0
ARC
  5
55D
100
AcDbEntity
  8
M01
100
AcDbCircle
 10
835.258343
 20
199.8439
 30
0.0
 40
12.0
100
AcDbArc
 50
223.586993
 51
270.0
  0
ARC
  5
55E
100
AcDbEntity
  8
M01
100
AcDbCircle
 10
835.258343
 20
199.8439
 30
0.0
 40
8.0
100
AcDbArc
 50
223.586993
 51
270.0
  0
LINE
  5
55F
100
AcDbEntity
  8
M01
100
AcDbLine
 10
813.441868
 20
198.583762
 30
0.0
 11
813.441868
 21
193.583762
 31
0.0
  0
LINE
  5
560
100
AcDbEntity
  8
M01
100
AcDbLine
 10
813.441868
 20
197.583762
 30
0.0
 11
809.441868
 21
197.583762
 31
0.0
  0
LINE
  5
561
100
AcDbEntity
  8
M01
100
AcDbLine
 10
813.441868
 20
193.583762
 30
0.0
 11
809.441868
 21
193.583762
 31
0.0
  0
LINE
  5
562
100
AcDbEntity
  8
M01
100
AcDbLine
 10
809.441868
 20
228.583762
 30
0.0
 11
809.441868
 21
214.359224
 31
0.0
  0
LINE
  5
563
100
AcDbEntity
  8
M01
100
AcDbLine
 10
813.441868
 20
214.359224
 30
0.0
 11
813.441868
 21
218.583762
 31
0.0
  0
ARC
  5
564
100
AcDbEntity
  8
M01
100
AcDbCircle
 10
821.441868
 20
214.359224
 30
0.0
 40
12.0
100
AcDbArc
 50
180.0
 51
223.586993
  0
ARC
  5
565
100
AcDbEntity
  8
M01
100
AcDbCircle
 10
821.441868
 20
214.359224
 30
0.0
 40
8.0
100
AcDbArc
 50
180.0
 51
223.586993
  0
LINE
  5
566
100
AcDbEntity
  8
M01
100
AcDbLine
 10
813.441868
 20
214.583762
 30
0.0
 11
809.441868
 21
214.583762
 31
0.0
  0
LINE
  5
567
100
AcDbEntity
  8
M01
100
AcDbLine
 10
813.441868
 20
218.583762
 30
0.0
 11
809.441868
 21
218.583762
 31
0.0
  0
LINE
  5
568
100
AcDbEntity
  8
M01
100
AcDbLine
 10
826.566402
 20
191.570438
 30
0.0
 11
812.749928
 21
206.085763
 31
0.0
  0
LINE
  5
569
100
AcDbEntity
  8
M01
100
AcDbLine
 10
829.463716
 20
194.328259
 30
0.0
 11
815.647241
 21
208.843583
 31
0.0
  0
LINE
  5
56A
100
AcDbEntity
  8
M01
100
AcDbLine
 10
851.096833
 20
187.8439
 30
0.0
 11
835.258343
 21
187.8439
 31
0.0
  0
LINE
  5
56B
100
AcDbEntity
  8
M01
100
AcDbLine
 10
851.096833
 20
191.8439
 30
0.0
 11
835.258343
 21
191.8439
 31
0.0
  0
LINE
  5
56C
100
AcDbEntity
  8
M01
100
AcDbLine
 10
794.785969
 20
191.833762
 30
0.0
 11
794.785969
 21
185.333762
 31
0.0
  0
LINE
  5
56D
100
AcDbEntity
  8
M01
100
AcDbLine
 10
802.897768
 20
191.833762
 30
0.0
 11
802.897768
 21
185.333762
 31
0.0
  0
LINE
  5
56E
100
AcDbEntity
  8
M01
100
AcDbLine
 10
794.785969
 20
191.833762
 30
0.0
 11
792.841868
 21
191.833762
 31
0.0
  0
ARC
  5
56F
100
AcDbEntity
  8
M01
100
AcDbCircle
 10
796.347218
 20
193.083762
 30
0.0
 40
2.0
100
AcDbArc
 50
218.682187
 51
270.0
  0
ARC
  5
570
100
AcDbEntity
  8
M01
100
AcDbCircle
 10
801.336519
 20
193.083762
 30
0.0
 40
2.0
100
AcDbArc
 50
270.0
 51
321.317813
  0
LINE
  5
571
100
AcDbEntity
  8
M01
100
AcDbLine
 10
804.841868
 20
191.833762
 30
0.0
 11
802.897768
 21
191.833762
 31
0.0
  0
LINE
  5
572
100
AcDbEntity
  8
M01
100
AcDbLine
 10
801.336519
 20
191.083762
 30
0.0
 11
796.347218
 21
191.083762
 31
0.0
  0
LINE
  5
573
100
AcDbEntity
  8
M01
100
AcDbLine
 10
794.785969
 20
185.333762
 30
0.0
 11
792.841868
 21
185.333762
 31
0.0
  0
ARC
  5
574
100
AcDbEntity
  8
M01
100
AcDbCircle
 10
796.347218
 20
184.083762
 30
0.0
 40
2.0
100
AcDbArc
 50
90.0
 51
141.317813
  0
ARC
  5
575
100
AcDbEntity
  8
M01
100
AcDbCircle
 10
801.336519
 20
184.083762
 30
0.0
 40
2.0
100
AcDbArc
 50
38.682187
 51
90.0
  0
LINE
  5
576
100
AcDbEntity
  8
M01
100
AcDbLine
 10
804.841868
 20
185.333762
 30
0.0
 11
802.897768
 21
185.333762
 31
0.0
  0
LINE
  5
577
100
AcDbEntity
  8
M01
100
AcDbLine
 10
801.336519
 20
186.083762
 30
0.0
 11
796.347218
 21
186.083762
 31
0.0
  0
LINE
  5
578
100
AcDbEntity
  8
M01
100
AcDbLine
 10
787.841868
 20
193.583762
 30
0.0
 11
787.841868
 21
183.583762
 31
0.0
  0
LINE
  5
579
100
AcDbEntity
  8
M01
100
AcDbLine
 10
794.785969
 20
226.833762
 30
0.0
 11
794.785969
 21
220.333762
 31
0.0
  0
LINE
  5
57A
100
AcDbEntity
  8
M01
100
AcDbLine
 10
802.897768
 20
226.833762
 30
0.0
 11
802.897768
 21
220.333762
 31
0.0
  0
LINE
  5
57B
100
AcDbEntity
  8
M01
100
AcDbLine
 10
794.785969
 20
226.833762
 30
0.0
 11
792.841868
 21
226.833762
 31
0.0
  0
ARC
  5
57C
100
AcDbEntity
  8
M01
100
AcDbCircle
 10
796.347218
 20
228.083762
 30
0.0
 40
2.0
100
AcDbArc
 50
218.682187
 51
270.0
  0
ARC
  5
57D
100
AcDbEntity
  8
M01
100
AcDbCircle
 10
801.336519
 20
228.083762
 30
0.0
 40
2.0
100
AcDbArc
 50
270.0
 51
321.317813
  0
LINE
  5
57E
100
AcDbEntity
  8
M01
100
AcDbLine
 10
804.841868
 20
226.833762
 30
0.0
 11
802.897768
 21
226.833762
 31
0.0
  0
LINE
  5
57F
100
AcDbEntity
  8
M01
100
AcDbLine
 10
801.336519
 20
226.083762
 30
0.0
 11
796.347218
 21
226.083762
 31
0.0
  0
LINE
  5
580
100
AcDbEntity
  8
M01
100
AcDbLine
 10
794.785969
 20
220.333762
 30
0.0
 11
792.841868
 21
220.333762
 31
0.0
  0
ARC
  5
581
100
AcDbEntity
  8
M01
100
AcDbCircle
 10
796.347218
 20
219.083762
 30
0.0
 40
2.0
100
AcDbArc
 50
90.0
 51
141.317813
  0
ARC
  5
582
100
AcDbEntity
  8
M01
100
AcDbCircle
 10
801.336519
 20
219.083762
 30
0.0
 40
2.0
100
AcDbArc
 50
38.682187
 51
90.0
  0
LINE
  5
583
100
AcDbEntity
  8
M01
100
AcDbLine
 10
804.841868
 20
220.333762
 30
0.0
 11
802.897768
 21
220.333762
 31
0.0
  0
LINE
  5
584
100
AcDbEntity
  8
M01
100
AcDbLine
 10
801.336519
 20
221.083762
 30
0.0
 11
796.347218
 21
221.083762
 31
0.0
  0
LINE
  5
585
100
AcDbEntity
  8
M01
100
AcDbLine
 10
787.841868
 20
228.583762
 30
0.0
 11
787.841868
 21
218.583762
 31
0.0
  0
LINE
  5
586
100
AcDbEntity
  8
M01
100
AcDbLine
 10
792.841868
 20
183.583762
 30
0.0
 11
771.841868
 21
183.583762
 31
0.0
  0
LINE
  5
587
100
AcDbEntity
  8
M01
100
AcDbLine
 10
792.841868
 20
193.583762
 30
0.0
 11
772.841868
 21
193.583762
 31
0.0
  0
LINE
  5
588
100
AcDbEntity
  8
M01
100
AcDbLine
 10
792.841868
 20
228.583762
 30
0.0
 11
771.841868
 21
228.583762
 31
0.0
  0
LINE
  5
589
100
AcDbEntity
  8
M01
100
AcDbLine
 10
792.841868
 20
218.583762
 30
0.0
 11
772.841868
 21
218.583762
 31
0.0
  0
LINE
  5
58A
100
AcDbEntity
  8
M01
100
AcDbLine
 10
814.741868
 20
191.614851
 30
0.0
 11
814.741868
 21
185.552674
 31
0.0
  0
ARC
  5
58B
100
AcDbEntity
  8
M01
100
AcDbCircle
 10
812.892563
 20
185.552674
 30
0.0
 40
1.150694
100
AcDbArc
 50
118.592423
 51
241.407577
  0
ARC
  5
58C
100
AcDbEntity
  8
M01
100
AcDbCircle
 10
815.444646
 20
188.583762
 30
0.0
 40
3.702778
100
AcDbArc
 50
146.92527
 51
213.07473
  0
ARC
  5
58D
100
AcDbEntity
  8
M01
100
AcDbCircle
 10
812.892563
 20
191.614851
 30
0.0
 40
1.150694
100
AcDbArc
 50
118.592423
 51
241.407577
  0
ARC
  5
58E
100
AcDbEntity
  8
M01
100
AcDbCircle
 10
813.591174
 20
185.552674
 30
0.0
 40
1.150694
100
AcDbArc
 50
298.592423
 51
61.407577
  0
ARC
  5
58F
100
AcDbEntity
  8
M01
100
AcDbCircle
 10
811.039091
 20
188.583762
 30
0.0
 40
3.702778
100
AcDbArc
 50
326.92527
 51
33.07473
  0
LINE
  5
590
100
AcDbEntity
  8
M01
100
AcDbLine
 10
814.141868
 20
186.563036
 30
0.0
 11
812.341868
 21
186.563036
 31
0.0
  0
LINE
  5
591
100
AcDbEntity
  8
M01
100
AcDbLine
 10
814.141868
 20
184.542311
 30
0.0
 11
812.341868
 21
184.542311
 31
0.0
  0
ARC
  5
592
100
AcDbEntity
  8
M01
100
AcDbCircle
 10
813.591174
 20
191.614851
 30
0.0
 40
1.150694
100
AcDbArc
 50
298.592423
 51
61.407577
  0
LINE
  5
593
100
AcDbEntity
  8
M01
100
AcDbLine
 10
814.141868
 20
190.604488
 30
0.0
 11
812.341868
 21
190.604488
 31
0.0
  0
LINE
  5
594
100
AcDbEntity
  8
M01
100
AcDbLine
 10
814.141868
 20
192.625214
 30
0.0
 11
812.341868
 21
192.625214
 31
0.0
  0
LINE
  5
595
100
AcDbEntity
  8
M01
100
AcDbLine
 10
809.441868
 20
183.583762
 30
0.0
 11
810.941868
 21
183.583762
 31
0.0
  0
LINE
  5
596
100
AcDbEntity
  8
M01
100
AcDbLine
 10
809.441868
 20
193.583762
 30
0.0
 11
810.941868
 21
193.583762
 31
0.0
  0
LINE
  5
597
100
AcDbEntity
  8
M01
100
AcDbLine
 10
810.941868
 20
184.083762
 30
0.0
 11
811.741868
 21
184.083762
 31
0.0
  0
LINE
  5
598
100
AcDbEntity
  8
M01
100
AcDbLine
 10
810.941868
 20
193.083762
 30
0.0
 11
811.741868
 21
193.083762
 31
0.0
  0
LINE
  5
599
100
AcDbEntity
  8
M01
100
AcDbLine
 10
811.741868
 20
193.083762
 30
0.0
 11
811.741868
 21
184.083762
 31
0.0
  0
LINE
  5
59A
100
AcDbEntity
  8
M01
100
AcDbLine
 10
810.941868
 20
193.583762
 30
0.0
 11
810.941868
 21
183.583762
 31
0.0
  0
LINE
  5
59B
100
AcDbEntity
  8
M01
100
AcDbLine
 10
808.641868
 20
184.083762
 30
0.0
 11
809.441868
 21
184.083762
 31
0.0
  0
LINE
  5
59C
100
AcDbEntity
  8
M01
100
AcDbLine
 10
808.641868
 20
193.083762
 30
0.0
 11
809.441868
 21
193.083762
 31
0.0
  0
LINE
  5
59D
100
AcDbEntity
  8
M01
100
AcDbLine
 10
809.441868
 20
198.583762
 30
0.0
 11
809.441868
 21
183.583762
 31
0.0
  0
ARC
  5
59E
100
AcDbEntity
  8
M01
100
AcDbCircle
 10
806.792563
 20
185.552674
 30
0.0
 40
1.150694
100
AcDbArc
 50
118.592423
 51
241.407577
  0
ARC
  5
59F
100
AcDbEntity
  8
M01
100
AcDbCircle
 10
809.344646
 20
188.583762
 30
0.0
 40
3.702778
100
AcDbArc
 50
146.92527
 51
213.07473
  0
ARC
  5
5A0
100
AcDbEntity
  8
M01
100
AcDbCircle
 10
806.792563
 20
191.614851
 30
0.0
 40
1.150694
100
AcDbArc
 50
118.592423
 51
241.407577
  0
ARC
  5
5A1
100
AcDbEntity
  8
M01
100
AcDbCircle
 10
807.491174
 20
185.552674
 30
0.0
 40
1.150694
100
AcDbArc
 50
298.592423
 51
61.407577
  0
ARC
  5
5A2
100
AcDbEntity
  8
M01
100
AcDbCircle
 10
804.939091
 20
188.583762
 30
0.0
 40
3.702778
100
AcDbArc
 50
326.92527
 51
33.07473
  0
LINE
  5
5A3
100
AcDbEntity
  8
M01
100
AcDbLine
 10
808.041868
 20
186.563036
 30
0.0
 11
806.241868
 21
186.563036
 31
0.0
  0
LINE
  5
5A4
100
AcDbEntity
  8
M01
100
AcDbLine
 10
808.041868
 20
184.542311
 30
0.0
 11
806.241868
 21
184.542311
 31
0.0
  0
ARC
  5
5A5
100
AcDbEntity
  8
M01
100
AcDbCircle
 10
807.491174
 20
191.614851
 30
0.0
 40
1.150694
100
AcDbArc
 50
298.592423
 51
61.407577
  0
LINE
  5
5A6
100
AcDbEntity
  8
M01
100
AcDbLine
 10
808.041868
 20
190.604488
 30
0.0
 11
806.241868
 21
190.604488
 31
0.0
  0
LINE
  5
5A7
100
AcDbEntity
  8
M01
100
AcDbLine
 10
808.041868
 20
192.625214
 30
0.0
 11
806.241868
 21
192.625214
 31
0.0
  0
LINE
  5
5A8
100
AcDbEntity
  8
M01
100
AcDbLine
 10
808.641868
 20
193.083762
 30
0.0
 11
808.641868
 21
184.083762
 31
0.0
  0
LINE
  5
5A9
100
AcDbEntity
  8
M01
100
AcDbLine
 10
805.641868
 20
193.083762
 30
0.0
 11
805.641868
 21
184.083762
 31
0.0
  0
LINE
  5
5AA
100
AcDbEntity
  8
M01
100
AcDbLine
 10
804.841868
 20
193.083762
 30
0.0
 11
804.841868
 21
184.083762
 31
0.0
  0
LINE
  5
5AB
100
AcDbEntity
  8
M01
100
AcDbLine
 10
817.841868
 20
187.083762
 30
0.0
 11
817.341868
 21
186.583762
 31
0.0
  0
LINE
  5
5AC
100
AcDbEntity
  8
M01
100
AcDbLine
 10
817.341868
 20
190.583762
 30
0.0
 11
817.841868
 21
190.083762
 31
0.0
  0
LINE
  5
5AD
100
AcDbEntity
  8
M01
100
AcDbLine
 10
817.341868
 20
190.583762
 30
0.0
 11
817.341868
 21
186.583762
 31
0.0
  0
LINE
  5
5AE
100
AcDbEntity
  8
M01
100
AcDbLine
 10
817.841868
 20
187.083762
 30
0.0
 11
814.741868
 21
187.083762
 31
0.0
  0
LINE
  5
5AF
100
AcDbEntity
  8
M01
100
AcDbLine
 10
817.841868
 20
190.083762
 30
0.0
 11
814.741868
 21
190.083762
 31
0.0
  0
LINE
  5
5B0
100
AcDbEntity
  8
M01
100
AcDbLine
 10
817.341868
 20
190.583762
 30
0.0
 11
814.741868
 21
190.583762
 31
0.0
  0
LINE
  5
5B1
100
AcDbEntity
  8
M01
100
AcDbLine
 10
817.341868
 20
186.583762
 30
0.0
 11
814.741868
 21
186.583762
 31
0.0
  0
LINE
  5
5B2
100
AcDbEntity
  8
M01
100
AcDbLine
 10
817.841868
 20
190.083762
 30
0.0
 11
817.841868
 21
187.083762
 31
0.0
  0
LINE
  5
5B3
100
AcDbEntity
  8
M01
100
AcDbLine
 10
792.841868
 20
193.583762
 30
0.0
 11
792.841868
 21
183.583762
 31
0.0
  0
LINE
  5
5B4
100
AcDbEntity
  8
M01
100
AcDbLine
 10
805.641868
 20
184.083762
 30
0.0
 11
804.841868
 21
184.083762
 31
0.0
  0
LINE
  5
5B5
100
AcDbEntity
  8
M01
100
AcDbLine
 10
805.641868
 20
193.083762
 30
0.0
 11
804.841868
 21
193.083762
 31
0.0
  0
LINE
  5
5B6
100
AcDbEntity
  8
CENTRE
100
AcDbLine
 10
824.002758
 20
188.583762
 30
0.0
 11
760.409326
 21
188.583762
 31
0.0
  0
LINE
  5
5B7
100
AcDbEntity
  8
M01
100
AcDbLine
 10
814.741868
 20
220.552674
 30
0.0
 11
814.741868
 21
226.614851
 31
0.0
  0
ARC
  5
5B8
100
AcDbEntity
  8
M01
100
AcDbCircle
 10
812.892563
 20
226.614851
 30
0.0
 40
1.150694
100
AcDbArc
 50
118.592423
 51
241.407577
  0
ARC
  5
5B9
100
AcDbEntity
  8
M01
100
AcDbCircle
 10
815.444646
 20
223.583762
 30
0.0
 40
3.702778
100
AcDbArc
 50
146.92527
 51
213.07473
  0
ARC
  5
5BA
100
AcDbEntity
  8
M01
100
AcDbCircle
 10
812.892563
 20
220.552674
 30
0.0
 40
1.150694
100
AcDbArc
 50
118.592423
 51
241.407577
  0
ARC
  5
5BB
100
AcDbEntity
  8
M01
100
AcDbCircle
 10
813.591174
 20
226.614851
 30
0.0
 40
1.150694
100
AcDbArc
 50
298.592423
 51
61.407577
  0
ARC
  5
5BC
100
AcDbEntity
  8
M01
100
AcDbCircle
 10
811.039091
 20
223.583762
 30
0.0
 40
3.702778
100
AcDbArc
 50
326.92527
 51
33.07473
  0
LINE
  5
5BD
100
AcDbEntity
  8
M01
100
AcDbLine
 10
814.141868
 20
225.604488
 30
0.0
 11
812.341868
 21
225.604488
 31
0.0
  0
LINE
  5
5BE
100
AcDbEntity
  8
M01
100
AcDbLine
 10
814.141868
 20
227.625214
 30
0.0
 11
812.341868
 21
227.625214
 31
0.0
  0
ARC
  5
5BF
100
AcDbEntity
  8
M01
100
AcDbCircle
 10
813.591174
 20
220.552674
 30
0.0
 40
1.150694
100
AcDbArc
 50
298.592423
 51
61.407577
  0
LINE
  5
5C0
100
AcDbEntity
  8
M01
100
AcDbLine
 10
814.141868
 20
221.563036
 30
0.0
 11
812.341868
 21
221.563036
 31
0.0
  0
LINE
  5
5C1
100
AcDbEntity
  8
M01
100
AcDbLine
 10
814.141868
 20
219.542311
 30
0.0
 11
812.341868
 21
219.542311
 31
0.0
  0
LINE
  5
5C2
100
AcDbEntity
  8
M01
100
AcDbLine
 10
809.441868
 20
228.583762
 30
0.0
 11
810.941868
 21
228.583762
 31
0.0
  0
LINE
  5
5C3
100
AcDbEntity
  8
M01
100
AcDbLine
 10
810.941868
 20
228.083762
 30
0.0
 11
811.741868
 21
228.083762
 31
0.0
  0
LINE
  5
5C4
100
AcDbEntity
  8
M01
100
AcDbLine
 10
810.941868
 20
219.083762
 30
0.0
 11
811.741868
 21
219.083762
 31
0.0
  0
LINE
  5
5C5
100
AcDbEntity
  8
M01
100
AcDbLine
 10
811.741868
 20
219.083762
 30
0.0
 11
811.741868
 21
228.083762
 31
0.0
  0
LINE
  5
5C6
100
AcDbEntity
  8
M01
100
AcDbLine
 10
810.941868
 20
218.583762
 30
0.0
 11
810.941868
 21
228.583762
 31
0.0
  0
LINE
  5
5C7
100
AcDbEntity
  8
M01
100
AcDbLine
 10
808.641868
 20
228.083762
 30
0.0
 11
809.441868
 21
228.083762
 31
0.0
  0
LINE
  5
5C8
100
AcDbEntity
  8
M01
100
AcDbLine
 10
808.641868
 20
219.083762
 30
0.0
 11
809.441868
 21
219.083762
 31
0.0
  0
ARC
  5
5C9
100
AcDbEntity
  8
M01
100
AcDbCircle
 10
806.792563
 20
226.614851
 30
0.0
 40
1.150694
100
AcDbArc
 50
118.592423
 51
241.407577
  0
ARC
  5
5CA
100
AcDbEntity
  8
M01
100
AcDbCircle
 10
809.344646
 20
223.583762
 30
0.0
 40
3.702778
100
AcDbArc
 50
146.92527
 51
213.07473
  0
ARC
  5
5CB
100
AcDbEntity
  8
M01
100
AcDbCircle
 10
806.792563
 20
220.552674
 30
0.0
 40
1.150694
100
AcDbArc
 50
118.592423
 51
241.407577
  0
ARC
  5
5CC
100
AcDbEntity
  8
M01
100
AcDbCircle
 10
807.491174
 20
226.614851
 30
0.0
 40
1.150694
100
AcDbArc
 50
298.592423
 51
61.407577
  0
ARC
  5
5CD
100
AcDbEntity
  8
M01
100
AcDbCircle
 10
804.939091
 20
223.583762
 30
0.0
 40
3.702778
100
AcDbArc
 50
326.92527
 51
33.07473
  0
LINE
  5
5CE
100
AcDbEntity
  8
M01
100
AcDbLine
 10
808.041868
 20
225.604488
 30
0.0
 11
806.241868
 21
225.604488
 31
0.0
  0
LINE
  5
5CF
100
AcDbEntity
  8
M01
100
AcDbLine
 10
808.041868
 20
227.625214
 30
0.0
 11
806.241868
 21
227.625214
 31
0.0
  0
ARC
  5
5D0
100
AcDbEntity
  8
M01
100
AcDbCircle
 10
807.491174
 20
220.552674
 30
0.0
 40
1.150694
100
AcDbArc
 50
298.592423
 51
61.407577
  0
LINE
  5
5D1
100
AcDbEntity
  8
M01
100
AcDbLine
 10
808.041868
 20
221.563036
 30
0.0
 11
806.241868
 21
221.563036
 31
0.0
  0
LINE
  5
5D2
100
AcDbEntity
  8
M01
100
AcDbLine
 10
808.041868
 20
219.542311
 30
0.0
 11
806.241868
 21
219.542311
 31
0.0
  0
LINE
  5
5D3
100
AcDbEntity
  8
M01
100
AcDbLine
 10
808.641868
 20
219.083762
 30
0.0
 11
808.641868
 21
228.083762
 31
0.0
  0
LINE
  5
5D4
100
AcDbEntity
  8
M01
100
AcDbLine
 10
805.641868
 20
219.083762
 30
0.0
 11
805.641868
 21
228.083762
 31
0.0
  0
LINE
  5
5D5
100
AcDbEntity
  8
M01
100
AcDbLine
 10
804.841868
 20
219.083762
 30
0.0
 11
804.841868
 21
228.083762
 31
0.0
  0
LINE
  5
5D6
100
AcDbEntity
  8
M01
100
AcDbLine
 10
817.841868
 20
225.083762
 30
0.0
 11
817.341868
 21
225.583762
 31
0.0
  0
LINE
  5
5D7
100
AcDbEntity
  8
M01
100
AcDbLine
 10
817.341868
 20
221.583762
 30
0.0
 11
817.841868
 21
222.083762
 31
0.0
  0
LINE
  5
5D8
100
AcDbEntity
  8
M01
100
AcDbLine
 10
817.341868
 20
221.583762
 30
0.0
 11
817.341868
 21
225.583762
 31
0.0
  0
LINE
  5
5D9
100
AcDbEntity
  8
M01
100
AcDbLine
 10
817.841868
 20
225.083762
 30
0.0
 11
814.741868
 21
225.083762
 31
0.0
  0
LINE
  5
5DA
100
AcDbEntity
  8
M01
100
AcDbLine
 10
817.841868
 20
222.083762
 30
0.0
 11
814.741868
 21
222.083762
 31
0.0
  0
LINE
  5
5DB
100
AcDbEntity
  8
M01
100
AcDbLine
 10
817.341868
 20
221.583762
 30
0.0
 11
814.741868
 21
221.583762
 31
0.0
  0
LINE
  5
5DC
100
AcDbEntity
  8
M01
100
AcDbLine
 10
817.341868
 20
225.583762
 30
0.0
 11
814.741868
 21
225.583762
 31
0.0
  0
LINE
  5
5DD
100
AcDbEntity
  8
M01
100
AcDbLine
 10
817.841868
 20
222.083762
 30
0.0
 11
817.841868
 21
225.083762
 31
0.0
  0
LINE
  5
5DE
100
AcDbEntity
  8
M01
100
AcDbLine
 10
792.841868
 20
218.583762
 30
0.0
 11
792.841868
 21
228.583762
 31
0.0
  0
LINE
  5
5DF
100
AcDbEntity
  8
M01
100
AcDbLine
 10
805.641868
 20
228.083762
 30
0.0
 11
804.841868
 21
228.083762
 31
0.0
  0
LINE
  5
5E0
100
AcDbEntity
  8
M01
100
AcDbLine
 10
805.641868
 20
219.083762
 30
0.0
 11
804.841868
 21
219.083762
 31
0.0
  0
LINE
  5
5E1
102
{ACAD_REACTORS
330
1DD
102
}
100
AcDbEntity
  8
CENTRE
100
AcDbLine
 10
824.002758
 20
223.583762
 30
0.0
 11
760.409326
 21
223.583762
 31
0.0
  0
LINE
  5
5E2
100
AcDbEntity
  8
M04
100
AcDbLine
 10
380.841868
 20
564.247034
 30
0.0
 11
387.841868
 21
571.247034
 31
0.0
  0
LINE
  5
5E3
100
AcDbEntity
  8
M04
100
AcDbLine
 10
387.841868
 20
493.247034
 30
0.0
 11
380.841868
 21
500.247034
 31
0.0
  0
ARC
  5
5E4
100
AcDbEntity
  8
M04
100
AcDbCircle
 10
402.841868
 20
706.247034
 30
0.0
 40
15.0
100
AcDbArc
 50
90.0
 51
180.0
  0
LINE
  5
5E5
100
AcDbEntity
  8
M04
100
AcDbLine
 10
402.841868
 20
721.247034
 30
0.0
 11
436.841868
 21
721.247034
 31
0.0
  0
LINE
  5
5E6
100
AcDbEntity
  8
M04
100
AcDbLine
 10
536.841868
 20
721.247034
 30
0.0
 11
502.841868
 21
721.247034
 31
0.0
  0
LINE
  5
5E7
100
AcDbEntity
  8
M04
100
AcDbLine
 10
387.841868
 20
706.247034
 30
0.0
 11
387.841868
 21
571.247034
 31
0.0
  0
POINT
  5
5E8
100
AcDbEntity
  8
DEFPOINTS
  6
BYBLOCK
 62
     0
100
AcDbPoint
 10
569.841868
 20
532.247034
 30
0.0
  0
CIRCLE
  5
5E9
100
AcDbEntity
  8
M03
100
AcDbCircle
 10
569.841868
 20
532.247034
 30
0.0
 40
34.0
  0
CIRCLE
  5
5EA
100
AcDbEntity
  8
M03
100
AcDbCircle
 10
569.841868
 20
532.247034
 30
0.0
 40
20.0
  0
CIRCLE
  5
5EB
100
AcDbEntity
  8
M03
100
AcDbCircle
 10
569.841868
 20
532.247034
 30
0.0
 40
4.0
  0
LINE
  5
5EC
100
AcDbEntity
  8
M03
100
AcDbLine
 10
515.841868
 20
628.247034
 30
0.0
 11
515.841868
 21
582.247034
 31
0.0
  0
LINE
  5
5ED
100
AcDbEntity
  8
M03
100
AcDbLine
 10
519.841868
 20
632.247034
 30
0.0
 11
515.841868
 21
636.247034
 31
0.0
  0
LINE
  5
5EE
100
AcDbEntity
  8
M03
100
AcDbLine
 10
515.841868
 20
628.247034
 30
0.0
 11
519.841868
 21
632.247034
 31
0.0
  0
LINE
  5
5EF
100
AcDbEntity
  8
M03
100
AcDbLine
 10
515.841868
 20
682.247034
 30
0.0
 11
515.841868
 21
636.247034
 31
0.0
  0
LINE
  5
5F0
100
AcDbEntity
  8
M03
100
AcDbLine
 10
523.841868
 20
682.247034
 30
0.0
 11
523.841868
 21
582.247034
 31
0.0
  0
LINE
  5
5F1
100
AcDbEntity
  8
M03
100
AcDbLine
 10
423.841868
 20
628.247034
 30
0.0
 11
423.841868
 21
582.247034
 31
0.0
  0
LINE
  5
5F2
100
AcDbEntity
  8
M03
100
AcDbLine
 10
419.841868
 20
632.247034
 30
0.0
 11
423.841868
 21
636.247034
 31
0.0
  0
LINE
  5
5F3
100
AcDbEntity
  8
M03
100
AcDbLine
 10
423.841868
 20
628.247034
 30
0.0
 11
419.841868
 21
632.247034
 31
0.0
  0
LINE
  5
5F4
100
AcDbEntity
  8
M03
100
AcDbLine
 10
423.841868
 20
628.247034
 30
0.0
 11
465.841868
 21
628.247034
 31
0.0
  0
LINE
  5
5F5
100
AcDbEntity
  8
M03
100
AcDbLine
 10
423.841868
 20
636.247034
 30
0.0
 11
515.841868
 21
636.247034
 31
0.0
  0
LINE
  5
5F6
100
AcDbEntity
  8
M03
100
AcDbLine
 10
423.841868
 20
682.247034
 30
0.0
 11
423.841868
 21
636.247034
 31
0.0
  0
LINE
  5
5F7
100
AcDbEntity
  8
M03
100
AcDbLine
 10
415.841868
 20
682.247034
 30
0.0
 11
415.841868
 21
582.247034
 31
0.0
  0
LINE
  5
5F8
100
AcDbEntity
  8
M04
100
AcDbLine
 10
306.841868
 20
549.247034
 30
0.0
 11
286.17039
 21
549.247034
 31
0.0
  0
LINE
  5
5F9
100
AcDbEntity
  8
M04
100
AcDbLine
 10
306.841868
 20
515.247034
 30
0.0
 11
286.17039
 21
515.247034
 31
0.0
  0
ARC
  5
5FA
100
AcDbEntity
  8
M04
100
AcDbCircle
 10
321.841868
 20
549.247034
 30
0.0
 40
15.0
100
AcDbArc
 50
90.0
 51
180.0
  0
ARC
  5
5FB
100
AcDbEntity
  8
M04
100
AcDbCircle
 10
321.841868
 20
515.247034
 30
0.0
 40
15.0
100
AcDbArc
 50
180.0
 51
270.0
  0
LINE
  5
5FC
100
AcDbEntity
  8
M04
100
AcDbLine
 10
306.841868
 20
515.247034
 30
0.0
 11
306.841868
 21
549.247034
 31
0.0
  0
LINE
  5
5FD
100
AcDbEntity
  8
M04
100
AcDbLine
 10
321.841868
 20
500.247034
 30
0.0
 11
380.841868
 21
500.247034
 31
0.0
  0
LINE
  5
5FE
100
AcDbEntity
  8
M04
100
AcDbLine
 10
321.841868
 20
564.247034
 30
0.0
 11
380.841868
 21
564.247034
 31
0.0
  0
LINE
  5
5FF
100
AcDbEntity
  8
M01
100
AcDbLine
 10
366.841868
 20
552.247034
 30
0.0
 11
368.841868
 21
554.247034
 31
0.0
  0
LINE
  5
600
100
AcDbEntity
  8
M01
100
AcDbLine
 10
368.841868
 20
510.247034
 30
0.0
 11
366.841868
 21
512.247034
 31
0.0
  0
LINE
  5
601
100
AcDbEntity
  8
M01
100
AcDbLine
 10
366.841868
 20
512.247034
 30
0.0
 11
366.841868
 21
552.247034
 31
0.0
  0
LINE
  5
602
100
AcDbEntity
  8
M01
100
AcDbLine
 10
368.841868
 20
510.247034
 30
0.0
 11
382.841868
 21
510.247034
 31
0.0
  0
LINE
  5
603
100
AcDbEntity
  8
M01
100
AcDbLine
 10
506.841868
 20
714.247034
 30
0.0
 11
494.841868
 21
702.247034
 31
0.0
  0
LINE
  5
604
100
AcDbEntity
  8
M01
100
AcDbLine
 10
544.841868
 20
702.247034
 30
0.0
 11
532.841868
 21
714.247034
 31
0.0
  0
LINE
  5
605
100
AcDbEntity
  8
M01
100
AcDbLine
 10
532.841868
 20
714.247034
 30
0.0
 11
506.841868
 21
714.247034
 31
0.0
  0
LINE
  5
606
100
AcDbEntity
  8
M01
100
AcDbLine
 10
394.841868
 20
702.247034
 30
0.0
 11
406.841868
 21
714.247034
 31
0.0
  0
LINE
  5
607
100
AcDbEntity
  8
M01
100
AcDbLine
 10
406.841868
 20
714.247034
 30
0.0
 11
432.841868
 21
714.247034
 31
0.0
  0
LINE
  5
608
100
AcDbEntity
  8
M01
100
AcDbLine
 10
394.841868
 20
702.247034
 30
0.0
 11
394.841868
 21
566.247034
 31
0.0
  0
LINE
  5
609
100
AcDbEntity
  8
CENTRE
100
AcDbLine
 10
274.575876
 20
532.247034
 30
0.0
 11
865.107861
 21
532.247034
 31
0.0
  0
LINE
  5
60A
100
AcDbEntity
  8
CENTRE
100
AcDbLine
 10
569.841868
 20
738.012957
 30
0.0
 11
569.841868
 21
326.481111
 31
0.0
  0
MTEXT
  5
60B
102
{ACAD_REACTORS
330
60C
102
}
100
AcDbEntity
  8
HATCH
 62
     2
100
AcDbMText
 10
391.748715
 20
151.672651
 30
0.0
 40
3.0
 41
0.0
 71
     6
 72
     5
  1
MAO10006 (x16)
  0
LEADER
  5
60C
100
AcDbEntity
  8
HATCH
 62
     4
100
AcDbLeader
  3
DIM1$7
 73
     0
 75
     1
 40
4.571429
 41
36.714286
 76
     3
 10
409.440802
 20
179.034876
 30
0.0
 10
396.248715
 20
151.672651
 30
0.0
 10
393.248715
 20
151.672651
 30
0.0
 77
   256
340
60B
1001
ACAD
1000
DSTYLE
1002
{
1070
   144
1040
1.0
1002
}
  0
LINE
  5
60D
102
{ACAD_REACTORS
330
2BB
102
}
100
AcDbEntity
  8
M04
100
AcDbLine
 10
416.841868
 20
175.583762
 30
0.0
 11
376.328477
 21
175.583762
 31
0.0
  0
LINE
  5
60E
102
{ACAD_REACTORS
330
1DC
102
}
100
AcDbEntity
  8
M02
100
AcDbLine
 10
433.841868
 20
179.583762
 30
0.0
 11
535.841868
 21
179.583762
 31
0.0
  0
LINE
  5
60F
102
{ACAD_REACTORS
330
1DC
102
}
100
AcDbEntity
  8
M02
100
AcDbLine
 10
434.841868
 20
182.583762
 30
0.0
 11
434.841868
 21
179.583762
 31
0.0
  0
LINE
  5
610
102
{ACAD_REACTORS
330
1D9
102
}
100
AcDbEntity
  8
M02
100
AcDbLine
 10
404.841868
 20
182.583762
 30
0.0
 11
404.841868
 21
179.583762
 31
0.0
  0
LINE
  5
611
102
{ACAD_REACTORS
330
1D9
102
}
100
AcDbEntity
  8
M02
100
AcDbLine
 10
396.841868
 20
182.583762
 30
0.0
 11
396.841868
 21
179.583762
 31
0.0
  0
LINE
  5
612
102
{ACAD_REACTORS
330
1D9
102
}
100
AcDbEntity
  8
M02
100
AcDbLine
 10
396.841868
 20
179.583762
 30
0.0
 11
405.841868
 21
179.583762
 31
0.0
  0
LINE
  5
613
102
{ACAD_REACTORS
330
20
102
}
100
AcDbEntity
  8
M01
100
AcDbLine
 10
415.841868
 20
229.583762
 30
0.0
 11
415.841868
 21
206.083762
 31
0.0
  0
LINE
  5
614
102
{ACAD_REACTORS
330
20
102
}
100
AcDbEntity
  8
M01
100
AcDbLine
 10
423.841868
 20
229.583762
 30
0.0
 11
423.841868
 21
206.083762
 31
0.0
  0
LINE
  5
615
102
{ACAD_REACTORS
330
20
102
}
100
AcDbEntity
  8
CENTRE
100
AcDbLine
 10
677.841868
 20
206.083762
 30
0.0
 11
411.841868
 21
206.083762
 31
0.0
  0
LINE
  5
616
102
{ACAD_REACTORS
330
20
102
}
100
AcDbEntity
  8
CENTRE
100
AcDbLine
 10
419.841868
 20
240.678486
 30
0.0
 11
419.841868
 21
152.661055
 31
0.0
  0
LINE
  5
617
102
{ACAD_REACTORS
330
1DD
102
}
100
AcDbEntity
  8
M01
100
AcDbLine
 10
669.841868
 20
202.083762
 30
0.0
 11
573.841868
 21
202.083762
 31
0.0
  0
LINE
  5
618
102
{ACAD_REACTORS
330
1DD
102
}
100
AcDbEntity
  8
M01
100
AcDbLine
 10
669.841868
 20
210.083762
 30
0.0
 11
491.841868
 21
210.083762
 31
0.0
  0
LINE
  5
619
100
AcDbEntity
  8
M04
100
AcDbLine
 10
832.841868
 20
203.583762
 30
0.0
 11
842.841868
 21
193.583762
 31
0.0
  0
LINE
  5
61A
100
AcDbEntity
  8
M04
100
AcDbLine
 10
853.513347
 20
193.583762
 30
0.0
 11
842.841868
 21
193.583762
 31
0.0
  0
LINE
  5
61B
100
AcDbEntity
  8
M04
100
AcDbLine
 10
832.841868
 20
236.583762
 30
0.0
 11
832.841868
 21
175.583762
 31
0.0
  0
LINE
  5
61C
102
{ACAD_REACTORS
330
1DD
102
}
100
AcDbEntity
  8
M01
100
AcDbLine
 10
573.841868
 20
202.083762
 30
0.0
 11
573.841868
 21
192.583762
 31
0.0
  0
LINE
  5
61D
102
{ACAD_REACTORS
330
2BB
102
}
100
AcDbEntity
  8
M04
100
AcDbLine
 10
550.341868
 20
175.583762
 30
0.0
 11
422.841868
 21
175.583762
 31
0.0
  0
LINE
  5
61E
102
{ACAD_REACTORS
330
2BB
330
1DD
330
1DC
330
1D9
330
20
102
}
100
AcDbEntity
  8
M01
100
AcDbLine
 10
559.841868
 20
182.583762
 30
0.0
 11
396.841868
 21
182.583762
 31
0.0
  0
LINE
  5
61F
100
AcDbEntity
  8
M04
100
AcDbLine
 10
767.341868
 20
251.893164
 30
0.0
 11
771.341868
 21
249.583762
 31
0.0
  0
LINE
  5
620
100
AcDbEntity
  8
M04
100
AcDbLine
 10
763.341868
 20
249.583762
 30
0.0
 11
767.341868
 21
251.893164
 31
0.0
  0
LINE
  5
621
100
AcDbEntity
  8
M04
100
AcDbLine
 10
763.341868
 20
246.583762
 30
0.0
 11
763.341868
 21
249.583762
 31
0.0
  0
LINE
  5
622
100
AcDbEntity
  8
M04
100
AcDbLine
 10
771.341868
 20
249.583762
 30
0.0
 11
763.341868
 21
249.583762
 31
0.0
  0
LINE
  5
623
100
AcDbEntity
  8
M04
100
AcDbLine
 10
771.341868
 20
246.583762
 30
0.0
 11
771.341868
 21
249.583762
 31
0.0
  0
ARC
  5
624
100
AcDbEntity
  8
M05
100
AcDbCircle
 10
767.341868
 20
237.246058
 30
0.0
 40
10.837705
100
AcDbArc
 50
71.372238
 51
108.627762
  0
LINE
  5
625
100
AcDbEntity
  8
M05
100
AcDbLine
 10
763.341868
 20
246.583762
 30
0.0
 11
763.880105
 21
247.516016
 31
0.0
  0
LINE
  5
626
100
AcDbEntity
  8
M05
100
AcDbLine
 10
770.803632
 20
247.516016
 30
0.0
 11
763.880105
 21
247.516016
 31
0.0
  0
LINE
  5
627
100
AcDbEntity
  8
M05
100
AcDbLine
 10
771.341868
 20
246.583762
 30
0.0
 11
770.803632
 21
247.516016
 31
0.0
  0
LINE
  5
628
100
AcDbEntity
  8
M05
100
AcDbLine
 10
771.341868
 20
246.583762
 30
0.0
 11
763.341868
 21
246.583762
 31
0.0
  0
LINE
  5
629
100
AcDbEntity
  8
M04
100
AcDbLine
 10
763.341868
 20
236.583762
 30
0.0
 11
591.566868
 21
236.583762
 31
0.0
  0
LINE
  5
62A
100
AcDbEntity
  8
M04
100
AcDbLine
 10
763.341868
 20
237.083762
 30
0.0
 11
762.841868
 21
236.583762
 31
0.0
  0
LINE
  5
62B
100
AcDbEntity
  8
M04
100
AcDbLine
 10
771.341868
 20
237.083762
 30
0.0
 11
771.841868
 21
236.583762
 31
0.0
  0
ARC
  5
62C
100
AcDbEntity
  8
M05
100
AcDbCircle
 10
767.341868
 20
237.717096
 30
0.0
 40
13.633333
100
AcDbArc
 50
252.938469
 51
287.061531
  0
LINE
  5
62D
100
AcDbEntity
  8
M05
100
AcDbLine
 10
771.341868
 20
224.683762
 30
0.0
 11
763.341868
 21
224.683762
 31
0.0
  0
LINE
  5
62E
100
AcDbEntity
  8
M05
100
AcDbLine
 10
763.341868
 20
246.583762
 30
0.0
 11
763.341868
 21
224.683762
 31
0.0
  0
LINE
  5
62F
100
AcDbEntity
  8
M05
100
AcDbLine
 10
771.341868
 20
246.583762
 30
0.0
 11
771.341868
 21
224.683762
 31
0.0
  0
LINE
  5
630
102
{ACAD_REACTORS
330
1DD
330
1DB
330
1DA
330
20
102
}
100
AcDbEntity
  8
M01
100
AcDbLine
 10
763.341868
 20
229.583762
 30
0.0
 11
396.841868
 21
229.583762
 31
0.0
  0
LINE
  5
631
102
{ACAD_REACTORS
330
1DA
102
}
100
AcDbEntity
  8
M02
100
AcDbLine
 10
548.116868
 20
232.583762
 30
0.0
 11
396.841868
 21
232.583762
 31
0.0
  0
LINE
  5
632
100
AcDbEntity
  8
M04
100
AcDbLine
 10
548.116868
 20
236.583762
 30
0.0
 11
387.841868
 21
236.583762
 31
0.0
  0
LINE
  5
633
102
{ACAD_REACTORS
330
1DD
102
}
100
AcDbEntity
  8
CENTRE
100
AcDbLine
 10
569.841868
 20
263.27643
 30
0.0
 11
569.841868
 21
142.691722
 31
0.0
  0
LINE
  5
634
100
AcDbEntity
  8
CENTRE
100
AcDbLine
 10
767.341868
 20
256.92988
 30
0.0
 11
767.341868
 21
218.840181
 31
0.0
  0
LINE
  5
635
100
AcDbEntity
  8
M04
100
AcDbLine
 10
853.513347
 20
175.583762
 30
0.0
 11
589.341868
 21
175.583762
 31
0.0
  0
LINE
  5
636
100
AcDbEntity
  8
M04
100
AcDbLine
 10
387.841868
 20
236.583762
 30
0.0
 11
387.841868
 21
175.583762
 31
0.0
  0
LINE
  5
637
100
AcDbEntity
  8
M04
100
AcDbLine
 10
832.841868
 20
236.583762
 30
0.0
 11
771.341868
 21
236.583762
 31
0.0
  0
LINE
  5
638
102
{ACAD_REACTORS
330
1DB
102
}
100
AcDbEntity
  8
M02
100
AcDbLine
 10
760.841868
 20
229.583762
 30
0.0
 11
760.841868
 21
232.583762
 31
0.0
  0
LINE
  5
639
102
{ACAD_REACTORS
330
1DD
102
}
100
AcDbEntity
  8
M01
100
AcDbLine
 10
760.841868
 20
229.583762
 30
0.0
 11
760.841868
 21
223.583762
 31
0.0
  0
LINE
  5
63A
100
AcDbEntity
  8
M01
100
AcDbLine
 10
772.841868
 20
223.583762
 30
0.0
 11
760.841868
 21
223.583762
 31
0.0
  0
LINE
  5
63B
102
{ACAD_REACTORS
330
9B
102
}
100
AcDbEntity
  8
M02
100
AcDbLine
 10
770.841868
 20
182.583762
 30
0.0
 11
770.841868
 21
179.583762
 31
0.0
  0
LINE
  5
63C
102
{ACAD_REACTORS
330
1DA
102
}
100
AcDbEntity
  8
M02
100
AcDbLine
 10
396.841868
 20
229.583762
 30
0.0
 11
396.841868
 21
232.583762
 31
0.0
  0
LINE
  5
63D
102
{ACAD_REACTORS
330
9B
102
}
100
AcDbEntity
  8
M02
100
AcDbLine
 10
770.841868
 20
179.583762
 30
0.0
 11
603.841868
 21
179.583762
 31
0.0
  0
LINE
  5
63E
102
{ACAD_REACTORS
330
1DB
102
}
100
AcDbEntity
  8
M02
100
AcDbLine
 10
763.341868
 20
232.583762
 30
0.0
 11
591.566868
 21
232.583762
 31
0.0
  0
LINE
  5
63F
102
{ACAD_REACTORS
330
20
102
}
100
AcDbEntity
  8
M01
100
AcDbLine
 10
396.841868
 20
182.583762
 30
0.0
 11
394.841868
 21
184.583762
 31
0.0
  0
LINE
  5
640
102
{ACAD_REACTORS
330
1DD
102
}
100
AcDbEntity
  8
M01
100
AcDbLine
 10
772.841868
 20
184.583762
 30
0.0
 11
770.841868
 21
182.583762
 31
0.0
  0
LINE
  5
641
100
AcDbEntity
  8
M01
100
AcDbLine
 10
771.341868
 20
229.083762
 30
0.0
 11
772.841868
 21
227.583762
 31
0.0
  0
LINE
  5
642
102
{ACAD_REACTORS
330
20
102
}
100
AcDbEntity
  8
M01
100
AcDbLine
 10
394.841868
 20
227.583762
 30
0.0
 11
396.841868
 21
229.583762
 31
0.0
  0
LINE
  5
643
102
{ACAD_REACTORS
330
1DD
330
9B
102
}
100
AcDbEntity
  8
M01
100
AcDbLine
 10
770.841868
 20
182.583762
 30
0.0
 11
598.841868
 21
182.583762
 31
0.0
  0
LINE
  5
644
102
{ACAD_REACTORS
330
20
102
}
100
AcDbEntity
  8
M01
100
AcDbLine
 10
394.841868
 20
227.583762
 30
0.0
 11
394.841868
 21
184.583762
 31
0.0
  0
LINE
  5
645
102
{ACAD_REACTORS
330
1DD
102
}
100
AcDbEntity
  8
M01
100
AcDbLine
 10
772.841868
 20
227.583762
 30
0.0
 11
772.841868
 21
184.583762
 31
0.0
  0
ENDSEC
  0
SECTION
  2
OBJECTS
  0
DICTIONARY
  5
1C
100
AcDbDictionary
  3
ACAD_GROUP
350
1A
  3
ACAD_MLINESTYLE
350
1B
  0
DICTIONARY
  5
3
100
AcDbDictionary
280
     1
  3
ACAD_SORTENTS
360
4
  0
DICTIONARY
  5
1A
102
{ACAD_REACTORS
330
1C
102
}
100
AcDbDictionary
  0
DICTIONARY
  5
1B
102
{ACAD_REACTORS
330
1C
102
}
100
AcDbDictionary
  3
STANDARD
350
1E
  0
SORTENTSTABLE
  5
4
102
{ACAD_REACTORS
330
3
102
}
100
AcDbSortentsTable
330
2
  0
MLINESTYLE
  5
1E
102
{ACAD_REACTORS
330
1B
102
}
100
AcDbMlineStyle
  2
STANDARD
 70
     0
  3

 62
   256
 51
90.0
 52
90.0
 71
     2
 49
0.5
 62
   256
  6
BYLAYER
 49
-0.5
 62
   256
  6
BYLAYER
  0
ENDSEC
  0
EOF
