  0
SECTION
  2
HEADER
  9
$ACADVER
  1
AC1014
  9
$ACADMAINTVER
 70
     9
  9
$DWGCODEPAGE
  3
ANSI_1252
  9
$INSBASE
 10
0.0
 20
0.0
 30
0.0
  9
$EXTMIN
 10
278.065349
 20
156.49858
 30
-0.222949
  9
$EXTMAX
 10
1227.144914
 20
741.929694
 30
0.0
  9
$LIMMIN
 10
0.0
 20
0.0
  9
$LIMMAX
 10
1189.0
 20
841.0
  9
$ORTHOMODE
 70
     1
  9
$REGENMODE
 70
     1
  9
$FILLMODE
 70
     1
  9
$QTEXTMODE
 70
     0
  9
$MIRRTEXT
 70
     0
  9
$DRAGMODE
 70
     2
  9
$LTSCALE
 40
8.0
  9
$OSMODE
 70
     0
  9
$ATTMODE
 70
     1
  9
$TEXTSIZE
 40
2.5
  9
$TRACEWID
 40
10.0
  9
$TEXTSTYLE
  7
STANDARD
  9
$CLAYER
  8
DIMS
  9
$CELTYPE
  6
BYLAYER
  9
$CECOLOR
 62
   256
  9
$CELTSCALE
 40
1.0
  9
$DELOBJ
 70
     1
  9
$DISPSILH
 70
     0
  9
$DIMSCALE
 40
1.0
  9
$DIMASZ
 40
3.0
  9
$DIMEXO
 40
1.0
  9
$DIMDLI
 40
10.0
  9
$DIMRND
 40
0.01
  9
$DIMDLE
 40
1.25
  9
$DIMEXE
 40
2.5
  9
$DIMTP
 40
0.05
  9
$DIMTM
 40
0.0
  9
$DIMTXT
 40
3.0
  9
$DIMCEN
 40
-1.7
  9
$DIMTSZ
 40
0.0
  9
$DIMTOL
 70
     0
  9
$DIMLIM
 70
     0
  9
$DIMTIH
 70
     0
  9
$DIMTOH
 70
     0
  9
$DIMSE1
 70
     0
  9
$DIMSE2
 70
     0
  9
$DIMTAD
 70
     3
  9
$DIMZIN
 70
     1
  9
$DIMBLK
  1

  9
$DIMASO
 70
     1
  9
$DIMSHO
 70
     0
  9
$DIMPOST
  1

  9
$DIMAPOST
  1

  9
$DIMALT
 70
     0
  9
$DIMALTD
 70
     2
  9
$DIMALTF
 40
0.039
  9
$DIMLFAC
 40
1.0
  9
$DIMTOFL
 70
     0
  9
$DIMTVP
 40
1.5
  9
$DIMTIX
 70
     0
  9
$DIMSOXD
 70
     0
  9
$DIMSAH
 70
     0
  9
$DIMBLK1
  1

  9
$DIMBLK2
  1

  9
$DIMSTYLE
  2
DIM1
  9
$DIMCLRD
 70
     4
  9
$DIMCLRE
 70
     4
  9
$DIMCLRT
 70
     2
  9
$DIMTFAC
 40
0.7
  9
$DIMGAP
 40
1.5
  9
$DIMJUST
 70
     0
  9
$DIMSD1
 70
     0
  9
$DIMSD2
 70
     0
  9
$DIMTOLJ
 70
     1
  9
$DIMTZIN
 70
     1
  9
$DIMALTZ
 70
     1
  9
$DIMALTTZ
 70
     1
  9
$DIMFIT
 70
     0
  9
$DIMUPT
 70
     0
  9
$DIMUNIT
 70
     2
  9
$DIMDEC
 70
     2
  9
$DIMTDEC
 70
     2
  9
$DIMALTU
 70
     2
  9
$DIMALTTD
 70
     2
  9
$DIMTXSTY
  7
STANDARD
  9
$DIMAUNIT
 70
     0
  9
$LUNITS
 70
     2
  9
$LUPREC
 70
     2
  9
$SKETCHINC
 40
1.0
  9
$FILLETRAD
 40
0.0
  9
$AUNITS
 70
     0
  9
$AUPREC
 70
     3
  9
$MENU
  1
ACAD
  9
$ELEVATION
 40
0.0
  9
$PELEVATION
 40
0.0
  9
$THICKNESS
 40
0.0
  9
$LIMCHECK
 70
     0
  9
$BLIPMODE
 70
     1
  9
$CHAMFERA
 40
3.5
  9
$CHAMFERB
 40
3.5
  9
$CHAMFERC
 40
0.0
  9
$CHAMFERD
 40
0.0
  9
$SKPOLY
 70
     1
  9
$TDCREATE
 40
2449993.725698611
  9
$TDUPDATE
 40
2452025.577941145
  9
$TDINDWG
 40
0.9538732292
  9
$TDUSRTIMER
 40
0.9538732292
  9
$USRTIMER
 70
     1
  9
$ANGBASE
 50
0.0
  9
$ANGDIR
 70
     0
  9
$PDMODE
 70
     3
  9
$PDSIZE
 40
0.0
  9
$PLINEWID
 40
0.0
  9
$COORDS
 70
     2
  9
$SPLFRAME
 70
     0
  9
$SPLINETYPE
 70
     6
  9
$SPLINESEGS
 70
     6
  9
$ATTDIA
 70
     1
  9
$ATTREQ
 70
     1
  9
$HANDLING
 70
     1
  9
$HANDSEED
  5
603
  9
$SURFTAB1
 70
    12
  9
$SURFTAB2
 70
    12
  9
$SURFTYPE
 70
     6
  9
$SURFU
 70
    12
  9
$SURFV
 70
    12
  9
$UCSNAME
  2

  9
$UCSORG
 10
0.0
 20
0.0
 30
0.0
  9
$UCSXDIR
 10
1.0
 20
0.0
 30
0.0
  9
$UCSYDIR
 10
0.0
 20
1.0
 30
0.0
  9
$PUCSNAME
  2

  9
$PUCSORG
 10
0.0
 20
0.0
 30
0.0
  9
$PUCSXDIR
 10
1.0
 20
0.0
 30
0.0
  9
$PUCSYDIR
 10
0.0
 20
1.0
 30
0.0
  9
$USERI1
 70
     0
  9
$USERI2
 70
     0
  9
$USERI3
 70
     0
  9
$USERI4
 70
     0
  9
$USERI5
 70
     0
  9
$USERR1
 40
0.0
  9
$USERR2
 40
0.0
  9
$USERR3
 40
0.0
  9
$USERR4
 40
0.0
  9
$USERR5
 40
0.0
  9
$WORLDVIEW
 70
     0
  9
$SHADEDGE
 70
     3
  9
$SHADEDIF
 70
    70
  9
$TILEMODE
 70
     1
  9
$MAXACTVP
 70
    16
  9
$PINSBASE
 10
0.0
 20
0.0
 30
0.0
  9
$PLIMCHECK
 70
     0
  9
$PEXTMIN
 10
1.000000E+20
 20
1.000000E+20
 30
1.000000E+20
  9
$PEXTMAX
 10
-1.000000E+20
 20
-1.000000E+20
 30
-1.000000E+20
  9
$PLIMMIN
 10
0.0
 20
0.0
  9
$PLIMMAX
 10
12.0
 20
9.0
  9
$UNITMODE
 70
     0
  9
$VISRETAIN
 70
     0
  9
$PLINEGEN
 70
     0
  9
$PSLTSCALE
 70
     0
  9
$TREEDEPTH
 70
  3020
  9
$PICKSTYLE
 70
     1
  9
$CMLSTYLE
  2
STANDARD
  9
$CMLJUST
 70
     0
  9
$CMLSCALE
 40
1.0
  9
$PROXYGRAPHICS
 70
     1
  9
$MEASUREMENT
 70
     0
  0
ENDSEC
  0
SECTION
  2
CLASSES
  0
CLASS
  1
DICTIONARYVAR
  2
AcDbDictionaryVar
  3
"AutoCAD"
 90
        0
280
     0
281
     0
  0
CLASS
  1
LWPOLYLINE
  2
AcDbPolyline
  3
"AutoCAD"
 90
        0
280
     0
281
     1
  0
CLASS
  1
HATCH
  2
AcDbHatch
  3
"ACAD_SEDONA"
 90
        0
280
     0
281
     1
  0
CLASS
  1
SORTENTSTABLE
  2
AcDbSortentsTable
  3
"AutoCAD"
 90
        0
280
     0
281
     0
  0
CLASS
  1
WIPEOUTVARIABLES
  2
AcDbWipeoutVariables
  3
WIPEOUT
 90
        0
280
     0
281
     0
  0
CLASS
  1
WIPEOUT
  2
AcDbWipeout
  3
WIPEOUT
 90
      127
280
     0
281
     1
  0
ENDSEC
  0
SECTION
  2
TABLES
  0
TABLE
  2
VPORT
  5
14
100
AcDbSymbolTable
 70
     2
  0
VPORT
  5
602
100
AcDbSymbolTableRecord
100
AcDbViewportTableRecord
  2
*ACTIVE
 70
     0
 10
0.0
 20
0.0
 11
1.0
 21
1.0
 12
597.277862
 22
407.720885
 13
0.0
 23
0.0
 14
10.0
 24
10.0
 15
0.0
 25
0.0
 16
0.0
 26
0.0
 36
1.0
 17
16.313321
 27
12.779115
 37
0.222949
 40
847.191411
 41
1.470516
 42
50.0
 43
0.0
 44
0.0
 50
0.0
 51
0.0
 71
     0
 72
  2000
 73
     1
 74
     2
 75
     0
 76
     0
 77
     0
 78
     1
  0
ENDTAB
  0
TABLE
  2
LTYPE
  5
F
100
AcDbSymbolTable
 70
     3
  0
LTYPE
  5
10
100
AcDbSymbolTableRecord
100
AcDbLinetypeTableRecord
  2
BYBLOCK
 70
     0
  3

 72
    65
 73
     0
 40
0.0
  0
LTYPE
  5
11
100
AcDbSymbolTableRecord
100
AcDbLinetypeTableRecord
  2
BYLAYER
 70
     0
  3

 72
    65
 73
     0
 40
0.0
  0
LTYPE
  5
7
100
AcDbSymbolTableRecord
100
AcDbLinetypeTableRecord
  2
CONTINUOUS
 70
     0
  3
Solid line
 72
    65
 73
     0
 40
0.0
  0
LTYPE
  5
3F
100
AcDbSymbolTableRecord
100
AcDbLinetypeTableRecord
  2
CENTER
 70
     0
  3
Center ____ _ ____ _ ____ _ ____ _ ____ _ ____
 72
    65
 73
     4
 40
2.0
 49
1.25
 74
     0
 49
-0.25
 74
     0
 49
0.25
 74
     0
 49
-0.25
 74
     0
  0
LTYPE
  5
4C
100
AcDbSymbolTableRecord
100
AcDbLinetypeTableRecord
  2
HIDDEN
 70
     0
  3
Hidden __ __ __ __ __ __ __ __ __ __ __ __ __ _
 72
    65
 73
     2
 40
0.375
 49
0.25
 74
     0
 49
-0.125
 74
     0
  0
ENDTAB
  0
TABLE
  2
LAYER
  5
C
100
AcDbSymbolTable
 70
    11
  0
LAYER
  5
6
100
AcDbSymbolTableRecord
100
AcDbLayerTableRecord
  2
0
 70
     0
 62
     7
  6
CONTINUOUS
  0
LAYER
  5
3E
100
AcDbSymbolTableRecord
100
AcDbLayerTableRecord
  2
CENTRE
 70
     0
 62
     3
  6
CENTER
  0
LAYER
  5
6D
100
AcDbSymbolTableRecord
100
AcDbLayerTableRecord
  2
M01
 70
     0
 62
     1
  6
CONTINUOUS
  0
LAYER
  5
1AE
100
AcDbSymbolTableRecord
100
AcDbLayerTableRecord
  2
M02
 70
     0
 62
     2
  6
CONTINUOUS
  0
LAYER
  5
4B
100
AcDbSymbolTableRecord
100
AcDbLayerTableRecord
  2
M03
 70
     0
 62
     2
  6
HIDDEN
  0
LAYER
  5
175
100
AcDbSymbolTableRecord
100
AcDbLayerTableRecord
  2
M04
 70
     0
 62
     7
  6
CONTINUOUS
  0
LAYER
  5
17A
100
AcDbSymbolTableRecord
100
AcDbLayerTableRecord
  2
M05
 70
     0
 62
     5
  6
CONTINUOUS
  0
LAYER
  5
1D
100
AcDbSymbolTableRecord
100
AcDbLayerTableRecord
  2
DIMS
 70
     0
 62
     4
  6
CONTINUOUS
  0
LAYER
  5
3B
100
AcDbSymbolTableRecord
100
AcDbLayerTableRecord
  2
TEXT
 70
     0
 62
     2
  6
CONTINUOUS
  0
LAYER
  5
15F
100
AcDbSymbolTableRecord
100
AcDbLayerTableRecord
  2
HATCH
 70
     0
 62
     4
  6
CONTINUOUS
  0
LAYER
  5
21
100
AcDbSymbolTableRecord
100
AcDbLayerTableRecord
  2
DEFPOINTS
 70
     0
 62
     7
  6
CONTINUOUS
  0
ENDTAB
  0
TABLE
  2
STYLE
  5
D
100
AcDbSymbolTable
 70
     1
  0
STYLE
  5
E
100
AcDbSymbolTableRecord
100
AcDbTextStyleTableRecord
  2
STANDARD
 70
     0
 40
0.0
 41
1.0
 50
0.0
 71
     0
 42
2.5
  3
SIMPLEX
  4

  0
ENDTAB
  0
TABLE
  2
VIEW
  5
12
100
AcDbSymbolTable
 70
     0
  0
ENDTAB
  0
TABLE
  2
UCS
  5
13
100
AcDbSymbolTable
 70
     0
  0
ENDTAB
  0
TABLE
  2
APPID
  5
16
100
AcDbSymbolTable
 70
     1
  0
APPID
  5
17
100
AcDbSymbolTableRecord
100
AcDbRegAppTableRecord
  2
ACAD
 70
     0
  0
ENDTAB
  0
TABLE
  2
DIMSTYLE
  5
18
100
AcDbSymbolTable
 70
     2
  0
DIMSTYLE
105
1F
102
{ACAD_REACTORS
330
484
330
20A
330
1FD
330
1F0
330
1E3
330
166
330
145
330
139
330
12C
330
11F
330
113
330
107
330
FA
330
151
330
2D
102
}
100
AcDbSymbolTableRecord
100
AcDbDimStyleTableRecord
  2
DIM1
 70
     0
  3

  4

  5

  6

  7

 40
1.0
 41
3.0
 42
1.0
 43
10.0
 44
2.5
 45
0.01
 46
1.25
 47
0.05
 48
0.0
140
3.0
141
-1.7
142
0.0
143
0.039
144
0.2
145
1.5
146
0.7
147
1.5
 71
     0
 72
     0
 73
     0
 74
     0
 75
     0
 76
     0
 77
     3
 78
     1
170
     0
171
     2
172
     0
173
     0
174
     0
175
     0
176
     4
177
     4
178
     2
270
     2
271
     2
272
     2
273
     2
274
     2
340
E
275
     0
280
     0
281
     0
282
     0
283
     1
284
     1
285
     1
286
     1
287
     0
288
     0
  0
DIMSTYLE
105
258
100
AcDbSymbolTableRecord
100
AcDbDimStyleTableRecord
  2
DIM1$7
 70
     0
  3

  4

  5

  6

  7

 40
1.0
 41
3.0
 42
1.0
 43
10.0
 44
2.5
 45
0.01
 46
1.25
 47
0.0
 48
0.0
140
3.0
141
-1.7
142
0.0
143
0.039
144
1.0
145
0.0
146
1.0
147
1.5
 71
     0
 72
     0
 73
     0
 74
     0
 75
     0
 76
     0
 77
     0
 78
     1
170
     0
171
     2
172
     0
173
     0
174
     0
175
     0
176
     4
177
     4
178
     2
270
     2
271
     2
272
     2
273
     2
274
     2
340
E
275
     0
280
     0
281
     0
282
     0
283
     1
284
     1
285
     1
286
     1
287
     0
288
     0
  0
ENDTAB
  0
TABLE
  2
BLOCK_RECORD
  5
1
100
AcDbSymbolTable
 70
    16
  0
BLOCK_RECORD
  5
2
102
{ACAD_XDICTIONARY
360
3
102
}
100
AcDbSymbolTableRecord
100
AcDbBlockTableRecord
  2
*MODEL_SPACE
  0
BLOCK_RECORD
  5
9
100
AcDbSymbolTableRecord
100
AcDbBlockTableRecord
  2
*PAPER_SPACE
  0
BLOCK_RECORD
  5
24F
100
AcDbSymbolTableRecord
100
AcDbBlockTableRecord
  2
ARROW1
  0
BLOCK_RECORD
  5
485
100
AcDbSymbolTableRecord
100
AcDbBlockTableRecord
  2
*D1
  0
BLOCK_RECORD
  5
20B
100
AcDbSymbolTableRecord
100
AcDbBlockTableRecord
  2
*D2
  0
BLOCK_RECORD
  5
1FE
100
AcDbSymbolTableRecord
100
AcDbBlockTableRecord
  2
*D3
  0
BLOCK_RECORD
  5
1F1
100
AcDbSymbolTableRecord
100
AcDbBlockTableRecord
  2
*D4
  0
BLOCK_RECORD
  5
1E4
100
AcDbSymbolTableRecord
100
AcDbBlockTableRecord
  2
*D5
  0
BLOCK_RECORD
  5
167
100
AcDbSymbolTableRecord
100
AcDbBlockTableRecord
  2
*D6
  0
BLOCK_RECORD
  5
152
100
AcDbSymbolTableRecord
100
AcDbBlockTableRecord
  2
*D7
  0
BLOCK_RECORD
  5
146
100
AcDbSymbolTableRecord
100
AcDbBlockTableRecord
  2
*D8
  0
BLOCK_RECORD
  5
13A
100
AcDbSymbolTableRecord
100
AcDbBlockTableRecord
  2
*D9
  0
BLOCK_RECORD
  5
12D
100
AcDbSymbolTableRecord
100
AcDbBlockTableRecord
  2
*D10
  0
BLOCK_RECORD
  5
120
100
AcDbSymbolTableRecord
100
AcDbBlockTableRecord
  2
*D11
  0
BLOCK_RECORD
  5
114
100
AcDbSymbolTableRecord
100
AcDbBlockTableRecord
  2
*D12
  0
BLOCK_RECORD
  5
108
100
AcDbSymbolTableRecord
100
AcDbBlockTableRecord
  2
*D13
  0
BLOCK_RECORD
  5
FB
100
AcDbSymbolTableRecord
100
AcDbBlockTableRecord
  2
*D14
  0
BLOCK_RECORD
  5
2E
100
AcDbSymbolTableRecord
100
AcDbBlockTableRecord
  2
*D15
  0
ENDTAB
  0
ENDSEC
  0
SECTION
  2
BLOCKS
  0
BLOCK
  5
5
100
AcDbEntity
  8
0
100
AcDbBlockBegin
  2
*MODEL_SPACE
 70
     0
 10
0.0
 20
0.0
 30
0.0
  3
*MODEL_SPACE
  1

  0
ENDBLK
  5
8
100
AcDbEntity
  8
0
100
AcDbBlockEnd
  0
BLOCK
  5
A
100
AcDbEntity
 67
     1
  8
0
100
AcDbBlockBegin
  2
*PAPER_SPACE
 70
     0
 10
0.0
 20
0.0
 30
0.0
  3
*PAPER_SPACE
  1

  0
ENDBLK
  5
B
100
AcDbEntity
 67
     1
  8
0
100
AcDbBlockEnd
  0
BLOCK
  5
253
100
AcDbEntity
  8
0
100
AcDbBlockBegin
  2
ARROW1
 70
     0
 10
0.0
 20
0.0
 30
0.0
  3
ARROW1
  1

  0
LINE
  5
250
100
AcDbEntity
  8
0
100
AcDbLine
 10
-1.0
 20
-0.2
 30
0.0
 11
-1.0
 21
0.0
 31
0.0
  0
LINE
  5
251
100
AcDbEntity
  8
0
100
AcDbLine
 10
0.0
 20
0.0
 30
0.0
 11
-1.0
 21
-0.2
 31
0.0
  0
SOLID
  5
252
100
AcDbEntity
  8
0
100
AcDbTrace
 10
0.0
 20
0.0
 30
0.0
 11
-1.0
 21
0.2
 31
0.0
 12
-1.0
 22
0.0
 32
0.0
 13
-1.0
 23
0.0
 33
0.0
  0
ENDBLK
  5
254
100
AcDbEntity
  8
0
100
AcDbBlockEnd
  0
BLOCK
  5
490
100
AcDbEntity
  8
0
100
AcDbBlockBegin
  2
*D1
 70
     1
 10
0.0
 20
0.0
 30
0.0
  3
*D1
  1

  0
LINE
  5
486
100
AcDbEntity
  8
0
  6
BYBLOCK
 62
     4
100
AcDbLine
 10
1019.927506
 20
481.290777
 30
0.0
 11
1019.927506
 21
497.466942
 31
0.0
  0
LINE
  5
487
100
AcDbEntity
  8
0
  6
BYBLOCK
 62
     4
100
AcDbLine
 10
1011.927506
 20
481.290777
 30
0.0
 11
1011.927506
 21
497.466942
 31
0.0
  0
LINE
  5
488
100
AcDbEntity
  8
0
  6
BYBLOCK
 62
     4
100
AcDbLine
 10
1022.927506
 20
494.966942
 30
0.0
 11
1025.927506
 21
494.966942
 31
0.0
  0
LINE
  5
489
100
AcDbEntity
  8
0
  6
BYBLOCK
 62
     4
100
AcDbLine
 10
1008.927506
 20
494.966942
 30
0.0
 11
982.356078
 21
494.966942
 31
0.0
  0
SOLID
  5
48A
100
AcDbEntity
  8
0
  6
BYBLOCK
 62
     4
100
AcDbTrace
 10
1022.927506
 20
495.466942
 30
0.0
 11
1022.927506
 21
494.466942
 31
0.0
 12
1019.927506
 22
494.966942
 32
0.0
 13
1019.927506
 23
494.966942
 33
0.0
  0
SOLID
  5
48B
100
AcDbEntity
  8
0
  6
BYBLOCK
 62
     4
100
AcDbTrace
 10
1008.927506
 20
495.466942
 30
0.0
 11
1008.927506
 21
494.466942
 31
0.0
 12
1011.927506
 22
494.966942
 32
0.0
 13
1011.927506
 23
494.966942
 33
0.0
  0
MTEXT
  5
48C
100
AcDbEntity
  8
0
  6
BYBLOCK
 62
     2
100
AcDbMText
 10
994.141792
 20
497.966942
 30
0.0
 40
3.0
 41
0.0
 71
     5
 72
     1
  1
\A1;\U+22058.00 H7
  0
POINT
  5
48D
100
AcDbEntity
  8
DEFPOINTS
  6
BYBLOCK
 62
     0
100
AcDbPoint
 10
1019.927506
 20
480.290777
 30
0.0
  0
POINT
  5
48E
100
AcDbEntity
  8
DEFPOINTS
  6
BYBLOCK
 62
     0
100
AcDbPoint
 10
1011.927506
 20
480.290777
 30
0.0
  0
POINT
  5
48F
100
AcDbEntity
  8
DEFPOINTS
  6
BYBLOCK
 62
     0
100
AcDbPoint
 10
1011.927506
 20
494.966942
 30
0.0
  0
ENDBLK
  5
491
100
AcDbEntity
  8
0
100
AcDbBlockEnd
  0
BLOCK
  5
215
100
AcDbEntity
  8
0
100
AcDbBlockBegin
  2
*D2
 70
     1
 10
0.0
 20
0.0
 30
0.0
  3
*D2
  1

  0
LINE
  5
20C
100
AcDbEntity
  8
0
  6
BYBLOCK
 62
     4
100
AcDbLine
 10
698.361529
 20
583.957944
 30
0.0
 11
677.429734
 21
583.957944
 31
0.0
  0
LINE
  5
20D
100
AcDbEntity
  8
0
  6
BYBLOCK
 62
     4
100
AcDbLine
 10
708.136529
 20
597.357944
 30
0.0
 11
677.429734
 21
597.357944
 31
0.0
  0
LINE
  5
20E
100
AcDbEntity
  8
0
  6
BYBLOCK
 62
     4
100
AcDbLine
 10
679.929734
 20
586.957944
 30
0.0
 11
679.929734
 21
594.357944
 31
0.0
  0
SOLID
  5
20F
100
AcDbEntity
  8
0
  6
BYBLOCK
 62
     4
100
AcDbTrace
 10
679.429734
 20
586.957944
 30
0.0
 11
680.429734
 21
586.957944
 31
0.0
 12
679.929734
 22
583.957944
 32
0.0
 13
679.929734
 23
583.957944
 33
0.0
  0
SOLID
  5
210
100
AcDbEntity
  8
0
  6
BYBLOCK
 62
     4
100
AcDbTrace
 10
679.429734
 20
594.357944
 30
0.0
 11
680.429734
 21
594.357944
 31
0.0
 12
679.929734
 22
597.357944
 32
0.0
 13
679.929734
 23
597.357944
 33
0.0
  0
MTEXT
  5
211
100
AcDbEntity
  8
0
  6
BYBLOCK
 62
     2
100
AcDbMText
 10
676.929734
 20
590.657944
 30
0.0
 40
3.0
 41
0.0
 71
     5
 72
     1
  1
\A1;13.4
 11
0.0
 21
1.0
 31
0.0
  0
POINT
  5
212
100
AcDbEntity
  8
DEFPOINTS
  6
BYBLOCK
 62
     0
100
AcDbPoint
 10
699.361529
 20
583.957944
 30
0.0
  0
POINT
  5
213
100
AcDbEntity
  8
DEFPOINTS
  6
BYBLOCK
 62
     0
100
AcDbPoint
 10
709.136529
 20
597.357944
 30
0.0
  0
POINT
  5
214
100
AcDbEntity
  8
DEFPOINTS
  6
BYBLOCK
 62
     0
100
AcDbPoint
 10
679.929734
 20
597.357944
 30
0.0
  0
ENDBLK
  5
216
100
AcDbEntity
  8
0
100
AcDbBlockEnd
  0
BLOCK
  5
208
100
AcDbEntity
  8
0
100
AcDbBlockBegin
  2
*D3
 70
     1
 10
0.0
 20
0.0
 30
0.0
  3
*D3
  1

  0
LINE
  5
1FF
100
AcDbEntity
  8
0
  6
BYBLOCK
 62
     4
100
AcDbLine
 10
753.586529
 20
603.357944
 30
0.0
 11
753.586529
 21
626.564525
 31
0.0
  0
LINE
  5
200
100
AcDbEntity
  8
0
  6
BYBLOCK
 62
     4
100
AcDbLine
 10
709.136529
 20
603.357944
 30
0.0
 11
709.136529
 21
626.564525
 31
0.0
  0
LINE
  5
201
100
AcDbEntity
  8
0
  6
BYBLOCK
 62
     4
100
AcDbLine
 10
750.586529
 20
624.064525
 30
0.0
 11
712.136529
 21
624.064525
 31
0.0
  0
SOLID
  5
202
100
AcDbEntity
  8
0
  6
BYBLOCK
 62
     4
100
AcDbTrace
 10
750.586529
 20
624.564525
 30
0.0
 11
750.586529
 21
623.564525
 31
0.0
 12
753.586529
 22
624.064525
 32
0.0
 13
753.586529
 23
624.064525
 33
0.0
  0
SOLID
  5
203
100
AcDbEntity
  8
0
  6
BYBLOCK
 62
     4
100
AcDbTrace
 10
712.136529
 20
624.564525
 30
0.0
 11
712.136529
 21
623.564525
 31
0.0
 12
709.136529
 22
624.064525
 32
0.0
 13
709.136529
 23
624.064525
 33
0.0
  0
MTEXT
  5
204
100
AcDbEntity
  8
0
  6
BYBLOCK
 62
     2
100
AcDbMText
 10
732.326741
 20
627.064525
 30
0.0
 40
3.0
 41
0.0
 71
     5
 72
     1
  1
\A1;\U+220544.45 H7
  0
POINT
  5
205
100
AcDbEntity
  8
DEFPOINTS
  6
BYBLOCK
 62
     0
100
AcDbPoint
 10
753.586529
 20
602.357944
 30
0.0
  0
POINT
  5
206
100
AcDbEntity
  8
DEFPOINTS
  6
BYBLOCK
 62
     0
100
AcDbPoint
 10
709.136529
 20
602.357944
 30
0.0
  0
POINT
  5
207
100
AcDbEntity
  8
DEFPOINTS
  6
BYBLOCK
 62
     0
100
AcDbPoint
 10
709.136529
 20
624.064525
 30
0.0
  0
ENDBLK
  5
209
100
AcDbEntity
  8
0
100
AcDbBlockEnd
  0
BLOCK
  5
1FB
100
AcDbEntity
  8
0
100
AcDbBlockBegin
  2
*D4
 70
     1
 10
0.0
 20
0.0
 30
0.0
  3
*D4
  1

  0
LINE
  5
1F2
100
AcDbEntity
  8
0
  6
BYBLOCK
 62
     4
100
AcDbLine
 10
708.136529
 20
597.780594
 30
0.0
 11
708.136529
 21
636.605757
 31
0.0
  0
LINE
  5
1F3
100
AcDbEntity
  8
0
  6
BYBLOCK
 62
     4
100
AcDbLine
 10
754.586529
 20
597.780594
 30
0.0
 11
754.586529
 21
636.605757
 31
0.0
  0
LINE
  5
1F4
100
AcDbEntity
  8
0
  6
BYBLOCK
 62
     4
100
AcDbLine
 10
711.136529
 20
634.105757
 30
0.0
 11
751.586529
 21
634.105757
 31
0.0
  0
SOLID
  5
1F5
100
AcDbEntity
  8
0
  6
BYBLOCK
 62
     4
100
AcDbTrace
 10
711.136529
 20
634.605757
 30
0.0
 11
711.136529
 21
633.605757
 31
0.0
 12
708.136529
 22
634.105757
 32
0.0
 13
708.136529
 23
634.105757
 33
0.0
  0
SOLID
  5
1F6
100
AcDbEntity
  8
0
  6
BYBLOCK
 62
     4
100
AcDbTrace
 10
751.586529
 20
634.605757
 30
0.0
 11
751.586529
 21
633.605757
 31
0.0
 12
754.586529
 22
634.105757
 32
0.0
 13
754.586529
 23
634.105757
 33
0.0
  0
MTEXT
  5
1F7
100
AcDbEntity
  8
0
  6
BYBLOCK
 62
     2
100
AcDbMText
 10
732.666981
 20
637.105757
 30
0.0
 40
3.0
 41
0.0
 71
     5
 72
     1
  1
\A1;\U+220546.5
  0
POINT
  5
1F8
100
AcDbEntity
  8
DEFPOINTS
  6
BYBLOCK
 62
     0
100
AcDbPoint
 10
708.136529
 20
596.780594
 30
0.0
  0
POINT
  5
1F9
100
AcDbEntity
  8
DEFPOINTS
  6
BYBLOCK
 62
     0
100
AcDbPoint
 10
754.586529
 20
596.780594
 30
0.0
  0
POINT
  5
1FA
100
AcDbEntity
  8
DEFPOINTS
  6
BYBLOCK
 62
     0
100
AcDbPoint
 10
754.586529
 20
634.105757
 30
0.0
  0
ENDBLK
  5
1FC
100
AcDbEntity
  8
0
100
AcDbBlockEnd
  0
BLOCK
  5
1EE
100
AcDbEntity
  8
0
100
AcDbBlockBegin
  2
*D5
 70
     1
 10
0.0
 20
0.0
 30
0.0
  3
*D5
  1

  0
LINE
  5
1E5
100
AcDbEntity
  8
0
  6
BYBLOCK
 62
     4
100
AcDbLine
 10
755.586529
 20
576.957944
 30
0.0
 11
779.628629
 21
576.957944
 31
0.0
  0
LINE
  5
1E6
100
AcDbEntity
  8
0
  6
BYBLOCK
 62
     4
100
AcDbLine
 10
754.586529
 20
602.357944
 30
0.0
 11
779.628629
 21
602.357944
 31
0.0
  0
LINE
  5
1E7
100
AcDbEntity
  8
0
  6
BYBLOCK
 62
     4
100
AcDbLine
 10
777.128629
 20
579.957944
 30
0.0
 11
777.128629
 21
599.357944
 31
0.0
  0
SOLID
  5
1E8
100
AcDbEntity
  8
0
  6
BYBLOCK
 62
     4
100
AcDbTrace
 10
776.628629
 20
579.957944
 30
0.0
 11
777.628629
 21
579.957944
 31
0.0
 12
777.128629
 22
576.957944
 32
0.0
 13
777.128629
 23
576.957944
 33
0.0
  0
SOLID
  5
1E9
100
AcDbEntity
  8
0
  6
BYBLOCK
 62
     4
100
AcDbTrace
 10
776.628629
 20
599.357944
 30
0.0
 11
777.628629
 21
599.357944
 31
0.0
 12
777.128629
 22
602.357944
 32
0.0
 13
777.128629
 23
602.357944
 33
0.0
  0
MTEXT
  5
1EA
100
AcDbEntity
  8
0
  6
BYBLOCK
 62
     2
100
AcDbMText
 10
774.128629
 20
591.65936
 30
0.0
 40
3.0
 41
0.0
 71
     5
 72
     1
  1
\A1;25.40
 11
0.0
 21
1.0
 31
0.0
  0
POINT
  5
1EB
100
AcDbEntity
  8
DEFPOINTS
  6
BYBLOCK
 62
     0
100
AcDbPoint
 10
754.586529
 20
576.957944
 30
0.0
  0
POINT
  5
1EC
100
AcDbEntity
  8
DEFPOINTS
  6
BYBLOCK
 62
     0
100
AcDbPoint
 10
753.586529
 20
602.357944
 30
0.0
  0
POINT
  5
1ED
100
AcDbEntity
  8
DEFPOINTS
  6
BYBLOCK
 62
     0
100
AcDbPoint
 10
777.128629
 20
602.357944
 30
0.0
  0
ENDBLK
  5
1EF
100
AcDbEntity
  8
0
100
AcDbBlockEnd
  0
BLOCK
  5
171
100
AcDbEntity
  8
0
100
AcDbBlockBegin
  2
*D6
 70
     1
 10
0.0
 20
0.0
 30
0.0
  3
*D6
  1

  0
LINE
  5
168
100
AcDbEntity
  8
0
  6
BYBLOCK
 62
     4
100
AcDbLine
 10
474.968567
 20
179.279792
 30
0.0
 11
474.968567
 21
142.167644
 31
0.0
  0
LINE
  5
169
100
AcDbEntity
  8
0
  6
BYBLOCK
 62
     4
100
AcDbLine
 10
514.968567
 20
179.279792
 30
0.0
 11
514.968567
 21
142.167644
 31
0.0
  0
LINE
  5
16A
100
AcDbEntity
  8
0
  6
BYBLOCK
 62
     4
100
AcDbLine
 10
477.968567
 20
144.667644
 30
0.0
 11
511.968567
 21
144.667644
 31
0.0
  0
SOLID
  5
16B
100
AcDbEntity
  8
0
  6
BYBLOCK
 62
     4
100
AcDbTrace
 10
477.968567
 20
145.167644
 30
0.0
 11
477.968567
 21
144.167644
 31
0.0
 12
474.968567
 22
144.667644
 32
0.0
 13
474.968567
 23
144.667644
 33
0.0
  0
SOLID
  5
16C
100
AcDbEntity
  8
0
  6
BYBLOCK
 62
     4
100
AcDbTrace
 10
511.968567
 20
145.167644
 30
0.0
 11
511.968567
 21
144.167644
 31
0.0
 12
514.968567
 22
144.667644
 32
0.0
 13
514.968567
 23
144.667644
 33
0.0
  0
MTEXT
  5
16D
100
AcDbEntity
  8
0
  6
BYBLOCK
 62
     2
100
AcDbMText
 10
494.968567
 20
147.667644
 30
0.0
 40
3.0
 41
0.0
 71
     5
 72
     1
  1
\A1;\U+220540.00 H7
  0
POINT
  5
16E
100
AcDbEntity
  8
DEFPOINTS
  6
BYBLOCK
 62
     0
100
AcDbPoint
 10
474.968567
 20
180.279792
 30
0.0
  0
POINT
  5
16F
100
AcDbEntity
  8
DEFPOINTS
  6
BYBLOCK
 62
     0
100
AcDbPoint
 10
514.968567
 20
180.279792
 30
0.0
  0
POINT
  5
170
100
AcDbEntity
  8
DEFPOINTS
  6
BYBLOCK
 62
     0
100
AcDbPoint
 10
514.968567
 20
144.667644
 30
0.0
  0
ENDBLK
  5
172
100
AcDbEntity
  8
0
100
AcDbBlockEnd
  0
BLOCK
  5
15C
100
AcDbEntity
  8
0
100
AcDbBlockBegin
  2
*D7
 70
     1
 10
0.0
 20
0.0
 30
0.0
  3
*D7
  1

  0
LINE
  5
153
100
AcDbEntity
  8
0
  6
BYBLOCK
 62
     4
100
AcDbLine
 10
682.341868
 20
665.747034
 30
0.0
 11
682.341868
 21
729.416679
 31
0.0
  0
LINE
  5
154
100
AcDbEntity
  8
0
  6
BYBLOCK
 62
     4
100
AcDbLine
 10
607.341868
 20
665.747034
 30
0.0
 11
607.341868
 21
729.416679
 31
0.0
  0
LINE
  5
155
100
AcDbEntity
  8
0
  6
BYBLOCK
 62
     4
100
AcDbLine
 10
679.341868
 20
726.916679
 30
0.0
 11
610.341868
 21
726.916679
 31
0.0
  0
SOLID
  5
156
100
AcDbEntity
  8
0
  6
BYBLOCK
 62
     4
100
AcDbTrace
 10
679.341868
 20
727.416679
 30
0.0
 11
679.341868
 21
726.416679
 31
0.0
 12
682.341868
 22
726.916679
 32
0.0
 13
682.341868
 23
726.916679
 33
0.0
  0
SOLID
  5
157
100
AcDbEntity
  8
0
  6
BYBLOCK
 62
     4
100
AcDbTrace
 10
610.341868
 20
727.416679
 30
0.0
 11
610.341868
 21
726.416679
 31
0.0
 12
607.341868
 22
726.916679
 32
0.0
 13
607.341868
 23
726.916679
 33
0.0
  0
MTEXT
  5
158
100
AcDbEntity
  8
0
  6
BYBLOCK
 62
     2
100
AcDbMText
 10
644.841868
 20
729.916679
 30
0.0
 40
3.0
 41
0.0
 71
     5
 72
     1
  1
\A1;B=75.00
  0
POINT
  5
159
100
AcDbEntity
  8
DEFPOINTS
  6
BYBLOCK
 62
     0
100
AcDbPoint
 10
682.341868
 20
664.747034
 30
0.0
  0
POINT
  5
15A
100
AcDbEntity
  8
DEFPOINTS
  6
BYBLOCK
 62
     0
100
AcDbPoint
 10
607.341868
 20
664.747034
 30
0.0
  0
POINT
  5
15B
100
AcDbEntity
  8
DEFPOINTS
  6
BYBLOCK
 62
     0
100
AcDbPoint
 10
607.341868
 20
726.916679
 30
0.0
  0
ENDBLK
  5
15D
100
AcDbEntity
  8
0
100
AcDbBlockEnd
  0
BLOCK
  5
14F
100
AcDbEntity
  8
0
100
AcDbBlockBegin
  2
*D8
 70
     1
 10
0.0
 20
0.0
 30
0.0
  3
*D8
  1

  0
LINE
  5
147
100
AcDbEntity
  8
0
  6
BYBLOCK
 62
     4
100
AcDbLine
 10
532.341868
 20
665.747034
 30
0.0
 11
532.341868
 21
729.416679
 31
0.0
  0
LINE
  5
148
100
AcDbEntity
  8
0
  6
BYBLOCK
 62
     4
100
AcDbLine
 10
604.341868
 20
726.916679
 30
0.0
 11
535.341868
 21
726.916679
 31
0.0
  0
SOLID
  5
149
100
AcDbEntity
  8
0
  6
BYBLOCK
 62
     4
100
AcDbTrace
 10
604.341868
 20
727.416679
 30
0.0
 11
604.341868
 21
726.416679
 31
0.0
 12
607.341868
 22
726.916679
 32
0.0
 13
607.341868
 23
726.916679
 33
0.0
  0
SOLID
  5
14A
100
AcDbEntity
  8
0
  6
BYBLOCK
 62
     4
100
AcDbTrace
 10
535.341868
 20
727.416679
 30
0.0
 11
535.341868
 21
726.416679
 31
0.0
 12
532.341868
 22
726.916679
 32
0.0
 13
532.341868
 23
726.916679
 33
0.0
  0
MTEXT
  5
14B
100
AcDbEntity
  8
0
  6
BYBLOCK
 62
     2
100
AcDbMText
 10
569.841868
 20
729.916679
 30
0.0
 40
3.0
 41
0.0
 71
     5
 72
     1
  1
\A1;D=75.00
  0
POINT
  5
14C
100
AcDbEntity
  8
DEFPOINTS
  6
BYBLOCK
 62
     0
100
AcDbPoint
 10
607.341868
 20
664.747034
 30
0.0
  0
POINT
  5
14D
100
AcDbEntity
  8
DEFPOINTS
  6
BYBLOCK
 62
     0
100
AcDbPoint
 10
532.341868
 20
664.747034
 30
0.0
  0
POINT
  5
14E
100
AcDbEntity
  8
DEFPOINTS
  6
BYBLOCK
 62
     0
100
AcDbPoint
 10
532.341868
 20
726.916679
 30
0.0
  0
ENDBLK
  5
150
100
AcDbEntity
  8
0
100
AcDbBlockEnd
  0
BLOCK
  5
143
100
AcDbEntity
  8
0
100
AcDbBlockBegin
  2
*D9
 70
     1
 10
0.0
 20
0.0
 30
0.0
  3
*D9
  1

  0
LINE
  5
13B
100
AcDbEntity
  8
0
  6
BYBLOCK
 62
     4
100
AcDbLine
 10
457.341868
 20
665.747034
 30
0.0
 11
457.341868
 21
729.416679
 31
0.0
  0
LINE
  5
13C
100
AcDbEntity
  8
0
  6
BYBLOCK
 62
     4
100
AcDbLine
 10
529.341868
 20
726.916679
 30
0.0
 11
460.341868
 21
726.916679
 31
0.0
  0
SOLID
  5
13D
100
AcDbEntity
  8
0
  6
BYBLOCK
 62
     4
100
AcDbTrace
 10
529.341868
 20
727.416679
 30
0.0
 11
529.341868
 21
726.416679
 31
0.0
 12
532.341868
 22
726.916679
 32
0.0
 13
532.341868
 23
726.916679
 33
0.0
  0
SOLID
  5
13E
100
AcDbEntity
  8
0
  6
BYBLOCK
 62
     4
100
AcDbTrace
 10
460.341868
 20
727.416679
 30
0.0
 11
460.341868
 21
726.416679
 31
0.0
 12
457.341868
 22
726.916679
 32
0.0
 13
457.341868
 23
726.916679
 33
0.0
  0
MTEXT
  5
13F
100
AcDbEntity
  8
0
  6
BYBLOCK
 62
     2
100
AcDbMText
 10
494.841868
 20
729.916679
 30
0.0
 40
3.0
 41
0.0
 71
     5
 72
     1
  1
\A1;B=75.00
  0
POINT
  5
140
100
AcDbEntity
  8
DEFPOINTS
  6
BYBLOCK
 62
     0
100
AcDbPoint
 10
532.341868
 20
664.747034
 30
0.0
  0
POINT
  5
141
100
AcDbEntity
  8
DEFPOINTS
  6
BYBLOCK
 62
     0
100
AcDbPoint
 10
457.341868
 20
664.747034
 30
0.0
  0
POINT
  5
142
100
AcDbEntity
  8
DEFPOINTS
  6
BYBLOCK
 62
     0
100
AcDbPoint
 10
457.341868
 20
726.916679
 30
0.0
  0
ENDBLK
  5
144
100
AcDbEntity
  8
0
100
AcDbBlockEnd
  0
BLOCK
  5
137
100
AcDbEntity
  8
0
100
AcDbBlockBegin
  2
*D10
 70
     1
 10
0.0
 20
0.0
 30
0.0
  3
*D10
  1

  0
LINE
  5
12E
100
AcDbEntity
  8
0
  6
BYBLOCK
 62
     4
100
AcDbLine
 10
432.341868
 20
628.247034
 30
0.0
 11
432.341868
 21
702.429694
 31
0.0
  0
LINE
  5
12F
100
AcDbEntity
  8
0
  6
BYBLOCK
 62
     4
100
AcDbLine
 10
707.341868
 20
628.247034
 30
0.0
 11
707.341868
 21
702.429694
 31
0.0
  0
LINE
  5
130
100
AcDbEntity
  8
0
  6
BYBLOCK
 62
     4
100
AcDbLine
 10
435.341868
 20
699.929694
 30
0.0
 11
704.341868
 21
699.929694
 31
0.0
  0
SOLID
  5
131
100
AcDbEntity
  8
0
  6
BYBLOCK
 62
     4
100
AcDbTrace
 10
435.341868
 20
700.429694
 30
0.0
 11
435.341868
 21
699.429694
 31
0.0
 12
432.341868
 22
699.929694
 32
0.0
 13
432.341868
 23
699.929694
 33
0.0
  0
SOLID
  5
132
100
AcDbEntity
  8
0
  6
BYBLOCK
 62
     4
100
AcDbTrace
 10
704.341868
 20
700.429694
 30
0.0
 11
704.341868
 21
699.429694
 31
0.0
 12
707.341868
 22
699.929694
 32
0.0
 13
707.341868
 23
699.929694
 33
0.0
  0
MTEXT
  5
133
100
AcDbEntity
  8
0
  6
BYBLOCK
 62
     2
100
AcDbMText
 10
569.841868
 20
702.929694
 30
0.0
 40
3.0
 41
0.0
 71
     5
 72
     1
  1
\A1;L1=275.00
  0
POINT
  5
134
100
AcDbEntity
  8
DEFPOINTS
  6
BYBLOCK
 62
     0
100
AcDbPoint
 10
432.341868
 20
627.247034
 30
0.0
  0
POINT
  5
135
100
AcDbEntity
  8
DEFPOINTS
  6
BYBLOCK
 62
     0
100
AcDbPoint
 10
707.341868
 20
627.247034
 30
0.0
  0
POINT
  5
136
100
AcDbEntity
  8
DEFPOINTS
  6
BYBLOCK
 62
     0
100
AcDbPoint
 10
707.341868
 20
699.929694
 30
0.0
  0
ENDBLK
  5
138
100
AcDbEntity
  8
0
100
AcDbBlockEnd
  0
BLOCK
  5
12A
100
AcDbEntity
  8
0
100
AcDbBlockBegin
  2
*D11
 70
     1
 10
0.0
 20
0.0
 30
0.0
  3
*D11
  1

  0
LINE
  5
121
100
AcDbEntity
  8
0
  6
BYBLOCK
 62
     4
100
AcDbLine
 10
700.041868
 20
644.747034
 30
0.0
 11
852.504135
 21
644.747034
 31
0.0
  0
LINE
  5
122
100
AcDbEntity
  8
0
  6
BYBLOCK
 62
     4
100
AcDbLine
 10
700.041868
 20
569.747034
 30
0.0
 11
852.504135
 21
569.747034
 31
0.0
  0
LINE
  5
123
100
AcDbEntity
  8
0
  6
BYBLOCK
 62
     4
100
AcDbLine
 10
850.004135
 20
641.747034
 30
0.0
 11
850.004135
 21
572.747034
 31
0.0
  0
SOLID
  5
124
100
AcDbEntity
  8
0
  6
BYBLOCK
 62
     4
100
AcDbTrace
 10
849.504135
 20
641.747034
 30
0.0
 11
850.504135
 21
641.747034
 31
0.0
 12
850.004135
 22
644.747034
 32
0.0
 13
850.004135
 23
644.747034
 33
0.0
  0
SOLID
  5
125
100
AcDbEntity
  8
0
  6
BYBLOCK
 62
     4
100
AcDbTrace
 10
849.504135
 20
572.747034
 30
0.0
 11
850.504135
 21
572.747034
 31
0.0
 12
850.004135
 22
569.747034
 32
0.0
 13
850.004135
 23
569.747034
 33
0.0
  0
MTEXT
  5
126
100
AcDbEntity
  8
0
  6
BYBLOCK
 62
     2
100
AcDbMText
 10
847.004135
 20
607.247034
 30
0.0
 40
3.0
 41
0.0
 71
     5
 72
     1
  1
\A1;A=75.00
 11
0.0
 21
1.0
 31
0.0
  0
POINT
  5
127
100
AcDbEntity
  8
DEFPOINTS
  6
BYBLOCK
 62
     0
100
AcDbPoint
 10
699.041868
 20
644.747034
 30
0.0
  0
POINT
  5
128
100
AcDbEntity
  8
DEFPOINTS
  6
BYBLOCK
 62
     0
100
AcDbPoint
 10
699.041868
 20
569.747034
 30
0.0
  0
POINT
  5
129
100
AcDbEntity
  8
DEFPOINTS
  6
BYBLOCK
 62
     0
100
AcDbPoint
 10
850.004135
 20
569.747034
 30
0.0
  0
ENDBLK
  5
12B
100
AcDbEntity
  8
0
100
AcDbBlockEnd
  0
BLOCK
  5
11D
100
AcDbEntity
  8
0
100
AcDbBlockBegin
  2
*D12
 70
     1
 10
0.0
 20
0.0
 30
0.0
  3
*D12
  1

  0
LINE
  5
115
100
AcDbEntity
  8
0
  6
BYBLOCK
 62
     4
100
AcDbLine
 10
700.041868
 20
494.747034
 30
0.0
 11
852.504135
 21
494.747034
 31
0.0
  0
LINE
  5
116
100
AcDbEntity
  8
0
  6
BYBLOCK
 62
     4
100
AcDbLine
 10
850.004135
 20
566.747034
 30
0.0
 11
850.004135
 21
497.747034
 31
0.0
  0
SOLID
  5
117
100
AcDbEntity
  8
0
  6
BYBLOCK
 62
     4
100
AcDbTrace
 10
849.504135
 20
566.747034
 30
0.0
 11
850.504135
 21
566.747034
 31
0.0
 12
850.004135
 22
569.747034
 32
0.0
 13
850.004135
 23
569.747034
 33
0.0
  0
SOLID
  5
118
100
AcDbEntity
  8
0
  6
BYBLOCK
 62
     4
100
AcDbTrace
 10
849.504135
 20
497.747034
 30
0.0
 11
850.504135
 21
497.747034
 31
0.0
 12
850.004135
 22
494.747034
 32
0.0
 13
850.004135
 23
494.747034
 33
0.0
  0
MTEXT
  5
119
100
AcDbEntity
  8
0
  6
BYBLOCK
 62
     2
100
AcDbMText
 10
847.004135
 20
532.247034
 30
0.0
 40
3.0
 41
0.0
 71
     5
 72
     1
  1
\A1;C=75.00
 11
0.0
 21
1.0
 31
0.0
  0
POINT
  5
11A
100
AcDbEntity
  8
DEFPOINTS
  6
BYBLOCK
 62
     0
100
AcDbPoint
 10
759.415129
 20
569.747034
 30
0.0
  0
POINT
  5
11B
100
AcDbEntity
  8
DEFPOINTS
  6
BYBLOCK
 62
     0
100
AcDbPoint
 10
699.041868
 20
494.747034
 30
0.0
  0
POINT
  5
11C
100
AcDbEntity
  8
DEFPOINTS
  6
BYBLOCK
 62
     0
100
AcDbPoint
 10
850.004135
 20
494.747034
 30
0.0
  0
ENDBLK
  5
11E
100
AcDbEntity
  8
0
100
AcDbBlockEnd
  0
BLOCK
  5
111
100
AcDbEntity
  8
0
100
AcDbBlockBegin
  2
*D13
 70
     1
 10
0.0
 20
0.0
 30
0.0
  3
*D13
  1

  0
LINE
  5
109
100
AcDbEntity
  8
0
  6
BYBLOCK
 62
     4
100
AcDbLine
 10
700.041868
 20
419.747034
 30
0.0
 11
852.504135
 21
419.747034
 31
0.0
  0
LINE
  5
10A
100
AcDbEntity
  8
0
  6
BYBLOCK
 62
     4
100
AcDbLine
 10
850.004135
 20
491.747034
 30
0.0
 11
850.004135
 21
422.747034
 31
0.0
  0
SOLID
  5
10B
100
AcDbEntity
  8
0
  6
BYBLOCK
 62
     4
100
AcDbTrace
 10
849.504135
 20
491.747034
 30
0.0
 11
850.504135
 21
491.747034
 31
0.0
 12
850.004135
 22
494.747034
 32
0.0
 13
850.004135
 23
494.747034
 33
0.0
  0
SOLID
  5
10C
100
AcDbEntity
  8
0
  6
BYBLOCK
 62
     4
100
AcDbTrace
 10
849.504135
 20
422.747034
 30
0.0
 11
850.504135
 21
422.747034
 31
0.0
 12
850.004135
 22
419.747034
 32
0.0
 13
850.004135
 23
419.747034
 33
0.0
  0
MTEXT
  5
10D
100
AcDbEntity
  8
0
  6
BYBLOCK
 62
     2
100
AcDbMText
 10
847.004135
 20
457.247034
 30
0.0
 40
3.0
 41
0.0
 71
     5
 72
     1
  1
\A1;A=75.00
 11
0.0
 21
1.0
 31
0.0
  0
POINT
  5
10E
100
AcDbEntity
  8
DEFPOINTS
  6
BYBLOCK
 62
     0
100
AcDbPoint
 10
699.041868
 20
494.747034
 30
0.0
  0
POINT
  5
10F
100
AcDbEntity
  8
DEFPOINTS
  6
BYBLOCK
 62
     0
100
AcDbPoint
 10
699.041868
 20
419.747034
 30
0.0
  0
POINT
  5
110
100
AcDbEntity
  8
DEFPOINTS
  6
BYBLOCK
 62
     0
100
AcDbPoint
 10
850.004135
 20
419.747034
 30
0.0
  0
ENDBLK
  5
112
100
AcDbEntity
  8
0
100
AcDbBlockEnd
  0
BLOCK
  5
105
100
AcDbEntity
  8
0
100
AcDbBlockBegin
  2
*D14
 70
     1
 10
0.0
 20
0.0
 30
0.0
  3
*D14
  1

  0
LINE
  5
FC
100
AcDbEntity
  8
0
  6
BYBLOCK
 62
     4
100
AcDbLine
 10
696.341868
 20
387.747034
 30
0.0
 11
862.081488
 21
387.747034
 31
0.0
  0
LINE
  5
FD
100
AcDbEntity
  8
0
  6
BYBLOCK
 62
     4
100
AcDbLine
 10
696.341868
 20
676.747034
 30
0.0
 11
862.081488
 21
676.747034
 31
0.0
  0
LINE
  5
FE
100
AcDbEntity
  8
0
  6
BYBLOCK
 62
     4
100
AcDbLine
 10
859.581488
 20
390.747034
 30
0.0
 11
859.581488
 21
673.747034
 31
0.0
  0
SOLID
  5
FF
100
AcDbEntity
  8
0
  6
BYBLOCK
 62
     4
100
AcDbTrace
 10
859.081488
 20
390.747034
 30
0.0
 11
860.081488
 21
390.747034
 31
0.0
 12
859.581488
 22
387.747034
 32
0.0
 13
859.581488
 23
387.747034
 33
0.0
  0
SOLID
  5
100
100
AcDbEntity
  8
0
  6
BYBLOCK
 62
     4
100
AcDbTrace
 10
859.081488
 20
673.747034
 30
0.0
 11
860.081488
 21
673.747034
 31
0.0
 12
859.581488
 22
676.747034
 32
0.0
 13
859.581488
 23
676.747034
 33
0.0
  0
MTEXT
  5
101
100
AcDbEntity
  8
0
  6
BYBLOCK
 62
     2
100
AcDbMText
 10
856.581488
 20
532.247034
 30
0.0
 40
3.0
 41
0.0
 71
     5
 72
     1
  1
\A1;L=289.00
 11
0.0
 21
1.0
 31
0.0
  0
POINT
  5
102
100
AcDbEntity
  8
DEFPOINTS
  6
BYBLOCK
 62
     0
100
AcDbPoint
 10
695.341868
 20
387.747034
 30
0.0
  0
POINT
  5
103
100
AcDbEntity
  8
DEFPOINTS
  6
BYBLOCK
 62
     0
100
AcDbPoint
 10
695.341868
 20
676.747034
 30
0.0
  0
POINT
  5
104
100
AcDbEntity
  8
DEFPOINTS
  6
BYBLOCK
 62
     0
100
AcDbPoint
 10
859.581488
 20
676.747034
 30
0.0
  0
ENDBLK
  5
106
100
AcDbEntity
  8
0
100
AcDbBlockEnd
  0
BLOCK
  5
38
100
AcDbEntity
  8
0
100
AcDbBlockBegin
  2
*D15
 70
     1
 10
0.0
 20
0.0
 30
0.0
  3
*D15
  1

  0
LINE
  5
2F
100
AcDbEntity
  8
0
  6
BYBLOCK
 62
     4
100
AcDbLine
 10
433.341868
 20
256.610727
 30
0.0
 11
397.506515
 21
256.610727
 31
0.0
  0
LINE
  5
30
100
AcDbEntity
  8
0
  6
BYBLOCK
 62
     4
100
AcDbLine
 10
433.341868
 20
209.610727
 30
0.0
 11
397.506515
 21
209.610727
 31
0.0
  0
LINE
  5
31
100
AcDbEntity
  8
0
  6
BYBLOCK
 62
     4
100
AcDbLine
 10
400.006515
 20
253.610727
 30
0.0
 11
400.006515
 21
212.610727
 31
0.0
  0
SOLID
  5
32
100
AcDbEntity
  8
0
  6
BYBLOCK
 62
     4
100
AcDbTrace
 10
399.506515
 20
253.610727
 30
0.0
 11
400.506515
 21
253.610727
 31
0.0
 12
400.006515
 22
256.610727
 32
0.0
 13
400.006515
 23
256.610727
 33
0.0
  0
SOLID
  5
33
100
AcDbEntity
  8
0
  6
BYBLOCK
 62
     4
100
AcDbTrace
 10
399.506515
 20
212.610727
 30
0.0
 11
400.506515
 21
212.610727
 31
0.0
 12
400.006515
 22
209.610727
 32
0.0
 13
400.006515
 23
209.610727
 33
0.0
  0
MTEXT
  5
34
100
AcDbEntity
  8
0
  6
BYBLOCK
 62
     2
100
AcDbMText
 10
397.006515
 20
233.110727
 30
0.0
 40
3.0
 41
0.0
 71
     5
 72
     1
  1
\A1;47.00
 11
0.0
 21
1.0
 31
0.0
  0
POINT
  5
35
100
AcDbEntity
  8
DEFPOINTS
  6
BYBLOCK
 62
     0
100
AcDbPoint
 10
434.341868
 20
256.610727
 30
0.0
  0
POINT
  5
36
100
AcDbEntity
  8
DEFPOINTS
  6
BYBLOCK
 62
     0
100
AcDbPoint
 10
434.341868
 20
209.610727
 30
0.0
  0
POINT
  5
37
100
AcDbEntity
  8
DEFPOINTS
  6
BYBLOCK
 62
     0
100
AcDbPoint
 10
400.006515
 20
209.610727
 30
0.0
  0
ENDBLK
  5
39
100
AcDbEntity
  8
0
100
AcDbBlockEnd
  0
ENDSEC
  0
SECTION
  2
ENTITIES
  0
POINT
  5
20
100
AcDbEntity
  8
DEFPOINTS
  6
BYBLOCK
 62
     0
100
AcDbPoint
 10
400.006515
 20
263.610727
 30
0.0
  0
SOLID
  5
22
100
AcDbEntity
  8
0
  6
BYBLOCK
 62
     4
100
AcDbTrace
 10
399.506515
 20
266.610727
 30
0.0
 11
400.506515
 21
266.610727
 31
0.0
 12
400.006515
 22
263.610727
 32
0.0
 13
400.006515
 23
263.610727
 33
0.0
  0
MTEXT
  5
23
100
AcDbEntity
  8
0
  6
BYBLOCK
 62
     2
100
AcDbMText
 10
396.580012
 20
268.877108
 30
0.0
 40
3.0
 41
0.0
 71
     4
 72
     1
  1
\A1;7.00
 11
0.0
 21
1.0
 31
0.0
  0
LINE
  5
24
100
AcDbEntity
  8
0
  6
BYBLOCK
 62
     4
100
AcDbLine
 10
400.006515
 20
266.610727
 30
0.0
 11
400.006515
 21
278.139763
 31
0.0
  0
LINE
  5
25
100
AcDbEntity
  8
0
  6
BYBLOCK
 62
     4
100
AcDbLine
 10
424.298817
 20
263.610727
 30
0.0
 11
397.506515
 21
263.610727
 31
0.0
  0
POINT
  5
26
100
AcDbEntity
  8
DEFPOINTS
  6
BYBLOCK
 62
     0
100
AcDbPoint
 10
400.006515
 20
202.610727
 30
0.0
  0
POINT
  5
27
100
AcDbEntity
  8
DEFPOINTS
  6
BYBLOCK
 62
     0
100
AcDbPoint
 10
413.828477
 20
202.610727
 30
0.0
  0
POINT
  5
28
100
AcDbEntity
  8
DEFPOINTS
  6
BYBLOCK
 62
     0
100
AcDbPoint
 10
434.341868
 20
209.610727
 30
0.0
  0
SOLID
  5
29
100
AcDbEntity
  8
0
  6
BYBLOCK
 62
     4
100
AcDbTrace
 10
399.506515
 20
199.610727
 30
0.0
 11
400.506515
 21
199.610727
 31
0.0
 12
400.006515
 22
202.610727
 32
0.0
 13
400.006515
 23
202.610727
 33
0.0
  0
MTEXT
  5
2A
100
AcDbEntity
  8
0
  6
BYBLOCK
 62
     2
100
AcDbMText
 10
396.580012
 20
188.196729
 30
0.0
 40
3.0
 41
0.0
 71
     4
 72
     1
  1
\A1;7.00
 11
0.0
 21
1.0
 31
0.0
  0
LINE
  5
2B
100
AcDbEntity
  8
0
  6
BYBLOCK
 62
     4
100
AcDbLine
 10
400.006515
 20
199.610727
 30
0.0
 11
400.006515
 21
188.081691
 31
0.0
  0
LINE
  5
2C
100
AcDbEntity
  8
0
  6
BYBLOCK
 62
     4
100
AcDbLine
 10
412.828477
 20
202.610727
 30
0.0
 11
397.506515
 21
202.610727
 31
0.0
  0
DIMENSION
  5
2D
100
AcDbEntity
  8
DIMS
100
AcDbDimension
  2
*D15
 10
400.006515
 20
209.610727
 30
0.0
 11
397.006515
 21
233.110727
 31
0.0
  3
DIM1
100
AcDbAlignedDimension
 13
434.341868
 23
256.610727
 33
0.0
 14
434.341868
 24
209.610727
 34
0.0
 50
90.0
100
AcDbRotatedDimension
1001
ACAD
1000
DSTYLE
1002
{
1070
   144
1040
1.0
1002
}
  0
WIPEOUT
  5
3A
100
AcDbEntity
  8
TEXT
 92
      140
310
8C000000010000008400000006000000050000005E31037B6BE78540BFD356441A696B400000000000000000AE3878CB72648640BED356441A696B400000000000000000AE3878CB72648640BED356441AE96B4000000000000000005E31037B6BE78540BFD356441AE96B4000000000000000005E31037B6BE78540BFD356
310
441A696B400000000000000000
100
AcDbWipeout
 90
        0
 10
700.927481
 20
219.284456
 30
0.0
 11
15.628571
 21
0.0
 31
0.0
 12
0.0
 22
15.628571
 32
0.0
 13
0.0
 23
0.0
340
0
 70
     7
280
     1
281
    50
282
    50
283
     0
360
0
 71
     2
 91
        5
 14
-0.5
 24
0.5
 14
0.5
 24
0.5
 14
0.5
 24
0.244059
 14
-0.5
 24
0.244059
 14
-0.5
 24
0.5
  0
TEXT
  5
3C
100
AcDbEntity
  8
TEXT
100
AcDbText
 10
701.927481
 20
220.284456
 30
0.0
 40
2.0
  1
MM010044
 41
0.9
100
AcDbText
  0
LINE
  5
3D
100
AcDbEntity
  8
CENTRE
100
AcDbLine
 10
457.341868
 20
399.747034
 30
0.0
 11
457.341868
 21
514.747034
 31
0.0
  0
LINE
  5
40
100
AcDbEntity
  8
CENTRE
100
AcDbLine
 10
532.341868
 20
399.747034
 30
0.0
 11
532.341868
 21
514.747034
 31
0.0
  0
LINE
  5
41
100
AcDbEntity
  8
DIMS
 62
     4
100
AcDbLine
 10
460.741868
 20
494.747034
 30
0.0
 11
474.041868
 21
494.747034
 31
0.0
  0
LINE
  5
42
100
AcDbEntity
  8
DIMS
 62
     4
100
AcDbLine
 10
453.941868
 20
494.747034
 30
0.0
 11
440.641868
 21
494.747034
 31
0.0
  0
LINE
  5
43
100
AcDbEntity
  8
DIMS
 62
     4
100
AcDbLine
 10
455.641868
 20
494.747034
 30
0.0
 11
459.041868
 21
494.747034
 31
0.0
  0
LINE
  5
44
100
AcDbEntity
  8
DIMS
 62
     4
100
AcDbLine
 10
528.941868
 20
494.747034
 30
0.0
 11
515.641868
 21
494.747034
 31
0.0
  0
LINE
  5
45
100
AcDbEntity
  8
DIMS
 62
     4
100
AcDbLine
 10
535.741868
 20
494.747034
 30
0.0
 11
549.041868
 21
494.747034
 31
0.0
  0
LINE
  5
46
100
AcDbEntity
  8
DIMS
 62
     4
100
AcDbLine
 10
534.041868
 20
494.747034
 30
0.0
 11
530.641868
 21
494.747034
 31
0.0
  0
LINE
  5
47
100
AcDbEntity
  8
DIMS
 62
     4
100
AcDbLine
 10
528.941868
 20
419.747034
 30
0.0
 11
524.829981
 21
419.747034
 31
0.0
  0
LINE
  5
48
100
AcDbEntity
  8
DIMS
 62
     4
100
AcDbLine
 10
535.741868
 20
419.747034
 30
0.0
 11
549.041868
 21
419.747034
 31
0.0
  0
LINE
  5
49
100
AcDbEntity
  8
DIMS
 62
     4
100
AcDbLine
 10
534.041868
 20
419.747034
 30
0.0
 11
530.641868
 21
419.747034
 31
0.0
  0
CIRCLE
  5
4A
100
AcDbEntity
  8
M03
100
AcDbCircle
 10
457.341868
 20
494.747034
 30
0.0
 40
2.25
  0
CIRCLE
  5
4D
100
AcDbEntity
  8
M03
100
AcDbCircle
 10
457.341868
 20
494.747034
 30
0.0
 40
15.0
  0
CIRCLE
  5
4E
100
AcDbEntity
  8
M03
100
AcDbCircle
 10
457.341868
 20
494.747034
 30
0.0
 40
14.0
  0
ARC
  5
4F
100
AcDbEntity
  8
M03
100
AcDbCircle
 10
457.341868
 20
494.747034
 30
0.0
 40
3.0
100
AcDbArc
 50
173.076897
 51
102.215364
  0
LINE
  5
50
100
AcDbEntity
  8
M03
100
AcDbLine
 10
456.791868
 20
488.772296
 30
0.0
 11
456.791868
 21
500.721773
 31
0.0
  0
LINE
  5
51
100
AcDbEntity
  8
M03
100
AcDbLine
 10
457.891868
 20
488.772296
 30
0.0
 11
457.891868
 21
500.721773
 31
0.0
  0
CIRCLE
  5
52
100
AcDbEntity
  8
M03
100
AcDbCircle
 10
457.341868
 20
494.747034
 30
0.0
 40
7.858882
  0
CIRCLE
  5
53
100
AcDbEntity
  8
M03
100
AcDbCircle
 10
457.341868
 20
494.747034
 30
0.0
 40
6.0
  0
CIRCLE
  5
54
100
AcDbEntity
  8
M03
100
AcDbCircle
 10
457.341868
 20
419.747034
 30
0.0
 40
2.25
  0
CIRCLE
  5
55
100
AcDbEntity
  8
M03
100
AcDbCircle
 10
457.341868
 20
419.747034
 30
0.0
 40
15.0
  0
CIRCLE
  5
56
100
AcDbEntity
  8
M03
100
AcDbCircle
 10
457.341868
 20
419.747034
 30
0.0
 40
14.0
  0
ARC
  5
57
100
AcDbEntity
  8
M03
100
AcDbCircle
 10
457.341868
 20
419.747034
 30
0.0
 40
3.0
100
AcDbArc
 50
257.784636
 51
186.923103
  0
LINE
  5
58
100
AcDbEntity
  8
M03
100
AcDbLine
 10
456.791868
 20
425.721773
 30
0.0
 11
456.791868
 21
413.772296
 31
0.0
  0
LINE
  5
59
100
AcDbEntity
  8
M03
100
AcDbLine
 10
457.891868
 20
425.721773
 30
0.0
 11
457.891868
 21
413.772296
 31
0.0
  0
CIRCLE
  5
5A
100
AcDbEntity
  8
M03
100
AcDbCircle
 10
457.341868
 20
419.747034
 30
0.0
 40
7.858882
  0
CIRCLE
  5
5B
100
AcDbEntity
  8
M03
100
AcDbCircle
 10
457.341868
 20
419.747034
 30
0.0
 40
6.0
  0
CIRCLE
  5
5C
100
AcDbEntity
  8
M03
100
AcDbCircle
 10
532.341868
 20
494.747034
 30
0.0
 40
2.25
  0
CIRCLE
  5
5D
100
AcDbEntity
  8
M03
100
AcDbCircle
 10
532.341868
 20
494.747034
 30
0.0
 40
15.0
  0
CIRCLE
  5
5E
100
AcDbEntity
  8
M03
100
AcDbCircle
 10
532.341868
 20
494.747034
 30
0.0
 40
14.0
  0
ARC
  5
5F
100
AcDbEntity
  8
M03
100
AcDbCircle
 10
532.341868
 20
494.747034
 30
0.0
 40
3.0
100
AcDbArc
 50
77.784636
 51
6.923103
  0
LINE
  5
60
100
AcDbEntity
  8
M03
100
AcDbLine
 10
532.891868
 20
488.772296
 30
0.0
 11
532.891868
 21
500.721773
 31
0.0
  0
LINE
  5
61
100
AcDbEntity
  8
M03
100
AcDbLine
 10
531.791868
 20
488.772296
 30
0.0
 11
531.791868
 21
500.721773
 31
0.0
  0
CIRCLE
  5
62
100
AcDbEntity
  8
M03
100
AcDbCircle
 10
532.341868
 20
494.747034
 30
0.0
 40
7.858882
  0
CIRCLE
  5
63
100
AcDbEntity
  8
M03
100
AcDbCircle
 10
532.341868
 20
494.747034
 30
0.0
 40
6.0
  0
CIRCLE
  5
64
100
AcDbEntity
  8
M03
100
AcDbCircle
 10
532.341868
 20
419.747034
 30
0.0
 40
2.25
  0
CIRCLE
  5
65
100
AcDbEntity
  8
M03
100
AcDbCircle
 10
532.341868
 20
419.747034
 30
0.0
 40
15.0
  0
CIRCLE
  5
66
100
AcDbEntity
  8
M03
100
AcDbCircle
 10
532.341868
 20
419.747034
 30
0.0
 40
14.0
  0
ARC
  5
67
100
AcDbEntity
  8
M03
100
AcDbCircle
 10
532.341868
 20
419.747034
 30
0.0
 40
3.0
100
AcDbArc
 50
353.076897
 51
282.215364
  0
LINE
  5
68
100
AcDbEntity
  8
M03
100
AcDbLine
 10
532.891868
 20
425.721773
 30
0.0
 11
532.891868
 21
413.772296
 31
0.0
  0
LINE
  5
69
100
AcDbEntity
  8
M03
100
AcDbLine
 10
531.791868
 20
425.721773
 30
0.0
 11
531.791868
 21
413.772296
 31
0.0
  0
CIRCLE
  5
6A
100
AcDbEntity
  8
M03
100
AcDbCircle
 10
532.341868
 20
419.747034
 30
0.0
 40
7.858882
  0
CIRCLE
  5
6B
100
AcDbEntity
  8
M03
100
AcDbCircle
 10
532.341868
 20
419.747034
 30
0.0
 40
6.0
  0
CIRCLE
  5
6C
100
AcDbEntity
  8
M01
100
AcDbCircle
 10
457.341868
 20
494.747034
 30
0.0
 40
4.0
  0
CIRCLE
  5
6E
100
AcDbEntity
  8
M01
100
AcDbCircle
 10
532.341868
 20
494.747034
 30
0.0
 40
4.0
  0
CIRCLE
  5
6F
100
AcDbEntity
  8
M01
100
AcDbCircle
 10
457.341868
 20
419.747034
 30
0.0
 40
4.0
  0
CIRCLE
  5
70
100
AcDbEntity
  8
M01
100
AcDbCircle
 10
532.341868
 20
419.747034
 30
0.0
 40
4.0
  0
LINE
  5
71
100
AcDbEntity
  8
DIMS
 62
     4
100
AcDbLine
 10
460.741868
 20
569.747034
 30
0.0
 11
474.041868
 21
569.747034
 31
0.0
  0
LINE
  5
72
100
AcDbEntity
  8
DIMS
 62
     4
100
AcDbLine
 10
453.941868
 20
569.747034
 30
0.0
 11
440.641868
 21
569.747034
 31
0.0
  0
LINE
  5
73
100
AcDbEntity
  8
DIMS
 62
     4
100
AcDbLine
 10
455.641868
 20
569.747034
 30
0.0
 11
459.041868
 21
569.747034
 31
0.0
  0
LINE
  5
74
100
AcDbEntity
  8
DIMS
 62
     4
100
AcDbLine
 10
460.741868
 20
644.747034
 30
0.0
 11
474.041868
 21
644.747034
 31
0.0
  0
LINE
  5
75
100
AcDbEntity
  8
DIMS
 62
     4
100
AcDbLine
 10
453.941868
 20
644.747034
 30
0.0
 11
440.641868
 21
644.747034
 31
0.0
  0
LINE
  5
76
100
AcDbEntity
  8
DIMS
 62
     4
100
AcDbLine
 10
455.641868
 20
644.747034
 30
0.0
 11
459.041868
 21
644.747034
 31
0.0
  0
LINE
  5
77
100
AcDbEntity
  8
CENTRE
100
AcDbLine
 10
457.341868
 20
664.747034
 30
0.0
 11
457.341868
 21
549.747034
 31
0.0
  0
LINE
  5
78
100
AcDbEntity
  8
DIMS
 62
     4
100
AcDbLine
 10
528.941868
 20
569.747034
 30
0.0
 11
515.641868
 21
569.747034
 31
0.0
  0
LINE
  5
79
100
AcDbEntity
  8
DIMS
 62
     4
100
AcDbLine
 10
535.741868
 20
569.747034
 30
0.0
 11
549.041868
 21
569.747034
 31
0.0
  0
LINE
  5
7A
100
AcDbEntity
  8
DIMS
 62
     4
100
AcDbLine
 10
534.041868
 20
569.747034
 30
0.0
 11
530.641868
 21
569.747034
 31
0.0
  0
LINE
  5
7B
100
AcDbEntity
  8
DIMS
 62
     4
100
AcDbLine
 10
528.941868
 20
644.747034
 30
0.0
 11
515.641868
 21
644.747034
 31
0.0
  0
LINE
  5
7C
100
AcDbEntity
  8
DIMS
 62
     4
100
AcDbLine
 10
535.741868
 20
644.747034
 30
0.0
 11
549.041868
 21
644.747034
 31
0.0
  0
LINE
  5
7D
100
AcDbEntity
  8
DIMS
 62
     4
100
AcDbLine
 10
534.041868
 20
644.747034
 30
0.0
 11
530.641868
 21
644.747034
 31
0.0
  0
CIRCLE
  5
7E
100
AcDbEntity
  8
M03
100
AcDbCircle
 10
457.341868
 20
569.747034
 30
0.0
 40
2.25
  0
CIRCLE
  5
7F
100
AcDbEntity
  8
M03
100
AcDbCircle
 10
457.341868
 20
569.747034
 30
0.0
 40
15.0
  0
CIRCLE
  5
80
100
AcDbEntity
  8
M03
100
AcDbCircle
 10
457.341868
 20
569.747034
 30
0.0
 40
14.0
  0
ARC
  5
81
100
AcDbEntity
  8
M03
100
AcDbCircle
 10
457.341868
 20
569.747034
 30
0.0
 40
3.0
100
AcDbArc
 50
257.784636
 51
186.923103
  0
LINE
  5
82
100
AcDbEntity
  8
M03
100
AcDbLine
 10
456.791868
 20
575.721773
 30
0.0
 11
456.791868
 21
563.772296
 31
0.0
  0
LINE
  5
83
100
AcDbEntity
  8
M03
100
AcDbLine
 10
457.891868
 20
575.721773
 30
0.0
 11
457.891868
 21
563.772296
 31
0.0
  0
CIRCLE
  5
84
100
AcDbEntity
  8
M03
100
AcDbCircle
 10
457.341868
 20
569.747034
 30
0.0
 40
7.858882
  0
CIRCLE
  5
85
100
AcDbEntity
  8
M03
100
AcDbCircle
 10
457.341868
 20
569.747034
 30
0.0
 40
6.0
  0
CIRCLE
  5
86
100
AcDbEntity
  8
M03
100
AcDbCircle
 10
457.341868
 20
644.747034
 30
0.0
 40
2.25
  0
CIRCLE
  5
87
100
AcDbEntity
  8
M03
100
AcDbCircle
 10
457.341868
 20
644.747034
 30
0.0
 40
15.0
  0
CIRCLE
  5
88
100
AcDbEntity
  8
M03
100
AcDbCircle
 10
457.341868
 20
644.747034
 30
0.0
 40
14.0
  0
ARC
  5
89
100
AcDbEntity
  8
M03
100
AcDbCircle
 10
457.341868
 20
644.747034
 30
0.0
 40
3.0
100
AcDbArc
 50
173.076897
 51
102.215364
  0
LINE
  5
8A
100
AcDbEntity
  8
M03
100
AcDbLine
 10
456.791868
 20
638.772296
 30
0.0
 11
456.791868
 21
650.721773
 31
0.0
  0
LINE
  5
8B
100
AcDbEntity
  8
M03
100
AcDbLine
 10
457.891868
 20
638.772296
 30
0.0
 11
457.891868
 21
650.721773
 31
0.0
  0
CIRCLE
  5
8C
100
AcDbEntity
  8
M03
100
AcDbCircle
 10
457.341868
 20
644.747034
 30
0.0
 40
7.858882
  0
CIRCLE
  5
8D
100
AcDbEntity
  8
M03
100
AcDbCircle
 10
457.341868
 20
644.747034
 30
0.0
 40
6.0
  0
CIRCLE
  5
8E
100
AcDbEntity
  8
M03
100
AcDbCircle
 10
532.341868
 20
569.747034
 30
0.0
 40
2.25
  0
CIRCLE
  5
8F
100
AcDbEntity
  8
M03
100
AcDbCircle
 10
532.341868
 20
569.747034
 30
0.0
 40
15.0
  0
CIRCLE
  5
90
100
AcDbEntity
  8
M03
100
AcDbCircle
 10
532.341868
 20
569.747034
 30
0.0
 40
14.0
  0
ARC
  5
91
100
AcDbEntity
  8
M03
100
AcDbCircle
 10
532.341868
 20
569.747034
 30
0.0
 40
3.0
100
AcDbArc
 50
353.076897
 51
282.215364
  0
LINE
  5
92
100
AcDbEntity
  8
M03
100
AcDbLine
 10
532.891868
 20
575.721773
 30
0.0
 11
532.891868
 21
563.772296
 31
0.0
  0
LINE
  5
93
100
AcDbEntity
  8
M03
100
AcDbLine
 10
531.791868
 20
575.721773
 30
0.0
 11
531.791868
 21
563.772296
 31
0.0
  0
CIRCLE
  5
94
100
AcDbEntity
  8
M03
100
AcDbCircle
 10
532.341868
 20
569.747034
 30
0.0
 40
7.858882
  0
CIRCLE
  5
95
100
AcDbEntity
  8
M03
100
AcDbCircle
 10
532.341868
 20
569.747034
 30
0.0
 40
6.0
  0
CIRCLE
  5
96
100
AcDbEntity
  8
M03
100
AcDbCircle
 10
532.341868
 20
644.747034
 30
0.0
 40
2.25
  0
CIRCLE
  5
97
100
AcDbEntity
  8
M03
100
AcDbCircle
 10
532.341868
 20
644.747034
 30
0.0
 40
15.0
  0
CIRCLE
  5
98
100
AcDbEntity
  8
M03
100
AcDbCircle
 10
532.341868
 20
644.747034
 30
0.0
 40
14.0
  0
ARC
  5
99
100
AcDbEntity
  8
M03
100
AcDbCircle
 10
532.341868
 20
644.747034
 30
0.0
 40
3.0
100
AcDbArc
 50
77.784636
 51
6.923103
  0
LINE
  5
9A
100
AcDbEntity
  8
M03
100
AcDbLine
 10
532.891868
 20
638.772296
 30
0.0
 11
532.891868
 21
650.721773
 31
0.0
  0
LINE
  5
9B
100
AcDbEntity
  8
M03
100
AcDbLine
 10
531.791868
 20
638.772296
 30
0.0
 11
531.791868
 21
650.721773
 31
0.0
  0
CIRCLE
  5
9C
100
AcDbEntity
  8
M03
100
AcDbCircle
 10
532.341868
 20
644.747034
 30
0.0
 40
7.858882
  0
CIRCLE
  5
9D
100
AcDbEntity
  8
M03
100
AcDbCircle
 10
532.341868
 20
644.747034
 30
0.0
 40
6.0
  0
CIRCLE
  5
9E
100
AcDbEntity
  8
M01
100
AcDbCircle
 10
457.341868
 20
569.747034
 30
0.0
 40
4.0
  0
CIRCLE
  5
9F
100
AcDbEntity
  8
M01
100
AcDbCircle
 10
532.341868
 20
569.747034
 30
0.0
 40
4.0
  0
CIRCLE
  5
A0
100
AcDbEntity
  8
M01
100
AcDbCircle
 10
457.341868
 20
644.747034
 30
0.0
 40
4.0
  0
LINE
  5
A1
100
AcDbEntity
  8
CENTRE
100
AcDbLine
 10
532.341868
 20
664.747034
 30
0.0
 11
532.341868
 21
549.747034
 31
0.0
  0
CIRCLE
  5
A2
100
AcDbEntity
  8
M01
100
AcDbCircle
 10
532.341868
 20
644.747034
 30
0.0
 40
4.0
  0
LINE
  5
A3
100
AcDbEntity
  8
DIMS
 62
     4
100
AcDbLine
 10
678.941868
 20
494.747034
 30
0.0
 11
665.641868
 21
494.747034
 31
0.0
  0
LINE
  5
A4
100
AcDbEntity
  8
DIMS
 62
     4
100
AcDbLine
 10
685.741868
 20
494.747034
 30
0.0
 11
699.041868
 21
494.747034
 31
0.0
  0
LINE
  5
A5
100
AcDbEntity
  8
DIMS
 62
     4
100
AcDbLine
 10
684.041868
 20
494.747034
 30
0.0
 11
680.641868
 21
494.747034
 31
0.0
  0
LINE
  5
A6
100
AcDbEntity
  8
DIMS
 62
     4
100
AcDbLine
 10
678.941868
 20
419.747034
 30
0.0
 11
665.641868
 21
419.747034
 31
0.0
  0
LINE
  5
A7
100
AcDbEntity
  8
DIMS
 62
     4
100
AcDbLine
 10
685.741868
 20
419.747034
 30
0.0
 11
699.041868
 21
419.747034
 31
0.0
  0
LINE
  5
A8
100
AcDbEntity
  8
DIMS
 62
     4
100
AcDbLine
 10
684.041868
 20
419.747034
 30
0.0
 11
680.641868
 21
419.747034
 31
0.0
  0
LINE
  5
A9
100
AcDbEntity
  8
CENTRE
100
AcDbLine
 10
682.341868
 20
399.747034
 30
0.0
 11
682.341868
 21
514.747034
 31
0.0
  0
LINE
  5
AA
100
AcDbEntity
  8
DIMS
 62
     4
100
AcDbLine
 10
610.741868
 20
494.747034
 30
0.0
 11
624.041868
 21
494.747034
 31
0.0
  0
LINE
  5
AB
100
AcDbEntity
  8
DIMS
 62
     4
100
AcDbLine
 10
603.941868
 20
494.747034
 30
0.0
 11
590.641868
 21
494.747034
 31
0.0
  0
LINE
  5
AC
100
AcDbEntity
  8
DIMS
 62
     4
100
AcDbLine
 10
605.641868
 20
494.747034
 30
0.0
 11
609.041868
 21
494.747034
 31
0.0
  0
LINE
  5
AD
100
AcDbEntity
  8
DIMS
 62
     4
100
AcDbLine
 10
610.741868
 20
419.747034
 30
0.0
 11
624.041868
 21
419.747034
 31
0.0
  0
LINE
  5
AE
100
AcDbEntity
  8
DIMS
 62
     4
100
AcDbLine
 10
603.941868
 20
419.747034
 30
0.0
 11
590.641868
 21
419.747034
 31
0.0
  0
LINE
  5
AF
100
AcDbEntity
  8
DIMS
 62
     4
100
AcDbLine
 10
605.641868
 20
419.747034
 30
0.0
 11
609.041868
 21
419.747034
 31
0.0
  0
CIRCLE
  5
B0
100
AcDbEntity
  8
M03
100
AcDbCircle
 10
682.341868
 20
494.747034
 30
0.0
 40
2.25
  0
CIRCLE
  5
B1
100
AcDbEntity
  8
M03
100
AcDbCircle
 10
682.341868
 20
494.747034
 30
0.0
 40
15.0
  0
CIRCLE
  5
B2
100
AcDbEntity
  8
M03
100
AcDbCircle
 10
682.341868
 20
494.747034
 30
0.0
 40
14.0
  0
ARC
  5
B3
100
AcDbEntity
  8
M03
100
AcDbCircle
 10
682.341868
 20
494.747034
 30
0.0
 40
3.0
100
AcDbArc
 50
77.784636
 51
6.923103
  0
LINE
  5
B4
100
AcDbEntity
  8
M03
100
AcDbLine
 10
682.891868
 20
488.772296
 30
0.0
 11
682.891868
 21
500.721773
 31
0.0
  0
LINE
  5
B5
100
AcDbEntity
  8
M03
100
AcDbLine
 10
681.791868
 20
488.772296
 30
0.0
 11
681.791868
 21
500.721773
 31
0.0
  0
CIRCLE
  5
B6
100
AcDbEntity
  8
M03
100
AcDbCircle
 10
682.341868
 20
494.747034
 30
0.0
 40
7.858882
  0
CIRCLE
  5
B7
100
AcDbEntity
  8
M03
100
AcDbCircle
 10
682.341868
 20
494.747034
 30
0.0
 40
6.0
  0
CIRCLE
  5
B8
100
AcDbEntity
  8
M03
100
AcDbCircle
 10
682.341868
 20
419.747034
 30
0.0
 40
2.25
  0
CIRCLE
  5
B9
100
AcDbEntity
  8
M03
100
AcDbCircle
 10
682.341868
 20
419.747034
 30
0.0
 40
15.0
  0
CIRCLE
  5
BA
100
AcDbEntity
  8
M03
100
AcDbCircle
 10
682.341868
 20
419.747034
 30
0.0
 40
14.0
  0
ARC
  5
BB
100
AcDbEntity
  8
M03
100
AcDbCircle
 10
682.341868
 20
419.747034
 30
0.0
 40
3.0
100
AcDbArc
 50
353.076897
 51
282.215364
  0
LINE
  5
BC
100
AcDbEntity
  8
M03
100
AcDbLine
 10
682.891868
 20
425.721773
 30
0.0
 11
682.891868
 21
413.772296
 31
0.0
  0
LINE
  5
BD
100
AcDbEntity
  8
M03
100
AcDbLine
 10
681.791868
 20
425.721773
 30
0.0
 11
681.791868
 21
413.772296
 31
0.0
  0
CIRCLE
  5
BE
100
AcDbEntity
  8
M03
100
AcDbCircle
 10
682.341868
 20
419.747034
 30
0.0
 40
7.858882
  0
CIRCLE
  5
BF
100
AcDbEntity
  8
M03
100
AcDbCircle
 10
682.341868
 20
419.747034
 30
0.0
 40
6.0
  0
CIRCLE
  5
C0
100
AcDbEntity
  8
M03
100
AcDbCircle
 10
607.341868
 20
494.747034
 30
0.0
 40
2.25
  0
CIRCLE
  5
C1
100
AcDbEntity
  8
M03
100
AcDbCircle
 10
607.341868
 20
494.747034
 30
0.0
 40
15.0
  0
CIRCLE
  5
C2
100
AcDbEntity
  8
M03
100
AcDbCircle
 10
607.341868
 20
494.747034
 30
0.0
 40
14.0
  0
ARC
  5
C3
100
AcDbEntity
  8
M03
100
AcDbCircle
 10
607.341868
 20
494.747034
 30
0.0
 40
3.0
100
AcDbArc
 50
173.076897
 51
102.215364
  0
LINE
  5
C4
100
AcDbEntity
  8
M03
100
AcDbLine
 10
606.791868
 20
488.772296
 30
0.0
 11
606.791868
 21
500.721773
 31
0.0
  0
LINE
  5
C5
100
AcDbEntity
  8
M03
100
AcDbLine
 10
607.891868
 20
488.772296
 30
0.0
 11
607.891868
 21
500.721773
 31
0.0
  0
CIRCLE
  5
C6
100
AcDbEntity
  8
M03
100
AcDbCircle
 10
607.341868
 20
494.747034
 30
0.0
 40
7.858882
  0
CIRCLE
  5
C7
100
AcDbEntity
  8
M03
100
AcDbCircle
 10
607.341868
 20
494.747034
 30
0.0
 40
6.0
  0
CIRCLE
  5
C8
100
AcDbEntity
  8
M03
100
AcDbCircle
 10
607.341868
 20
419.747034
 30
0.0
 40
2.25
  0
CIRCLE
  5
C9
100
AcDbEntity
  8
M03
100
AcDbCircle
 10
607.341868
 20
419.747034
 30
0.0
 40
15.0
  0
CIRCLE
  5
CA
100
AcDbEntity
  8
M03
100
AcDbCircle
 10
607.341868
 20
419.747034
 30
0.0
 40
14.0
  0
ARC
  5
CB
100
AcDbEntity
  8
M03
100
AcDbCircle
 10
607.341868
 20
419.747034
 30
0.0
 40
3.0
100
AcDbArc
 50
257.784636
 51
186.923103
  0
LINE
  5
CC
100
AcDbEntity
  8
M03
100
AcDbLine
 10
606.791868
 20
425.721773
 30
0.0
 11
606.791868
 21
413.772296
 31
0.0
  0
LINE
  5
CD
100
AcDbEntity
  8
M03
100
AcDbLine
 10
607.891868
 20
425.721773
 30
0.0
 11
607.891868
 21
413.772296
 31
0.0
  0
CIRCLE
  5
CE
100
AcDbEntity
  8
M03
100
AcDbCircle
 10
607.341868
 20
419.747034
 30
0.0
 40
7.858882
  0
CIRCLE
  5
CF
100
AcDbEntity
  8
M03
100
AcDbCircle
 10
607.341868
 20
419.747034
 30
0.0
 40
6.0
  0
CIRCLE
  5
D0
100
AcDbEntity
  8
M01
100
AcDbCircle
 10
682.341868
 20
494.747034
 30
0.0
 40
4.0
  0
CIRCLE
  5
D1
100
AcDbEntity
  8
M01
100
AcDbCircle
 10
607.341868
 20
494.747034
 30
0.0
 40
4.0
  0
CIRCLE
  5
D2
100
AcDbEntity
  8
M01
100
AcDbCircle
 10
682.341868
 20
419.747034
 30
0.0
 40
4.0
  0
LINE
  5
D3
100
AcDbEntity
  8
CENTRE
100
AcDbLine
 10
607.341868
 20
399.747034
 30
0.0
 11
607.341868
 21
514.747034
 31
0.0
  0
CIRCLE
  5
D4
100
AcDbEntity
  8
M01
100
AcDbCircle
 10
607.341868
 20
419.747034
 30
0.0
 40
4.0
  0
LINE
  5
D5
100
AcDbEntity
  8
DIMS
 62
     4
100
AcDbLine
 10
678.941868
 20
569.747034
 30
0.0
 11
665.641868
 21
569.747034
 31
0.0
  0
LINE
  5
D6
100
AcDbEntity
  8
DIMS
 62
     4
100
AcDbLine
 10
685.741868
 20
569.747034
 30
0.0
 11
699.041868
 21
569.747034
 31
0.0
  0
LINE
  5
D7
100
AcDbEntity
  8
DIMS
 62
     4
100
AcDbLine
 10
684.041868
 20
569.747034
 30
0.0
 11
680.641868
 21
569.747034
 31
0.0
  0
LINE
  5
D8
100
AcDbEntity
  8
DIMS
 62
     4
100
AcDbLine
 10
678.941868
 20
644.747034
 30
0.0
 11
665.641868
 21
644.747034
 31
0.0
  0
LINE
  5
D9
100
AcDbEntity
  8
DIMS
 62
     4
100
AcDbLine
 10
685.741868
 20
644.747034
 30
0.0
 11
699.041868
 21
644.747034
 31
0.0
  0
LINE
  5
DA
100
AcDbEntity
  8
DIMS
 62
     4
100
AcDbLine
 10
684.041868
 20
644.747034
 30
0.0
 11
680.641868
 21
644.747034
 31
0.0
  0
LINE
  5
DB
100
AcDbEntity
  8
CENTRE
100
AcDbLine
 10
682.341868
 20
664.747034
 30
0.0
 11
682.341868
 21
549.747034
 31
0.0
  0
LINE
  5
DC
100
AcDbEntity
  8
DIMS
 62
     4
100
AcDbLine
 10
610.741868
 20
569.747034
 30
0.0
 11
624.041868
 21
569.747034
 31
0.0
  0
LINE
  5
DD
100
AcDbEntity
  8
DIMS
 62
     4
100
AcDbLine
 10
603.941868
 20
569.747034
 30
0.0
 11
590.641868
 21
569.747034
 31
0.0
  0
LINE
  5
DE
100
AcDbEntity
  8
DIMS
 62
     4
100
AcDbLine
 10
605.641868
 20
569.747034
 30
0.0
 11
609.041868
 21
569.747034
 31
0.0
  0
LINE
  5
DF
100
AcDbEntity
  8
DIMS
 62
     4
100
AcDbLine
 10
610.741868
 20
644.747034
 30
0.0
 11
624.041868
 21
644.747034
 31
0.0
  0
LINE
  5
E0
100
AcDbEntity
  8
DIMS
 62
     4
100
AcDbLine
 10
603.941868
 20
644.747034
 30
0.0
 11
590.641868
 21
644.747034
 31
0.0
  0
LINE
  5
E1
100
AcDbEntity
  8
DIMS
 62
     4
100
AcDbLine
 10
605.641868
 20
644.747034
 30
0.0
 11
609.041868
 21
644.747034
 31
0.0
  0
CIRCLE
  5
E2
100
AcDbEntity
  8
M03
100
AcDbCircle
 10
682.341868
 20
569.747034
 30
0.0
 40
2.25
  0
CIRCLE
  5
E3
100
AcDbEntity
  8
M03
100
AcDbCircle
 10
682.341868
 20
569.747034
 30
0.0
 40
15.0
  0
CIRCLE
  5
E4
100
AcDbEntity
  8
M03
100
AcDbCircle
 10
682.341868
 20
569.747034
 30
0.0
 40
14.0
  0
ARC
  5
E5
100
AcDbEntity
  8
M03
100
AcDbCircle
 10
682.341868
 20
569.747034
 30
0.0
 40
3.0
100
AcDbArc
 50
353.076897
 51
282.215364
  0
LINE
  5
E6
100
AcDbEntity
  8
M03
100
AcDbLine
 10
682.891868
 20
575.721773
 30
0.0
 11
682.891868
 21
563.772296
 31
0.0
  0
LINE
  5
E7
100
AcDbEntity
  8
M03
100
AcDbLine
 10
681.791868
 20
575.721773
 30
0.0
 11
681.791868
 21
563.772296
 31
0.0
  0
CIRCLE
  5
E8
100
AcDbEntity
  8
M03
100
AcDbCircle
 10
682.341868
 20
569.747034
 30
0.0
 40
7.858882
  0
CIRCLE
  5
E9
100
AcDbEntity
  8
M03
100
AcDbCircle
 10
682.341868
 20
569.747034
 30
0.0
 40
6.0
  0
CIRCLE
  5
EA
100
AcDbEntity
  8
M03
100
AcDbCircle
 10
682.341868
 20
644.747034
 30
0.0
 40
2.25
  0
CIRCLE
  5
EB
100
AcDbEntity
  8
M03
100
AcDbCircle
 10
682.341868
 20
644.747034
 30
0.0
 40
15.0
  0
CIRCLE
  5
EC
100
AcDbEntity
  8
M03
100
AcDbCircle
 10
682.341868
 20
644.747034
 30
0.0
 40
14.0
  0
ARC
  5
ED
100
AcDbEntity
  8
M03
100
AcDbCircle
 10
682.341868
 20
644.747034
 30
0.0
 40
3.0
100
AcDbArc
 50
77.784636
 51
6.923103
  0
LINE
  5
EE
100
AcDbEntity
  8
M03
100
AcDbLine
 10
682.891868
 20
638.772296
 30
0.0
 11
682.891868
 21
650.721773
 31
0.0
  0
LINE
  5
EF
100
AcDbEntity
  8
M03
100
AcDbLine
 10
681.791868
 20
638.772296
 30
0.0
 11
681.791868
 21
650.721773
 31
0.0
  0
CIRCLE
  5
F0
100
AcDbEntity
  8
M03
100
AcDbCircle
 10
682.341868
 20
644.747034
 30
0.0
 40
7.858882
  0
CIRCLE
  5
F1
100
AcDbEntity
  8
M03
100
AcDbCircle
 10
682.341868
 20
644.747034
 30
0.0
 40
6.0
  0
CIRCLE
  5
F2
100
AcDbEntity
  8
M03
100
AcDbCircle
 10
607.341868
 20
569.747034
 30
0.0
 40
2.25
  0
CIRCLE
  5
F3
100
AcDbEntity
  8
M03
100
AcDbCircle
 10
607.341868
 20
569.747034
 30
0.0
 40
15.0
  0
CIRCLE
  5
F4
100
AcDbEntity
  8
M03
100
AcDbCircle
 10
607.341868
 20
569.747034
 30
0.0
 40
14.0
  0
ARC
  5
F5
100
AcDbEntity
  8
M03
100
AcDbCircle
 10
607.341868
 20
569.747034
 30
0.0
 40
3.0
100
AcDbArc
 50
257.784636
 51
186.923103
  0
LINE
  5
F6
100
AcDbEntity
  8
M03
100
AcDbLine
 10
606.791868
 20
575.721773
 30
0.0
 11
606.791868
 21
563.772296
 31
0.0
  0
LINE
  5
F7
100
AcDbEntity
  8
M03
100
AcDbLine
 10
607.891868
 20
575.721773
 30
0.0
 11
607.891868
 21
563.772296
 31
0.0
  0
CIRCLE
  5
F8
100
AcDbEntity
  8
M03
100
AcDbCircle
 10
607.341868
 20
569.747034
 30
0.0
 40
7.858882
  0
CIRCLE
  5
F9
100
AcDbEntity
  8
M03
100
AcDbCircle
 10
607.341868
 20
569.747034
 30
0.0
 40
6.0
  0
DIMENSION
  5
FA
100
AcDbEntity
  8
DIMS
100
AcDbDimension
  2
*D14
 10
859.581488
 20
676.747034
 30
0.0
 11
856.581488
 21
532.247034
 31
0.0
  1
L=<>
  3
DIM1
100
AcDbAlignedDimension
 13
695.341868
 23
387.747034
 33
0.0
 14
695.341868
 24
676.747034
 34
0.0
 50
90.0
100
AcDbRotatedDimension
1001
ACAD
1000
DSTYLE
1002
{
1070
   144
1040
1.0
1002
}
  0
DIMENSION
  5
107
100
AcDbEntity
  8
DIMS
100
AcDbDimension
  2
*D13
 10
850.004135
 20
419.747034
 30
0.0
 11
847.004135
 21
457.247034
 31
0.0
  1
A=<>
  3
DIM1
100
AcDbAlignedDimension
 13
699.041868
 23
494.747034
 33
0.0
 14
699.041868
 24
419.747034
 34
0.0
 50
90.0
100
AcDbRotatedDimension
1001
ACAD
1000
DSTYLE
1002
{
1070
    75
1070
     1
1070
   144
1040
1.0
1070
   287
1070
     4
1002
}
  0
DIMENSION
  5
113
100
AcDbEntity
  8
DIMS
100
AcDbDimension
  2
*D12
 10
850.004135
 20
494.747034
 30
0.0
 11
847.004135
 21
532.247034
 31
0.0
  1
C=<>
  3
DIM1
100
AcDbAlignedDimension
 13
759.415129
 23
569.747034
 33
0.0
 14
699.041868
 24
494.747034
 34
0.0
 50
90.0
100
AcDbRotatedDimension
1001
ACAD
1000
DSTYLE
1002
{
1070
    75
1070
     1
1070
   144
1040
1.0
1070
   287
1070
     4
1002
}
  0
DIMENSION
  5
11F
100
AcDbEntity
  8
DIMS
100
AcDbDimension
  2
*D11
 10
850.004135
 20
569.747034
 30
0.0
 11
847.004135
 21
607.247034
 31
0.0
  1
A=<>
  3
DIM1
100
AcDbAlignedDimension
 13
699.041868
 23
644.747034
 33
0.0
 14
699.041868
 24
569.747034
 34
0.0
 50
90.0
100
AcDbRotatedDimension
1001
ACAD
1000
DSTYLE
1002
{
1070
   144
1040
1.0
1002
}
  0
DIMENSION
  5
12C
100
AcDbEntity
  8
DIMS
100
AcDbDimension
  2
*D10
 10
707.341868
 20
737.429694
 30
0.0
 11
569.841868
 21
702.929694
 31
0.0
 12
0.0
 22
37.5
 32
0.0
  1
L1=<>
  3
DIM1
100
AcDbAlignedDimension
 13
432.341868
 23
664.747034
 33
0.0
 14
707.341868
 24
664.747034
 34
0.0
100
AcDbRotatedDimension
1001
ACAD
1000
DSTYLE
1002
{
1070
   144
1040
1.0
1002
}
  0
DIMENSION
  5
139
100
AcDbEntity
  8
DIMS
100
AcDbDimension
  2
*D9
 10
457.341868
 20
726.916679
 30
0.0
 11
494.841868
 21
729.916679
 31
0.0
  1
B=<>
  3
DIM1
100
AcDbAlignedDimension
 13
532.341868
 23
664.747034
 33
0.0
 14
457.341868
 24
664.747034
 34
0.0
100
AcDbRotatedDimension
1001
ACAD
1000
DSTYLE
1002
{
1070
    75
1070
     1
1070
   144
1040
1.0
1070
   287
1070
     4
1002
}
  0
DIMENSION
  5
145
100
AcDbEntity
  8
DIMS
100
AcDbDimension
  2
*D8
 10
532.341868
 20
726.916679
 30
0.0
 11
569.841868
 21
729.916679
 31
0.0
  1
D=<>
  3
DIM1
100
AcDbAlignedDimension
 13
607.341868
 23
664.747034
 33
0.0
 14
532.341868
 24
664.747034
 34
0.0
100
AcDbRotatedDimension
1001
ACAD
1000
DSTYLE
1002
{
1070
    75
1070
     1
1070
   144
1040
1.0
1070
   287
1070
     4
1002
}
  0
DIMENSION
  5
151
100
AcDbEntity
  8
DIMS
100
AcDbDimension
  2
*D7
 10
607.341868
 20
726.916679
 30
0.0
 11
644.841868
 21
729.916679
 31
0.0
  1
B=<>
  3
DIM1
100
AcDbAlignedDimension
 13
682.341868
 23
664.747034
 33
0.0
 14
607.341868
 24
664.747034
 34
0.0
100
AcDbRotatedDimension
1001
ACAD
1000
DSTYLE
1002
{
1070
   144
1040
1.0
1002
}
  0
HATCH
  5
15E
100
AcDbEntity
  8
HATCH
100
AcDbHatch
 10
0.0
 20
0.0
 30
0.0
210
0.0
220
0.0
230
1.0
  2
_U
 70
     0
 71
     1
 91
        1
 92
        7
 72
     0
 73
     1
 93
        4
 10
434.3418684630001
 20
209.6107273354997
 10
434.3418684630001
 20
206.6107273354998
 10
442.3418684629996
 20
206.6107273354998
 10
442.3418684629999
 20
209.6107273354997
 97
        4
330
5DA
330
5CD
330
5CE
330
5CC
 75
     0
 76
     0
 52
135.0
 41
0.8
 77
     0
 78
     1
 53
135.0
 43
37.373301
 44
14.330935
 45
-0.5656854249492382
 46
-0.565685424949238
 79
     0
 47
0.169813
 98
        1
 10
400.502735
 20
207.321185
  0
HATCH
  5
160
100
AcDbEntity
  8
HATCH
100
AcDbHatch
 10
0.0
 20
0.0
 30
0.0
210
0.0
220
0.0
230
1.0
  2
_U
 70
     0
 71
     1
 91
        3
 92
        7
 72
     0
 73
     1
 93
        4
 10
546.6168684629999
 20
256.6107273354995
 10
546.6168684629999
 20
259.6107273354995
 10
524.3418684629999
 20
259.6107273354995
 10
524.3418684629999
 20
256.6107273354995
 97
        4
330
5ED
330
255
330
5EC
330
21A
 92
        7
 72
     0
 73
     1
 93
        4
 10
475.3418684629999
 20
259.6107273354995
 10
475.3418684629999
 20
256.6107273354995
 10
524.341868463
 20
256.6107273354995
 10
524.341868463
 20
259.6107273354995
 97
        4
330
5ED
330
442
330
5EC
330
255
 92
        7
 72
     0
 73
     1
 93
        4
 10
434.3418684630001
 20
259.6107273354996
 10
434.3418684630001
 20
256.6107273354995
 10
439.3418684629999
 20
256.6107273354995
 10
439.3418684629999
 20
259.6107273354996
 97
        4
330
5ED
330
5F8
330
5EC
330
443
 75
     0
 76
     0
 52
135.0
 41
0.8
 77
     0
 78
     1
 53
135.0
 43
74.873301
 44
14.330935
 45
-0.5656854249492382
 46
-0.565685424949238
 79
     0
 47
0.169813
 98
        3
 10
528.37858
 20
257.415938
 10
514.448467
 20
258.265001
 10
438.342493
 20
258.774439
  0
HATCH
  5
161
100
AcDbEntity
  8
HATCH
100
AcDbHatch
 10
0.0
 20
0.0
 30
0.0
210
0.0
220
0.0
230
1.0
  2
_U
 70
     0
 71
     1
 91
        1
 92
        7
 72
     0
 73
     1
 93
        4
 10
723.3418684630001
 20
256.6107273354993
 10
723.3418684630002
 20
259.6107273354998
 10
593.0668684629999
 20
259.6107273354995
 10
593.0668684629999
 20
256.6107273354995
 97
        4
330
5FA
330
23B
330
5EC
330
5F4
 75
     0
 76
     0
 52
135.0
 41
0.8
 77
     0
 78
     1
 53
135.0
 43
74.873301
 44
14.330935
 45
-0.5656854249492382
 46
-0.565685424949238
 79
     0
 47
0.264674
 98
        1
 10
682.203211
 20
257.992715
  0
HATCH
  5
162
100
AcDbEntity
  8
HATCH
100
AcDbHatch
 10
0.0
 20
0.0
 30
0.0
210
0.0
220
0.0
230
1.0
  2
_U
 70
     0
 71
     1
 91
        2
 92
        7
 72
     0
 73
     1
 93
        4
 10
534.8418684629998
 20
206.6107273354997
 10
534.8418684629997
 20
209.6107273354995
 10
524.341868463
 20
209.6107273354995
 10
524.341868463
 20
206.6107273354997
 97
        4
330
5DA
330
255
330
5CA
330
1AD
 92
        7
 72
     0
 73
     1
 93
        4
 10
524.341868463
 20
206.6107273354998
 10
524.341868463
 20
209.6107273354995
 10
472.3418684629999
 20
209.6107273354996
 10
472.3418684629997
 20
206.6107273354997
 97
        4
330
5DA
330
5CB
330
5CA
330
255
 75
     0
 76
     0
 52
135.0
 41
0.8
 77
     0
 78
     1
 53
135.0
 43
74.873301
 44
14.330935
 45
-0.5656854249492382
 46
-0.565685424949238
 79
     0
 47
0.264674
 98
        2
 10
529.161781
 20
207.969403
 10
522.542342
 20
207.70473
  0
HATCH
  5
163
100
AcDbEntity
  8
HATCH
100
AcDbHatch
 10
0.0
 20
0.0
 30
0.0
210
0.0
220
0.0
230
1.0
  2
_U
 70
     0
 71
     0
 91
        1
 92
        7
 72
     0
 73
     1
 93
        4
 10
733.3418684630004
 20
209.6107273354997
 10
604.8418684630002
 20
209.6107273354996
 10
604.841868463
 20
206.6107273354997
 10
733.3418684630003
 20
206.6107273354997
 97
        0
 75
     0
 76
     0
 52
135.0
 41
0.8
 77
     0
 78
     1
 53
135.0
 43
74.873301
 44
14.330935
 45
-0.5656854249492382
 46
-0.565685424949238
 79
     0
 47
0.264674
 98
        1
 10
608.330271
 20
208.498751
  0
HATCH
  5
164
100
AcDbEntity
  8
HATCH
100
AcDbHatch
 10
0.0
 20
0.0
 30
0.0
210
0.0
220
0.0
230
1.0
  2
_U
 70
     0
 71
     1
 91
        3
 92
        7
 72
     1
 73
     1
 93
       33
 10
580.041868463
 20
256.6107273354995
 42
0.0
 10
579.341868463
 20
255.9107273354994
 42
0.0
 10
579.341868463
 20
252.6107273354995
 42
0.0
 10
579.341868463
 20
251.6107273354995
 42
0.0
 10
578.341868463
 20
251.6107273354995
 42
0.0
 10
569.841868463
 20
251.6107273354995
 42
0.0
 10
569.8418684629998
 20
237.1107273354997
 42
0.0
 10
644.841868463
 20
237.1107273354996
 42
-0.4142135623730868
 10
648.841868463
 20
233.1107273354997
 42
-0.4142135623730951
 10
644.841868463
 20
229.1107273354997
 42
0.0
 10
573.8418684629998
 20
229.1107273354997
 42
0.0
 10
573.8418684629998
 20
219.6107273354996
 42
0.0
 10
578.8418684629998
 20
219.6107273354996
 42
0.0
 10
579.8418684629997
 20
219.6107273354996
 42
0.0
 10
579.8418684629998
 20
218.6107273354995
 42
0.0
 10
579.8418684629998
 20
210.1107273354995
 42
0.0
 10
580.3418684629997
 20
209.6107273354998
 42
0.0
 10
592.8418684629998
 20
209.6107273354999
 42
0.0
 10
592.8418684629999
 20
216.9107273354997
 42
0.0
 10
592.8418684629998
 20
219.4107273354996
 42
0.0
 10
593.541868463
 20
219.4107273354996
 42
0.0
 10
593.541868463
 20
220.9107273354996
 42
0.0
 10
595.8418684629999
 20
222.2386329546357
 42
0.0
 10
598.1418684629999
 20
220.9107273354996
 42
0.0
 10
598.1418684629999
 20
219.4107273354996
 42
0.0
 10
598.841868463
 20
219.4107273354996
 42
0.0
 10
598.841868463
 20
216.9107273354998
 42
0.0
 10
598.8418684629998
 20
209.6107273354996
 42
0.0
 10
733.3418684630002
 20
209.6107273354997
 42
0.0
 10
735.3418684630002
 20
211.6107273354998
 42
0.0
 10
735.3418684630002
 20
250.6107273354995
 42
0.0
 10
723.3418684630001
 20
250.6107273354995
 42
0.0
 10
723.3418684630004
 20
256.6107273354993
 42
0.0
 97
       31
330
5F5
330
5EC
330
245
330
218
330
23F
330
23E
330
242
330
5EF
330
5D4
330
256
330
5D3
330
5D8
330
1D7
330
1D4
330
1D3
330
1D9
330
1C9
330
1AF
330
1A6
330
190
330
19C
330
191
330
19A
330
199
330
193
330
192
330
1A7
330
5FF
330
5FC
330
601
330
59B
 92
        7
 72
     0
 73
     1
 93
        9
 10
569.8418684629998
 20
237.1107273354997
 10
569.8418684629998
 20
251.6107273354994
 10
561.341868463
 20
251.6107273354995
 10
560.3418684630001
 20
251.6107273354995
 10
560.3418684630001
 20
252.6107273354995
 10
560.3418684630001
 20
255.9107273354995
 10
559.6418684630001
 20
256.6107273354995
 10
524.3418684629999
 20
256.6107273354995
 10
524.3418684629999
 20
237.1107273354997
 97
        9
330
242
330
23C
330
23D
330
217
330
244
330
5EC
330
255
330
5D4
330
5EF
 92
        7
 72
     0
 73
     1
 93
       20
 10
524.3418684629999
 20
229.1107273354997
 10
524.341868463
 20
209.6107273354995
 10
540.8418684629999
 20
209.6107273354995
 10
540.8418684629999
 20
216.9107273354997
 10
540.8418684629999
 20
219.4107273354996
 10
541.541868463
 20
219.4107273354996
 10
541.541868463
 20
220.9107273354996
 10
543.841868463
 20
222.2386329546357
 10
546.1418684629999
 20
220.9107273354996
 10
546.1418684629999
 20
219.4107273354996
 10
546.8418684629999
 20
219.4107273354996
 10
546.8418684629999
 20
216.9107273354998
 10
546.8418684629998
 20
209.6107273354995
 10
559.3418684629997
 20
209.6107273354995
 10
559.8418684629999
 20
210.1107273354994
 10
559.8418684629999
 20
218.6107273354997
 10
559.8418684630002
 20
219.6107273354996
 10
560.8418684630001
 20
219.6107273354996
 10
565.841868463
 20
219.6107273354996
 10
565.8418684629999
 20
229.1107273354997
 97
       18
330
248
330
255
330
5DA
330
18D
330
177
330
182
330
178
330
17F
330
180
330
176
330
174
330
18C
330
1C8
330
1D8
330
1D1
330
1D2
330
1D7
330
24B
 75
     0
 76
     0
 52
45.0
 41
6.0
 77
     0
 78
     1
 53
45.0
 43
74.873301
 44
14.330935
 45
-4.242640687119283
 46
4.242640687119286
 79
     0
 47
0.264674
 98
        3
 10
618.921374
 20
247.141096
 10
556.169093
 20
243.435666
 10
556.43387
 20
224.379166
  0
HATCH
  5
165
100
AcDbEntity
  8
HATCH
100
AcDbHatch
 10
0.0
 20
0.0
 30
0.0
210
0.0
220
0.0
230
1.0
  2
_U
 70
     0
 71
     0
 91
       16
 92
       23
 72
     0
 73
     1
 93
        4
 10
524.3418684629999
 20
256.6107273354995
 10
461.341868463
 20
256.6107273354996
 10
461.341868463
 20
237.1107273354997
 10
524.341868463
 20
237.1107273354998
 97
        0
 92
        7
 72
     1
 73
     1
 93
        4
 10
524.341868463
 20
237.1107273354998
 42
0.0
 10
494.841868463
 20
237.1107273354997
 42
-0.4142135623730992
 10
498.841868463
 20
233.1107273354997
 42
0.0
 10
524.341868463
 20
233.1107273354997
 42
0.0
 97
        0
 92
       23
 72
     1
 73
     1
 93
        2
 10
490.841868463
 20
233.1107273354997
 42
0.0
 10
498.841868463
 20
233.1107273354997
 42
1.0
 97
        0
 92
       23
 72
     1
 73
     1
 93
        4
 10
494.841868463
 20
237.1107273354997
 42
0.0
 10
461.3418684630001
 20
237.1107273354997
 42
0.0
 10
461.341868463
 20
233.1107273354997
 42
0.0
 10
490.841868463
 20
233.1107273354997
 42
-0.4142135623730972
 97
        0
 92
       23
 72
     1
 73
     1
 93
        4
 10
490.841868463
 20
233.1107273354997
 42
0.0
 10
461.341868463
 20
233.1107273354997
 42
-0.4142135623730951
 10
457.341868463
 20
229.1107273354997
 42
0.0
 10
494.841868463
 20
229.1107273354997
 42
-0.4142135623730972
 97
        0
 92
       23
 72
     1
 73
     1
 93
        2
 10
498.841868463
 20
233.1107273354997
 42
0.0
 10
490.841868463
 20
233.1107273354997
 42
1.0
 97
        0
 92
        7
 72
     1
 73
     1
 93
        4
 10
524.341868463
 20
233.1107273354997
 42
0.0
 10
498.841868463
 20
233.1107273354997
 42
-0.4142135623730972
 10
494.841868463
 20
229.1107273354997
 42
0.0
 10
524.341868463
 20
229.1107273354997
 42
0.0
 97
        0
 92
        7
 72
     1
 73
     1
 93
       23
 10
453.341868463
 20
256.6107273354996
 42
0.0
 10
445.341868463
 20
256.6107273354996
 42
0.0
 10
445.341868463
 20
252.6107273354998
 42
-1.0
 10
437.341868463
 20
252.6107273354998
 42
0.0
 10
437.341868463
 20
256.6107273354996
 42
0.0
 10
434.3418684630001
 20
256.6107273354996
 42
0.0
 10
432.341868463
 20
254.6107273354996
 42
0.0
 10
432.341868463
 20
211.6107273354996
 42
0.0
 10
434.341868463
 20
209.6107273354997
 42
0.0
 10
437.341868463
 20
209.6107273354997
 42
0.0
 10
437.341868463
 20
213.6107273354998
 42
-1.0
 10
445.341868463
 20
213.6107273354996
 42
0.0
 10
445.341868463
 20
209.6107273354997
 42
0.0
 10
470.8418684629998
 20
209.6107273354996
 42
0.0
 10
470.8418684629998
 20
209.9107273354993
 42
0.0
 10
471.5418684629997
 20
210.6107273354993
 42
0.0
 10
518.1418684629996
 20
210.6107273354993
 42
0.0
 10
518.8418684629998
 20
209.9107273354992
 42
0.0
 10
518.8418684629998
 20
209.6107273354996
 42
0.0
 10
524.341868463
 20
209.6107273354996
 42
0.0
 10
524.3418684629999
 20
229.1107273354997
 42
0.0
 10
457.341868463
 20
229.1107273354997
 42
-0.4142135623730951
 10
453.341868463
 20
233.1107273354997
 42
0.0
 97
        0
 92
       23
 72
     0
 73
     1
 93
        4
 10
486.6829864755429
 20
209.9107273354993
 10
470.8418684629998
 20
209.9107273354993
 10
470.8418684629998
 20
209.6107273354996
 10
486.9829864755425
 20
209.6107273354996
 97
        0
 92
       23
 72
     0
 73
     1
 93
        4
 10
485.9829864755426
 20
210.6107273354993
 10
471.5418684629997
 20
210.6107273354993
 10
470.8418684629998
 20
209.9107273354993
 10
486.6829864755426
 20
209.9107273354993
 97
        0
 92
       23
 72
     0
 73
     1
 93
        4
 10
494.8418684629998
 20
210.6107273354993
 10
485.9829864755426
 20
210.6107273354993
 10
486.6829864755427
 20
209.9107273354993
 10
494.8418684629998
 20
209.9107273354993
 97
        0
 92
       23
 72
     0
 73
     1
 93
        4
 10
494.8418684629999
 20
209.9107273354993
 10
486.682986475543
 20
209.9107273354993
 10
486.9829864755425
 20
209.6107273354996
 10
494.8418684629998
 20
209.6107273354996
 97
        0
 92
       23
 72
     0
 73
     1
 93
        4
 10
503.7007504504569
 20
210.6107273354993
 10
494.8418684629998
 20
210.6107273354993
 10
494.8418684629998
 20
209.9107273354993
 10
503.000750450457
 20
209.9107273354993
 97
        0
 92
       23
 72
     0
 73
     1
 93
        4
 10
503.000750450457
 20
209.9107273354993
 10
494.8418684629998
 20
209.9107273354993
 10
494.8418684629998
 20
209.6107273354996
 10
502.7007504504572
 20
209.6107273354996
 97
        0
 92
       22
 72
     0
 73
     1
 93
        4
 10
518.1418684629997
 20
210.6107273354993
 10
503.7007504504569
 20
210.6107273354993
 10
503.0007504504569
 20
209.9107273354993
 10
518.8418684629996
 20
209.9107273354993
 97
        0
 92
       22
 72
     0
 73
     1
 93
        4
 10
518.8418684629996
 20
209.9107273354993
 10
503.0007504504569
 20
209.9107273354993
 10
502.7007504504571
 20
209.6107273354996
 10
518.8418684629997
 20
209.6107273354996
 97
        0
 75
     0
 76
     0
 52
135.0
 41
6.0
 77
     0
 78
     1
 53
135.0
 43
74.873301
 44
14.330935
 45
-4.242640687119285
 46
-4.242640687119284
 79
     0
 47
0.048301
 98
       16
 10
512.10706
 20
249.505005
 10
511.392396
 20
236.360331
 10
496.956161
 20
234.931561
 10
487.093782
 20
234.360054
 10
486.664983
 20
230.216623
 10
496.098563
 20
231.073885
 10
505.532143
 20
230.502377
 10
445.643207
 20
238.646361
 10
477.916895
 20
209.749925
 10
478.206818
 20
210.088035
 10
488.257469
 20
210.281241
 10
488.40243
 20
209.749925
 10
496.616904
 20
210.281241
 10
496.230341
 20
209.749925
 10
504.541456
 20
210.088035
 10
504.106571
 20
209.749925
  0
DIMENSION
  5
166
100
AcDbEntity
  8
DIMS
100
AcDbDimension
  2
*D6
 10
589.841868
 20
158.99858
 30
0.0
 11
569.841868
 21
161.99858
 31
0.0
 12
74.873301
 22
14.330935
 32
0.0
  1
%%c<> H7
  3
DIM1
100
AcDbAlignedDimension
 13
549.841868
 23
194.610727
 33
0.0
 14
589.841868
 24
194.610727
 34
0.0
100
AcDbRotatedDimension
1001
ACAD
1000
DSTYLE
1002
{
1070
   144
1040
1.0
1002
}
  0
HATCH
  5
173
100
AcDbEntity
  8
DIMS
100
AcDbHatch
 10
0.0
 20
0.0
 30
0.0
210
0.0
220
0.0
230
1.0
  2
_U
 70
     0
 71
     0
 91
        5
 92
        7
 72
     0
 73
     1
 93
        9
 10
601.3418684629999
 20
207.6107273354995
 10
601.3418684629999
 20
203.6107273354996
 10
603.1418684630001
 20
203.6107273354996
 10
603.8418684630002
 20
204.3107273354997
 10
603.8418684630002
 20
208.9107273354996
 10
603.1418684630001
 20
209.6107273354998
 10
599.541868463
 20
209.6107273354998
 10
599.5418684629998
 20
207.6107273354996
 10
601.0918684630001
 20
207.6107273354996
 97
        0
 92
        7
 72
     1
 73
     1
 93
       16
 10
589.1418684629999
 20
198.6107273354996
 42
0.0
 10
589.8418684630001
 20
199.3107273354997
 42
0.0
 10
589.841868463
 20
200.6107273354998
 42
0.0
 10
589.3418684629999
 20
200.6107273354996
 42
0.0
 10
589.3418684629999
 20
203.6107273354996
 42
0.0
 10
590.341868463
 20
203.6107273354996
 42
0.0
 10
590.341868463
 20
207.6107273354996
 42
0.0
 10
590.5918684630001
 20
207.6107273354996
 42
0.0
 10
592.1418684629998
 20
207.6107273354996
 42
0.0
 10
592.141868463
 20
209.6107273354998
 42
0.0
 10
579.8418684629998
 20
209.6107273354998
 42
0.0
 10
579.8418684629998
 20
218.6107273354996
 42
0.0
 10
578.8418684629999
 20
219.6107273354996
 42
0.0
 10
573.841868463
 20
219.6107273354996
 42
0.0
 10
572.8827424608958
 20
201.3095129886008
 42
-0.1092323044357264
 10
579.0070198529114
 20
198.6107273354996
 42
0.0
 97
        0
 92
        7
 72
     1
 73
     1
 93
       16
 10
566.8009944651038
 20
201.3095129886007
 42
0.0
 10
565.8418684629999
 20
219.6107273354996
 42
0.0
 10
560.841868463
 20
219.6107273354996
 42
0.0
 10
559.8418684629999
 20
218.6107273354997
 42
0.0
 10
559.8418684629998
 20
209.6107273354998
 42
0.0
 10
547.5418684629999
 20
209.6107273354998
 42
0.0
 10
547.541868463
 20
207.6107273354996
 42
0.0
 10
549.0918684629998
 20
207.6107273354996
 42
0.0
 10
549.3418684629999
 20
207.6107273354996
 42
0.0
 10
549.3418684629999
 20
203.6107273354998
 42
0.0
 10
550.3418684629999
 20
203.6107273354998
 42
0.0
 10
550.3418684629999
 20
200.6107273354994
 42
0.0
 10
549.8418684629999
 20
200.6107273354994
 42
0.0
 10
549.841868463
 20
199.3107273354994
 42
0.0
 10
550.541868463
 20
198.6107273354993
 42
0.0
 10
560.6767170730883
 20
198.6107273354994
 42
-0.1092323044357263
 97
        0
 92
        7
 72
     0
 73
     1
 93
        9
 10
538.3418684629999
 20
207.6107273354995
 10
538.5918684629997
 20
207.6107273354995
 10
540.1418684629998
 20
207.6107273354995
 10
540.1418684629999
 20
209.6107273354998
 10
536.5418684629998
 20
209.6107273354998
 10
535.8418684629996
 20
208.9107273354996
 10
535.8418684629997
 20
204.3107273354998
 10
536.5418684629997
 20
203.6107273354998
 10
538.3418684629999
 20
203.6107273354997
 97
        0
 92
       24
 93
        4
 72
     1
 10
574.415949
 20
204.678215
 11
588.787378
 21
204.678215
 72
     1
 10
588.787378
 20
204.678215
 11
588.787378
 21
207.678215
 72
     1
 10
588.787378
 20
207.678215
 11
574.415949
 21
207.678215
 72
     1
 10
574.415949
 20
207.678215
 11
574.415949
 21
204.678215
 97
        0
 75
     0
 76
     0
 52
135.0
 41
2.5
 77
     0
 78
     1
 53
135.0
 43
14.394628
 44
-37.875747
 45
-1.767766952966368
 46
-1.767766952966368
 79
     0
 47
0.085632
 98
        4
 10
602.338831
 20
207.968712
 10
584.691386
 20
201.974482
 10
561.903907
 20
203.173329
 10
537.660088
 20
207.968712
  0
LINE
  5
174
102
{ACAD_REACTORS
330
164
102
}
100
AcDbEntity
  8
M04
100
AcDbLine
 10
546.841868
 20
216.910727
 30
0.0
 11
546.841868
 21
219.410727
 31
0.0
  0
LINE
  5
176
102
{ACAD_REACTORS
330
164
102
}
100
AcDbEntity
  8
M04
100
AcDbLine
 10
546.141868
 20
217.610727
 30
0.0
 11
546.141868
 21
220.910727
 31
0.0
  0
LINE
  5
177
102
{ACAD_REACTORS
330
164
102
}
100
AcDbEntity
  8
M04
100
AcDbLine
 10
540.841868
 20
216.910727
 30
0.0
 11
540.841868
 21
219.410727
 31
0.0
  0
LINE
  5
178
102
{ACAD_REACTORS
330
164
102
}
100
AcDbEntity
  8
M04
100
AcDbLine
 10
541.541868
 20
217.610727
 30
0.0
 11
541.541868
 21
220.910727
 31
0.0
  0
LINE
  5
179
100
AcDbEntity
  8
M05
100
AcDbLine
 10
538.591868
 20
207.610727
 30
0.0
 11
549.091868
 21
207.610727
 31
0.0
  0
LINE
  5
17B
100
AcDbEntity
  8
M04
100
AcDbLine
 10
549.091868
 20
207.610727
 30
0.0
 11
549.341868
 21
207.610727
 31
0.0
  0
LINE
  5
17C
100
AcDbEntity
  8
M04
100
AcDbLine
 10
538.341868
 20
207.610727
 30
0.0
 11
538.341868
 21
203.610727
 31
0.0
  0
LINE
  5
17D
100
AcDbEntity
  8
M04
100
AcDbLine
 10
549.341868
 20
207.610727
 30
0.0
 11
549.341868
 21
203.610727
 31
0.0
  0
LINE
  5
17E
100
AcDbEntity
  8
M05
100
AcDbLine
 10
546.841868
 20
208.610727
 30
0.0
 11
540.841868
 21
208.610727
 31
0.0
  0
LINE
  5
17F
102
{ACAD_REACTORS
330
164
102
}
100
AcDbEntity
  8
M04
100
AcDbLine
 10
541.541868
 20
220.910727
 30
0.0
 11
543.841868
 21
222.238633
 31
0.0
  0
LINE
  5
180
102
{ACAD_REACTORS
330
164
102
}
100
AcDbEntity
  8
M04
100
AcDbLine
 10
546.141868
 20
220.910727
 30
0.0
 11
543.841868
 21
222.238633
 31
0.0
  0
LINE
  5
181
100
AcDbEntity
  8
M04
100
AcDbLine
 10
546.141868
 20
220.910727
 30
0.0
 11
541.541868
 21
220.910727
 31
0.0
  0
LINE
  5
182
102
{ACAD_REACTORS
330
164
102
}
100
AcDbEntity
  8
M04
100
AcDbLine
 10
546.841868
 20
219.410727
 30
0.0
 11
540.841868
 21
219.410727
 31
0.0
  0
ARC
  5
183
100
AcDbEntity
  8
M05
100
AcDbCircle
 10
543.841868
 20
210.136864
 30
0.0
 40
5.826136
100
AcDbArc
 50
205.69541
 51
334.30459
  0
LINE
  5
184
100
AcDbEntity
  8
M05
100
AcDbLine
 10
540.841868
 20
216.910727
 30
0.0
 11
541.541868
 21
217.610727
 31
0.0
  0
LINE
  5
185
100
AcDbEntity
  8
M05
100
AcDbLine
 10
546.841868
 20
216.910727
 30
0.0
 11
546.141868
 21
217.610727
 31
0.0
  0
LINE
  5
186
100
AcDbEntity
  8
M05
100
AcDbLine
 10
546.841868
 20
216.910727
 30
0.0
 11
540.841868
 21
216.910727
 31
0.0
  0
LINE
  5
187
100
AcDbEntity
  8
M05
100
AcDbLine
 10
546.141868
 20
217.610727
 30
0.0
 11
541.541868
 21
217.610727
 31
0.0
  0
LINE
  5
188
100
AcDbEntity
  8
M04
100
AcDbLine
 10
547.541868
 20
209.610727
 30
0.0
 11
547.541868
 21
207.610727
 31
0.0
  0
LINE
  5
189
100
AcDbEntity
  8
M04
100
AcDbLine
 10
540.141868
 20
209.610727
 30
0.0
 11
540.141868
 21
207.610727
 31
0.0
  0
LINE
  5
18A
100
AcDbEntity
  8
M05
100
AcDbLine
 10
541.541868
 20
217.610727
 30
0.0
 11
541.541868
 21
208.610727
 31
0.0
  0
LINE
  5
18B
100
AcDbEntity
  8
M05
100
AcDbLine
 10
546.141868
 20
217.610727
 30
0.0
 11
546.141868
 21
208.610727
 31
0.0
  0
LINE
  5
18C
102
{ACAD_REACTORS
330
164
102
}
100
AcDbEntity
  8
M05
100
AcDbLine
 10
546.841868
 20
216.910727
 30
0.0
 11
546.841868
 21
207.610727
 31
0.0
  0
LINE
  5
18D
102
{ACAD_REACTORS
330
164
102
}
100
AcDbEntity
  8
M05
100
AcDbLine
 10
540.841868
 20
216.910727
 30
0.0
 11
540.841868
 21
207.610727
 31
0.0
  0
LINE
  5
18E
100
AcDbEntity
  8
M04
100
AcDbLine
 10
538.341868
 20
207.610727
 30
0.0
 11
538.591868
 21
207.610727
 31
0.0
  0
LINE
  5
18F
100
AcDbEntity
  8
CENTRE
100
AcDbLine
 10
543.841868
 20
224.877228
 30
0.0
 11
543.841868
 21
199.964539
 31
0.0
  0
LINE
  5
190
102
{ACAD_REACTORS
330
164
102
}
100
AcDbEntity
  8
M04
100
AcDbLine
 10
592.841868
 20
216.910727
 30
0.0
 11
592.841868
 21
219.410727
 31
0.0
  0
LINE
  5
191
102
{ACAD_REACTORS
330
164
102
}
100
AcDbEntity
  8
M04
100
AcDbLine
 10
593.541868
 20
217.610727
 30
0.0
 11
593.541868
 21
220.910727
 31
0.0
  0
LINE
  5
192
102
{ACAD_REACTORS
330
164
102
}
100
AcDbEntity
  8
M04
100
AcDbLine
 10
598.841868
 20
216.910727
 30
0.0
 11
598.841868
 21
219.410727
 31
0.0
  0
LINE
  5
193
102
{ACAD_REACTORS
330
164
102
}
100
AcDbEntity
  8
M04
100
AcDbLine
 10
598.141868
 20
217.610727
 30
0.0
 11
598.141868
 21
220.910727
 31
0.0
  0
LINE
  5
194
100
AcDbEntity
  8
M05
100
AcDbLine
 10
601.091868
 20
207.610727
 30
0.0
 11
590.591868
 21
207.610727
 31
0.0
  0
LINE
  5
195
100
AcDbEntity
  8
M04
100
AcDbLine
 10
590.591868
 20
207.610727
 30
0.0
 11
590.341868
 21
207.610727
 31
0.0
  0
LINE
  5
196
100
AcDbEntity
  8
M04
100
AcDbLine
 10
601.341868
 20
207.610727
 30
0.0
 11
601.341868
 21
203.610727
 31
0.0
  0
LINE
  5
197
100
AcDbEntity
  8
M04
100
AcDbLine
 10
590.341868
 20
207.610727
 30
0.0
 11
590.341868
 21
203.610727
 31
0.0
  0
LINE
  5
198
100
AcDbEntity
  8
M05
100
AcDbLine
 10
592.841868
 20
208.610727
 30
0.0
 11
598.841868
 21
208.610727
 31
0.0
  0
LINE
  5
199
102
{ACAD_REACTORS
330
164
102
}
100
AcDbEntity
  8
M04
100
AcDbLine
 10
598.141868
 20
220.910727
 30
0.0
 11
595.841868
 21
222.238633
 31
0.0
  0
LINE
  5
19A
102
{ACAD_REACTORS
330
164
102
}
100
AcDbEntity
  8
M04
100
AcDbLine
 10
593.541868
 20
220.910727
 30
0.0
 11
595.841868
 21
222.238633
 31
0.0
  0
LINE
  5
19B
100
AcDbEntity
  8
M04
100
AcDbLine
 10
593.541868
 20
220.910727
 30
0.0
 11
598.141868
 21
220.910727
 31
0.0
  0
LINE
  5
19C
102
{ACAD_REACTORS
330
164
102
}
100
AcDbEntity
  8
M04
100
AcDbLine
 10
592.841868
 20
219.410727
 30
0.0
 11
598.841868
 21
219.410727
 31
0.0
  0
ARC
  5
19D
100
AcDbEntity
  8
M05
100
AcDbCircle
 10
595.841868
 20
210.136864
 30
0.0
 40
5.826136
100
AcDbArc
 50
205.69541
 51
334.30459
  0
LINE
  5
19E
100
AcDbEntity
  8
M05
100
AcDbLine
 10
598.841868
 20
216.910727
 30
0.0
 11
598.141868
 21
217.610727
 31
0.0
  0
LINE
  5
19F
100
AcDbEntity
  8
M05
100
AcDbLine
 10
592.841868
 20
216.910727
 30
0.0
 11
593.541868
 21
217.610727
 31
0.0
  0
LINE
  5
1A0
100
AcDbEntity
  8
M05
100
AcDbLine
 10
592.841868
 20
216.910727
 30
0.0
 11
598.841868
 21
216.910727
 31
0.0
  0
LINE
  5
1A1
100
AcDbEntity
  8
M05
100
AcDbLine
 10
593.541868
 20
217.610727
 30
0.0
 11
598.141868
 21
217.610727
 31
0.0
  0
LINE
  5
1A2
100
AcDbEntity
  8
M04
100
AcDbLine
 10
592.141868
 20
209.610727
 30
0.0
 11
592.141868
 21
207.610727
 31
0.0
  0
LINE
  5
1A3
100
AcDbEntity
  8
M04
100
AcDbLine
 10
599.541868
 20
209.610727
 30
0.0
 11
599.541868
 21
207.610727
 31
0.0
  0
LINE
  5
1A4
100
AcDbEntity
  8
M05
100
AcDbLine
 10
598.141868
 20
217.610727
 30
0.0
 11
598.141868
 21
208.610727
 31
0.0
  0
LINE
  5
1A5
100
AcDbEntity
  8
M05
100
AcDbLine
 10
593.541868
 20
217.610727
 30
0.0
 11
593.541868
 21
208.610727
 31
0.0
  0
LINE
  5
1A6
102
{ACAD_REACTORS
330
164
102
}
100
AcDbEntity
  8
M05
100
AcDbLine
 10
592.841868
 20
216.910727
 30
0.0
 11
592.841868
 21
207.610727
 31
0.0
  0
LINE
  5
1A7
102
{ACAD_REACTORS
330
164
102
}
100
AcDbEntity
  8
M05
100
AcDbLine
 10
598.841868
 20
216.910727
 30
0.0
 11
598.841868
 21
207.610727
 31
0.0
  0
LINE
  5
1A8
100
AcDbEntity
  8
M04
100
AcDbLine
 10
601.341868
 20
207.610727
 30
0.0
 11
601.091868
 21
207.610727
 31
0.0
  0
LINE
  5
1A9
100
AcDbEntity
  8
CENTRE
100
AcDbLine
 10
595.841868
 20
224.877228
 30
0.0
 11
595.841868
 21
199.964539
 31
0.0
  0
TEXT
  5
1AA
100
AcDbEntity
  8
TEXT
100
AcDbText
 10
574.915949
 20
205.178215
 30
0.0
 40
2.0
  1
MA010000
 41
0.9
100
AcDbText
  0
LINE
  5
1AB
100
AcDbEntity
  8
M04
100
AcDbLine
 10
539.841868
 20
184.610727
 30
0.0
 11
539.841868
 21
175.610727
 31
0.0
  0
LINE
  5
1AC
100
AcDbEntity
  8
M05
100
AcDbLine
 10
535.841868
 20
204.310727
 30
0.0
 11
536.541868
 21
203.610727
 31
0.0
  0
LINE
  5
1AD
102
{ACAD_REACTORS
330
162
102
}
100
AcDbEntity
  8
M02
100
AcDbLine
 10
534.841868
 20
209.610727
 30
0.0
 11
534.841868
 21
206.610727
 31
0.0
  0
LINE
  5
1AF
102
{ACAD_REACTORS
330
164
102
}
100
AcDbEntity
  8
M01
100
AcDbLine
 10
579.841868
 20
209.610727
 30
0.0
 11
592.841868
 21
209.610727
 31
0.0
  0
LINE
  5
1B0
100
AcDbEntity
  8
M04
100
AcDbLine
 10
539.841868
 20
184.610727
 30
0.0
 11
599.841868
 21
184.610727
 31
0.0
  0
LINE
  5
1B1
100
AcDbEntity
  8
M04
100
AcDbLine
 10
549.841868
 20
194.610727
 30
0.0
 11
539.841868
 21
184.610727
 31
0.0
  0
LINE
  5
1B2
100
AcDbEntity
  8
M04
100
AcDbLine
 10
599.841868
 20
184.610727
 30
0.0
 11
599.841868
 21
175.610727
 31
0.0
  0
LINE
  5
1B3
100
AcDbEntity
  8
M04
100
AcDbLine
 10
589.841868
 20
194.610727
 30
0.0
 11
599.841868
 21
184.610727
 31
0.0
  0
LINE
  5
1B4
100
AcDbEntity
  8
M05
100
AcDbLine
 10
566.800994
 20
201.309513
 30
0.0
 11
572.882742
 21
201.309513
 31
0.0
  0
ARC
  5
1B5
100
AcDbEntity
  8
M05
100
AcDbCircle
 10
569.841868
 20
186.110727
 30
0.0
 40
15.5
100
AcDbArc
 50
101.313981
 51
126.249321
  0
LINE
  5
1B6
100
AcDbEntity
  8
M05
100
AcDbLine
 10
565.841868
 20
219.610727
 30
0.0
 11
566.800994
 21
201.309513
 31
0.0
  0
LINE
  5
1B7
100
AcDbEntity
  8
M05
100
AcDbLine
 10
573.841868
 20
219.610727
 30
0.0
 11
572.882742
 21
201.309513
 31
0.0
  0
ARC
  5
1B8
100
AcDbEntity
  8
M05
100
AcDbCircle
 10
569.841868
 20
186.110727
 30
0.0
 40
15.5
100
AcDbArc
 50
53.750679
 51
78.686019
  0
LINE
  5
1B9
100
AcDbEntity
  8
M04
100
AcDbLine
 10
549.841868
 20
200.610727
 30
0.0
 11
549.841868
 21
202.610727
 31
0.0
  0
LINE
  5
1BA
100
AcDbEntity
  8
M04
100
AcDbLine
 10
549.841868
 20
199.310727
 30
0.0
 11
549.841868
 21
194.610727
 31
0.0
  0
LINE
  5
1BB
100
AcDbEntity
  8
M04
100
AcDbLine
 10
589.841868
 20
200.610727
 30
0.0
 11
589.841868
 21
202.610727
 31
0.0
  0
LINE
  5
1BC
100
AcDbEntity
  8
M04
100
AcDbLine
 10
589.841868
 20
199.310727
 30
0.0
 11
589.841868
 21
194.610727
 31
0.0
  0
LINE
  5
1BD
100
AcDbEntity
  8
M04
100
AcDbLine
 10
589.841868
 20
194.610727
 30
0.0
 11
549.841868
 21
194.610727
 31
0.0
  0
LINE
  5
1BE
100
AcDbEntity
  8
M05
100
AcDbLine
 10
550.341868
 20
200.610727
 30
0.0
 11
549.841868
 21
200.610727
 31
0.0
  0
LINE
  5
1BF
100
AcDbEntity
  8
M05
100
AcDbLine
 10
550.341868
 20
203.610727
 30
0.0
 11
536.541868
 21
203.610727
 31
0.0
  0
LINE
  5
1C0
100
AcDbEntity
  8
M05
100
AcDbLine
 10
550.341868
 20
203.610727
 30
0.0
 11
550.341868
 21
200.610727
 31
0.0
  0
LINE
  5
1C1
100
AcDbEntity
  8
M05
100
AcDbLine
 10
589.341868
 20
203.610727
 30
0.0
 11
589.341868
 21
200.610727
 31
0.0
  0
LINE
  5
1C2
100
AcDbEntity
  8
M05
100
AcDbLine
 10
589.841868
 20
200.610727
 30
0.0
 11
589.341868
 21
200.610727
 31
0.0
  0
LINE
  5
1C3
100
AcDbEntity
  8
M05
100
AcDbLine
 10
550.541868
 20
198.610727
 30
0.0
 11
549.841868
 21
199.310727
 31
0.0
  0
LINE
  5
1C4
100
AcDbEntity
  8
M05
100
AcDbLine
 10
589.141868
 20
198.610727
 30
0.0
 11
589.841868
 21
199.310727
 31
0.0
  0
LINE
  5
1C5
100
AcDbEntity
  8
M05
100
AcDbLine
 10
589.141868
 20
198.610727
 30
0.0
 11
550.541868
 21
198.610727
 31
0.0
  0
LINE
  5
1C6
100
AcDbEntity
  8
M05
100
AcDbLine
 10
549.841868
 20
200.610727
 30
0.0
 11
549.841868
 21
199.310727
 31
0.0
  0
LINE
  5
1C7
100
AcDbEntity
  8
M05
100
AcDbLine
 10
589.841868
 20
200.610727
 30
0.0
 11
589.841868
 21
199.310727
 31
0.0
  0
LINE
  5
1C8
102
{ACAD_REACTORS
330
164
102
}
100
AcDbEntity
  8
M04
100
AcDbLine
 10
559.841868
 20
210.110727
 30
0.0
 11
559.341868
 21
209.610727
 31
0.0
  0
LINE
  5
1C9
102
{ACAD_REACTORS
330
164
102
}
100
AcDbEntity
  8
M04
100
AcDbLine
 10
579.841868
 20
210.110727
 30
0.0
 11
580.341868
 21
209.610727
 31
0.0
  0
LINE
  5
1CA
100
AcDbEntity
  8
M05
100
AcDbLine
 10
535.841868
 20
208.910727
 30
0.0
 11
536.541868
 21
209.610727
 31
0.0
  0
LINE
  5
1CB
100
AcDbEntity
  8
M05
100
AcDbLine
 10
535.841868
 20
208.910727
 30
0.0
 11
535.841868
 21
204.310727
 31
0.0
  0
LINE
  5
1CC
100
AcDbEntity
  8
M05
100
AcDbLine
 10
603.841868
 20
208.910727
 30
0.0
 11
603.141868
 21
209.610727
 31
0.0
  0
LINE
  5
1CD
100
AcDbEntity
  8
M05
100
AcDbLine
 10
603.841868
 20
204.310727
 30
0.0
 11
603.141868
 21
203.610727
 31
0.0
  0
LINE
  5
1CE
100
AcDbEntity
  8
M02
100
AcDbLine
 10
604.841868
 20
209.610727
 30
0.0
 11
604.841868
 21
206.610727
 31
0.0
  0
LINE
  5
1CF
100
AcDbEntity
  8
M05
100
AcDbLine
 10
603.141868
 20
203.610727
 30
0.0
 11
589.341868
 21
203.610727
 31
0.0
  0
LINE
  5
1D0
100
AcDbEntity
  8
M05
100
AcDbLine
 10
603.841868
 20
208.910727
 30
0.0
 11
603.841868
 21
204.310727
 31
0.0
  0
LINE
  5
1D1
102
{ACAD_REACTORS
330
164
102
}
100
AcDbEntity
  8
M04
100
AcDbLine
 10
559.841868
 20
218.610727
 30
0.0
 11
559.841868
 21
219.610727
 31
0.0
  0
LINE
  5
1D2
102
{ACAD_REACTORS
330
164
102
}
100
AcDbEntity
  8
M04
100
AcDbLine
 10
560.841868
 20
219.610727
 30
0.0
 11
559.841868
 21
219.610727
 31
0.0
  0
LINE
  5
1D3
102
{ACAD_REACTORS
330
164
102
}
100
AcDbEntity
  8
M04
100
AcDbLine
 10
579.841868
 20
218.610727
 30
0.0
 11
579.841868
 21
219.610727
 31
0.0
  0
LINE
  5
1D4
102
{ACAD_REACTORS
330
164
102
}
100
AcDbEntity
  8
M04
100
AcDbLine
 10
578.841868
 20
219.610727
 30
0.0
 11
579.841868
 21
219.610727
 31
0.0
  0
LINE
  5
1D5
100
AcDbEntity
  8
M05
100
AcDbLine
 10
578.841868
 20
219.610727
 30
0.0
 11
579.841868
 21
218.610727
 31
0.0
  0
LINE
  5
1D6
100
AcDbEntity
  8
M05
100
AcDbLine
 10
559.841868
 20
218.610727
 30
0.0
 11
560.841868
 21
219.610727
 31
0.0
  0
LINE
  5
1D7
102
{ACAD_REACTORS
330
164
102
}
100
AcDbEntity
  8
M05
100
AcDbLine
 10
578.841868
 20
219.610727
 30
0.0
 11
560.841868
 21
219.610727
 31
0.0
  0
LINE
  5
1D8
102
{ACAD_REACTORS
330
164
102
}
100
AcDbEntity
  8
M05
100
AcDbLine
 10
559.841868
 20
218.610727
 30
0.0
 11
559.841868
 21
209.610727
 31
0.0
  0
LINE
  5
1D9
102
{ACAD_REACTORS
330
164
102
}
100
AcDbEntity
  8
M05
100
AcDbLine
 10
579.841868
 20
218.610727
 30
0.0
 11
579.841868
 21
209.610727
 31
0.0
  0
LINE
  5
1DA
100
AcDbEntity
  8
DIMS
 62
     4
100
AcDbLine
 10
644.841868
 20
236.510727
 30
0.0
 11
644.841868
 21
238.810727
 31
0.0
  0
LINE
  5
1DB
100
AcDbEntity
  8
DIMS
 62
     4
100
AcDbLine
 10
644.841868
 20
229.710727
 30
0.0
 11
644.841868
 21
227.410727
 31
0.0
  0
LINE
  5
1DC
100
AcDbEntity
  8
DIMS
 62
     4
100
AcDbLine
 10
644.841868
 20
231.410727
 30
0.0
 11
644.841868
 21
234.810727
 31
0.0
  0
LINE
  5
1DD
100
AcDbEntity
  8
DIMS
 62
     4
100
AcDbLine
 10
494.841868
 20
236.510727
 30
0.0
 11
494.841868
 21
238.810727
 31
0.0
  0
LINE
  5
1DE
100
AcDbEntity
  8
DIMS
 62
     4
100
AcDbLine
 10
494.841868
 20
229.710727
 30
0.0
 11
494.841868
 21
227.410727
 31
0.0
  0
LINE
  5
1DF
100
AcDbEntity
  8
DIMS
 62
     4
100
AcDbLine
 10
494.841868
 20
231.410727
 30
0.0
 11
494.841868
 21
234.810727
 31
0.0
  0
CIRCLE
  5
1E0
100
AcDbEntity
  8
M03
100
AcDbCircle
 10
494.841868
 20
233.110727
 30
0.0
 40
4.0
  0
LINE
  5
1E1
100
AcDbEntity
  8
M03
100
AcDbLine
 10
524.341868
 20
229.110727
 30
0.0
 11
457.341868
 21
229.110727
 31
0.0
  0
LINE
  5
1E2
100
AcDbEntity
  8
M03
100
AcDbLine
 10
524.341868
 20
237.110727
 30
0.0
 11
457.341868
 21
237.110727
 31
0.0
  0
DIMENSION
  5
1E3
100
AcDbEntity
  8
DIMS
100
AcDbDimension
  2
*D5
 10
615.608968
 20
282.010727
 30
0.0
 11
615.608968
 21
271.312143
 31
0.0
 12
-161.519661
 22
-320.347217
 32
0.0
 70
   128
  3
DIM1
100
AcDbAlignedDimension
 13
593.066868
 23
256.610727
 33
0.0
 14
592.066868
 24
282.010727
 34
0.0
 50
270.0
100
AcDbRotatedDimension
1001
ACAD
1000
DSTYLE
1002
{
1070
   288
1070
     1
1070
   144
1040
1.0
1002
}
  0
DIMENSION
  5
1F0
100
AcDbEntity
  8
DIMS
100
AcDbDimension
  2
*D4
 10
593.066868
 20
313.75854
 30
0.0
 11
571.14732
 21
313.75854
 31
0.0
 12
-161.519661
 22
-320.347217
 32
0.0
 70
   128
  1
%%c46.5
  3
DIM1
100
AcDbAlignedDimension
 13
546.616868
 23
276.433377
 33
0.0
 14
593.066868
 24
276.433377
 34
0.0
100
AcDbRotatedDimension
1001
ACAD
1000
DSTYLE
1002
{
1070
   288
1070
     1
1070
   144
1040
1.0
1002
}
  0
DIMENSION
  5
1FD
100
AcDbEntity
  8
DIMS
100
AcDbDimension
  2
*D3
 10
547.616868
 20
303.717308
 30
0.0
 11
570.80708
 21
303.717308
 31
0.0
 12
-161.519661
 22
-320.347217
 32
0.0
 70
   128
  1
%%c<> H7
  3
DIM1
100
AcDbAlignedDimension
 13
592.066868
 23
282.010727
 33
0.0
 14
547.616868
 24
282.010727
 34
0.0
100
AcDbRotatedDimension
1001
ACAD
1000
DSTYLE
1002
{
1070
   288
1070
     1
1070
   144
1040
1.0
1002
}
  0
DIMENSION
  5
20A
100
AcDbEntity
  8
DIMS
100
AcDbDimension
  2
*D2
 10
518.410073
 20
277.010727
 30
0.0
 11
518.410073
 21
270.310727
 31
0.0
 12
-161.519661
 22
-320.347217
 32
0.0
 70
   128
  1
13.4
  3
DIM1
100
AcDbAlignedDimension
 13
537.841868
 23
263.610727
 33
0.0
 14
547.616868
 24
277.010727
 34
0.0
 50
270.0
100
AcDbRotatedDimension
1001
ACAD
1000
DSTYLE
1002
{
1070
   288
1070
     1
1070
   144
1040
1.0
1002
}
  0
LINE
  5
217
102
{ACAD_REACTORS
330
164
102
}
100
AcDbEntity
  8
M05
100
AcDbLine
 10
560.341868
 20
256.610727
 30
0.0
 11
560.341868
 21
252.610727
 31
0.0
  0
LINE
  5
218
102
{ACAD_REACTORS
330
164
102
}
100
AcDbEntity
  8
M05
100
AcDbLine
 10
579.341868
 20
256.610727
 30
0.0
 11
579.341868
 21
252.610727
 31
0.0
  0
TEXT
  5
219
100
AcDbEntity
  8
TEXT
100
AcDbText
 10
575.553242
 20
259.331453
 30
0.0
 40
2.0
  1
MA010002
 41
0.9
100
AcDbText
  0
LINE
  5
21A
102
{ACAD_REACTORS
330
160
102
}
100
AcDbEntity
  8
M02
100
AcDbLine
 10
546.616868
 20
259.610727
 30
0.0
 11
546.616868
 21
256.610727
 31
0.0
  0
LINE
  5
21B
100
AcDbEntity
  8
M03
100
AcDbLine
 10
572.141868
 20
264.010727
 30
0.0
 11
572.141868
 21
251.610727
 31
0.0
  0
LINE
  5
21C
100
AcDbEntity
  8
M03
100
AcDbLine
 10
567.541868
 20
264.010727
 30
0.0
 11
567.541868
 21
251.610727
 31
0.0
  0
LINE
  5
21D
100
AcDbEntity
  8
M03
100
AcDbLine
 10
566.841868
 20
264.010727
 30
0.0
 11
566.841868
 21
251.610727
 31
0.0
  0
LINE
  5
21E
100
AcDbEntity
  8
M03
100
AcDbLine
 10
572.841868
 20
264.010727
 30
0.0
 11
572.841868
 21
251.610727
 31
0.0
  0
ARC
  5
21F
100
AcDbEntity
  8
M03
100
AcDbCircle
 10
558.341868
 20
269.010727
 30
0.0
 40
5.0
100
AcDbArc
 50
180.0
 51
270.0
  0
ARC
  5
220
100
AcDbEntity
  8
M03
100
AcDbCircle
 10
581.341868
 20
269.010727
 30
0.0
 40
5.0
100
AcDbArc
 50
270.0
 51
0.0
  0
LINE
  5
221
100
AcDbEntity
  8
M03
100
AcDbLine
 10
553.341868
 20
282.010727
 30
0.0
 11
553.341868
 21
269.010727
 31
0.0
  0
LINE
  5
222
100
AcDbEntity
  8
M03
100
AcDbLine
 10
586.341868
 20
282.010727
 30
0.0
 11
586.341868
 21
269.010727
 31
0.0
  0
LINE
  5
223
100
AcDbEntity
  8
M03
100
AcDbLine
 10
581.341868
 20
264.010727
 30
0.0
 11
558.341868
 21
264.010727
 31
0.0
  0
LINE
  5
224
100
AcDbEntity
  8
M05
100
AcDbLine
 10
548.116868
 20
257.310727
 30
0.0
 11
591.566868
 21
257.310727
 31
0.0
  0
LINE
  5
225
100
AcDbEntity
  8
M05
100
AcDbLine
 10
590.866868
 20
256.610727
 30
0.0
 11
591.566868
 21
257.310727
 31
0.0
  0
LINE
  5
226
100
AcDbEntity
  8
M05
100
AcDbLine
 10
548.116868
 20
257.310727
 30
0.0
 11
548.816868
 21
256.610727
 31
0.0
  0
LINE
  5
227
100
AcDbEntity
  8
M05
100
AcDbLine
 10
548.116868
 20
277.010727
 30
0.0
 11
548.116868
 21
257.310727
 31
0.0
  0
LINE
  5
228
100
AcDbEntity
  8
M04
100
AcDbLine
 10
546.616868
 20
276.433377
 30
0.0
 11
548.116868
 21
276.433377
 31
0.0
  0
LINE
  5
229
100
AcDbEntity
  8
M04
100
AcDbLine
 10
546.616868
 20
276.433377
 30
0.0
 11
546.616868
 21
263.610727
 31
0.0
  0
LINE
  5
22A
100
AcDbEntity
  8
M04
100
AcDbLine
 10
547.616868
 20
277.010727
 30
0.0
 11
546.616868
 21
276.433377
 31
0.0
  0
LINE
  5
22B
100
AcDbEntity
  8
M04
100
AcDbLine
 10
547.616868
 20
281.010727
 30
0.0
 11
547.616868
 21
282.010727
 31
0.0
  0
LINE
  5
22C
100
AcDbEntity
  8
M04
100
AcDbLine
 10
548.616868
 20
282.010727
 30
0.0
 11
547.616868
 21
282.010727
 31
0.0
  0
LINE
  5
22D
100
AcDbEntity
  8
M05
100
AcDbLine
 10
548.616868
 20
282.010727
 30
0.0
 11
547.616868
 21
281.010727
 31
0.0
  0
LINE
  5
22E
100
AcDbEntity
  8
M05
100
AcDbLine
 10
547.616868
 20
281.010727
 30
0.0
 11
547.616868
 21
277.010727
 31
0.0
  0
LINE
  5
22F
100
AcDbEntity
  8
M05
100
AcDbLine
 10
591.566868
 20
277.010727
 30
0.0
 11
591.566868
 21
257.310727
 31
0.0
  0
LINE
  5
230
100
AcDbEntity
  8
M04
100
AcDbLine
 10
593.066868
 20
276.433377
 30
0.0
 11
591.566868
 21
276.433377
 31
0.0
  0
LINE
  5
231
100
AcDbEntity
  8
M04
100
AcDbLine
 10
593.066868
 20
276.433377
 30
0.0
 11
593.066868
 21
263.610727
 31
0.0
  0
LINE
  5
232
100
AcDbEntity
  8
M04
100
AcDbLine
 10
592.066868
 20
277.010727
 30
0.0
 11
593.066868
 21
276.433377
 31
0.0
  0
LINE
  5
233
100
AcDbEntity
  8
M04
100
AcDbLine
 10
592.066868
 20
281.010727
 30
0.0
 11
592.066868
 21
282.010727
 31
0.0
  0
LINE
  5
234
100
AcDbEntity
  8
M04
100
AcDbLine
 10
591.066868
 20
282.010727
 30
0.0
 11
592.066868
 21
282.010727
 31
0.0
  0
LINE
  5
235
100
AcDbEntity
  8
M05
100
AcDbLine
 10
560.341868
 20
252.610727
 30
0.0
 11
579.341868
 21
252.610727
 31
0.0
  0
LINE
  5
236
100
AcDbEntity
  8
M05
100
AcDbLine
 10
547.616868
 20
281.010727
 30
0.0
 11
592.066868
 21
281.010727
 31
0.0
  0
LINE
  5
237
100
AcDbEntity
  8
M05
100
AcDbLine
 10
591.066868
 20
282.010727
 30
0.0
 11
592.066868
 21
281.010727
 31
0.0
  0
LINE
  5
238
100
AcDbEntity
  8
M05
100
AcDbLine
 10
592.066868
 20
281.010727
 30
0.0
 11
592.066868
 21
277.010727
 31
0.0
  0
LINE
  5
239
100
AcDbEntity
  8
M05
100
AcDbLine
 10
592.066868
 20
277.010727
 30
0.0
 11
547.616868
 21
277.010727
 31
0.0
  0
LINE
  5
23A
100
AcDbEntity
  8
M05
100
AcDbLine
 10
591.066868
 20
282.010727
 30
0.0
 11
548.616868
 21
282.010727
 31
0.0
  0
LINE
  5
23B
102
{ACAD_REACTORS
330
161
102
}
100
AcDbEntity
  8
M02
100
AcDbLine
 10
593.066868
 20
259.610727
 30
0.0
 11
593.066868
 21
256.610727
 31
0.0
  0
LINE
  5
23C
102
{ACAD_REACTORS
330
164
102
}
100
AcDbEntity
  8
M04
100
AcDbLine
 10
561.341868
 20
251.610727
 30
0.0
 11
560.341868
 21
251.610727
 31
0.0
  0
LINE
  5
23D
102
{ACAD_REACTORS
330
164
102
}
100
AcDbEntity
  8
M04
100
AcDbLine
 10
560.341868
 20
252.610727
 30
0.0
 11
560.341868
 21
251.610727
 31
0.0
  0
LINE
  5
23E
102
{ACAD_REACTORS
330
164
102
}
100
AcDbEntity
  8
M04
100
AcDbLine
 10
578.341868
 20
251.610727
 30
0.0
 11
579.341868
 21
251.610727
 31
0.0
  0
LINE
  5
23F
102
{ACAD_REACTORS
330
164
102
}
100
AcDbEntity
  8
M04
100
AcDbLine
 10
579.341868
 20
252.610727
 30
0.0
 11
579.341868
 21
251.610727
 31
0.0
  0
LINE
  5
240
100
AcDbEntity
  8
M05
100
AcDbLine
 10
561.341868
 20
251.610727
 30
0.0
 11
560.341868
 21
252.610727
 31
0.0
  0
LINE
  5
241
100
AcDbEntity
  8
M05
100
AcDbLine
 10
579.341868
 20
252.610727
 30
0.0
 11
578.341868
 21
251.610727
 31
0.0
  0
LINE
  5
242
102
{ACAD_REACTORS
330
164
102
}
100
AcDbEntity
  8
M05
100
AcDbLine
 10
578.341868
 20
251.610727
 30
0.0
 11
561.341868
 21
251.610727
 31
0.0
  0
POINT
  5
243
100
AcDbEntity
  8
DEFPOINTS
  6
BYBLOCK
 62
     0
100
AcDbPoint
 10
569.841868
 20
256.610727
 30
0.0
  0
LINE
  5
244
102
{ACAD_REACTORS
330
164
102
}
100
AcDbEntity
  8
M04
100
AcDbLine
 10
559.641868
 20
256.610727
 30
0.0
 11
560.341868
 21
255.910727
 31
0.0
  0
LINE
  5
245
102
{ACAD_REACTORS
330
164
102
}
100
AcDbEntity
  8
M04
100
AcDbLine
 10
580.041868
 20
256.610727
 30
0.0
 11
579.341868
 21
255.910727
 31
0.0
  0
HATCH
  5
246
100
AcDbEntity
  8
HATCH
100
AcDbHatch
 10
0.0
 20
0.0
 30
0.0
210
0.0
220
0.0
230
1.0
  2
_U
 70
     0
 71
     1
 91
        2
 92
        7
 72
     0
 73
     1
 93
       11
 10
470.6418684629993
 20
209.6107273354996
 10
465.2007504504572
 20
209.6107273354997
 10
460.8418684629998
 20
205.2518453480423
 10
460.8418684629997
 20
202.6107273354996
 10
463.8418684630008
 20
202.6107273354996
 10
464.8418684630002
 20
203.6107273354992
 10
466.8418684629998
 20
203.6107273354992
 10
467.8418684629995
 20
202.6107273354996
 10
470.6418684630001
 20
202.6107273354996
 10
471.3418684629998
 20
203.3107273354993
 10
471.3418684629998
 20
208.9107273354994
 97
       10
330
468
330
5DA
330
45F
330
45A
330
5D9
330
43D
330
43E
330
43C
330
469
330
46A
 92
        7
 72
     0
 73
     1
 93
       11
 10
444.0418684630001
 20
209.6107273354997
 10
443.3418684629997
 20
208.9107273354994
 10
443.3418684629999
 20
203.310727335499
 10
444.0418684629993
 20
202.6107273354997
 10
446.8418684630005
 20
202.6107273354997
 10
447.841868463
 20
203.6107273354993
 10
449.8418684629992
 20
203.6107273354992
 10
450.8418684629988
 20
202.6107273354997
 10
453.8418684629998
 20
202.6107273354997
 10
453.8418684629998
 20
205.2518453480424
 10
449.4829864755425
 20
209.6107273354997
 97
       10
330
5DA
330
46D
330
470
330
46E
330
5C9
330
43F
330
441
330
440
330
45B
330
45D
 75
     0
 76
     0
 52
135.0
 41
1.5
 77
     0
 78
     1
 53
135.0
 43
37.373301
 44
102.688323
 45
-1.060660171779821
 46
-1.060660171779821
 79
     0
 47
0.062709
 98
        2
 10
478.691142
 20
207.035978
 10
446.697152
 20
206.910559
  0
CIRCLE
  5
247
100
AcDbEntity
  8
M01
100
AcDbCircle
 10
457.341868
 20
233.110727
 30
0.0
 40
4.0
  0
LINE
  5
248
102
{ACAD_REACTORS
330
164
102
}
100
AcDbEntity
  8
M01
100
AcDbLine
 10
565.841868
 20
229.110727
 30
0.0
 11
524.341868
 21
229.110727
 31
0.0
  0
LINE
  5
249
100
AcDbEntity
  8
M01
100
AcDbLine
 10
569.841868
 20
233.110727
 30
0.0
 11
573.841868
 21
229.110727
 31
0.0
  0
LINE
  5
24A
100
AcDbEntity
  8
M01
100
AcDbLine
 10
565.841868
 20
229.110727
 30
0.0
 11
569.841868
 21
233.110727
 31
0.0
  0
LINE
  5
24B
102
{ACAD_REACTORS
330
164
102
}
100
AcDbEntity
  8
M01
100
AcDbLine
 10
565.841868
 20
229.110727
 30
0.0
 11
565.841868
 21
219.610727
 31
0.0
  0
LINE
  5
24C
100
AcDbEntity
  8
CENTRE
100
AcDbLine
 10
312.365239
 20
419.747034
 30
0.0
 11
524.341868
 21
419.747034
 31
0.0
  0
LINE
  5
24D
100
AcDbEntity
  8
DIMS
100
AcDbLine
 10
312.075876
 20
444.649277
 30
0.0
 11
312.075876
 21
419.747034
 31
0.0
  0
INSERT
  5
24E
100
AcDbEntity
  8
DIMS
100
AcDbBlockReference
  2
ARROW1
 10
312.075876
 20
444.649277
 30
0.0
 41
10.0
 42
10.0
 43
10.0
 50
90.0
  0
LINE
  5
255
102
{ACAD_REACTORS
330
164
330
162
330
160
102
}
100
AcDbEntity
  8
CENTRE
100
AcDbLine
 10
524.341868
 20
267.705451
 30
0.0
 11
524.341868
 21
196.386344
 31
0.0
  0
CIRCLE
  5
256
102
{ACAD_REACTORS
330
164
102
}
100
AcDbEntity
  8
M01
100
AcDbCircle
 10
644.841868
 20
233.110727
 30
0.0
 40
4.0
  0
LEADER
  5
257
100
AcDbEntity
  8
DIMS
 62
     4
100
AcDbLeader
  3
DIM1$7
 76
     2
 10
452.603603
 20
365.297445
 30
0.0
 10
440.132019
 20
352.302685
 30
0.0
 77
   256
1001
ACAD
1000
DSTYLE
1002
{
1070
   144
1040
1.0
1002
}
  0
LINE
  5
259
100
AcDbEntity
  8
DIMS
 62
     4
100
AcDbLine
 10
414.341868
 20
492.647034
 30
0.0
 11
414.341868
 21
497.447034
 31
0.0
  0
LINE
  5
25A
100
AcDbEntity
  8
DIMS
 62
     4
100
AcDbLine
 10
414.341868
 20
485.847034
 30
0.0
 11
414.341868
 21
481.047034
 31
0.0
  0
LINE
  5
25B
100
AcDbEntity
  8
DIMS
 62
     4
100
AcDbLine
 10
417.741868
 20
489.247034
 30
0.0
 11
422.541868
 21
489.247034
 31
0.0
  0
LINE
  5
25C
100
AcDbEntity
  8
DIMS
 62
     4
100
AcDbLine
 10
410.941868
 20
489.247034
 30
0.0
 11
406.141868
 21
489.247034
 31
0.0
  0
LINE
  5
25D
100
AcDbEntity
  8
DIMS
 62
     4
100
AcDbLine
 10
414.341868
 20
487.547034
 30
0.0
 11
414.341868
 21
490.947034
 31
0.0
  0
LINE
  5
25E
100
AcDbEntity
  8
DIMS
 62
     4
100
AcDbLine
 10
412.641868
 20
489.247034
 30
0.0
 11
416.041868
 21
489.247034
 31
0.0
  0
LINE
  5
25F
100
AcDbEntity
  8
DIMS
 62
     4
100
AcDbLine
 10
414.341868
 20
423.147034
 30
0.0
 11
414.341868
 21
427.947034
 31
0.0
  0
LINE
  5
260
100
AcDbEntity
  8
DIMS
 62
     4
100
AcDbLine
 10
414.341868
 20
416.347034
 30
0.0
 11
414.341868
 21
411.547034
 31
0.0
  0
LINE
  5
261
100
AcDbEntity
  8
DIMS
 62
     4
100
AcDbLine
 10
414.341868
 20
418.047034
 30
0.0
 11
414.341868
 21
421.447034
 31
0.0
  0
LINE
  5
262
100
AcDbEntity
  8
DIMS
 62
     4
100
AcDbLine
 10
457.341868
 20
373.147034
 30
0.0
 11
457.341868
 21
377.947034
 31
0.0
  0
LINE
  5
263
100
AcDbEntity
  8
DIMS
 62
     4
100
AcDbLine
 10
457.341868
 20
366.347034
 30
0.0
 11
457.341868
 21
361.547034
 31
0.0
  0
LINE
  5
264
100
AcDbEntity
  8
DIMS
 62
     4
100
AcDbLine
 10
460.741868
 20
369.747034
 30
0.0
 11
465.541868
 21
369.747034
 31
0.0
  0
LINE
  5
265
100
AcDbEntity
  8
DIMS
 62
     4
100
AcDbLine
 10
453.941868
 20
369.747034
 30
0.0
 11
449.141868
 21
369.747034
 31
0.0
  0
LINE
  5
266
100
AcDbEntity
  8
DIMS
 62
     4
100
AcDbLine
 10
457.341868
 20
368.047034
 30
0.0
 11
457.341868
 21
371.447034
 31
0.0
  0
LINE
  5
267
100
AcDbEntity
  8
DIMS
 62
     4
100
AcDbLine
 10
455.641868
 20
369.747034
 30
0.0
 11
459.041868
 21
369.747034
 31
0.0
  0
LINE
  5
268
100
AcDbEntity
  8
DIMS
 62
     4
100
AcDbLine
 10
532.341868
 20
373.147034
 30
0.0
 11
532.341868
 21
377.947034
 31
0.0
  0
LINE
  5
269
100
AcDbEntity
  8
DIMS
 62
     4
100
AcDbLine
 10
532.341868
 20
366.347034
 30
0.0
 11
532.341868
 21
361.547034
 31
0.0
  0
LINE
  5
26A
100
AcDbEntity
  8
DIMS
 62
     4
100
AcDbLine
 10
535.741868
 20
369.747034
 30
0.0
 11
540.541868
 21
369.747034
 31
0.0
  0
LINE
  5
26B
100
AcDbEntity
  8
DIMS
 62
     4
100
AcDbLine
 10
528.941868
 20
369.747034
 30
0.0
 11
524.141868
 21
369.747034
 31
0.0
  0
LINE
  5
26C
100
AcDbEntity
  8
DIMS
 62
     4
100
AcDbLine
 10
532.341868
 20
368.047034
 30
0.0
 11
532.341868
 21
371.447034
 31
0.0
  0
LINE
  5
26D
100
AcDbEntity
  8
DIMS
 62
     4
100
AcDbLine
 10
530.641868
 20
369.747034
 30
0.0
 11
534.041868
 21
369.747034
 31
0.0
  0
LINE
  5
26E
100
AcDbEntity
  8
DIMS
 62
     4
100
AcDbLine
 10
607.341868
 20
373.147034
 30
0.0
 11
607.341868
 21
377.947034
 31
0.0
  0
LINE
  5
26F
100
AcDbEntity
  8
DIMS
 62
     4
100
AcDbLine
 10
607.341868
 20
366.347034
 30
0.0
 11
607.341868
 21
361.547034
 31
0.0
  0
LINE
  5
270
100
AcDbEntity
  8
DIMS
 62
     4
100
AcDbLine
 10
610.741868
 20
369.747034
 30
0.0
 11
615.541868
 21
369.747034
 31
0.0
  0
LINE
  5
271
100
AcDbEntity
  8
DIMS
 62
     4
100
AcDbLine
 10
603.941868
 20
369.747034
 30
0.0
 11
599.141868
 21
369.747034
 31
0.0
  0
LINE
  5
272
100
AcDbEntity
  8
DIMS
 62
     4
100
AcDbLine
 10
607.341868
 20
368.047034
 30
0.0
 11
607.341868
 21
371.447034
 31
0.0
  0
LINE
  5
273
100
AcDbEntity
  8
DIMS
 62
     4
100
AcDbLine
 10
605.641868
 20
369.747034
 30
0.0
 11
609.041868
 21
369.747034
 31
0.0
  0
LINE
  5
274
100
AcDbEntity
  8
DIMS
 62
     4
100
AcDbLine
 10
682.341868
 20
373.147034
 30
0.0
 11
682.341868
 21
377.947034
 31
0.0
  0
LINE
  5
275
100
AcDbEntity
  8
DIMS
 62
     4
100
AcDbLine
 10
682.341868
 20
366.347034
 30
0.0
 11
682.341868
 21
361.547034
 31
0.0
  0
LINE
  5
276
100
AcDbEntity
  8
DIMS
 62
     4
100
AcDbLine
 10
685.741868
 20
369.747034
 30
0.0
 11
690.541868
 21
369.747034
 31
0.0
  0
LINE
  5
277
100
AcDbEntity
  8
DIMS
 62
     4
100
AcDbLine
 10
678.941868
 20
369.747034
 30
0.0
 11
674.141868
 21
369.747034
 31
0.0
  0
LINE
  5
278
100
AcDbEntity
  8
DIMS
 62
     4
100
AcDbLine
 10
682.341868
 20
368.047034
 30
0.0
 11
682.341868
 21
371.447034
 31
0.0
  0
LINE
  5
279
100
AcDbEntity
  8
DIMS
 62
     4
100
AcDbLine
 10
680.641868
 20
369.747034
 30
0.0
 11
684.041868
 21
369.747034
 31
0.0
  0
LINE
  5
27A
100
AcDbEntity
  8
DIMS
 62
     4
100
AcDbLine
 10
725.341868
 20
423.147034
 30
0.0
 11
725.341868
 21
427.947034
 31
0.0
  0
LINE
  5
27B
100
AcDbEntity
  8
DIMS
 62
     4
100
AcDbLine
 10
725.341868
 20
416.347034
 30
0.0
 11
725.341868
 21
411.547034
 31
0.0
  0
LINE
  5
27C
100
AcDbEntity
  8
DIMS
 62
     4
100
AcDbLine
 10
725.341868
 20
418.047034
 30
0.0
 11
725.341868
 21
421.447034
 31
0.0
  0
LINE
  5
27D
100
AcDbEntity
  8
DIMS
 62
     4
100
AcDbLine
 10
725.341868
 20
492.647034
 30
0.0
 11
725.341868
 21
497.447034
 31
0.0
  0
LINE
  5
27E
100
AcDbEntity
  8
DIMS
 62
     4
100
AcDbLine
 10
725.341868
 20
485.847034
 30
0.0
 11
725.341868
 21
481.047034
 31
0.0
  0
LINE
  5
27F
100
AcDbEntity
  8
DIMS
 62
     4
100
AcDbLine
 10
728.741868
 20
489.247034
 30
0.0
 11
733.541868
 21
489.247034
 31
0.0
  0
LINE
  5
280
100
AcDbEntity
  8
DIMS
 62
     4
100
AcDbLine
 10
721.941868
 20
489.247034
 30
0.0
 11
717.141868
 21
489.247034
 31
0.0
  0
LINE
  5
281
100
AcDbEntity
  8
DIMS
 62
     4
100
AcDbLine
 10
725.341868
 20
487.547034
 30
0.0
 11
725.341868
 21
490.947034
 31
0.0
  0
LINE
  5
282
100
AcDbEntity
  8
DIMS
 62
     4
100
AcDbLine
 10
723.641868
 20
489.247034
 30
0.0
 11
727.041868
 21
489.247034
 31
0.0
  0
LINE
  5
283
100
AcDbEntity
  8
DIMS
 62
     4
100
AcDbLine
 10
725.341868
 20
578.647034
 30
0.0
 11
725.341868
 21
583.447034
 31
0.0
  0
LINE
  5
284
100
AcDbEntity
  8
DIMS
 62
     4
100
AcDbLine
 10
725.341868
 20
571.847034
 30
0.0
 11
725.341868
 21
567.047034
 31
0.0
  0
LINE
  5
285
100
AcDbEntity
  8
DIMS
 62
     4
100
AcDbLine
 10
728.741868
 20
575.247034
 30
0.0
 11
733.541868
 21
575.247034
 31
0.0
  0
LINE
  5
286
100
AcDbEntity
  8
DIMS
 62
     4
100
AcDbLine
 10
721.941868
 20
575.247034
 30
0.0
 11
717.141868
 21
575.247034
 31
0.0
  0
LINE
  5
287
100
AcDbEntity
  8
DIMS
 62
     4
100
AcDbLine
 10
725.341868
 20
573.547034
 30
0.0
 11
725.341868
 21
576.947034
 31
0.0
  0
LINE
  5
288
100
AcDbEntity
  8
DIMS
 62
     4
100
AcDbLine
 10
723.641868
 20
575.247034
 30
0.0
 11
727.041868
 21
575.247034
 31
0.0
  0
LINE
  5
289
100
AcDbEntity
  8
DIMS
 62
     4
100
AcDbLine
 10
725.341868
 20
648.147034
 30
0.0
 11
725.341868
 21
652.947034
 31
0.0
  0
LINE
  5
28A
100
AcDbEntity
  8
DIMS
 62
     4
100
AcDbLine
 10
725.341868
 20
641.347034
 30
0.0
 11
725.341868
 21
636.547034
 31
0.0
  0
LINE
  5
28B
100
AcDbEntity
  8
DIMS
 62
     4
100
AcDbLine
 10
725.341868
 20
643.047034
 30
0.0
 11
725.341868
 21
646.447034
 31
0.0
  0
LINE
  5
28C
100
AcDbEntity
  8
DIMS
 62
     4
100
AcDbLine
 10
685.741868
 20
694.747034
 30
0.0
 11
690.541868
 21
694.747034
 31
0.0
  0
LINE
  5
28D
100
AcDbEntity
  8
DIMS
 62
     4
100
AcDbLine
 10
678.941868
 20
694.747034
 30
0.0
 11
674.141868
 21
694.747034
 31
0.0
  0
LINE
  5
28E
100
AcDbEntity
  8
DIMS
 62
     4
100
AcDbLine
 10
680.641868
 20
694.747034
 30
0.0
 11
684.041868
 21
694.747034
 31
0.0
  0
LINE
  5
28F
100
AcDbEntity
  8
DIMS
 62
     4
100
AcDbLine
 10
610.741868
 20
694.747034
 30
0.0
 11
615.541868
 21
694.747034
 31
0.0
  0
LINE
  5
290
100
AcDbEntity
  8
DIMS
 62
     4
100
AcDbLine
 10
603.941868
 20
694.747034
 30
0.0
 11
599.141868
 21
694.747034
 31
0.0
  0
LINE
  5
291
100
AcDbEntity
  8
DIMS
 62
     4
100
AcDbLine
 10
605.641868
 20
694.747034
 30
0.0
 11
609.041868
 21
694.747034
 31
0.0
  0
LINE
  5
292
100
AcDbEntity
  8
DIMS
 62
     4
100
AcDbLine
 10
535.741868
 20
694.747034
 30
0.0
 11
540.541868
 21
694.747034
 31
0.0
  0
LINE
  5
293
100
AcDbEntity
  8
DIMS
 62
     4
100
AcDbLine
 10
528.941868
 20
694.747034
 30
0.0
 11
524.141868
 21
694.747034
 31
0.0
  0
LINE
  5
294
100
AcDbEntity
  8
DIMS
 62
     4
100
AcDbLine
 10
530.641868
 20
694.747034
 30
0.0
 11
534.041868
 21
694.747034
 31
0.0
  0
LINE
  5
295
100
AcDbEntity
  8
DIMS
 62
     4
100
AcDbLine
 10
460.741868
 20
694.747034
 30
0.0
 11
465.541868
 21
694.747034
 31
0.0
  0
LINE
  5
296
100
AcDbEntity
  8
DIMS
 62
     4
100
AcDbLine
 10
453.941868
 20
694.747034
 30
0.0
 11
449.141868
 21
694.747034
 31
0.0
  0
LINE
  5
297
100
AcDbEntity
  8
DIMS
 62
     4
100
AcDbLine
 10
455.641868
 20
694.747034
 30
0.0
 11
459.041868
 21
694.747034
 31
0.0
  0
LINE
  5
298
100
AcDbEntity
  8
DIMS
 62
     4
100
AcDbLine
 10
414.341868
 20
648.147034
 30
0.0
 11
414.341868
 21
652.947034
 31
0.0
  0
LINE
  5
299
100
AcDbEntity
  8
DIMS
 62
     4
100
AcDbLine
 10
414.341868
 20
641.347034
 30
0.0
 11
414.341868
 21
636.547034
 31
0.0
  0
LINE
  5
29A
100
AcDbEntity
  8
DIMS
 62
     4
100
AcDbLine
 10
417.741868
 20
644.747034
 30
0.0
 11
422.541868
 21
644.747034
 31
0.0
  0
LINE
  5
29B
100
AcDbEntity
  8
DIMS
 62
     4
100
AcDbLine
 10
410.941868
 20
644.747034
 30
0.0
 11
406.141868
 21
644.747034
 31
0.0
  0
LINE
  5
29C
100
AcDbEntity
  8
DIMS
 62
     4
100
AcDbLine
 10
414.341868
 20
643.047034
 30
0.0
 11
414.341868
 21
646.447034
 31
0.0
  0
LINE
  5
29D
100
AcDbEntity
  8
DIMS
 62
     4
100
AcDbLine
 10
412.641868
 20
644.747034
 30
0.0
 11
416.041868
 21
644.747034
 31
0.0
  0
LINE
  5
29E
100
AcDbEntity
  8
DIMS
 62
     4
100
AcDbLine
 10
414.341868
 20
578.647034
 30
0.0
 11
414.341868
 21
583.447034
 31
0.0
  0
LINE
  5
29F
100
AcDbEntity
  8
DIMS
 62
     4
100
AcDbLine
 10
414.341868
 20
571.847034
 30
0.0
 11
414.341868
 21
567.047034
 31
0.0
  0
LINE
  5
2A0
100
AcDbEntity
  8
DIMS
 62
     4
100
AcDbLine
 10
417.741868
 20
575.247034
 30
0.0
 11
422.541868
 21
575.247034
 31
0.0
  0
LINE
  5
2A1
100
AcDbEntity
  8
DIMS
 62
     4
100
AcDbLine
 10
410.941868
 20
575.247034
 30
0.0
 11
406.141868
 21
575.247034
 31
0.0
  0
LINE
  5
2A2
100
AcDbEntity
  8
DIMS
 62
     4
100
AcDbLine
 10
414.341868
 20
573.547034
 30
0.0
 11
414.341868
 21
576.947034
 31
0.0
  0
LINE
  5
2A3
100
AcDbEntity
  8
DIMS
 62
     4
100
AcDbLine
 10
412.641868
 20
575.247034
 30
0.0
 11
416.041868
 21
575.247034
 31
0.0
  0
CIRCLE
  5
2A4
100
AcDbEntity
  8
M04
100
AcDbCircle
 10
532.341868
 20
369.747034
 30
0.0
 40
6.5
  0
CIRCLE
  5
2A5
100
AcDbEntity
  8
M04
100
AcDbCircle
 10
414.341868
 20
489.247034
 30
0.0
 40
6.5
  0
CIRCLE
  5
2A6
100
AcDbEntity
  8
M04
100
AcDbCircle
 10
457.341868
 20
369.747034
 30
0.0
 40
6.5
  0
CIRCLE
  5
2A7
100
AcDbEntity
  8
M04
100
AcDbCircle
 10
414.341868
 20
419.747034
 30
0.0
 40
6.5
  0
CIRCLE
  5
2A8
100
AcDbEntity
  8
M04
100
AcDbCircle
 10
607.341868
 20
369.747034
 30
0.0
 40
6.5
  0
CIRCLE
  5
2A9
100
AcDbEntity
  8
M04
100
AcDbCircle
 10
725.341868
 20
489.247034
 30
0.0
 40
6.5
  0
CIRCLE
  5
2AA
100
AcDbEntity
  8
M04
100
AcDbCircle
 10
682.341868
 20
369.747034
 30
0.0
 40
6.5
  0
CIRCLE
  5
2AB
100
AcDbEntity
  8
M04
100
AcDbCircle
 10
725.341868
 20
419.747034
 30
0.0
 40
6.5
  0
CIRCLE
  5
2AC
100
AcDbEntity
  8
M04
100
AcDbCircle
 10
532.341868
 20
694.747034
 30
0.0
 40
6.5
  0
CIRCLE
  5
2AD
100
AcDbEntity
  8
M04
100
AcDbCircle
 10
414.341868
 20
575.247034
 30
0.0
 40
6.5
  0
CIRCLE
  5
2AE
100
AcDbEntity
  8
M04
100
AcDbCircle
 10
457.341868
 20
694.747034
 30
0.0
 40
6.5
  0
CIRCLE
  5
2AF
100
AcDbEntity
  8
M04
100
AcDbCircle
 10
414.341868
 20
644.747034
 30
0.0
 40
6.5
  0
CIRCLE
  5
2B0
100
AcDbEntity
  8
M04
100
AcDbCircle
 10
607.341868
 20
694.747034
 30
0.0
 40
6.5
  0
CIRCLE
  5
2B1
100
AcDbEntity
  8
M04
100
AcDbCircle
 10
725.341868
 20
575.247034
 30
0.0
 40
6.5
  0
CIRCLE
  5
2B2
100
AcDbEntity
  8
M04
100
AcDbCircle
 10
682.341868
 20
694.747034
 30
0.0
 40
6.5
  0
CIRCLE
  5
2B3
100
AcDbEntity
  8
M04
100
AcDbCircle
 10
725.341868
 20
644.747034
 30
0.0
 40
6.5
  0
LINE
  5
2B4
100
AcDbEntity
  8
CENTRE
100
AcDbLine
 10
524.341868
 20
532.247034
 30
0.0
 11
524.341868
 21
419.747034
 31
0.0
  0
CIRCLE
  5
2B5
100
AcDbEntity
  8
M03
100
AcDbCircle
 10
607.341868
 20
644.747034
 30
0.0
 40
2.25
  0
HATCH
  5
2B6
100
AcDbEntity
  8
HATCH
100
AcDbHatch
 10
0.0
 20
0.0
 30
0.0
210
0.0
220
0.0
230
1.0
  2
_U
 70
     0
 71
     0
 91
       16
 92
        7
 72
     1
 73
     1
 93
        5
 10
569.8418684629998
 20
552.2470343545414
 42
0.0
 10
569.8418684629998
 20
552.7470343545415
 42
-0.1856631955229143
 10
566.1565297184327
 20
554.1643540660799
 42
0.3157147729334966
 10
547.9797865630525
 20
536.2470343545415
 42
0.0
 10
550.2459505207346
 20
536.2470343545415
 42
-0.3563939586925999
 97
        0
 92
       22
 72
     1
 73
     1
 93
        4
 10
569.8418684629998
 20
552.2470343545414
 42
0.3563939586925999
 10
550.2459505207346
 20
536.2470343545415
 42
0.0
 10
561.2250244931929
 20
536.2470343545415
 42
-0.2919418509678903
 10
569.8418684629998
 20
541.7470343545415
 42
0.0
 97
        0
 92
        6
 72
     1
 73
     1
 93
        3
 10
569.8418684629998
 20
541.7470343545415
 42
0.2919418509678903
 10
561.2250244931929
 20
536.2470343545415
 42
0.0
 10
569.8418684629998
 20
536.2470343545415
 42
0.0
 97
        0
 92
        7
 72
     1
 73
     1
 93
        4
 10
569.8418684629998
 20
536.2470343545415
 42
0.0
 10
561.2250244931929
 20
536.2470343545415
 42
0.1090809576248918
 10
560.3418684629998
 20
532.2470343545413
 42
0.0
 10
565.8418684629999
 20
532.2470343545413
 42
-0.4142135623730992
 97
        0
 92
       22
 72
     1
 73
     1
 93
        3
 10
569.8418684629998
 20
536.2470343545415
 42
0.4142135623730992
 10
565.8418684629999
 20
532.2470343545413
 42
0.0
 10
569.841868463
 20
532.2470343545412
 42
0.0
 97
        0
 92
        7
 72
     1
 73
     1
 93
        4
 10
561.2250244931929
 20
536.2470343545415
 42
0.0
 10
550.2459505207346
 20
536.2470343545415
 42
0.0503820444848851
 10
549.8418684629998
 20
532.2470343545413
 42
0.0
 10
560.3418684629998
 20
532.2470343545413
 42
-0.1090809576248918
 97
        0
 92
        7
 72
     1
 73
     1
 93
        5
 10
550.2459505207346
 20
536.2470343545415
 42
0.0
 10
547.9797865630525
 20
536.2470343545415
 42
0.003593667114849
 10
547.9245487514615
 20
535.9323730991085
 42
-0.1856631955229133
 10
549.3418684629999
 20
532.2470343545413
 42
0.0
 10
549.8418684629998
 20
532.2470343545413
 42
-0.0503820444848851
 97
        0
 92
        7
 72
     1
 73
     1
 93
        3
 10
547.9245487514615
 20
535.9323730991085
 42
0.0416713391594355
 10
547.6168684629999
 20
532.2470343545413
 42
0.0
 10
549.3418684629999
 20
532.2470343545413
 42
0.1856631955229133
 97
        0
 92
       22
 72
     1
 73
     1
 93
        3
 10
573.8418684629998
 20
532.2470343545413
 42
0.0
 10
569.841868463
 20
532.2470343545413
 42
0.0
 10
569.841868463
 20
528.2470343545415
 42
0.4142135623730826
 97
        0
 92
        7
 72
     1
 73
     1
 93
        4
 10
579.3418684629998
 20
532.2470343545413
 42
0.0
 10
573.8418684629998
 20
532.2470343545413
 42
-0.4142135623730909
 10
569.8418684629998
 20
528.2470343545415
 42
0.0
 10
578.458712432807
 20
528.2470343545415
 42
0.1090809576248888
 97
        0
 92
        6
 72
     1
 73
     1
 93
        3
 10
578.458712432807
 20
528.2470343545415
 42
0.0
 10
569.8418684629998
 20
528.2470343545413
 42
0.0
 10
569.8418684629998
 20
522.7470343545414
 42
0.2919418509678903
 97
        0
 92
       22
 72
     1
 73
     1
 93
        4
 10
589.4377864052653
 20
528.2470343545415
 42
0.0
 10
578.458712432807
 20
528.2470343545415
 42
-0.2919418509678903
 10
569.8418684629998
 20
522.7470343545414
 42
0.0
 10
569.8418684629998
 20
512.2470343545415
 42
0.3563939586925999
 97
        0
 92
        7
 72
     1
 73
     1
 93
        4
 10
589.8418684629998
 20
532.2470343545413
 42
0.0
 10
579.3418684629998
 20
532.2470343545413
 42
-0.1090809576248888
 10
578.458712432807
 20
528.2470343545415
 42
0.0
 10
589.4377864052653
 20
528.2470343545415
 42
0.0503820444848837
 97
        0
 92
        7
 72
     1
 73
     1
 93
        5
 10
590.3418684629998
 20
532.2470343545413
 42
0.0
 10
589.8418684629998
 20
532.2470343545413
 42
-0.0503820444848837
 10
589.4377864052653
 20
528.2470343545415
 42
0.0
 10
591.7039503629471
 20
528.2470343545415
 42
0.003593667114849
 10
591.7591881745384
 20
528.5616956099743
 42
-0.185663195522908
 97
        0
 92
        7
 72
     1
 73
     1
 93
        3
 10
592.0668684629999
 20
532.2470343545413
 42
0.0
 10
590.3418684629998
 20
532.2470343545413
 42
0.185663195522908
 10
591.7591881745384
 20
528.5616956099743
 42
0.0416713391594342
 97
        0
 92
        7
 72
     1
 73
     1
 93
        4
 10
591.7039503629471
 20
528.2470343545415
 42
0.0
 10
589.4377864052653
 20
528.2470343545415
 42
-0.3563939586925999
 10
569.8418684629998
 20
512.2470343545415
 42
0.0
 10
569.8418684629998
 20
510.0220343545413
 42
0.3621506593782504
 97
        0
 75
     0
 76
     0
 52
45.0
 41
2.0
 77
     1
 78
     2
 53
45.0
 43
14.394628
 44
99.687808
 45
-1.414213562373094
 46
1.414213562373095
 79
     0
 53
135.0
 43
14.394628
 44
99.687808
 45
-1.414213562373095
 46
-1.414213562373094
 79
     0
 47
0.113412
 98
       16
 10
557.525714
 20
549.566955
 10
559.227589
 20
545.71096
 10
567.396594
 20
539.359912
 10
564.333216
 20
534.710037
 10
568.531178
 20
534.369801
 10
557.298797
 20
534.25639
 10
549.243251
 20
535.617329
 10
548.67596
 20
533.57592
 10
572.161847
 20
530.173573
 10
576.132889
 20
530.286984
 10
572.842597
 20
525.863932
 10
579.877017
 20
524.162758
 10
583.621144
 20
529.946749
 10
590.201731
 20
529.379691
 10
591.67669
 20
530.627219
 10
590.31519
 20
524.616404
  0
CIRCLE
  5
2B7
100
AcDbEntity
  8
M01
100
AcDbCircle
 10
569.841868
 20
532.247034
 30
0.0
 40
22.225
  0
CIRCLE
  5
2B8
100
AcDbEntity
  8
M03
100
AcDbCircle
 10
569.841868
 20
532.247034
 30
0.0
 40
9.5
  0
CIRCLE
  5
2B9
100
AcDbEntity
  8
M03
100
AcDbCircle
 10
607.341868
 20
644.747034
 30
0.0
 40
15.0
  0
CIRCLE
  5
2BA
100
AcDbEntity
  8
M03
100
AcDbCircle
 10
607.341868
 20
644.747034
 30
0.0
 40
14.0
  0
ARC
  5
2BB
100
AcDbEntity
  8
M03
100
AcDbCircle
 10
607.341868
 20
644.747034
 30
0.0
 40
3.0
100
AcDbArc
 50
173.076897
 51
102.215364
  0
LINE
  5
2BC
100
AcDbEntity
  8
M03
100
AcDbLine
 10
606.791868
 20
638.772296
 30
0.0
 11
606.791868
 21
650.721773
 31
0.0
  0
LINE
  5
2BD
100
AcDbEntity
  8
M03
100
AcDbLine
 10
607.891868
 20
638.772296
 30
0.0
 11
607.891868
 21
650.721773
 31
0.0
  0
CIRCLE
  5
2BE
100
AcDbEntity
  8
M03
100
AcDbCircle
 10
607.341868
 20
644.747034
 30
0.0
 40
7.858882
  0
CIRCLE
  5
2BF
100
AcDbEntity
  8
M03
100
AcDbCircle
 10
607.341868
 20
644.747034
 30
0.0
 40
6.0
  0
LINE
  5
2C0
100
AcDbEntity
  8
M04
100
AcDbLine
 10
571.841868
 20
574.247034
 30
0.0
 11
575.341868
 21
577.747034
 31
0.0
  0
LINE
  5
2C1
100
AcDbEntity
  8
M04
100
AcDbLine
 10
564.341868
 20
577.747034
 30
0.0
 11
567.841868
 21
574.247034
 31
0.0
  0
LINE
  5
2C2
100
AcDbEntity
  8
M04
100
AcDbLine
 10
567.841868
 20
574.247034
 30
0.0
 11
571.841868
 21
574.247034
 31
0.0
  0
ARC
  5
2C3
100
AcDbEntity
  8
M04
100
AcDbCircle
 10
590.341868
 20
668.747034
 30
0.0
 40
15.0
100
AcDbArc
 50
90.0
 51
180.0
  0
ARC
  5
2C4
100
AcDbEntity
  8
M04
100
AcDbCircle
 10
549.341868
 20
668.747034
 30
0.0
 40
15.0
100
AcDbArc
 50
0.0
 51
90.0
  0
LINE
  5
2C5
100
AcDbEntity
  8
M04
100
AcDbLine
 10
575.341868
 20
577.747034
 30
0.0
 11
575.341868
 21
668.747034
 31
0.0
  0
LINE
  5
2C6
100
AcDbEntity
  8
M04
100
AcDbLine
 10
564.341868
 20
577.747034
 30
0.0
 11
564.341868
 21
668.747034
 31
0.0
  0
LINE
  5
2C7
100
AcDbEntity
  8
M04
100
AcDbLine
 10
571.841868
 20
490.247034
 30
0.0
 11
575.341868
 21
486.747034
 31
0.0
  0
LINE
  5
2C8
100
AcDbEntity
  8
M04
100
AcDbLine
 10
564.341868
 20
486.747034
 30
0.0
 11
567.841868
 21
490.247034
 31
0.0
  0
LINE
  5
2C9
100
AcDbEntity
  8
M04
100
AcDbLine
 10
567.841868
 20
490.247034
 30
0.0
 11
571.841868
 21
490.247034
 31
0.0
  0
LINE
  5
2CA
100
AcDbEntity
  8
M03
100
AcDbLine
 10
640.841868
 20
528.247034
 30
0.0
 11
640.841868
 21
461.247034
 31
0.0
  0
LINE
  5
2CB
100
AcDbEntity
  8
M03
100
AcDbLine
 10
498.841868
 20
528.247034
 30
0.0
 11
498.841868
 21
461.247034
 31
0.0
  0
LINE
  5
2CC
100
AcDbEntity
  8
M03
100
AcDbLine
 10
498.841868
 20
528.247034
 30
0.0
 11
494.841868
 21
532.247034
 31
0.0
  0
LINE
  5
2CD
100
AcDbEntity
  8
M03
100
AcDbLine
 10
498.841868
 20
536.247034
 30
0.0
 11
494.841868
 21
532.247034
 31
0.0
  0
LINE
  5
2CE
100
AcDbEntity
  8
M03
100
AcDbLine
 10
498.841868
 20
528.247034
 30
0.0
 11
640.841868
 21
528.247034
 31
0.0
  0
LINE
  5
2CF
100
AcDbEntity
  8
M03
100
AcDbLine
 10
640.841868
 20
528.247034
 30
0.0
 11
644.841868
 21
532.247034
 31
0.0
  0
LINE
  5
2D0
100
AcDbEntity
  8
M03
100
AcDbLine
 10
640.841868
 20
536.247034
 30
0.0
 11
644.841868
 21
532.247034
 31
0.0
  0
LINE
  5
2D1
100
AcDbEntity
  8
M03
100
AcDbLine
 10
498.841868
 20
536.247034
 30
0.0
 11
640.841868
 21
536.247034
 31
0.0
  0
LINE
  5
2D2
100
AcDbEntity
  8
DIMS
100
AcDbLine
 10
827.607861
 20
557.149277
 30
0.0
 11
827.607861
 21
532.247034
 31
0.0
  0
INSERT
  5
2D3
100
AcDbEntity
  8
DIMS
100
AcDbBlockReference
  2
ARROW1
 10
827.607861
 20
557.149277
 30
0.0
 41
10.0
 42
10.0
 43
10.0
 50
90.0
  0
ARC
  5
2D4
100
AcDbEntity
  8
M01
100
AcDbCircle
 10
570.341868
 20
579.247034
 30
0.0
 40
12.0
100
AcDbArc
 50
270.0
 51
0.0
  0
ARC
  5
2D5
100
AcDbEntity
  8
M01
100
AcDbCircle
 10
569.341868
 20
579.247034
 30
0.0
 40
12.0
100
AcDbArc
 50
180.0
 51
270.0
  0
LINE
  5
2D6
100
AcDbEntity
  8
M01
100
AcDbLine
 10
569.341868
 20
567.247034
 30
0.0
 11
570.341868
 21
567.247034
 31
0.0
  0
LINE
  5
2D7
100
AcDbEntity
  8
M01
100
AcDbLine
 10
582.341868
 20
579.247034
 30
0.0
 11
582.341868
 21
664.747034
 31
0.0
  0
LINE
  5
2D8
100
AcDbEntity
  8
M01
100
AcDbLine
 10
557.341868
 20
579.247034
 30
0.0
 11
557.341868
 21
664.747034
 31
0.0
  0
ARC
  5
2D9
100
AcDbEntity
  8
M04
100
AcDbCircle
 10
590.341868
 20
395.747034
 30
0.0
 40
15.0
100
AcDbArc
 50
180.0
 51
270.0
  0
ARC
  5
2DA
100
AcDbEntity
  8
M04
100
AcDbCircle
 10
549.341868
 20
395.747034
 30
0.0
 40
15.0
100
AcDbArc
 50
270.0
 51
360.0
  0
LINE
  5
2DB
100
AcDbEntity
  8
M04
100
AcDbLine
 10
575.341868
 20
486.747034
 30
0.0
 11
575.341868
 21
395.747034
 31
0.0
  0
LINE
  5
2DC
100
AcDbEntity
  8
M04
100
AcDbLine
 10
564.341868
 20
486.747034
 30
0.0
 11
564.341868
 21
395.747034
 31
0.0
  0
ARC
  5
2DD
100
AcDbEntity
  8
M01
100
AcDbCircle
 10
570.341868
 20
485.247034
 30
0.0
 40
12.0
100
AcDbArc
 50
0.0
 51
90.0
  0
ARC
  5
2DE
100
AcDbEntity
  8
M01
100
AcDbCircle
 10
569.341868
 20
485.247034
 30
0.0
 40
12.0
100
AcDbArc
 50
90.0
 51
180.0
  0
LINE
  5
2DF
100
AcDbEntity
  8
M01
100
AcDbLine
 10
569.341868
 20
497.247034
 30
0.0
 11
570.341868
 21
497.247034
 31
0.0
  0
LINE
  5
2E0
100
AcDbEntity
  8
M03
100
AcDbLine
 10
644.841868
 20
457.247034
 30
0.0
 11
640.841868
 21
461.247034
 31
0.0
  0
LINE
  5
2E1
100
AcDbEntity
  8
M03
100
AcDbLine
 10
648.841868
 20
461.247034
 30
0.0
 11
644.841868
 21
457.247034
 31
0.0
  0
LINE
  5
2E2
100
AcDbEntity
  8
M03
100
AcDbLine
 10
640.841868
 20
461.247034
 30
0.0
 11
611.341868
 21
461.247034
 31
0.0
  0
LINE
  5
2E3
100
AcDbEntity
  8
M03
100
AcDbLine
 10
611.341868
 20
461.247034
 30
0.0
 11
611.341868
 21
494.747034
 31
0.0
  0
LINE
  5
2E4
100
AcDbEntity
  8
M03
100
AcDbLine
 10
607.341868
 20
457.247034
 30
0.0
 11
611.341868
 21
453.247034
 31
0.0
  0
LINE
  5
2E5
100
AcDbEntity
  8
M03
100
AcDbLine
 10
611.341868
 20
461.247034
 30
0.0
 11
607.341868
 21
457.247034
 31
0.0
  0
LINE
  5
2E6
100
AcDbEntity
  8
M03
100
AcDbLine
 10
611.341868
 20
419.747034
 30
0.0
 11
611.341868
 21
453.247034
 31
0.0
  0
LINE
  5
2E7
100
AcDbEntity
  8
M03
100
AcDbLine
 10
603.341868
 20
419.747034
 30
0.0
 11
603.341868
 21
494.747034
 31
0.0
  0
LINE
  5
2E8
100
AcDbEntity
  8
M03
100
AcDbLine
 10
640.841868
 20
603.247034
 30
0.0
 11
611.341868
 21
603.247034
 31
0.0
  0
LINE
  5
2E9
100
AcDbEntity
  8
M03
100
AcDbLine
 10
644.841868
 20
607.247034
 30
0.0
 11
640.841868
 21
603.247034
 31
0.0
  0
LINE
  5
2EA
100
AcDbEntity
  8
M03
100
AcDbLine
 10
648.841868
 20
603.247034
 30
0.0
 11
644.841868
 21
607.247034
 31
0.0
  0
LINE
  5
2EB
100
AcDbEntity
  8
M03
100
AcDbLine
 10
648.841868
 20
603.247034
 30
0.0
 11
648.841868
 21
461.247034
 31
0.0
  0
LINE
  5
2EC
100
AcDbEntity
  8
M03
100
AcDbLine
 10
640.841868
 20
603.247034
 30
0.0
 11
640.841868
 21
536.247034
 31
0.0
  0
LINE
  5
2ED
100
AcDbEntity
  8
CENTRE
100
AcDbLine
 10
690.341868
 20
457.247034
 30
0.0
 11
599.341868
 21
457.247034
 31
0.0
  0
LINE
  5
2EE
100
AcDbEntity
  8
CENTRE
100
AcDbLine
 10
690.341868
 20
607.247034
 30
0.0
 11
599.341868
 21
607.247034
 31
0.0
  0
LINE
  5
2EF
100
AcDbEntity
  8
CENTRE
100
AcDbLine
 10
644.841868
 20
615.247034
 30
0.0
 11
644.841868
 21
449.247034
 31
0.0
  0
ARC
  5
2F0
100
AcDbEntity
  8
M01
100
AcDbCircle
 10
719.341868
 20
566.247034
 30
0.0
 40
12.0
100
AcDbArc
 50
180.0
 51
270.0
  0
ARC
  5
2F1
100
AcDbEntity
  8
M01
100
AcDbCircle
 10
719.341868
 20
498.247034
 30
0.0
 40
12.0
100
AcDbArc
 50
90.0
 51
180.0
  0
LINE
  5
2F2
100
AcDbEntity
  8
M01
100
AcDbLine
 10
707.341868
 20
498.247034
 30
0.0
 11
707.341868
 21
399.747034
 31
0.0
  0
LINE
  5
2F3
100
AcDbEntity
  8
M04
100
AcDbLine
 10
714.341868
 20
493.247034
 30
0.0
 11
714.341868
 21
395.747034
 31
0.0
  0
LINE
  5
2F4
100
AcDbEntity
  8
M04
100
AcDbLine
 10
623.241363
 20
380.747034
 30
0.0
 11
641.306335
 21
398.812006
 31
0.0
  0
ARC
  5
2F5
100
AcDbEntity
  8
M04
100
AcDbCircle
 10
644.841868
 20
395.276472
 30
0.0
 40
5.0
100
AcDbArc
 50
45.0
 51
135.0
  0
LINE
  5
2F6
100
AcDbEntity
  8
M04
100
AcDbLine
 10
666.442374
 20
380.747034
 30
0.0
 11
648.377402
 21
398.812006
 31
0.0
  0
ARC
  5
2F7
100
AcDbEntity
  8
M04
100
AcDbCircle
 10
699.341868
 20
395.747034
 30
0.0
 40
15.0
100
AcDbArc
 50
270.0
 51
0.0
  0
LINE
  5
2F8
100
AcDbEntity
  8
M04
100
AcDbLine
 10
699.341868
 20
380.747034
 30
0.0
 11
666.442374
 21
380.747034
 31
0.0
  0
LINE
  5
2F9
100
AcDbEntity
  8
M04
100
AcDbLine
 10
590.341868
 20
380.747034
 30
0.0
 11
623.241363
 21
380.747034
 31
0.0
  0
LINE
  5
2FA
100
AcDbEntity
  8
M04
100
AcDbLine
 10
623.241363
 20
683.747034
 30
0.0
 11
641.306335
 21
665.682063
 31
0.0
  0
ARC
  5
2FB
100
AcDbEntity
  8
M04
100
AcDbCircle
 10
644.841868
 20
669.217597
 30
0.0
 40
5.0
100
AcDbArc
 50
225.0
 51
315.0
  0
LINE
  5
2FC
100
AcDbEntity
  8
M04
100
AcDbLine
 10
666.442374
 20
683.747034
 30
0.0
 11
648.377402
 21
665.682063
 31
0.0
  0
LINE
  5
2FD
100
AcDbEntity
  8
M03
100
AcDbLine
 10
682.341868
 20
457.247034
 30
0.0
 11
678.341868
 21
453.247034
 31
0.0
  0
LINE
  5
2FE
100
AcDbEntity
  8
M03
100
AcDbLine
 10
678.341868
 20
461.247034
 30
0.0
 11
682.341868
 21
457.247034
 31
0.0
  0
LINE
  5
2FF
100
AcDbEntity
  8
M03
100
AcDbLine
 10
678.341868
 20
419.747034
 30
0.0
 11
678.341868
 21
453.247034
 31
0.0
  0
ARC
  5
300
100
AcDbEntity
  8
M01
100
AcDbCircle
 10
644.841868
 20
395.276472
 30
0.0
 40
12.0
100
AcDbArc
 50
45.0
 51
135.0
  0
LINE
  5
301
100
AcDbEntity
  8
M03
100
AcDbLine
 10
678.341868
 20
461.247034
 30
0.0
 11
678.341868
 21
494.747034
 31
0.0
  0
LINE
  5
302
100
AcDbEntity
  8
M03
100
AcDbLine
 10
678.341868
 20
461.247034
 30
0.0
 11
648.841868
 21
461.247034
 31
0.0
  0
LINE
  5
303
100
AcDbEntity
  8
M03
100
AcDbLine
 10
678.341868
 20
453.247034
 30
0.0
 11
611.341868
 21
453.247034
 31
0.0
  0
LINE
  5
304
100
AcDbEntity
  8
M03
100
AcDbLine
 10
686.341868
 20
419.747034
 30
0.0
 11
686.341868
 21
494.747034
 31
0.0
  0
LINE
  5
305
100
AcDbEntity
  8
M01
100
AcDbLine
 10
620.341868
 20
387.747034
 30
0.0
 11
636.356587
 21
403.761753
 31
0.0
  0
LINE
  5
306
100
AcDbEntity
  8
M01
100
AcDbLine
 10
582.341868
 20
399.747034
 30
0.0
 11
594.341868
 21
387.747034
 31
0.0
  0
LINE
  5
307
100
AcDbEntity
  8
M01
100
AcDbLine
 10
594.341868
 20
387.747034
 30
0.0
 11
620.341868
 21
387.747034
 31
0.0
  0
LINE
  5
308
100
AcDbEntity
  8
M01
100
AcDbLine
 10
669.341868
 20
387.747034
 30
0.0
 11
653.32715
 21
403.761753
 31
0.0
  0
LINE
  5
309
100
AcDbEntity
  8
M01
100
AcDbLine
 10
707.341868
 20
399.747034
 30
0.0
 11
695.341868
 21
387.747034
 31
0.0
  0
LINE
  5
30A
100
AcDbEntity
  8
M01
100
AcDbLine
 10
695.341868
 20
387.747034
 30
0.0
 11
669.341868
 21
387.747034
 31
0.0
  0
ARC
  5
30B
100
AcDbEntity
  8
M01
100
AcDbCircle
 10
644.841868
 20
669.217597
 30
0.0
 40
12.0
100
AcDbArc
 50
225.0
 51
315.0
  0
LINE
  5
30C
100
AcDbEntity
  8
M01
100
AcDbLine
 10
733.341868
 20
554.247034
 30
0.0
 11
719.341868
 21
554.247034
 31
0.0
  0
CIRCLE
  5
30D
100
AcDbEntity
  8
M01
100
AcDbCircle
 10
682.341868
 20
569.747034
 30
0.0
 40
4.0
  0
CIRCLE
  5
30E
100
AcDbEntity
  8
M01
100
AcDbCircle
 10
607.341868
 20
569.747034
 30
0.0
 40
4.0
  0
CIRCLE
  5
30F
100
AcDbEntity
  8
M01
100
AcDbCircle
 10
682.341868
 20
644.747034
 30
0.0
 40
4.0
  0
HATCH
  5
310
100
AcDbEntity
  8
M03
100
AcDbHatch
 10
0.0
 20
0.0
 30
0.0
210
0.0
220
0.0
230
1.0
  2
_U
 70
     0
 71
     0
 91
        1
 92
        7
 72
     0
 73
     1
 93
        4
 10
703.441868463
 20
427.9399715613566
 10
703.441868463
 20
398.7015121467212
 10
705.3418684630001
 20
398.7015121467212
 10
705.3418684629999
 20
427.9399715613567
 97
        0
 75
     0
 76
     0
 52
240.0
 41
0.7
 77
     0
 78
     1
 53
60.0
 43
1107.901095
 44
-63.200206
 45
-0.6062177826491068
 46
0.3500000000000004
 79
     0
 47
0.060863
 98
        1
 10
704.6293
 20
424.2488
  0
HATCH
  5
311
100
AcDbEntity
  8
M03
100
AcDbHatch
 10
0.0
 20
0.0
 30
0.0
210
0.0
220
0.0
230
1.0
  2
_U
 70
     0
 71
     0
 91
        1
 92
        7
 72
     0
 73
     1
 93
        4
 10
703.441868463
 20
427.9399715613567
 10
703.441868463
 20
398.7015121467211
 10
705.3418684630001
 20
398.7015121467211
 10
705.3418684629999
 20
427.9399715613569
 97
        0
 75
     0
 76
     0
 52
-60.0
 41
0.7
 77
     0
 78
     1
 53
120.0
 43
1107.901095
 44
-63.200206
 45
-0.6062177826491073
 46
-0.3499999999999998
 79
     0
 47
0.060863
 98
        1
 10
704.385847
 20
424.066136
  0
LINE
  5
312
100
AcDbEntity
  8
M03
100
AcDbLine
 10
689.841868
 20
444.547034
 30
0.0
 11
688.513963
 21
442.247034
 31
0.0
  0
LINE
  5
313
100
AcDbEntity
  8
M03
100
AcDbLine
 10
689.841868
 20
439.947034
 30
0.0
 11
688.513963
 21
442.247034
 31
0.0
  0
LINE
  5
314
100
AcDbEntity
  8
M03
100
AcDbLine
 10
689.841868
 20
439.947034
 30
0.0
 11
689.841868
 21
444.547034
 31
0.0
  0
LINE
  5
315
100
AcDbEntity
  8
M03
100
AcDbLine
 10
691.341868
 20
439.247034
 30
0.0
 11
691.341868
 21
445.247034
 31
0.0
  0
LINE
  5
316
100
AcDbEntity
  8
M03
100
AcDbLine
 10
703.441868
 20
427.939972
 30
0.0
 11
703.441868
 21
398.701512
 31
0.0
  0
LINE
  5
317
100
AcDbEntity
  8
M03
100
AcDbLine
 10
705.341868
 20
427.939972
 30
0.0
 11
705.341868
 21
398.701512
 31
0.0
  0
LINE
  5
318
100
AcDbEntity
  8
M03
100
AcDbLine
 10
703.141868
 20
434.939972
 30
0.0
 11
703.141868
 21
449.247034
 31
0.0
  0
LINE
  5
319
100
AcDbEntity
  8
M03
100
AcDbLine
 10
702.341868
 20
433.895207
 30
0.0
 11
703.141868
 21
433.895207
 31
0.0
  0
LINE
  5
31A
100
AcDbEntity
  8
M03
100
AcDbLine
 10
703.141868
 20
427.939972
 30
0.0
 11
705.641868
 21
427.939972
 31
0.0
  0
LINE
  5
31B
100
AcDbEntity
  8
M03
100
AcDbLine
 10
705.641868
 20
427.939972
 30
0.0
 11
705.641868
 21
434.939972
 31
0.0
  0
LINE
  5
31C
100
AcDbEntity
  8
M03
100
AcDbLine
 10
703.141868
 20
434.939972
 30
0.0
 11
705.641868
 21
434.939972
 31
0.0
  0
LINE
  5
31D
100
AcDbEntity
  8
M03
100
AcDbLine
 10
702.341868
 20
449.247034
 30
0.0
 11
703.141868
 21
449.247034
 31
0.0
  0
ARC
  5
31E
100
AcDbEntity
  8
M03
100
AcDbCircle
 10
700.615732
 20
442.247034
 30
0.0
 40
5.826136
100
AcDbArc
 50
295.69541
 51
64.30459
  0
LINE
  5
31F
100
AcDbEntity
  8
M03
100
AcDbLine
 10
693.841868
 20
445.247034
 30
0.0
 11
693.141868
 21
444.547034
 31
0.0
  0
LINE
  5
320
100
AcDbEntity
  8
M03
100
AcDbLine
 10
693.841868
 20
439.247034
 30
0.0
 11
693.141868
 21
439.947034
 31
0.0
  0
LINE
  5
321
100
AcDbEntity
  8
M03
100
AcDbLine
 10
693.841868
 20
439.247034
 30
0.0
 11
693.841868
 21
445.247034
 31
0.0
  0
LINE
  5
322
100
AcDbEntity
  8
M03
100
AcDbLine
 10
693.141868
 20
439.947034
 30
0.0
 11
693.141868
 21
444.547034
 31
0.0
  0
LINE
  5
323
100
AcDbEntity
  8
M03
100
AcDbLine
 10
702.341868
 20
445.247034
 30
0.0
 11
702.341868
 21
452.247034
 31
0.0
  0
LINE
  5
324
100
AcDbEntity
  8
M03
100
AcDbLine
 10
702.341868
 20
428.547034
 30
0.0
 11
703.141868
 21
428.547034
 31
0.0
  0
LINE
  5
325
100
AcDbEntity
  8
M03
100
AcDbLine
 10
702.341868
 20
445.947034
 30
0.0
 11
703.141868
 21
445.947034
 31
0.0
  0
LINE
  5
326
100
AcDbEntity
  8
M03
100
AcDbLine
 10
689.841868
 20
444.547034
 30
0.0
 11
703.141868
 21
444.547034
 31
0.0
  0
LINE
  5
327
100
AcDbEntity
  8
M03
100
AcDbLine
 10
689.841868
 20
439.947034
 30
0.0
 11
703.141868
 21
439.947034
 31
0.0
  0
LINE
  5
328
100
AcDbEntity
  8
M03
100
AcDbLine
 10
691.341868
 20
439.247034
 30
0.0
 11
703.141868
 21
439.247034
 31
0.0
  0
LINE
  5
329
100
AcDbEntity
  8
M03
100
AcDbLine
 10
691.341868
 20
445.247034
 30
0.0
 11
703.141868
 21
445.247034
 31
0.0
  0
LINE
  5
32A
100
AcDbEntity
  8
M03
100
AcDbLine
 10
703.141868
 20
427.939972
 30
0.0
 11
703.141868
 21
433.895207
 31
0.0
  0
LINE
  5
32B
100
AcDbEntity
  8
M03
100
AcDbLine
 10
702.341868
 20
452.247034
 30
0.0
 11
707.341868
 21
452.247034
 31
0.0
  0
LINE
  5
32C
100
AcDbEntity
  8
M03
100
AcDbLine
 10
702.341868
 20
394.747034
 30
0.0
 11
702.341868
 21
439.247034
 31
0.0
  0
LINE
  5
32D
100
AcDbEntity
  8
CENTRE
100
AcDbLine
 10
684.143195
 20
442.247034
 30
0.0
 11
711.303345
 21
442.247034
 31
0.0
  0
LINE
  5
32E
100
AcDbEntity
  8
M01
100
AcDbLine
 10
757.285969
 20
547.497034
 30
0.0
 11
757.285969
 21
540.997034
 31
0.0
  0
LINE
  5
32F
100
AcDbEntity
  8
M01
100
AcDbLine
 10
765.397768
 20
547.497034
 30
0.0
 11
765.397768
 21
540.997034
 31
0.0
  0
LINE
  5
330
100
AcDbEntity
  8
M01
100
AcDbLine
 10
757.285969
 20
547.497034
 30
0.0
 11
755.341868
 21
547.497034
 31
0.0
  0
ARC
  5
331
100
AcDbEntity
  8
M01
100
AcDbCircle
 10
758.847218
 20
548.747034
 30
0.0
 40
2.0
100
AcDbArc
 50
218.682187
 51
270.0
  0
ARC
  5
332
100
AcDbEntity
  8
M01
100
AcDbCircle
 10
763.836519
 20
548.747034
 30
0.0
 40
2.0
100
AcDbArc
 50
270.0
 51
321.317813
  0
LINE
  5
333
100
AcDbEntity
  8
M01
100
AcDbLine
 10
767.341868
 20
547.497034
 30
0.0
 11
765.397768
 21
547.497034
 31
0.0
  0
LINE
  5
334
100
AcDbEntity
  8
M01
100
AcDbLine
 10
763.836519
 20
546.747034
 30
0.0
 11
758.847218
 21
546.747034
 31
0.0
  0
LINE
  5
335
100
AcDbEntity
  8
M01
100
AcDbLine
 10
757.285969
 20
540.997034
 30
0.0
 11
755.341868
 21
540.997034
 31
0.0
  0
ARC
  5
336
100
AcDbEntity
  8
M01
100
AcDbCircle
 10
758.847218
 20
539.747034
 30
0.0
 40
2.0
100
AcDbArc
 50
90.0
 51
141.317813
  0
ARC
  5
337
100
AcDbEntity
  8
M01
100
AcDbCircle
 10
763.836519
 20
539.747034
 30
0.0
 40
2.0
100
AcDbArc
 50
38.682187
 51
90.0
  0
LINE
  5
338
100
AcDbEntity
  8
M01
100
AcDbLine
 10
767.341868
 20
540.997034
 30
0.0
 11
765.397768
 21
540.997034
 31
0.0
  0
LINE
  5
339
100
AcDbEntity
  8
M01
100
AcDbLine
 10
763.836519
 20
541.747034
 30
0.0
 11
758.847218
 21
541.747034
 31
0.0
  0
LINE
  5
33A
100
AcDbEntity
  8
M01
100
AcDbLine
 10
767.341868
 20
539.747034
 30
0.0
 11
767.341868
 21
548.747034
 31
0.0
  0
LINE
  5
33B
100
AcDbEntity
  8
M01
100
AcDbLine
 10
768.141868
 20
548.747034
 30
0.0
 11
767.341868
 21
548.747034
 31
0.0
  0
LINE
  5
33C
100
AcDbEntity
  8
M01
100
AcDbLine
 10
768.141868
 20
539.747034
 30
0.0
 11
767.341868
 21
539.747034
 31
0.0
  0
LINE
  5
33D
100
AcDbEntity
  8
M01
100
AcDbLine
 10
757.285969
 20
516.997034
 30
0.0
 11
757.285969
 21
523.497034
 31
0.0
  0
LINE
  5
33E
100
AcDbEntity
  8
M01
100
AcDbLine
 10
765.397768
 20
516.997034
 30
0.0
 11
765.397768
 21
523.497034
 31
0.0
  0
LINE
  5
33F
100
AcDbEntity
  8
M01
100
AcDbLine
 10
757.285969
 20
516.997034
 30
0.0
 11
755.341868
 21
516.997034
 31
0.0
  0
ARC
  5
340
100
AcDbEntity
  8
M01
100
AcDbCircle
 10
758.847218
 20
515.747034
 30
0.0
 40
2.0
100
AcDbArc
 50
90.0
 51
141.317813
  0
ARC
  5
341
100
AcDbEntity
  8
M01
100
AcDbCircle
 10
763.836519
 20
515.747034
 30
0.0
 40
2.0
100
AcDbArc
 50
38.682187
 51
90.0
  0
LINE
  5
342
100
AcDbEntity
  8
M01
100
AcDbLine
 10
767.341868
 20
516.997034
 30
0.0
 11
765.397768
 21
516.997034
 31
0.0
  0
LINE
  5
343
100
AcDbEntity
  8
M01
100
AcDbLine
 10
763.836519
 20
517.747034
 30
0.0
 11
758.847218
 21
517.747034
 31
0.0
  0
LINE
  5
344
100
AcDbEntity
  8
M01
100
AcDbLine
 10
757.285969
 20
523.497034
 30
0.0
 11
755.341868
 21
523.497034
 31
0.0
  0
ARC
  5
345
100
AcDbEntity
  8
M01
100
AcDbCircle
 10
758.847218
 20
524.747034
 30
0.0
 40
2.0
100
AcDbArc
 50
218.682187
 51
270.0
  0
ARC
  5
346
100
AcDbEntity
  8
M01
100
AcDbCircle
 10
763.836519
 20
524.747034
 30
0.0
 40
2.0
100
AcDbArc
 50
270.0
 51
321.317813
  0
LINE
  5
347
100
AcDbEntity
  8
M01
100
AcDbLine
 10
767.341868
 20
523.497034
 30
0.0
 11
765.397768
 21
523.497034
 31
0.0
  0
LINE
  5
348
100
AcDbEntity
  8
M01
100
AcDbLine
 10
763.836519
 20
522.747034
 30
0.0
 11
758.847218
 21
522.747034
 31
0.0
  0
LINE
  5
349
100
AcDbEntity
  8
M01
100
AcDbLine
 10
750.341868
 20
549.247034
 30
0.0
 11
750.341868
 21
539.247034
 31
0.0
  0
LINE
  5
34A
100
AcDbEntity
  8
M01
100
AcDbLine
 10
750.341868
 20
515.247034
 30
0.0
 11
750.341868
 21
525.247034
 31
0.0
  0
LINE
  5
34B
100
AcDbEntity
  8
M01
100
AcDbLine
 10
755.341868
 20
515.247034
 30
0.0
 11
735.341868
 21
515.247034
 31
0.0
  0
LINE
  5
34C
100
AcDbEntity
  8
M01
100
AcDbLine
 10
755.341868
 20
525.247034
 30
0.0
 11
735.341868
 21
525.247034
 31
0.0
  0
LINE
  5
34D
100
AcDbEntity
  8
M01
100
AcDbLine
 10
755.341868
 20
539.247034
 30
0.0
 11
735.341868
 21
539.247034
 31
0.0
  0
LINE
  5
34E
100
AcDbEntity
  8
M01
100
AcDbLine
 10
755.341868
 20
549.247034
 30
0.0
 11
735.341868
 21
549.247034
 31
0.0
  0
LINE
  5
34F
100
AcDbEntity
  8
M01
100
AcDbLine
 10
777.241868
 20
547.278123
 30
0.0
 11
777.241868
 21
541.215945
 31
0.0
  0
ARC
  5
350
100
AcDbEntity
  8
M01
100
AcDbCircle
 10
775.392563
 20
541.215945
 30
0.0
 40
1.150694
100
AcDbArc
 50
118.592423
 51
241.407577
  0
ARC
  5
351
100
AcDbEntity
  8
M01
100
AcDbCircle
 10
777.944646
 20
544.247034
 30
0.0
 40
3.702778
100
AcDbArc
 50
146.92527
 51
213.07473
  0
ARC
  5
352
100
AcDbEntity
  8
M01
100
AcDbCircle
 10
775.392563
 20
547.278123
 30
0.0
 40
1.150694
100
AcDbArc
 50
118.592423
 51
241.407577
  0
ARC
  5
353
100
AcDbEntity
  8
M01
100
AcDbCircle
 10
776.091174
 20
541.215945
 30
0.0
 40
1.150694
100
AcDbArc
 50
298.592423
 51
61.407577
  0
ARC
  5
354
100
AcDbEntity
  8
M01
100
AcDbCircle
 10
773.539091
 20
544.247034
 30
0.0
 40
3.702778
100
AcDbArc
 50
326.92527
 51
33.07473
  0
LINE
  5
355
100
AcDbEntity
  8
M01
100
AcDbLine
 10
776.641868
 20
542.226308
 30
0.0
 11
774.841868
 21
542.226308
 31
0.0
  0
LINE
  5
356
100
AcDbEntity
  8
M01
100
AcDbLine
 10
776.641868
 20
540.205582
 30
0.0
 11
774.841868
 21
540.205582
 31
0.0
  0
ARC
  5
357
100
AcDbEntity
  8
M01
100
AcDbCircle
 10
776.091174
 20
547.278123
 30
0.0
 40
1.150694
100
AcDbArc
 50
298.592423
 51
61.407577
  0
LINE
  5
358
100
AcDbEntity
  8
M01
100
AcDbLine
 10
776.641868
 20
546.26776
 30
0.0
 11
774.841868
 21
546.26776
 31
0.0
  0
LINE
  5
359
100
AcDbEntity
  8
M01
100
AcDbLine
 10
776.641868
 20
548.288486
 30
0.0
 11
774.841868
 21
548.288486
 31
0.0
  0
LINE
  5
35A
100
AcDbEntity
  8
M01
100
AcDbLine
 10
771.941868
 20
539.247034
 30
0.0
 11
773.441868
 21
539.247034
 31
0.0
  0
LINE
  5
35B
100
AcDbEntity
  8
M01
100
AcDbLine
 10
771.941868
 20
549.247034
 30
0.0
 11
773.441868
 21
549.247034
 31
0.0
  0
LINE
  5
35C
100
AcDbEntity
  8
M01
100
AcDbLine
 10
773.441868
 20
539.747034
 30
0.0
 11
774.241868
 21
539.747034
 31
0.0
  0
LINE
  5
35D
100
AcDbEntity
  8
M01
100
AcDbLine
 10
773.441868
 20
548.747034
 30
0.0
 11
774.241868
 21
548.747034
 31
0.0
  0
LINE
  5
35E
100
AcDbEntity
  8
M01
100
AcDbLine
 10
774.241868
 20
548.747034
 30
0.0
 11
774.241868
 21
539.747034
 31
0.0
  0
LINE
  5
35F
100
AcDbEntity
  8
M01
100
AcDbLine
 10
773.441868
 20
549.247034
 30
0.0
 11
773.441868
 21
539.247034
 31
0.0
  0
LINE
  5
360
100
AcDbEntity
  8
M01
100
AcDbLine
 10
771.141868
 20
539.747034
 30
0.0
 11
771.941868
 21
539.747034
 31
0.0
  0
LINE
  5
361
100
AcDbEntity
  8
M01
100
AcDbLine
 10
771.141868
 20
548.747034
 30
0.0
 11
771.941868
 21
548.747034
 31
0.0
  0
LINE
  5
362
100
AcDbEntity
  8
M01
100
AcDbLine
 10
771.941868
 20
549.247034
 30
0.0
 11
771.941868
 21
539.247034
 31
0.0
  0
ARC
  5
363
100
AcDbEntity
  8
M01
100
AcDbCircle
 10
769.292563
 20
541.215945
 30
0.0
 40
1.150694
100
AcDbArc
 50
118.592423
 51
241.407577
  0
ARC
  5
364
100
AcDbEntity
  8
M01
100
AcDbCircle
 10
771.844646
 20
544.247034
 30
0.0
 40
3.702778
100
AcDbArc
 50
146.92527
 51
213.07473
  0
ARC
  5
365
100
AcDbEntity
  8
M01
100
AcDbCircle
 10
769.292563
 20
547.278123
 30
0.0
 40
1.150694
100
AcDbArc
 50
118.592423
 51
241.407577
  0
ARC
  5
366
100
AcDbEntity
  8
M01
100
AcDbCircle
 10
769.991174
 20
541.215945
 30
0.0
 40
1.150694
100
AcDbArc
 50
298.592423
 51
61.407577
  0
ARC
  5
367
100
AcDbEntity
  8
M01
100
AcDbCircle
 10
767.439091
 20
544.247034
 30
0.0
 40
3.702778
100
AcDbArc
 50
326.92527
 51
33.07473
  0
LINE
  5
368
100
AcDbEntity
  8
M01
100
AcDbLine
 10
770.541868
 20
542.226308
 30
0.0
 11
768.741868
 21
542.226308
 31
0.0
  0
LINE
  5
369
100
AcDbEntity
  8
M01
100
AcDbLine
 10
770.541868
 20
540.205582
 30
0.0
 11
768.741868
 21
540.205582
 31
0.0
  0
ARC
  5
36A
100
AcDbEntity
  8
M01
100
AcDbCircle
 10
769.991174
 20
547.278123
 30
0.0
 40
1.150694
100
AcDbArc
 50
298.592423
 51
61.407577
  0
LINE
  5
36B
100
AcDbEntity
  8
M01
100
AcDbLine
 10
770.541868
 20
546.26776
 30
0.0
 11
768.741868
 21
546.26776
 31
0.0
  0
LINE
  5
36C
100
AcDbEntity
  8
M01
100
AcDbLine
 10
770.541868
 20
548.288486
 30
0.0
 11
768.741868
 21
548.288486
 31
0.0
  0
LINE
  5
36D
100
AcDbEntity
  8
M01
100
AcDbLine
 10
771.141868
 20
548.747034
 30
0.0
 11
771.141868
 21
539.747034
 31
0.0
  0
LINE
  5
36E
100
AcDbEntity
  8
M01
100
AcDbLine
 10
768.141868
 20
548.747034
 30
0.0
 11
768.141868
 21
539.747034
 31
0.0
  0
LINE
  5
36F
100
AcDbEntity
  8
M01
100
AcDbLine
 10
780.341868
 20
542.747034
 30
0.0
 11
779.841868
 21
542.247034
 31
0.0
  0
LINE
  5
370
100
AcDbEntity
  8
M01
100
AcDbLine
 10
779.841868
 20
546.247034
 30
0.0
 11
780.341868
 21
545.747034
 31
0.0
  0
LINE
  5
371
100
AcDbEntity
  8
M01
100
AcDbLine
 10
779.841868
 20
546.247034
 30
0.0
 11
779.841868
 21
542.247034
 31
0.0
  0
LINE
  5
372
100
AcDbEntity
  8
M01
100
AcDbLine
 10
780.341868
 20
542.747034
 30
0.0
 11
777.241868
 21
542.747034
 31
0.0
  0
LINE
  5
373
100
AcDbEntity
  8
M01
100
AcDbLine
 10
780.341868
 20
545.747034
 30
0.0
 11
777.241868
 21
545.747034
 31
0.0
  0
LINE
  5
374
100
AcDbEntity
  8
M01
100
AcDbLine
 10
779.841868
 20
546.247034
 30
0.0
 11
777.241868
 21
546.247034
 31
0.0
  0
LINE
  5
375
100
AcDbEntity
  8
M01
100
AcDbLine
 10
779.841868
 20
542.247034
 30
0.0
 11
777.241868
 21
542.247034
 31
0.0
  0
LINE
  5
376
100
AcDbEntity
  8
M01
100
AcDbLine
 10
780.341868
 20
545.747034
 30
0.0
 11
780.341868
 21
542.747034
 31
0.0
  0
LINE
  5
377
100
AcDbEntity
  8
M01
100
AcDbLine
 10
755.341868
 20
549.247034
 30
0.0
 11
755.341868
 21
539.247034
 31
0.0
  0
LINE
  5
378
100
AcDbEntity
  8
CENTRE
100
AcDbLine
 10
786.502758
 20
544.247034
 30
0.0
 11
722.909326
 21
544.247034
 31
0.0
  0
LINE
  5
379
100
AcDbEntity
  8
M01
100
AcDbLine
 10
777.241868
 20
517.215945
 30
0.0
 11
777.241868
 21
523.278123
 31
0.0
  0
ARC
  5
37A
100
AcDbEntity
  8
M01
100
AcDbCircle
 10
775.392563
 20
523.278123
 30
0.0
 40
1.150694
100
AcDbArc
 50
118.592423
 51
241.407577
  0
ARC
  5
37B
100
AcDbEntity
  8
M01
100
AcDbCircle
 10
777.944646
 20
520.247034
 30
0.0
 40
3.702778
100
AcDbArc
 50
146.92527
 51
213.07473
  0
ARC
  5
37C
100
AcDbEntity
  8
M01
100
AcDbCircle
 10
775.392563
 20
517.215945
 30
0.0
 40
1.150694
100
AcDbArc
 50
118.592423
 51
241.407577
  0
ARC
  5
37D
100
AcDbEntity
  8
M01
100
AcDbCircle
 10
776.091174
 20
523.278123
 30
0.0
 40
1.150694
100
AcDbArc
 50
298.592423
 51
61.407577
  0
ARC
  5
37E
100
AcDbEntity
  8
M01
100
AcDbCircle
 10
773.539091
 20
520.247034
 30
0.0
 40
3.702778
100
AcDbArc
 50
326.92527
 51
33.07473
  0
LINE
  5
37F
100
AcDbEntity
  8
M01
100
AcDbLine
 10
776.641868
 20
522.26776
 30
0.0
 11
774.841868
 21
522.26776
 31
0.0
  0
LINE
  5
380
100
AcDbEntity
  8
M01
100
AcDbLine
 10
776.641868
 20
524.288486
 30
0.0
 11
774.841868
 21
524.288486
 31
0.0
  0
ARC
  5
381
100
AcDbEntity
  8
M01
100
AcDbCircle
 10
776.091174
 20
517.215945
 30
0.0
 40
1.150694
100
AcDbArc
 50
298.592423
 51
61.407577
  0
LINE
  5
382
100
AcDbEntity
  8
M01
100
AcDbLine
 10
776.641868
 20
518.226308
 30
0.0
 11
774.841868
 21
518.226308
 31
0.0
  0
LINE
  5
383
100
AcDbEntity
  8
M01
100
AcDbLine
 10
776.641868
 20
516.205582
 30
0.0
 11
774.841868
 21
516.205582
 31
0.0
  0
LINE
  5
384
100
AcDbEntity
  8
M01
100
AcDbLine
 10
771.941868
 20
525.247034
 30
0.0
 11
773.441868
 21
525.247034
 31
0.0
  0
LINE
  5
385
100
AcDbEntity
  8
M01
100
AcDbLine
 10
771.941868
 20
515.247034
 30
0.0
 11
773.441868
 21
515.247034
 31
0.0
  0
LINE
  5
386
100
AcDbEntity
  8
M01
100
AcDbLine
 10
773.441868
 20
524.747034
 30
0.0
 11
774.241868
 21
524.747034
 31
0.0
  0
LINE
  5
387
100
AcDbEntity
  8
M01
100
AcDbLine
 10
773.441868
 20
515.747034
 30
0.0
 11
774.241868
 21
515.747034
 31
0.0
  0
LINE
  5
388
100
AcDbEntity
  8
M01
100
AcDbLine
 10
774.241868
 20
515.747034
 30
0.0
 11
774.241868
 21
524.747034
 31
0.0
  0
LINE
  5
389
100
AcDbEntity
  8
M01
100
AcDbLine
 10
773.441868
 20
515.247034
 30
0.0
 11
773.441868
 21
525.247034
 31
0.0
  0
LINE
  5
38A
100
AcDbEntity
  8
M01
100
AcDbLine
 10
771.141868
 20
524.747034
 30
0.0
 11
771.941868
 21
524.747034
 31
0.0
  0
LINE
  5
38B
100
AcDbEntity
  8
M01
100
AcDbLine
 10
771.141868
 20
515.747034
 30
0.0
 11
771.941868
 21
515.747034
 31
0.0
  0
LINE
  5
38C
100
AcDbEntity
  8
M01
100
AcDbLine
 10
771.941868
 20
515.247034
 30
0.0
 11
771.941868
 21
525.247034
 31
0.0
  0
ARC
  5
38D
100
AcDbEntity
  8
M01
100
AcDbCircle
 10
769.292563
 20
523.278123
 30
0.0
 40
1.150694
100
AcDbArc
 50
118.592423
 51
241.407577
  0
ARC
  5
38E
100
AcDbEntity
  8
M01
100
AcDbCircle
 10
771.844646
 20
520.247034
 30
0.0
 40
3.702778
100
AcDbArc
 50
146.92527
 51
213.07473
  0
ARC
  5
38F
100
AcDbEntity
  8
M01
100
AcDbCircle
 10
769.292563
 20
517.215945
 30
0.0
 40
1.150694
100
AcDbArc
 50
118.592423
 51
241.407577
  0
ARC
  5
390
100
AcDbEntity
  8
M01
100
AcDbCircle
 10
769.991174
 20
523.278123
 30
0.0
 40
1.150694
100
AcDbArc
 50
298.592423
 51
61.407577
  0
ARC
  5
391
100
AcDbEntity
  8
M01
100
AcDbCircle
 10
767.439091
 20
520.247034
 30
0.0
 40
3.702778
100
AcDbArc
 50
326.92527
 51
33.07473
  0
LINE
  5
392
100
AcDbEntity
  8
M01
100
AcDbLine
 10
770.541868
 20
522.26776
 30
0.0
 11
768.741868
 21
522.26776
 31
0.0
  0
LINE
  5
393
100
AcDbEntity
  8
M01
100
AcDbLine
 10
770.541868
 20
524.288486
 30
0.0
 11
768.741868
 21
524.288486
 31
0.0
  0
ARC
  5
394
100
AcDbEntity
  8
M01
100
AcDbCircle
 10
769.991174
 20
517.215945
 30
0.0
 40
1.150694
100
AcDbArc
 50
298.592423
 51
61.407577
  0
LINE
  5
395
100
AcDbEntity
  8
M01
100
AcDbLine
 10
770.541868
 20
518.226308
 30
0.0
 11
768.741868
 21
518.226308
 31
0.0
  0
LINE
  5
396
100
AcDbEntity
  8
M01
100
AcDbLine
 10
770.541868
 20
516.205582
 30
0.0
 11
768.741868
 21
516.205582
 31
0.0
  0
LINE
  5
397
100
AcDbEntity
  8
M01
100
AcDbLine
 10
771.141868
 20
515.747034
 30
0.0
 11
771.141868
 21
524.747034
 31
0.0
  0
LINE
  5
398
100
AcDbEntity
  8
M01
100
AcDbLine
 10
768.141868
 20
515.747034
 30
0.0
 11
768.141868
 21
524.747034
 31
0.0
  0
LINE
  5
399
100
AcDbEntity
  8
M01
100
AcDbLine
 10
767.341868
 20
515.747034
 30
0.0
 11
767.341868
 21
524.747034
 31
0.0
  0
LINE
  5
39A
100
AcDbEntity
  8
M01
100
AcDbLine
 10
780.341868
 20
521.747034
 30
0.0
 11
779.841868
 21
522.247034
 31
0.0
  0
LINE
  5
39B
100
AcDbEntity
  8
M01
100
AcDbLine
 10
779.841868
 20
518.247034
 30
0.0
 11
780.341868
 21
518.747034
 31
0.0
  0
LINE
  5
39C
100
AcDbEntity
  8
M01
100
AcDbLine
 10
779.841868
 20
518.247034
 30
0.0
 11
779.841868
 21
522.247034
 31
0.0
  0
LINE
  5
39D
100
AcDbEntity
  8
M01
100
AcDbLine
 10
780.341868
 20
521.747034
 30
0.0
 11
777.241868
 21
521.747034
 31
0.0
  0
LINE
  5
39E
100
AcDbEntity
  8
M01
100
AcDbLine
 10
780.341868
 20
518.747034
 30
0.0
 11
777.241868
 21
518.747034
 31
0.0
  0
LINE
  5
39F
100
AcDbEntity
  8
M01
100
AcDbLine
 10
779.841868
 20
518.247034
 30
0.0
 11
777.241868
 21
518.247034
 31
0.0
  0
LINE
  5
3A0
100
AcDbEntity
  8
M01
100
AcDbLine
 10
779.841868
 20
522.247034
 30
0.0
 11
777.241868
 21
522.247034
 31
0.0
  0
LINE
  5
3A1
100
AcDbEntity
  8
M01
100
AcDbLine
 10
780.341868
 20
518.747034
 30
0.0
 11
780.341868
 21
521.747034
 31
0.0
  0
LINE
  5
3A2
100
AcDbEntity
  8
M01
100
AcDbLine
 10
755.341868
 20
515.247034
 30
0.0
 11
755.341868
 21
525.247034
 31
0.0
  0
LINE
  5
3A3
100
AcDbEntity
  8
M01
100
AcDbLine
 10
768.141868
 20
524.747034
 30
0.0
 11
767.341868
 21
524.747034
 31
0.0
  0
LINE
  5
3A4
100
AcDbEntity
  8
M01
100
AcDbLine
 10
768.141868
 20
515.747034
 30
0.0
 11
767.341868
 21
515.747034
 31
0.0
  0
LINE
  5
3A5
100
AcDbEntity
  8
CENTRE
100
AcDbLine
 10
786.502758
 20
520.247034
 30
0.0
 11
722.909326
 21
520.247034
 31
0.0
  0
LINE
  5
3A6
100
AcDbEntity
  8
CENTRE
100
AcDbLine
 10
607.341868
 20
664.747034
 30
0.0
 11
607.341868
 21
549.747034
 31
0.0
  0
LINE
  5
3A7
100
AcDbEntity
  8
M04
100
AcDbLine
 10
721.341868
 20
564.247034
 30
0.0
 11
714.341868
 21
571.247034
 31
0.0
  0
LINE
  5
3A8
100
AcDbEntity
  8
M04
100
AcDbLine
 10
714.341868
 20
493.247034
 30
0.0
 11
721.341868
 21
500.247034
 31
0.0
  0
ARC
  5
3A9
100
AcDbEntity
  8
M04
100
AcDbCircle
 10
699.341868
 20
668.747034
 30
0.0
 40
15.0
100
AcDbArc
 50
0.0
 51
90.0
  0
LINE
  5
3AA
100
AcDbEntity
  8
M04
100
AcDbLine
 10
699.341868
 20
683.747034
 30
0.0
 11
666.442374
 21
683.747034
 31
0.0
  0
LINE
  5
3AB
100
AcDbEntity
  8
M04
100
AcDbLine
 10
590.341868
 20
683.747034
 30
0.0
 11
623.241363
 21
683.747034
 31
0.0
  0
LINE
  5
3AC
100
AcDbEntity
  8
M04
100
AcDbLine
 10
714.341868
 20
668.747034
 30
0.0
 11
714.341868
 21
571.247034
 31
0.0
  0
LINE
  5
3AD
100
AcDbEntity
  8
M03
100
AcDbLine
 10
611.341868
 20
603.247034
 30
0.0
 11
611.341868
 21
569.747034
 31
0.0
  0
LINE
  5
3AE
100
AcDbEntity
  8
M03
100
AcDbLine
 10
607.341868
 20
607.247034
 30
0.0
 11
611.341868
 21
611.247034
 31
0.0
  0
LINE
  5
3AF
100
AcDbEntity
  8
M03
100
AcDbLine
 10
611.341868
 20
603.247034
 30
0.0
 11
607.341868
 21
607.247034
 31
0.0
  0
LINE
  5
3B0
100
AcDbEntity
  8
M03
100
AcDbLine
 10
611.341868
 20
644.747034
 30
0.0
 11
611.341868
 21
611.247034
 31
0.0
  0
LINE
  5
3B1
100
AcDbEntity
  8
M03
100
AcDbLine
 10
603.341868
 20
644.747034
 30
0.0
 11
603.341868
 21
569.747034
 31
0.0
  0
LINE
  5
3B2
100
AcDbEntity
  8
M03
100
AcDbLine
 10
678.341868
 20
603.247034
 30
0.0
 11
678.341868
 21
569.747034
 31
0.0
  0
LINE
  5
3B3
100
AcDbEntity
  8
M03
100
AcDbLine
 10
682.341868
 20
607.247034
 30
0.0
 11
678.341868
 21
611.247034
 31
0.0
  0
LINE
  5
3B4
100
AcDbEntity
  8
M03
100
AcDbLine
 10
678.341868
 20
603.247034
 30
0.0
 11
682.341868
 21
607.247034
 31
0.0
  0
LINE
  5
3B5
100
AcDbEntity
  8
M03
100
AcDbLine
 10
678.341868
 20
603.247034
 30
0.0
 11
648.841868
 21
603.247034
 31
0.0
  0
LINE
  5
3B6
100
AcDbEntity
  8
M03
100
AcDbLine
 10
678.341868
 20
611.247034
 30
0.0
 11
611.341868
 21
611.247034
 31
0.0
  0
LINE
  5
3B7
100
AcDbEntity
  8
M03
100
AcDbLine
 10
678.341868
 20
644.747034
 30
0.0
 11
678.341868
 21
611.247034
 31
0.0
  0
LINE
  5
3B8
100
AcDbEntity
  8
M03
100
AcDbLine
 10
686.341868
 20
644.747034
 30
0.0
 11
686.341868
 21
569.747034
 31
0.0
  0
LINE
  5
3B9
100
AcDbEntity
  8
DIMS
 62
     4
100
AcDbLine
 10
729.841868
 20
535.647034
 30
0.0
 11
729.841868
 21
537.947034
 31
0.0
  0
LINE
  5
3BA
100
AcDbEntity
  8
DIMS
 62
     4
100
AcDbLine
 10
729.841868
 20
528.847034
 30
0.0
 11
729.841868
 21
526.547034
 31
0.0
  0
LINE
  5
3BB
100
AcDbEntity
  8
DIMS
 62
     4
100
AcDbLine
 10
729.841868
 20
530.547034
 30
0.0
 11
729.841868
 21
533.947034
 31
0.0
  0
LINE
  5
3BC
100
AcDbEntity
  8
M04
100
AcDbLine
 10
795.341868
 20
549.247034
 30
0.0
 11
816.013347
 21
549.247034
 31
0.0
  0
LINE
  5
3BD
100
AcDbEntity
  8
M04
100
AcDbLine
 10
795.341868
 20
515.247034
 30
0.0
 11
816.013347
 21
515.247034
 31
0.0
  0
ARC
  5
3BE
100
AcDbEntity
  8
M04
100
AcDbCircle
 10
780.341868
 20
549.247034
 30
0.0
 40
15.0
100
AcDbArc
 50
0.0
 51
90.0
  0
ARC
  5
3BF
100
AcDbEntity
  8
M04
100
AcDbCircle
 10
780.341868
 20
515.247034
 30
0.0
 40
15.0
100
AcDbArc
 50
270.0
 51
0.0
  0
LINE
  5
3C0
100
AcDbEntity
  8
M04
100
AcDbLine
 10
795.341868
 20
515.247034
 30
0.0
 11
795.341868
 21
549.247034
 31
0.0
  0
LINE
  5
3C1
100
AcDbEntity
  8
M04
100
AcDbLine
 10
780.341868
 20
500.247034
 30
0.0
 11
721.341868
 21
500.247034
 31
0.0
  0
LINE
  5
3C2
100
AcDbEntity
  8
M04
100
AcDbLine
 10
780.341868
 20
564.247034
 30
0.0
 11
721.341868
 21
564.247034
 31
0.0
  0
LWPOLYLINE
  5
3C3
100
AcDbEntity
  8
M01
100
AcDbPolyline
 90
        2
 70
     0
 43
4.0
 10
727.841868
 20
532.247034
 42
-0.414214
 10
729.841868
 20
534.247034
  0
LWPOLYLINE
  5
3C4
100
AcDbEntity
  8
M01
100
AcDbPolyline
 90
        2
 70
     0
 43
4.0
 10
731.841868
 20
532.247034
 42
-0.414214
 10
729.841868
 20
530.247034
  0
CIRCLE
  5
3C5
100
AcDbEntity
  8
M01
100
AcDbCircle
 10
729.841868
 20
532.247034
 30
0.0
 40
4.0
  0
LINE
  5
3C6
100
AcDbEntity
  8
M01
100
AcDbLine
 10
727.341868
 20
536.247034
 30
0.0
 11
735.341868
 21
536.247034
 31
0.0
  0
LINE
  5
3C7
100
AcDbEntity
  8
M01
100
AcDbLine
 10
727.341868
 20
528.247034
 30
0.0
 11
735.341868
 21
528.247034
 31
0.0
  0
ARC
  5
3C8
100
AcDbEntity
  8
M01
100
AcDbCircle
 10
727.341868
 20
532.247034
 30
0.0
 40
4.0
100
AcDbArc
 50
90.0
 51
270.0
  0
LINE
  5
3C9
100
AcDbEntity
  8
M01
100
AcDbLine
 10
735.341868
 20
552.247034
 30
0.0
 11
733.341868
 21
554.247034
 31
0.0
  0
LINE
  5
3CA
100
AcDbEntity
  8
M01
100
AcDbLine
 10
733.341868
 20
510.247034
 30
0.0
 11
735.341868
 21
512.247034
 31
0.0
  0
LINE
  5
3CB
100
AcDbEntity
  8
M01
100
AcDbLine
 10
735.341868
 20
512.247034
 30
0.0
 11
735.341868
 21
552.247034
 31
0.0
  0
LINE
  5
3CC
100
AcDbEntity
  8
M01
100
AcDbLine
 10
733.341868
 20
510.247034
 30
0.0
 11
719.341868
 21
510.247034
 31
0.0
  0
LINE
  5
3CD
100
AcDbEntity
  8
M01
100
AcDbLine
 10
620.341868
 20
676.747034
 30
0.0
 11
636.356587
 21
660.732316
 31
0.0
  0
LINE
  5
3CE
100
AcDbEntity
  8
M01
100
AcDbLine
 10
582.341868
 20
664.747034
 30
0.0
 11
594.341868
 21
676.747034
 31
0.0
  0
LINE
  5
3CF
100
AcDbEntity
  8
M01
100
AcDbLine
 10
594.341868
 20
676.747034
 30
0.0
 11
620.341868
 21
676.747034
 31
0.0
  0
LINE
  5
3D0
100
AcDbEntity
  8
M01
100
AcDbLine
 10
582.341868
 20
485.247034
 30
0.0
 11
582.341868
 21
399.747034
 31
0.0
  0
LINE
  5
3D1
100
AcDbEntity
  8
M01
100
AcDbLine
 10
669.341868
 20
676.747034
 30
0.0
 11
653.32715
 21
660.732316
 31
0.0
  0
LINE
  5
3D2
100
AcDbEntity
  8
M01
100
AcDbLine
 10
707.341868
 20
664.747034
 30
0.0
 11
695.341868
 21
676.747034
 31
0.0
  0
LINE
  5
3D3
100
AcDbEntity
  8
M01
100
AcDbLine
 10
695.341868
 20
676.747034
 30
0.0
 11
669.341868
 21
676.747034
 31
0.0
  0
LINE
  5
3D4
100
AcDbEntity
  8
M01
100
AcDbLine
 10
707.341868
 20
664.747034
 30
0.0
 11
707.341868
 21
566.247034
 31
0.0
  0
CIRCLE
  5
3D5
100
AcDbEntity
  8
M01
100
AcDbCircle
 10
607.341868
 20
644.747034
 30
0.0
 40
4.0
  0
LINE
  5
3D6
100
AcDbEntity
  8
M03
100
AcDbLine
 10
498.841868
 20
461.247034
 30
0.0
 11
528.341868
 21
461.247034
 31
0.0
  0
LINE
  5
3D7
100
AcDbEntity
  8
M03
100
AcDbLine
 10
494.841868
 20
457.247034
 30
0.0
 11
498.841868
 21
461.247034
 31
0.0
  0
LINE
  5
3D8
100
AcDbEntity
  8
M03
100
AcDbLine
 10
490.841868
 20
461.247034
 30
0.0
 11
494.841868
 21
457.247034
 31
0.0
  0
LINE
  5
3D9
100
AcDbEntity
  8
M03
100
AcDbLine
 10
498.841868
 20
603.247034
 30
0.0
 11
528.341868
 21
603.247034
 31
0.0
  0
LINE
  5
3DA
100
AcDbEntity
  8
M03
100
AcDbLine
 10
494.841868
 20
607.247034
 30
0.0
 11
498.841868
 21
603.247034
 31
0.0
  0
LINE
  5
3DB
100
AcDbEntity
  8
M03
100
AcDbLine
 10
490.841868
 20
603.247034
 30
0.0
 11
494.841868
 21
607.247034
 31
0.0
  0
LINE
  5
3DC
100
AcDbEntity
  8
M03
100
AcDbLine
 10
490.841868
 20
603.247034
 30
0.0
 11
490.841868
 21
461.247034
 31
0.0
  0
LINE
  5
3DD
100
AcDbEntity
  8
M03
100
AcDbLine
 10
498.841868
 20
603.247034
 30
0.0
 11
498.841868
 21
536.247034
 31
0.0
  0
LINE
  5
3DE
100
AcDbEntity
  8
CENTRE
100
AcDbLine
 10
449.341868
 20
457.247034
 30
0.0
 11
540.341868
 21
457.247034
 31
0.0
  0
LINE
  5
3DF
100
AcDbEntity
  8
CENTRE
100
AcDbLine
 10
449.341868
 20
607.247034
 30
0.0
 11
540.341868
 21
607.247034
 31
0.0
  0
LINE
  5
3E0
100
AcDbEntity
  8
CENTRE
100
AcDbLine
 10
494.841868
 20
615.247034
 30
0.0
 11
494.841868
 21
449.247034
 31
0.0
  0
ARC
  5
3E1
100
AcDbEntity
  8
M01
100
AcDbCircle
 10
420.341868
 20
566.247034
 30
0.0
 40
12.0
100
AcDbArc
 50
270.0
 51
360.0
  0
ARC
  5
3E2
100
AcDbEntity
  8
M01
100
AcDbCircle
 10
420.341868
 20
498.247034
 30
0.0
 40
12.0
100
AcDbArc
 50
0.0
 51
90.0
  0
LINE
  5
3E3
100
AcDbEntity
  8
M01
100
AcDbLine
 10
432.341868
 20
498.247034
 30
0.0
 11
432.341868
 21
399.747034
 31
0.0
  0
LINE
  5
3E4
100
AcDbEntity
  8
M04
100
AcDbLine
 10
425.341868
 20
493.247034
 30
0.0
 11
425.341868
 21
395.747034
 31
0.0
  0
LINE
  5
3E5
100
AcDbEntity
  8
M04
100
AcDbLine
 10
516.442374
 20
380.747034
 30
0.0
 11
498.377402
 21
398.812006
 31
0.0
  0
ARC
  5
3E6
100
AcDbEntity
  8
M04
100
AcDbCircle
 10
494.841868
 20
395.276472
 30
0.0
 40
5.0
100
AcDbArc
 50
45.0
 51
135.0
  0
LINE
  5
3E7
100
AcDbEntity
  8
M04
100
AcDbLine
 10
473.241363
 20
380.747034
 30
0.0
 11
491.306335
 21
398.812006
 31
0.0
  0
ARC
  5
3E8
100
AcDbEntity
  8
M04
100
AcDbCircle
 10
440.341868
 20
395.747034
 30
0.0
 40
15.0
100
AcDbArc
 50
180.0
 51
270.0
  0
LINE
  5
3E9
100
AcDbEntity
  8
M04
100
AcDbLine
 10
440.341868
 20
380.747034
 30
0.0
 11
473.241363
 21
380.747034
 31
0.0
  0
LINE
  5
3EA
100
AcDbEntity
  8
M04
100
AcDbLine
 10
549.341868
 20
380.747034
 30
0.0
 11
516.442374
 21
380.747034
 31
0.0
  0
LINE
  5
3EB
100
AcDbEntity
  8
M04
100
AcDbLine
 10
516.442374
 20
683.747034
 30
0.0
 11
498.377402
 21
665.682063
 31
0.0
  0
ARC
  5
3EC
100
AcDbEntity
  8
M04
100
AcDbCircle
 10
494.841868
 20
669.217597
 30
0.0
 40
5.0
100
AcDbArc
 50
225.0
 51
315.0
  0
LINE
  5
3ED
100
AcDbEntity
  8
M04
100
AcDbLine
 10
473.241363
 20
683.747034
 30
0.0
 11
491.306335
 21
665.682063
 31
0.0
  0
LINE
  5
3EE
100
AcDbEntity
  8
M03
100
AcDbLine
 10
457.341868
 20
457.247034
 30
0.0
 11
461.341868
 21
453.247034
 31
0.0
  0
LINE
  5
3EF
100
AcDbEntity
  8
M03
100
AcDbLine
 10
461.341868
 20
461.247034
 30
0.0
 11
457.341868
 21
457.247034
 31
0.0
  0
LINE
  5
3F0
100
AcDbEntity
  8
M03
100
AcDbLine
 10
461.341868
 20
419.747034
 30
0.0
 11
461.341868
 21
453.247034
 31
0.0
  0
ARC
  5
3F1
100
AcDbEntity
  8
M01
100
AcDbCircle
 10
494.841868
 20
395.276472
 30
0.0
 40
12.0
100
AcDbArc
 50
45.0
 51
135.0
  0
LINE
  5
3F2
100
AcDbEntity
  8
M03
100
AcDbLine
 10
528.341868
 20
461.247034
 30
0.0
 11
528.341868
 21
494.747034
 31
0.0
  0
LINE
  5
3F3
100
AcDbEntity
  8
M03
100
AcDbLine
 10
532.341868
 20
457.247034
 30
0.0
 11
528.341868
 21
453.247034
 31
0.0
  0
LINE
  5
3F4
100
AcDbEntity
  8
M03
100
AcDbLine
 10
528.341868
 20
461.247034
 30
0.0
 11
532.341868
 21
457.247034
 31
0.0
  0
LINE
  5
3F5
100
AcDbEntity
  8
M03
100
AcDbLine
 10
528.341868
 20
419.747034
 30
0.0
 11
528.341868
 21
453.247034
 31
0.0
  0
LINE
  5
3F6
100
AcDbEntity
  8
M03
100
AcDbLine
 10
536.341868
 20
419.747034
 30
0.0
 11
536.341868
 21
494.747034
 31
0.0
  0
LINE
  5
3F7
100
AcDbEntity
  8
M03
100
AcDbLine
 10
461.341868
 20
461.247034
 30
0.0
 11
461.341868
 21
494.747034
 31
0.0
  0
LINE
  5
3F8
100
AcDbEntity
  8
M03
100
AcDbLine
 10
461.341868
 20
461.247034
 30
0.0
 11
490.841868
 21
461.247034
 31
0.0
  0
LINE
  5
3F9
100
AcDbEntity
  8
M03
100
AcDbLine
 10
461.341868
 20
453.247034
 30
0.0
 11
528.341868
 21
453.247034
 31
0.0
  0
LINE
  5
3FA
100
AcDbEntity
  8
M03
100
AcDbLine
 10
453.341868
 20
419.747034
 30
0.0
 11
453.341868
 21
494.747034
 31
0.0
  0
LINE
  5
3FB
100
AcDbEntity
  8
M01
100
AcDbLine
 10
519.341868
 20
387.747034
 30
0.0
 11
503.32715
 21
403.761753
 31
0.0
  0
LINE
  5
3FC
100
AcDbEntity
  8
M01
100
AcDbLine
 10
557.341868
 20
399.747034
 30
0.0
 11
545.341868
 21
387.747034
 31
0.0
  0
LINE
  5
3FD
100
AcDbEntity
  8
M01
100
AcDbLine
 10
545.341868
 20
387.747034
 30
0.0
 11
519.341868
 21
387.747034
 31
0.0
  0
LINE
  5
3FE
100
AcDbEntity
  8
M01
100
AcDbLine
 10
470.341868
 20
387.747034
 30
0.0
 11
486.356587
 21
403.761753
 31
0.0
  0
LINE
  5
3FF
100
AcDbEntity
  8
M01
100
AcDbLine
 10
432.341868
 20
399.747034
 30
0.0
 11
444.341868
 21
387.747034
 31
0.0
  0
LINE
  5
400
100
AcDbEntity
  8
M01
100
AcDbLine
 10
444.341868
 20
387.747034
 30
0.0
 11
470.341868
 21
387.747034
 31
0.0
  0
ARC
  5
401
100
AcDbEntity
  8
M01
100
AcDbCircle
 10
494.841868
 20
669.217597
 30
0.0
 40
12.0
100
AcDbArc
 50
225.0
 51
315.0
  0
LINE
  5
402
100
AcDbEntity
  8
M01
100
AcDbLine
 10
406.341868
 20
554.247034
 30
0.0
 11
420.341868
 21
554.247034
 31
0.0
  0
MTEXT
  5
403
100
AcDbEntity
  8
0
  6
BYBLOCK
 62
     2
100
AcDbMText
 10
451.779635
 20
345.161452
 30
0.0
 40
3.0
 41
0.0
 71
     6
 72
     1
  1
WHERE POSSIBLE M12 PLATE RETAINING SCREWS SHOULD ALSO BE FITTED.\PMINIMUM 2 PER DROP & ALSO AROUND MANIFOLD POCKET.
  0
HATCH
  5
404
100
AcDbEntity
  8
M03
100
AcDbHatch
 10
0.0
 20
0.0
 30
0.0
210
0.0
220
0.0
230
1.0
  2
_U
 70
     0
 71
     0
 91
        1
 92
        7
 72
     0
 73
     1
 93
        4
 10
436.2418684629997
 20
637.0540971477264
 10
436.2418684629998
 20
666.2925565623618
 10
434.3418684629997
 20
666.2925565623618
 10
434.3418684629998
 20
637.0540971477263
 97
        0
 75
     0
 76
     0
 52
240.0
 41
0.7
 77
     0
 78
     1
 53
240.0
 43
31.782642
 44
1128.194275
 45
0.6062177826491068
 46
-0.3500000000000004
 79
     0
 47
0.060863
 98
        1
 10
435.054437
 20
640.745269
  0
HATCH
  5
405
100
AcDbEntity
  8
M03
100
AcDbHatch
 10
0.0
 20
0.0
 30
0.0
210
0.0
220
0.0
230
1.0
  2
_U
 70
     0
 71
     0
 91
        1
 92
        7
 72
     0
 73
     1
 93
        4
 10
436.2418684629997
 20
637.0540971477263
 10
436.2418684629997
 20
666.2925565623619
 10
434.3418684629997
 20
666.2925565623619
 10
434.3418684629998
 20
637.0540971477262
 97
        0
 75
     0
 76
     0
 52
-60.0
 41
0.7
 77
     0
 78
     1
 53
300.0
 43
31.782642
 44
1128.194275
 45
0.6062177826491073
 46
0.3499999999999998
 79
     0
 47
0.060863
 98
        1
 10
435.29789
 20
640.927933
  0
MTEXT
  5
406
102
{ACAD_REACTORS
330
407
102
}
100
AcDbEntity
  8
DIMS
 62
     2
100
AcDbMText
 10
412.896113
 20
602.549156
 30
0.0
 40
3.0
 41
0.0
 71
     9
 72
     5
  1
HGX10037 (x2)
  0
LEADER
  5
407
100
AcDbEntity
  8
DIMS
 62
     4
100
AcDbLeader
  3
DIM1$7
 73
     0
 75
     1
 40
4.571429
 41
33.714286
 76
     3
 10
435.243469
 20
616.793269
 30
0.0
 10
417.396113
 20
604.049156
 30
0.0
 10
414.396113
 20
604.049156
 30
0.0
 77
   256
340
406
213
0.0
223
1.5
233
0.0
1001
ACAD
1000
DSTYLE
1002
{
1070
   288
1070
     1
1070
   144
1040
1.0
1002
}
  0
LINE
  5
408
100
AcDbEntity
  8
M03
100
AcDbLine
 10
449.841868
 20
620.447034
 30
0.0
 11
451.169774
 21
622.747034
 31
0.0
  0
LINE
  5
409
100
AcDbEntity
  8
M03
100
AcDbLine
 10
449.841868
 20
625.047034
 30
0.0
 11
451.169774
 21
622.747034
 31
0.0
  0
LINE
  5
40A
100
AcDbEntity
  8
M03
100
AcDbLine
 10
449.841868
 20
625.047034
 30
0.0
 11
449.841868
 21
620.447034
 31
0.0
  0
LINE
  5
40B
100
AcDbEntity
  8
M03
100
AcDbLine
 10
448.341868
 20
625.747034
 30
0.0
 11
448.341868
 21
619.747034
 31
0.0
  0
LINE
  5
40C
100
AcDbEntity
  8
M03
100
AcDbLine
 10
436.241868
 20
637.054097
 30
0.0
 11
436.241868
 21
666.292557
 31
0.0
  0
LINE
  5
40D
100
AcDbEntity
  8
M03
100
AcDbLine
 10
434.341868
 20
637.054097
 30
0.0
 11
434.341868
 21
666.292557
 31
0.0
  0
LINE
  5
40E
100
AcDbEntity
  8
M03
100
AcDbLine
 10
436.541868
 20
630.054097
 30
0.0
 11
436.541868
 21
615.747034
 31
0.0
  0
LINE
  5
40F
100
AcDbEntity
  8
M03
100
AcDbLine
 10
437.341868
 20
631.098861
 30
0.0
 11
436.541868
 21
631.098861
 31
0.0
  0
LINE
  5
410
100
AcDbEntity
  8
M03
100
AcDbLine
 10
436.541868
 20
637.054097
 30
0.0
 11
434.041868
 21
637.054097
 31
0.0
  0
LINE
  5
411
100
AcDbEntity
  8
M03
100
AcDbLine
 10
434.041868
 20
637.054097
 30
0.0
 11
434.041868
 21
630.054097
 31
0.0
  0
LINE
  5
412
100
AcDbEntity
  8
M03
100
AcDbLine
 10
436.541868
 20
630.054097
 30
0.0
 11
434.041868
 21
630.054097
 31
0.0
  0
LINE
  5
413
100
AcDbEntity
  8
M03
100
AcDbLine
 10
437.341868
 20
615.747034
 30
0.0
 11
436.541868
 21
615.747034
 31
0.0
  0
ARC
  5
414
100
AcDbEntity
  8
M03
100
AcDbCircle
 10
439.068005
 20
622.747034
 30
0.0
 40
5.826136
100
AcDbArc
 50
115.69541
 51
244.30459
  0
LINE
  5
415
100
AcDbEntity
  8
M03
100
AcDbLine
 10
445.841868
 20
619.747034
 30
0.0
 11
446.541868
 21
620.447034
 31
0.0
  0
LINE
  5
416
100
AcDbEntity
  8
M03
100
AcDbLine
 10
445.841868
 20
625.747034
 30
0.0
 11
446.541868
 21
625.047034
 31
0.0
  0
LINE
  5
417
100
AcDbEntity
  8
M03
100
AcDbLine
 10
445.841868
 20
625.747034
 30
0.0
 11
445.841868
 21
619.747034
 31
0.0
  0
LINE
  5
418
100
AcDbEntity
  8
M03
100
AcDbLine
 10
446.541868
 20
625.047034
 30
0.0
 11
446.541868
 21
620.447034
 31
0.0
  0
LINE
  5
419
100
AcDbEntity
  8
M03
100
AcDbLine
 10
437.341868
 20
619.747034
 30
0.0
 11
437.341868
 21
612.747034
 31
0.0
  0
LINE
  5
41A
100
AcDbEntity
  8
M03
100
AcDbLine
 10
437.341868
 20
636.447034
 30
0.0
 11
436.541868
 21
636.447034
 31
0.0
  0
LINE
  5
41B
100
AcDbEntity
  8
M03
100
AcDbLine
 10
437.341868
 20
619.047034
 30
0.0
 11
436.541868
 21
619.047034
 31
0.0
  0
LINE
  5
41C
100
AcDbEntity
  8
M03
100
AcDbLine
 10
449.841868
 20
620.447034
 30
0.0
 11
436.541868
 21
620.447034
 31
0.0
  0
LINE
  5
41D
100
AcDbEntity
  8
M03
100
AcDbLine
 10
449.841868
 20
625.047034
 30
0.0
 11
436.541868
 21
625.047034
 31
0.0
  0
LINE
  5
41E
100
AcDbEntity
  8
M03
100
AcDbLine
 10
448.341868
 20
625.747034
 30
0.0
 11
436.541868
 21
625.747034
 31
0.0
  0
LINE
  5
41F
100
AcDbEntity
  8
M03
100
AcDbLine
 10
448.341868
 20
619.747034
 30
0.0
 11
436.541868
 21
619.747034
 31
0.0
  0
LINE
  5
420
100
AcDbEntity
  8
M03
100
AcDbLine
 10
436.541868
 20
637.054097
 30
0.0
 11
436.541868
 21
631.098861
 31
0.0
  0
LINE
  5
421
100
AcDbEntity
  8
M03
100
AcDbLine
 10
437.341868
 20
612.747034
 30
0.0
 11
432.341868
 21
612.747034
 31
0.0
  0
LINE
  5
422
100
AcDbEntity
  8
M03
100
AcDbLine
 10
437.341868
 20
669.747034
 30
0.0
 11
437.341868
 21
625.747034
 31
0.0
  0
LINE
  5
423
100
AcDbEntity
  8
CENTRE
100
AcDbLine
 10
455.540542
 20
622.747034
 30
0.0
 11
428.380392
 21
622.747034
 31
0.0
  0
LINE
  5
424
100
AcDbEntity
  8
DIMS
 62
     4
100
AcDbLine
 10
573.241868
 20
506.247034
 30
0.0
 11
577.041868
 21
506.247034
 31
0.0
  0
LINE
  5
425
100
AcDbEntity
  8
DIMS
 62
     4
100
AcDbLine
 10
566.441868
 20
506.247034
 30
0.0
 11
562.641868
 21
506.247034
 31
0.0
  0
LINE
  5
426
100
AcDbEntity
  8
DIMS
 62
     4
100
AcDbLine
 10
568.141868
 20
506.247034
 30
0.0
 11
571.541868
 21
506.247034
 31
0.0
  0
CIRCLE
  5
427
100
AcDbEntity
  8
M03
100
AcDbCircle
 10
569.841868
 20
506.247034
 30
0.0
 40
2.3
  0
ARC
  5
428
100
AcDbEntity
  8
M03
100
AcDbCircle
 10
569.841868
 20
506.247034
 30
0.0
 40
3.0
100
AcDbArc
 50
167.784636
 51
96.923103
  0
CIRCLE
  5
429
100
AcDbEntity
  8
M03
100
AcDbCircle
 10
569.841868
 20
506.247034
 30
0.0
 40
5.5
  0
LINE
  5
42A
100
AcDbEntity
  8
DIMS
 62
     4
100
AcDbLine
 10
543.841868
 20
535.647034
 30
0.0
 11
543.841868
 21
539.447034
 31
0.0
  0
LINE
  5
42B
100
AcDbEntity
  8
DIMS
 62
     4
100
AcDbLine
 10
543.841868
 20
528.847034
 30
0.0
 11
543.841868
 21
525.047034
 31
0.0
  0
LINE
  5
42C
100
AcDbEntity
  8
DIMS
 62
     4
100
AcDbLine
 10
543.841868
 20
530.547034
 30
0.0
 11
543.841868
 21
533.947034
 31
0.0
  0
LINE
  5
42D
100
AcDbEntity
  8
DIMS
 62
     4
100
AcDbLine
 10
595.841868
 20
535.647034
 30
0.0
 11
595.841868
 21
539.447034
 31
0.0
  0
LINE
  5
42E
100
AcDbEntity
  8
DIMS
 62
     4
100
AcDbLine
 10
595.841868
 20
528.847034
 30
0.0
 11
595.841868
 21
525.047034
 31
0.0
  0
LINE
  5
42F
100
AcDbEntity
  8
DIMS
 62
     4
100
AcDbLine
 10
595.841868
 20
530.547034
 30
0.0
 11
595.841868
 21
533.947034
 31
0.0
  0
LINE
  5
430
100
AcDbEntity
  8
DIMS
 62
     4
100
AcDbLine
 10
573.241868
 20
558.247034
 30
0.0
 11
577.041868
 21
558.247034
 31
0.0
  0
LINE
  5
431
100
AcDbEntity
  8
DIMS
 62
     4
100
AcDbLine
 10
566.441868
 20
558.247034
 30
0.0
 11
562.641868
 21
558.247034
 31
0.0
  0
LINE
  5
432
100
AcDbEntity
  8
DIMS
 62
     4
100
AcDbLine
 10
568.141868
 20
558.247034
 30
0.0
 11
571.541868
 21
558.247034
 31
0.0
  0
CIRCLE
  5
433
100
AcDbEntity
  8
M03
100
AcDbCircle
 10
595.841868
 20
532.247034
 30
0.0
 40
2.3
  0
ARC
  5
434
100
AcDbEntity
  8
M03
100
AcDbCircle
 10
595.841868
 20
532.247034
 30
0.0
 40
3.0
100
AcDbArc
 50
167.784636
 51
96.923103
  0
CIRCLE
  5
435
100
AcDbEntity
  8
M03
100
AcDbCircle
 10
595.841868
 20
532.247034
 30
0.0
 40
5.5
  0
CIRCLE
  5
436
100
AcDbEntity
  8
M03
100
AcDbCircle
 10
543.841868
 20
532.247034
 30
0.0
 40
2.3
  0
ARC
  5
437
100
AcDbEntity
  8
M03
100
AcDbCircle
 10
543.841868
 20
532.247034
 30
0.0
 40
3.0
100
AcDbArc
 50
167.784636
 51
96.923103
  0
CIRCLE
  5
438
100
AcDbEntity
  8
M03
100
AcDbCircle
 10
543.841868
 20
532.247034
 30
0.0
 40
5.5
  0
CIRCLE
  5
439
100
AcDbEntity
  8
M03
100
AcDbCircle
 10
569.841868
 20
558.247034
 30
0.0
 40
2.3
  0
ARC
  5
43A
100
AcDbEntity
  8
M03
100
AcDbCircle
 10
569.841868
 20
558.247034
 30
0.0
 40
3.0
100
AcDbArc
 50
167.784636
 51
96.923103
  0
CIRCLE
  5
43B
100
AcDbEntity
  8
M03
100
AcDbCircle
 10
569.841868
 20
558.247034
 30
0.0
 40
5.5
  0
LINE
  5
43C
102
{ACAD_REACTORS
330
246
102
}
100
AcDbEntity
  8
M05
100
AcDbLine
 10
466.841868
 20
203.610727
 30
0.0
 11
467.841868
 21
202.610727
 31
0.0
  0
LINE
  5
43D
102
{ACAD_REACTORS
330
246
102
}
100
AcDbEntity
  8
M05
100
AcDbLine
 10
464.841868
 20
203.610727
 30
0.0
 11
463.841868
 21
202.610727
 31
0.0
  0
LINE
  5
43E
102
{ACAD_REACTORS
330
246
102
}
100
AcDbEntity
  8
M05
100
AcDbLine
 10
466.841868
 20
203.610727
 30
0.0
 11
464.841868
 21
203.610727
 31
0.0
  0
LINE
  5
43F
102
{ACAD_REACTORS
330
246
102
}
100
AcDbEntity
  8
M05
100
AcDbLine
 10
447.841868
 20
203.610727
 30
0.0
 11
446.841868
 21
202.610727
 31
0.0
  0
LINE
  5
440
102
{ACAD_REACTORS
330
246
102
}
100
AcDbEntity
  8
M05
100
AcDbLine
 10
449.841868
 20
203.610727
 30
0.0
 11
450.841868
 21
202.610727
 31
0.0
  0
LINE
  5
441
102
{ACAD_REACTORS
330
246
102
}
100
AcDbEntity
  8
M05
100
AcDbLine
 10
447.841868
 20
203.610727
 30
0.0
 11
449.841868
 21
203.610727
 31
0.0
  0
LINE
  5
442
102
{ACAD_REACTORS
330
160
102
}
100
AcDbEntity
  8
M02
100
AcDbLine
 10
475.341868
 20
256.610727
 30
0.0
 11
475.341868
 21
259.610727
 31
0.0
  0
LINE
  5
443
102
{ACAD_REACTORS
330
160
102
}
100
AcDbEntity
  8
M02
100
AcDbLine
 10
439.341868
 20
256.610727
 30
0.0
 11
439.341868
 21
259.610727
 31
0.0
  0
LINE
  5
444
100
AcDbEntity
  8
M04
100
AcDbLine
 10
457.341868
 20
184.782822
 30
0.0
 11
459.641868
 21
186.110727
 31
0.0
  0
LINE
  5
445
100
AcDbEntity
  8
M04
100
AcDbLine
 10
455.041868
 20
186.110727
 30
0.0
 11
457.341868
 21
184.782822
 31
0.0
  0
LINE
  5
446
100
AcDbEntity
  8
M04
100
AcDbLine
 10
455.041868
 20
186.110727
 30
0.0
 11
459.641868
 21
186.110727
 31
0.0
  0
LINE
  5
447
100
AcDbEntity
  8
M04
100
AcDbLine
 10
454.341868
 20
191.171845
 30
0.0
 11
454.341868
 21
187.610727
 31
0.0
  0
LINE
  5
448
100
AcDbEntity
  8
M04
100
AcDbLine
 10
455.041868
 20
190.471845
 30
0.0
 11
455.041868
 21
186.110727
 31
0.0
  0
LINE
  5
449
100
AcDbEntity
  8
M04
100
AcDbLine
 10
460.341868
 20
191.171845
 30
0.0
 11
460.341868
 21
187.610727
 31
0.0
  0
LINE
  5
44A
100
AcDbEntity
  8
M04
100
AcDbLine
 10
459.641868
 20
190.471845
 30
0.0
 11
459.641868
 21
186.110727
 31
0.0
  0
LINE
  5
44B
100
AcDbEntity
  8
M05
100
AcDbLine
 10
459.641868
 20
190.471845
 30
0.0
 11
460.341868
 21
191.171845
 31
0.0
  0
LINE
  5
44C
100
AcDbEntity
  8
M05
100
AcDbLine
 10
454.341868
 20
191.171845
 30
0.0
 11
455.041868
 21
190.471845
 31
0.0
  0
LINE
  5
44D
100
AcDbEntity
  8
M05
100
AcDbLine
 10
459.641868
 20
203.251845
 30
0.0
 11
459.641868
 21
190.471845
 31
0.0
  0
LINE
  5
44E
100
AcDbEntity
  8
M05
100
AcDbLine
 10
455.041868
 20
203.251845
 30
0.0
 11
455.041868
 21
190.471845
 31
0.0
  0
LINE
  5
44F
100
AcDbEntity
  8
M05
100
AcDbLine
 10
454.341868
 20
191.171845
 30
0.0
 11
460.341868
 21
191.171845
 31
0.0
  0
LINE
  5
450
100
AcDbEntity
  8
M04
100
AcDbLine
 10
454.341868
 20
187.610727
 30
0.0
 11
460.341868
 21
187.610727
 31
0.0
  0
LINE
  5
451
100
AcDbEntity
  8
M05
100
AcDbLine
 10
455.041868
 20
190.471845
 30
0.0
 11
459.641868
 21
190.471845
 31
0.0
  0
LINE
  5
452
100
AcDbEntity
  8
M05
  6
HIDDEN
100
AcDbLine
 10
449.182986
 20
209.910727
 30
0.0
 11
448.482986
 21
210.610727
 31
0.0
  0
LINE
  5
453
100
AcDbEntity
  8
M05
  6
HIDDEN
100
AcDbLine
 10
465.50075
 20
209.910727
 30
0.0
 11
466.20075
 21
210.610727
 31
0.0
  0
LINE
  5
454
100
AcDbEntity
  8
M05
100
AcDbLine
 10
454.341868
 20
203.251845
 30
0.0
 11
460.341868
 21
203.251845
 31
0.0
  0
LINE
  5
455
100
AcDbEntity
  8
M05
100
AcDbLine
 10
457.891868
 20
207.751845
 30
0.0
 11
463.341868
 21
207.751845
 31
0.0
  0
LINE
  5
456
100
AcDbEntity
  8
M05
100
AcDbLine
 10
457.891868
 20
208.471845
 30
0.0
 11
463.341868
 21
208.471845
 31
0.0
  0
LINE
  5
457
100
AcDbEntity
  8
M05
100
AcDbLine
 10
457.891868
 20
208.471845
 30
0.0
 11
457.891868
 21
206.971845
 31
0.0
  0
LINE
  5
458
100
AcDbEntity
  8
M05
100
AcDbLine
 10
456.791868
 20
208.471845
 30
0.0
 11
456.791868
 21
206.971845
 31
0.0
  0
LINE
  5
459
100
AcDbEntity
  8
M05
100
AcDbLine
 10
456.791868
 20
206.971845
 30
0.0
 11
457.891868
 21
206.971845
 31
0.0
  0
LINE
  5
45A
102
{ACAD_REACTORS
330
246
102
}
100
AcDbEntity
  8
M05
100
AcDbLine
 10
460.841868
 20
205.251845
 30
0.0
 11
460.841868
 21
202.610727
 31
0.0
  0
LINE
  5
45B
102
{ACAD_REACTORS
330
246
102
}
100
AcDbEntity
  8
M05
100
AcDbLine
 10
453.841868
 20
205.251845
 30
0.0
 11
453.841868
 21
202.610727
 31
0.0
  0
LINE
  5
45C
100
AcDbEntity
  8
M05
100
AcDbLine
 10
451.341868
 20
207.751845
 30
0.0
 11
456.791868
 21
207.751845
 31
0.0
  0
LINE
  5
45D
102
{ACAD_REACTORS
330
246
102
}
100
AcDbEntity
  8
M05
100
AcDbLine
 10
454.341868
 20
204.751845
 30
0.0
 11
449.182986
 21
209.910727
 31
0.0
  0
LINE
  5
45E
100
AcDbEntity
  8
M05
100
AcDbLine
 10
451.341868
 20
208.471845
 30
0.0
 11
451.341868
 21
207.751845
 31
0.0
  0
LINE
  5
45F
102
{ACAD_REACTORS
330
246
102
}
100
AcDbEntity
  8
M05
100
AcDbLine
 10
460.341868
 20
204.751845
 30
0.0
 11
465.50075
 21
209.910727
 31
0.0
  0
LINE
  5
460
100
AcDbEntity
  8
M05
100
AcDbLine
 10
454.341868
 20
204.751845
 30
0.0
 11
460.341868
 21
204.751845
 31
0.0
  0
LINE
  5
461
100
AcDbEntity
  8
M05
100
AcDbLine
 10
454.341868
 20
204.751845
 30
0.0
 11
454.341868
 21
191.171845
 31
0.0
  0
LINE
  5
462
100
AcDbEntity
  8
M05
100
AcDbLine
 10
460.341868
 20
204.751845
 30
0.0
 11
460.341868
 21
191.171845
 31
0.0
  0
LINE
  5
463
100
AcDbEntity
  8
M05
100
AcDbLine
 10
463.341868
 20
208.471845
 30
0.0
 11
463.341868
 21
207.751845
 31
0.0
  0
LINE
  5
464
100
AcDbEntity
  8
M05
100
AcDbLine
 10
451.341868
 20
208.471845
 30
0.0
 11
456.791868
 21
208.471845
 31
0.0
  0
LINE
  5
465
100
AcDbEntity
  8
M05
  6
HIDDEN
100
AcDbLine
 10
443.341868
 20
209.910727
 30
0.0
 11
471.341868
 21
209.910727
 31
0.0
  0
LINE
  5
466
100
AcDbEntity
  8
M05
  6
HIDDEN
100
AcDbLine
 10
471.341868
 20
209.910727
 30
0.0
 11
470.641868
 21
210.610727
 31
0.0
  0
LINE
  5
467
100
AcDbEntity
  8
M05
  6
HIDDEN
100
AcDbLine
 10
471.341868
 20
208.910727
 30
0.0
 11
471.341868
 21
209.910727
 31
0.0
  0
LINE
  5
468
102
{ACAD_REACTORS
330
246
102
}
100
AcDbEntity
  8
M05
100
AcDbLine
 10
471.341868
 20
208.910727
 30
0.0
 11
470.641868
 21
209.610727
 31
0.0
  0
LINE
  5
469
102
{ACAD_REACTORS
330
246
102
}
100
AcDbEntity
  8
M05
100
AcDbLine
 10
471.341868
 20
203.310727
 30
0.0
 11
470.641868
 21
202.610727
 31
0.0
  0
LINE
  5
46A
102
{ACAD_REACTORS
330
246
102
}
100
AcDbEntity
  8
M05
100
AcDbLine
 10
471.341868
 20
208.910727
 30
0.0
 11
471.341868
 21
203.310727
 31
0.0
  0
LINE
  5
46B
100
AcDbEntity
  8
M05
  6
HIDDEN
100
AcDbLine
 10
443.341868
 20
209.910727
 30
0.0
 11
444.041868
 21
210.610727
 31
0.0
  0
LINE
  5
46C
100
AcDbEntity
  8
M05
  6
HIDDEN
100
AcDbLine
 10
443.341868
 20
208.910727
 30
0.0
 11
443.341868
 21
209.910727
 31
0.0
  0
LINE
  5
46D
102
{ACAD_REACTORS
330
246
102
}
100
AcDbEntity
  8
M05
100
AcDbLine
 10
443.341868
 20
208.910727
 30
0.0
 11
444.041868
 21
209.610727
 31
0.0
  0
LINE
  5
46E
102
{ACAD_REACTORS
330
246
102
}
100
AcDbEntity
  8
M05
100
AcDbLine
 10
443.341868
 20
203.310727
 30
0.0
 11
444.041868
 21
202.610727
 31
0.0
  0
LINE
  5
46F
100
AcDbEntity
  8
M05
  6
HIDDEN
100
AcDbLine
 10
444.041868
 20
210.610727
 30
0.0
 11
470.641868
 21
210.610727
 31
0.0
  0
LINE
  5
470
102
{ACAD_REACTORS
330
246
102
}
100
AcDbEntity
  8
M05
100
AcDbLine
 10
443.341868
 20
208.910727
 30
0.0
 11
443.341868
 21
203.310727
 31
0.0
  0
HATCH
  5
471
100
AcDbEntity
  8
HATCH
100
AcDbHatch
 10
0.0
 20
0.0
 30
0.0
210
0.0
220
0.0
230
1.0
  2
_U
 70
     0
 71
     0
 91
        2
 92
        7
 72
     1
 73
     1
 93
        2
 10
441.341868463
 20
248.6107273354998
 42
1.0
 10
441.341868463
 20
256.6107273354998
 42
1.0
 97
        0
 92
        7
 72
     1
 73
     1
 93
        2
 10
441.341868463
 20
217.6107273354998
 42
1.0
 10
441.341868463
 20
209.6107273354998
 42
1.0
 97
        0
 75
     0
 76
     0
 52
45.0
 41
0.8
 77
     0
 78
     1
 53
45.0
 43
74.873301
 44
14.330935
 45
-0.565685424949238
 46
0.565685424949238
 79
     0
 47
0.095608
 98
        2
 10
441.041227
 20
252.477379
 10
442.188524
 20
213.453188
  0
LINE
  5
472
100
AcDbEntity
  8
DIMS
 62
     4
100
AcDbLine
 10
444.741868
 20
213.610727
 30
0.0
 11
447.041868
 21
213.610727
 31
0.0
  0
LINE
  5
473
100
AcDbEntity
  8
DIMS
 62
     4
100
AcDbLine
 10
437.941868
 20
213.610727
 30
0.0
 11
435.641868
 21
213.610727
 31
0.0
  0
LINE
  5
474
100
AcDbEntity
  8
DIMS
 62
     4
100
AcDbLine
 10
441.341868
 20
210.210727
 30
0.0
 11
441.341868
 21
207.910727
 31
0.0
  0
LINE
  5
475
100
AcDbEntity
  8
DIMS
 62
     4
100
AcDbLine
 10
441.341868
 20
217.010727
 30
0.0
 11
441.341868
 21
219.310727
 31
0.0
  0
LINE
  5
476
100
AcDbEntity
  8
DIMS
 62
     4
100
AcDbLine
 10
439.641868
 20
213.610727
 30
0.0
 11
443.041868
 21
213.610727
 31
0.0
  0
LINE
  5
477
100
AcDbEntity
  8
DIMS
 62
     4
100
AcDbLine
 10
441.341868
 20
215.310727
 30
0.0
 11
441.341868
 21
211.910727
 31
0.0
  0
LINE
  5
478
100
AcDbEntity
  8
DIMS
 62
     4
100
AcDbLine
 10
444.741868
 20
252.610727
 30
0.0
 11
447.041868
 21
252.610727
 31
0.0
  0
LINE
  5
479
100
AcDbEntity
  8
DIMS
 62
     4
100
AcDbLine
 10
437.941868
 20
252.610727
 30
0.0
 11
435.641868
 21
252.610727
 31
0.0
  0
LINE
  5
47A
100
AcDbEntity
  8
DIMS
 62
     4
100
AcDbLine
 10
441.341868
 20
249.210727
 30
0.0
 11
441.341868
 21
246.910727
 31
0.0
  0
LINE
  5
47B
100
AcDbEntity
  8
DIMS
 62
     4
100
AcDbLine
 10
441.341868
 20
256.010727
 30
0.0
 11
441.341868
 21
258.310727
 31
0.0
  0
LINE
  5
47C
100
AcDbEntity
  8
DIMS
 62
     4
100
AcDbLine
 10
439.641868
 20
252.610727
 30
0.0
 11
443.041868
 21
252.610727
 31
0.0
  0
LINE
  5
47D
100
AcDbEntity
  8
DIMS
 62
     4
100
AcDbLine
 10
441.341868
 20
254.310727
 30
0.0
 11
441.341868
 21
250.910727
 31
0.0
  0
LINE
  5
47E
100
AcDbEntity
  8
M01
100
AcDbLine
 10
437.341868
 20
213.610727
 30
0.0
 11
437.341868
 21
209.610727
 31
0.0
  0
LINE
  5
47F
100
AcDbEntity
  8
M01
100
AcDbLine
 10
445.341868
 20
213.610727
 30
0.0
 11
445.341868
 21
209.610727
 31
0.0
  0
LINE
  5
480
100
AcDbEntity
  8
M01
100
AcDbLine
 10
437.341868
 20
252.610727
 30
0.0
 11
437.341868
 21
256.610727
 31
0.0
  0
LINE
  5
481
100
AcDbEntity
  8
M01
100
AcDbLine
 10
445.341868
 20
252.610727
 30
0.0
 11
445.341868
 21
256.610727
 31
0.0
  0
CIRCLE
  5
482
100
AcDbEntity
  8
M01
100
AcDbCircle
 10
441.341868
 20
213.610727
 30
0.0
 40
4.0
  0
CIRCLE
  5
483
100
AcDbEntity
  8
M01
100
AcDbCircle
 10
441.341868
 20
252.610727
 30
0.0
 40
4.0
  0
DIMENSION
  5
484
100
AcDbEntity
  8
DIMS
100
AcDbDimension
  2
*D1
 10
725.841868
 20
291.286892
 30
0.0
 11
618.556154
 21
294.286892
 31
0.0
 12
-286.085638
 22
-203.680049
 32
0.0
  1
%%c<> H7
  3
DIM1
100
AcDbAlignedDimension
 13
733.841868
 23
276.610727
 33
0.0
 14
725.841868
 24
276.610727
 34
0.0
100
AcDbRotatedDimension
1001
ACAD
1000
DSTYLE
1002
{
1070
   144
1040
1.0
1002
}
  0
LINE
  5
492
100
AcDbEntity
  8
M01
100
AcDbLine
 10
382.397768
 20
547.497034
 30
0.0
 11
382.397768
 21
540.997034
 31
0.0
  0
LINE
  5
493
100
AcDbEntity
  8
M01
100
AcDbLine
 10
374.285969
 20
547.497034
 30
0.0
 11
374.285969
 21
540.997034
 31
0.0
  0
LINE
  5
494
100
AcDbEntity
  8
M01
100
AcDbLine
 10
382.397768
 20
547.497034
 30
0.0
 11
384.341868
 21
547.497034
 31
0.0
  0
ARC
  5
495
100
AcDbEntity
  8
M01
100
AcDbCircle
 10
380.836519
 20
548.747034
 30
0.0
 40
2.0
100
AcDbArc
 50
270.0
 51
321.317813
  0
ARC
  5
496
100
AcDbEntity
  8
M01
100
AcDbCircle
 10
375.847218
 20
548.747034
 30
0.0
 40
2.0
100
AcDbArc
 50
218.682187
 51
270.0
  0
LINE
  5
497
100
AcDbEntity
  8
M01
100
AcDbLine
 10
372.341868
 20
547.497034
 30
0.0
 11
374.285969
 21
547.497034
 31
0.0
  0
LINE
  5
498
100
AcDbEntity
  8
M01
100
AcDbLine
 10
375.847218
 20
546.747034
 30
0.0
 11
380.836519
 21
546.747034
 31
0.0
  0
LINE
  5
499
100
AcDbEntity
  8
M01
100
AcDbLine
 10
382.397768
 20
540.997034
 30
0.0
 11
384.341868
 21
540.997034
 31
0.0
  0
ARC
  5
49A
100
AcDbEntity
  8
M01
100
AcDbCircle
 10
380.836519
 20
539.747034
 30
0.0
 40
2.0
100
AcDbArc
 50
38.682187
 51
90.0
  0
ARC
  5
49B
100
AcDbEntity
  8
M01
100
AcDbCircle
 10
375.847218
 20
539.747034
 30
0.0
 40
2.0
100
AcDbArc
 50
90.0
 51
141.317813
  0
LINE
  5
49C
100
AcDbEntity
  8
M01
100
AcDbLine
 10
372.341868
 20
540.997034
 30
0.0
 11
374.285969
 21
540.997034
 31
0.0
  0
LINE
  5
49D
100
AcDbEntity
  8
M01
100
AcDbLine
 10
375.847218
 20
541.747034
 30
0.0
 11
380.836519
 21
541.747034
 31
0.0
  0
LINE
  5
49E
100
AcDbEntity
  8
M01
100
AcDbLine
 10
372.341868
 20
539.747034
 30
0.0
 11
372.341868
 21
548.747034
 31
0.0
  0
LINE
  5
49F
100
AcDbEntity
  8
M01
100
AcDbLine
 10
371.541868
 20
548.747034
 30
0.0
 11
372.341868
 21
548.747034
 31
0.0
  0
LINE
  5
4A0
100
AcDbEntity
  8
M01
100
AcDbLine
 10
371.541868
 20
539.747034
 30
0.0
 11
372.341868
 21
539.747034
 31
0.0
  0
LINE
  5
4A1
100
AcDbEntity
  8
M01
100
AcDbLine
 10
382.397768
 20
516.997034
 30
0.0
 11
382.397768
 21
523.497034
 31
0.0
  0
LINE
  5
4A2
100
AcDbEntity
  8
M01
100
AcDbLine
 10
374.285969
 20
516.997034
 30
0.0
 11
374.285969
 21
523.497034
 31
0.0
  0
LINE
  5
4A3
100
AcDbEntity
  8
M01
100
AcDbLine
 10
382.397768
 20
516.997034
 30
0.0
 11
384.341868
 21
516.997034
 31
0.0
  0
ARC
  5
4A4
100
AcDbEntity
  8
M01
100
AcDbCircle
 10
380.836519
 20
515.747034
 30
0.0
 40
2.0
100
AcDbArc
 50
38.682187
 51
90.0
  0
ARC
  5
4A5
100
AcDbEntity
  8
M01
100
AcDbCircle
 10
375.847218
 20
515.747034
 30
0.0
 40
2.0
100
AcDbArc
 50
90.0
 51
141.317813
  0
LINE
  5
4A6
100
AcDbEntity
  8
M01
100
AcDbLine
 10
372.341868
 20
516.997034
 30
0.0
 11
374.285969
 21
516.997034
 31
0.0
  0
LINE
  5
4A7
100
AcDbEntity
  8
M01
100
AcDbLine
 10
375.847218
 20
517.747034
 30
0.0
 11
380.836519
 21
517.747034
 31
0.0
  0
LINE
  5
4A8
100
AcDbEntity
  8
M01
100
AcDbLine
 10
382.397768
 20
523.497034
 30
0.0
 11
384.341868
 21
523.497034
 31
0.0
  0
ARC
  5
4A9
100
AcDbEntity
  8
M01
100
AcDbCircle
 10
380.836519
 20
524.747034
 30
0.0
 40
2.0
100
AcDbArc
 50
270.0
 51
321.317813
  0
ARC
  5
4AA
100
AcDbEntity
  8
M01
100
AcDbCircle
 10
375.847218
 20
524.747034
 30
0.0
 40
2.0
100
AcDbArc
 50
218.682187
 51
270.0
  0
LINE
  5
4AB
100
AcDbEntity
  8
M01
100
AcDbLine
 10
372.341868
 20
523.497034
 30
0.0
 11
374.285969
 21
523.497034
 31
0.0
  0
LINE
  5
4AC
100
AcDbEntity
  8
M01
100
AcDbLine
 10
375.847218
 20
522.747034
 30
0.0
 11
380.836519
 21
522.747034
 31
0.0
  0
LINE
  5
4AD
100
AcDbEntity
  8
M01
100
AcDbLine
 10
389.341868
 20
549.247034
 30
0.0
 11
389.341868
 21
539.247034
 31
0.0
  0
LINE
  5
4AE
100
AcDbEntity
  8
M01
100
AcDbLine
 10
389.341868
 20
515.247034
 30
0.0
 11
389.341868
 21
525.247034
 31
0.0
  0
LINE
  5
4AF
100
AcDbEntity
  8
M01
100
AcDbLine
 10
384.341868
 20
515.247034
 30
0.0
 11
404.341868
 21
515.247034
 31
0.0
  0
LINE
  5
4B0
100
AcDbEntity
  8
M01
100
AcDbLine
 10
384.341868
 20
525.247034
 30
0.0
 11
404.341868
 21
525.247034
 31
0.0
  0
LINE
  5
4B1
100
AcDbEntity
  8
M01
100
AcDbLine
 10
384.341868
 20
539.247034
 30
0.0
 11
404.341868
 21
539.247034
 31
0.0
  0
LINE
  5
4B2
100
AcDbEntity
  8
M01
100
AcDbLine
 10
384.341868
 20
549.247034
 30
0.0
 11
404.341868
 21
549.247034
 31
0.0
  0
LINE
  5
4B3
100
AcDbEntity
  8
M01
100
AcDbLine
 10
362.441868
 20
547.278123
 30
0.0
 11
362.441868
 21
541.215945
 31
0.0
  0
ARC
  5
4B4
100
AcDbEntity
  8
M01
100
AcDbCircle
 10
364.291174
 20
541.215945
 30
0.0
 40
1.150694
100
AcDbArc
 50
298.592423
 51
61.407577
  0
ARC
  5
4B5
100
AcDbEntity
  8
M01
100
AcDbCircle
 10
361.739091
 20
544.247034
 30
0.0
 40
3.702778
100
AcDbArc
 50
326.92527
 51
33.07473
  0
ARC
  5
4B6
100
AcDbEntity
  8
M01
100
AcDbCircle
 10
364.291174
 20
547.278123
 30
0.0
 40
1.150694
100
AcDbArc
 50
298.592423
 51
61.407577
  0
ARC
  5
4B7
100
AcDbEntity
  8
M01
100
AcDbCircle
 10
363.592563
 20
541.215945
 30
0.0
 40
1.150694
100
AcDbArc
 50
118.592423
 51
241.407577
  0
ARC
  5
4B8
100
AcDbEntity
  8
M01
100
AcDbCircle
 10
366.144646
 20
544.247034
 30
0.0
 40
3.702778
100
AcDbArc
 50
146.92527
 51
213.07473
  0
LINE
  5
4B9
100
AcDbEntity
  8
M01
100
AcDbLine
 10
363.041868
 20
542.226308
 30
0.0
 11
364.841868
 21
542.226308
 31
0.0
  0
LINE
  5
4BA
100
AcDbEntity
  8
M01
100
AcDbLine
 10
363.041868
 20
540.205582
 30
0.0
 11
364.841868
 21
540.205582
 31
0.0
  0
ARC
  5
4BB
100
AcDbEntity
  8
M01
100
AcDbCircle
 10
363.592563
 20
547.278123
 30
0.0
 40
1.150694
100
AcDbArc
 50
118.592423
 51
241.407577
  0
LINE
  5
4BC
100
AcDbEntity
  8
M01
100
AcDbLine
 10
363.041868
 20
546.26776
 30
0.0
 11
364.841868
 21
546.26776
 31
0.0
  0
LINE
  5
4BD
100
AcDbEntity
  8
M01
100
AcDbLine
 10
363.041868
 20
548.288486
 30
0.0
 11
364.841868
 21
548.288486
 31
0.0
  0
LINE
  5
4BE
100
AcDbEntity
  8
M01
100
AcDbLine
 10
367.741868
 20
539.247034
 30
0.0
 11
366.241868
 21
539.247034
 31
0.0
  0
LINE
  5
4BF
100
AcDbEntity
  8
M01
100
AcDbLine
 10
367.741868
 20
549.247034
 30
0.0
 11
366.241868
 21
549.247034
 31
0.0
  0
LINE
  5
4C0
100
AcDbEntity
  8
M01
100
AcDbLine
 10
366.241868
 20
539.747034
 30
0.0
 11
365.441868
 21
539.747034
 31
0.0
  0
LINE
  5
4C1
100
AcDbEntity
  8
M01
100
AcDbLine
 10
366.241868
 20
548.747034
 30
0.0
 11
365.441868
 21
548.747034
 31
0.0
  0
LINE
  5
4C2
100
AcDbEntity
  8
M01
100
AcDbLine
 10
365.441868
 20
548.747034
 30
0.0
 11
365.441868
 21
539.747034
 31
0.0
  0
LINE
  5
4C3
100
AcDbEntity
  8
M01
100
AcDbLine
 10
366.241868
 20
549.247034
 30
0.0
 11
366.241868
 21
539.247034
 31
0.0
  0
LINE
  5
4C4
100
AcDbEntity
  8
M01
100
AcDbLine
 10
368.541868
 20
539.747034
 30
0.0
 11
367.741868
 21
539.747034
 31
0.0
  0
LINE
  5
4C5
100
AcDbEntity
  8
M01
100
AcDbLine
 10
368.541868
 20
548.747034
 30
0.0
 11
367.741868
 21
548.747034
 31
0.0
  0
LINE
  5
4C6
100
AcDbEntity
  8
M01
100
AcDbLine
 10
367.741868
 20
549.247034
 30
0.0
 11
367.741868
 21
539.247034
 31
0.0
  0
ARC
  5
4C7
100
AcDbEntity
  8
M01
100
AcDbCircle
 10
370.391174
 20
541.215945
 30
0.0
 40
1.150694
100
AcDbArc
 50
298.592423
 51
61.407577
  0
ARC
  5
4C8
100
AcDbEntity
  8
M01
100
AcDbCircle
 10
367.839091
 20
544.247034
 30
0.0
 40
3.702778
100
AcDbArc
 50
326.92527
 51
33.07473
  0
ARC
  5
4C9
100
AcDbEntity
  8
M01
100
AcDbCircle
 10
370.391174
 20
547.278123
 30
0.0
 40
1.150694
100
AcDbArc
 50
298.592423
 51
61.407577
  0
ARC
  5
4CA
100
AcDbEntity
  8
M01
100
AcDbCircle
 10
369.692563
 20
541.215945
 30
0.0
 40
1.150694
100
AcDbArc
 50
118.592423
 51
241.407577
  0
ARC
  5
4CB
100
AcDbEntity
  8
M01
100
AcDbCircle
 10
372.244646
 20
544.247034
 30
0.0
 40
3.702778
100
AcDbArc
 50
146.92527
 51
213.07473
  0
LINE
  5
4CC
100
AcDbEntity
  8
M01
100
AcDbLine
 10
369.141868
 20
542.226308
 30
0.0
 11
370.941868
 21
542.226308
 31
0.0
  0
LINE
  5
4CD
100
AcDbEntity
  8
M01
100
AcDbLine
 10
369.141868
 20
540.205582
 30
0.0
 11
370.941868
 21
540.205582
 31
0.0
  0
ARC
  5
4CE
100
AcDbEntity
  8
M01
100
AcDbCircle
 10
369.692563
 20
547.278123
 30
0.0
 40
1.150694
100
AcDbArc
 50
118.592423
 51
241.407577
  0
LINE
  5
4CF
100
AcDbEntity
  8
M01
100
AcDbLine
 10
369.141868
 20
546.26776
 30
0.0
 11
370.941868
 21
546.26776
 31
0.0
  0
LINE
  5
4D0
100
AcDbEntity
  8
M01
100
AcDbLine
 10
369.141868
 20
548.288486
 30
0.0
 11
370.941868
 21
548.288486
 31
0.0
  0
LINE
  5
4D1
100
AcDbEntity
  8
M01
100
AcDbLine
 10
368.541868
 20
548.747034
 30
0.0
 11
368.541868
 21
539.747034
 31
0.0
  0
LINE
  5
4D2
100
AcDbEntity
  8
M01
100
AcDbLine
 10
371.541868
 20
548.747034
 30
0.0
 11
371.541868
 21
539.747034
 31
0.0
  0
LINE
  5
4D3
100
AcDbEntity
  8
M01
100
AcDbLine
 10
359.341868
 20
542.747034
 30
0.0
 11
359.841868
 21
542.247034
 31
0.0
  0
LINE
  5
4D4
100
AcDbEntity
  8
M01
100
AcDbLine
 10
359.841868
 20
546.247034
 30
0.0
 11
359.341868
 21
545.747034
 31
0.0
  0
LINE
  5
4D5
100
AcDbEntity
  8
M01
100
AcDbLine
 10
359.841868
 20
546.247034
 30
0.0
 11
359.841868
 21
542.247034
 31
0.0
  0
LINE
  5
4D6
100
AcDbEntity
  8
M01
100
AcDbLine
 10
359.341868
 20
542.747034
 30
0.0
 11
362.441868
 21
542.747034
 31
0.0
  0
LINE
  5
4D7
100
AcDbEntity
  8
M01
100
AcDbLine
 10
359.341868
 20
545.747034
 30
0.0
 11
362.441868
 21
545.747034
 31
0.0
  0
LINE
  5
4D8
100
AcDbEntity
  8
M01
100
AcDbLine
 10
359.841868
 20
546.247034
 30
0.0
 11
362.441868
 21
546.247034
 31
0.0
  0
LINE
  5
4D9
100
AcDbEntity
  8
M01
100
AcDbLine
 10
359.841868
 20
542.247034
 30
0.0
 11
362.441868
 21
542.247034
 31
0.0
  0
LINE
  5
4DA
100
AcDbEntity
  8
M01
100
AcDbLine
 10
359.341868
 20
545.747034
 30
0.0
 11
359.341868
 21
542.747034
 31
0.0
  0
LINE
  5
4DB
100
AcDbEntity
  8
M01
100
AcDbLine
 10
384.341868
 20
549.247034
 30
0.0
 11
384.341868
 21
539.247034
 31
0.0
  0
LINE
  5
4DC
100
AcDbEntity
  8
CENTRE
100
AcDbLine
 10
353.180979
 20
544.247034
 30
0.0
 11
416.774411
 21
544.247034
 31
0.0
  0
LINE
  5
4DD
100
AcDbEntity
  8
M01
100
AcDbLine
 10
362.441868
 20
517.215945
 30
0.0
 11
362.441868
 21
523.278123
 31
0.0
  0
ARC
  5
4DE
100
AcDbEntity
  8
M01
100
AcDbCircle
 10
364.291174
 20
523.278123
 30
0.0
 40
1.150694
100
AcDbArc
 50
298.592423
 51
61.407577
  0
ARC
  5
4DF
100
AcDbEntity
  8
M01
100
AcDbCircle
 10
361.739091
 20
520.247034
 30
0.0
 40
3.702778
100
AcDbArc
 50
326.92527
 51
33.07473
  0
ARC
  5
4E0
100
AcDbEntity
  8
M01
100
AcDbCircle
 10
364.291174
 20
517.215945
 30
0.0
 40
1.150694
100
AcDbArc
 50
298.592423
 51
61.407577
  0
ARC
  5
4E1
100
AcDbEntity
  8
M01
100
AcDbCircle
 10
363.592563
 20
523.278123
 30
0.0
 40
1.150694
100
AcDbArc
 50
118.592423
 51
241.407577
  0
ARC
  5
4E2
100
AcDbEntity
  8
M01
100
AcDbCircle
 10
366.144646
 20
520.247034
 30
0.0
 40
3.702778
100
AcDbArc
 50
146.92527
 51
213.07473
  0
LINE
  5
4E3
100
AcDbEntity
  8
M01
100
AcDbLine
 10
363.041868
 20
522.26776
 30
0.0
 11
364.841868
 21
522.26776
 31
0.0
  0
LINE
  5
4E4
100
AcDbEntity
  8
M01
100
AcDbLine
 10
363.041868
 20
524.288486
 30
0.0
 11
364.841868
 21
524.288486
 31
0.0
  0
ARC
  5
4E5
100
AcDbEntity
  8
M01
100
AcDbCircle
 10
363.592563
 20
517.215945
 30
0.0
 40
1.150694
100
AcDbArc
 50
118.592423
 51
241.407577
  0
LINE
  5
4E6
100
AcDbEntity
  8
M01
100
AcDbLine
 10
363.041868
 20
518.226308
 30
0.0
 11
364.841868
 21
518.226308
 31
0.0
  0
LINE
  5
4E7
100
AcDbEntity
  8
M01
100
AcDbLine
 10
363.041868
 20
516.205582
 30
0.0
 11
364.841868
 21
516.205582
 31
0.0
  0
LINE
  5
4E8
100
AcDbEntity
  8
M01
100
AcDbLine
 10
367.741868
 20
525.247034
 30
0.0
 11
366.241868
 21
525.247034
 31
0.0
  0
LINE
  5
4E9
100
AcDbEntity
  8
M01
100
AcDbLine
 10
367.741868
 20
515.247034
 30
0.0
 11
366.241868
 21
515.247034
 31
0.0
  0
LINE
  5
4EA
100
AcDbEntity
  8
M01
100
AcDbLine
 10
366.241868
 20
524.747034
 30
0.0
 11
365.441868
 21
524.747034
 31
0.0
  0
LINE
  5
4EB
100
AcDbEntity
  8
M01
100
AcDbLine
 10
366.241868
 20
515.747034
 30
0.0
 11
365.441868
 21
515.747034
 31
0.0
  0
LINE
  5
4EC
100
AcDbEntity
  8
M01
100
AcDbLine
 10
365.441868
 20
515.747034
 30
0.0
 11
365.441868
 21
524.747034
 31
0.0
  0
LINE
  5
4ED
100
AcDbEntity
  8
M01
100
AcDbLine
 10
366.241868
 20
515.247034
 30
0.0
 11
366.241868
 21
525.247034
 31
0.0
  0
LINE
  5
4EE
100
AcDbEntity
  8
M01
100
AcDbLine
 10
368.541868
 20
524.747034
 30
0.0
 11
367.741868
 21
524.747034
 31
0.0
  0
LINE
  5
4EF
100
AcDbEntity
  8
M01
100
AcDbLine
 10
368.541868
 20
515.747034
 30
0.0
 11
367.741868
 21
515.747034
 31
0.0
  0
LINE
  5
4F0
100
AcDbEntity
  8
M01
100
AcDbLine
 10
367.741868
 20
515.247034
 30
0.0
 11
367.741868
 21
525.247034
 31
0.0
  0
ARC
  5
4F1
100
AcDbEntity
  8
M01
100
AcDbCircle
 10
370.391174
 20
523.278123
 30
0.0
 40
1.150694
100
AcDbArc
 50
298.592423
 51
61.407577
  0
ARC
  5
4F2
100
AcDbEntity
  8
M01
100
AcDbCircle
 10
367.839091
 20
520.247034
 30
0.0
 40
3.702778
100
AcDbArc
 50
326.92527
 51
33.07473
  0
ARC
  5
4F3
100
AcDbEntity
  8
M01
100
AcDbCircle
 10
370.391174
 20
517.215945
 30
0.0
 40
1.150694
100
AcDbArc
 50
298.592423
 51
61.407577
  0
ARC
  5
4F4
100
AcDbEntity
  8
M01
100
AcDbCircle
 10
369.692563
 20
523.278123
 30
0.0
 40
1.150694
100
AcDbArc
 50
118.592423
 51
241.407577
  0
ARC
  5
4F5
100
AcDbEntity
  8
M01
100
AcDbCircle
 10
372.244646
 20
520.247034
 30
0.0
 40
3.702778
100
AcDbArc
 50
146.92527
 51
213.07473
  0
LINE
  5
4F6
100
AcDbEntity
  8
M01
100
AcDbLine
 10
369.141868
 20
522.26776
 30
0.0
 11
370.941868
 21
522.26776
 31
0.0
  0
LINE
  5
4F7
100
AcDbEntity
  8
M01
100
AcDbLine
 10
369.141868
 20
524.288486
 30
0.0
 11
370.941868
 21
524.288486
 31
0.0
  0
ARC
  5
4F8
100
AcDbEntity
  8
M01
100
AcDbCircle
 10
369.692563
 20
517.215945
 30
0.0
 40
1.150694
100
AcDbArc
 50
118.592423
 51
241.407577
  0
LINE
  5
4F9
100
AcDbEntity
  8
M01
100
AcDbLine
 10
369.141868
 20
518.226308
 30
0.0
 11
370.941868
 21
518.226308
 31
0.0
  0
LINE
  5
4FA
100
AcDbEntity
  8
M01
100
AcDbLine
 10
369.141868
 20
516.205582
 30
0.0
 11
370.941868
 21
516.205582
 31
0.0
  0
LINE
  5
4FB
100
AcDbEntity
  8
M01
100
AcDbLine
 10
368.541868
 20
515.747034
 30
0.0
 11
368.541868
 21
524.747034
 31
0.0
  0
LINE
  5
4FC
100
AcDbEntity
  8
M01
100
AcDbLine
 10
371.541868
 20
515.747034
 30
0.0
 11
371.541868
 21
524.747034
 31
0.0
  0
LINE
  5
4FD
100
AcDbEntity
  8
M01
100
AcDbLine
 10
372.341868
 20
515.747034
 30
0.0
 11
372.341868
 21
524.747034
 31
0.0
  0
LINE
  5
4FE
100
AcDbEntity
  8
M01
100
AcDbLine
 10
359.341868
 20
521.747034
 30
0.0
 11
359.841868
 21
522.247034
 31
0.0
  0
LINE
  5
4FF
100
AcDbEntity
  8
M01
100
AcDbLine
 10
359.841868
 20
518.247034
 30
0.0
 11
359.341868
 21
518.747034
 31
0.0
  0
LINE
  5
500
100
AcDbEntity
  8
M01
100
AcDbLine
 10
359.841868
 20
518.247034
 30
0.0
 11
359.841868
 21
522.247034
 31
0.0
  0
LINE
  5
501
100
AcDbEntity
  8
M01
100
AcDbLine
 10
359.341868
 20
521.747034
 30
0.0
 11
362.441868
 21
521.747034
 31
0.0
  0
LINE
  5
502
100
AcDbEntity
  8
M01
100
AcDbLine
 10
359.341868
 20
518.747034
 30
0.0
 11
362.441868
 21
518.747034
 31
0.0
  0
LINE
  5
503
100
AcDbEntity
  8
M01
100
AcDbLine
 10
359.841868
 20
518.247034
 30
0.0
 11
362.441868
 21
518.247034
 31
0.0
  0
LINE
  5
504
100
AcDbEntity
  8
M01
100
AcDbLine
 10
359.841868
 20
522.247034
 30
0.0
 11
362.441868
 21
522.247034
 31
0.0
  0
LINE
  5
505
100
AcDbEntity
  8
M01
100
AcDbLine
 10
359.341868
 20
518.747034
 30
0.0
 11
359.341868
 21
521.747034
 31
0.0
  0
LINE
  5
506
100
AcDbEntity
  8
M01
100
AcDbLine
 10
384.341868
 20
515.247034
 30
0.0
 11
384.341868
 21
525.247034
 31
0.0
  0
LINE
  5
507
100
AcDbEntity
  8
M01
100
AcDbLine
 10
371.541868
 20
524.747034
 30
0.0
 11
372.341868
 21
524.747034
 31
0.0
  0
LINE
  5
508
100
AcDbEntity
  8
M01
100
AcDbLine
 10
371.541868
 20
515.747034
 30
0.0
 11
372.341868
 21
515.747034
 31
0.0
  0
LINE
  5
509
100
AcDbEntity
  8
CENTRE
100
AcDbLine
 10
353.180979
 20
520.247034
 30
0.0
 11
416.774411
 21
520.247034
 31
0.0
  0
LINE
  5
50A
100
AcDbEntity
  8
M01
100
AcDbLine
 10
793.577536
 20
215.622716
 30
0.0
 11
794.784265
 21
213.643007
 31
0.0
  0
LINE
  5
50B
100
AcDbEntity
  8
M01
100
AcDbLine
 10
805.030763
 20
207.888748
 30
0.0
 11
813.605575
 21
207.888748
 31
0.0
  0
LINE
  5
50C
100
AcDbEntity
  8
M01
100
AcDbLine
 10
805.030763
 20
211.888748
 30
0.0
 11
813.605575
 21
211.888748
 31
0.0
  0
ARC
  5
50D
100
AcDbEntity
  8
M01
100
AcDbCircle
 10
805.030763
 20
219.888748
 30
0.0
 40
12.0
100
AcDbArc
 50
211.364349
 51
270.0
  0
ARC
  5
50E
100
AcDbEntity
  8
M01
100
AcDbCircle
 10
805.030763
 20
219.888748
 30
0.0
 40
8.0
100
AcDbArc
 50
218.846454
 51
270.0
  0
LINE
  5
50F
100
AcDbEntity
  8
M01
100
AcDbLine
 10
789.953083
 20
229.254076
 30
0.0
 11
796.187191
 21
219.026664
 31
0.0
  0
LINE
  5
510
100
AcDbEntity
  8
M01
100
AcDbLine
 10
786.537584
 20
227.172163
 30
0.0
 11
786.734793
 21
226.84863
 31
0.0
  0
LINE
  5
511
100
AcDbEntity
  8
M01
100
AcDbLine
 10
779.535176
 20
228.610727
 30
0.0
 11
778.941868
 21
228.610727
 31
0.0
  0
LINE
  5
512
100
AcDbEntity
  8
M01
100
AcDbLine
 10
783.97596
 20
232.610727
 30
0.0
 11
781.250116
 21
232.610727
 31
0.0
  0
ARC
  5
513
100
AcDbEntity
  8
M01
100
AcDbCircle
 10
783.97596
 20
225.610727
 30
0.0
 40
3.0
100
AcDbArc
 50
31.364349
 51
61.672691
  0
ARC
  5
514
100
AcDbEntity
  8
M01
100
AcDbCircle
 10
783.97596
 20
225.610727
 30
0.0
 40
7.0
100
AcDbArc
 50
31.364349
 51
90.0
  0
ARC
  5
515
100
AcDbEntity
  8
M01
100
AcDbCircle
 10
778.941868
 20
225.610727
 30
0.0
 40
7.0
100
AcDbArc
 50
112.678679
 51
180.0
  0
ARC
  5
516
100
AcDbEntity
  8
M01
100
AcDbCircle
 10
778.941868
 20
225.610727
 30
0.0
 40
3.0
100
AcDbArc
 50
90.0
 51
180.0
  0
ARC
  5
517
100
AcDbEntity
  8
M01
100
AcDbCircle
 10
797.758343
 20
226.870865
 30
0.0
 40
12.0
100
AcDbArc
 50
223.586993
 51
270.0
  0
ARC
  5
518
100
AcDbEntity
  8
M01
100
AcDbCircle
 10
797.758343
 20
226.870865
 30
0.0
 40
8.0
100
AcDbArc
 50
223.586993
 51
270.0
  0
LINE
  5
519
100
AcDbEntity
  8
M01
100
AcDbLine
 10
775.941868
 20
225.610727
 30
0.0
 11
775.941868
 21
220.610727
 31
0.0
  0
LINE
  5
51A
100
AcDbEntity
  8
M01
100
AcDbLine
 10
775.941868
 20
224.610727
 30
0.0
 11
771.941868
 21
224.610727
 31
0.0
  0
LINE
  5
51B
100
AcDbEntity
  8
M01
100
AcDbLine
 10
775.941868
 20
220.610727
 30
0.0
 11
771.941868
 21
220.610727
 31
0.0
  0
LINE
  5
51C
100
AcDbEntity
  8
M01
100
AcDbLine
 10
771.941868
 20
255.610727
 30
0.0
 11
771.941868
 21
241.386189
 31
0.0
  0
LINE
  5
51D
100
AcDbEntity
  8
M01
100
AcDbLine
 10
775.941868
 20
241.386189
 30
0.0
 11
775.941868
 21
245.610727
 31
0.0
  0
ARC
  5
51E
100
AcDbEntity
  8
M01
100
AcDbCircle
 10
783.941868
 20
241.386189
 30
0.0
 40
12.0
100
AcDbArc
 50
180.0
 51
223.586993
  0
ARC
  5
51F
100
AcDbEntity
  8
M01
100
AcDbCircle
 10
783.941868
 20
241.386189
 30
0.0
 40
8.0
100
AcDbArc
 50
180.0
 51
223.586993
  0
LINE
  5
520
100
AcDbEntity
  8
M01
100
AcDbLine
 10
775.941868
 20
241.610727
 30
0.0
 11
771.941868
 21
241.610727
 31
0.0
  0
LINE
  5
521
100
AcDbEntity
  8
M01
100
AcDbLine
 10
775.941868
 20
245.610727
 30
0.0
 11
771.941868
 21
245.610727
 31
0.0
  0
LINE
  5
522
100
AcDbEntity
  8
M01
100
AcDbLine
 10
789.066402
 20
218.597403
 30
0.0
 11
775.249928
 21
233.112727
 31
0.0
  0
LINE
  5
523
100
AcDbEntity
  8
M01
100
AcDbLine
 10
791.963716
 20
221.355224
 30
0.0
 11
778.147241
 21
235.870548
 31
0.0
  0
LINE
  5
524
100
AcDbEntity
  8
M01
100
AcDbLine
 10
813.596833
 20
214.870865
 30
0.0
 11
797.758343
 21
214.870865
 31
0.0
  0
LINE
  5
525
100
AcDbEntity
  8
M01
100
AcDbLine
 10
813.596833
 20
218.870865
 30
0.0
 11
797.758343
 21
218.870865
 31
0.0
  0
LINE
  5
526
100
AcDbEntity
  8
M01
100
AcDbLine
 10
757.285969
 20
218.860727
 30
0.0
 11
757.285969
 21
212.360727
 31
0.0
  0
LINE
  5
527
100
AcDbEntity
  8
M01
100
AcDbLine
 10
765.397768
 20
218.860727
 30
0.0
 11
765.397768
 21
212.360727
 31
0.0
  0
LINE
  5
528
100
AcDbEntity
  8
M01
100
AcDbLine
 10
757.285969
 20
218.860727
 30
0.0
 11
755.341868
 21
218.860727
 31
0.0
  0
ARC
  5
529
100
AcDbEntity
  8
M01
100
AcDbCircle
 10
758.847218
 20
220.110727
 30
0.0
 40
2.0
100
AcDbArc
 50
218.682187
 51
270.0
  0
ARC
  5
52A
100
AcDbEntity
  8
M01
100
AcDbCircle
 10
763.836519
 20
220.110727
 30
0.0
 40
2.0
100
AcDbArc
 50
270.0
 51
321.317813
  0
LINE
  5
52B
100
AcDbEntity
  8
M01
100
AcDbLine
 10
767.341868
 20
218.860727
 30
0.0
 11
765.397768
 21
218.860727
 31
0.0
  0
LINE
  5
52C
100
AcDbEntity
  8
M01
100
AcDbLine
 10
763.836519
 20
218.110727
 30
0.0
 11
758.847218
 21
218.110727
 31
0.0
  0
LINE
  5
52D
100
AcDbEntity
  8
M01
100
AcDbLine
 10
757.285969
 20
212.360727
 30
0.0
 11
755.341868
 21
212.360727
 31
0.0
  0
ARC
  5
52E
100
AcDbEntity
  8
M01
100
AcDbCircle
 10
758.847218
 20
211.110727
 30
0.0
 40
2.0
100
AcDbArc
 50
90.0
 51
141.317813
  0
ARC
  5
52F
100
AcDbEntity
  8
M01
100
AcDbCircle
 10
763.836519
 20
211.110727
 30
0.0
 40
2.0
100
AcDbArc
 50
38.682187
 51
90.0
  0
LINE
  5
530
100
AcDbEntity
  8
M01
100
AcDbLine
 10
767.341868
 20
212.360727
 30
0.0
 11
765.397768
 21
212.360727
 31
0.0
  0
LINE
  5
531
100
AcDbEntity
  8
M01
100
AcDbLine
 10
763.836519
 20
213.110727
 30
0.0
 11
758.847218
 21
213.110727
 31
0.0
  0
LINE
  5
532
100
AcDbEntity
  8
M01
100
AcDbLine
 10
750.341868
 20
220.610727
 30
0.0
 11
750.341868
 21
210.610727
 31
0.0
  0
LINE
  5
533
100
AcDbEntity
  8
M01
100
AcDbLine
 10
757.285969
 20
253.860727
 30
0.0
 11
757.285969
 21
247.360727
 31
0.0
  0
LINE
  5
534
100
AcDbEntity
  8
M01
100
AcDbLine
 10
765.397768
 20
253.860727
 30
0.0
 11
765.397768
 21
247.360727
 31
0.0
  0
LINE
  5
535
100
AcDbEntity
  8
M01
100
AcDbLine
 10
757.285969
 20
253.860727
 30
0.0
 11
755.341868
 21
253.860727
 31
0.0
  0
ARC
  5
536
100
AcDbEntity
  8
M01
100
AcDbCircle
 10
758.847218
 20
255.110727
 30
0.0
 40
2.0
100
AcDbArc
 50
218.682187
 51
270.0
  0
ARC
  5
537
100
AcDbEntity
  8
M01
100
AcDbCircle
 10
763.836519
 20
255.110727
 30
0.0
 40
2.0
100
AcDbArc
 50
270.0
 51
321.317813
  0
LINE
  5
538
100
AcDbEntity
  8
M01
100
AcDbLine
 10
767.341868
 20
253.860727
 30
0.0
 11
765.397768
 21
253.860727
 31
0.0
  0
LINE
  5
539
100
AcDbEntity
  8
M01
100
AcDbLine
 10
763.836519
 20
253.110727
 30
0.0
 11
758.847218
 21
253.110727
 31
0.0
  0
LINE
  5
53A
100
AcDbEntity
  8
M01
100
AcDbLine
 10
757.285969
 20
247.360727
 30
0.0
 11
755.341868
 21
247.360727
 31
0.0
  0
ARC
  5
53B
100
AcDbEntity
  8
M01
100
AcDbCircle
 10
758.847218
 20
246.110727
 30
0.0
 40
2.0
100
AcDbArc
 50
90.0
 51
141.317813
  0
ARC
  5
53C
100
AcDbEntity
  8
M01
100
AcDbCircle
 10
763.836519
 20
246.110727
 30
0.0
 40
2.0
100
AcDbArc
 50
38.682187
 51
90.0
  0
LINE
  5
53D
100
AcDbEntity
  8
M01
100
AcDbLine
 10
767.341868
 20
247.360727
 30
0.0
 11
765.397768
 21
247.360727
 31
0.0
  0
LINE
  5
53E
100
AcDbEntity
  8
M01
100
AcDbLine
 10
763.836519
 20
248.110727
 30
0.0
 11
758.847218
 21
248.110727
 31
0.0
  0
LINE
  5
53F
100
AcDbEntity
  8
M01
100
AcDbLine
 10
750.341868
 20
255.610727
 30
0.0
 11
750.341868
 21
245.610727
 31
0.0
  0
LINE
  5
540
100
AcDbEntity
  8
M01
100
AcDbLine
 10
755.341868
 20
210.610727
 30
0.0
 11
734.341868
 21
210.610727
 31
0.0
  0
LINE
  5
541
100
AcDbEntity
  8
M01
100
AcDbLine
 10
755.341868
 20
220.610727
 30
0.0
 11
735.341868
 21
220.610727
 31
0.0
  0
LINE
  5
542
100
AcDbEntity
  8
M01
100
AcDbLine
 10
755.341868
 20
255.610727
 30
0.0
 11
734.341868
 21
255.610727
 31
0.0
  0
LINE
  5
543
100
AcDbEntity
  8
M01
100
AcDbLine
 10
755.341868
 20
245.610727
 30
0.0
 11
735.341868
 21
245.610727
 31
0.0
  0
LINE
  5
544
100
AcDbEntity
  8
M01
100
AcDbLine
 10
777.241868
 20
218.641816
 30
0.0
 11
777.241868
 21
212.579638
 31
0.0
  0
ARC
  5
545
100
AcDbEntity
  8
M01
100
AcDbCircle
 10
775.392563
 20
212.579638
 30
0.0
 40
1.150694
100
AcDbArc
 50
118.592423
 51
241.407577
  0
ARC
  5
546
100
AcDbEntity
  8
M01
100
AcDbCircle
 10
777.944646
 20
215.610727
 30
0.0
 40
3.702778
100
AcDbArc
 50
146.92527
 51
213.07473
  0
ARC
  5
547
100
AcDbEntity
  8
M01
100
AcDbCircle
 10
775.392563
 20
218.641816
 30
0.0
 40
1.150694
100
AcDbArc
 50
118.592423
 51
241.407577
  0
ARC
  5
548
100
AcDbEntity
  8
M01
100
AcDbCircle
 10
776.091174
 20
212.579638
 30
0.0
 40
1.150694
100
AcDbArc
 50
298.592423
 51
61.407577
  0
ARC
  5
549
100
AcDbEntity
  8
M01
100
AcDbCircle
 10
773.539091
 20
215.610727
 30
0.0
 40
3.702778
100
AcDbArc
 50
326.92527
 51
33.07473
  0
LINE
  5
54A
100
AcDbEntity
  8
M01
100
AcDbLine
 10
776.641868
 20
213.590001
 30
0.0
 11
774.841868
 21
213.590001
 31
0.0
  0
LINE
  5
54B
100
AcDbEntity
  8
M01
100
AcDbLine
 10
776.641868
 20
211.569275
 30
0.0
 11
774.841868
 21
211.569275
 31
0.0
  0
ARC
  5
54C
100
AcDbEntity
  8
M01
100
AcDbCircle
 10
776.091174
 20
218.641816
 30
0.0
 40
1.150694
100
AcDbArc
 50
298.592423
 51
61.407577
  0
LINE
  5
54D
100
AcDbEntity
  8
M01
100
AcDbLine
 10
776.641868
 20
217.631453
 30
0.0
 11
774.841868
 21
217.631453
 31
0.0
  0
LINE
  5
54E
100
AcDbEntity
  8
M01
100
AcDbLine
 10
776.641868
 20
219.652179
 30
0.0
 11
774.841868
 21
219.652179
 31
0.0
  0
LINE
  5
54F
100
AcDbEntity
  8
M01
100
AcDbLine
 10
771.941868
 20
210.610727
 30
0.0
 11
773.441868
 21
210.610727
 31
0.0
  0
LINE
  5
550
100
AcDbEntity
  8
M01
100
AcDbLine
 10
771.941868
 20
220.610727
 30
0.0
 11
773.441868
 21
220.610727
 31
0.0
  0
LINE
  5
551
100
AcDbEntity
  8
M01
100
AcDbLine
 10
773.441868
 20
211.110727
 30
0.0
 11
774.241868
 21
211.110727
 31
0.0
  0
LINE
  5
552
100
AcDbEntity
  8
M01
100
AcDbLine
 10
773.441868
 20
220.110727
 30
0.0
 11
774.241868
 21
220.110727
 31
0.0
  0
LINE
  5
553
100
AcDbEntity
  8
M01
100
AcDbLine
 10
774.241868
 20
220.110727
 30
0.0
 11
774.241868
 21
211.110727
 31
0.0
  0
LINE
  5
554
100
AcDbEntity
  8
M01
100
AcDbLine
 10
773.441868
 20
220.610727
 30
0.0
 11
773.441868
 21
210.610727
 31
0.0
  0
LINE
  5
555
100
AcDbEntity
  8
M01
100
AcDbLine
 10
771.141868
 20
211.110727
 30
0.0
 11
771.941868
 21
211.110727
 31
0.0
  0
LINE
  5
556
100
AcDbEntity
  8
M01
100
AcDbLine
 10
771.141868
 20
220.110727
 30
0.0
 11
771.941868
 21
220.110727
 31
0.0
  0
LINE
  5
557
100
AcDbEntity
  8
M01
100
AcDbLine
 10
771.941868
 20
225.610727
 30
0.0
 11
771.941868
 21
210.610727
 31
0.0
  0
ARC
  5
558
100
AcDbEntity
  8
M01
100
AcDbCircle
 10
769.292563
 20
212.579638
 30
0.0
 40
1.150694
100
AcDbArc
 50
118.592423
 51
241.407577
  0
ARC
  5
559
100
AcDbEntity
  8
M01
100
AcDbCircle
 10
771.844646
 20
215.610727
 30
0.0
 40
3.702778
100
AcDbArc
 50
146.92527
 51
213.07473
  0
ARC
  5
55A
100
AcDbEntity
  8
M01
100
AcDbCircle
 10
769.292563
 20
218.641816
 30
0.0
 40
1.150694
100
AcDbArc
 50
118.592423
 51
241.407577
  0
ARC
  5
55B
100
AcDbEntity
  8
M01
100
AcDbCircle
 10
769.991174
 20
212.579638
 30
0.0
 40
1.150694
100
AcDbArc
 50
298.592423
 51
61.407577
  0
ARC
  5
55C
100
AcDbEntity
  8
M01
100
AcDbCircle
 10
767.439091
 20
215.610727
 30
0.0
 40
3.702778
100
AcDbArc
 50
326.92527
 51
33.07473
  0
LINE
  5
55D
100
AcDbEntity
  8
M01
100
AcDbLine
 10
770.541868
 20
213.590001
 30
0.0
 11
768.741868
 21
213.590001
 31
0.0
  0
LINE
  5
55E
100
AcDbEntity
  8
M01
100
AcDbLine
 10
770.541868
 20
211.569275
 30
0.0
 11
768.741868
 21
211.569275
 31
0.0
  0
ARC
  5
55F
100
AcDbEntity
  8
M01
100
AcDbCircle
 10
769.991174
 20
218.641816
 30
0.0
 40
1.150694
100
AcDbArc
 50
298.592423
 51
61.407577
  0
LINE
  5
560
100
AcDbEntity
  8
M01
100
AcDbLine
 10
770.541868
 20
217.631453
 30
0.0
 11
768.741868
 21
217.631453
 31
0.0
  0
LINE
  5
561
100
AcDbEntity
  8
M01
100
AcDbLine
 10
770.541868
 20
219.652179
 30
0.0
 11
768.741868
 21
219.652179
 31
0.0
  0
LINE
  5
562
100
AcDbEntity
  8
M01
100
AcDbLine
 10
771.141868
 20
220.110727
 30
0.0
 11
771.141868
 21
211.110727
 31
0.0
  0
LINE
  5
563
100
AcDbEntity
  8
M01
100
AcDbLine
 10
768.141868
 20
220.110727
 30
0.0
 11
768.141868
 21
211.110727
 31
0.0
  0
LINE
  5
564
100
AcDbEntity
  8
M01
100
AcDbLine
 10
767.341868
 20
220.110727
 30
0.0
 11
767.341868
 21
211.110727
 31
0.0
  0
LINE
  5
565
100
AcDbEntity
  8
M01
100
AcDbLine
 10
780.341868
 20
214.110727
 30
0.0
 11
779.841868
 21
213.610727
 31
0.0
  0
LINE
  5
566
100
AcDbEntity
  8
M01
100
AcDbLine
 10
779.841868
 20
217.610727
 30
0.0
 11
780.341868
 21
217.110727
 31
0.0
  0
LINE
  5
567
100
AcDbEntity
  8
M01
100
AcDbLine
 10
779.841868
 20
217.610727
 30
0.0
 11
779.841868
 21
213.610727
 31
0.0
  0
LINE
  5
568
100
AcDbEntity
  8
M01
100
AcDbLine
 10
780.341868
 20
214.110727
 30
0.0
 11
777.241868
 21
214.110727
 31
0.0
  0
LINE
  5
569
100
AcDbEntity
  8
M01
100
AcDbLine
 10
780.341868
 20
217.110727
 30
0.0
 11
777.241868
 21
217.110727
 31
0.0
  0
LINE
  5
56A
100
AcDbEntity
  8
M01
100
AcDbLine
 10
779.841868
 20
217.610727
 30
0.0
 11
777.241868
 21
217.610727
 31
0.0
  0
LINE
  5
56B
100
AcDbEntity
  8
M01
100
AcDbLine
 10
779.841868
 20
213.610727
 30
0.0
 11
777.241868
 21
213.610727
 31
0.0
  0
LINE
  5
56C
100
AcDbEntity
  8
M01
100
AcDbLine
 10
780.341868
 20
217.110727
 30
0.0
 11
780.341868
 21
214.110727
 31
0.0
  0
LINE
  5
56D
100
AcDbEntity
  8
M01
100
AcDbLine
 10
755.341868
 20
220.610727
 30
0.0
 11
755.341868
 21
210.610727
 31
0.0
  0
LINE
  5
56E
100
AcDbEntity
  8
M01
100
AcDbLine
 10
768.141868
 20
211.110727
 30
0.0
 11
767.341868
 21
211.110727
 31
0.0
  0
LINE
  5
56F
100
AcDbEntity
  8
M01
100
AcDbLine
 10
768.141868
 20
220.110727
 30
0.0
 11
767.341868
 21
220.110727
 31
0.0
  0
LINE
  5
570
100
AcDbEntity
  8
CENTRE
100
AcDbLine
 10
786.502758
 20
215.610727
 30
0.0
 11
722.909326
 21
215.610727
 31
0.0
  0
LINE
  5
571
100
AcDbEntity
  8
M01
100
AcDbLine
 10
777.241868
 20
247.579638
 30
0.0
 11
777.241868
 21
253.641816
 31
0.0
  0
ARC
  5
572
100
AcDbEntity
  8
M01
100
AcDbCircle
 10
775.392563
 20
253.641816
 30
0.0
 40
1.150694
100
AcDbArc
 50
118.592423
 51
241.407577
  0
ARC
  5
573
100
AcDbEntity
  8
M01
100
AcDbCircle
 10
777.944646
 20
250.610727
 30
0.0
 40
3.702778
100
AcDbArc
 50
146.92527
 51
213.07473
  0
ARC
  5
574
100
AcDbEntity
  8
M01
100
AcDbCircle
 10
775.392563
 20
247.579638
 30
0.0
 40
1.150694
100
AcDbArc
 50
118.592423
 51
241.407577
  0
ARC
  5
575
100
AcDbEntity
  8
M01
100
AcDbCircle
 10
776.091174
 20
253.641816
 30
0.0
 40
1.150694
100
AcDbArc
 50
298.592423
 51
61.407577
  0
ARC
  5
576
100
AcDbEntity
  8
M01
100
AcDbCircle
 10
773.539091
 20
250.610727
 30
0.0
 40
3.702778
100
AcDbArc
 50
326.92527
 51
33.07473
  0
LINE
  5
577
100
AcDbEntity
  8
M01
100
AcDbLine
 10
776.641868
 20
252.631453
 30
0.0
 11
774.841868
 21
252.631453
 31
0.0
  0
LINE
  5
578
100
AcDbEntity
  8
M01
100
AcDbLine
 10
776.641868
 20
254.652179
 30
0.0
 11
774.841868
 21
254.652179
 31
0.0
  0
ARC
  5
579
100
AcDbEntity
  8
M01
100
AcDbCircle
 10
776.091174
 20
247.579638
 30
0.0
 40
1.150694
100
AcDbArc
 50
298.592423
 51
61.407577
  0
LINE
  5
57A
100
AcDbEntity
  8
M01
100
AcDbLine
 10
776.641868
 20
248.590001
 30
0.0
 11
774.841868
 21
248.590001
 31
0.0
  0
LINE
  5
57B
100
AcDbEntity
  8
M01
100
AcDbLine
 10
776.641868
 20
246.569275
 30
0.0
 11
774.841868
 21
246.569275
 31
0.0
  0
LINE
  5
57C
100
AcDbEntity
  8
M01
100
AcDbLine
 10
771.941868
 20
255.610727
 30
0.0
 11
773.441868
 21
255.610727
 31
0.0
  0
LINE
  5
57D
100
AcDbEntity
  8
M01
100
AcDbLine
 10
773.441868
 20
255.110727
 30
0.0
 11
774.241868
 21
255.110727
 31
0.0
  0
LINE
  5
57E
100
AcDbEntity
  8
M01
100
AcDbLine
 10
773.441868
 20
246.110727
 30
0.0
 11
774.241868
 21
246.110727
 31
0.0
  0
LINE
  5
57F
100
AcDbEntity
  8
M01
100
AcDbLine
 10
774.241868
 20
246.110727
 30
0.0
 11
774.241868
 21
255.110727
 31
0.0
  0
LINE
  5
580
100
AcDbEntity
  8
M01
100
AcDbLine
 10
773.441868
 20
245.610727
 30
0.0
 11
773.441868
 21
255.610727
 31
0.0
  0
LINE
  5
581
100
AcDbEntity
  8
M01
100
AcDbLine
 10
771.141868
 20
255.110727
 30
0.0
 11
771.941868
 21
255.110727
 31
0.0
  0
LINE
  5
582
100
AcDbEntity
  8
M01
100
AcDbLine
 10
771.141868
 20
246.110727
 30
0.0
 11
771.941868
 21
246.110727
 31
0.0
  0
ARC
  5
583
100
AcDbEntity
  8
M01
100
AcDbCircle
 10
769.292563
 20
253.641816
 30
0.0
 40
1.150694
100
AcDbArc
 50
118.592423
 51
241.407577
  0
ARC
  5
584
100
AcDbEntity
  8
M01
100
AcDbCircle
 10
771.844646
 20
250.610727
 30
0.0
 40
3.702778
100
AcDbArc
 50
146.92527
 51
213.07473
  0
ARC
  5
585
100
AcDbEntity
  8
M01
100
AcDbCircle
 10
769.292563
 20
247.579638
 30
0.0
 40
1.150694
100
AcDbArc
 50
118.592423
 51
241.407577
  0
ARC
  5
586
100
AcDbEntity
  8
M01
100
AcDbCircle
 10
769.991174
 20
253.641816
 30
0.0
 40
1.150694
100
AcDbArc
 50
298.592423
 51
61.407577
  0
ARC
  5
587
100
AcDbEntity
  8
M01
100
AcDbCircle
 10
767.439091
 20
250.610727
 30
0.0
 40
3.702778
100
AcDbArc
 50
326.92527
 51
33.07473
  0
LINE
  5
588
100
AcDbEntity
  8
M01
100
AcDbLine
 10
770.541868
 20
252.631453
 30
0.0
 11
768.741868
 21
252.631453
 31
0.0
  0
LINE
  5
589
100
AcDbEntity
  8
M01
100
AcDbLine
 10
770.541868
 20
254.652179
 30
0.0
 11
768.741868
 21
254.652179
 31
0.0
  0
ARC
  5
58A
100
AcDbEntity
  8
M01
100
AcDbCircle
 10
769.991174
 20
247.579638
 30
0.0
 40
1.150694
100
AcDbArc
 50
298.592423
 51
61.407577
  0
LINE
  5
58B
100
AcDbEntity
  8
M01
100
AcDbLine
 10
770.541868
 20
248.590001
 30
0.0
 11
768.741868
 21
248.590001
 31
0.0
  0
LINE
  5
58C
100
AcDbEntity
  8
M01
100
AcDbLine
 10
770.541868
 20
246.569275
 30
0.0
 11
768.741868
 21
246.569275
 31
0.0
  0
LINE
  5
58D
100
AcDbEntity
  8
M01
100
AcDbLine
 10
771.141868
 20
246.110727
 30
0.0
 11
771.141868
 21
255.110727
 31
0.0
  0
LINE
  5
58E
100
AcDbEntity
  8
M01
100
AcDbLine
 10
768.141868
 20
246.110727
 30
0.0
 11
768.141868
 21
255.110727
 31
0.0
  0
LINE
  5
58F
100
AcDbEntity
  8
M01
100
AcDbLine
 10
767.341868
 20
246.110727
 30
0.0
 11
767.341868
 21
255.110727
 31
0.0
  0
LINE
  5
590
100
AcDbEntity
  8
M01
100
AcDbLine
 10
780.341868
 20
252.110727
 30
0.0
 11
779.841868
 21
252.610727
 31
0.0
  0
LINE
  5
591
100
AcDbEntity
  8
M01
100
AcDbLine
 10
779.841868
 20
248.610727
 30
0.0
 11
780.341868
 21
249.110727
 31
0.0
  0
LINE
  5
592
100
AcDbEntity
  8
M01
100
AcDbLine
 10
779.841868
 20
248.610727
 30
0.0
 11
779.841868
 21
252.610727
 31
0.0
  0
LINE
  5
593
100
AcDbEntity
  8
M01
100
AcDbLine
 10
780.341868
 20
252.110727
 30
0.0
 11
777.241868
 21
252.110727
 31
0.0
  0
LINE
  5
594
100
AcDbEntity
  8
M01
100
AcDbLine
 10
780.341868
 20
249.110727
 30
0.0
 11
777.241868
 21
249.110727
 31
0.0
  0
LINE
  5
595
100
AcDbEntity
  8
M01
100
AcDbLine
 10
779.841868
 20
248.610727
 30
0.0
 11
777.241868
 21
248.610727
 31
0.0
  0
LINE
  5
596
100
AcDbEntity
  8
M01
100
AcDbLine
 10
779.841868
 20
252.610727
 30
0.0
 11
777.241868
 21
252.610727
 31
0.0
  0
LINE
  5
597
100
AcDbEntity
  8
M01
100
AcDbLine
 10
780.341868
 20
249.110727
 30
0.0
 11
780.341868
 21
252.110727
 31
0.0
  0
LINE
  5
598
100
AcDbEntity
  8
M01
100
AcDbLine
 10
755.341868
 20
245.610727
 30
0.0
 11
755.341868
 21
255.610727
 31
0.0
  0
LINE
  5
599
100
AcDbEntity
  8
M01
100
AcDbLine
 10
768.141868
 20
255.110727
 30
0.0
 11
767.341868
 21
255.110727
 31
0.0
  0
LINE
  5
59A
100
AcDbEntity
  8
M01
100
AcDbLine
 10
768.141868
 20
246.110727
 30
0.0
 11
767.341868
 21
246.110727
 31
0.0
  0
LINE
  5
59B
102
{ACAD_REACTORS
330
164
102
}
100
AcDbEntity
  8
CENTRE
100
AcDbLine
 10
786.502758
 20
250.610727
 30
0.0
 11
722.909326
 21
250.610727
 31
0.0
  0
LINE
  5
59C
100
AcDbEntity
  8
M04
100
AcDbLine
 10
418.341868
 20
564.247034
 30
0.0
 11
425.341868
 21
571.247034
 31
0.0
  0
LINE
  5
59D
100
AcDbEntity
  8
M04
100
AcDbLine
 10
425.341868
 20
493.247034
 30
0.0
 11
418.341868
 21
500.247034
 31
0.0
  0
ARC
  5
59E
100
AcDbEntity
  8
M04
100
AcDbCircle
 10
440.341868
 20
668.747034
 30
0.0
 40
15.0
100
AcDbArc
 50
90.0
 51
180.0
  0
LINE
  5
59F
100
AcDbEntity
  8
M04
100
AcDbLine
 10
440.341868
 20
683.747034
 30
0.0
 11
473.241363
 21
683.747034
 31
0.0
  0
LINE
  5
5A0
100
AcDbEntity
  8
M04
100
AcDbLine
 10
549.341868
 20
683.747034
 30
0.0
 11
516.442374
 21
683.747034
 31
0.0
  0
LINE
  5
5A1
100
AcDbEntity
  8
M04
100
AcDbLine
 10
425.341868
 20
668.747034
 30
0.0
 11
425.341868
 21
571.247034
 31
0.0
  0
POINT
  5
5A2
100
AcDbEntity
  8
DEFPOINTS
  6
BYBLOCK
 62
     0
100
AcDbPoint
 10
569.841868
 20
532.247034
 30
0.0
  0
CIRCLE
  5
5A3
100
AcDbEntity
  8
M03
100
AcDbCircle
 10
569.841868
 20
532.247034
 30
0.0
 40
34.0
  0
CIRCLE
  5
5A4
100
AcDbEntity
  8
M03
100
AcDbCircle
 10
569.841868
 20
532.247034
 30
0.0
 40
20.0
  0
CIRCLE
  5
5A5
100
AcDbEntity
  8
M03
100
AcDbCircle
 10
569.841868
 20
532.247034
 30
0.0
 40
4.0
  0
LINE
  5
5A6
100
AcDbEntity
  8
M03
100
AcDbLine
 10
528.341868
 20
603.247034
 30
0.0
 11
528.341868
 21
569.747034
 31
0.0
  0
LINE
  5
5A7
100
AcDbEntity
  8
M03
100
AcDbLine
 10
532.341868
 20
607.247034
 30
0.0
 11
528.341868
 21
611.247034
 31
0.0
  0
LINE
  5
5A8
100
AcDbEntity
  8
M03
100
AcDbLine
 10
528.341868
 20
603.247034
 30
0.0
 11
532.341868
 21
607.247034
 31
0.0
  0
LINE
  5
5A9
100
AcDbEntity
  8
M03
100
AcDbLine
 10
528.341868
 20
644.747034
 30
0.0
 11
528.341868
 21
611.247034
 31
0.0
  0
LINE
  5
5AA
100
AcDbEntity
  8
M03
100
AcDbLine
 10
536.341868
 20
644.747034
 30
0.0
 11
536.341868
 21
569.747034
 31
0.0
  0
LINE
  5
5AB
100
AcDbEntity
  8
M03
100
AcDbLine
 10
461.341868
 20
603.247034
 30
0.0
 11
461.341868
 21
569.747034
 31
0.0
  0
LINE
  5
5AC
100
AcDbEntity
  8
M03
100
AcDbLine
 10
457.341868
 20
607.247034
 30
0.0
 11
461.341868
 21
611.247034
 31
0.0
  0
LINE
  5
5AD
100
AcDbEntity
  8
M03
100
AcDbLine
 10
461.341868
 20
603.247034
 30
0.0
 11
457.341868
 21
607.247034
 31
0.0
  0
LINE
  5
5AE
100
AcDbEntity
  8
M03
100
AcDbLine
 10
461.341868
 20
603.247034
 30
0.0
 11
490.841868
 21
603.247034
 31
0.0
  0
LINE
  5
5AF
100
AcDbEntity
  8
M03
100
AcDbLine
 10
461.341868
 20
611.247034
 30
0.0
 11
528.341868
 21
611.247034
 31
0.0
  0
LINE
  5
5B0
100
AcDbEntity
  8
M03
100
AcDbLine
 10
461.341868
 20
644.747034
 30
0.0
 11
461.341868
 21
611.247034
 31
0.0
  0
LINE
  5
5B1
100
AcDbEntity
  8
M03
100
AcDbLine
 10
453.341868
 20
644.747034
 30
0.0
 11
453.341868
 21
569.747034
 31
0.0
  0
LINE
  5
5B2
100
AcDbEntity
  8
M04
100
AcDbLine
 10
344.341868
 20
549.247034
 30
0.0
 11
323.67039
 21
549.247034
 31
0.0
  0
LINE
  5
5B3
100
AcDbEntity
  8
M04
100
AcDbLine
 10
344.341868
 20
515.247034
 30
0.0
 11
323.67039
 21
515.247034
 31
0.0
  0
ARC
  5
5B4
100
AcDbEntity
  8
M04
100
AcDbCircle
 10
359.341868
 20
549.247034
 30
0.0
 40
15.0
100
AcDbArc
 50
90.0
 51
180.0
  0
ARC
  5
5B5
100
AcDbEntity
  8
M04
100
AcDbCircle
 10
359.341868
 20
515.247034
 30
0.0
 40
15.0
100
AcDbArc
 50
180.0
 51
270.0
  0
LINE
  5
5B6
100
AcDbEntity
  8
M04
100
AcDbLine
 10
344.341868
 20
515.247034
 30
0.0
 11
344.341868
 21
549.247034
 31
0.0
  0
LINE
  5
5B7
100
AcDbEntity
  8
M04
100
AcDbLine
 10
359.341868
 20
500.247034
 30
0.0
 11
418.341868
 21
500.247034
 31
0.0
  0
LINE
  5
5B8
100
AcDbEntity
  8
M04
100
AcDbLine
 10
359.341868
 20
564.247034
 30
0.0
 11
418.341868
 21
564.247034
 31
0.0
  0
LINE
  5
5B9
100
AcDbEntity
  8
M01
100
AcDbLine
 10
404.341868
 20
552.247034
 30
0.0
 11
406.341868
 21
554.247034
 31
0.0
  0
LINE
  5
5BA
100
AcDbEntity
  8
M01
100
AcDbLine
 10
406.341868
 20
510.247034
 30
0.0
 11
404.341868
 21
512.247034
 31
0.0
  0
LINE
  5
5BB
100
AcDbEntity
  8
M01
100
AcDbLine
 10
404.341868
 20
512.247034
 30
0.0
 11
404.341868
 21
552.247034
 31
0.0
  0
LINE
  5
5BC
100
AcDbEntity
  8
M01
100
AcDbLine
 10
406.341868
 20
510.247034
 30
0.0
 11
420.341868
 21
510.247034
 31
0.0
  0
LINE
  5
5BD
100
AcDbEntity
  8
M01
100
AcDbLine
 10
519.341868
 20
676.747034
 30
0.0
 11
503.32715
 21
660.732316
 31
0.0
  0
LINE
  5
5BE
100
AcDbEntity
  8
M01
100
AcDbLine
 10
557.341868
 20
664.747034
 30
0.0
 11
545.341868
 21
676.747034
 31
0.0
  0
LINE
  5
5BF
100
AcDbEntity
  8
M01
100
AcDbLine
 10
545.341868
 20
676.747034
 30
0.0
 11
519.341868
 21
676.747034
 31
0.0
  0
LINE
  5
5C0
100
AcDbEntity
  8
M01
100
AcDbLine
 10
557.341868
 20
485.247034
 30
0.0
 11
557.341868
 21
399.747034
 31
0.0
  0
LINE
  5
5C1
100
AcDbEntity
  8
M01
100
AcDbLine
 10
470.341868
 20
676.747034
 30
0.0
 11
486.356587
 21
660.732316
 31
0.0
  0
LINE
  5
5C2
100
AcDbEntity
  8
M01
100
AcDbLine
 10
432.341868
 20
664.747034
 30
0.0
 11
444.341868
 21
676.747034
 31
0.0
  0
LINE
  5
5C3
100
AcDbEntity
  8
M01
100
AcDbLine
 10
444.341868
 20
676.747034
 30
0.0
 11
470.341868
 21
676.747034
 31
0.0
  0
LINE
  5
5C4
100
AcDbEntity
  8
M01
100
AcDbLine
 10
432.341868
 20
664.747034
 30
0.0
 11
432.341868
 21
566.247034
 31
0.0
  0
LINE
  5
5C5
100
AcDbEntity
  8
CENTRE
100
AcDbLine
 10
312.075876
 20
532.247034
 30
0.0
 11
827.607861
 21
532.247034
 31
0.0
  0
LINE
  5
5C6
100
AcDbEntity
  8
CENTRE
100
AcDbLine
 10
569.841868
 20
700.512957
 30
0.0
 11
569.841868
 21
363.981111
 31
0.0
  0
MTEXT
  5
5C7
102
{ACAD_REACTORS
330
5C8
102
}
100
AcDbEntity
  8
HATCH
 62
     2
100
AcDbMText
 10
429.248715
 20
178.699616
 30
0.0
 40
3.0
 41
0.0
 71
     6
 72
     5
  1
MAO10006 (x16)
  0
LEADER
  5
5C8
100
AcDbEntity
  8
HATCH
 62
     4
100
AcDbLeader
  3
DIM1$7
 73
     0
 75
     1
 40
4.571429
 41
36.714286
 76
     3
 10
446.940802
 20
206.061841
 30
0.0
 10
433.748715
 20
178.699616
 30
0.0
 10
430.748715
 20
178.699616
 30
0.0
 77
   256
340
5C7
1001
ACAD
1000
DSTYLE
1002
{
1070
   144
1040
1.0
1002
}
  0
LINE
  5
5C9
102
{ACAD_REACTORS
330
246
102
}
100
AcDbEntity
  8
M04
100
AcDbLine
 10
454.341868
 20
202.610727
 30
0.0
 11
413.828477
 21
202.610727
 31
0.0
  0
LINE
  5
5CA
102
{ACAD_REACTORS
330
162
102
}
100
AcDbEntity
  8
M02
100
AcDbLine
 10
471.341868
 20
206.610727
 30
0.0
 11
535.841868
 21
206.610727
 31
0.0
  0
LINE
  5
5CB
102
{ACAD_REACTORS
330
162
102
}
100
AcDbEntity
  8
M02
100
AcDbLine
 10
472.341868
 20
209.610727
 30
0.0
 11
472.341868
 21
206.610727
 31
0.0
  0
LINE
  5
5CC
102
{ACAD_REACTORS
330
15E
102
}
100
AcDbEntity
  8
M02
100
AcDbLine
 10
442.341868
 20
209.610727
 30
0.0
 11
442.341868
 21
206.610727
 31
0.0
  0
LINE
  5
5CD
102
{ACAD_REACTORS
330
15E
102
}
100
AcDbEntity
  8
M02
100
AcDbLine
 10
434.341868
 20
209.610727
 30
0.0
 11
434.341868
 21
206.610727
 31
0.0
  0
LINE
  5
5CE
102
{ACAD_REACTORS
330
15E
102
}
100
AcDbEntity
  8
M02
100
AcDbLine
 10
434.341868
 20
206.610727
 30
0.0
 11
443.341868
 21
206.610727
 31
0.0
  0
LINE
  5
5CF
100
AcDbEntity
  8
M01
100
AcDbLine
 10
453.341868
 20
256.610727
 30
0.0
 11
453.341868
 21
233.110727
 31
0.0
  0
LINE
  5
5D0
100
AcDbEntity
  8
M01
100
AcDbLine
 10
461.341868
 20
256.610727
 30
0.0
 11
461.341868
 21
233.110727
 31
0.0
  0
LINE
  5
5D1
100
AcDbEntity
  8
CENTRE
100
AcDbLine
 10
652.841868
 20
233.110727
 30
0.0
 11
449.341868
 21
233.110727
 31
0.0
  0
LINE
  5
5D2
100
AcDbEntity
  8
CENTRE
100
AcDbLine
 10
457.341868
 20
267.705451
 30
0.0
 11
457.341868
 21
178.584886
 31
0.0
  0
LINE
  5
5D3
102
{ACAD_REACTORS
330
164
102
}
100
AcDbEntity
  8
M01
100
AcDbLine
 10
644.841868
 20
229.110727
 30
0.0
 11
573.841868
 21
229.110727
 31
0.0
  0
LINE
  5
5D4
102
{ACAD_REACTORS
330
164
102
}
100
AcDbEntity
  8
M01
100
AcDbLine
 10
644.841868
 20
237.110727
 30
0.0
 11
524.341868
 21
237.110727
 31
0.0
  0
LINE
  5
5D5
100
AcDbEntity
  8
M04
100
AcDbLine
 10
795.341868
 20
230.610727
 30
0.0
 11
805.341868
 21
220.610727
 31
0.0
  0
LINE
  5
5D6
100
AcDbEntity
  8
M04
100
AcDbLine
 10
816.013347
 20
220.610727
 30
0.0
 11
805.341868
 21
220.610727
 31
0.0
  0
LINE
  5
5D7
100
AcDbEntity
  8
M04
100
AcDbLine
 10
795.341868
 20
263.610727
 30
0.0
 11
795.341868
 21
202.610727
 31
0.0
  0
LINE
  5
5D8
102
{ACAD_REACTORS
330
164
102
}
100
AcDbEntity
  8
M01
100
AcDbLine
 10
573.841868
 20
229.110727
 30
0.0
 11
573.841868
 21
219.610727
 31
0.0
  0
LINE
  5
5D9
102
{ACAD_REACTORS
330
246
102
}
100
AcDbEntity
  8
M04
100
AcDbLine
 10
550.341868
 20
202.610727
 30
0.0
 11
460.341868
 21
202.610727
 31
0.0
  0
LINE
  5
5DA
102
{ACAD_REACTORS
330
246
330
164
330
162
330
15E
102
}
100
AcDbEntity
  8
M01
100
AcDbLine
 10
559.841868
 20
209.610727
 30
0.0
 11
434.341868
 21
209.610727
 31
0.0
  0
LINE
  5
5DB
100
AcDbEntity
  8
M04
100
AcDbLine
 10
729.841868
 20
278.920128
 30
0.0
 11
733.841868
 21
276.610727
 31
0.0
  0
LINE
  5
5DC
100
AcDbEntity
  8
M04
100
AcDbLine
 10
725.841868
 20
276.610727
 30
0.0
 11
729.841868
 21
278.920128
 31
0.0
  0
LINE
  5
5DD
100
AcDbEntity
  8
M04
100
AcDbLine
 10
725.841868
 20
273.610727
 30
0.0
 11
725.841868
 21
276.610727
 31
0.0
  0
LINE
  5
5DE
100
AcDbEntity
  8
M04
100
AcDbLine
 10
733.841868
 20
276.610727
 30
0.0
 11
725.841868
 21
276.610727
 31
0.0
  0
LINE
  5
5DF
100
AcDbEntity
  8
M04
100
AcDbLine
 10
733.841868
 20
273.610727
 30
0.0
 11
733.841868
 21
276.610727
 31
0.0
  0
ARC
  5
5E0
100
AcDbEntity
  8
M05
100
AcDbCircle
 10
729.841868
 20
264.273023
 30
0.0
 40
10.837705
100
AcDbArc
 50
71.372238
 51
108.627762
  0
LINE
  5
5E1
100
AcDbEntity
  8
M05
100
AcDbLine
 10
725.841868
 20
273.610727
 30
0.0
 11
726.380105
 21
274.542981
 31
0.0
  0
LINE
  5
5E2
100
AcDbEntity
  8
M05
100
AcDbLine
 10
733.303632
 20
274.542981
 30
0.0
 11
726.380105
 21
274.542981
 31
0.0
  0
LINE
  5
5E3
100
AcDbEntity
  8
M05
100
AcDbLine
 10
733.841868
 20
273.610727
 30
0.0
 11
733.303632
 21
274.542981
 31
0.0
  0
LINE
  5
5E4
100
AcDbEntity
  8
M05
100
AcDbLine
 10
733.841868
 20
273.610727
 30
0.0
 11
725.841868
 21
273.610727
 31
0.0
  0
LINE
  5
5E5
100
AcDbEntity
  8
M04
100
AcDbLine
 10
725.841868
 20
263.610727
 30
0.0
 11
591.566868
 21
263.610727
 31
0.0
  0
LINE
  5
5E6
100
AcDbEntity
  8
M04
100
AcDbLine
 10
725.841868
 20
264.110727
 30
0.0
 11
725.341868
 21
263.610727
 31
0.0
  0
LINE
  5
5E7
100
AcDbEntity
  8
M04
100
AcDbLine
 10
733.841868
 20
264.110727
 30
0.0
 11
734.341868
 21
263.610727
 31
0.0
  0
ARC
  5
5E8
100
AcDbEntity
  8
M05
100
AcDbCircle
 10
729.841868
 20
264.744061
 30
0.0
 40
13.633333
100
AcDbArc
 50
252.938469
 51
287.061531
  0
LINE
  5
5E9
100
AcDbEntity
  8
M05
100
AcDbLine
 10
733.841868
 20
251.710727
 30
0.0
 11
725.841868
 21
251.710727
 31
0.0
  0
LINE
  5
5EA
100
AcDbEntity
  8
M05
100
AcDbLine
 10
725.841868
 20
273.610727
 30
0.0
 11
725.841868
 21
251.710727
 31
0.0
  0
LINE
  5
5EB
100
AcDbEntity
  8
M05
100
AcDbLine
 10
733.841868
 20
273.610727
 30
0.0
 11
733.841868
 21
251.710727
 31
0.0
  0
LINE
  5
5EC
102
{ACAD_REACTORS
330
164
330
161
330
160
102
}
100
AcDbEntity
  8
M01
100
AcDbLine
 10
725.841868
 20
256.610727
 30
0.0
 11
434.341868
 21
256.610727
 31
0.0
  0
LINE
  5
5ED
102
{ACAD_REACTORS
330
160
102
}
100
AcDbEntity
  8
M02
100
AcDbLine
 10
548.116868
 20
259.610727
 30
0.0
 11
434.341868
 21
259.610727
 31
0.0
  0
LINE
  5
5EE
100
AcDbEntity
  8
M04
100
AcDbLine
 10
548.116868
 20
263.610727
 30
0.0
 11
425.341868
 21
263.610727
 31
0.0
  0
LINE
  5
5EF
102
{ACAD_REACTORS
330
164
102
}
100
AcDbEntity
  8
CENTRE
100
AcDbLine
 10
569.841868
 20
290.303395
 30
0.0
 11
569.841868
 21
169.718687
 31
0.0
  0
LINE
  5
5F0
100
AcDbEntity
  8
CENTRE
100
AcDbLine
 10
729.841868
 20
283.956845
 30
0.0
 11
729.841868
 21
245.867146
 31
0.0
  0
LINE
  5
5F1
100
AcDbEntity
  8
M04
100
AcDbLine
 10
816.013347
 20
202.610727
 30
0.0
 11
589.341868
 21
202.610727
 31
0.0
  0
LINE
  5
5F2
100
AcDbEntity
  8
M04
100
AcDbLine
 10
425.341868
 20
263.610727
 30
0.0
 11
425.341868
 21
202.610727
 31
0.0
  0
LINE
  5
5F3
100
AcDbEntity
  8
M04
100
AcDbLine
 10
795.341868
 20
263.610727
 30
0.0
 11
733.841868
 21
263.610727
 31
0.0
  0
LINE
  5
5F4
102
{ACAD_REACTORS
330
161
102
}
100
AcDbEntity
  8
M02
100
AcDbLine
 10
723.341868
 20
256.610727
 30
0.0
 11
723.341868
 21
259.610727
 31
0.0
  0
LINE
  5
5F5
102
{ACAD_REACTORS
330
164
102
}
100
AcDbEntity
  8
M01
100
AcDbLine
 10
723.341868
 20
256.610727
 30
0.0
 11
723.341868
 21
250.610727
 31
0.0
  0
LINE
  5
5F6
100
AcDbEntity
  8
M01
100
AcDbLine
 10
735.341868
 20
250.610727
 30
0.0
 11
723.341868
 21
250.610727
 31
0.0
  0
LINE
  5
5F7
100
AcDbEntity
  8
M02
100
AcDbLine
 10
733.341868
 20
209.610727
 30
0.0
 11
733.341868
 21
206.610727
 31
0.0
  0
LINE
  5
5F8
102
{ACAD_REACTORS
330
160
102
}
100
AcDbEntity
  8
M02
100
AcDbLine
 10
434.341868
 20
256.610727
 30
0.0
 11
434.341868
 21
259.610727
 31
0.0
  0
LINE
  5
5F9
100
AcDbEntity
  8
M02
100
AcDbLine
 10
733.341868
 20
206.610727
 30
0.0
 11
603.841868
 21
206.610727
 31
0.0
  0
LINE
  5
5FA
102
{ACAD_REACTORS
330
161
102
}
100
AcDbEntity
  8
M02
100
AcDbLine
 10
725.841868
 20
259.610727
 30
0.0
 11
591.566868
 21
259.610727
 31
0.0
  0
LINE
  5
5FB
100
AcDbEntity
  8
M01
100
AcDbLine
 10
434.341868
 20
209.610727
 30
0.0
 11
432.341868
 21
211.610727
 31
0.0
  0
LINE
  5
5FC
102
{ACAD_REACTORS
330
164
102
}
100
AcDbEntity
  8
M01
100
AcDbLine
 10
735.341868
 20
211.610727
 30
0.0
 11
733.341868
 21
209.610727
 31
0.0
  0
LINE
  5
5FD
100
AcDbEntity
  8
M01
100
AcDbLine
 10
733.841868
 20
256.110727
 30
0.0
 11
735.341868
 21
254.610727
 31
0.0
  0
LINE
  5
5FE
100
AcDbEntity
  8
M01
100
AcDbLine
 10
432.341868
 20
254.610727
 30
0.0
 11
434.341868
 21
256.610727
 31
0.0
  0
LINE
  5
5FF
102
{ACAD_REACTORS
330
164
102
}
100
AcDbEntity
  8
M01
100
AcDbLine
 10
733.341868
 20
209.610727
 30
0.0
 11
598.841868
 21
209.610727
 31
0.0
  0
LINE
  5
600
100
AcDbEntity
  8
M01
100
AcDbLine
 10
432.341868
 20
254.610727
 30
0.0
 11
432.341868
 21
211.610727
 31
0.0
  0
LINE
  5
601
102
{ACAD_REACTORS
330
164
102
}
100
AcDbEntity
  8
M01
100
AcDbLine
 10
735.341868
 20
254.610727
 30
0.0
 11
735.341868
 21
211.610727
 31
0.0
  0
ENDSEC
  0
SECTION
  2
OBJECTS
  0
DICTIONARY
  5
1C
100
AcDbDictionary
  3
ACAD_GROUP
350
1A
  3
ACAD_MLINESTYLE
350
1B
  0
DICTIONARY
  5
3
100
AcDbDictionary
280
     1
  3
ACAD_SORTENTS
360
4
  0
DICTIONARY
  5
1A
102
{ACAD_REACTORS
330
1C
102
}
100
AcDbDictionary
  0
DICTIONARY
  5
1B
102
{ACAD_REACTORS
330
1C
102
}
100
AcDbDictionary
  3
STANDARD
350
1E
  0
SORTENTSTABLE
  5
4
102
{ACAD_REACTORS
330
3
102
}
100
AcDbSortentsTable
330
2
  0
MLINESTYLE
  5
1E
102
{ACAD_REACTORS
330
1B
102
}
100
AcDbMlineStyle
  2
STANDARD
 70
     0
  3

 62
   256
 51
90.0
 52
90.0
 71
     2
 49
0.5
 62
   256
  6
BYLAYER
 49
-0.5
 62
   256
  6
BYLAYER
  0
ENDSEC
  0
EOF
