  0
SECTION
  2
HEADER
  9
$ACADVER
  1
AC1014
  9
$ACADMAINTVER
 70
     9
  9
$DWGCODEPAGE
  3
ANSI_1252
  9
$INSBASE
 10
0.0
 20
0.0
 30
0.0
  9
$EXTMIN
 10
173.782646
 20
74.128736
 30
-0.222949
  9
$EXTMAX
 10
1173.151693
 20
732.71426
 30
0.0
  9
$LIMMIN
 10
0.0
 20
0.0
  9
$LIMMAX
 10
1189.0
 20
841.0
  9
$ORTHOMODE
 70
     1
  9
$REGENMODE
 70
     1
  9
$FILLMODE
 70
     1
  9
$QTEXTMODE
 70
     0
  9
$MIRRTEXT
 70
     1
  9
$DRAGMODE
 70
     2
  9
$LTSCALE
 40
8.0
  9
$OSMODE
 70
     0
  9
$ATTMODE
 70
     1
  9
$TEXTSIZE
 40
3.0
  9
$TRACEWID
 40
10.0
  9
$TEXTSTYLE
  7
STANDARD
  9
$CLAYER
  8
DIMS
  9
$CELTYPE
  6
BYLAYER
  9
$CECOLOR
 62
   256
  9
$CELTSCALE
 40
1.0
  9
$DELOBJ
 70
     1
  9
$DISPSILH
 70
     0
  9
$DIMSCALE
 40
1.0
  9
$DIMASZ
 40
3.0
  9
$DIMEXO
 40
1.0
  9
$DIMDLI
 40
10.0
  9
$DIMRND
 40
0.01
  9
$DIMDLE
 40
1.25
  9
$DIMEXE
 40
2.5
  9
$DIMTP
 40
0.05
  9
$DIMTM
 40
0.0
  9
$DIMTXT
 40
3.0
  9
$DIMCEN
 40
-1.7
  9
$DIMTSZ
 40
0.0
  9
$DIMTOL
 70
     0
  9
$DIMLIM
 70
     0
  9
$DIMTIH
 70
     0
  9
$DIMTOH
 70
     0
  9
$DIMSE1
 70
     0
  9
$DIMSE2
 70
     0
  9
$DIMTAD
 70
     3
  9
$DIMZIN
 70
     1
  9
$DIMBLK
  1

  9
$DIMASO
 70
     1
  9
$DIMSHO
 70
     0
  9
$DIMPOST
  1

  9
$DIMAPOST
  1

  9
$DIMALT
 70
     0
  9
$DIMALTD
 70
     2
  9
$DIMALTF
 40
0.039
  9
$DIMLFAC
 40
1.0
  9
$DIMTOFL
 70
     0
  9
$DIMTVP
 40
1.5
  9
$DIMTIX
 70
     0
  9
$DIMSOXD
 70
     0
  9
$DIMSAH
 70
     0
  9
$DIMBLK1
  1

  9
$DIMBLK2
  1

  9
$DIMSTYLE
  2
DIM1
  9
$DIMCLRD
 70
     4
  9
$DIMCLRE
 70
     4
  9
$DIMCLRT
 70
     2
  9
$DIMTFAC
 40
0.7
  9
$DIMGAP
 40
1.5
  9
$DIMJUST
 70
     0
  9
$DIMSD1
 70
     0
  9
$DIMSD2
 70
     0
  9
$DIMTOLJ
 70
     1
  9
$DIMTZIN
 70
     1
  9
$DIMALTZ
 70
     1
  9
$DIMALTTZ
 70
     1
  9
$DIMFIT
 70
     0
  9
$DIMUPT
 70
     0
  9
$DIMUNIT
 70
     2
  9
$DIMDEC
 70
     2
  9
$DIMTDEC
 70
     2
  9
$DIMALTU
 70
     2
  9
$DIMALTTD
 70
     2
  9
$DIMTXSTY
  7
STANDARD
  9
$DIMAUNIT
 70
     0
  9
$LUNITS
 70
     2
  9
$LUPREC
 70
     2
  9
$SKETCHINC
 40
1.0
  9
$FILLETRAD
 40
15.0
  9
$AUNITS
 70
     0
  9
$AUPREC
 70
     3
  9
$MENU
  1
ACAD
  9
$ELEVATION
 40
0.0
  9
$PELEVATION
 40
0.0
  9
$THICKNESS
 40
0.0
  9
$LIMCHECK
 70
     0
  9
$BLIPMODE
 70
     1
  9
$CHAMFERA
 40
7.0
  9
$CHAMFERB
 40
7.0
  9
$CHAMFERC
 40
0.0
  9
$CHAMFERD
 40
0.0
  9
$SKPOLY
 70
     1
  9
$TDCREATE
 40
2449993.725698611
  9
$TDUPDATE
 40
2452214.346896724
  9
$TDINDWG
 40
1.3730550463
  9
$TDUSRTIMER
 40
1.3730550463
  9
$USRTIMER
 70
     1
  9
$ANGBASE
 50
0.0
  9
$ANGDIR
 70
     0
  9
$PDMODE
 70
     3
  9
$PDSIZE
 40
0.0
  9
$PLINEWID
 40
0.0
  9
$COORDS
 70
     2
  9
$SPLFRAME
 70
     0
  9
$SPLINETYPE
 70
     6
  9
$SPLINESEGS
 70
     6
  9
$ATTDIA
 70
     1
  9
$ATTREQ
 70
     1
  9
$HANDLING
 70
     1
  9
$HANDSEED
  5
696
  9
$SURFTAB1
 70
    12
  9
$SURFTAB2
 70
    12
  9
$SURFTYPE
 70
     6
  9
$SURFU
 70
    12
  9
$SURFV
 70
    12
  9
$UCSNAME
  2

  9
$UCSORG
 10
0.0
 20
0.0
 30
0.0
  9
$UCSXDIR
 10
1.0
 20
0.0
 30
0.0
  9
$UCSYDIR
 10
0.0
 20
1.0
 30
0.0
  9
$PUCSNAME
  2

  9
$PUCSORG
 10
0.0
 20
0.0
 30
0.0
  9
$PUCSXDIR
 10
1.0
 20
0.0
 30
0.0
  9
$PUCSYDIR
 10
0.0
 20
1.0
 30
0.0
  9
$USERI1
 70
     0
  9
$USERI2
 70
     0
  9
$USERI3
 70
     0
  9
$USERI4
 70
     0
  9
$USERI5
 70
     0
  9
$USERR1
 40
0.0
  9
$USERR2
 40
0.0
  9
$USERR3
 40
0.0
  9
$USERR4
 40
0.0
  9
$USERR5
 40
0.0
  9
$WORLDVIEW
 70
     0
  9
$SHADEDGE
 70
     3
  9
$SHADEDIF
 70
    70
  9
$TILEMODE
 70
     1
  9
$MAXACTVP
 70
    16
  9
$PINSBASE
 10
0.0
 20
0.0
 30
0.0
  9
$PLIMCHECK
 70
     0
  9
$PEXTMIN
 10
1.000000E+20
 20
1.000000E+20
 30
1.000000E+20
  9
$PEXTMAX
 10
-1.000000E+20
 20
-1.000000E+20
 30
-1.000000E+20
  9
$PLIMMIN
 10
0.0
 20
0.0
  9
$PLIMMAX
 10
12.0
 20
9.0
  9
$UNITMODE
 70
     0
  9
$VISRETAIN
 70
     0
  9
$PLINEGEN
 70
     0
  9
$PSLTSCALE
 70
     0
  9
$TREEDEPTH
 70
  3020
  9
$PICKSTYLE
 70
     1
  9
$CMLSTYLE
  2
STANDARD
  9
$CMLJUST
 70
     0
  9
$CMLSCALE
 40
1.0
  9
$PROXYGRAPHICS
 70
     1
  9
$MEASUREMENT
 70
     0
  0
ENDSEC
  0
SECTION
  2
CLASSES
  0
CLASS
  1
DICTIONARYVAR
  2
AcDbDictionaryVar
  3
"AutoCAD"
 90
        0
280
     0
281
     0
  0
CLASS
  1
LWPOLYLINE
  2
AcDbPolyline
  3
"AutoCAD"
 90
        0
280
     0
281
     1
  0
CLASS
  1
HATCH
  2
AcDbHatch
  3
"ACAD_SEDONA"
 90
        0
280
     0
281
     1
  0
CLASS
  1
SORTENTSTABLE
  2
AcDbSortentsTable
  3
"AutoCAD"
 90
        0
280
     0
281
     0
  0
CLASS
  1
WIPEOUTVARIABLES
  2
AcDbWipeoutVariables
  3
WIPEOUT
 90
        0
280
     0
281
     0
  0
CLASS
  1
WIPEOUT
  2
AcDbWipeout
  3
WIPEOUT
 90
      127
280
     0
281
     1
  0
ENDSEC
  0
SECTION
  2
TABLES
  0
TABLE
  2
VPORT
  5
14
100
AcDbSymbolTable
 70
     2
  0
VPORT
  5
695
100
AcDbSymbolTableRecord
100
AcDbViewportTableRecord
  2
*ACTIVE
 70
     0
 10
0.0
 20
0.0
 11
1.0
 21
1.0
 12
602.038644
 22
407.720885
 13
0.0
 23
0.0
 14
10.0
 24
10.0
 15
0.0
 25
0.0
 16
0.0
 26
0.0
 36
1.0
 17
16.313321
 27
12.779115
 37
0.222949
 40
841.0
 41
1.470516
 42
50.0
 43
0.0
 44
0.0
 50
0.0
 51
0.0
 71
     0
 72
  2000
 73
     1
 74
     2
 75
     0
 76
     0
 77
     0
 78
     1
  0
ENDTAB
  0
TABLE
  2
LTYPE
  5
F
100
AcDbSymbolTable
 70
     3
  0
LTYPE
  5
10
100
AcDbSymbolTableRecord
100
AcDbLinetypeTableRecord
  2
BYBLOCK
 70
     0
  3

 72
    65
 73
     0
 40
0.0
  0
LTYPE
  5
11
100
AcDbSymbolTableRecord
100
AcDbLinetypeTableRecord
  2
BYLAYER
 70
     0
  3

 72
    65
 73
     0
 40
0.0
  0
LTYPE
  5
7
100
AcDbSymbolTableRecord
100
AcDbLinetypeTableRecord
  2
CONTINUOUS
 70
     0
  3
Solid line
 72
    65
 73
     0
 40
0.0
  0
LTYPE
  5
107
100
AcDbSymbolTableRecord
100
AcDbLinetypeTableRecord
  2
CENTER
 70
     0
  3
Center ____ _ ____ _ ____ _ ____ _ ____ _ ____
 72
    65
 73
     4
 40
2.0
 49
1.25
 74
     0
 49
-0.25
 74
     0
 49
0.25
 74
     0
 49
-0.25
 74
     0
  0
LTYPE
  5
E5
100
AcDbSymbolTableRecord
100
AcDbLinetypeTableRecord
  2
HIDDEN
 70
     0
  3
Hidden __ __ __ __ __ __ __ __ __ __ __ __ __ _
 72
    65
 73
     2
 40
0.375
 49
0.25
 74
     0
 49
-0.125
 74
     0
  0
ENDTAB
  0
TABLE
  2
LAYER
  5
C
100
AcDbSymbolTable
 70
    11
  0
LAYER
  5
6
100
AcDbSymbolTableRecord
100
AcDbLayerTableRecord
  2
0
 70
     0
 62
     7
  6
CONTINUOUS
  0
LAYER
  5
106
100
AcDbSymbolTableRecord
100
AcDbLayerTableRecord
  2
CENTRE
 70
     0
 62
     3
  6
CENTER
  0
LAYER
  5
36
100
AcDbSymbolTableRecord
100
AcDbLayerTableRecord
  2
M01
 70
     0
 62
     1
  6
CONTINUOUS
  0
LAYER
  5
CC
100
AcDbSymbolTableRecord
100
AcDbLayerTableRecord
  2
M02
 70
     0
 62
     2
  6
CONTINUOUS
  0
LAYER
  5
10C
100
AcDbSymbolTableRecord
100
AcDbLayerTableRecord
  2
M03
 70
     0
 62
     2
  6
HIDDEN
  0
LAYER
  5
27
100
AcDbSymbolTableRecord
100
AcDbLayerTableRecord
  2
M04
 70
     0
 62
     7
  6
CONTINUOUS
  0
LAYER
  5
D0
100
AcDbSymbolTableRecord
100
AcDbLayerTableRecord
  2
M05
 70
     0
 62
     5
  6
CONTINUOUS
  0
LAYER
  5
1D
100
AcDbSymbolTableRecord
100
AcDbLayerTableRecord
  2
DIMS
 70
     0
 62
     4
  6
CONTINUOUS
  0
LAYER
  5
21
100
AcDbSymbolTableRecord
100
AcDbLayerTableRecord
  2
TEXT
 70
     0
 62
     2
  6
CONTINUOUS
  0
LAYER
  5
C6
100
AcDbSymbolTableRecord
100
AcDbLayerTableRecord
  2
HATCH
 70
     0
 62
     4
  6
CONTINUOUS
  0
LAYER
  5
4F
100
AcDbSymbolTableRecord
100
AcDbLayerTableRecord
  2
DEFPOINTS
 70
     0
 62
     7
  6
CONTINUOUS
  0
ENDTAB
  0
TABLE
  2
STYLE
  5
D
100
AcDbSymbolTable
 70
     1
  0
STYLE
  5
E
100
AcDbSymbolTableRecord
100
AcDbTextStyleTableRecord
  2
STANDARD
 70
     0
 40
0.0
 41
1.0
 50
0.0
 71
     0
 42
3.0
  3
SIMPLEX
  4

  0
ENDTAB
  0
TABLE
  2
VIEW
  5
12
100
AcDbSymbolTable
 70
     0
  0
ENDTAB
  0
TABLE
  2
UCS
  5
13
100
AcDbSymbolTable
 70
     0
  0
ENDTAB
  0
TABLE
  2
APPID
  5
16
100
AcDbSymbolTable
 70
     1
  0
APPID
  5
17
100
AcDbSymbolTableRecord
100
AcDbRegAppTableRecord
  2
ACAD
 70
     0
  0
ENDTAB
  0
TABLE
  2
DIMSTYLE
  5
18
100
AcDbSymbolTable
 70
     2
  0
DIMSTYLE
105
1F
102
{ACAD_REACTORS
330
5EE
330
5E0
330
5D2
330
5C5
330
5B7
330
4EA
330
4DC
330
4CF
330
4C1
330
B5
330
A9
330
9A
330
8D
330
80
330
74
330
54
330
46
102
}
100
AcDbSymbolTableRecord
100
AcDbDimStyleTableRecord
  2
DIM1
 70
     0
  3

  4

  5

  6

  7

 40
1.0
 41
3.0
 42
1.0
 43
10.0
 44
2.5
 45
0.01
 46
1.25
 47
0.05
 48
0.0
140
3.0
141
-1.7
142
0.0
143
0.039
144
0.2
145
1.5
146
0.7
147
1.5
 71
     0
 72
     0
 73
     0
 74
     0
 75
     0
 76
     0
 77
     3
 78
     1
170
     0
171
     2
172
     0
173
     0
174
     0
175
     0
176
     4
177
     4
178
     2
270
     2
271
     2
272
     2
273
     2
274
     2
340
E
275
     0
280
     0
281
     0
282
     0
283
     1
284
     1
285
     1
286
     1
287
     0
288
     0
  0
DIMSTYLE
105
1CA
100
AcDbSymbolTableRecord
100
AcDbDimStyleTableRecord
  2
DIM1$7
 70
     0
  3

  4

  5

  6

  7

 40
1.0
 41
3.0
 42
1.0
 43
10.0
 44
2.5
 45
0.01
 46
1.25
 47
0.0
 48
0.0
140
3.0
141
-1.7
142
0.0
143
0.039
144
1.0
145
0.0
146
1.0
147
1.5
 71
     0
 72
     0
 73
     0
 74
     0
 75
     0
 76
     0
 77
     0
 78
     1
170
     0
171
     2
172
     0
173
     0
174
     0
175
     0
176
     4
177
     4
178
     2
270
     2
271
     2
272
     2
273
     2
274
     2
340
E
275
     0
280
     0
281
     0
282
     0
283
     1
284
     1
285
     1
286
     1
287
     0
288
     0
  0
ENDTAB
  0
TABLE
  2
BLOCK_RECORD
  5
1
100
AcDbSymbolTable
 70
    17
  0
BLOCK_RECORD
  5
2
102
{ACAD_XDICTIONARY
360
3
102
}
100
AcDbSymbolTableRecord
100
AcDbBlockTableRecord
  2
*MODEL_SPACE
  0
BLOCK_RECORD
  5
9
100
AcDbSymbolTableRecord
100
AcDbBlockTableRecord
  2
*PAPER_SPACE
  0
BLOCK_RECORD
  5
5EF
100
AcDbSymbolTableRecord
100
AcDbBlockTableRecord
  2
*D0
  0
BLOCK_RECORD
  5
5E1
100
AcDbSymbolTableRecord
100
AcDbBlockTableRecord
  2
*D1
  0
BLOCK_RECORD
  5
5D3
100
AcDbSymbolTableRecord
100
AcDbBlockTableRecord
  2
*D2
  0
BLOCK_RECORD
  5
5C6
100
AcDbSymbolTableRecord
100
AcDbBlockTableRecord
  2
*D3
  0
BLOCK_RECORD
  5
5B8
100
AcDbSymbolTableRecord
100
AcDbBlockTableRecord
  2
*D4
  0
BLOCK_RECORD
  5
4EB
100
AcDbSymbolTableRecord
100
AcDbBlockTableRecord
  2
*D5
  0
BLOCK_RECORD
  5
4DD
100
AcDbSymbolTableRecord
100
AcDbBlockTableRecord
  2
*D6
  0
BLOCK_RECORD
  5
4D0
100
AcDbSymbolTableRecord
100
AcDbBlockTableRecord
  2
*D7
  0
BLOCK_RECORD
  5
4C2
100
AcDbSymbolTableRecord
100
AcDbBlockTableRecord
  2
*D8
  0
BLOCK_RECORD
  5
B6
100
AcDbSymbolTableRecord
100
AcDbBlockTableRecord
  2
*D9
  0
BLOCK_RECORD
  5
AA
100
AcDbSymbolTableRecord
100
AcDbBlockTableRecord
  2
*D10
  0
BLOCK_RECORD
  5
9B
100
AcDbSymbolTableRecord
100
AcDbBlockTableRecord
  2
*D11
  0
BLOCK_RECORD
  5
8E
100
AcDbSymbolTableRecord
100
AcDbBlockTableRecord
  2
*D12
  0
BLOCK_RECORD
  5
81
100
AcDbSymbolTableRecord
100
AcDbBlockTableRecord
  2
*D13
  0
BLOCK_RECORD
  5
75
100
AcDbSymbolTableRecord
100
AcDbBlockTableRecord
  2
*D14
  0
BLOCK_RECORD
  5
55
100
AcDbSymbolTableRecord
100
AcDbBlockTableRecord
  2
*D15
  0
BLOCK_RECORD
  5
47
100
AcDbSymbolTableRecord
100
AcDbBlockTableRecord
  2
*D16
  0
ENDTAB
  0
ENDSEC
  0
SECTION
  2
BLOCKS
  0
BLOCK
  5
5
100
AcDbEntity
  8
0
100
AcDbBlockBegin
  2
*MODEL_SPACE
 70
     0
 10
0.0
 20
0.0
 30
0.0
  3
*MODEL_SPACE
  1

  0
ENDBLK
  5
8
100
AcDbEntity
  8
0
100
AcDbBlockEnd
  0
BLOCK
  5
A
100
AcDbEntity
 67
     1
  8
0
100
AcDbBlockBegin
  2
*PAPER_SPACE
 70
     0
 10
0.0
 20
0.0
 30
0.0
  3
*PAPER_SPACE
  1

  0
ENDBLK
  5
B
100
AcDbEntity
 67
     1
  8
0
100
AcDbBlockEnd
  0
BLOCK
  5
5F9
100
AcDbEntity
  8
0
100
AcDbBlockBegin
  2
*D0
 70
     1
 10
0.0
 20
0.0
 30
0.0
  3
*D0
  1

  0
LINE
  5
5F0
100
AcDbEntity
  8
0
  6
BYBLOCK
 62
     4
100
AcDbLine
 10
809.758914
 20
200.943414
 30
0.0
 11
809.758914
 21
164.060717
 31
0.0
  0
LINE
  5
5F1
100
AcDbEntity
  8
0
  6
BYBLOCK
 62
     4
100
AcDbLine
 10
869.758914
 20
198.943414
 30
0.0
 11
869.758914
 21
164.060717
 31
0.0
  0
LINE
  5
5F2
100
AcDbEntity
  8
0
  6
BYBLOCK
 62
     4
100
AcDbLine
 10
812.758914
 20
166.560717
 30
0.0
 11
866.758914
 21
166.560717
 31
0.0
  0
SOLID
  5
5F3
100
AcDbEntity
  8
0
  6
BYBLOCK
 62
     4
100
AcDbTrace
 10
812.758914
 20
167.060717
 30
0.0
 11
812.758914
 21
166.060717
 31
0.0
 12
809.758914
 22
166.560717
 32
0.0
 13
809.758914
 23
166.560717
 33
0.0
  0
SOLID
  5
5F4
100
AcDbEntity
  8
0
  6
BYBLOCK
 62
     4
100
AcDbTrace
 10
866.758914
 20
167.060717
 30
0.0
 11
866.758914
 21
166.060717
 31
0.0
 12
869.758914
 22
166.560717
 32
0.0
 13
869.758914
 23
166.560717
 33
0.0
  0
MTEXT
  5
5F5
100
AcDbEntity
  8
0
  6
BYBLOCK
 62
     2
100
AcDbMText
 10
839.758914
 20
169.560717
 30
0.0
 40
3.0
 41
0.0
 71
     5
 72
     1
  1
\A1;60.00
  0
POINT
  5
5F6
100
AcDbEntity
  8
DEFPOINTS
  6
BYBLOCK
 62
     0
100
AcDbPoint
 10
809.758914
 20
201.943414
 30
0.0
  0
POINT
  5
5F7
100
AcDbEntity
  8
DEFPOINTS
  6
BYBLOCK
 62
     0
100
AcDbPoint
 10
869.758914
 20
199.943414
 30
0.0
  0
POINT
  5
5F8
100
AcDbEntity
  8
DEFPOINTS
  6
BYBLOCK
 62
     0
100
AcDbPoint
 10
869.758914
 20
166.560717
 30
0.0
  0
ENDBLK
  5
5FA
100
AcDbEntity
  8
0
100
AcDbBlockEnd
  0
BLOCK
  5
5EC
100
AcDbEntity
  8
0
100
AcDbBlockBegin
  2
*D1
 70
     1
 10
0.0
 20
0.0
 30
0.0
  3
*D1
  1

  0
LINE
  5
5E2
100
AcDbEntity
  8
0
  6
BYBLOCK
 62
     4
100
AcDbLine
 10
869.758914
 20
200.943414
 30
0.0
 11
869.758914
 21
164.060717
 31
0.0
  0
LINE
  5
5E3
100
AcDbEntity
  8
0
  6
BYBLOCK
 62
     4
100
AcDbLine
 10
876.758914
 20
180.430023
 30
0.0
 11
876.758914
 21
164.060717
 31
0.0
  0
LINE
  5
5E4
100
AcDbEntity
  8
0
  6
BYBLOCK
 62
     4
100
AcDbLine
 10
866.758914
 20
166.560717
 30
0.0
 11
863.758914
 21
166.560717
 31
0.0
  0
LINE
  5
5E5
100
AcDbEntity
  8
0
  6
BYBLOCK
 62
     4
100
AcDbLine
 10
879.758914
 20
166.560717
 30
0.0
 11
892.044629
 21
166.560717
 31
0.0
  0
SOLID
  5
5E6
100
AcDbEntity
  8
0
  6
BYBLOCK
 62
     4
100
AcDbTrace
 10
866.758914
 20
167.060717
 30
0.0
 11
866.758914
 21
166.060717
 31
0.0
 12
869.758914
 22
166.560717
 32
0.0
 13
869.758914
 23
166.560717
 33
0.0
  0
SOLID
  5
5E7
100
AcDbEntity
  8
0
  6
BYBLOCK
 62
     4
100
AcDbTrace
 10
879.758914
 20
167.060717
 30
0.0
 11
879.758914
 21
166.060717
 31
0.0
 12
876.758914
 22
166.560717
 32
0.0
 13
876.758914
 23
166.560717
 33
0.0
  0
MTEXT
  5
5E8
100
AcDbEntity
  8
0
  6
BYBLOCK
 62
     2
100
AcDbMText
 10
887.401771
 20
169.560717
 30
0.0
 40
3.0
 41
0.0
 71
     5
 72
     1
  1
\A1;7.0
  0
POINT
  5
5E9
100
AcDbEntity
  8
DEFPOINTS
  6
BYBLOCK
 62
     0
100
AcDbPoint
 10
869.758914
 20
201.943414
 30
0.0
  0
POINT
  5
5EA
100
AcDbEntity
  8
DEFPOINTS
  6
BYBLOCK
 62
     0
100
AcDbPoint
 10
876.758914
 20
181.430023
 30
0.0
  0
POINT
  5
5EB
100
AcDbEntity
  8
DEFPOINTS
  6
BYBLOCK
 62
     0
100
AcDbPoint
 10
876.758914
 20
166.560717
 30
0.0
  0
ENDBLK
  5
5ED
100
AcDbEntity
  8
0
100
AcDbBlockEnd
  0
BLOCK
  5
5DE
100
AcDbEntity
  8
0
100
AcDbBlockBegin
  2
*D2
 70
     1
 10
0.0
 20
0.0
 30
0.0
  3
*D2
  1

  0
LINE
  5
5D4
100
AcDbEntity
  8
0
  6
BYBLOCK
 62
     4
100
AcDbLine
 10
809.758914
 20
200.943414
 30
0.0
 11
809.758914
 21
164.060717
 31
0.0
  0
LINE
  5
5D5
100
AcDbEntity
  8
0
  6
BYBLOCK
 62
     4
100
AcDbLine
 10
802.758914
 20
191.943414
 30
0.0
 11
802.758914
 21
164.060717
 31
0.0
  0
LINE
  5
5D6
100
AcDbEntity
  8
0
  6
BYBLOCK
 62
     4
100
AcDbLine
 10
812.758914
 20
166.560717
 30
0.0
 11
815.758914
 21
166.560717
 31
0.0
  0
LINE
  5
5D7
100
AcDbEntity
  8
0
  6
BYBLOCK
 62
     4
100
AcDbLine
 10
799.758914
 20
166.560717
 30
0.0
 11
787.4732
 21
166.560717
 31
0.0
  0
SOLID
  5
5D8
100
AcDbEntity
  8
0
  6
BYBLOCK
 62
     4
100
AcDbTrace
 10
812.758914
 20
167.060717
 30
0.0
 11
812.758914
 21
166.060717
 31
0.0
 12
809.758914
 22
166.560717
 32
0.0
 13
809.758914
 23
166.560717
 33
0.0
  0
SOLID
  5
5D9
100
AcDbEntity
  8
0
  6
BYBLOCK
 62
     4
100
AcDbTrace
 10
799.758914
 20
167.060717
 30
0.0
 11
799.758914
 21
166.060717
 31
0.0
 12
802.758914
 22
166.560717
 32
0.0
 13
802.758914
 23
166.560717
 33
0.0
  0
MTEXT
  5
5DA
100
AcDbEntity
  8
0
  6
BYBLOCK
 62
     2
100
AcDbMText
 10
792.116057
 20
169.560717
 30
0.0
 40
3.0
 41
0.0
 71
     5
 72
     1
  1
\A1;7.0
  0
POINT
  5
5DB
100
AcDbEntity
  8
DEFPOINTS
  6
BYBLOCK
 62
     0
100
AcDbPoint
 10
809.758914
 20
201.943414
 30
0.0
  0
POINT
  5
5DC
100
AcDbEntity
  8
DEFPOINTS
  6
BYBLOCK
 62
     0
100
AcDbPoint
 10
802.758914
 20
192.943414
 30
0.0
  0
POINT
  5
5DD
100
AcDbEntity
  8
DEFPOINTS
  6
BYBLOCK
 62
     0
100
AcDbPoint
 10
802.758914
 20
166.560717
 30
0.0
  0
ENDBLK
  5
5DF
100
AcDbEntity
  8
0
100
AcDbBlockEnd
  0
BLOCK
  5
5D0
100
AcDbEntity
  8
0
100
AcDbBlockBegin
  2
*D3
 70
     1
 10
0.0
 20
0.0
 30
0.0
  3
*D3
  1

  0
LINE
  5
5C7
100
AcDbEntity
  8
0
  6
BYBLOCK
 62
     4
100
AcDbLine
 10
864.080464
 20
453.247706
 30
0.0
 11
901.89558
 21
453.247706
 31
0.0
  0
LINE
  5
5C8
100
AcDbEntity
  8
0
  6
BYBLOCK
 62
     4
100
AcDbLine
 10
864.080464
 20
493.247706
 30
0.0
 11
901.89558
 21
493.247706
 31
0.0
  0
LINE
  5
5C9
100
AcDbEntity
  8
0
  6
BYBLOCK
 62
     4
100
AcDbLine
 10
899.39558
 20
456.247706
 30
0.0
 11
899.39558
 21
490.247706
 31
0.0
  0
SOLID
  5
5CA
100
AcDbEntity
  8
0
  6
BYBLOCK
 62
     4
100
AcDbTrace
 10
898.89558
 20
456.247706
 30
0.0
 11
899.89558
 21
456.247706
 31
0.0
 12
899.39558
 22
453.247706
 32
0.0
 13
899.39558
 23
453.247706
 33
0.0
  0
SOLID
  5
5CB
100
AcDbEntity
  8
0
  6
BYBLOCK
 62
     4
100
AcDbTrace
 10
898.89558
 20
490.247706
 30
0.0
 11
899.89558
 21
490.247706
 31
0.0
 12
899.39558
 22
493.247706
 32
0.0
 13
899.39558
 23
493.247706
 33
0.0
  0
MTEXT
  5
5CC
100
AcDbEntity
  8
0
  6
BYBLOCK
 62
     2
100
AcDbMText
 10
896.39558
 20
473.247706
 30
0.0
 40
3.0
 41
0.0
 71
     5
 72
     1
  1
\A1;\U+220540.00 H7
 11
0.0
 21
1.0
 31
0.0
  0
POINT
  5
5CD
100
AcDbEntity
  8
DEFPOINTS
  6
BYBLOCK
 62
     0
100
AcDbPoint
 10
863.080464
 20
453.247706
 30
0.0
  0
POINT
  5
5CE
100
AcDbEntity
  8
DEFPOINTS
  6
BYBLOCK
 62
     0
100
AcDbPoint
 10
863.080464
 20
493.247706
 30
0.0
  0
POINT
  5
5CF
100
AcDbEntity
  8
DEFPOINTS
  6
BYBLOCK
 62
     0
100
AcDbPoint
 10
899.39558
 20
493.247706
 30
0.0
  0
ENDBLK
  5
5D1
100
AcDbEntity
  8
0
100
AcDbBlockEnd
  0
BLOCK
  5
5C3
100
AcDbEntity
  8
0
100
AcDbBlockBegin
  2
*D4
 70
     1
 10
0.0
 20
0.0
 30
0.0
  3
*D4
  1

  0
LINE
  5
5B9
100
AcDbEntity
  8
0
  6
BYBLOCK
 62
     4
100
AcDbLine
 10
767.080464
 20
660.747706
 30
0.0
 11
750.904299
 21
660.747706
 31
0.0
  0
LINE
  5
5BA
100
AcDbEntity
  8
0
  6
BYBLOCK
 62
     4
100
AcDbLine
 10
767.080464
 20
652.747706
 30
0.0
 11
750.904299
 21
652.747706
 31
0.0
  0
LINE
  5
5BB
100
AcDbEntity
  8
0
  6
BYBLOCK
 62
     4
100
AcDbLine
 10
753.404299
 20
663.747706
 30
0.0
 11
753.404299
 21
666.747706
 31
0.0
  0
LINE
  5
5BC
100
AcDbEntity
  8
0
  6
BYBLOCK
 62
     4
100
AcDbLine
 10
753.404299
 20
649.747706
 30
0.0
 11
753.404299
 21
623.176278
 31
0.0
  0
SOLID
  5
5BD
100
AcDbEntity
  8
0
  6
BYBLOCK
 62
     4
100
AcDbTrace
 10
752.904299
 20
663.747706
 30
0.0
 11
753.904299
 21
663.747706
 31
0.0
 12
753.404299
 22
660.747706
 32
0.0
 13
753.404299
 23
660.747706
 33
0.0
  0
SOLID
  5
5BE
100
AcDbEntity
  8
0
  6
BYBLOCK
 62
     4
100
AcDbTrace
 10
752.904299
 20
649.747706
 30
0.0
 11
753.904299
 21
649.747706
 31
0.0
 12
753.404299
 22
652.747706
 32
0.0
 13
753.404299
 23
652.747706
 33
0.0
  0
MTEXT
  5
5BF
100
AcDbEntity
  8
0
  6
BYBLOCK
 62
     2
100
AcDbMText
 10
750.404299
 20
634.961992
 30
0.0
 40
3.0
 41
0.0
 71
     5
 72
     1
  1
\A1;\U+22058.00 H7
 11
0.0
 21
1.0
 31
0.0
  0
POINT
  5
5C0
100
AcDbEntity
  8
DEFPOINTS
  6
BYBLOCK
 62
     0
100
AcDbPoint
 10
768.080464
 20
660.747706
 30
0.0
  0
POINT
  5
5C1
100
AcDbEntity
  8
DEFPOINTS
  6
BYBLOCK
 62
     0
100
AcDbPoint
 10
768.080464
 20
652.747706
 30
0.0
  0
POINT
  5
5C2
100
AcDbEntity
  8
DEFPOINTS
  6
BYBLOCK
 62
     0
100
AcDbPoint
 10
753.404299
 20
652.747706
 30
0.0
  0
ENDBLK
  5
5C4
100
AcDbEntity
  8
0
100
AcDbBlockEnd
  0
BLOCK
  5
4F6
100
AcDbEntity
  8
0
100
AcDbBlockBegin
  2
*D5
 70
     1
 10
0.0
 20
0.0
 30
0.0
  3
*D5
  1

  0
LINE
  5
4EC
100
AcDbEntity
  8
0
  6
BYBLOCK
 62
     4
100
AcDbLine
 10
788.080464
 20
462.747706
 30
0.0
 11
788.080464
 21
444.460689
 31
0.0
  0
LINE
  5
4ED
100
AcDbEntity
  8
0
  6
BYBLOCK
 62
     4
100
AcDbLine
 10
771.080464
 20
462.247706
 30
0.0
 11
771.080464
 21
444.460689
 31
0.0
  0
LINE
  5
4EE
100
AcDbEntity
  8
0
  6
BYBLOCK
 62
     4
100
AcDbLine
 10
791.080464
 20
446.960689
 30
0.0
 11
794.080464
 21
446.960689
 31
0.0
  0
LINE
  5
4EF
100
AcDbEntity
  8
0
  6
BYBLOCK
 62
     4
100
AcDbLine
 10
768.080464
 20
446.960689
 30
0.0
 11
750.651892
 21
446.960689
 31
0.0
  0
SOLID
  5
4F0
100
AcDbEntity
  8
0
  6
BYBLOCK
 62
     4
100
AcDbTrace
 10
791.080464
 20
447.460689
 30
0.0
 11
791.080464
 21
446.460689
 31
0.0
 12
788.080464
 22
446.960689
 32
0.0
 13
788.080464
 23
446.960689
 33
0.0
  0
SOLID
  5
4F1
100
AcDbEntity
  8
0
  6
BYBLOCK
 62
     4
100
AcDbTrace
 10
768.080464
 20
447.460689
 30
0.0
 11
768.080464
 21
446.460689
 31
0.0
 12
771.080464
 22
446.960689
 32
0.0
 13
771.080464
 23
446.960689
 33
0.0
  0
MTEXT
  5
4F2
100
AcDbEntity
  8
0
  6
BYBLOCK
 62
     2
100
AcDbMText
 10
757.866178
 20
449.960689
 30
0.0
 40
3.0
 41
0.0
 71
     5
 72
     1
  1
\A1;17.00
  0
POINT
  5
4F3
100
AcDbEntity
  8
DEFPOINTS
  6
BYBLOCK
 62
     0
100
AcDbPoint
 10
788.080464
 20
463.747706
 30
0.0
  0
POINT
  5
4F4
100
AcDbEntity
  8
DEFPOINTS
  6
BYBLOCK
 62
     0
100
AcDbPoint
 10
771.080464
 20
463.247706
 30
0.0
  0
POINT
  5
4F5
100
AcDbEntity
  8
DEFPOINTS
  6
BYBLOCK
 62
     0
100
AcDbPoint
 10
771.080464
 20
446.960689
 30
0.0
  0
ENDBLK
  5
4F7
100
AcDbEntity
  8
0
100
AcDbBlockEnd
  0
BLOCK
  5
4E8
100
AcDbEntity
  8
0
100
AcDbBlockBegin
  2
*D6
 70
     1
 10
0.0
 20
0.0
 30
0.0
  3
*D6
  1

  0
LINE
  5
4DE
100
AcDbEntity
  8
0
  6
BYBLOCK
 62
     4
100
AcDbLine
 10
770.080464
 20
463.247706
 30
0.0
 11
750.930649
 21
463.247706
 31
0.0
  0
LINE
  5
4DF
100
AcDbEntity
  8
0
  6
BYBLOCK
 62
     4
100
AcDbLine
 10
770.080464
 20
483.247706
 30
0.0
 11
750.930649
 21
483.247706
 31
0.0
  0
LINE
  5
4E0
100
AcDbEntity
  8
0
  6
BYBLOCK
 62
     4
100
AcDbLine
 10
753.430649
 20
460.247706
 30
0.0
 11
753.430649
 21
457.247706
 31
0.0
  0
LINE
  5
4E1
100
AcDbEntity
  8
0
  6
BYBLOCK
 62
     4
100
AcDbLine
 10
753.430649
 20
486.247706
 30
0.0
 11
753.430649
 21
515.676278
 31
0.0
  0
SOLID
  5
4E2
100
AcDbEntity
  8
0
  6
BYBLOCK
 62
     4
100
AcDbTrace
 10
752.930649
 20
460.247706
 30
0.0
 11
753.930649
 21
460.247706
 31
0.0
 12
753.430649
 22
463.247706
 32
0.0
 13
753.430649
 23
463.247706
 33
0.0
  0
SOLID
  5
4E3
100
AcDbEntity
  8
0
  6
BYBLOCK
 62
     4
100
AcDbTrace
 10
752.930649
 20
486.247706
 30
0.0
 11
753.930649
 21
486.247706
 31
0.0
 12
753.430649
 22
483.247706
 32
0.0
 13
753.430649
 23
483.247706
 33
0.0
  0
MTEXT
  5
4E4
100
AcDbEntity
  8
0
  6
BYBLOCK
 62
     2
100
AcDbMText
 10
750.430649
 20
502.461992
 30
0.0
 40
3.0
 41
0.0
 71
     5
 72
     1
  1
\A1;\U+220520.00 H7
 11
0.0
 21
1.0
 31
0.0
  0
POINT
  5
4E5
100
AcDbEntity
  8
DEFPOINTS
  6
BYBLOCK
 62
     0
100
AcDbPoint
 10
771.080464
 20
463.247706
 30
0.0
  0
POINT
  5
4E6
100
AcDbEntity
  8
DEFPOINTS
  6
BYBLOCK
 62
     0
100
AcDbPoint
 10
771.080464
 20
483.247706
 30
0.0
  0
POINT
  5
4E7
100
AcDbEntity
  8
DEFPOINTS
  6
BYBLOCK
 62
     0
100
AcDbPoint
 10
753.430649
 20
483.247706
 30
0.0
  0
ENDBLK
  5
4E9
100
AcDbEntity
  8
0
100
AcDbBlockEnd
  0
BLOCK
  5
4DA
100
AcDbEntity
  8
0
100
AcDbBlockBegin
  2
*D7
 70
     1
 10
0.0
 20
0.0
 30
0.0
  3
*D7
  1

  0
LINE
  5
4D1
100
AcDbEntity
  8
0
  6
BYBLOCK
 62
     4
100
AcDbLine
 10
775.657814
 20
462.247706
 30
0.0
 11
741.053236
 21
462.247706
 31
0.0
  0
LINE
  5
4D2
100
AcDbEntity
  8
0
  6
BYBLOCK
 62
     4
100
AcDbLine
 10
775.657814
 20
484.247706
 30
0.0
 11
741.053236
 21
484.247706
 31
0.0
  0
LINE
  5
4D3
100
AcDbEntity
  8
0
  6
BYBLOCK
 62
     4
100
AcDbLine
 10
743.553236
 20
465.247706
 30
0.0
 11
743.553236
 21
481.247706
 31
0.0
  0
SOLID
  5
4D4
100
AcDbEntity
  8
0
  6
BYBLOCK
 62
     4
100
AcDbTrace
 10
743.053236
 20
465.247706
 30
0.0
 11
744.053236
 21
465.247706
 31
0.0
 12
743.553236
 22
462.247706
 32
0.0
 13
743.553236
 23
462.247706
 33
0.0
  0
SOLID
  5
4D5
100
AcDbEntity
  8
0
  6
BYBLOCK
 62
     4
100
AcDbTrace
 10
743.053236
 20
481.247706
 30
0.0
 11
744.053236
 21
481.247706
 31
0.0
 12
743.553236
 22
484.247706
 32
0.0
 13
743.553236
 23
484.247706
 33
0.0
  0
MTEXT
  5
4D6
100
AcDbEntity
  8
0
  6
BYBLOCK
 62
     2
100
AcDbMText
 10
740.553236
 20
473.247706
 30
0.0
 40
3.0
 41
0.0
 71
     5
 72
     1
  1
\A1;22.00
 11
0.0
 21
1.0
 31
0.0
  0
POINT
  5
4D7
100
AcDbEntity
  8
DEFPOINTS
  6
BYBLOCK
 62
     0
100
AcDbPoint
 10
776.657814
 20
462.247706
 30
0.0
  0
POINT
  5
4D8
100
AcDbEntity
  8
DEFPOINTS
  6
BYBLOCK
 62
     0
100
AcDbPoint
 10
776.657814
 20
484.247706
 30
0.0
  0
POINT
  5
4D9
100
AcDbEntity
  8
DEFPOINTS
  6
BYBLOCK
 62
     0
100
AcDbPoint
 10
743.553236
 20
484.247706
 30
0.0
  0
ENDBLK
  5
4DB
100
AcDbEntity
  8
0
100
AcDbBlockEnd
  0
BLOCK
  5
4CD
100
AcDbEntity
  8
0
100
AcDbBlockBegin
  2
*D8
 70
     1
 10
0.0
 20
0.0
 30
0.0
  3
*D8
  1

  0
LINE
  5
4C3
100
AcDbEntity
  8
0
  6
BYBLOCK
 62
     4
100
AcDbLine
 10
781.080464
 20
485.247706
 30
0.0
 11
781.080464
 21
509.035729
 31
0.0
  0
LINE
  5
4C4
100
AcDbEntity
  8
0
  6
BYBLOCK
 62
     4
100
AcDbLine
 10
776.080464
 20
484.247706
 30
0.0
 11
776.080464
 21
509.035729
 31
0.0
  0
LINE
  5
4C5
100
AcDbEntity
  8
0
  6
BYBLOCK
 62
     4
100
AcDbLine
 10
784.080464
 20
506.535729
 30
0.0
 11
787.080464
 21
506.535729
 31
0.0
  0
LINE
  5
4C6
100
AcDbEntity
  8
0
  6
BYBLOCK
 62
     4
100
AcDbLine
 10
773.080464
 20
506.535729
 30
0.0
 11
760.794749
 21
506.535729
 31
0.0
  0
SOLID
  5
4C7
100
AcDbEntity
  8
0
  6
BYBLOCK
 62
     4
100
AcDbTrace
 10
784.080464
 20
507.035729
 30
0.0
 11
784.080464
 21
506.035729
 31
0.0
 12
781.080464
 22
506.535729
 32
0.0
 13
781.080464
 23
506.535729
 33
0.0
  0
SOLID
  5
4C8
100
AcDbEntity
  8
0
  6
BYBLOCK
 62
     4
100
AcDbTrace
 10
773.080464
 20
507.035729
 30
0.0
 11
773.080464
 21
506.035729
 31
0.0
 12
776.080464
 22
506.535729
 32
0.0
 13
776.080464
 23
506.535729
 33
0.0
  0
MTEXT
  5
4C9
100
AcDbEntity
  8
0
  6
BYBLOCK
 62
     2
100
AcDbMText
 10
765.437606
 20
509.535729
 30
0.0
 40
3.0
 41
0.0
 71
     5
 72
     1
  1
\A1;5.0
  0
POINT
  5
4CA
100
AcDbEntity
  8
DEFPOINTS
  6
BYBLOCK
 62
     0
100
AcDbPoint
 10
781.080464
 20
484.247706
 30
0.0
  0
POINT
  5
4CB
100
AcDbEntity
  8
DEFPOINTS
  6
BYBLOCK
 62
     0
100
AcDbPoint
 10
776.080464
 20
483.247706
 30
0.0
  0
POINT
  5
4CC
100
AcDbEntity
  8
DEFPOINTS
  6
BYBLOCK
 62
     0
100
AcDbPoint
 10
776.080464
 20
506.535729
 30
0.0
  0
ENDBLK
  5
4CE
100
AcDbEntity
  8
0
100
AcDbBlockEnd
  0
BLOCK
  5
C0
100
AcDbEntity
  8
0
100
AcDbBlockBegin
  2
*D9
 70
     1
 10
0.0
 20
0.0
 30
0.0
  3
*D9
  1

  0
LINE
  5
B7
100
AcDbEntity
  8
0
  6
BYBLOCK
 62
     4
100
AcDbLine
 10
414.344627
 20
535.943414
 30
0.0
 11
347.6997
 21
535.943414
 31
0.0
  0
LINE
  5
B8
100
AcDbEntity
  8
0
  6
BYBLOCK
 62
     4
100
AcDbLine
 10
414.344627
 20
435.943414
 30
0.0
 11
347.6997
 21
435.943414
 31
0.0
  0
LINE
  5
B9
100
AcDbEntity
  8
0
  6
BYBLOCK
 62
     4
100
AcDbLine
 10
350.1997
 20
532.943414
 30
0.0
 11
350.1997
 21
438.943414
 31
0.0
  0
SOLID
  5
BA
100
AcDbEntity
  8
0
  6
BYBLOCK
 62
     4
100
AcDbTrace
 10
349.6997
 20
532.943414
 30
0.0
 11
350.6997
 21
532.943414
 31
0.0
 12
350.1997
 22
535.943414
 32
0.0
 13
350.1997
 23
535.943414
 33
0.0
  0
SOLID
  5
BB
100
AcDbEntity
  8
0
  6
BYBLOCK
 62
     4
100
AcDbTrace
 10
349.6997
 20
438.943414
 30
0.0
 11
350.6997
 21
438.943414
 31
0.0
 12
350.1997
 22
435.943414
 32
0.0
 13
350.1997
 23
435.943414
 33
0.0
  0
MTEXT
  5
BC
100
AcDbEntity
  8
0
  6
BYBLOCK
 62
     2
100
AcDbMText
 10
347.1997
 20
485.943414
 30
0.0
 40
3.0
 41
0.0
 71
     5
 72
     1
  1
\A1;A=100.00
 11
0.0
 21
1.0
 31
0.0
  0
POINT
  5
BD
100
AcDbEntity
  8
DEFPOINTS
  6
BYBLOCK
 62
     0
100
AcDbPoint
 10
415.344627
 20
535.943414
 30
0.0
  0
POINT
  5
BE
100
AcDbEntity
  8
DEFPOINTS
  6
BYBLOCK
 62
     0
100
AcDbPoint
 10
415.344627
 20
435.943414
 30
0.0
  0
POINT
  5
BF
100
AcDbEntity
  8
DEFPOINTS
  6
BYBLOCK
 62
     0
100
AcDbPoint
 10
350.1997
 20
435.943414
 30
0.0
  0
ENDBLK
  5
C1
100
AcDbEntity
  8
0
100
AcDbBlockEnd
  0
BLOCK
  5
B3
100
AcDbEntity
  8
0
100
AcDbBlockBegin
  2
*D10
 70
     1
 10
0.0
 20
0.0
 30
0.0
  3
*D10
  1

  0
LINE
  5
AB
100
AcDbEntity
  8
0
  6
BYBLOCK
 62
     4
100
AcDbLine
 10
414.344627
 20
335.943414
 30
0.0
 11
347.6997
 21
335.943414
 31
0.0
  0
LINE
  5
AC
100
AcDbEntity
  8
0
  6
BYBLOCK
 62
     4
100
AcDbLine
 10
350.1997
 20
432.943414
 30
0.0
 11
350.1997
 21
338.943414
 31
0.0
  0
SOLID
  5
AD
100
AcDbEntity
  8
0
  6
BYBLOCK
 62
     4
100
AcDbTrace
 10
349.6997
 20
432.943414
 30
0.0
 11
350.6997
 21
432.943414
 31
0.0
 12
350.1997
 22
435.943414
 32
0.0
 13
350.1997
 23
435.943414
 33
0.0
  0
SOLID
  5
AE
100
AcDbEntity
  8
0
  6
BYBLOCK
 62
     4
100
AcDbTrace
 10
349.6997
 20
338.943414
 30
0.0
 11
350.6997
 21
338.943414
 31
0.0
 12
350.1997
 22
335.943414
 32
0.0
 13
350.1997
 23
335.943414
 33
0.0
  0
MTEXT
  5
AF
100
AcDbEntity
  8
0
  6
BYBLOCK
 62
     2
100
AcDbMText
 10
347.1997
 20
385.943414
 30
0.0
 40
3.0
 41
0.0
 71
     5
 72
     1
  1
\A1;B=100.00
 11
0.0
 21
1.0
 31
0.0
  0
POINT
  5
B0
100
AcDbEntity
  8
DEFPOINTS
  6
BYBLOCK
 62
     0
100
AcDbPoint
 10
415.344627
 20
435.943414
 30
0.0
  0
POINT
  5
B1
100
AcDbEntity
  8
DEFPOINTS
  6
BYBLOCK
 62
     0
100
AcDbPoint
 10
415.344627
 20
335.943414
 30
0.0
  0
POINT
  5
B2
100
AcDbEntity
  8
DEFPOINTS
  6
BYBLOCK
 62
     0
100
AcDbPoint
 10
350.1997
 20
335.943414
 30
0.0
  0
ENDBLK
  5
B4
100
AcDbEntity
  8
0
100
AcDbBlockEnd
  0
BLOCK
  5
A4
100
AcDbEntity
  8
0
100
AcDbBlockBegin
  2
*D11
 70
     1
 10
0.0
 20
0.0
 30
0.0
  3
*D11
  1

  0
LINE
  5
9C
100
AcDbEntity
  8
0
  6
BYBLOCK
 62
     4
100
AcDbLine
 10
414.344627
 20
235.943414
 30
0.0
 11
347.6997
 21
235.943414
 31
0.0
  0
LINE
  5
9D
100
AcDbEntity
  8
0
  6
BYBLOCK
 62
     4
100
AcDbLine
 10
350.1997
 20
332.943414
 30
0.0
 11
350.1997
 21
238.943414
 31
0.0
  0
SOLID
  5
9E
100
AcDbEntity
  8
0
  6
BYBLOCK
 62
     4
100
AcDbTrace
 10
349.6997
 20
332.943414
 30
0.0
 11
350.6997
 21
332.943414
 31
0.0
 12
350.1997
 22
335.943414
 32
0.0
 13
350.1997
 23
335.943414
 33
0.0
  0
SOLID
  5
9F
100
AcDbEntity
  8
0
  6
BYBLOCK
 62
     4
100
AcDbTrace
 10
349.6997
 20
238.943414
 30
0.0
 11
350.6997
 21
238.943414
 31
0.0
 12
350.1997
 22
235.943414
 32
0.0
 13
350.1997
 23
235.943414
 33
0.0
  0
MTEXT
  5
A0
100
AcDbEntity
  8
0
  6
BYBLOCK
 62
     2
100
AcDbMText
 10
347.1997
 20
285.943414
 30
0.0
 40
3.0
 41
0.0
 71
     5
 72
     1
  1
\A1;A=100.00
 11
0.0
 21
1.0
 31
0.0
  0
POINT
  5
A1
100
AcDbEntity
  8
DEFPOINTS
  6
BYBLOCK
 62
     0
100
AcDbPoint
 10
415.344627
 20
335.943414
 30
0.0
  0
POINT
  5
A2
100
AcDbEntity
  8
DEFPOINTS
  6
BYBLOCK
 62
     0
100
AcDbPoint
 10
415.344627
 20
235.943414
 30
0.0
  0
POINT
  5
A3
100
AcDbEntity
  8
DEFPOINTS
  6
BYBLOCK
 62
     0
100
AcDbPoint
 10
350.1997
 20
235.943414
 30
0.0
  0
ENDBLK
  5
A5
100
AcDbEntity
  8
0
100
AcDbBlockEnd
  0
BLOCK
  5
98
100
AcDbEntity
  8
0
100
AcDbBlockBegin
  2
*D12
 70
     1
 10
0.0
 20
0.0
 30
0.0
  3
*D12
  1

  0
LINE
  5
8F
100
AcDbEntity
  8
0
  6
BYBLOCK
 62
     4
100
AcDbLine
 10
421.782956
 20
199.943414
 30
0.0
 11
337.068838
 21
199.943414
 31
0.0
  0
LINE
  5
90
100
AcDbEntity
  8
0
  6
BYBLOCK
 62
     4
100
AcDbLine
 10
489.044627
 20
599.943414
 30
0.0
 11
337.068838
 21
599.943414
 31
0.0
  0
LINE
  5
91
100
AcDbEntity
  8
0
  6
BYBLOCK
 62
     4
100
AcDbLine
 10
339.568838
 20
202.943414
 30
0.0
 11
339.568838
 21
596.943414
 31
0.0
  0
SOLID
  5
92
100
AcDbEntity
  8
0
  6
BYBLOCK
 62
     4
100
AcDbTrace
 10
339.068838
 20
202.943414
 30
0.0
 11
340.068838
 21
202.943414
 31
0.0
 12
339.568838
 22
199.943414
 32
0.0
 13
339.568838
 23
199.943414
 33
0.0
  0
SOLID
  5
93
100
AcDbEntity
  8
0
  6
BYBLOCK
 62
     4
100
AcDbTrace
 10
339.068838
 20
596.943414
 30
0.0
 11
340.068838
 21
596.943414
 31
0.0
 12
339.568838
 22
599.943414
 32
0.0
 13
339.568838
 23
599.943414
 33
0.0
  0
MTEXT
  5
94
100
AcDbEntity
  8
0
  6
BYBLOCK
 62
     2
100
AcDbMText
 10
336.568838
 20
399.943414
 30
0.0
 40
3.0
 41
0.0
 71
     5
 72
     1
  1
\A1;L=400.00
 11
0.0
 21
1.0
 31
0.0
  0
POINT
  5
95
100
AcDbEntity
  8
DEFPOINTS
  6
BYBLOCK
 62
     0
100
AcDbPoint
 10
422.782956
 20
199.943414
 30
0.0
  0
POINT
  5
96
100
AcDbEntity
  8
DEFPOINTS
  6
BYBLOCK
 62
     0
100
AcDbPoint
 10
490.044627
 20
599.943414
 30
0.0
  0
POINT
  5
97
100
AcDbEntity
  8
DEFPOINTS
  6
BYBLOCK
 62
     0
100
AcDbPoint
 10
339.568838
 20
599.943414
 30
0.0
  0
ENDBLK
  5
99
100
AcDbEntity
  8
0
100
AcDbBlockEnd
  0
BLOCK
  5
8B
100
AcDbEntity
  8
0
100
AcDbBlockBegin
  2
*D13
 70
     1
 10
0.0
 20
0.0
 30
0.0
  3
*D13
  1

  0
LINE
  5
82
100
AcDbEntity
  8
0
  6
BYBLOCK
 62
     4
100
AcDbLine
 10
432.044627
 20
553.643414
 30
0.0
 11
432.044627
 21
720.181896
 31
0.0
  0
LINE
  5
83
100
AcDbEntity
  8
0
  6
BYBLOCK
 62
     4
100
AcDbLine
 10
532.044627
 20
703.065995
 30
0.0
 11
532.044627
 21
720.181896
 31
0.0
  0
LINE
  5
84
100
AcDbEntity
  8
0
  6
BYBLOCK
 62
     4
100
AcDbLine
 10
435.044627
 20
717.681896
 30
0.0
 11
529.044627
 21
717.681896
 31
0.0
  0
SOLID
  5
85
100
AcDbEntity
  8
0
  6
BYBLOCK
 62
     4
100
AcDbTrace
 10
435.044627
 20
718.181896
 30
0.0
 11
435.044627
 21
717.181896
 31
0.0
 12
432.044627
 22
717.681896
 32
0.0
 13
432.044627
 23
717.681896
 33
0.0
  0
SOLID
  5
86
100
AcDbEntity
  8
0
  6
BYBLOCK
 62
     4
100
AcDbTrace
 10
529.044627
 20
718.181896
 30
0.0
 11
529.044627
 21
717.181896
 31
0.0
 12
532.044627
 22
717.681896
 32
0.0
 13
532.044627
 23
717.681896
 33
0.0
  0
MTEXT
  5
87
100
AcDbEntity
  8
0
  6
BYBLOCK
 62
     2
100
AcDbMText
 10
482.044627
 20
720.681896
 30
0.0
 40
3.0
 41
0.0
 71
     5
 72
     1
  1
\A1;C=100.00
  0
POINT
  5
88
100
AcDbEntity
  8
DEFPOINTS
  6
BYBLOCK
 62
     0
100
AcDbPoint
 10
432.044627
 20
552.643414
 30
0.0
  0
POINT
  5
89
100
AcDbEntity
  8
DEFPOINTS
  6
BYBLOCK
 62
     0
100
AcDbPoint
 10
532.044627
 20
702.065995
 30
0.0
  0
POINT
  5
8A
100
AcDbEntity
  8
DEFPOINTS
  6
BYBLOCK
 62
     0
100
AcDbPoint
 10
532.044627
 20
717.681896
 30
0.0
  0
ENDBLK
  5
8C
100
AcDbEntity
  8
0
100
AcDbBlockEnd
  0
BLOCK
  5
7E
100
AcDbEntity
  8
0
100
AcDbBlockBegin
  2
*D14
 70
     1
 10
0.0
 20
0.0
 30
0.0
  3
*D14
  1

  0
LINE
  5
76
100
AcDbEntity
  8
0
  6
BYBLOCK
 62
     4
100
AcDbLine
 10
632.044627
 20
553.643414
 30
0.0
 11
632.044627
 21
720.181896
 31
0.0
  0
LINE
  5
77
100
AcDbEntity
  8
0
  6
BYBLOCK
 62
     4
100
AcDbLine
 10
535.044627
 20
717.681896
 30
0.0
 11
629.044627
 21
717.681896
 31
0.0
  0
SOLID
  5
78
100
AcDbEntity
  8
0
  6
BYBLOCK
 62
     4
100
AcDbTrace
 10
535.044627
 20
718.181896
 30
0.0
 11
535.044627
 21
717.181896
 31
0.0
 12
532.044627
 22
717.681896
 32
0.0
 13
532.044627
 23
717.681896
 33
0.0
  0
SOLID
  5
79
100
AcDbEntity
  8
0
  6
BYBLOCK
 62
     4
100
AcDbTrace
 10
629.044627
 20
718.181896
 30
0.0
 11
629.044627
 21
717.181896
 31
0.0
 12
632.044627
 22
717.681896
 32
0.0
 13
632.044627
 23
717.681896
 33
0.0
  0
MTEXT
  5
7A
100
AcDbEntity
  8
0
  6
BYBLOCK
 62
     2
100
AcDbMText
 10
582.044627
 20
720.681896
 30
0.0
 40
3.0
 41
0.0
 71
     5
 72
     1
  1
\A1;C=100.00
  0
POINT
  5
7B
100
AcDbEntity
  8
DEFPOINTS
  6
BYBLOCK
 62
     0
100
AcDbPoint
 10
532.044627
 20
702.065995
 30
0.0
  0
POINT
  5
7C
100
AcDbEntity
  8
DEFPOINTS
  6
BYBLOCK
 62
     0
100
AcDbPoint
 10
632.044627
 20
552.643414
 30
0.0
  0
POINT
  5
7D
100
AcDbEntity
  8
DEFPOINTS
  6
BYBLOCK
 62
     0
100
AcDbPoint
 10
632.044627
 20
717.681896
 30
0.0
  0
ENDBLK
  5
7F
100
AcDbEntity
  8
0
100
AcDbBlockEnd
  0
BLOCK
  5
5F
100
AcDbEntity
  8
0
100
AcDbBlockBegin
  2
*D15
 70
     1
 10
0.0
 20
0.0
 30
0.0
  3
*D15
  1

  0
LINE
  5
56
100
AcDbEntity
  8
0
  6
BYBLOCK
 62
     4
100
AcDbLine
 10
400.044627
 20
550.205084
 30
0.0
 11
400.044627
 21
730.71426
 31
0.0
  0
LINE
  5
57
100
AcDbEntity
  8
0
  6
BYBLOCK
 62
     4
100
AcDbLine
 10
664.044627
 20
550.205084
 30
0.0
 11
664.044627
 21
730.71426
 31
0.0
  0
LINE
  5
58
100
AcDbEntity
  8
0
  6
BYBLOCK
 62
     4
100
AcDbLine
 10
403.044627
 20
728.21426
 30
0.0
 11
661.044627
 21
728.21426
 31
0.0
  0
SOLID
  5
59
100
AcDbEntity
  8
0
  6
BYBLOCK
 62
     4
100
AcDbTrace
 10
403.044627
 20
728.71426
 30
0.0
 11
403.044627
 21
727.71426
 31
0.0
 12
400.044627
 22
728.21426
 32
0.0
 13
400.044627
 23
728.21426
 33
0.0
  0
SOLID
  5
5A
100
AcDbEntity
  8
0
  6
BYBLOCK
 62
     4
100
AcDbTrace
 10
661.044627
 20
728.71426
 30
0.0
 11
661.044627
 21
727.71426
 31
0.0
 12
664.044627
 22
728.21426
 32
0.0
 13
664.044627
 23
728.21426
 33
0.0
  0
MTEXT
  5
5B
100
AcDbEntity
  8
0
  6
BYBLOCK
 62
     2
100
AcDbMText
 10
532.044627
 20
731.21426
 30
0.0
 40
3.0
 41
0.0
 71
     5
 72
     1
  1
\A1;L1=264.00
  0
POINT
  5
5C
100
AcDbEntity
  8
DEFPOINTS
  6
BYBLOCK
 62
     0
100
AcDbPoint
 10
400.044627
 20
549.205084
 30
0.0
  0
POINT
  5
5D
100
AcDbEntity
  8
DEFPOINTS
  6
BYBLOCK
 62
     0
100
AcDbPoint
 10
664.044627
 20
549.205084
 30
0.0
  0
POINT
  5
5E
100
AcDbEntity
  8
DEFPOINTS
  6
BYBLOCK
 62
     0
100
AcDbPoint
 10
664.044627
 20
728.21426
 30
0.0
  0
ENDBLK
  5
60
100
AcDbEntity
  8
0
100
AcDbBlockEnd
  0
BLOCK
  5
52
100
AcDbEntity
  8
0
100
AcDbBlockBegin
  2
*D16
 70
     1
 10
0.0
 20
0.0
 30
0.0
  3
*D16
  1

  0
LINE
  5
48
100
AcDbEntity
  8
0
  6
BYBLOCK
 62
     4
100
AcDbLine
 10
625.153754
 20
568.650521
 30
0.0
 11
657.600004
 21
601.096771
 31
0.0
  0
LINE
  5
49
100
AcDbEntity
  8
0
  6
BYBLOCK
 62
     4
100
AcDbLine
 10
664.751733
 20
529.052541
 30
0.0
 11
697.197983
 21
561.498791
 31
0.0
  0
LINE
  5
4A
100
AcDbEntity
  8
0
  6
BYBLOCK
 62
     4
100
AcDbLine
 10
657.953557
 20
597.207684
 30
0.0
 11
693.308896
 21
561.852344
 31
0.0
  0
SOLID
  5
4B
100
AcDbEntity
  8
0
  6
BYBLOCK
 62
     4
100
AcDbTrace
 10
658.30711
 20
597.561237
 30
0.0
 11
657.600004
 21
596.85413
 31
0.0
 12
655.832237
 22
599.329004
 32
0.0
 13
655.832237
 23
599.329004
 33
0.0
  0
SOLID
  5
4C
100
AcDbEntity
  8
0
  6
BYBLOCK
 62
     4
100
AcDbTrace
 10
693.662449
 20
562.205898
 30
0.0
 11
692.955343
 21
561.498791
 31
0.0
 12
695.430216
 22
559.731024
 32
0.0
 13
695.430216
 23
559.731024
 33
0.0
  0
MTEXT
  5
4D
100
AcDbEntity
  8
0
  6
BYBLOCK
 62
     2
100
AcDbMText
 10
677.752547
 20
581.651334
 30
0.0
 40
3.0
 41
0.0
 71
     5
 72
     1
  1
\A1;W=56.00
 11
0.707107
 21
-0.707107
 31
0.0
  0
POINT
  5
4E
100
AcDbEntity
  8
DEFPOINTS
  6
BYBLOCK
 62
     0
100
AcDbPoint
 10
624.446647
 20
567.943414
 30
0.0
  0
POINT
  5
50
100
AcDbEntity
  8
DEFPOINTS
  6
BYBLOCK
 62
     0
100
AcDbPoint
 10
664.044627
 20
528.345434
 30
0.0
  0
POINT
  5
51
100
AcDbEntity
  8
DEFPOINTS
  6
BYBLOCK
 62
     0
100
AcDbPoint
 10
695.430216
 20
559.731024
 30
0.0
  0
ENDBLK
  5
53
100
AcDbEntity
  8
0
100
AcDbBlockEnd
  0
ENDSEC
  0
SECTION
  2
ENTITIES
  0
TEXT
  5
20
100
AcDbEntity
  8
TEXT
100
AcDbText
 10
715.537117
 20
705.527518
 30
0.0
 40
6.0
  1
depending on the bush size to be used.
100
AcDbText
  0
TEXT
  5
22
100
AcDbEntity
  8
TEXT
100
AcDbText
 10
682.871161
 20
715.623926
 30
0.0
 40
6.0
  1
NOTE: Manifold width `W' can be 50mm or 64mm
100
AcDbText
  0
TEXT
  5
23
100
AcDbEntity
  8
TEXT
100
AcDbText
 10
224.458722
 20
101.055649
 30
0.0
 40
6.0
  1
design may vary from this example !
100
AcDbText
  0
TEXT
  5
24
100
AcDbEntity
  8
TEXT
100
AcDbText
 10
224.077855
 20
111.152057
 30
0.0
 40
6.0
  1
you finalize your tool design, as our final system
100
AcDbText
  0
TEXT
  5
25
100
AcDbEntity
  8
TEXT
100
AcDbText
 10
200.783735
 20
121.248465
 30
0.0
 40
6.0
  1
N.B. ALL designs MUST be approved by Fast Heat BEFORE
100
AcDbText
  0
ARC
  5
26
100
AcDbEntity
  8
M04
100
AcDbCircle
 10
400.92851
 20
538.775259
 30
0.0
 40
15.0
100
AcDbArc
 50
135.0
 51
225.0
  0
ARC
  5
28
100
AcDbEntity
  8
M04
100
AcDbCircle
 10
429.212781
 20
567.059531
 30
0.0
 40
15.0
100
AcDbArc
 50
45.0
 51
135.0
  0
ARC
  5
29
100
AcDbEntity
  8
M04
100
AcDbCircle
 10
634.876472
 20
567.059531
 30
0.0
 40
15.0
100
AcDbArc
 50
45.0
 51
135.0
  0
ARC
  5
2A
100
AcDbEntity
  8
M04
100
AcDbCircle
 10
663.160743
 20
538.775259
 30
0.0
 40
15.0
100
AcDbArc
 50
315.0
 51
45.0
  0
ARC
  5
2B
100
AcDbEntity
  8
M04
100
AcDbCircle
 10
426.096665
 20
207.943414
 30
0.0
 40
15.0
100
AcDbArc
 50
225.0
 51
270.0
  0
ARC
  5
2C
100
AcDbEntity
  8
M04
100
AcDbCircle
 10
400.92851
 20
233.111569
 30
0.0
 40
15.0
100
AcDbArc
 50
135.0
 51
225.0
  0
ARC
  5
2D
100
AcDbEntity
  8
M04
100
AcDbCircle
 10
400.92851
 20
338.775259
 30
0.0
 40
15.0
100
AcDbArc
 50
135.0
 51
225.0
  0
ARC
  5
2E
100
AcDbEntity
  8
M04
100
AcDbCircle
 10
405.670258
 20
385.943414
 30
0.0
 40
15.0
100
AcDbArc
 50
315.0
 51
45.0
  0
ARC
  5
2F
100
AcDbEntity
  8
M04
100
AcDbCircle
 10
400.92851
 20
433.111569
 30
0.0
 40
15.0
100
AcDbArc
 50
135.0
 51
225.0
  0
ARC
  5
30
100
AcDbEntity
  8
M04
100
AcDbCircle
 10
663.160743
 20
433.111569
 30
0.0
 40
15.0
100
AcDbArc
 50
315.0
 51
45.0
  0
ARC
  5
31
100
AcDbEntity
  8
M04
100
AcDbCircle
 10
658.418995
 20
385.943414
 30
0.0
 40
15.0
100
AcDbArc
 50
135.0
 51
225.0
  0
ARC
  5
32
100
AcDbEntity
  8
M04
100
AcDbCircle
 10
663.160743
 20
338.775259
 30
0.0
 40
15.0
100
AcDbArc
 50
315.0
 51
45.0
  0
ARC
  5
33
100
AcDbEntity
  8
M04
100
AcDbCircle
 10
663.160743
 20
233.111569
 30
0.0
 40
15.0
100
AcDbArc
 50
315.0
 51
45.0
  0
ARC
  5
34
100
AcDbEntity
  8
M04
100
AcDbCircle
 10
637.992588
 20
207.943414
 30
0.0
 40
15.0
100
AcDbArc
 50
270.0
 51
315.0
  0
LINE
  5
35
100
AcDbEntity
  8
M01
100
AcDbLine
 10
664.044627
 20
222.681744
 30
0.0
 11
641.306297
 21
199.943414
 31
0.0
  0
LINE
  5
37
100
AcDbEntity
  8
M04
100
AcDbLine
 10
673.767345
 20
222.504967
 30
0.0
 11
648.59919
 21
197.336812
 31
0.0
  0
LINE
  5
38
100
AcDbEntity
  8
M01
100
AcDbLine
 10
400.044627
 20
222.681744
 30
0.0
 11
422.782956
 21
199.943414
 31
0.0
  0
LINE
  5
39
100
AcDbEntity
  8
M04
100
AcDbLine
 10
390.321908
 20
222.504967
 30
0.0
 11
415.490063
 21
197.336812
 31
0.0
  0
LINE
  5
3A
100
AcDbEntity
  8
M01
100
AcDbLine
 10
400.044627
 20
349.205084
 30
0.0
 11
418.782956
 21
367.943414
 31
0.0
  0
LINE
  5
3B
100
AcDbEntity
  8
M01
100
AcDbLine
 10
400.044627
 20
422.681744
 30
0.0
 11
418.782956
 21
403.943414
 31
0.0
  0
LINE
  5
3C
100
AcDbEntity
  8
M04
100
AcDbLine
 10
390.321908
 20
422.504967
 30
0.0
 11
416.27686
 21
396.550016
 31
0.0
  0
LINE
  5
3D
100
AcDbEntity
  8
M04
100
AcDbLine
 10
390.321908
 20
349.381861
 30
0.0
 11
416.27686
 21
375.336812
 31
0.0
  0
LINE
  5
3E
100
AcDbEntity
  8
M04
100
AcDbLine
 10
673.767345
 20
349.381861
 30
0.0
 11
647.812394
 21
375.336812
 31
0.0
  0
LINE
  5
3F
100
AcDbEntity
  8
M01
100
AcDbLine
 10
664.044627
 20
349.205084
 30
0.0
 11
645.306297
 21
367.943414
 31
0.0
  0
LINE
  5
40
100
AcDbEntity
  8
M01
100
AcDbLine
 10
664.044627
 20
422.681744
 30
0.0
 11
645.306297
 21
403.943414
 31
0.0
  0
LINE
  5
41
100
AcDbEntity
  8
M04
100
AcDbLine
 10
673.767345
 20
422.504967
 30
0.0
 11
647.812394
 21
396.550016
 31
0.0
  0
LINE
  5
42
100
AcDbEntity
  8
M01
100
AcDbLine
 10
400.044627
 20
549.205084
 30
0.0
 11
418.782956
 21
567.943414
 31
0.0
  0
LINE
  5
43
100
AcDbEntity
  8
M04
100
AcDbLine
 10
390.321908
 20
549.381861
 30
0.0
 11
418.606179
 21
577.666132
 31
0.0
  0
LINE
  5
44
100
AcDbEntity
  8
M04
100
AcDbLine
 10
673.767345
 20
549.381861
 30
0.0
 11
645.483073
 21
577.666132
 31
0.0
  0
LINE
  5
45
100
AcDbEntity
  8
M01
100
AcDbLine
 10
664.044627
 20
549.205084
 30
0.0
 11
645.306297
 21
567.943414
 31
0.0
  0
DIMENSION
  5
46
100
AcDbEntity
  8
DIMS
100
AcDbDimension
  2
*D16
 10
695.430216
 20
559.731024
 30
0.0
 11
677.752547
 21
581.651334
 31
0.0
 70
     1
  1
W=<>
  3
DIM1
100
AcDbAlignedDimension
 13
624.446647
 23
567.943414
 33
0.0
 14
664.044627
 24
528.345434
 34
0.0
1001
ACAD
1000
DSTYLE
1002
{
1070
   144
1040
1.0
1002
}
  0
DIMENSION
  5
54
100
AcDbEntity
  8
DIMS
100
AcDbDimension
  2
*D15
 10
664.044627
 20
728.21426
 30
0.0
 11
532.044627
 21
731.21426
 31
0.0
  1
L1=<>
  3
DIM1
100
AcDbAlignedDimension
 13
400.044627
 23
549.205084
 33
0.0
 14
664.044627
 24
549.205084
 34
0.0
100
AcDbRotatedDimension
1001
ACAD
1000
DSTYLE
1002
{
1070
   144
1040
1.0
1002
}
  0
LINE
  5
61
100
AcDbEntity
  8
M01
100
AcDbLine
 10
664.044627
 20
222.681744
 30
0.0
 11
664.044627
 21
243.541394
 31
0.0
  0
LINE
  5
62
100
AcDbEntity
  8
M01
100
AcDbLine
 10
400.044627
 20
222.681744
 30
0.0
 11
400.044627
 21
243.541394
 31
0.0
  0
ARC
  5
63
100
AcDbEntity
  8
M01
100
AcDbCircle
 10
629.044627
 20
379.943414
 30
0.0
 40
12.0
100
AcDbArc
 50
180.0
 51
270.0
  0
ARC
  5
64
100
AcDbEntity
  8
M01
100
AcDbCircle
 10
629.044627
 20
391.943414
 30
0.0
 40
12.0
100
AcDbArc
 50
90.0
 51
180.0
  0
ARC
  5
65
100
AcDbEntity
  8
M01
100
AcDbCircle
 10
435.044627
 20
391.943414
 30
0.0
 40
12.0
100
AcDbArc
 50
0.0
 51
90.0
  0
ARC
  5
66
100
AcDbEntity
  8
M01
100
AcDbCircle
 10
435.044627
 20
379.943414
 30
0.0
 40
12.0
100
AcDbArc
 50
270.0
 51
0.0
  0
LINE
  5
67
100
AcDbEntity
  8
M01
100
AcDbLine
 10
645.306297
 20
367.943414
 30
0.0
 11
629.044627
 21
367.943414
 31
0.0
  0
LINE
  5
68
100
AcDbEntity
  8
M01
100
AcDbLine
 10
664.044627
 20
349.205084
 30
0.0
 11
664.044627
 21
328.345434
 31
0.0
  0
LINE
  5
69
100
AcDbEntity
  8
M01
100
AcDbLine
 10
418.782956
 20
367.943414
 30
0.0
 11
435.044627
 21
367.943414
 31
0.0
  0
LINE
  5
6A
100
AcDbEntity
  8
M01
100
AcDbLine
 10
400.044627
 20
349.205084
 30
0.0
 11
400.044627
 21
328.345434
 31
0.0
  0
LINE
  5
6B
100
AcDbEntity
  8
M01
100
AcDbLine
 10
645.306297
 20
403.943414
 30
0.0
 11
629.044627
 21
403.943414
 31
0.0
  0
LINE
  5
6C
100
AcDbEntity
  8
M01
100
AcDbLine
 10
664.044627
 20
422.681744
 30
0.0
 11
664.044627
 21
443.541394
 31
0.0
  0
LINE
  5
6D
100
AcDbEntity
  8
M01
100
AcDbLine
 10
664.044627
 20
443.541394
 30
0.0
 11
630.127888
 21
477.458133
 31
0.0
  0
LINE
  5
6E
100
AcDbEntity
  8
M01
100
AcDbLine
 10
418.782956
 20
403.943414
 30
0.0
 11
435.044627
 21
403.943414
 31
0.0
  0
LINE
  5
6F
100
AcDbEntity
  8
M01
100
AcDbLine
 10
400.044627
 20
422.681744
 30
0.0
 11
400.044627
 21
443.541394
 31
0.0
  0
LINE
  5
70
100
AcDbEntity
  8
M01
100
AcDbLine
 10
400.044627
 20
443.541394
 30
0.0
 11
433.961365
 21
477.458133
 31
0.0
  0
LINE
  5
71
100
AcDbEntity
  8
M01
100
AcDbLine
 10
645.306297
 20
567.943414
 30
0.0
 11
624.446647
 21
567.943414
 31
0.0
  0
LINE
  5
72
100
AcDbEntity
  8
M01
100
AcDbLine
 10
664.044627
 20
549.205084
 30
0.0
 11
664.044627
 21
528.345434
 31
0.0
  0
LINE
  5
73
100
AcDbEntity
  8
M01
100
AcDbLine
 10
418.782956
 20
567.943414
 30
0.0
 11
439.642606
 21
567.943414
 31
0.0
  0
DIMENSION
  5
74
100
AcDbEntity
  8
DIMS
100
AcDbDimension
  2
*D14
 10
632.044627
 20
717.681896
 30
0.0
 11
582.044627
 21
720.681896
 31
0.0
  1
C=<>
  3
DIM1
100
AcDbAlignedDimension
 13
532.044627
 23
702.065995
 33
0.0
 14
632.044627
 24
552.643414
 34
0.0
100
AcDbRotatedDimension
1001
ACAD
1000
DSTYLE
1002
{
1070
    75
1070
     1
1070
   144
1040
1.0
1070
   287
1070
     4
1002
}
  0
DIMENSION
  5
80
100
AcDbEntity
  8
DIMS
100
AcDbDimension
  2
*D13
 10
532.044627
 20
717.681896
 30
0.0
 11
482.044627
 21
720.681896
 31
0.0
  1
C=<>
  3
DIM1
100
AcDbAlignedDimension
 13
432.044627
 23
552.643414
 33
0.0
 14
532.044627
 24
702.065995
 34
0.0
100
AcDbRotatedDimension
1001
ACAD
1000
DSTYLE
1002
{
1070
   144
1040
1.0
1002
}
  0
DIMENSION
  5
8D
100
AcDbEntity
  8
DIMS
100
AcDbDimension
  2
*D12
 10
339.568838
 20
599.943414
 30
0.0
 11
336.568838
 21
399.943414
 31
0.0
  1
L=<>
  3
DIM1
100
AcDbAlignedDimension
 13
422.782956
 23
199.943414
 33
0.0
 14
490.044627
 24
599.943414
 34
0.0
 50
90.0
100
AcDbRotatedDimension
1001
ACAD
1000
DSTYLE
1002
{
1070
   144
1040
1.0
1002
}
  0
DIMENSION
  5
9A
100
AcDbEntity
  8
DIMS
100
AcDbDimension
  2
*D11
 10
350.1997
 20
235.943414
 30
0.0
 11
347.1997
 21
285.943414
 31
0.0
  1
A=<>
  3
DIM1
100
AcDbAlignedDimension
 13
415.344627
 23
335.943414
 33
0.0
 14
415.344627
 24
235.943414
 34
0.0
 50
90.0
100
AcDbRotatedDimension
1001
ACAD
1000
DSTYLE
1002
{
1070
    75
1070
     1
1070
   144
1040
1.0
1070
   287
1070
     4
1002
}
  0
LINE
  5
A6
100
AcDbEntity
  8
DIMS
 62
     4
100
AcDbLine
 10
428.644627
 20
235.943414
 30
0.0
 11
415.344627
 21
235.943414
 31
0.0
  0
LINE
  5
A7
100
AcDbEntity
  8
DIMS
 62
     4
100
AcDbLine
 10
435.444627
 20
235.943414
 30
0.0
 11
448.744627
 21
235.943414
 31
0.0
  0
LINE
  5
A8
100
AcDbEntity
  8
DIMS
 62
     4
100
AcDbLine
 10
433.744627
 20
235.943414
 30
0.0
 11
430.344627
 21
235.943414
 31
0.0
  0
DIMENSION
  5
A9
100
AcDbEntity
  8
DIMS
100
AcDbDimension
  2
*D10
 10
350.1997
 20
335.943414
 30
0.0
 11
347.1997
 21
385.943414
 31
0.0
  1
B=<>
  3
DIM1
100
AcDbAlignedDimension
 13
415.344627
 23
435.943414
 33
0.0
 14
415.344627
 24
335.943414
 34
0.0
 50
90.0
100
AcDbRotatedDimension
1001
ACAD
1000
DSTYLE
1002
{
1070
    75
1070
     1
1070
   144
1040
1.0
1070
   287
1070
     4
1002
}
  0
DIMENSION
  5
B5
100
AcDbEntity
  8
DIMS
100
AcDbDimension
  2
*D9
 10
350.1997
 20
435.943414
 30
0.0
 11
347.1997
 21
485.943414
 31
0.0
  1
A=<>
  3
DIM1
100
AcDbAlignedDimension
 13
415.344627
 23
535.943414
 33
0.0
 14
415.344627
 24
435.943414
 34
0.0
 50
90.0
100
AcDbRotatedDimension
1001
ACAD
1000
DSTYLE
1002
{
1070
   144
1040
1.0
1002
}
  0
LINE
  5
C2
100
AcDbEntity
  8
DIMS
 62
     4
100
AcDbLine
 10
435.444627
 20
435.943414
 30
0.0
 11
448.744627
 21
435.943414
 31
0.0
  0
LINE
  5
C3
100
AcDbEntity
  8
DIMS
 62
     4
100
AcDbLine
 10
428.644627
 20
435.943414
 30
0.0
 11
415.344627
 21
435.943414
 31
0.0
  0
LINE
  5
C4
100
AcDbEntity
  8
DIMS
 62
     4
100
AcDbLine
 10
430.344627
 20
435.943414
 30
0.0
 11
433.744627
 21
435.943414
 31
0.0
  0
HATCH
  5
C5
100
AcDbEntity
  8
HATCH
100
AcDbHatch
 10
0.0
 20
0.0
 30
0.0
210
0.0
220
0.0
230
1.0
  2
_U
 70
     0
 71
     1
 91
        8
 92
        7
 72
     0
 73
     1
 93
        4
 10
869.4589143034768
 20
349.9434140619693
 10
868.758914303477
 20
349.2434140619694
 10
868.758914303477
 20
344.8022960494264
 10
869.458914303477
 20
344.1022960494265
 97
        4
330
FE
330
103
330
E4
330
F8
 92
        7
 72
     0
 73
     1
 93
        4
 10
869.7589143034768
 20
349.9434140619694
 10
869.458914303477
 20
349.9434140619694
 10
869.458914303477
 20
344.1022960494263
 10
869.7589143034768
 20
343.8022960494265
 97
        4
330
FF
330
F8
330
F0
330
129
 92
        7
 72
     0
 73
     1
 93
        4
 10
868.758914303477
 20
335.9434140619693
 10
869.4589143034768
 20
335.9434140619693
 10
869.4589143034768
 20
344.1022960494265
 10
868.7589143034768
 20
344.8022960494264
 97
        4
330
E4
330
103
330
105
330
F8
 92
        7
 72
     0
 73
     1
 93
        4
 10
869.7589143034768
 20
343.8022960494265
 10
869.4589143034768
 20
344.1022960494265
 10
869.4589143034768
 20
335.9434140619694
 10
869.7589143034768
 20
335.9434140619695
 97
        4
330
F0
330
F8
330
105
330
129
 92
        7
 72
     0
 73
     1
 93
        4
 10
868.7589143034768
 20
327.0845320745122
 10
869.4589143034768
 20
327.7845320745123
 10
869.4589143034768
 20
335.9434140619694
 10
868.758914303477
 20
335.9434140619694
 97
        4
330
105
330
103
330
E6
330
F8
 92
        7
 72
     0
 73
     1
 93
        4
 10
869.7589143034766
 20
335.9434140619693
 10
869.458914303477
 20
335.9434140619693
 10
869.458914303477
 20
327.7845320745123
 10
869.7589143034768
 20
328.0845320745122
 97
        4
330
105
330
F8
330
F2
330
129
 92
        7
 72
     0
 73
     1
 93
        4
 10
869.4589143034768
 20
327.7845320745123
 10
868.758914303477
 20
327.0845320745124
 10
868.758914303477
 20
322.6434140619696
 10
869.4589143034768
 20
321.9434140619696
 97
        4
330
E6
330
103
330
F9
330
F8
 92
        7
 72
     0
 73
     1
 93
        4
 10
869.7589143034766
 20
328.0845320745122
 10
869.458914303477
 20
327.7845320745122
 10
869.458914303477
 20
321.9434140619694
 10
869.7589143034768
 20
321.9434140619694
 97
        4
330
F2
330
F8
330
FA
330
129
 75
     0
 76
     0
 52
45.0
 41
6.0
 77
     0
 78
     1
 53
45.0
 43
0.0
 44
0.0
 45
-4.242640687119284
 46
4.242640687119285
 79
     0
 47
0.057049
 98
        8
 10
869.165588
 20
348.074995
 10
869.679234
 20
348.189093
 10
868.937301
 20
341.514335
 10
869.622163
 20
341.114992
 10
869.108517
 20
334.668434
 10
869.622163
 20
334.839579
 10
869.165588
 20
326.795644
 10
869.679234
 20
326.852693
  0
HATCH
  5
C7
100
AcDbEntity
  8
HATCH
100
AcDbHatch
 10
0.0
 20
0.0
 30
0.0
210
0.0
220
0.0
230
1.0
  2
_U
 70
     0
 71
     1
 91
        8
 92
        7
 72
     0
 73
     1
 93
        4
 10
869.4589143034768
 20
549.9434140619694
 10
868.758914303477
 20
549.2434140619694
 10
868.758914303477
 20
544.8022960494263
 10
869.4589143034768
 20
544.1022960494263
 97
        4
330
1B8
330
1BE
330
19F
330
1B2
 92
        7
 72
     0
 73
     1
 93
        4
 10
869.7589143034765
 20
549.9434140619694
 10
869.458914303477
 20
549.9434140619695
 10
869.458914303477
 20
544.1022960494262
 10
869.7589143034765
 20
543.8022960494262
 97
        4
330
1B9
330
1B2
330
1AA
330
68C
 92
        7
 72
     0
 73
     1
 93
        4
 10
869.458914303477
 20
544.1022960494266
 10
868.7589143034768
 20
544.8022960494262
 10
868.758914303477
 20
535.9434140619693
 10
869.4589143034768
 20
535.9434140619693
 97
        4
330
19F
330
1BE
330
1C0
330
1B2
 92
        7
 72
     0
 73
     1
 93
        4
 10
869.7589143034765
 20
543.8022960494266
 10
869.458914303477
 20
544.1022960494264
 10
869.458914303477
 20
535.9434140619693
 10
869.7589143034765
 20
535.9434140619693
 97
        4
330
1AA
330
1B2
330
1C0
330
68C
 92
        7
 72
     0
 73
     1
 93
        4
 10
869.458914303477
 20
535.9434140619695
 10
868.7589143034768
 20
535.9434140619695
 10
868.7589143034768
 20
527.084532074512
 10
869.4589143034768
 20
527.7845320745123
 97
        4
330
1C0
330
1BE
330
1A0
330
1B2
 92
        7
 72
     0
 73
     1
 93
        4
 10
869.7589143034765
 20
535.9434140619695
 10
869.458914303477
 20
535.9434140619695
 10
869.458914303477
 20
527.7845320745123
 10
869.7589143034766
 20
528.084532074512
 97
        4
330
1C0
330
1B2
330
1AC
330
68C
 92
        7
 72
     0
 73
     1
 93
        4
 10
869.4589143034766
 20
527.7845320745121
 10
868.758914303477
 20
527.0845320745125
 10
868.758914303477
 20
522.6434140619696
 10
869.4589143034768
 20
521.9434140619693
 97
        4
330
1A0
330
1BE
330
1B3
330
1B2
 92
        7
 72
     0
 73
     1
 93
        4
 10
869.7589143034766
 20
528.084532074512
 10
869.458914303477
 20
527.7845320745123
 10
869.458914303477
 20
521.9434140619694
 10
869.7589143034765
 20
521.9434140619694
 97
        4
330
1AC
330
1B2
330
1B4
330
68C
 75
     0
 76
     0
 52
45.0
 41
6.0
 77
     0
 78
     1
 53
45.0
 43
0.0
 44
0.0
 45
-4.242640687119284
 46
4.242640687119285
 79
     0
 47
0.049002
 98
        8
 10
869.227243
 20
547.839399
 10
869.717453
 20
547.545389
 10
869.08018
 20
542.547208
 10
869.717453
 20
542.59621
 10
869.031157
 20
534.559924
 10
869.66843
 20
534.853934
 10
869.08018
 20
526.719643
 10
869.717453
 20
527.258662
  0
HATCH
  5
C8
100
AcDbEntity
  8
HATCH
100
AcDbHatch
 10
0.0
 20
0.0
 30
0.0
210
0.0
220
0.0
230
1.0
  2
_U
 70
     0
 71
     1
 91
       19
 92
        7
 72
     1
 73
     1
 93
       16
 10
869.7589143034766
 20
599.9434140619696
 42
0.0
 10
867.7589143034765
 20
601.9434140619696
 42
0.0
 10
815.7589143034769
 20
601.9434140619696
 42
0.0
 10
815.7589143034766
 20
589.9434140619696
 42
0.0
 10
809.7589143034767
 20
589.9434140619696
 42
0.0
 10
809.7589143034767
 20
539.9434140619693
 42
0.0
 10
826.758914303477
 20
539.9434140619693
 42
-0.4142135623730951
 10
830.7589143034771
 20
535.9434140619693
 42
0.0
 10
830.7589143034769
 20
495.9434140619694
 42
0.0
 10
869.7589143034765
 20
495.9434140619693
 42
0.0
 10
869.7589143034765
 20
521.9434140619694
 42
0.0
 10
869.458914303477
 20
521.9434140619695
 42
0.0
 10
868.758914303477
 20
522.6434140619693
 42
0.0
 10
868.7589143034768
 20
549.2434140619693
 42
0.0
 10
869.458914303477
 20
549.9434140619694
 42
0.0
 10
869.7589143034765
 20
549.9434140619694
 42
0.0
 97
       15
330
689
330
68E
330
664
330
682
330
68F
330
1C2
330
189
330
139
330
14A
330
68C
330
1B4
330
1B3
330
1BE
330
1B8
330
1B9
 92
       22
 72
     1
 73
     1
 93
        4
 10
830.7589143034771
 20
535.9434140619693
 42
-0.4142135623730868
 10
826.7589143034772
 20
531.9434140619693
 42
0.0
 10
826.7589143034774
 20
495.9434140619693
 42
0.0
 10
830.7589143034771
 20
495.9434140619693
 42
0.0
 97
        4
330
189
330
137
330
14A
330
139
 92
       23
 72
     0
 73
     1
 93
        4
 10
826.7589143034772
 20
531.9434140619693
 10
822.7589143034771
 20
531.9434140619693
 10
822.7589143034771
 20
495.9434140619693
 10
826.7589143034772
 20
495.9434140619694
 97
        4
330
1C1
330
13A
330
14A
330
137
 92
       23
 72
     0
 73
     1
 93
        4
 10
822.7589143034773
 20
531.9434140619693
 10
809.7589143034767
 20
531.9434140619693
 10
809.7589143034767
 20
495.9434140619694
 10
822.7589143034769
 20
495.9434140619693
 97
        4
330
1C1
330
68F
330
14A
330
13A
 92
       23
 72
     0
 73
     1
 93
        4
 10
822.7589143034771
 20
475.9434140619695
 10
809.7589143034769
 20
475.9434140619695
 10
809.7589143034769
 20
439.9434140619693
 10
822.7589143034769
 20
439.9434140619693
 97
        4
330
149
330
68F
330
185
330
13A
 92
       23
 72
     0
 73
     1
 93
        4
 10
826.758914303477
 20
475.9434140619694
 10
822.7589143034769
 20
475.9434140619694
 10
822.7589143034769
 20
439.9434140619694
 10
826.758914303477
 20
439.9434140619694
 97
        4
330
149
330
13A
330
185
330
137
 92
       22
 72
     1
 73
     1
 93
        4
 10
830.7589143034771
 20
475.9434140619694
 42
0.0
 10
826.7589143034772
 20
475.9434140619694
 42
0.0
 10
826.758914303477
 20
439.9434140619693
 42
-0.4142135623730951
 10
830.7589143034771
 20
435.9434140619693
 42
0.0
 97
        4
330
149
330
137
330
14D
330
133
 92
        7
 72
     1
 73
     1
 93
       11
 10
844.7589143034765
 20
475.9434140619695
 42
0.0
 10
830.7589143034771
 20
475.9434140619695
 42
0.0
 10
830.7589143034771
 20
435.9434140619693
 42
-0.4142135623730951
 10
826.758914303477
 20
431.9434140619693
 42
0.0
 10
809.7589143034767
 20
431.9434140619693
 42
0.0
 10
809.7589143034769
 20
395.4434140619694
 42
0.0
 10
813.7589143034769
 20
395.4434140619694
 42
0.0
 10
814.7589143034769
 20
395.4434140619694
 42
0.0
 10
814.7589143034769
 20
394.4434140619694
 42
0.0
 10
814.7589143034768
 20
385.9434140619694
 42
0.0
 10
844.7589143034763
 20
385.9434140619695
 42
0.0
 97
       11
330
149
330
133
330
14D
330
184
330
68F
330
513
330
4FF
330
4FE
330
515
330
67C
330
136
 92
        7
 72
     0
 73
     1
 93
       26
 10
869.7589143034766
 20
475.9434140619693
 10
852.7589143034763
 20
475.9434140619694
 10
852.7589143034763
 20
389.9434140619693
 10
859.7589143034769
 20
389.9434140619694
 10
859.7589143034769
 20
394.9434140619694
 10
859.7589143034769
 20
395.9434140619692
 10
860.7589143034768
 20
395.9434140619692
 10
869.2589143034771
 20
395.9434140619694
 10
869.7589143034768
 20
396.4434140619692
 10
869.7589143034766
 20
408.9434140619694
 10
862.4589143034768
 20
408.9434140619694
 10
859.9589143034769
 20
408.9434140619694
 10
859.9589143034767
 20
409.6434140619694
 10
858.4589143034769
 20
409.6434140619694
 10
857.1310086843409
 20
411.9434140619696
 10
858.458914303477
 20
414.2434140619694
 10
859.9589143034769
 20
414.2434140619693
 10
859.9589143034769
 20
414.9434140619694
 10
862.4589143034766
 20
414.9434140619694
 10
869.7589143034765
 20
414.9434140619694
 10
869.7589143034765
 20
421.9434140619694
 10
869.458914303477
 20
421.9434140619694
 10
868.758914303477
 20
422.6434140619693
 10
868.7589143034767
 20
449.2434140619691
 10
869.458914303477
 20
449.9434140619694
 10
869.7589143034765
 20
449.9434140619693
 97
       24
330
149
330
138
330
669
330
4BB
330
4B6
330
4B5
330
4BC
330
4AD
330
12A
330
475
330
45F
330
46B
330
460
330
469
330
468
330
462
330
461
330
476
330
68C
330
178
330
177
330
181
330
17C
330
17D
 92
        7
 72
     1
 73
     1
 93
        4
 10
848.7589143034764
 20
475.9434140619695
 42
0.0
 10
844.7589143034763
 20
475.9434140619695
 42
0.0
 10
844.7589143034763
 20
385.9434140619694
 42
-0.4142135623731076
 10
848.7589143034764
 20
389.9434140619693
 42
0.0
 97
        4
330
149
330
136
330
14B
330
132
 92
        7
 72
     0
 73
     1
 93
        4
 10
852.7589143034765
 20
475.9434140619695
 10
848.7589143034764
 20
475.9434140619695
 10
848.7589143034764
 20
389.9434140619693
 10
852.7589143034765
 20
389.9434140619693
 97
        4
330
149
330
132
330
669
330
138
 92
       23
 72
     0
 73
     1
 93
        4
 10
869.458914303477
 20
427.7845320745122
 10
868.758914303477
 20
427.0845320745122
 10
868.7589143034768
 20
422.6434140619695
 10
869.4589143034768
 20
421.9434140619695
 97
        4
330
164
330
181
330
177
330
176
 92
       23
 72
     0
 73
     1
 93
        4
 10
869.7589143034766
 20
428.084532074512
 10
869.458914303477
 20
427.7845320745123
 10
869.458914303477
 20
421.9434140619694
 10
869.7589143034765
 20
421.9434140619694
 97
        4
330
170
330
176
330
178
330
68C
 92
       23
 72
     0
 73
     1
 93
        4
 10
869.4589143034768
 20
435.9434140619693
 10
868.758914303477
 20
435.9434140619693
 10
868.758914303477
 20
427.0845320745121
 10
869.4589143034768
 20
427.7845320745122
 97
        4
330
183
330
181
330
164
330
176
 92
       23
 72
     0
 73
     1
 93
        4
 10
869.7589143034768
 20
435.9434140619693
 10
869.458914303477
 20
435.9434140619693
 10
869.458914303477
 20
427.7845320745122
 10
869.7589143034766
 20
428.0845320745119
 97
        4
330
183
330
176
330
170
330
68C
 92
       23
 72
     0
 73
     1
 93
        4
 10
869.4589143034768
 20
444.1022960494264
 10
868.758914303477
 20
444.8022960494267
 10
868.7589143034768
 20
435.9434140619693
 10
869.458914303477
 20
435.9434140619693
 97
        4
330
163
330
181
330
183
330
176
 92
       23
 72
     0
 73
     1
 93
        4
 10
869.7589143034768
 20
443.8022960494263
 10
869.458914303477
 20
444.1022960494263
 10
869.458914303477
 20
435.9434140619693
 10
869.7589143034766
 20
435.9434140619693
 97
        4
330
16E
330
176
330
183
330
68C
 92
       22
 72
     0
 73
     1
 93
        4
 10
869.4589143034766
 20
449.9434140619692
 10
868.7589143034768
 20
449.2434140619693
 10
868.7589143034768
 20
444.8022960494265
 10
869.4589143034768
 20
444.1022960494266
 97
        4
330
17C
330
181
330
163
330
176
 92
       22
 72
     0
 73
     1
 93
        4
 10
869.7589143034766
 20
449.9434140619694
 10
869.458914303477
 20
449.9434140619694
 10
869.458914303477
 20
444.1022960494264
 10
869.7589143034765
 20
443.8022960494267
 97
        4
330
17D
330
176
330
16E
330
68C
 75
     0
 76
     0
 52
45.0
 41
6.0
 77
     0
 78
     1
 53
45.0
 43
0.0
 44
0.0
 45
-4.242640687119284
 46
4.242640687119285
 79
     0
 47
0.050715
 98
       19
 10
844.012279
 20
555.973858
 10
829.763626
 20
507.659162
 10
823.617148
 20
507.100611
 10
816.632513
 20
507.100611
 10
818.308826
 20
457.389538
 10
823.896531
 20
457.668813
 10
829.484239
 20
457.668813
 10
839.262729
 20
456.272433
 10
858.540319
 20
455.155332
 10
847.364905
 20
448.731991
 10
852.114455
 20
448.731991
 10
869.143939
 20
423.715055
 10
869.549818
 20
424.171491
 10
869.296144
 20
431.525181
 10
869.549818
 20
431.778757
 10
869.093205
 20
438.06743
 10
869.65129
 20
438.219575
 10
869.24541
 20
447.703296
 10
869.702024
 20
446.029698
  0
HATCH
  5
C9
100
AcDbEntity
  8
HATCH
100
AcDbHatch
 10
0.0
 20
0.0
 30
0.0
210
0.0
220
0.0
230
1.0
  2
_U
 70
     0
 71
     1
 91
       20
 92
        7
 72
     1
 73
     1
 93
       25
 10
861.7589143034765
 20
208.5946808615498
 42
-0.4142135623730951
 10
865.7589143034764
 20
212.5946808615498
 42
0.0
 10
869.7589143034768
 20
212.5946808615498
 42
0.0
 10
869.7589143034768
 20
221.9434140619694
 42
0.0
 10
869.458914303477
 20
221.9434140619695
 42
0.0
 10
868.758914303477
 20
222.6434140619692
 42
0.0
 10
868.758914303477
 20
249.2434140619694
 42
0.0
 10
869.458914303477
 20
249.9434140619694
 42
0.0
 10
869.7589143034768
 20
249.9434140619694
 42
0.0
 10
869.7589143034768
 20
275.9434140619692
 42
0.0
 10
830.7589143034771
 20
275.9434140619692
 42
0.0
 10
830.7589143034771
 20
235.9434140619693
 42
-0.4142135623730951
 10
826.758914303477
 20
231.9434140619692
 42
0.0
 10
809.7589143034767
 20
231.9434140619692
 42
0.0
 10
809.7589143034769
 20
212.5946808615498
 42
0.0
 10
813.7589143034764
 20
212.5946808615498
 42
-0.4142135623730951
 10
817.7589143034763
 20
208.5946808615498
 42
-0.4142135623730951
 10
813.7589143034764
 20
204.5946808615498
 42
0.0
 10
809.7589143034769
 20
204.5946808615498
 42
0.0
 10
809.7589143034769
 20
201.9434140619689
 42
0.0
 10
811.7589143034768
 20
199.9434140619691
 42
0.0
 10
867.7589143034765
 20
199.9434140619691
 42
0.0
 10
869.7589143034768
 20
201.9434140619694
 42
0.0
 10
869.7589143034768
 20
204.5946808615498
 42
0.0
 10
865.7589143034764
 20
204.5946808615498
 42
-0.4142135623730951
 97
       20
330
5B5
330
5B2
330
129
330
541
330
540
330
54B
330
545
330
546
330
11C
330
114
330
123
330
125
330
4C0
330
5B4
330
5B6
330
5B3
330
68B
330
68D
330
688
330
5B1
 92
        7
 72
     0
 73
     1
 93
        4
 10
822.7589143034771
 20
275.9434140619692
 10
809.7589143034769
 20
275.9434140619693
 10
809.7589143034769
 20
239.9434140619692
 10
822.7589143034769
 20
239.9434140619692
 97
        4
330
11C
330
4C0
330
124
330
115
 92
        7
 72
     0
 73
     1
 93
        4
 10
826.7589143034774
 20
275.9434140619692
 10
822.7589143034771
 20
275.9434140619693
 10
822.7589143034771
 20
239.9434140619693
 10
826.7589143034772
 20
239.9434140619693
 97
        4
330
11C
330
115
330
124
330
113
 92
       22
 72
     1
 73
     1
 93
        4
 10
830.7589143034771
 20
275.9434140619692
 42
0.0
 10
826.7589143034772
 20
275.9434140619692
 42
0.0
 10
826.7589143034772
 20
239.9434140619693
 42
-0.4142135623730868
 10
830.7589143034771
 20
235.9434140619693
 42
0.0
 97
        4
330
11C
330
113
330
123
330
114
 92
        7
 72
     0
 73
     1
 93
        4
 10
822.7589143034769
 20
331.9434140619692
 10
809.7589143034767
 20
331.9434140619692
 10
809.7589143034769
 20
295.9434140619693
 10
822.7589143034771
 20
295.9434140619693
 97
        4
330
11F
330
4C0
330
11B
330
115
 92
       23
 72
     0
 73
     1
 93
        4
 10
826.7589143034772
 20
331.9434140619693
 10
822.7589143034771
 20
331.9434140619692
 10
822.7589143034771
 20
295.9434140619693
 10
826.758914303477
 20
295.9434140619693
 97
        4
330
11F
330
115
330
11B
330
113
 92
       22
 72
     1
 73
     1
 93
        4
 10
830.7589143034771
 20
335.9434140619693
 42
-0.4142135623730951
 10
826.758914303477
 20
331.9434140619692
 42
0.0
 10
826.7589143034772
 20
295.9434140619693
 42
0.0
 10
830.7589143034771
 20
295.9434140619693
 42
0.0
 97
        4
330
11D
330
113
330
11B
330
110
 92
        7
 72
     1
 73
     1
 93
       11
 10
830.7589143034771
 20
295.9434140619693
 42
0.0
 10
844.7589143034761
 20
295.9434140619693
 42
0.0
 10
844.7589143034765
 20
385.9434140619694
 42
0.0
 10
814.7589143034768
 20
385.9434140619694
 42
0.0
 10
814.7589143034769
 20
377.4434140619694
 42
0.0
 10
814.7589143034769
 20
376.4434140619694
 42
0.0
 10
813.7589143034769
 20
376.4434140619694
 42
0.0
 10
809.7589143034769
 20
376.4434140619694
 42
0.0
 10
809.7589143034769
 20
339.9434140619693
 42
0.0
 10
826.758914303477
 20
339.9434140619693
 42
-0.4142135623730951
 10
830.7589143034771
 20
335.9434140619693
 42
0.0
 97
       11
330
67C
330
515
330
505
330
506
330
514
330
4C0
330
11E
330
11D
330
110
330
11B
330
136
 92
        7
 72
     1
 73
     1
 93
        4
 10
848.7589143034766
 20
381.9434140619695
 42
-0.4142135623731158
 10
844.7589143034763
 20
385.9434140619694
 42
0.0
 10
844.7589143034763
 20
295.9434140619693
 42
0.0
 10
848.7589143034764
 20
295.9434140619693
 42
0.0
 97
        4
330
14B
330
136
330
11B
330
132
 92
        7
 72
     0
 73
     1
 93
        4
 10
852.7589143034765
 20
381.9434140619694
 10
848.7589143034764
 20
381.9434140619694
 10
848.7589143034764
 20
295.9434140619693
 10
852.7589143034763
 20
295.9434140619692
 97
        4
330
668
330
132
330
11B
330
138
 92
        7
 72
     0
 73
     1
 93
       26
 10
852.7589143034763
 20
295.9434140619693
 10
869.7589143034768
 20
295.9434140619693
 10
869.7589143034768
 20
321.9434140619694
 10
869.458914303477
 20
321.9434140619694
 10
868.758914303477
 20
322.6434140619693
 10
868.758914303477
 20
349.2434140619694
 10
869.458914303477
 20
349.9434140619694
 10
869.7589143034768
 20
349.9434140619694
 10
869.7589143034768
 20
356.9434140619694
 10
862.4589143034768
 20
356.9434140619694
 10
859.9589143034769
 20
356.9434140619694
 10
859.9589143034767
 20
357.6434140619695
 10
858.4589143034772
 20
357.6434140619695
 10
857.1310086843409
 20
359.9434140619694
 10
858.4589143034769
 20
362.2434140619694
 10
859.9589143034771
 20
362.2434140619694
 10
859.9589143034767
 20
362.9434140619694
 10
862.4589143034766
 20
362.9434140619694
 10
869.7589143034768
 20
362.9434140619694
 10
869.7589143034766
 20
375.4434140619696
 10
869.2589143034771
 20
375.9434140619694
 10
860.758914303477
 20
375.9434140619694
 10
859.758914303477
 20
375.9434140619696
 10
859.758914303477
 20
376.9434140619694
 10
859.758914303477
 20
381.9434140619694
 10
852.7589143034765
 20
381.9434140619694
 97
       24
330
FA
330
F9
330
103
330
FE
330
FF
330
129
330
490
330
47B
330
485
330
47C
330
482
330
483
330
47A
330
479
330
48F
330
45E
330
4AE
330
4BD
330
4B7
330
4B8
330
4BB
330
668
330
138
330
11B
 92
       23
 72
     0
 73
     1
 93
        4
 10
869.458914303477
 20
227.7845320745123
 10
868.758914303477
 20
227.0845320745123
 10
868.758914303477
 20
222.6434140619696
 10
869.458914303477
 20
221.9434140619693
 97
        4
330
52D
330
54B
330
540
330
53F
 92
       23
 72
     0
 73
     1
 93
        4
 10
869.7589143034768
 20
228.0845320745123
 10
869.458914303477
 20
227.7845320745122
 10
869.458914303477
 20
221.9434140619694
 10
869.7589143034768
 20
221.9434140619694
 97
        4
330
539
330
53F
330
541
330
129
 92
       23
 72
     0
 73
     1
 93
        4
 10
869.458914303477
 20
235.9434140619694
 10
868.7589143034768
 20
235.9434140619694
 10
868.758914303477
 20
227.0845320745122
 10
869.4589143034768
 20
227.7845320745124
 97
        4
330
54D
330
54B
330
52D
330
53F
 92
       23
 72
     0
 73
     1
 93
        4
 10
869.458914303477
 20
227.7845320745125
 10
869.7589143034768
 20
228.0845320745122
 10
869.7589143034768
 20
235.9434140619694
 10
869.458914303477
 20
235.9434140619694
 97
        4
330
54D
330
53F
330
539
330
129
 92
       22
 72
     0
 73
     1
 93
        4
 10
868.758914303477
 20
235.9434140619694
 10
869.4589143034768
 20
235.9434140619694
 10
869.4589143034768
 20
244.1022960494267
 10
868.7589143034768
 20
244.8022960494264
 97
        4
330
52C
330
54B
330
54D
330
53F
 92
       23
 72
     0
 73
     1
 93
        4
 10
869.458914303477
 20
235.9434140619694
 10
869.7589143034768
 20
235.9434140619694
 10
869.7589143034766
 20
243.8022960494262
 10
869.458914303477
 20
244.1022960494264
 97
        4
330
537
330
53F
330
54D
330
129
 92
       22
 72
     0
 73
     1
 93
        4
 10
869.4589143034768
 20
249.9434140619693
 10
868.758914303477
 20
249.2434140619694
 10
868.7589143034768
 20
244.8022960494264
 10
869.4589143034768
 20
244.1022960494267
 97
        4
330
545
330
54B
330
52C
330
53F
 92
       22
 72
     0
 73
     1
 93
        4
 10
869.7589143034766
 20
249.9434140619694
 10
869.458914303477
 20
249.9434140619694
 10
869.458914303477
 20
244.1022960494262
 10
869.7589143034768
 20
243.8022960494263
 97
        4
330
546
330
53F
330
537
330
129
 92
       24
 93
        4
 72
     1
 10
834.775855
 20
209.088082
 11
848.204426
 21
209.088082
 72
     1
 10
848.204426
 20
209.088082
 11
848.204426
 21
212.088082
 72
     1
 10
848.204426
 20
212.088082
 11
834.775855
 21
212.088082
 72
     1
 10
834.775855
 20
212.088082
 11
834.775855
 21
209.088082
 97
        1
330
577
 75
     0
 76
     0
 52
45.0
 41
6.0
 77
     0
 78
     1
 53
45.0
 43
0.0
 44
0.0
 45
-4.242640687119284
 46
4.242640687119285
 79
     0
 47
0.044326
 98
       19
 10
856.599553
 20
208.543614
 10
818.47971
 20
255.556128
 10
824.915526
 20
256.7933
 10
829.123561
 20
257.040734
 10
818.47971
 20
306.280158
 10
825.163058
 20
306.280158
 10
829.371093
 20
306.032724
 10
836.797036
 20
306.775026
 10
846.945828
 20
307.51733
 10
851.401395
 20
307.51733
 10
860.064996
 20
308.012198
 10
869.280913
 20
225.728606
 10
869.679999
 20
226.260514
 10
869.280913
 20
228.299494
 10
869.591314
 20
228.787077
 10
869.014856
 20
236.987323
 10
869.591314
 20
237.341928
 10
869.236569
 20
246.517339
 10
869.635658
 20
246.783293
  0
HATCH
  5
CA
100
AcDbEntity
  8
HATCH
100
AcDbHatch
 10
0.0
 20
0.0
 30
0.0
210
0.0
220
0.0
230
1.0
  2
_U
 70
     0
 71
     1
 91
        3
 92
        7
 72
     0
 73
     1
 93
        4
 10
872.7589143034762
 20
320.9434140619694
 10
869.7589143034768
 20
320.9434140619694
 10
869.7589143034768
 20
295.9434140619693
 10
872.7589143034762
 20
295.9434140619693
 97
        4
330
102
330
129
330
117
330
CB
 92
        7
 72
     0
 73
     1
 93
        4
 10
872.7589143034764
 20
275.9434140619692
 10
869.7589143034768
 20
275.9434140619692
 10
869.7589143034768
 20
250.9434140619694
 10
872.7589143034762
 20
250.9434140619694
 97
        4
330
119
330
129
330
54A
330
CB
 92
        7
 72
     0
 73
     1
 93
        4
 10
869.7589143034766
 20
201.9434140619691
 10
872.7589143034762
 20
201.9434140619691
 10
872.7589143034762
 20
220.9434140619694
 10
869.7589143034768
 20
220.9434140619694
 97
        4
330
549
330
129
330
45C
330
45A
 75
     0
 76
     0
 52
135.0
 41
0.8
 77
     0
 78
     1
 53
135.0
 43
0.0
 44
0.0
 45
-0.5656854249492382
 46
-0.565685424949238
 79
     0
 47
0.247434
 98
        3
 10
872.194038
 20
314.198055
 10
872.194038
 20
266.69067
 10
871.203911
 20
210.275654
  0
LINE
  5
CB
102
{ACAD_REACTORS
330
CA
102
}
100
AcDbEntity
  8
M02
100
AcDbLine
 10
872.758914
 20
321.943414
 30
0.0
 11
872.758914
 21
249.943414
 31
0.0
  0
LINE
  5
CD
100
AcDbEntity
  8
M04
100
AcDbLine
 10
876.758914
 20
332.943414
 30
0.0
 11
876.758914
 21
238.943414
 31
0.0
  0
HATCH
  5
CE
100
AcDbEntity
  8
HATCH
100
AcDbHatch
 10
0.0
 20
0.0
 30
0.0
210
0.0
220
0.0
230
1.0
  2
_U
 70
     0
 71
     0
 91
        2
 92
        7
 72
     0
 73
     1
 93
       11
 10
869.7589143034768
 20
343.8022960494266
 10
869.7589143034768
 20
349.2434140619692
 10
870.4589143034768
 20
349.9434140619694
 10
876.0589143034771
 20
349.9434140619694
 10
876.7589143034768
 20
349.2434140619694
 10
876.7589143034768
 20
346.4434140619692
 10
875.758914303477
 20
345.4434140619694
 10
875.7589143034769
 20
343.4434140619696
 10
876.7589143034768
 20
342.4434140619701
 10
876.7589143034768
 20
339.4434140619694
 10
874.117796290934
 20
339.4434140619694
 97
        0
 92
        7
 72
     0
 73
     1
 93
       11
 10
870.4589143034768
 20
321.9434140619694
 10
869.758914303477
 20
322.6434140619695
 10
869.758914303477
 20
328.0845320745125
 10
874.117796290934
 20
332.4434140619694
 10
876.7589143034768
 20
332.4434140619694
 10
876.7589143034768
 20
329.4434140619687
 10
875.7589143034769
 20
328.443414061969
 10
875.758914303477
 20
326.4434140619694
 10
876.758914303477
 20
325.4434140619697
 10
876.7589143034768
 20
322.6434140619695
 10
876.0589143034771
 20
321.9434140619696
 97
        0
 75
     0
 76
     0
 52
225.0
 41
1.5
 77
     0
 78
     1
 53
135.0
 43
1117.245389
 44
946.390655
 45
1.060660171779821
 46
1.060660171779821
 79
     0
 47
0.151518
 98
        2
 10
873.074877
 20
345.467484
 10
872.468806
 20
326.823073
  0
LINE
  5
CF
100
AcDbEntity
  8
M05
100
AcDbLine
 10
875.758914
 20
345.443414
 30
0.0
 11
876.758914
 21
346.443414
 31
0.0
  0
LINE
  5
D1
100
AcDbEntity
  8
M05
100
AcDbLine
 10
875.758914
 20
343.443414
 30
0.0
 11
876.758914
 21
342.443414
 31
0.0
  0
LINE
  5
D2
100
AcDbEntity
  8
M05
100
AcDbLine
 10
875.758914
 20
345.443414
 30
0.0
 11
875.758914
 21
343.443414
 31
0.0
  0
LINE
  5
D3
100
AcDbEntity
  8
M05
100
AcDbLine
 10
875.758914
 20
326.443414
 30
0.0
 11
876.758914
 21
325.443414
 31
0.0
  0
LINE
  5
D4
100
AcDbEntity
  8
M05
100
AcDbLine
 10
875.758914
 20
328.443414
 30
0.0
 11
876.758914
 21
329.443414
 31
0.0
  0
LINE
  5
D5
100
AcDbEntity
  8
M05
100
AcDbLine
 10
875.758914
 20
326.443414
 30
0.0
 11
875.758914
 21
328.443414
 31
0.0
  0
LINE
  5
D6
100
AcDbEntity
  8
M04
100
AcDbLine
 10
894.58682
 20
335.943414
 30
0.0
 11
893.258914
 21
333.643414
 31
0.0
  0
LINE
  5
D7
100
AcDbEntity
  8
M04
100
AcDbLine
 10
893.258914
 20
338.243414
 30
0.0
 11
894.58682
 21
335.943414
 31
0.0
  0
LINE
  5
D8
100
AcDbEntity
  8
M04
100
AcDbLine
 10
893.258914
 20
338.243414
 30
0.0
 11
893.258914
 21
333.643414
 31
0.0
  0
LINE
  5
D9
100
AcDbEntity
  8
M04
100
AcDbLine
 10
888.197796
 20
338.943414
 30
0.0
 11
891.758914
 21
338.943414
 31
0.0
  0
LINE
  5
DA
100
AcDbEntity
  8
M04
100
AcDbLine
 10
888.897796
 20
338.243414
 30
0.0
 11
893.258914
 21
338.243414
 31
0.0
  0
LINE
  5
DB
100
AcDbEntity
  8
M04
100
AcDbLine
 10
888.197796
 20
332.943414
 30
0.0
 11
891.758914
 21
332.943414
 31
0.0
  0
LINE
  5
DC
100
AcDbEntity
  8
M04
100
AcDbLine
 10
888.897796
 20
333.643414
 30
0.0
 11
893.258914
 21
333.643414
 31
0.0
  0
LINE
  5
DD
100
AcDbEntity
  8
M05
100
AcDbLine
 10
888.897796
 20
333.643414
 30
0.0
 11
888.197796
 21
332.943414
 31
0.0
  0
LINE
  5
DE
100
AcDbEntity
  8
M05
100
AcDbLine
 10
888.197796
 20
338.943414
 30
0.0
 11
888.897796
 21
338.243414
 31
0.0
  0
LINE
  5
DF
100
AcDbEntity
  8
M05
100
AcDbLine
 10
876.117796
 20
333.643414
 30
0.0
 11
888.897796
 21
333.643414
 31
0.0
  0
LINE
  5
E0
100
AcDbEntity
  8
M05
100
AcDbLine
 10
876.117796
 20
338.243414
 30
0.0
 11
888.897796
 21
338.243414
 31
0.0
  0
LINE
  5
E1
100
AcDbEntity
  8
M05
100
AcDbLine
 10
888.197796
 20
338.943414
 30
0.0
 11
888.197796
 21
332.943414
 31
0.0
  0
LINE
  5
E2
100
AcDbEntity
  8
M04
100
AcDbLine
 10
891.758914
 20
338.943414
 30
0.0
 11
891.758914
 21
332.943414
 31
0.0
  0
LINE
  5
E3
100
AcDbEntity
  8
M05
100
AcDbLine
 10
888.897796
 20
338.243414
 30
0.0
 11
888.897796
 21
333.643414
 31
0.0
  0
LINE
  5
E4
102
{ACAD_REACTORS
330
C5
102
}
100
AcDbEntity
  8
M05
  6
HIDDEN
100
AcDbLine
 10
869.458914
 20
344.102296
 30
0.0
 11
868.758914
 21
344.802296
 31
0.0
  0
LINE
  5
E6
102
{ACAD_REACTORS
330
C5
102
}
100
AcDbEntity
  8
M05
  6
HIDDEN
100
AcDbLine
 10
869.458914
 20
327.784532
 30
0.0
 11
868.758914
 21
327.084532
 31
0.0
  0
LINE
  5
E7
100
AcDbEntity
  8
M05
100
AcDbLine
 10
876.117796
 20
338.943414
 30
0.0
 11
876.117796
 21
332.943414
 31
0.0
  0
LINE
  5
E8
100
AcDbEntity
  8
M05
100
AcDbLine
 10
871.617796
 20
335.393414
 30
0.0
 11
871.617796
 21
329.943414
 31
0.0
  0
LINE
  5
E9
100
AcDbEntity
  8
M05
100
AcDbLine
 10
870.897796
 20
335.393414
 30
0.0
 11
870.897796
 21
329.943414
 31
0.0
  0
LINE
  5
EA
100
AcDbEntity
  8
M05
100
AcDbLine
 10
870.897796
 20
335.393414
 30
0.0
 11
872.397796
 21
335.393414
 31
0.0
  0
LINE
  5
EB
100
AcDbEntity
  8
M05
100
AcDbLine
 10
870.897796
 20
336.493414
 30
0.0
 11
872.397796
 21
336.493414
 31
0.0
  0
LINE
  5
EC
100
AcDbEntity
  8
M05
100
AcDbLine
 10
872.397796
 20
336.493414
 30
0.0
 11
872.397796
 21
335.393414
 31
0.0
  0
LINE
  5
ED
100
AcDbEntity
  8
M05
100
AcDbLine
 10
874.117796
 20
332.443414
 30
0.0
 11
876.758914
 21
332.443414
 31
0.0
  0
LINE
  5
EE
100
AcDbEntity
  8
M05
100
AcDbLine
 10
874.117796
 20
339.443414
 30
0.0
 11
876.758914
 21
339.443414
 31
0.0
  0
LINE
  5
EF
100
AcDbEntity
  8
M05
100
AcDbLine
 10
871.617796
 20
341.943414
 30
0.0
 11
871.617796
 21
336.493414
 31
0.0
  0
LINE
  5
F0
102
{ACAD_REACTORS
330
C5
102
}
100
AcDbEntity
  8
M05
100
AcDbLine
 10
874.617796
 20
338.943414
 30
0.0
 11
869.458914
 21
344.102296
 31
0.0
  0
LINE
  5
F1
100
AcDbEntity
  8
M05
100
AcDbLine
 10
870.897796
 20
341.943414
 30
0.0
 11
871.617796
 21
341.943414
 31
0.0
  0
LINE
  5
F2
102
{ACAD_REACTORS
330
C5
102
}
100
AcDbEntity
  8
M05
100
AcDbLine
 10
874.617796
 20
332.943414
 30
0.0
 11
869.458914
 21
327.784532
 31
0.0
  0
LINE
  5
F3
100
AcDbEntity
  8
M05
100
AcDbLine
 10
874.617796
 20
338.943414
 30
0.0
 11
874.617796
 21
332.943414
 31
0.0
  0
LINE
  5
F4
100
AcDbEntity
  8
M05
100
AcDbLine
 10
874.617796
 20
338.943414
 30
0.0
 11
888.197796
 21
338.943414
 31
0.0
  0
LINE
  5
F5
100
AcDbEntity
  8
M05
100
AcDbLine
 10
874.617796
 20
332.943414
 30
0.0
 11
888.197796
 21
332.943414
 31
0.0
  0
LINE
  5
F6
100
AcDbEntity
  8
M05
100
AcDbLine
 10
870.897796
 20
329.943414
 30
0.0
 11
871.617796
 21
329.943414
 31
0.0
  0
LINE
  5
F7
100
AcDbEntity
  8
M05
100
AcDbLine
 10
870.897796
 20
341.943414
 30
0.0
 11
870.897796
 21
336.493414
 31
0.0
  0
LINE
  5
F8
102
{ACAD_REACTORS
330
C5
102
}
100
AcDbEntity
  8
M05
  6
HIDDEN
100
AcDbLine
 10
869.458914
 20
349.943414
 30
0.0
 11
869.458914
 21
321.943414
 31
0.0
  0
LINE
  5
F9
102
{ACAD_REACTORS
330
C9
330
C5
102
}
100
AcDbEntity
  8
M05
  6
HIDDEN
100
AcDbLine
 10
869.458914
 20
321.943414
 30
0.0
 11
868.758914
 21
322.643414
 31
0.0
  0
LINE
  5
FA
102
{ACAD_REACTORS
330
C9
330
C5
102
}
100
AcDbEntity
  8
M05
  6
HIDDEN
100
AcDbLine
 10
870.458914
 20
321.943414
 30
0.0
 11
869.458914
 21
321.943414
 31
0.0
  0
LINE
  5
FB
100
AcDbEntity
  8
M05
100
AcDbLine
 10
870.458914
 20
321.943414
 30
0.0
 11
869.758914
 21
322.643414
 31
0.0
  0
LINE
  5
FC
100
AcDbEntity
  8
M05
100
AcDbLine
 10
876.058914
 20
321.943414
 30
0.0
 11
876.758914
 21
322.643414
 31
0.0
  0
LINE
  5
FD
100
AcDbEntity
  8
M05
100
AcDbLine
 10
870.458914
 20
321.943414
 30
0.0
 11
876.058914
 21
321.943414
 31
0.0
  0
LINE
  5
FE
102
{ACAD_REACTORS
330
C9
330
C5
102
}
100
AcDbEntity
  8
M05
  6
HIDDEN
100
AcDbLine
 10
869.458914
 20
349.943414
 30
0.0
 11
868.758914
 21
349.243414
 31
0.0
  0
LINE
  5
FF
102
{ACAD_REACTORS
330
C9
330
C5
102
}
100
AcDbEntity
  8
M05
  6
HIDDEN
100
AcDbLine
 10
870.458914
 20
349.943414
 30
0.0
 11
869.458914
 21
349.943414
 31
0.0
  0
LINE
  5
100
100
AcDbEntity
  8
M05
100
AcDbLine
 10
870.458914
 20
349.943414
 30
0.0
 11
869.758914
 21
349.243414
 31
0.0
  0
LINE
  5
101
100
AcDbEntity
  8
M05
100
AcDbLine
 10
876.058914
 20
349.943414
 30
0.0
 11
876.758914
 21
349.243414
 31
0.0
  0
LINE
  5
102
102
{ACAD_REACTORS
330
CA
102
}
100
AcDbEntity
  8
M02
100
AcDbLine
 10
869.758914
 20
320.943414
 30
0.0
 11
872.758914
 21
320.943414
 31
0.0
  0
LINE
  5
103
102
{ACAD_REACTORS
330
C9
330
C5
102
}
100
AcDbEntity
  8
M05
  6
HIDDEN
100
AcDbLine
 10
868.758914
 20
349.243414
 30
0.0
 11
868.758914
 21
322.643414
 31
0.0
  0
LINE
  5
104
100
AcDbEntity
  8
M05
100
AcDbLine
 10
870.458914
 20
349.943414
 30
0.0
 11
876.058914
 21
349.943414
 31
0.0
  0
LINE
  5
105
102
{ACAD_REACTORS
330
C5
102
}
100
AcDbEntity
  8
CENTRE
100
AcDbLine
 10
864.249804
 20
335.943414
 30
0.0
 11
897.328142
 21
335.943414
 31
0.0
  0
LWPOLYLINE
  5
108
100
AcDbEntity
  8
HATCH
 62
     4
100
AcDbPolyline
 90
        3
 70
     0
 43
0.0
 10
877.578341
 20
224.494929
 10
888.494094
 20
216.782472
 10
891.494094
 20
216.782472
1001
ACAD
1000
DSTYLE
1002
{
1070
   144
1040
1.0
1002
}
  0
SOLID
  5
109
100
AcDbEntity
  8
HATCH
 62
     4
100
AcDbTrace
 10
877.289819
 20
224.086572
 30
0.0
 11
875.128201
 21
226.22606
 31
0.0
 12
877.866862
 22
224.903286
 32
0.0
 13
877.866862
 23
224.903286
 33
0.0
1001
ACAD
1000
DSTYLE
1002
{
1070
   144
1040
1.0
1002
}
  0
HATCH
  5
10A
100
AcDbEntity
  8
HATCH
100
AcDbHatch
 10
0.0
 20
0.0
 30
0.0
210
0.0
220
0.0
230
1.0
  2
_U
 70
     0
 71
     1
 91
        4
 92
        7
 72
     0
 73
     1
 93
        4
 10
809.7589143034769
 20
374.9434140619694
 10
806.7589143034766
 20
374.9434140619694
 10
806.7589143034766
 20
353.9434140619693
 10
809.7589143034767
 20
353.9434140619691
 97
        4
330
508
330
4BF
330
120
330
4C0
 92
        7
 72
     0
 73
     1
 93
        4
 10
809.7589143034767
 20
317.9434140619692
 10
806.7589143034769
 20
317.9434140619692
 10
806.7589143034767
 20
295.9434140619693
 10
809.7589143034767
 20
295.9434140619693
 97
        4
330
121
330
4BF
330
118
330
4C0
 92
        7
 72
     0
 73
     1
 93
        4
 10
809.7589143034769
 20
253.9434140619694
 10
809.7589143034767
 20
275.9434140619692
 10
806.7589143034769
 20
275.9434140619692
 10
806.7589143034769
 20
253.9434140619694
 97
        4
330
11A
330
4BF
330
57A
330
4C0
 92
        7
 72
     0
 73
     1
 93
        4
 10
806.7589143034769
 20
217.9434140619691
 10
806.7589143034771
 20
201.9434140619691
 10
809.758914303477
 20
201.9434140619691
 10
809.758914303477
 20
217.9434140619691
 97
        4
330
579
330
4BF
330
685
330
4C0
 75
     0
 76
     0
 52
135.0
 41
0.8
 77
     0
 78
     1
 53
135.0
 43
21.678451
 44
-82.552148
 45
-0.5656854249492382
 46
-0.565685424949238
 79
     0
 47
0.260636
 98
        5
 10
808.771521
 20
369.0049
 10
809.292998
 20
310.883122
 10
809.292998
 20
247.02736
 10
808.250044
 20
268.660128
 10
807.989307
 20
211.059623
  0
ARC
  5
10B
100
AcDbEntity
  8
M03
100
AcDbCircle
 10
848.758914
 20
285.943414
 30
0.0
 40
4.0
100
AcDbArc
 50
270.0
 51
0.0
  0
LINE
  5
10D
100
AcDbEntity
  8
M03
100
AcDbLine
 10
826.758914
 20
285.943414
 30
0.0
 11
830.758914
 21
281.943414
 31
0.0
  0
LINE
  5
10E
100
AcDbEntity
  8
M03
100
AcDbLine
 10
830.758914
 20
289.943414
 30
0.0
 11
826.758914
 21
285.943414
 31
0.0
  0
LINE
  5
10F
100
AcDbEntity
  8
M03
100
AcDbLine
 10
844.758914
 20
289.943414
 30
0.0
 11
848.758914
 21
285.943414
 31
0.0
  0
LINE
  5
110
102
{ACAD_REACTORS
330
C9
102
}
100
AcDbEntity
  8
M03
100
AcDbLine
 10
830.758914
 20
289.943414
 30
0.0
 11
830.758914
 21
335.943414
 31
0.0
  0
LINE
  5
111
100
AcDbEntity
  8
M03
100
AcDbLine
 10
830.758914
 20
289.943414
 30
0.0
 11
844.758914
 21
289.943414
 31
0.0
  0
LINE
  5
112
100
AcDbEntity
  8
M03
100
AcDbLine
 10
830.758914
 20
281.943414
 30
0.0
 11
848.758914
 21
281.943414
 31
0.0
  0
LINE
  5
113
102
{ACAD_REACTORS
330
C9
102
}
100
AcDbEntity
  8
CENTRE
100
AcDbLine
 10
826.758914
 20
343.943414
 30
0.0
 11
826.758914
 21
227.943414
 31
0.0
  0
LINE
  5
114
102
{ACAD_REACTORS
330
C9
102
}
100
AcDbEntity
  8
M03
100
AcDbLine
 10
830.758914
 20
235.943414
 30
0.0
 11
830.758914
 21
281.943414
 31
0.0
  0
LINE
  5
115
102
{ACAD_REACTORS
330
C9
102
}
100
AcDbEntity
  8
M03
100
AcDbLine
 10
822.758914
 20
235.943414
 30
0.0
 11
822.758914
 21
335.943414
 31
0.0
  0
LINE
  5
116
100
AcDbEntity
  8
CENTRE
100
AcDbLine
 10
818.758914
 20
285.943414
 30
0.0
 11
856.758914
 21
285.943414
 31
0.0
  0
LINE
  5
117
102
{ACAD_REACTORS
330
CA
102
}
100
AcDbEntity
  8
M02
100
AcDbLine
 10
869.758914
 20
295.943414
 30
0.0
 11
872.758914
 21
295.943414
 31
0.0
  0
LINE
  5
118
102
{ACAD_REACTORS
330
10A
102
}
100
AcDbEntity
  8
M02
100
AcDbLine
 10
809.758914
 20
295.943414
 30
0.0
 11
806.758914
 21
295.943414
 31
0.0
  0
LINE
  5
119
102
{ACAD_REACTORS
330
CA
102
}
100
AcDbEntity
  8
M02
100
AcDbLine
 10
869.758914
 20
275.943414
 30
0.0
 11
872.758914
 21
275.943414
 31
0.0
  0
LINE
  5
11A
102
{ACAD_REACTORS
330
10A
102
}
100
AcDbEntity
  8
M02
100
AcDbLine
 10
809.758914
 20
275.943414
 30
0.0
 11
806.758914
 21
275.943414
 31
0.0
  0
LINE
  5
11B
102
{ACAD_REACTORS
330
C9
102
}
100
AcDbEntity
  8
M01
100
AcDbLine
 10
809.758914
 20
295.943414
 30
0.0
 11
869.758914
 21
295.943414
 31
0.0
  0
LINE
  5
11C
102
{ACAD_REACTORS
330
C9
102
}
100
AcDbEntity
  8
M01
100
AcDbLine
 10
809.758914
 20
275.943414
 30
0.0
 11
869.758914
 21
275.943414
 31
0.0
  0
CIRCLE
  5
11D
102
{ACAD_REACTORS
330
C9
102
}
100
AcDbEntity
  8
M01
100
AcDbCircle
 10
826.758914
 20
335.943414
 30
0.0
 40
4.0
  0
LINE
  5
11E
102
{ACAD_REACTORS
330
C9
102
}
100
AcDbEntity
  8
M01
100
AcDbLine
 10
809.758914
 20
339.943414
 30
0.0
 11
826.758914
 21
339.943414
 31
0.0
  0
LINE
  5
11F
102
{ACAD_REACTORS
330
C9
102
}
100
AcDbEntity
  8
M01
100
AcDbLine
 10
809.758914
 20
331.943414
 30
0.0
 11
826.758914
 21
331.943414
 31
0.0
  0
LINE
  5
120
102
{ACAD_REACTORS
330
10A
102
}
100
AcDbEntity
  8
M02
100
AcDbLine
 10
809.758914
 20
353.943414
 30
0.0
 11
806.758914
 21
353.943414
 31
0.0
  0
LINE
  5
121
102
{ACAD_REACTORS
330
10A
102
}
100
AcDbEntity
  8
M02
100
AcDbLine
 10
809.758914
 20
317.943414
 30
0.0
 11
806.758914
 21
317.943414
 31
0.0
  0
LINE
  5
122
100
AcDbEntity
  8
CENTRE
100
AcDbLine
 10
796.947319
 20
335.943414
 30
0.0
 11
834.758914
 21
335.943414
 31
0.0
  0
CIRCLE
  5
123
102
{ACAD_REACTORS
330
C9
102
}
100
AcDbEntity
  8
M01
100
AcDbCircle
 10
826.758914
 20
235.943414
 30
0.0
 40
4.0
  0
LINE
  5
124
102
{ACAD_REACTORS
330
C9
102
}
100
AcDbEntity
  8
M01
100
AcDbLine
 10
809.758914
 20
239.943414
 30
0.0
 11
826.758914
 21
239.943414
 31
0.0
  0
LINE
  5
125
102
{ACAD_REACTORS
330
C9
102
}
100
AcDbEntity
  8
M01
100
AcDbLine
 10
809.758914
 20
231.943414
 30
0.0
 11
826.758914
 21
231.943414
 31
0.0
  0
LINE
  5
126
100
AcDbEntity
  8
CENTRE
100
AcDbLine
 10
796.947319
 20
235.943414
 30
0.0
 11
834.758914
 21
235.943414
 31
0.0
  0
WIPEOUT
  5
127
100
AcDbEntity
  8
TEXT
 92
      140
310
8C0000000100000084000000060000000500000038273BB8F2F38A401168ACCC4D6E784000000000000000004711DCC6DC6C8B401168ACCC4D6E784000000000000000004811DCC6DC6C8B400F68ACCC4DAE784000000000000000003A273BB8F2F38A401168ACCC4DAE7840000000000000000038273BB8F2F38A401168AC
310
CC4D6E78400000000000000000
100
AcDbWipeout
 90
        0
 10
827.792162
 20
345.078355
 30
0.0
 11
49.815639
 21
0.0
 31
0.0
 12
0.0
 22
49.815639
 32
0.0
 13
0.0
 23
0.0
340
0
 70
     7
280
     1
281
    50
282
    50
283
     0
360
0
 71
     2
 91
        5
 14
0.196596
 24
-0.419704
 14
0.5
 24
-0.419704
 14
0.5
 24
-0.5
 14
0.196596
 24
-0.5
 14
0.196596
 24
-0.419704
  0
TEXT
  5
128
100
AcDbEntity
  8
TEXT
100
AcDbText
 10
863.493515
 20
391.893994
 30
0.0
 40
2.0
  1
MA010000
 41
0.9
100
AcDbText
  0
LINE
  5
129
102
{ACAD_REACTORS
330
CA
330
C9
330
C5
102
}
100
AcDbEntity
  8
M01
100
AcDbLine
 10
869.758914
 20
356.943414
 30
0.0
 11
869.758914
 21
201.943414
 31
0.0
  0
LINE
  5
12A
102
{ACAD_REACTORS
330
C8
102
}
100
AcDbEntity
  8
M01
100
AcDbLine
 10
869.758914
 20
408.943414
 30
0.0
 11
869.758914
 21
395.943414
 31
0.0
  0
HATCH
  5
12B
100
AcDbEntity
  8
HATCH
100
AcDbHatch
 10
0.0
 20
0.0
 30
0.0
210
0.0
220
0.0
230
1.0
  2
_U
 70
     0
 71
     1
 91
        4
 92
        7
 72
     0
 73
     1
 93
        4
 10
809.7589143034769
 20
417.9434140619694
 10
806.7589143034769
 20
417.9434140619695
 10
806.7589143034769
 20
396.9434140619695
 10
809.7589143034767
 20
396.9434140619693
 97
        4
330
186
330
687
330
507
330
68F
 92
        7
 72
     0
 73
     1
 93
        4
 10
806.7589143034769
 20
453.9434140619694
 10
809.7589143034767
 20
453.9434140619694
 10
809.7589143034767
 20
475.9434140619694
 10
806.7589143034767
 20
475.9434140619694
 97
        4
330
146
330
687
330
187
330
68F
 92
        7
 72
     0
 73
     1
 93
        4
 10
809.7589143034767
 20
517.9434140619694
 10
806.7589143034767
 20
517.9434140619694
 10
806.7589143034767
 20
495.9434140619694
 10
809.7589143034767
 20
495.9434140619694
 97
        4
330
1C3
330
687
330
148
330
68F
 92
        7
 72
     0
 73
     1
 93
        4
 10
806.7589143034766
 20
553.9434140619694
 10
809.7589143034767
 20
553.9434140619694
 10
809.7589143034769
 20
589.9434140619696
 10
806.7589143034766
 20
589.9434140619696
 97
        4
330
681
330
687
330
1C4
330
68F
 75
     0
 76
     0
 52
135.0
 41
0.8
 77
     0
 78
     1
 53
135.0
 43
21.678451
 44
-82.552148
 45
-0.5656854249492382
 46
-0.565685424949238
 79
     0
 47
0.286699
 98
        4
 10
808.514166
 20
410.179072
 10
807.65373
 20
464.651948
 10
808.514166
 20
504.503157
 10
808.227355
 20
570.444005
  0
HATCH
  5
12C
100
AcDbEntity
  8
HATCH
100
AcDbHatch
 10
0.0
 20
0.0
 30
0.0
210
0.0
220
0.0
230
1.0
  2
_U
 70
     0
 71
     1
 91
        3
 92
        7
 72
     0
 73
     1
 93
        4
 10
869.7589143034765
 20
450.9434140619694
 10
872.7589143034764
 20
450.9434140619693
 10
872.7589143034766
 20
475.9434140619694
 10
869.7589143034766
 20
475.9434140619694
 97
        4
330
145
330
68C
330
180
330
14C
 92
        7
 72
     0
 73
     1
 93
        4
 10
872.7589143034766
 20
520.9434140619694
 10
869.7589143034766
 20
520.9434140619695
 10
869.7589143034766
 20
495.9434140619694
 10
872.7589143034766
 20
495.9434140619694
 97
        4
330
1BC
330
68C
330
147
330
14C
 92
        7
 72
     0
 73
     1
 93
        4
 10
869.7589143034765
 20
550.9434140619693
 10
872.7589143034766
 20
550.9434140619694
 10
872.7589143034766
 20
599.9434140619696
 10
869.7589143034766
 20
599.9434140619698
 97
        4
330
684
330
68C
330
1BD
330
686
 75
     0
 76
     0
 52
135.0
 41
0.8
 77
     0
 78
     1
 53
135.0
 43
21.678451
 44
-82.552148
 45
-0.5656854249492382
 46
-0.565685424949238
 79
     0
 47
0.286699
 98
        3
 10
871.039171
 20
468.952437
 10
871.899607
 20
504.789857
 10
871.039171
 20
557.255836
  0
HATCH
  5
12D
100
AcDbEntity
  8
HATCH
100
AcDbHatch
 10
0.0
 20
0.0
 30
0.0
210
0.0
220
0.0
230
1.0
  2
_U
 70
     0
 71
     0
 91
        4
 92
        7
 72
     1
 73
     1
 93
       16
 10
880.7589143034773
 20
405.2434140619694
 42
0.0
 10
880.0589143034773
 20
405.9434140619694
 42
0.0
 10
878.7589143034772
 20
405.9434140619694
 42
0.0
 10
878.7589143034772
 20
405.4434140619695
 42
0.0
 10
875.7589143034767
 20
405.4434140619695
 42
0.0
 10
875.7589143034767
 20
406.4434140619694
 42
0.0
 10
871.758914303477
 20
406.4434140619694
 42
0.0
 10
871.758914303477
 20
406.6934140619694
 42
0.0
 10
871.758914303477
 20
408.2434140619694
 42
0.0
 10
869.7589143034766
 20
408.2434140619694
 42
0.0
 10
869.7589143034766
 20
395.9434140619693
 42
0.0
 10
860.7589143034768
 20
395.9434140619694
 42
0.0
 10
859.758914303477
 20
394.9434140619695
 42
0.0
 10
859.758914303477
 20
389.9434140619693
 42
0.0
 10
878.0601286503756
 20
388.9842880598656
 42
-0.1092323044357322
 10
880.7589143034771
 20
395.1085654518814
 42
0.0
 97
        0
 92
        7
 72
     0
 73
     1
 93
        9
 10
875.7589143034767
 20
419.2434140619696
 10
875.0589143034767
 20
419.9434140619697
 10
870.4589143034768
 20
419.9434140619697
 10
869.7589143034766
 20
419.2434140619694
 10
869.7589143034766
 20
415.6434140619695
 10
871.758914303477
 20
415.6434140619695
 10
871.758914303477
 20
417.1934140619696
 10
871.758914303477
 20
417.4434140619694
 10
875.7589143034767
 20
417.4434140619694
 97
        0
 92
        7
 72
     1
 73
     1
 93
       16
 10
880.7589143034769
 20
376.7782626720578
 42
-0.109232304435728
 10
878.0601286503756
 20
382.9025400640735
 42
0.0
 10
859.758914303477
 20
381.9434140619695
 42
0.0
 10
859.7589143034769
 20
376.9434140619694
 42
0.0
 10
860.758914303477
 20
375.9434140619695
 42
0.0
 10
869.7589143034766
 20
375.9434140619694
 42
0.0
 10
869.7589143034768
 20
363.6434140619693
 42
0.0
 10
871.758914303477
 20
363.6434140619694
 42
0.0
 10
871.758914303477
 20
365.1934140619692
 42
0.0
 10
871.758914303477
 20
365.4434140619692
 42
0.0
 10
875.7589143034769
 20
365.4434140619692
 42
0.0
 10
875.7589143034769
 20
366.4434140619694
 42
0.0
 10
878.7589143034768
 20
366.4434140619694
 42
0.0
 10
878.7589143034768
 20
365.9434140619694
 42
0.0
 10
880.0589143034768
 20
365.9434140619694
 42
0.0
 10
880.7589143034769
 20
366.6434140619696
 42
0.0
 97
        0
 92
        7
 72
     0
 73
     1
 93
        9
 10
875.758914303477
 20
354.4434140619694
 10
871.758914303477
 20
354.4434140619694
 10
871.758914303477
 20
354.6934140619692
 10
871.7589143034771
 20
356.2434140619694
 10
869.7589143034766
 20
356.2434140619694
 10
869.7589143034766
 20
352.6434140619695
 10
870.458914303477
 20
351.9434140619693
 10
875.0589143034769
 20
351.9434140619692
 10
875.7589143034769
 20
352.6434140619692
 97
        0
 75
     0
 76
     0
 52
135.0
 41
2.5
 77
     0
 78
     1
 53
135.0
 43
21.678451
 44
-82.552148
 45
-1.767766952966368
 46
-1.767766952966368
 79
     0
 47
0.185848
 98
        4
 10
873.375545
 20
399.954983
 10
872.0741
 20
418.353918
 10
873.003702
 20
373.378744
 10
871.330416
 20
352.935484
  0
ARC
  5
12E
100
AcDbEntity
  8
M03
100
AcDbCircle
 10
848.758914
 20
485.943414
 30
0.0
 40
4.0
100
AcDbArc
 50
0.0
 51
90.0
  0
LINE
  5
12F
100
AcDbEntity
  8
M03
100
AcDbLine
 10
826.758914
 20
485.943414
 30
0.0
 11
830.758914
 21
489.943414
 31
0.0
  0
LINE
  5
130
100
AcDbEntity
  8
M03
100
AcDbLine
 10
830.758914
 20
481.943414
 30
0.0
 11
826.758914
 21
485.943414
 31
0.0
  0
LINE
  5
131
100
AcDbEntity
  8
M03
100
AcDbLine
 10
844.758914
 20
481.943414
 30
0.0
 11
848.758914
 21
485.943414
 31
0.0
  0
LINE
  5
132
102
{ACAD_REACTORS
330
C9
330
C8
102
}
100
AcDbEntity
  8
CENTRE
100
AcDbLine
 10
848.758914
 20
493.943414
 30
0.0
 11
848.758914
 21
277.943414
 31
0.0
  0
LINE
  5
133
102
{ACAD_REACTORS
330
C8
102
}
100
AcDbEntity
  8
M03
100
AcDbLine
 10
830.758914
 20
481.943414
 30
0.0
 11
830.758914
 21
435.943414
 31
0.0
  0
LINE
  5
134
100
AcDbEntity
  8
M03
100
AcDbLine
 10
830.758914
 20
481.943414
 30
0.0
 11
844.758914
 21
481.943414
 31
0.0
  0
LINE
  5
135
100
AcDbEntity
  8
M03
100
AcDbLine
 10
830.758914
 20
489.943414
 30
0.0
 11
848.758914
 21
489.943414
 31
0.0
  0
LINE
  5
136
102
{ACAD_REACTORS
330
C9
330
C8
102
}
100
AcDbEntity
  8
M03
100
AcDbLine
 10
844.758914
 20
481.943414
 30
0.0
 11
844.758914
 21
289.943414
 31
0.0
  0
LINE
  5
137
102
{ACAD_REACTORS
330
C8
102
}
100
AcDbEntity
  8
CENTRE
100
AcDbLine
 10
826.758914
 20
427.943414
 30
0.0
 11
826.758914
 21
543.943414
 31
0.0
  0
LINE
  5
138
102
{ACAD_REACTORS
330
C9
330
C8
102
}
100
AcDbEntity
  8
M03
100
AcDbLine
 10
852.758914
 20
485.943414
 30
0.0
 11
852.758914
 21
285.943414
 31
0.0
  0
LINE
  5
139
102
{ACAD_REACTORS
330
C8
102
}
100
AcDbEntity
  8
M03
100
AcDbLine
 10
830.758914
 20
535.943414
 30
0.0
 11
830.758914
 21
489.943414
 31
0.0
  0
LINE
  5
13A
102
{ACAD_REACTORS
330
C8
102
}
100
AcDbEntity
  8
M03
100
AcDbLine
 10
822.758914
 20
535.943414
 30
0.0
 11
822.758914
 21
435.943414
 31
0.0
  0
LINE
  5
13B
100
AcDbEntity
  8
CENTRE
100
AcDbLine
 10
818.758914
 20
485.943414
 30
0.0
 11
856.758914
 21
485.943414
 31
0.0
  0
LINE
  5
13C
100
AcDbEntity
  8
M03
100
AcDbLine
 10
482.044627
 20
385.943414
 30
0.0
 11
486.044627
 21
389.943414
 31
0.0
  0
LINE
  5
13D
100
AcDbEntity
  8
M03
100
AcDbLine
 10
486.044627
 20
381.943414
 30
0.0
 11
482.044627
 21
385.943414
 31
0.0
  0
LINE
  5
13E
100
AcDbEntity
  8
M03
100
AcDbLine
 10
582.044627
 20
385.943414
 30
0.0
 11
578.044627
 21
389.943414
 31
0.0
  0
LINE
  5
13F
100
AcDbEntity
  8
M03
100
AcDbLine
 10
578.044627
 20
381.943414
 30
0.0
 11
582.044627
 21
385.943414
 31
0.0
  0
LINE
  5
140
100
AcDbEntity
  8
M03
100
AcDbLine
 10
578.044627
 20
389.943414
 30
0.0
 11
578.044627
 21
485.943414
 31
0.0
  0
LINE
  5
141
100
AcDbEntity
  8
M03
100
AcDbLine
 10
486.044627
 20
381.943414
 30
0.0
 11
486.044627
 21
285.943414
 31
0.0
  0
LINE
  5
142
100
AcDbEntity
  8
M04
100
AcDbLine
 10
876.758914
 20
532.943414
 30
0.0
 11
876.758914
 21
438.943414
 31
0.0
  0
LINE
  5
143
100
AcDbEntity
  8
M04
100
AcDbLine
 10
876.758914
 20
432.943414
 30
0.0
 11
876.758914
 21
405.443414
 31
0.0
  0
LINE
  5
144
100
AcDbEntity
  8
M02
100
AcDbLine
 10
872.758914
 20
421.943414
 30
0.0
 11
872.758914
 21
419.943414
 31
0.0
  0
LINE
  5
145
102
{ACAD_REACTORS
330
12C
102
}
100
AcDbEntity
  8
M02
100
AcDbLine
 10
869.758914
 20
475.943414
 30
0.0
 11
872.758914
 21
475.943414
 31
0.0
  0
LINE
  5
146
102
{ACAD_REACTORS
330
12B
102
}
100
AcDbEntity
  8
M02
100
AcDbLine
 10
809.758914
 20
475.943414
 30
0.0
 11
806.758914
 21
475.943414
 31
0.0
  0
LINE
  5
147
102
{ACAD_REACTORS
330
12C
102
}
100
AcDbEntity
  8
M02
100
AcDbLine
 10
869.758914
 20
495.943414
 30
0.0
 11
872.758914
 21
495.943414
 31
0.0
  0
LINE
  5
148
102
{ACAD_REACTORS
330
12B
102
}
100
AcDbEntity
  8
M02
100
AcDbLine
 10
809.758914
 20
495.943414
 30
0.0
 11
806.758914
 21
495.943414
 31
0.0
  0
LINE
  5
149
102
{ACAD_REACTORS
330
C8
102
}
100
AcDbEntity
  8
M01
100
AcDbLine
 10
809.758914
 20
475.943414
 30
0.0
 11
869.758914
 21
475.943414
 31
0.0
  0
LINE
  5
14A
102
{ACAD_REACTORS
330
C8
102
}
100
AcDbEntity
  8
M01
100
AcDbLine
 10
809.758914
 20
495.943414
 30
0.0
 11
869.758914
 21
495.943414
 31
0.0
  0
CIRCLE
  5
14B
102
{ACAD_REACTORS
330
C9
330
C8
102
}
100
AcDbEntity
  8
M01
100
AcDbCircle
 10
848.758914
 20
385.943414
 30
0.0
 40
4.0
  0
LINE
  5
14C
102
{ACAD_REACTORS
330
12C
102
}
100
AcDbEntity
  8
M02
100
AcDbLine
 10
872.758914
 20
521.943414
 30
0.0
 11
872.758914
 21
449.943414
 31
0.0
  0
CIRCLE
  5
14D
102
{ACAD_REACTORS
330
C8
102
}
100
AcDbEntity
  8
M01
100
AcDbCircle
 10
826.758914
 20
435.943414
 30
0.0
 40
4.0
  0
HATCH
  5
14E
100
AcDbEntity
  8
HATCH
100
AcDbHatch
 10
0.0
 20
0.0
 30
0.0
210
0.0
220
0.0
230
1.0
  2
_U
 70
     0
 71
     0
 91
        2
 92
        7
 72
     0
 73
     1
 93
       11
 10
869.7589143034768
 20
443.8022960494265
 10
869.7589143034768
 20
449.2434140619691
 10
870.4589143034768
 20
449.9434140619694
 10
876.0589143034771
 20
449.9434140619694
 10
876.7589143034768
 20
449.2434140619693
 10
876.7589143034768
 20
446.4434140619691
 10
875.758914303477
 20
445.4434140619694
 10
875.7589143034769
 20
443.4434140619696
 10
876.7589143034768
 20
442.4434140619701
 10
876.7589143034768
 20
439.4434140619694
 10
874.117796290934
 20
439.4434140619694
 97
        0
 92
        7
 72
     0
 73
     1
 93
       11
 10
870.4589143034768
 20
421.9434140619694
 10
869.758914303477
 20
422.6434140619694
 10
869.758914303477
 20
428.0845320745124
 10
874.117796290934
 20
432.4434140619693
 10
876.7589143034768
 20
432.4434140619693
 10
876.7589143034768
 20
429.4434140619687
 10
875.7589143034769
 20
428.4434140619689
 10
875.758914303477
 20
426.4434140619694
 10
876.758914303477
 20
425.4434140619696
 10
876.7589143034768
 20
422.6434140619694
 10
876.0589143034771
 20
421.9434140619696
 97
        0
 75
     0
 76
     0
 52
225.0
 41
1.5
 77
     0
 78
     1
 53
135.0
 43
1117.245389
 44
1046.390655
 45
1.060660171779821
 46
1.060660171779821
 79
     0
 47
0.151518
 98
        2
 10
873.074877
 20
445.467484
 10
872.468806
 20
426.823073
  0
LINE
  5
14F
100
AcDbEntity
  8
M05
100
AcDbLine
 10
875.758914
 20
445.443414
 30
0.0
 11
876.758914
 21
446.443414
 31
0.0
  0
LINE
  5
150
100
AcDbEntity
  8
M05
100
AcDbLine
 10
875.758914
 20
443.443414
 30
0.0
 11
876.758914
 21
442.443414
 31
0.0
  0
LINE
  5
151
100
AcDbEntity
  8
M05
100
AcDbLine
 10
875.758914
 20
445.443414
 30
0.0
 11
875.758914
 21
443.443414
 31
0.0
  0
LINE
  5
152
100
AcDbEntity
  8
M05
100
AcDbLine
 10
875.758914
 20
426.443414
 30
0.0
 11
876.758914
 21
425.443414
 31
0.0
  0
LINE
  5
153
100
AcDbEntity
  8
M05
100
AcDbLine
 10
875.758914
 20
428.443414
 30
0.0
 11
876.758914
 21
429.443414
 31
0.0
  0
LINE
  5
154
100
AcDbEntity
  8
M05
100
AcDbLine
 10
875.758914
 20
426.443414
 30
0.0
 11
875.758914
 21
428.443414
 31
0.0
  0
LINE
  5
155
100
AcDbEntity
  8
M04
100
AcDbLine
 10
894.58682
 20
435.943414
 30
0.0
 11
893.258914
 21
433.643414
 31
0.0
  0
LINE
  5
156
100
AcDbEntity
  8
M04
100
AcDbLine
 10
893.258914
 20
438.243414
 30
0.0
 11
894.58682
 21
435.943414
 31
0.0
  0
LINE
  5
157
100
AcDbEntity
  8
M04
100
AcDbLine
 10
893.258914
 20
438.243414
 30
0.0
 11
893.258914
 21
433.643414
 31
0.0
  0
LINE
  5
158
100
AcDbEntity
  8
M04
100
AcDbLine
 10
888.197796
 20
438.943414
 30
0.0
 11
891.758914
 21
438.943414
 31
0.0
  0
LINE
  5
159
100
AcDbEntity
  8
M04
100
AcDbLine
 10
888.897796
 20
438.243414
 30
0.0
 11
893.258914
 21
438.243414
 31
0.0
  0
LINE
  5
15A
100
AcDbEntity
  8
M04
100
AcDbLine
 10
888.197796
 20
432.943414
 30
0.0
 11
891.758914
 21
432.943414
 31
0.0
  0
LINE
  5
15B
100
AcDbEntity
  8
M04
100
AcDbLine
 10
888.897796
 20
433.643414
 30
0.0
 11
893.258914
 21
433.643414
 31
0.0
  0
LINE
  5
15C
100
AcDbEntity
  8
M05
100
AcDbLine
 10
888.897796
 20
433.643414
 30
0.0
 11
888.197796
 21
432.943414
 31
0.0
  0
LINE
  5
15D
100
AcDbEntity
  8
M05
100
AcDbLine
 10
888.197796
 20
438.943414
 30
0.0
 11
888.897796
 21
438.243414
 31
0.0
  0
LINE
  5
15E
100
AcDbEntity
  8
M05
100
AcDbLine
 10
876.117796
 20
433.643414
 30
0.0
 11
888.897796
 21
433.643414
 31
0.0
  0
LINE
  5
15F
100
AcDbEntity
  8
M05
100
AcDbLine
 10
876.117796
 20
438.243414
 30
0.0
 11
888.897796
 21
438.243414
 31
0.0
  0
LINE
  5
160
100
AcDbEntity
  8
M05
100
AcDbLine
 10
888.197796
 20
438.943414
 30
0.0
 11
888.197796
 21
432.943414
 31
0.0
  0
LINE
  5
161
100
AcDbEntity
  8
M04
100
AcDbLine
 10
891.758914
 20
438.943414
 30
0.0
 11
891.758914
 21
432.943414
 31
0.0
  0
LINE
  5
162
100
AcDbEntity
  8
M05
100
AcDbLine
 10
888.897796
 20
438.243414
 30
0.0
 11
888.897796
 21
433.643414
 31
0.0
  0
LINE
  5
163
102
{ACAD_REACTORS
330
C8
102
}
100
AcDbEntity
  8
M05
  6
HIDDEN
100
AcDbLine
 10
869.458914
 20
444.102296
 30
0.0
 11
868.758914
 21
444.802296
 31
0.0
  0
LINE
  5
164
102
{ACAD_REACTORS
330
C8
102
}
100
AcDbEntity
  8
M05
  6
HIDDEN
100
AcDbLine
 10
869.458914
 20
427.784532
 30
0.0
 11
868.758914
 21
427.084532
 31
0.0
  0
LINE
  5
165
100
AcDbEntity
  8
M05
100
AcDbLine
 10
876.117796
 20
438.943414
 30
0.0
 11
876.117796
 21
432.943414
 31
0.0
  0
LINE
  5
166
100
AcDbEntity
  8
M05
100
AcDbLine
 10
871.617796
 20
435.393414
 30
0.0
 11
871.617796
 21
429.943414
 31
0.0
  0
LINE
  5
167
100
AcDbEntity
  8
M05
100
AcDbLine
 10
870.897796
 20
435.393414
 30
0.0
 11
870.897796
 21
429.943414
 31
0.0
  0
LINE
  5
168
100
AcDbEntity
  8
M05
100
AcDbLine
 10
870.897796
 20
435.393414
 30
0.0
 11
872.397796
 21
435.393414
 31
0.0
  0
LINE
  5
169
100
AcDbEntity
  8
M05
100
AcDbLine
 10
870.897796
 20
436.493414
 30
0.0
 11
872.397796
 21
436.493414
 31
0.0
  0
LINE
  5
16A
100
AcDbEntity
  8
M05
100
AcDbLine
 10
872.397796
 20
436.493414
 30
0.0
 11
872.397796
 21
435.393414
 31
0.0
  0
LINE
  5
16B
100
AcDbEntity
  8
M05
100
AcDbLine
 10
874.117796
 20
432.443414
 30
0.0
 11
876.758914
 21
432.443414
 31
0.0
  0
LINE
  5
16C
100
AcDbEntity
  8
M05
100
AcDbLine
 10
874.117796
 20
439.443414
 30
0.0
 11
876.758914
 21
439.443414
 31
0.0
  0
LINE
  5
16D
100
AcDbEntity
  8
M05
100
AcDbLine
 10
871.617796
 20
441.943414
 30
0.0
 11
871.617796
 21
436.493414
 31
0.0
  0
LINE
  5
16E
102
{ACAD_REACTORS
330
C8
102
}
100
AcDbEntity
  8
M05
100
AcDbLine
 10
874.617796
 20
438.943414
 30
0.0
 11
869.458914
 21
444.102296
 31
0.0
  0
LINE
  5
16F
100
AcDbEntity
  8
M05
100
AcDbLine
 10
870.897796
 20
441.943414
 30
0.0
 11
871.617796
 21
441.943414
 31
0.0
  0
LINE
  5
170
102
{ACAD_REACTORS
330
C8
102
}
100
AcDbEntity
  8
M05
100
AcDbLine
 10
874.617796
 20
432.943414
 30
0.0
 11
869.458914
 21
427.784532
 31
0.0
  0
LINE
  5
171
100
AcDbEntity
  8
M05
100
AcDbLine
 10
874.617796
 20
438.943414
 30
0.0
 11
874.617796
 21
432.943414
 31
0.0
  0
LINE
  5
172
100
AcDbEntity
  8
M05
100
AcDbLine
 10
874.617796
 20
438.943414
 30
0.0
 11
888.197796
 21
438.943414
 31
0.0
  0
LINE
  5
173
100
AcDbEntity
  8
M05
100
AcDbLine
 10
874.617796
 20
432.943414
 30
0.0
 11
888.197796
 21
432.943414
 31
0.0
  0
LINE
  5
174
100
AcDbEntity
  8
M05
100
AcDbLine
 10
870.897796
 20
429.943414
 30
0.0
 11
871.617796
 21
429.943414
 31
0.0
  0
LINE
  5
175
100
AcDbEntity
  8
M05
100
AcDbLine
 10
870.897796
 20
441.943414
 30
0.0
 11
870.897796
 21
436.493414
 31
0.0
  0
LINE
  5
176
102
{ACAD_REACTORS
330
C8
102
}
100
AcDbEntity
  8
M05
  6
HIDDEN
100
AcDbLine
 10
869.458914
 20
449.943414
 30
0.0
 11
869.458914
 21
421.943414
 31
0.0
  0
LINE
  5
177
102
{ACAD_REACTORS
330
C8
102
}
100
AcDbEntity
  8
M05
  6
HIDDEN
100
AcDbLine
 10
869.458914
 20
421.943414
 30
0.0
 11
868.758914
 21
422.643414
 31
0.0
  0
LINE
  5
178
102
{ACAD_REACTORS
330
C8
102
}
100
AcDbEntity
  8
M05
  6
HIDDEN
100
AcDbLine
 10
870.458914
 20
421.943414
 30
0.0
 11
869.458914
 21
421.943414
 31
0.0
  0
LINE
  5
179
100
AcDbEntity
  8
M05
100
AcDbLine
 10
870.458914
 20
421.943414
 30
0.0
 11
869.758914
 21
422.643414
 31
0.0
  0
LINE
  5
17A
100
AcDbEntity
  8
M05
100
AcDbLine
 10
876.058914
 20
421.943414
 30
0.0
 11
876.758914
 21
422.643414
 31
0.0
  0
LINE
  5
17B
100
AcDbEntity
  8
M05
100
AcDbLine
 10
870.458914
 20
421.943414
 30
0.0
 11
876.058914
 21
421.943414
 31
0.0
  0
LINE
  5
17C
102
{ACAD_REACTORS
330
C8
102
}
100
AcDbEntity
  8
M05
  6
HIDDEN
100
AcDbLine
 10
869.458914
 20
449.943414
 30
0.0
 11
868.758914
 21
449.243414
 31
0.0
  0
LINE
  5
17D
102
{ACAD_REACTORS
330
C8
102
}
100
AcDbEntity
  8
M05
  6
HIDDEN
100
AcDbLine
 10
870.458914
 20
449.943414
 30
0.0
 11
869.458914
 21
449.943414
 31
0.0
  0
LINE
  5
17E
100
AcDbEntity
  8
M05
100
AcDbLine
 10
870.458914
 20
449.943414
 30
0.0
 11
869.758914
 21
449.243414
 31
0.0
  0
LINE
  5
17F
100
AcDbEntity
  8
M05
100
AcDbLine
 10
876.058914
 20
449.943414
 30
0.0
 11
876.758914
 21
449.243414
 31
0.0
  0
LINE
  5
180
102
{ACAD_REACTORS
330
12C
102
}
100
AcDbEntity
  8
M02
100
AcDbLine
 10
869.758914
 20
450.943414
 30
0.0
 11
872.758914
 21
450.943414
 31
0.0
  0
LINE
  5
181
102
{ACAD_REACTORS
330
C8
102
}
100
AcDbEntity
  8
M05
  6
HIDDEN
100
AcDbLine
 10
868.758914
 20
449.243414
 30
0.0
 11
868.758914
 21
422.643414
 31
0.0
  0
LINE
  5
182
100
AcDbEntity
  8
M05
100
AcDbLine
 10
870.458914
 20
449.943414
 30
0.0
 11
876.058914
 21
449.943414
 31
0.0
  0
LINE
  5
183
102
{ACAD_REACTORS
330
C8
102
}
100
AcDbEntity
  8
CENTRE
100
AcDbLine
 10
864.249804
 20
435.943414
 30
0.0
 11
897.328142
 21
435.943414
 31
0.0
  0
LINE
  5
184
102
{ACAD_REACTORS
330
C8
102
}
100
AcDbEntity
  8
M01
100
AcDbLine
 10
809.758914
 20
431.943414
 30
0.0
 11
826.758914
 21
431.943414
 31
0.0
  0
LINE
  5
185
102
{ACAD_REACTORS
330
C8
102
}
100
AcDbEntity
  8
M01
100
AcDbLine
 10
809.758914
 20
439.943414
 30
0.0
 11
826.758914
 21
439.943414
 31
0.0
  0
LINE
  5
186
102
{ACAD_REACTORS
330
12B
102
}
100
AcDbEntity
  8
M02
100
AcDbLine
 10
809.758914
 20
417.943414
 30
0.0
 11
806.758914
 21
417.943414
 31
0.0
  0
LINE
  5
187
102
{ACAD_REACTORS
330
12B
102
}
100
AcDbEntity
  8
M02
100
AcDbLine
 10
809.758914
 20
453.943414
 30
0.0
 11
806.758914
 21
453.943414
 31
0.0
  0
LINE
  5
188
100
AcDbEntity
  8
CENTRE
100
AcDbLine
 10
796.947319
 20
435.943414
 30
0.0
 11
834.758914
 21
435.943414
 31
0.0
  0
CIRCLE
  5
189
102
{ACAD_REACTORS
330
C8
102
}
100
AcDbEntity
  8
M01
100
AcDbCircle
 10
826.758914
 20
535.943414
 30
0.0
 40
4.0
  0
HATCH
  5
18A
100
AcDbEntity
  8
HATCH
100
AcDbHatch
 10
0.0
 20
0.0
 30
0.0
210
0.0
220
0.0
230
1.0
  2
_U
 70
     0
 71
     0
 91
        2
 92
        7
 72
     0
 73
     1
 93
       11
 10
869.7589143034768
 20
543.8022960494265
 10
869.7589143034768
 20
549.2434140619691
 10
870.4589143034768
 20
549.9434140619694
 10
876.0589143034771
 20
549.9434140619694
 10
876.7589143034768
 20
549.2434140619693
 10
876.7589143034768
 20
546.4434140619691
 10
875.758914303477
 20
545.4434140619694
 10
875.7589143034769
 20
543.4434140619696
 10
876.7589143034768
 20
542.4434140619701
 10
876.7589143034768
 20
539.4434140619694
 10
874.117796290934
 20
539.4434140619694
 97
        0
 92
        7
 72
     0
 73
     1
 93
       11
 10
870.4589143034768
 20
521.9434140619694
 10
869.758914303477
 20
522.6434140619694
 10
869.758914303477
 20
528.0845320745124
 10
874.117796290934
 20
532.4434140619693
 10
876.7589143034768
 20
532.4434140619693
 10
876.7589143034768
 20
529.4434140619687
 10
875.7589143034769
 20
528.4434140619689
 10
875.758914303477
 20
526.4434140619694
 10
876.758914303477
 20
525.4434140619696
 10
876.7589143034768
 20
522.6434140619694
 10
876.0589143034771
 20
521.9434140619696
 97
        0
 75
     0
 76
     0
 52
225.0
 41
1.5
 77
     0
 78
     1
 53
135.0
 43
1117.245389
 44
1146.390655
 45
1.060660171779821
 46
1.060660171779821
 79
     0
 47
0.151518
 98
        2
 10
873.074877
 20
545.467484
 10
872.468806
 20
526.823073
  0
LINE
  5
18B
100
AcDbEntity
  8
M05
100
AcDbLine
 10
875.758914
 20
545.443414
 30
0.0
 11
876.758914
 21
546.443414
 31
0.0
  0
LINE
  5
18C
100
AcDbEntity
  8
M05
100
AcDbLine
 10
875.758914
 20
543.443414
 30
0.0
 11
876.758914
 21
542.443414
 31
0.0
  0
LINE
  5
18D
100
AcDbEntity
  8
M05
100
AcDbLine
 10
875.758914
 20
545.443414
 30
0.0
 11
875.758914
 21
543.443414
 31
0.0
  0
LINE
  5
18E
100
AcDbEntity
  8
M05
100
AcDbLine
 10
875.758914
 20
526.443414
 30
0.0
 11
876.758914
 21
525.443414
 31
0.0
  0
LINE
  5
18F
100
AcDbEntity
  8
M05
100
AcDbLine
 10
875.758914
 20
528.443414
 30
0.0
 11
876.758914
 21
529.443414
 31
0.0
  0
LINE
  5
190
100
AcDbEntity
  8
M05
100
AcDbLine
 10
875.758914
 20
526.443414
 30
0.0
 11
875.758914
 21
528.443414
 31
0.0
  0
LINE
  5
191
100
AcDbEntity
  8
M04
100
AcDbLine
 10
894.58682
 20
535.943414
 30
0.0
 11
893.258914
 21
533.643414
 31
0.0
  0
LINE
  5
192
100
AcDbEntity
  8
M04
100
AcDbLine
 10
893.258914
 20
538.243414
 30
0.0
 11
894.58682
 21
535.943414
 31
0.0
  0
LINE
  5
193
100
AcDbEntity
  8
M04
100
AcDbLine
 10
893.258914
 20
538.243414
 30
0.0
 11
893.258914
 21
533.643414
 31
0.0
  0
LINE
  5
194
100
AcDbEntity
  8
M04
100
AcDbLine
 10
888.197796
 20
538.943414
 30
0.0
 11
891.758914
 21
538.943414
 31
0.0
  0
LINE
  5
195
100
AcDbEntity
  8
M04
100
AcDbLine
 10
888.897796
 20
538.243414
 30
0.0
 11
893.258914
 21
538.243414
 31
0.0
  0
LINE
  5
196
100
AcDbEntity
  8
M04
100
AcDbLine
 10
888.197796
 20
532.943414
 30
0.0
 11
891.758914
 21
532.943414
 31
0.0
  0
LINE
  5
197
100
AcDbEntity
  8
M04
100
AcDbLine
 10
888.897796
 20
533.643414
 30
0.0
 11
893.258914
 21
533.643414
 31
0.0
  0
LINE
  5
198
100
AcDbEntity
  8
M05
100
AcDbLine
 10
888.897796
 20
533.643414
 30
0.0
 11
888.197796
 21
532.943414
 31
0.0
  0
LINE
  5
199
100
AcDbEntity
  8
M05
100
AcDbLine
 10
888.197796
 20
538.943414
 30
0.0
 11
888.897796
 21
538.243414
 31
0.0
  0
LINE
  5
19A
100
AcDbEntity
  8
M05
100
AcDbLine
 10
876.117796
 20
533.643414
 30
0.0
 11
888.897796
 21
533.643414
 31
0.0
  0
LINE
  5
19B
100
AcDbEntity
  8
M05
100
AcDbLine
 10
876.117796
 20
538.243414
 30
0.0
 11
888.897796
 21
538.243414
 31
0.0
  0
LINE
  5
19C
100
AcDbEntity
  8
M05
100
AcDbLine
 10
888.197796
 20
538.943414
 30
0.0
 11
888.197796
 21
532.943414
 31
0.0
  0
LINE
  5
19D
100
AcDbEntity
  8
M04
100
AcDbLine
 10
891.758914
 20
538.943414
 30
0.0
 11
891.758914
 21
532.943414
 31
0.0
  0
LINE
  5
19E
100
AcDbEntity
  8
M05
100
AcDbLine
 10
888.897796
 20
538.243414
 30
0.0
 11
888.897796
 21
533.643414
 31
0.0
  0
LINE
  5
19F
102
{ACAD_REACTORS
330
C7
102
}
100
AcDbEntity
  8
M05
  6
HIDDEN
100
AcDbLine
 10
869.458914
 20
544.102296
 30
0.0
 11
868.758914
 21
544.802296
 31
0.0
  0
LINE
  5
1A0
102
{ACAD_REACTORS
330
C7
102
}
100
AcDbEntity
  8
M05
  6
HIDDEN
100
AcDbLine
 10
869.458914
 20
527.784532
 30
0.0
 11
868.758914
 21
527.084532
 31
0.0
  0
LINE
  5
1A1
100
AcDbEntity
  8
M05
100
AcDbLine
 10
876.117796
 20
538.943414
 30
0.0
 11
876.117796
 21
532.943414
 31
0.0
  0
LINE
  5
1A2
100
AcDbEntity
  8
M05
100
AcDbLine
 10
871.617796
 20
535.393414
 30
0.0
 11
871.617796
 21
529.943414
 31
0.0
  0
LINE
  5
1A3
100
AcDbEntity
  8
M05
100
AcDbLine
 10
870.897796
 20
535.393414
 30
0.0
 11
870.897796
 21
529.943414
 31
0.0
  0
LINE
  5
1A4
100
AcDbEntity
  8
M05
100
AcDbLine
 10
870.897796
 20
535.393414
 30
0.0
 11
872.397796
 21
535.393414
 31
0.0
  0
LINE
  5
1A5
100
AcDbEntity
  8
M05
100
AcDbLine
 10
870.897796
 20
536.493414
 30
0.0
 11
872.397796
 21
536.493414
 31
0.0
  0
LINE
  5
1A6
100
AcDbEntity
  8
M05
100
AcDbLine
 10
872.397796
 20
536.493414
 30
0.0
 11
872.397796
 21
535.393414
 31
0.0
  0
LINE
  5
1A7
100
AcDbEntity
  8
M05
100
AcDbLine
 10
874.117796
 20
532.443414
 30
0.0
 11
876.758914
 21
532.443414
 31
0.0
  0
LINE
  5
1A8
100
AcDbEntity
  8
M05
100
AcDbLine
 10
874.117796
 20
539.443414
 30
0.0
 11
876.758914
 21
539.443414
 31
0.0
  0
LINE
  5
1A9
100
AcDbEntity
  8
M05
100
AcDbLine
 10
871.617796
 20
541.943414
 30
0.0
 11
871.617796
 21
536.493414
 31
0.0
  0
LINE
  5
1AA
102
{ACAD_REACTORS
330
C7
102
}
100
AcDbEntity
  8
M05
100
AcDbLine
 10
874.617796
 20
538.943414
 30
0.0
 11
869.458914
 21
544.102296
 31
0.0
  0
LINE
  5
1AB
100
AcDbEntity
  8
M05
100
AcDbLine
 10
870.897796
 20
541.943414
 30
0.0
 11
871.617796
 21
541.943414
 31
0.0
  0
LINE
  5
1AC
102
{ACAD_REACTORS
330
C7
102
}
100
AcDbEntity
  8
M05
100
AcDbLine
 10
874.617796
 20
532.943414
 30
0.0
 11
869.458914
 21
527.784532
 31
0.0
  0
LINE
  5
1AD
100
AcDbEntity
  8
M05
100
AcDbLine
 10
874.617796
 20
538.943414
 30
0.0
 11
874.617796
 21
532.943414
 31
0.0
  0
LINE
  5
1AE
100
AcDbEntity
  8
M05
100
AcDbLine
 10
874.617796
 20
538.943414
 30
0.0
 11
888.197796
 21
538.943414
 31
0.0
  0
LINE
  5
1AF
100
AcDbEntity
  8
M05
100
AcDbLine
 10
874.617796
 20
532.943414
 30
0.0
 11
888.197796
 21
532.943414
 31
0.0
  0
LINE
  5
1B0
100
AcDbEntity
  8
M05
100
AcDbLine
 10
870.897796
 20
529.943414
 30
0.0
 11
871.617796
 21
529.943414
 31
0.0
  0
LINE
  5
1B1
100
AcDbEntity
  8
M05
100
AcDbLine
 10
870.897796
 20
541.943414
 30
0.0
 11
870.897796
 21
536.493414
 31
0.0
  0
LINE
  5
1B2
102
{ACAD_REACTORS
330
C7
102
}
100
AcDbEntity
  8
M05
  6
HIDDEN
100
AcDbLine
 10
869.458914
 20
549.943414
 30
0.0
 11
869.458914
 21
521.943414
 31
0.0
  0
LINE
  5
1B3
102
{ACAD_REACTORS
330
C8
330
C7
102
}
100
AcDbEntity
  8
M05
  6
HIDDEN
100
AcDbLine
 10
869.458914
 20
521.943414
 30
0.0
 11
868.758914
 21
522.643414
 31
0.0
  0
LINE
  5
1B4
102
{ACAD_REACTORS
330
C8
330
C7
102
}
100
AcDbEntity
  8
M05
  6
HIDDEN
100
AcDbLine
 10
870.458914
 20
521.943414
 30
0.0
 11
869.458914
 21
521.943414
 31
0.0
  0
LINE
  5
1B5
100
AcDbEntity
  8
M05
100
AcDbLine
 10
870.458914
 20
521.943414
 30
0.0
 11
869.758914
 21
522.643414
 31
0.0
  0
LINE
  5
1B6
100
AcDbEntity
  8
M05
100
AcDbLine
 10
876.058914
 20
521.943414
 30
0.0
 11
876.758914
 21
522.643414
 31
0.0
  0
LINE
  5
1B7
100
AcDbEntity
  8
M05
100
AcDbLine
 10
870.458914
 20
521.943414
 30
0.0
 11
876.058914
 21
521.943414
 31
0.0
  0
LINE
  5
1B8
102
{ACAD_REACTORS
330
C8
330
C7
102
}
100
AcDbEntity
  8
M05
  6
HIDDEN
100
AcDbLine
 10
869.458914
 20
549.943414
 30
0.0
 11
868.758914
 21
549.243414
 31
0.0
  0
LINE
  5
1B9
102
{ACAD_REACTORS
330
C8
330
C7
102
}
100
AcDbEntity
  8
M05
  6
HIDDEN
100
AcDbLine
 10
870.458914
 20
549.943414
 30
0.0
 11
869.458914
 21
549.943414
 31
0.0
  0
LINE
  5
1BA
100
AcDbEntity
  8
M05
100
AcDbLine
 10
870.458914
 20
549.943414
 30
0.0
 11
869.758914
 21
549.243414
 31
0.0
  0
LINE
  5
1BB
100
AcDbEntity
  8
M05
100
AcDbLine
 10
876.058914
 20
549.943414
 30
0.0
 11
876.758914
 21
549.243414
 31
0.0
  0
LINE
  5
1BC
102
{ACAD_REACTORS
330
12C
102
}
100
AcDbEntity
  8
M02
100
AcDbLine
 10
869.758914
 20
520.943414
 30
0.0
 11
872.758914
 21
520.943414
 31
0.0
  0
LINE
  5
1BD
102
{ACAD_REACTORS
330
12C
102
}
100
AcDbEntity
  8
M02
100
AcDbLine
 10
869.758914
 20
550.943414
 30
0.0
 11
872.758914
 21
550.943414
 31
0.0
  0
LINE
  5
1BE
102
{ACAD_REACTORS
330
C8
330
C7
102
}
100
AcDbEntity
  8
M05
  6
HIDDEN
100
AcDbLine
 10
868.758914
 20
549.243414
 30
0.0
 11
868.758914
 21
522.643414
 31
0.0
  0
LINE
  5
1BF
100
AcDbEntity
  8
M05
100
AcDbLine
 10
870.458914
 20
549.943414
 30
0.0
 11
876.058914
 21
549.943414
 31
0.0
  0
LINE
  5
1C0
102
{ACAD_REACTORS
330
C7
102
}
100
AcDbEntity
  8
CENTRE
100
AcDbLine
 10
864.249804
 20
535.943414
 30
0.0
 11
897.328142
 21
535.943414
 31
0.0
  0
LINE
  5
1C1
102
{ACAD_REACTORS
330
C8
102
}
100
AcDbEntity
  8
M01
100
AcDbLine
 10
809.758914
 20
531.943414
 30
0.0
 11
826.758914
 21
531.943414
 31
0.0
  0
LINE
  5
1C2
102
{ACAD_REACTORS
330
C8
102
}
100
AcDbEntity
  8
M01
100
AcDbLine
 10
809.758914
 20
539.943414
 30
0.0
 11
826.758914
 21
539.943414
 31
0.0
  0
LINE
  5
1C3
102
{ACAD_REACTORS
330
12B
102
}
100
AcDbEntity
  8
M02
100
AcDbLine
 10
809.758914
 20
517.943414
 30
0.0
 11
806.758914
 21
517.943414
 31
0.0
  0
LINE
  5
1C4
102
{ACAD_REACTORS
330
12B
102
}
100
AcDbEntity
  8
M02
100
AcDbLine
 10
809.758914
 20
553.943414
 30
0.0
 11
806.758914
 21
553.943414
 31
0.0
  0
LINE
  5
1C5
100
AcDbEntity
  8
CENTRE
100
AcDbLine
 10
796.947319
 20
535.943414
 30
0.0
 11
834.758914
 21
535.943414
 31
0.0
  0
LINE
  5
1C6
100
AcDbEntity
  8
DIMS
 62
     4
100
AcDbLine
 10
401.054613
 20
481.719144
 30
0.0
 11
398.054613
 21
481.719144
 31
0.0
1001
ACAD
1000
DSTYLE
1002
{
1070
   144
1040
1.0
1002
}
  0
LINE
  5
1C7
100
AcDbEntity
  8
DIMS
 62
     4
100
AcDbLine
 10
427.076549
 20
500.090128
 30
0.0
 11
401.054613
 21
481.719144
 31
0.0
1001
ACAD
1000
DSTYLE
1002
{
1070
   144
1040
1.0
1002
}
  0
SOLID
  5
1C8
100
AcDbEntity
  8
DIMS
 62
     4
100
AcDbTrace
 10
426.788181
 20
500.498593
 30
0.0
 11
429.527339
 21
501.820338
 31
0.0
 12
427.364918
 22
499.681663
 32
0.0
 13
427.364918
 23
499.681663
 33
0.0
1001
ACAD
1000
DSTYLE
1002
{
1070
   144
1040
1.0
1002
}
  0
LEADER
  5
1C9
100
AcDbEntity
  8
DIMS
 62
     4
100
AcDbLeader
  3
DIM1$7
 76
     2
 10
528.004246
 20
176.851722
 30
0.0
 10
516.389293
 20
159.319276
 30
0.0
 77
   256
211
0.9626188335363941
221
0.2708597078212847
231
0.0
1001
ACAD
1000
DSTYLE
1002
{
1070
   144
1040
1.0
1002
}
  0
LINE
  5
1CB
100
AcDbEntity
  8
DIMS
 62
     4
100
AcDbLine
 10
628.644627
 20
181.943414
 30
0.0
 11
623.844627
 21
181.943414
 31
0.0
  0
LINE
  5
1CC
100
AcDbEntity
  8
DIMS
 62
     4
100
AcDbLine
 10
635.444627
 20
181.943414
 30
0.0
 11
640.244627
 21
181.943414
 31
0.0
  0
LINE
  5
1CD
100
AcDbEntity
  8
DIMS
 62
     4
100
AcDbLine
 10
632.044627
 20
178.543414
 30
0.0
 11
632.044627
 21
173.743414
 31
0.0
  0
LINE
  5
1CE
100
AcDbEntity
  8
DIMS
 62
     4
100
AcDbLine
 10
632.044627
 20
185.343414
 30
0.0
 11
632.044627
 21
190.143414
 31
0.0
  0
LINE
  5
1CF
100
AcDbEntity
  8
DIMS
 62
     4
100
AcDbLine
 10
633.744627
 20
181.943414
 30
0.0
 11
630.344627
 21
181.943414
 31
0.0
  0
LINE
  5
1D0
100
AcDbEntity
  8
DIMS
 62
     4
100
AcDbLine
 10
632.044627
 20
183.643414
 30
0.0
 11
632.044627
 21
180.243414
 31
0.0
  0
CIRCLE
  5
1D1
100
AcDbEntity
  8
M04
100
AcDbCircle
 10
632.044627
 20
181.943414
 30
0.0
 40
6.5
  0
LINE
  5
1D2
100
AcDbEntity
  8
DIMS
 62
     4
100
AcDbLine
 10
428.644627
 20
181.943414
 30
0.0
 11
423.844627
 21
181.943414
 31
0.0
  0
LINE
  5
1D3
100
AcDbEntity
  8
DIMS
 62
     4
100
AcDbLine
 10
435.444627
 20
181.943414
 30
0.0
 11
440.244627
 21
181.943414
 31
0.0
  0
LINE
  5
1D4
100
AcDbEntity
  8
DIMS
 62
     4
100
AcDbLine
 10
432.044627
 20
178.543414
 30
0.0
 11
432.044627
 21
173.743414
 31
0.0
  0
LINE
  5
1D5
100
AcDbEntity
  8
DIMS
 62
     4
100
AcDbLine
 10
432.044627
 20
185.343414
 30
0.0
 11
432.044627
 21
190.143414
 31
0.0
  0
LINE
  5
1D6
100
AcDbEntity
  8
DIMS
 62
     4
100
AcDbLine
 10
433.744627
 20
181.943414
 30
0.0
 11
430.344627
 21
181.943414
 31
0.0
  0
LINE
  5
1D7
100
AcDbEntity
  8
DIMS
 62
     4
100
AcDbLine
 10
432.044627
 20
183.643414
 30
0.0
 11
432.044627
 21
180.243414
 31
0.0
  0
CIRCLE
  5
1D8
100
AcDbEntity
  8
M04
100
AcDbCircle
 10
432.044627
 20
181.943414
 30
0.0
 40
6.5
  0
LINE
  5
1D9
100
AcDbEntity
  8
DIMS
 62
     4
100
AcDbLine
 10
528.644627
 20
181.943414
 30
0.0
 11
523.844627
 21
181.943414
 31
0.0
  0
LINE
  5
1DA
100
AcDbEntity
  8
DIMS
 62
     4
100
AcDbLine
 10
535.444627
 20
181.943414
 30
0.0
 11
540.244627
 21
181.943414
 31
0.0
  0
LINE
  5
1DB
100
AcDbEntity
  8
DIMS
 62
     4
100
AcDbLine
 10
533.744627
 20
181.943414
 30
0.0
 11
530.344627
 21
181.943414
 31
0.0
  0
CIRCLE
  5
1DC
100
AcDbEntity
  8
M04
100
AcDbCircle
 10
532.044627
 20
181.943414
 30
0.0
 40
6.5
  0
LINE
  5
1DD
100
AcDbEntity
  8
DIMS
 62
     4
100
AcDbLine
 10
402.044627
 20
389.343414
 30
0.0
 11
402.044627
 21
394.143414
 31
0.0
  0
LINE
  5
1DE
100
AcDbEntity
  8
DIMS
 62
     4
100
AcDbLine
 10
402.044627
 20
382.543414
 30
0.0
 11
402.044627
 21
377.743414
 31
0.0
  0
LINE
  5
1DF
100
AcDbEntity
  8
DIMS
 62
     4
100
AcDbLine
 10
402.044627
 20
384.243414
 30
0.0
 11
402.044627
 21
387.643414
 31
0.0
  0
CIRCLE
  5
1E0
100
AcDbEntity
  8
M04
100
AcDbCircle
 10
402.044627
 20
385.943414
 30
0.0
 40
6.5
  0
LINE
  5
1E1
100
AcDbEntity
  8
DIMS
 62
     4
100
AcDbLine
 10
402.917715
 20
303.416502
 30
0.0
 11
407.717715
 21
303.416502
 31
0.0
  0
LINE
  5
1E2
100
AcDbEntity
  8
DIMS
 62
     4
100
AcDbLine
 10
396.117715
 20
303.416502
 30
0.0
 11
391.317715
 21
303.416502
 31
0.0
  0
LINE
  5
1E3
100
AcDbEntity
  8
DIMS
 62
     4
100
AcDbLine
 10
399.517715
 20
300.016502
 30
0.0
 11
399.517715
 21
295.216502
 31
0.0
  0
LINE
  5
1E4
100
AcDbEntity
  8
DIMS
 62
     4
100
AcDbLine
 10
399.517715
 20
306.816502
 30
0.0
 11
399.517715
 21
311.616502
 31
0.0
  0
LINE
  5
1E5
100
AcDbEntity
  8
DIMS
 62
     4
100
AcDbLine
 10
397.817715
 20
303.416502
 30
0.0
 11
401.217715
 21
303.416502
 31
0.0
  0
LINE
  5
1E6
100
AcDbEntity
  8
DIMS
 62
     4
100
AcDbLine
 10
399.517715
 20
305.116502
 30
0.0
 11
399.517715
 21
301.716502
 31
0.0
  0
CIRCLE
  5
1E7
100
AcDbEntity
  8
M04
100
AcDbCircle
 10
399.517715
 20
303.416502
 30
0.0
 40
6.5
  0
LINE
  5
1E8
100
AcDbEntity
  8
DIMS
 62
     4
100
AcDbLine
 10
661.171538
 20
303.416502
 30
0.0
 11
656.371538
 21
303.416502
 31
0.0
  0
LINE
  5
1E9
100
AcDbEntity
  8
DIMS
 62
     4
100
AcDbLine
 10
667.971538
 20
303.416502
 30
0.0
 11
672.771538
 21
303.416502
 31
0.0
  0
LINE
  5
1EA
100
AcDbEntity
  8
DIMS
 62
     4
100
AcDbLine
 10
664.571538
 20
300.016502
 30
0.0
 11
664.571538
 21
295.216502
 31
0.0
  0
LINE
  5
1EB
100
AcDbEntity
  8
DIMS
 62
     4
100
AcDbLine
 10
664.571538
 20
306.816502
 30
0.0
 11
664.571538
 21
311.616502
 31
0.0
  0
LINE
  5
1EC
100
AcDbEntity
  8
DIMS
 62
     4
100
AcDbLine
 10
666.271538
 20
303.416502
 30
0.0
 11
662.871538
 21
303.416502
 31
0.0
  0
LINE
  5
1ED
100
AcDbEntity
  8
DIMS
 62
     4
100
AcDbLine
 10
664.571538
 20
305.116502
 30
0.0
 11
664.571538
 21
301.716502
 31
0.0
  0
CIRCLE
  5
1EE
100
AcDbEntity
  8
M04
100
AcDbCircle
 10
664.571538
 20
303.416502
 30
0.0
 40
6.5
  0
LINE
  5
1EF
100
AcDbEntity
  8
DIMS
 62
     4
100
AcDbLine
 10
402.917715
 20
268.470326
 30
0.0
 11
407.717715
 21
268.470326
 31
0.0
  0
LINE
  5
1F0
100
AcDbEntity
  8
DIMS
 62
     4
100
AcDbLine
 10
396.117715
 20
268.470326
 30
0.0
 11
391.317715
 21
268.470326
 31
0.0
  0
LINE
  5
1F1
100
AcDbEntity
  8
DIMS
 62
     4
100
AcDbLine
 10
399.517715
 20
271.870326
 30
0.0
 11
399.517715
 21
276.670326
 31
0.0
  0
LINE
  5
1F2
100
AcDbEntity
  8
DIMS
 62
     4
100
AcDbLine
 10
399.517715
 20
265.070326
 30
0.0
 11
399.517715
 21
260.270326
 31
0.0
  0
LINE
  5
1F3
100
AcDbEntity
  8
DIMS
 62
     4
100
AcDbLine
 10
397.817715
 20
268.470326
 30
0.0
 11
401.217715
 21
268.470326
 31
0.0
  0
LINE
  5
1F4
100
AcDbEntity
  8
DIMS
 62
     4
100
AcDbLine
 10
399.517715
 20
266.770326
 30
0.0
 11
399.517715
 21
270.170326
 31
0.0
  0
CIRCLE
  5
1F5
100
AcDbEntity
  8
M04
100
AcDbCircle
 10
399.517715
 20
268.470326
 30
0.0
 40
6.5
  0
LINE
  5
1F6
100
AcDbEntity
  8
DIMS
 62
     4
100
AcDbLine
 10
661.171538
 20
268.470326
 30
0.0
 11
656.371538
 21
268.470326
 31
0.0
  0
LINE
  5
1F7
100
AcDbEntity
  8
DIMS
 62
     4
100
AcDbLine
 10
667.971538
 20
268.470326
 30
0.0
 11
672.771538
 21
268.470326
 31
0.0
  0
LINE
  5
1F8
100
AcDbEntity
  8
DIMS
 62
     4
100
AcDbLine
 10
664.571538
 20
271.870326
 30
0.0
 11
664.571538
 21
276.670326
 31
0.0
  0
LINE
  5
1F9
100
AcDbEntity
  8
DIMS
 62
     4
100
AcDbLine
 10
664.571538
 20
265.070326
 30
0.0
 11
664.571538
 21
260.270326
 31
0.0
  0
LINE
  5
1FA
100
AcDbEntity
  8
DIMS
 62
     4
100
AcDbLine
 10
666.271538
 20
268.470326
 30
0.0
 11
662.871538
 21
268.470326
 31
0.0
  0
LINE
  5
1FB
100
AcDbEntity
  8
DIMS
 62
     4
100
AcDbLine
 10
664.571538
 20
266.770326
 30
0.0
 11
664.571538
 21
270.170326
 31
0.0
  0
CIRCLE
  5
1FC
100
AcDbEntity
  8
M04
100
AcDbCircle
 10
664.571538
 20
268.470326
 30
0.0
 40
6.5
  0
LINE
  5
1FD
100
AcDbEntity
  8
DIMS
 62
     4
100
AcDbLine
 10
662.044627
 20
389.343414
 30
0.0
 11
662.044627
 21
394.143414
 31
0.0
  0
LINE
  5
1FE
100
AcDbEntity
  8
DIMS
 62
     4
100
AcDbLine
 10
662.044627
 20
382.543414
 30
0.0
 11
662.044627
 21
377.743414
 31
0.0
  0
LINE
  5
1FF
100
AcDbEntity
  8
DIMS
 62
     4
100
AcDbLine
 10
662.044627
 20
384.243414
 30
0.0
 11
662.044627
 21
387.643414
 31
0.0
  0
CIRCLE
  5
200
100
AcDbEntity
  8
M04
100
AcDbCircle
 10
662.044627
 20
385.943414
 30
0.0
 40
6.5
  0
LINE
  5
201
100
AcDbEntity
  8
DIMS
 62
     4
100
AcDbLine
 10
402.917715
 20
468.470326
 30
0.0
 11
407.717715
 21
468.470326
 31
0.0
  0
LINE
  5
202
100
AcDbEntity
  8
DIMS
 62
     4
100
AcDbLine
 10
396.117715
 20
468.470326
 30
0.0
 11
391.317715
 21
468.470326
 31
0.0
  0
LINE
  5
203
100
AcDbEntity
  8
DIMS
 62
     4
100
AcDbLine
 10
399.517715
 20
471.870326
 30
0.0
 11
399.517715
 21
476.670326
 31
0.0
  0
LINE
  5
204
100
AcDbEntity
  8
DIMS
 62
     4
100
AcDbLine
 10
399.517715
 20
465.070326
 30
0.0
 11
399.517715
 21
460.270326
 31
0.0
  0
LINE
  5
205
100
AcDbEntity
  8
DIMS
 62
     4
100
AcDbLine
 10
397.817715
 20
468.470326
 30
0.0
 11
401.217715
 21
468.470326
 31
0.0
  0
LINE
  5
206
100
AcDbEntity
  8
DIMS
 62
     4
100
AcDbLine
 10
399.517715
 20
466.770326
 30
0.0
 11
399.517715
 21
470.170326
 31
0.0
  0
CIRCLE
  5
207
100
AcDbEntity
  8
M04
100
AcDbCircle
 10
399.517715
 20
468.470326
 30
0.0
 40
6.5
  0
LINE
  5
208
100
AcDbEntity
  8
DIMS
 62
     4
100
AcDbLine
 10
661.171538
 20
468.470326
 30
0.0
 11
656.371538
 21
468.470326
 31
0.0
  0
LINE
  5
209
100
AcDbEntity
  8
DIMS
 62
     4
100
AcDbLine
 10
667.971538
 20
468.470326
 30
0.0
 11
672.771538
 21
468.470326
 31
0.0
  0
LINE
  5
20A
100
AcDbEntity
  8
DIMS
 62
     4
100
AcDbLine
 10
664.571538
 20
471.870326
 30
0.0
 11
664.571538
 21
476.670326
 31
0.0
  0
LINE
  5
20B
100
AcDbEntity
  8
DIMS
 62
     4
100
AcDbLine
 10
664.571538
 20
465.070326
 30
0.0
 11
664.571538
 21
460.270326
 31
0.0
  0
LINE
  5
20C
100
AcDbEntity
  8
DIMS
 62
     4
100
AcDbLine
 10
666.271538
 20
468.470326
 30
0.0
 11
662.871538
 21
468.470326
 31
0.0
  0
LINE
  5
20D
100
AcDbEntity
  8
DIMS
 62
     4
100
AcDbLine
 10
664.571538
 20
466.770326
 30
0.0
 11
664.571538
 21
470.170326
 31
0.0
  0
CIRCLE
  5
20E
100
AcDbEntity
  8
M04
100
AcDbCircle
 10
664.571538
 20
468.470326
 30
0.0
 40
6.5
  0
LINE
  5
20F
100
AcDbEntity
  8
DIMS
 62
     4
100
AcDbLine
 10
464.571538
 20
565.070326
 30
0.0
 11
464.571538
 21
560.270326
 31
0.0
  0
LINE
  5
210
100
AcDbEntity
  8
DIMS
 62
     4
100
AcDbLine
 10
464.571538
 20
571.870326
 30
0.0
 11
464.571538
 21
576.670326
 31
0.0
  0
LINE
  5
211
100
AcDbEntity
  8
DIMS
 62
     4
100
AcDbLine
 10
467.971538
 20
568.470326
 30
0.0
 11
472.771538
 21
568.470326
 31
0.0
  0
LINE
  5
212
100
AcDbEntity
  8
DIMS
 62
     4
100
AcDbLine
 10
461.171538
 20
568.470326
 30
0.0
 11
456.371538
 21
568.470326
 31
0.0
  0
LINE
  5
213
100
AcDbEntity
  8
DIMS
 62
     4
100
AcDbLine
 10
464.571538
 20
570.170326
 30
0.0
 11
464.571538
 21
566.770326
 31
0.0
  0
LINE
  5
214
100
AcDbEntity
  8
DIMS
 62
     4
100
AcDbLine
 10
462.871538
 20
568.470326
 30
0.0
 11
466.271538
 21
568.470326
 31
0.0
  0
CIRCLE
  5
215
100
AcDbEntity
  8
M04
100
AcDbCircle
 10
464.571538
 20
568.470326
 30
0.0
 40
6.5
  0
LINE
  5
216
100
AcDbEntity
  8
DIMS
 62
     4
100
AcDbLine
 10
402.917715
 20
503.416502
 30
0.0
 11
407.717715
 21
503.416502
 31
0.0
  0
LINE
  5
217
100
AcDbEntity
  8
DIMS
 62
     4
100
AcDbLine
 10
396.117715
 20
503.416502
 30
0.0
 11
391.317715
 21
503.416502
 31
0.0
  0
LINE
  5
218
100
AcDbEntity
  8
DIMS
 62
     4
100
AcDbLine
 10
399.517715
 20
500.016502
 30
0.0
 11
399.517715
 21
495.216502
 31
0.0
  0
LINE
  5
219
100
AcDbEntity
  8
DIMS
 62
     4
100
AcDbLine
 10
399.517715
 20
506.816502
 30
0.0
 11
399.517715
 21
511.616502
 31
0.0
  0
LINE
  5
21A
100
AcDbEntity
  8
DIMS
 62
     4
100
AcDbLine
 10
397.817715
 20
503.416502
 30
0.0
 11
401.217715
 21
503.416502
 31
0.0
  0
LINE
  5
21B
100
AcDbEntity
  8
DIMS
 62
     4
100
AcDbLine
 10
399.517715
 20
505.116502
 30
0.0
 11
399.517715
 21
501.716502
 31
0.0
  0
CIRCLE
  5
21C
100
AcDbEntity
  8
M04
100
AcDbCircle
 10
399.517715
 20
503.416502
 30
0.0
 40
6.5
  0
LINE
  5
21D
100
AcDbEntity
  8
DIMS
 62
     4
100
AcDbLine
 10
599.517715
 20
565.070326
 30
0.0
 11
599.517715
 21
560.270326
 31
0.0
  0
LINE
  5
21E
100
AcDbEntity
  8
DIMS
 62
     4
100
AcDbLine
 10
599.517715
 20
571.870326
 30
0.0
 11
599.517715
 21
576.670326
 31
0.0
  0
LINE
  5
21F
100
AcDbEntity
  8
DIMS
 62
     4
100
AcDbLine
 10
596.117715
 20
568.470326
 30
0.0
 11
591.317715
 21
568.470326
 31
0.0
  0
LINE
  5
220
100
AcDbEntity
  8
DIMS
 62
     4
100
AcDbLine
 10
602.917715
 20
568.470326
 30
0.0
 11
607.717715
 21
568.470326
 31
0.0
  0
LINE
  5
221
100
AcDbEntity
  8
DIMS
 62
     4
100
AcDbLine
 10
599.517715
 20
570.170326
 30
0.0
 11
599.517715
 21
566.770326
 31
0.0
  0
LINE
  5
222
100
AcDbEntity
  8
DIMS
 62
     4
100
AcDbLine
 10
601.217715
 20
568.470326
 30
0.0
 11
597.817715
 21
568.470326
 31
0.0
  0
CIRCLE
  5
223
100
AcDbEntity
  8
M04
100
AcDbCircle
 10
599.517715
 20
568.470326
 30
0.0
 40
6.5
  0
LINE
  5
224
100
AcDbEntity
  8
DIMS
 62
     4
100
AcDbLine
 10
661.171538
 20
503.416502
 30
0.0
 11
656.371538
 21
503.416502
 31
0.0
  0
LINE
  5
225
100
AcDbEntity
  8
DIMS
 62
     4
100
AcDbLine
 10
667.971538
 20
503.416502
 30
0.0
 11
672.771538
 21
503.416502
 31
0.0
  0
LINE
  5
226
100
AcDbEntity
  8
DIMS
 62
     4
100
AcDbLine
 10
664.571538
 20
500.016502
 30
0.0
 11
664.571538
 21
495.216502
 31
0.0
  0
LINE
  5
227
100
AcDbEntity
  8
DIMS
 62
     4
100
AcDbLine
 10
664.571538
 20
506.816502
 30
0.0
 11
664.571538
 21
511.616502
 31
0.0
  0
LINE
  5
228
100
AcDbEntity
  8
DIMS
 62
     4
100
AcDbLine
 10
666.271538
 20
503.416502
 30
0.0
 11
662.871538
 21
503.416502
 31
0.0
  0
LINE
  5
229
100
AcDbEntity
  8
DIMS
 62
     4
100
AcDbLine
 10
664.571538
 20
505.116502
 30
0.0
 11
664.571538
 21
501.716502
 31
0.0
  0
CIRCLE
  5
22A
100
AcDbEntity
  8
M04
100
AcDbCircle
 10
664.571538
 20
503.416502
 30
0.0
 40
6.5
  0
CIRCLE
  5
22B
100
AcDbEntity
  8
M03
100
AcDbCircle
 10
632.044627
 20
535.943414
 30
0.0
 40
15.0
  0
HATCH
  5
22C
100
AcDbEntity
  8
M03
100
AcDbHatch
 10
0.0
 20
0.0
 30
0.0
210
0.0
220
0.0
230
1.0
  2
_U
 70
     0
 71
     0
 91
        1
 92
        7
 72
     0
 73
     1
 93
        4
 10
642.1469919195455
 20
511.9632325788175
 10
662.8217048430817
 20
532.6379455023536
 10
664.1652077273363
 20
531.2944426180993
 10
643.4904948037996
 20
510.6197296945629
 97
        0
 75
     0
 76
     0
 52
195.0
 41
0.7
 77
     0
 78
     1
 53
255.0
 43
1275.431404
 44
573.255921
 45
-0.676148078402348
 46
0.1811733315717644
 79
     0
 47
0.060863
 98
        1
 10
645.596685
 20
513.733644
  0
HATCH
  5
22D
100
AcDbEntity
  8
M03
100
AcDbHatch
 10
0.0
 20
0.0
 30
0.0
210
0.0
220
0.0
230
1.0
  2
_U
 70
     0
 71
     0
 91
        1
 92
        7
 72
     0
 73
     1
 93
        4
 10
642.1469919195454
 20
511.9632325788175
 10
662.8217048430819
 20
532.6379455023539
 10
664.1652077273363
 20
531.2944426180993
 10
643.4904948037996
 20
510.6197296945629
 97
        0
 75
     0
 76
     0
 52
-105.0
 41
0.7
 77
     0
 78
     1
 53
195.0
 43
1275.431404
 44
573.255921
 45
-0.1811733315717643
 46
0.6761480784023478
 79
     0
 47
0.060863
 98
        1
 10
645.553701
 20
514.034954
  0
LINE
  5
22E
100
AcDbEntity
  8
M03
100
AcDbLine
 10
620.787373
 20
509.836918
 30
0.0
 11
621.474748
 21
512.402235
 31
0.0
  0
LINE
  5
22F
100
AcDbEntity
  8
M03
100
AcDbLine
 10
624.040064
 20
513.089609
 30
0.0
 11
621.474748
 21
512.402235
 31
0.0
  0
LINE
  5
230
100
AcDbEntity
  8
M03
100
AcDbLine
 10
624.040064
 20
513.089609
 30
0.0
 11
620.787373
 21
509.836918
 31
0.0
  0
LINE
  5
231
100
AcDbEntity
  8
M03
100
AcDbLine
 10
625.595699
 20
512.523924
 30
0.0
 11
621.353058
 21
508.281283
 31
0.0
  0
LINE
  5
232
100
AcDbEntity
  8
M03
100
AcDbLine
 10
642.146992
 20
511.963233
 30
0.0
 11
662.821705
 21
532.637946
 31
0.0
  0
LINE
  5
233
100
AcDbEntity
  8
M03
100
AcDbLine
 10
643.490495
 20
510.61973
 30
0.0
 11
664.165208
 21
531.294443
 31
0.0
  0
LINE
  5
234
100
AcDbEntity
  8
M03
100
AcDbLine
 10
636.985112
 20
507.225617
 30
0.0
 11
626.868491
 21
497.108996
 31
0.0
  0
LINE
  5
235
100
AcDbEntity
  8
M03
100
AcDbLine
 10
637.158187
 20
508.530062
 30
0.0
 11
637.723872
 21
507.964377
 31
0.0
  0
LINE
  5
236
100
AcDbEntity
  8
M03
100
AcDbLine
 10
641.93486
 20
512.175365
 30
0.0
 11
643.702627
 21
510.407598
 31
0.0
  0
LINE
  5
237
100
AcDbEntity
  8
M03
100
AcDbLine
 10
643.702627
 20
510.407598
 30
0.0
 11
638.752879
 21
505.45785
 31
0.0
  0
LINE
  5
238
100
AcDbEntity
  8
M03
100
AcDbLine
 10
636.985112
 20
507.225617
 30
0.0
 11
638.752879
 21
505.45785
 31
0.0
  0
LINE
  5
239
100
AcDbEntity
  8
M03
100
AcDbLine
 10
626.302806
 20
497.674681
 30
0.0
 11
626.868491
 21
497.108996
 31
0.0
  0
ARC
  5
23A
100
AcDbEntity
  8
M03
100
AcDbCircle
 10
630.031991
 20
503.844992
 30
0.0
 40
5.826136
100
AcDbArc
 50
250.69541
 51
19.30459
  0
LINE
  5
23B
100
AcDbEntity
  8
M03
100
AcDbLine
 10
623.120825
 20
506.513516
 30
0.0
 11
623.120825
 21
507.503466
 31
0.0
  0
LINE
  5
23C
100
AcDbEntity
  8
M03
100
AcDbLine
 10
627.363466
 20
510.756157
 30
0.0
 11
626.373517
 21
510.756157
 31
0.0
  0
LINE
  5
23D
100
AcDbEntity
  8
M03
100
AcDbLine
 10
627.363466
 20
510.756157
 30
0.0
 11
623.120825
 21
506.513516
 31
0.0
  0
LINE
  5
23E
100
AcDbEntity
  8
M03
100
AcDbLine
 10
626.373517
 20
510.756157
 30
0.0
 11
623.120825
 21
507.503466
 31
0.0
  0
LINE
  5
23F
100
AcDbEntity
  8
M03
100
AcDbLine
 10
629.131233
 20
500.503109
 30
0.0
 11
624.181486
 21
495.553361
 31
0.0
  0
LINE
  5
240
100
AcDbEntity
  8
M03
100
AcDbLine
 10
640.939916
 20
512.311792
 30
0.0
 11
641.505602
 21
511.746106
 31
0.0
  0
LINE
  5
241
100
AcDbEntity
  8
M03
100
AcDbLine
 10
628.636258
 20
500.008134
 30
0.0
 11
629.201944
 21
499.442448
 31
0.0
  0
LINE
  5
242
100
AcDbEntity
  8
M03
100
AcDbLine
 10
620.787373
 20
509.836918
 30
0.0
 11
630.191893
 21
500.432398
 31
0.0
  0
LINE
  5
243
100
AcDbEntity
  8
M03
100
AcDbLine
 10
624.040064
 20
513.089609
 30
0.0
 11
633.444584
 21
503.685089
 31
0.0
  0
LINE
  5
244
100
AcDbEntity
  8
M03
100
AcDbLine
 10
625.595699
 20
512.523924
 30
0.0
 11
633.939559
 21
504.180064
 31
0.0
  0
LINE
  5
245
100
AcDbEntity
  8
M03
100
AcDbLine
 10
621.353058
 20
508.281283
 30
0.0
 11
629.696918
 21
499.937423
 31
0.0
  0
LINE
  5
246
100
AcDbEntity
  8
M03
100
AcDbLine
 10
641.93486
 20
512.175365
 30
0.0
 11
637.723872
 21
507.964377
 31
0.0
  0
LINE
  5
247
100
AcDbEntity
  8
M03
100
AcDbLine
 10
624.181486
 20
495.553361
 30
0.0
 11
628.066718
 21
491.668129
 31
0.0
  0
LINE
  5
248
100
AcDbEntity
  8
M03
100
AcDbLine
 10
664.044627
 20
535.416502
 30
0.0
 11
633.373874
 21
504.745749
 31
0.0
  0
LINE
  5
249
100
AcDbEntity
  8
CENTRE
100
AcDbLine
 10
618.384148
 20
515.492834
 30
0.0
 11
637.589274
 21
496.287708
 31
0.0
  0
HATCH
  5
24A
100
AcDbEntity
  8
M03
100
AcDbHatch
 10
0.0
 20
0.0
 30
0.0
210
0.0
220
0.0
230
1.0
  2
_U
 70
     0
 71
     0
 91
        1
 92
        7
 72
     0
 73
     1
 93
        4
 10
421.942261179468
 20
511.9632325788175
 10
401.2675482559318
 20
532.6379455023536
 10
399.9240453716772
 20
531.2944426180993
 10
420.5987582952138
 20
510.6197296945629
 97
        0
 75
     0
 76
     0
 52
195.0
 41
0.7
 77
     0
 78
     1
 53
285.0
 43
-211.342151
 44
573.255921
 45
0.676148078402348
 46
0.1811733315717644
 79
     0
 47
0.060863
 98
        1
 10
418.492568
 20
513.733644
  0
HATCH
  5
24B
100
AcDbEntity
  8
M03
100
AcDbHatch
 10
0.0
 20
0.0
 30
0.0
210
0.0
220
0.0
230
1.0
  2
_U
 70
     0
 71
     0
 91
        1
 92
        7
 72
     0
 73
     1
 93
        4
 10
421.9422611794682
 20
511.9632325788175
 10
401.2675482559315
 20
532.6379455023539
 10
399.9240453716772
 20
531.2944426180993
 10
420.5987582952138
 20
510.6197296945629
 97
        0
 75
     0
 76
     0
 52
-105.0
 41
0.7
 77
     0
 78
     1
 53
345.0
 43
-211.342151
 44
573.255921
 45
0.1811733315717643
 46
0.6761480784023478
 79
     0
 47
0.060863
 98
        1
 10
418.535552
 20
514.034954
  0
LINE
  5
24C
100
AcDbEntity
  8
M03
100
AcDbLine
 10
443.30188
 20
509.836918
 30
0.0
 11
442.614506
 21
512.402235
 31
0.0
  0
LINE
  5
24D
100
AcDbEntity
  8
M03
100
AcDbLine
 10
440.049189
 20
513.089609
 30
0.0
 11
442.614506
 21
512.402235
 31
0.0
  0
LINE
  5
24E
100
AcDbEntity
  8
M03
100
AcDbLine
 10
440.049189
 20
513.089609
 30
0.0
 11
443.30188
 21
509.836918
 31
0.0
  0
LINE
  5
24F
100
AcDbEntity
  8
M03
100
AcDbLine
 10
438.493554
 20
512.523924
 30
0.0
 11
442.736195
 21
508.281283
 31
0.0
  0
LINE
  5
250
100
AcDbEntity
  8
M03
100
AcDbLine
 10
421.942261
 20
511.963233
 30
0.0
 11
401.267548
 21
532.637946
 31
0.0
  0
LINE
  5
251
100
AcDbEntity
  8
M03
100
AcDbLine
 10
420.598758
 20
510.61973
 30
0.0
 11
399.924045
 21
531.294443
 31
0.0
  0
LINE
  5
252
100
AcDbEntity
  8
M03
100
AcDbLine
 10
427.104141
 20
507.225617
 30
0.0
 11
437.220762
 21
497.108996
 31
0.0
  0
LINE
  5
253
100
AcDbEntity
  8
M03
100
AcDbLine
 10
426.931066
 20
508.530062
 30
0.0
 11
426.365381
 21
507.964377
 31
0.0
  0
LINE
  5
254
100
AcDbEntity
  8
M03
100
AcDbLine
 10
422.154393
 20
512.175365
 30
0.0
 11
420.386626
 21
510.407598
 31
0.0
  0
LINE
  5
255
100
AcDbEntity
  8
M03
100
AcDbLine
 10
420.386626
 20
510.407598
 30
0.0
 11
425.336374
 21
505.45785
 31
0.0
  0
LINE
  5
256
100
AcDbEntity
  8
M03
100
AcDbLine
 10
427.104141
 20
507.225617
 30
0.0
 11
425.336374
 21
505.45785
 31
0.0
  0
LINE
  5
257
100
AcDbEntity
  8
M03
100
AcDbLine
 10
437.786447
 20
497.674681
 30
0.0
 11
437.220762
 21
497.108996
 31
0.0
  0
ARC
  5
258
100
AcDbEntity
  8
M03
100
AcDbCircle
 10
434.057262
 20
503.844992
 30
0.0
 40
5.826136
100
AcDbArc
 50
160.69541
 51
289.30459
  0
LINE
  5
259
100
AcDbEntity
  8
M03
100
AcDbLine
 10
440.968428
 20
506.513516
 30
0.0
 11
440.968428
 21
507.503466
 31
0.0
  0
LINE
  5
25A
100
AcDbEntity
  8
M03
100
AcDbLine
 10
436.725787
 20
510.756157
 30
0.0
 11
437.715737
 21
510.756157
 31
0.0
  0
LINE
  5
25B
100
AcDbEntity
  8
M03
100
AcDbLine
 10
436.725787
 20
510.756157
 30
0.0
 11
440.968428
 21
506.513516
 31
0.0
  0
LINE
  5
25C
100
AcDbEntity
  8
M03
100
AcDbLine
 10
437.715737
 20
510.756157
 30
0.0
 11
440.968428
 21
507.503466
 31
0.0
  0
LINE
  5
25D
100
AcDbEntity
  8
M03
100
AcDbLine
 10
434.95802
 20
500.503109
 30
0.0
 11
439.907768
 21
495.553361
 31
0.0
  0
LINE
  5
25E
100
AcDbEntity
  8
M03
100
AcDbLine
 10
423.149337
 20
512.311792
 30
0.0
 11
422.583651
 21
511.746106
 31
0.0
  0
LINE
  5
25F
100
AcDbEntity
  8
M03
100
AcDbLine
 10
435.452995
 20
500.008134
 30
0.0
 11
434.887309
 21
499.442448
 31
0.0
  0
LINE
  5
260
100
AcDbEntity
  8
M03
100
AcDbLine
 10
443.30188
 20
509.836918
 30
0.0
 11
433.89736
 21
500.432398
 31
0.0
  0
LINE
  5
261
100
AcDbEntity
  8
M03
100
AcDbLine
 10
440.049189
 20
513.089609
 30
0.0
 11
430.644669
 21
503.685089
 31
0.0
  0
LINE
  5
262
100
AcDbEntity
  8
M03
100
AcDbLine
 10
438.493554
 20
512.523924
 30
0.0
 11
430.149694
 21
504.180064
 31
0.0
  0
LINE
  5
263
100
AcDbEntity
  8
M03
100
AcDbLine
 10
442.736195
 20
508.281283
 30
0.0
 11
434.392335
 21
499.937423
 31
0.0
  0
LINE
  5
264
100
AcDbEntity
  8
M03
100
AcDbLine
 10
422.154393
 20
512.175365
 30
0.0
 11
426.365381
 21
507.964377
 31
0.0
  0
LINE
  5
265
100
AcDbEntity
  8
M03
100
AcDbLine
 10
439.907768
 20
495.553361
 30
0.0
 11
436.022536
 21
491.668129
 31
0.0
  0
LINE
  5
266
100
AcDbEntity
  8
M03
100
AcDbLine
 10
400.044627
 20
535.416502
 30
0.0
 11
430.715379
 21
504.745749
 31
0.0
  0
LINE
  5
267
100
AcDbEntity
  8
CENTRE
100
AcDbLine
 10
445.705105
 20
515.492834
 30
0.0
 11
426.499979
 21
496.287708
 31
0.0
  0
ARC
  5
268
100
AcDbEntity
  8
M04
100
AcDbCircle
 10
425.476084
 20
285.943414
 30
0.0
 40
5.0
100
AcDbArc
 50
315.0
 51
45.0
  0
LINE
  5
269
100
AcDbEntity
  8
M04
100
AcDbLine
 10
390.321908
 20
243.718171
 30
0.0
 11
429.011618
 21
282.40788
 31
0.0
  0
LINE
  5
26A
100
AcDbEntity
  8
M04
100
AcDbLine
 10
426.096665
 20
192.943414
 30
0.0
 11
637.992588
 21
192.943414
 31
0.0
  0
LINE
  5
26B
100
AcDbEntity
  8
M04
100
AcDbLine
 10
673.767345
 20
243.718171
 30
0.0
 11
635.077635
 21
282.40788
 31
0.0
  0
ARC
  5
26C
100
AcDbEntity
  8
M04
100
AcDbCircle
 10
638.613169
 20
285.943414
 30
0.0
 40
5.0
100
AcDbArc
 50
135.0
 51
225.0
  0
ARC
  5
26D
100
AcDbEntity
  8
M04
100
AcDbCircle
 10
473.044627
 20
551.511957
 30
0.0
 40
5.0
100
AcDbArc
 50
225.0
 51
0.0
  0
ARC
  5
26E
100
AcDbEntity
  8
M04
100
AcDbCircle
 10
591.044627
 20
551.511957
 30
0.0
 40
5.0
100
AcDbArc
 50
180.0
 51
315.0
  0
LINE
  5
26F
100
AcDbEntity
  8
M04
100
AcDbLine
 10
390.321908
 20
328.168658
 30
0.0
 11
429.011618
 21
289.478948
 31
0.0
  0
LINE
  5
270
100
AcDbEntity
  8
M04
100
AcDbLine
 10
673.767345
 20
328.168658
 30
0.0
 11
635.077635
 21
289.478948
 31
0.0
  0
ARC
  5
271
100
AcDbEntity
  8
M04
100
AcDbCircle
 10
425.476084
 20
485.943414
 30
0.0
 40
5.0
100
AcDbArc
 50
315.0
 51
45.0
  0
LINE
  5
272
100
AcDbEntity
  8
M04
100
AcDbLine
 10
673.767345
 20
443.718171
 30
0.0
 11
635.077635
 21
482.40788
 31
0.0
  0
ARC
  5
273
100
AcDbEntity
  8
M04
100
AcDbCircle
 10
638.613169
 20
485.943414
 30
0.0
 40
5.0
100
AcDbArc
 50
135.0
 51
225.0
  0
LINE
  5
274
100
AcDbEntity
  8
M04
100
AcDbLine
 10
673.767345
 20
528.168657
 30
0.0
 11
635.077635
 21
489.478948
 31
0.0
  0
LINE
  5
275
100
AcDbEntity
  8
M04
100
AcDbLine
 10
390.321908
 20
443.718171
 30
0.0
 11
429.011618
 21
482.40788
 31
0.0
  0
LINE
  5
276
100
AcDbEntity
  8
M04
100
AcDbLine
 10
390.321908
 20
528.168658
 30
0.0
 11
429.011618
 21
489.478948
 31
0.0
  0
LINE
  5
277
100
AcDbEntity
  8
CENTRE
100
AcDbLine
 10
542.044627
 20
651.104303
 30
0.0
 11
542.044627
 21
587.510872
 31
0.0
  0
LINE
  5
278
100
AcDbEntity
  8
CENTRE
100
AcDbLine
 10
566.044627
 20
651.104303
 30
0.0
 11
566.044627
 21
587.510872
 31
0.0
  0
LINE
  5
279
100
AcDbEntity
  8
M04
100
AcDbLine
 10
624.26987
 20
577.666132
 30
0.0
 11
594.58016
 21
547.976423
 31
0.0
  0
LINE
  5
27A
100
AcDbEntity
  8
M04
100
AcDbLine
 10
439.819383
 20
577.666132
 30
0.0
 11
469.509093
 21
547.976423
 31
0.0
  0
LINE
  5
27B
100
AcDbEntity
  8
M04
100
AcDbLine
 10
586.044627
 20
644.943414
 30
0.0
 11
586.044627
 21
551.511957
 31
0.0
  0
LINE
  5
27C
100
AcDbEntity
  8
M04
100
AcDbLine
 10
571.044627
 20
659.943414
 30
0.0
 11
571.044627
 21
680.614892
 31
0.0
  0
ARC
  5
27D
100
AcDbEntity
  8
M04
100
AcDbCircle
 10
571.044627
 20
644.943414
 30
0.0
 40
15.0
100
AcDbArc
 50
0.0
 51
90.0
  0
LINE
  5
27E
100
AcDbEntity
  8
M01
100
AcDbLine
 10
538.794627
 20
621.887514
 30
0.0
 11
545.294627
 21
621.887514
 31
0.0
  0
LINE
  5
27F
100
AcDbEntity
  8
M01
100
AcDbLine
 10
538.794627
 20
629.999314
 30
0.0
 11
545.294627
 21
629.999314
 31
0.0
  0
LINE
  5
280
100
AcDbEntity
  8
M01
100
AcDbLine
 10
538.794627
 20
621.887514
 30
0.0
 11
538.794627
 21
619.943414
 31
0.0
  0
ARC
  5
281
100
AcDbEntity
  8
M01
100
AcDbCircle
 10
537.544627
 20
623.448764
 30
0.0
 40
2.0
100
AcDbArc
 50
308.682187
 51
0.0
  0
ARC
  5
282
100
AcDbEntity
  8
M01
100
AcDbCircle
 10
537.544627
 20
628.438064
 30
0.0
 40
2.0
100
AcDbArc
 50
0.0
 51
51.317813
  0
LINE
  5
283
100
AcDbEntity
  8
M01
100
AcDbLine
 10
538.794627
 20
631.943414
 30
0.0
 11
538.794627
 21
629.999314
 31
0.0
  0
LINE
  5
284
100
AcDbEntity
  8
M01
100
AcDbLine
 10
539.544627
 20
628.438064
 30
0.0
 11
539.544627
 21
623.448764
 31
0.0
  0
LINE
  5
285
100
AcDbEntity
  8
M01
100
AcDbLine
 10
545.294627
 20
621.887514
 30
0.0
 11
545.294627
 21
619.943414
 31
0.0
  0
ARC
  5
286
100
AcDbEntity
  8
M01
100
AcDbCircle
 10
546.544627
 20
623.448764
 30
0.0
 40
2.0
100
AcDbArc
 50
180.0
 51
231.317813
  0
ARC
  5
287
100
AcDbEntity
  8
M01
100
AcDbCircle
 10
546.544627
 20
628.438064
 30
0.0
 40
2.0
100
AcDbArc
 50
128.682187
 51
180.0
  0
LINE
  5
288
100
AcDbEntity
  8
M01
100
AcDbLine
 10
545.294627
 20
631.943414
 30
0.0
 11
545.294627
 21
629.999314
 31
0.0
  0
LINE
  5
289
100
AcDbEntity
  8
M01
100
AcDbLine
 10
544.544627
 20
628.438064
 30
0.0
 11
544.544627
 21
623.448764
 31
0.0
  0
LINE
  5
28A
100
AcDbEntity
  8
M01
100
AcDbLine
 10
546.544627
 20
631.943414
 30
0.0
 11
537.544627
 21
631.943414
 31
0.0
  0
LINE
  5
28B
100
AcDbEntity
  8
M01
100
AcDbLine
 10
537.544627
 20
632.743414
 30
0.0
 11
537.544627
 21
631.943414
 31
0.0
  0
LINE
  5
28C
100
AcDbEntity
  8
M01
100
AcDbLine
 10
546.544627
 20
632.743414
 30
0.0
 11
546.544627
 21
631.943414
 31
0.0
  0
LINE
  5
28D
100
AcDbEntity
  8
M01
100
AcDbLine
 10
569.294627
 20
621.887514
 30
0.0
 11
562.794627
 21
621.887514
 31
0.0
  0
LINE
  5
28E
100
AcDbEntity
  8
M01
100
AcDbLine
 10
569.294627
 20
629.999314
 30
0.0
 11
562.794627
 21
629.999314
 31
0.0
  0
LINE
  5
28F
100
AcDbEntity
  8
M01
100
AcDbLine
 10
569.294627
 20
621.887514
 30
0.0
 11
569.294627
 21
619.943414
 31
0.0
  0
ARC
  5
290
100
AcDbEntity
  8
M01
100
AcDbCircle
 10
570.544627
 20
623.448764
 30
0.0
 40
2.0
100
AcDbArc
 50
180.0
 51
231.317813
  0
ARC
  5
291
100
AcDbEntity
  8
M01
100
AcDbCircle
 10
570.544627
 20
628.438064
 30
0.0
 40
2.0
100
AcDbArc
 50
128.682187
 51
180.0
  0
LINE
  5
292
100
AcDbEntity
  8
M01
100
AcDbLine
 10
569.294627
 20
631.943414
 30
0.0
 11
569.294627
 21
629.999314
 31
0.0
  0
LINE
  5
293
100
AcDbEntity
  8
M01
100
AcDbLine
 10
568.544627
 20
628.438064
 30
0.0
 11
568.544627
 21
623.448764
 31
0.0
  0
LINE
  5
294
100
AcDbEntity
  8
M01
100
AcDbLine
 10
562.794627
 20
621.887514
 30
0.0
 11
562.794627
 21
619.943414
 31
0.0
  0
ARC
  5
295
100
AcDbEntity
  8
M01
100
AcDbCircle
 10
561.544627
 20
623.448764
 30
0.0
 40
2.0
100
AcDbArc
 50
308.682187
 51
0.0
  0
ARC
  5
296
100
AcDbEntity
  8
M01
100
AcDbCircle
 10
561.544627
 20
628.438064
 30
0.0
 40
2.0
100
AcDbArc
 50
0.0
 51
51.317813
  0
LINE
  5
297
100
AcDbEntity
  8
M01
100
AcDbLine
 10
562.794627
 20
631.943414
 30
0.0
 11
562.794627
 21
629.999314
 31
0.0
  0
LINE
  5
298
100
AcDbEntity
  8
M01
100
AcDbLine
 10
563.544627
 20
628.438064
 30
0.0
 11
563.544627
 21
623.448764
 31
0.0
  0
LINE
  5
299
100
AcDbEntity
  8
M01
100
AcDbLine
 10
537.044627
 20
614.943414
 30
0.0
 11
547.044627
 21
614.943414
 31
0.0
  0
LINE
  5
29A
100
AcDbEntity
  8
M01
100
AcDbLine
 10
571.044627
 20
614.943414
 30
0.0
 11
561.044627
 21
614.943414
 31
0.0
  0
LINE
  5
29B
100
AcDbEntity
  8
M01
100
AcDbLine
 10
571.044627
 20
619.943414
 30
0.0
 11
571.044627
 21
599.943414
 31
0.0
  0
LINE
  5
29C
100
AcDbEntity
  8
M01
100
AcDbLine
 10
561.044627
 20
619.943414
 30
0.0
 11
561.044627
 21
599.943414
 31
0.0
  0
LINE
  5
29D
100
AcDbEntity
  8
M01
100
AcDbLine
 10
547.044627
 20
619.943414
 30
0.0
 11
547.044627
 21
599.943414
 31
0.0
  0
LINE
  5
29E
100
AcDbEntity
  8
M01
100
AcDbLine
 10
537.044627
 20
619.943414
 30
0.0
 11
537.044627
 21
599.943414
 31
0.0
  0
LINE
  5
29F
100
AcDbEntity
  8
M01
100
AcDbLine
 10
539.013538
 20
641.843414
 30
0.0
 11
545.075715
 21
641.843414
 31
0.0
  0
ARC
  5
2A0
100
AcDbEntity
  8
M01
100
AcDbCircle
 10
545.075715
 20
639.994109
 30
0.0
 40
1.150694
100
AcDbArc
 50
208.592423
 51
331.407577
  0
ARC
  5
2A1
100
AcDbEntity
  8
M01
100
AcDbCircle
 10
542.044627
 20
642.546192
 30
0.0
 40
3.702778
100
AcDbArc
 50
236.92527
 51
303.07473
  0
ARC
  5
2A2
100
AcDbEntity
  8
M01
100
AcDbCircle
 10
539.013538
 20
639.994109
 30
0.0
 40
1.150694
100
AcDbArc
 50
208.592423
 51
331.407577
  0
ARC
  5
2A3
100
AcDbEntity
  8
M01
100
AcDbCircle
 10
545.075715
 20
640.69272
 30
0.0
 40
1.150694
100
AcDbArc
 50
28.592423
 51
151.407577
  0
ARC
  5
2A4
100
AcDbEntity
  8
M01
100
AcDbCircle
 10
542.044627
 20
638.140636
 30
0.0
 40
3.702778
100
AcDbArc
 50
56.92527
 51
123.07473
  0
LINE
  5
2A5
100
AcDbEntity
  8
M01
100
AcDbLine
 10
544.065352
 20
641.243414
 30
0.0
 11
544.065352
 21
639.443414
 31
0.0
  0
LINE
  5
2A6
100
AcDbEntity
  8
M01
100
AcDbLine
 10
546.086078
 20
641.243414
 30
0.0
 11
546.086078
 21
639.443414
 31
0.0
  0
ARC
  5
2A7
100
AcDbEntity
  8
M01
100
AcDbCircle
 10
539.013538
 20
640.69272
 30
0.0
 40
1.150694
100
AcDbArc
 50
28.592423
 51
151.407577
  0
LINE
  5
2A8
100
AcDbEntity
  8
M01
100
AcDbLine
 10
540.023901
 20
641.243414
 30
0.0
 11
540.023901
 21
639.443414
 31
0.0
  0
LINE
  5
2A9
100
AcDbEntity
  8
M01
100
AcDbLine
 10
538.003175
 20
641.243414
 30
0.0
 11
538.003175
 21
639.443414
 31
0.0
  0
LINE
  5
2AA
100
AcDbEntity
  8
M01
100
AcDbLine
 10
547.044627
 20
636.543414
 30
0.0
 11
547.044627
 21
638.043414
 31
0.0
  0
LINE
  5
2AB
100
AcDbEntity
  8
M01
100
AcDbLine
 10
537.044627
 20
636.543414
 30
0.0
 11
537.044627
 21
638.043414
 31
0.0
  0
LINE
  5
2AC
100
AcDbEntity
  8
M01
100
AcDbLine
 10
546.544627
 20
638.043414
 30
0.0
 11
546.544627
 21
638.843414
 31
0.0
  0
LINE
  5
2AD
100
AcDbEntity
  8
M01
100
AcDbLine
 10
537.544627
 20
638.043414
 30
0.0
 11
537.544627
 21
638.843414
 31
0.0
  0
LINE
  5
2AE
100
AcDbEntity
  8
M01
100
AcDbLine
 10
537.544627
 20
638.843414
 30
0.0
 11
546.544627
 21
638.843414
 31
0.0
  0
LINE
  5
2AF
100
AcDbEntity
  8
M01
100
AcDbLine
 10
537.044627
 20
638.043414
 30
0.0
 11
547.044627
 21
638.043414
 31
0.0
  0
LINE
  5
2B0
100
AcDbEntity
  8
M01
100
AcDbLine
 10
546.544627
 20
635.743414
 30
0.0
 11
546.544627
 21
636.543414
 31
0.0
  0
LINE
  5
2B1
100
AcDbEntity
  8
M01
100
AcDbLine
 10
537.544627
 20
635.743414
 30
0.0
 11
537.544627
 21
636.543414
 31
0.0
  0
LINE
  5
2B2
100
AcDbEntity
  8
M01
100
AcDbLine
 10
537.044627
 20
636.543414
 30
0.0
 11
547.044627
 21
636.543414
 31
0.0
  0
ARC
  5
2B3
100
AcDbEntity
  8
M01
100
AcDbCircle
 10
545.075715
 20
633.894109
 30
0.0
 40
1.150694
100
AcDbArc
 50
208.592423
 51
331.407577
  0
ARC
  5
2B4
100
AcDbEntity
  8
M01
100
AcDbCircle
 10
542.044627
 20
636.446192
 30
0.0
 40
3.702778
100
AcDbArc
 50
236.92527
 51
303.07473
  0
ARC
  5
2B5
100
AcDbEntity
  8
M01
100
AcDbCircle
 10
539.013538
 20
633.894109
 30
0.0
 40
1.150694
100
AcDbArc
 50
208.592423
 51
331.407577
  0
ARC
  5
2B6
100
AcDbEntity
  8
M01
100
AcDbCircle
 10
545.075715
 20
634.59272
 30
0.0
 40
1.150694
100
AcDbArc
 50
28.592423
 51
151.407577
  0
ARC
  5
2B7
100
AcDbEntity
  8
M01
100
AcDbCircle
 10
542.044627
 20
632.040636
 30
0.0
 40
3.702778
100
AcDbArc
 50
56.92527
 51
123.07473
  0
LINE
  5
2B8
100
AcDbEntity
  8
M01
100
AcDbLine
 10
544.065352
 20
635.143414
 30
0.0
 11
544.065352
 21
633.343414
 31
0.0
  0
LINE
  5
2B9
100
AcDbEntity
  8
M01
100
AcDbLine
 10
546.086078
 20
635.143414
 30
0.0
 11
546.086078
 21
633.343414
 31
0.0
  0
ARC
  5
2BA
100
AcDbEntity
  8
M01
100
AcDbCircle
 10
539.013538
 20
634.59272
 30
0.0
 40
1.150694
100
AcDbArc
 50
28.592423
 51
151.407577
  0
LINE
  5
2BB
100
AcDbEntity
  8
M01
100
AcDbLine
 10
540.023901
 20
635.143414
 30
0.0
 11
540.023901
 21
633.343414
 31
0.0
  0
LINE
  5
2BC
100
AcDbEntity
  8
M01
100
AcDbLine
 10
538.003175
 20
635.143414
 30
0.0
 11
538.003175
 21
633.343414
 31
0.0
  0
LINE
  5
2BD
100
AcDbEntity
  8
M01
100
AcDbLine
 10
537.544627
 20
635.743414
 30
0.0
 11
546.544627
 21
635.743414
 31
0.0
  0
LINE
  5
2BE
100
AcDbEntity
  8
M01
100
AcDbLine
 10
537.544627
 20
632.743414
 30
0.0
 11
546.544627
 21
632.743414
 31
0.0
  0
LINE
  5
2BF
100
AcDbEntity
  8
M01
100
AcDbLine
 10
543.544627
 20
644.943414
 30
0.0
 11
544.044627
 21
644.443414
 31
0.0
  0
LINE
  5
2C0
100
AcDbEntity
  8
M01
100
AcDbLine
 10
540.044627
 20
644.443414
 30
0.0
 11
540.544627
 21
644.943414
 31
0.0
  0
LINE
  5
2C1
100
AcDbEntity
  8
M01
100
AcDbLine
 10
540.044627
 20
644.443414
 30
0.0
 11
544.044627
 21
644.443414
 31
0.0
  0
LINE
  5
2C2
100
AcDbEntity
  8
M01
100
AcDbLine
 10
543.544627
 20
644.943414
 30
0.0
 11
543.544627
 21
641.843414
 31
0.0
  0
LINE
  5
2C3
100
AcDbEntity
  8
M01
100
AcDbLine
 10
540.544627
 20
644.943414
 30
0.0
 11
540.544627
 21
641.843414
 31
0.0
  0
LINE
  5
2C4
100
AcDbEntity
  8
M01
100
AcDbLine
 10
540.044627
 20
644.443414
 30
0.0
 11
540.044627
 21
641.843414
 31
0.0
  0
LINE
  5
2C5
100
AcDbEntity
  8
M01
100
AcDbLine
 10
544.044627
 20
644.443414
 30
0.0
 11
544.044627
 21
641.843414
 31
0.0
  0
LINE
  5
2C6
100
AcDbEntity
  8
M01
100
AcDbLine
 10
540.544627
 20
644.943414
 30
0.0
 11
543.544627
 21
644.943414
 31
0.0
  0
LINE
  5
2C7
100
AcDbEntity
  8
M01
100
AcDbLine
 10
537.044627
 20
619.943414
 30
0.0
 11
547.044627
 21
619.943414
 31
0.0
  0
LINE
  5
2C8
100
AcDbEntity
  8
M01
100
AcDbLine
 10
569.075715
 20
641.843414
 30
0.0
 11
563.013538
 21
641.843414
 31
0.0
  0
ARC
  5
2C9
100
AcDbEntity
  8
M01
100
AcDbCircle
 10
563.013538
 20
639.994109
 30
0.0
 40
1.150694
100
AcDbArc
 50
208.592423
 51
331.407577
  0
ARC
  5
2CA
100
AcDbEntity
  8
M01
100
AcDbCircle
 10
566.044627
 20
642.546192
 30
0.0
 40
3.702778
100
AcDbArc
 50
236.92527
 51
303.07473
  0
ARC
  5
2CB
100
AcDbEntity
  8
M01
100
AcDbCircle
 10
569.075715
 20
639.994109
 30
0.0
 40
1.150694
100
AcDbArc
 50
208.592423
 51
331.407577
  0
ARC
  5
2CC
100
AcDbEntity
  8
M01
100
AcDbCircle
 10
563.013538
 20
640.69272
 30
0.0
 40
1.150694
100
AcDbArc
 50
28.592423
 51
151.407577
  0
ARC
  5
2CD
100
AcDbEntity
  8
M01
100
AcDbCircle
 10
566.044627
 20
638.140636
 30
0.0
 40
3.702778
100
AcDbArc
 50
56.92527
 51
123.07473
  0
LINE
  5
2CE
100
AcDbEntity
  8
M01
100
AcDbLine
 10
564.023901
 20
641.243414
 30
0.0
 11
564.023901
 21
639.443414
 31
0.0
  0
LINE
  5
2CF
100
AcDbEntity
  8
M01
100
AcDbLine
 10
562.003175
 20
641.243414
 30
0.0
 11
562.003175
 21
639.443414
 31
0.0
  0
ARC
  5
2D0
100
AcDbEntity
  8
M01
100
AcDbCircle
 10
569.075715
 20
640.69272
 30
0.0
 40
1.150694
100
AcDbArc
 50
28.592423
 51
151.407577
  0
LINE
  5
2D1
100
AcDbEntity
  8
M01
100
AcDbLine
 10
568.065352
 20
641.243414
 30
0.0
 11
568.065352
 21
639.443414
 31
0.0
  0
LINE
  5
2D2
100
AcDbEntity
  8
M01
100
AcDbLine
 10
570.086078
 20
641.243414
 30
0.0
 11
570.086078
 21
639.443414
 31
0.0
  0
LINE
  5
2D3
100
AcDbEntity
  8
M01
100
AcDbLine
 10
561.044627
 20
636.543414
 30
0.0
 11
561.044627
 21
638.043414
 31
0.0
  0
LINE
  5
2D4
100
AcDbEntity
  8
M01
100
AcDbLine
 10
571.044627
 20
636.543414
 30
0.0
 11
571.044627
 21
638.043414
 31
0.0
  0
LINE
  5
2D5
100
AcDbEntity
  8
M01
100
AcDbLine
 10
561.544627
 20
638.043414
 30
0.0
 11
561.544627
 21
638.843414
 31
0.0
  0
LINE
  5
2D6
100
AcDbEntity
  8
M01
100
AcDbLine
 10
570.544627
 20
638.043414
 30
0.0
 11
570.544627
 21
638.843414
 31
0.0
  0
LINE
  5
2D7
100
AcDbEntity
  8
M01
100
AcDbLine
 10
570.544627
 20
638.843414
 30
0.0
 11
561.544627
 21
638.843414
 31
0.0
  0
LINE
  5
2D8
100
AcDbEntity
  8
M01
100
AcDbLine
 10
571.044627
 20
638.043414
 30
0.0
 11
561.044627
 21
638.043414
 31
0.0
  0
LINE
  5
2D9
100
AcDbEntity
  8
M01
100
AcDbLine
 10
561.544627
 20
635.743414
 30
0.0
 11
561.544627
 21
636.543414
 31
0.0
  0
LINE
  5
2DA
100
AcDbEntity
  8
M01
100
AcDbLine
 10
570.544627
 20
635.743414
 30
0.0
 11
570.544627
 21
636.543414
 31
0.0
  0
LINE
  5
2DB
100
AcDbEntity
  8
M01
100
AcDbLine
 10
571.044627
 20
636.543414
 30
0.0
 11
561.044627
 21
636.543414
 31
0.0
  0
ARC
  5
2DC
100
AcDbEntity
  8
M01
100
AcDbCircle
 10
563.013538
 20
633.894109
 30
0.0
 40
1.150694
100
AcDbArc
 50
208.592423
 51
331.407577
  0
ARC
  5
2DD
100
AcDbEntity
  8
M01
100
AcDbCircle
 10
566.044627
 20
636.446192
 30
0.0
 40
3.702778
100
AcDbArc
 50
236.92527
 51
303.07473
  0
ARC
  5
2DE
100
AcDbEntity
  8
M01
100
AcDbCircle
 10
569.075715
 20
633.894109
 30
0.0
 40
1.150694
100
AcDbArc
 50
208.592423
 51
331.407577
  0
ARC
  5
2DF
100
AcDbEntity
  8
M01
100
AcDbCircle
 10
563.013538
 20
634.59272
 30
0.0
 40
1.150694
100
AcDbArc
 50
28.592423
 51
151.407577
  0
ARC
  5
2E0
100
AcDbEntity
  8
M01
100
AcDbCircle
 10
566.044627
 20
632.040636
 30
0.0
 40
3.702778
100
AcDbArc
 50
56.92527
 51
123.07473
  0
LINE
  5
2E1
100
AcDbEntity
  8
M01
100
AcDbLine
 10
564.023901
 20
635.143414
 30
0.0
 11
564.023901
 21
633.343414
 31
0.0
  0
LINE
  5
2E2
100
AcDbEntity
  8
M01
100
AcDbLine
 10
562.003175
 20
635.143414
 30
0.0
 11
562.003175
 21
633.343414
 31
0.0
  0
ARC
  5
2E3
100
AcDbEntity
  8
M01
100
AcDbCircle
 10
569.075715
 20
634.59272
 30
0.0
 40
1.150694
100
AcDbArc
 50
28.592423
 51
151.407577
  0
LINE
  5
2E4
100
AcDbEntity
  8
M01
100
AcDbLine
 10
568.065352
 20
635.143414
 30
0.0
 11
568.065352
 21
633.343414
 31
0.0
  0
LINE
  5
2E5
100
AcDbEntity
  8
M01
100
AcDbLine
 10
570.086078
 20
635.143414
 30
0.0
 11
570.086078
 21
633.343414
 31
0.0
  0
LINE
  5
2E6
100
AcDbEntity
  8
M01
100
AcDbLine
 10
570.544627
 20
635.743414
 30
0.0
 11
561.544627
 21
635.743414
 31
0.0
  0
LINE
  5
2E7
100
AcDbEntity
  8
M01
100
AcDbLine
 10
570.544627
 20
632.743414
 30
0.0
 11
561.544627
 21
632.743414
 31
0.0
  0
LINE
  5
2E8
100
AcDbEntity
  8
M01
100
AcDbLine
 10
570.544627
 20
631.943414
 30
0.0
 11
561.544627
 21
631.943414
 31
0.0
  0
LINE
  5
2E9
100
AcDbEntity
  8
M01
100
AcDbLine
 10
564.544627
 20
644.943414
 30
0.0
 11
564.044627
 21
644.443414
 31
0.0
  0
LINE
  5
2EA
100
AcDbEntity
  8
M01
100
AcDbLine
 10
568.044627
 20
644.443414
 30
0.0
 11
567.544627
 21
644.943414
 31
0.0
  0
LINE
  5
2EB
100
AcDbEntity
  8
M01
100
AcDbLine
 10
568.044627
 20
644.443414
 30
0.0
 11
564.044627
 21
644.443414
 31
0.0
  0
LINE
  5
2EC
100
AcDbEntity
  8
M01
100
AcDbLine
 10
564.544627
 20
644.943414
 30
0.0
 11
564.544627
 21
641.843414
 31
0.0
  0
LINE
  5
2ED
100
AcDbEntity
  8
M01
100
AcDbLine
 10
567.544627
 20
644.943414
 30
0.0
 11
567.544627
 21
641.843414
 31
0.0
  0
LINE
  5
2EE
100
AcDbEntity
  8
M01
100
AcDbLine
 10
568.044627
 20
644.443414
 30
0.0
 11
568.044627
 21
641.843414
 31
0.0
  0
LINE
  5
2EF
100
AcDbEntity
  8
M01
100
AcDbLine
 10
564.044627
 20
644.443414
 30
0.0
 11
564.044627
 21
641.843414
 31
0.0
  0
LINE
  5
2F0
100
AcDbEntity
  8
M01
100
AcDbLine
 10
567.544627
 20
644.943414
 30
0.0
 11
564.544627
 21
644.943414
 31
0.0
  0
LINE
  5
2F1
100
AcDbEntity
  8
M01
100
AcDbLine
 10
571.044627
 20
619.943414
 30
0.0
 11
561.044627
 21
619.943414
 31
0.0
  0
LINE
  5
2F2
100
AcDbEntity
  8
M01
100
AcDbLine
 10
561.544627
 20
632.743414
 30
0.0
 11
561.544627
 21
631.943414
 31
0.0
  0
LINE
  5
2F3
100
AcDbEntity
  8
M01
100
AcDbLine
 10
570.544627
 20
632.743414
 30
0.0
 11
570.544627
 21
631.943414
 31
0.0
  0
LINE
  5
2F4
100
AcDbEntity
  8
M04
100
AcDbLine
 10
493.044627
 20
659.943414
 30
0.0
 11
493.044627
 21
680.614892
 31
0.0
  0
ARC
  5
2F5
100
AcDbEntity
  8
M04
100
AcDbCircle
 10
493.044627
 20
644.943414
 30
0.0
 40
15.0
100
AcDbArc
 50
90.0
 51
180.0
  0
LINE
  5
2F6
100
AcDbEntity
  8
M04
100
AcDbLine
 10
493.044627
 20
659.943414
 30
0.0
 11
571.044627
 21
659.943414
 31
0.0
  0
LINE
  5
2F7
100
AcDbEntity
  8
M04
100
AcDbLine
 10
478.044627
 20
644.943414
 30
0.0
 11
478.044627
 21
551.511957
 31
0.0
  0
LINE
  5
2F8
100
AcDbEntity
  8
CENTRE
100
AcDbLine
 10
582.044627
 20
497.257123
 30
0.0
 11
582.044627
 21
274.629706
 31
0.0
  0
LINE
  5
2F9
100
AcDbEntity
  8
M01
100
AcDbLine
 10
527.044627
 20
295.943414
 30
0.0
 11
537.044627
 21
295.943414
 31
0.0
  0
LINE
  5
2FA
100
AcDbEntity
  8
M01
100
AcDbLine
 10
527.044627
 20
275.943414
 30
0.0
 11
537.044627
 21
275.943414
 31
0.0
  0
ARC
  5
2FB
100
AcDbEntity
  8
M01
100
AcDbCircle
 10
537.044627
 20
285.943414
 30
0.0
 40
10.0
100
AcDbArc
 50
270.0
 51
90.0
  0
ARC
  5
2FC
100
AcDbEntity
  8
M01
100
AcDbCircle
 10
527.044627
 20
285.943414
 30
0.0
 40
10.0
100
AcDbArc
 50
90.0
 51
270.0
  0
LINE
  5
2FD
100
AcDbEntity
  8
DIMS
 62
     4
100
AcDbLine
 10
535.444627
 20
335.943414
 30
0.0
 11
548.744627
 21
335.943414
 31
0.0
  0
LINE
  5
2FE
100
AcDbEntity
  8
DIMS
 62
     4
100
AcDbLine
 10
528.644627
 20
335.943414
 30
0.0
 11
515.344627
 21
335.943414
 31
0.0
  0
LINE
  5
2FF
100
AcDbEntity
  8
DIMS
 62
     4
100
AcDbLine
 10
530.344627
 20
335.943414
 30
0.0
 11
533.744627
 21
335.943414
 31
0.0
  0
CIRCLE
  5
300
100
AcDbEntity
  8
M03
100
AcDbCircle
 10
532.044627
 20
335.943414
 30
0.0
 40
2.3
  0
ARC
  5
301
100
AcDbEntity
  8
M03
100
AcDbCircle
 10
532.044627
 20
335.943414
 30
0.0
 40
3.0
100
AcDbArc
 50
77.784636
 51
6.923103
  0
LINE
  5
302
100
AcDbEntity
  8
M03
100
AcDbLine
 10
526.069888
 20
335.393414
 30
0.0
 11
538.019365
 21
335.393414
 31
0.0
  0
LINE
  5
303
100
AcDbEntity
  8
M03
100
AcDbLine
 10
526.069888
 20
336.493414
 30
0.0
 11
538.019365
 21
336.493414
 31
0.0
  0
CIRCLE
  5
304
100
AcDbEntity
  8
M03
100
AcDbCircle
 10
532.044627
 20
335.943414
 30
0.0
 40
15.0
  0
CIRCLE
  5
305
100
AcDbEntity
  8
M03
100
AcDbCircle
 10
532.044627
 20
335.943414
 30
0.0
 40
14.0
  0
CIRCLE
  5
306
100
AcDbEntity
  8
M03
100
AcDbCircle
 10
532.044627
 20
335.943414
 30
0.0
 40
7.858882
  0
CIRCLE
  5
307
100
AcDbEntity
  8
M03
100
AcDbCircle
 10
532.044627
 20
335.943414
 30
0.0
 40
6.0
  0
CIRCLE
  5
308
100
AcDbEntity
  8
M01
100
AcDbCircle
 10
532.044627
 20
335.943414
 30
0.0
 40
4.0
  0
LINE
  5
309
100
AcDbEntity
  8
M01
100
AcDbLine
 10
527.044627
 20
475.943414
 30
0.0
 11
537.044627
 21
475.943414
 31
0.0
  0
LINE
  5
30A
100
AcDbEntity
  8
M01
100
AcDbLine
 10
527.044627
 20
495.943414
 30
0.0
 11
537.044627
 21
495.943414
 31
0.0
  0
ARC
  5
30B
100
AcDbEntity
  8
M01
100
AcDbCircle
 10
537.044627
 20
485.943414
 30
0.0
 40
10.0
100
AcDbArc
 50
270.0
 51
90.0
  0
ARC
  5
30C
100
AcDbEntity
  8
M01
100
AcDbCircle
 10
527.044627
 20
485.943414
 30
0.0
 40
10.0
100
AcDbArc
 50
90.0
 51
270.0
  0
LINE
  5
30D
100
AcDbEntity
  8
M03
100
AcDbLine
 10
486.044627
 20
381.943414
 30
0.0
 11
578.044627
 21
381.943414
 31
0.0
  0
LINE
  5
30E
100
AcDbEntity
  8
M03
100
AcDbLine
 10
486.044627
 20
389.943414
 30
0.0
 11
578.044627
 21
389.943414
 31
0.0
  0
LINE
  5
30F
100
AcDbEntity
  8
DIMS
 62
     4
100
AcDbLine
 10
535.444627
 20
435.943414
 30
0.0
 11
548.744627
 21
435.943414
 31
0.0
  0
LINE
  5
310
100
AcDbEntity
  8
DIMS
 62
     4
100
AcDbLine
 10
528.644627
 20
435.943414
 30
0.0
 11
515.344627
 21
435.943414
 31
0.0
  0
LINE
  5
311
100
AcDbEntity
  8
DIMS
 62
     4
100
AcDbLine
 10
530.344627
 20
435.943414
 30
0.0
 11
533.744627
 21
435.943414
 31
0.0
  0
CIRCLE
  5
312
100
AcDbEntity
  8
M03
100
AcDbCircle
 10
532.044627
 20
435.943414
 30
0.0
 40
2.3
  0
ARC
  5
313
100
AcDbEntity
  8
M03
100
AcDbCircle
 10
532.044627
 20
435.943414
 30
0.0
 40
3.0
100
AcDbArc
 50
353.076897
 51
282.215364
  0
LINE
  5
314
100
AcDbEntity
  8
M03
100
AcDbLine
 10
526.069888
 20
436.493414
 30
0.0
 11
538.019365
 21
436.493414
 31
0.0
  0
LINE
  5
315
100
AcDbEntity
  8
M03
100
AcDbLine
 10
526.069888
 20
435.393414
 30
0.0
 11
538.019365
 21
435.393414
 31
0.0
  0
CIRCLE
  5
316
100
AcDbEntity
  8
M03
100
AcDbCircle
 10
532.044627
 20
435.943414
 30
0.0
 40
15.0
  0
CIRCLE
  5
317
100
AcDbEntity
  8
M03
100
AcDbCircle
 10
532.044627
 20
435.943414
 30
0.0
 40
14.0
  0
CIRCLE
  5
318
100
AcDbEntity
  8
M03
100
AcDbCircle
 10
532.044627
 20
435.943414
 30
0.0
 40
7.858882
  0
CIRCLE
  5
319
100
AcDbEntity
  8
M03
100
AcDbCircle
 10
532.044627
 20
435.943414
 30
0.0
 40
6.0
  0
ARC
  5
31A
100
AcDbEntity
  8
M01
100
AcDbCircle
 10
638.613169
 20
285.943414
 30
0.0
 40
12.0
100
AcDbArc
 50
135.0
 51
225.0
  0
LINE
  5
31B
100
AcDbEntity
  8
M01
100
AcDbLine
 10
664.044627
 20
328.345434
 30
0.0
 11
630.127888
 21
294.428695
 31
0.0
  0
LINE
  5
31C
100
AcDbEntity
  8
M01
100
AcDbLine
 10
664.044627
 20
243.541394
 30
0.0
 11
630.127888
 21
277.458133
 31
0.0
  0
LINE
  5
31D
100
AcDbEntity
  8
M01
100
AcDbLine
 10
617.044627
 20
391.943414
 30
0.0
 11
617.044627
 21
379.943414
 31
0.0
  0
ARC
  5
31E
100
AcDbEntity
  8
M01
100
AcDbCircle
 10
638.613169
 20
485.943414
 30
0.0
 40
12.0
100
AcDbArc
 50
135.0
 51
225.0
  0
ARC
  5
31F
100
AcDbEntity
  8
M01
100
AcDbCircle
 10
588.044627
 20
548.511957
 30
0.0
 40
12.0
100
AcDbArc
 50
180.0
 51
315.0
  0
LINE
  5
320
100
AcDbEntity
  8
M01
100
AcDbLine
 10
576.044627
 20
597.943414
 30
0.0
 11
574.044627
 21
599.943414
 31
0.0
  0
LINE
  5
321
100
AcDbEntity
  8
M01
100
AcDbLine
 10
576.044627
 20
597.943414
 30
0.0
 11
576.044627
 21
548.511957
 31
0.0
  0
LINE
  5
322
100
AcDbEntity
  8
M01
100
AcDbLine
 10
624.446647
 20
567.943414
 30
0.0
 11
596.529908
 21
540.026675
 31
0.0
  0
LINE
  5
323
100
AcDbEntity
  8
M01
100
AcDbLine
 10
664.044627
 20
528.345434
 30
0.0
 11
630.127888
 21
494.428695
 31
0.0
  0
ARC
  5
324
100
AcDbEntity
  8
M01
100
AcDbCircle
 10
425.476084
 20
285.943414
 30
0.0
 40
12.0
100
AcDbArc
 50
315.0
 51
45.0
  0
LINE
  5
325
100
AcDbEntity
  8
M01
100
AcDbLine
 10
400.044627
 20
328.345434
 30
0.0
 11
433.961365
 21
294.428695
 31
0.0
  0
LINE
  5
326
100
AcDbEntity
  8
M01
100
AcDbLine
 10
422.782956
 20
199.943414
 30
0.0
 11
641.306297
 21
199.943414
 31
0.0
  0
LINE
  5
327
100
AcDbEntity
  8
M01
100
AcDbLine
 10
400.044627
 20
243.541394
 30
0.0
 11
433.961365
 21
277.458133
 31
0.0
  0
LINE
  5
328
100
AcDbEntity
  8
M01
100
AcDbLine
 10
447.044627
 20
391.943414
 30
0.0
 11
447.044627
 21
379.943414
 31
0.0
  0
ARC
  5
329
100
AcDbEntity
  8
M01
100
AcDbCircle
 10
425.476084
 20
485.943414
 30
0.0
 40
12.0
100
AcDbArc
 50
315.0
 51
45.0
  0
ARC
  5
32A
100
AcDbEntity
  8
M01
100
AcDbCircle
 10
476.044627
 20
548.511957
 30
0.0
 40
12.0
100
AcDbArc
 50
225.0
 51
360.0
  0
LINE
  5
32B
100
AcDbEntity
  8
M01
100
AcDbLine
 10
525.294627
 20
621.887514
 30
0.0
 11
518.794627
 21
621.887514
 31
0.0
  0
LINE
  5
32C
100
AcDbEntity
  8
M01
100
AcDbLine
 10
525.294627
 20
629.999314
 30
0.0
 11
518.794627
 21
629.999314
 31
0.0
  0
LINE
  5
32D
100
AcDbEntity
  8
M01
100
AcDbLine
 10
525.294627
 20
621.887514
 30
0.0
 11
525.294627
 21
619.943414
 31
0.0
  0
ARC
  5
32E
100
AcDbEntity
  8
M01
100
AcDbCircle
 10
526.544627
 20
623.448764
 30
0.0
 40
2.0
100
AcDbArc
 50
180.0
 51
231.317813
  0
ARC
  5
32F
100
AcDbEntity
  8
M01
100
AcDbCircle
 10
526.544627
 20
628.438064
 30
0.0
 40
2.0
100
AcDbArc
 50
128.682187
 51
180.0
  0
LINE
  5
330
100
AcDbEntity
  8
M01
100
AcDbLine
 10
525.294627
 20
631.943414
 30
0.0
 11
525.294627
 21
629.999314
 31
0.0
  0
LINE
  5
331
100
AcDbEntity
  8
M01
100
AcDbLine
 10
524.544627
 20
628.438064
 30
0.0
 11
524.544627
 21
623.448764
 31
0.0
  0
LINE
  5
332
100
AcDbEntity
  8
M01
100
AcDbLine
 10
518.794627
 20
621.887514
 30
0.0
 11
518.794627
 21
619.943414
 31
0.0
  0
ARC
  5
333
100
AcDbEntity
  8
M01
100
AcDbCircle
 10
517.544627
 20
623.448764
 30
0.0
 40
2.0
100
AcDbArc
 50
308.682187
 51
0.0
  0
ARC
  5
334
100
AcDbEntity
  8
M01
100
AcDbCircle
 10
517.544627
 20
628.438064
 30
0.0
 40
2.0
100
AcDbArc
 50
0.0
 51
51.317813
  0
LINE
  5
335
100
AcDbEntity
  8
M01
100
AcDbLine
 10
518.794627
 20
631.943414
 30
0.0
 11
518.794627
 21
629.999314
 31
0.0
  0
LINE
  5
336
100
AcDbEntity
  8
M01
100
AcDbLine
 10
519.544627
 20
628.438064
 30
0.0
 11
519.544627
 21
623.448764
 31
0.0
  0
LINE
  5
337
100
AcDbEntity
  8
M01
100
AcDbLine
 10
517.544627
 20
631.943414
 30
0.0
 11
526.544627
 21
631.943414
 31
0.0
  0
LINE
  5
338
100
AcDbEntity
  8
M01
100
AcDbLine
 10
526.544627
 20
632.743414
 30
0.0
 11
526.544627
 21
631.943414
 31
0.0
  0
LINE
  5
339
100
AcDbEntity
  8
M01
100
AcDbLine
 10
517.544627
 20
632.743414
 30
0.0
 11
517.544627
 21
631.943414
 31
0.0
  0
LINE
  5
33A
100
AcDbEntity
  8
M01
100
AcDbLine
 10
494.794627
 20
621.887514
 30
0.0
 11
501.294627
 21
621.887514
 31
0.0
  0
LINE
  5
33B
100
AcDbEntity
  8
M01
100
AcDbLine
 10
494.794627
 20
629.999314
 30
0.0
 11
501.294627
 21
629.999314
 31
0.0
  0
LINE
  5
33C
100
AcDbEntity
  8
M01
100
AcDbLine
 10
494.794627
 20
621.887514
 30
0.0
 11
494.794627
 21
619.943414
 31
0.0
  0
ARC
  5
33D
100
AcDbEntity
  8
M01
100
AcDbCircle
 10
493.544627
 20
623.448764
 30
0.0
 40
2.0
100
AcDbArc
 50
308.682187
 51
0.0
  0
ARC
  5
33E
100
AcDbEntity
  8
M01
100
AcDbCircle
 10
493.544627
 20
628.438064
 30
0.0
 40
2.0
100
AcDbArc
 50
0.0
 51
51.317813
  0
LINE
  5
33F
100
AcDbEntity
  8
M01
100
AcDbLine
 10
494.794627
 20
631.943414
 30
0.0
 11
494.794627
 21
629.999314
 31
0.0
  0
LINE
  5
340
100
AcDbEntity
  8
M01
100
AcDbLine
 10
495.544627
 20
628.438064
 30
0.0
 11
495.544627
 21
623.448764
 31
0.0
  0
LINE
  5
341
100
AcDbEntity
  8
M01
100
AcDbLine
 10
501.294627
 20
621.887514
 30
0.0
 11
501.294627
 21
619.943414
 31
0.0
  0
ARC
  5
342
100
AcDbEntity
  8
M01
100
AcDbCircle
 10
502.544627
 20
623.448764
 30
0.0
 40
2.0
100
AcDbArc
 50
180.0
 51
231.317813
  0
ARC
  5
343
100
AcDbEntity
  8
M01
100
AcDbCircle
 10
502.544627
 20
628.438064
 30
0.0
 40
2.0
100
AcDbArc
 50
128.682187
 51
180.0
  0
LINE
  5
344
100
AcDbEntity
  8
M01
100
AcDbLine
 10
501.294627
 20
631.943414
 30
0.0
 11
501.294627
 21
629.999314
 31
0.0
  0
LINE
  5
345
100
AcDbEntity
  8
M01
100
AcDbLine
 10
500.544627
 20
628.438064
 30
0.0
 11
500.544627
 21
623.448764
 31
0.0
  0
LINE
  5
346
100
AcDbEntity
  8
M01
100
AcDbLine
 10
527.044627
 20
614.943414
 30
0.0
 11
517.044627
 21
614.943414
 31
0.0
  0
LINE
  5
347
100
AcDbEntity
  8
M01
100
AcDbLine
 10
493.044627
 20
614.943414
 30
0.0
 11
503.044627
 21
614.943414
 31
0.0
  0
LINE
  5
348
100
AcDbEntity
  8
M01
100
AcDbLine
 10
493.044627
 20
619.943414
 30
0.0
 11
493.044627
 21
599.943414
 31
0.0
  0
LINE
  5
349
100
AcDbEntity
  8
M01
100
AcDbLine
 10
503.044627
 20
619.943414
 30
0.0
 11
503.044627
 21
599.943414
 31
0.0
  0
LINE
  5
34A
100
AcDbEntity
  8
M01
100
AcDbLine
 10
517.044627
 20
619.943414
 30
0.0
 11
517.044627
 21
599.943414
 31
0.0
  0
LINE
  5
34B
100
AcDbEntity
  8
M01
100
AcDbLine
 10
527.044627
 20
619.943414
 30
0.0
 11
527.044627
 21
599.943414
 31
0.0
  0
LINE
  5
34C
100
AcDbEntity
  8
DIMS
 62
     4
100
AcDbLine
 10
535.444627
 20
594.443414
 30
0.0
 11
537.744627
 21
594.443414
 31
0.0
  0
LINE
  5
34D
100
AcDbEntity
  8
DIMS
 62
     4
100
AcDbLine
 10
528.644627
 20
594.443414
 30
0.0
 11
526.344627
 21
594.443414
 31
0.0
  0
LINE
  5
34E
100
AcDbEntity
  8
DIMS
 62
     4
100
AcDbLine
 10
530.344627
 20
594.443414
 30
0.0
 11
533.744627
 21
594.443414
 31
0.0
  0
LINE
  5
34F
100
AcDbEntity
  8
M01
100
AcDbLine
 10
525.075715
 20
641.843414
 30
0.0
 11
519.013538
 21
641.843414
 31
0.0
  0
ARC
  5
350
100
AcDbEntity
  8
M01
100
AcDbCircle
 10
519.013538
 20
639.994109
 30
0.0
 40
1.150694
100
AcDbArc
 50
208.592423
 51
331.407577
  0
ARC
  5
351
100
AcDbEntity
  8
M01
100
AcDbCircle
 10
522.044627
 20
642.546192
 30
0.0
 40
3.702778
100
AcDbArc
 50
236.92527
 51
303.07473
  0
ARC
  5
352
100
AcDbEntity
  8
M01
100
AcDbCircle
 10
525.075715
 20
639.994109
 30
0.0
 40
1.150694
100
AcDbArc
 50
208.592423
 51
331.407577
  0
ARC
  5
353
100
AcDbEntity
  8
M01
100
AcDbCircle
 10
519.013538
 20
640.69272
 30
0.0
 40
1.150694
100
AcDbArc
 50
28.592423
 51
151.407577
  0
ARC
  5
354
100
AcDbEntity
  8
M01
100
AcDbCircle
 10
522.044627
 20
638.140636
 30
0.0
 40
3.702778
100
AcDbArc
 50
56.92527
 51
123.07473
  0
LINE
  5
355
100
AcDbEntity
  8
M01
100
AcDbLine
 10
520.023901
 20
641.243414
 30
0.0
 11
520.023901
 21
639.443414
 31
0.0
  0
LINE
  5
356
100
AcDbEntity
  8
M01
100
AcDbLine
 10
518.003175
 20
641.243414
 30
0.0
 11
518.003175
 21
639.443414
 31
0.0
  0
ARC
  5
357
100
AcDbEntity
  8
M01
100
AcDbCircle
 10
525.075715
 20
640.69272
 30
0.0
 40
1.150694
100
AcDbArc
 50
28.592423
 51
151.407577
  0
LINE
  5
358
100
AcDbEntity
  8
M01
100
AcDbLine
 10
524.065352
 20
641.243414
 30
0.0
 11
524.065352
 21
639.443414
 31
0.0
  0
LINE
  5
359
100
AcDbEntity
  8
M01
100
AcDbLine
 10
526.086078
 20
641.243414
 30
0.0
 11
526.086078
 21
639.443414
 31
0.0
  0
LINE
  5
35A
100
AcDbEntity
  8
M01
100
AcDbLine
 10
517.044627
 20
636.543414
 30
0.0
 11
517.044627
 21
638.043414
 31
0.0
  0
LINE
  5
35B
100
AcDbEntity
  8
M01
100
AcDbLine
 10
527.044627
 20
636.543414
 30
0.0
 11
527.044627
 21
638.043414
 31
0.0
  0
LINE
  5
35C
100
AcDbEntity
  8
M01
100
AcDbLine
 10
517.544627
 20
638.043414
 30
0.0
 11
517.544627
 21
638.843414
 31
0.0
  0
LINE
  5
35D
100
AcDbEntity
  8
M01
100
AcDbLine
 10
526.544627
 20
638.043414
 30
0.0
 11
526.544627
 21
638.843414
 31
0.0
  0
LINE
  5
35E
100
AcDbEntity
  8
M01
100
AcDbLine
 10
526.544627
 20
638.843414
 30
0.0
 11
517.544627
 21
638.843414
 31
0.0
  0
LINE
  5
35F
100
AcDbEntity
  8
M01
100
AcDbLine
 10
527.044627
 20
638.043414
 30
0.0
 11
517.044627
 21
638.043414
 31
0.0
  0
LINE
  5
360
100
AcDbEntity
  8
M01
100
AcDbLine
 10
517.544627
 20
635.743414
 30
0.0
 11
517.544627
 21
636.543414
 31
0.0
  0
LINE
  5
361
100
AcDbEntity
  8
M01
100
AcDbLine
 10
526.544627
 20
635.743414
 30
0.0
 11
526.544627
 21
636.543414
 31
0.0
  0
LINE
  5
362
100
AcDbEntity
  8
M01
100
AcDbLine
 10
527.044627
 20
636.543414
 30
0.0
 11
517.044627
 21
636.543414
 31
0.0
  0
ARC
  5
363
100
AcDbEntity
  8
M01
100
AcDbCircle
 10
519.013538
 20
633.894109
 30
0.0
 40
1.150694
100
AcDbArc
 50
208.592423
 51
331.407577
  0
ARC
  5
364
100
AcDbEntity
  8
M01
100
AcDbCircle
 10
522.044627
 20
636.446192
 30
0.0
 40
3.702778
100
AcDbArc
 50
236.92527
 51
303.07473
  0
ARC
  5
365
100
AcDbEntity
  8
M01
100
AcDbCircle
 10
525.075715
 20
633.894109
 30
0.0
 40
1.150694
100
AcDbArc
 50
208.592423
 51
331.407577
  0
ARC
  5
366
100
AcDbEntity
  8
M01
100
AcDbCircle
 10
519.013538
 20
634.59272
 30
0.0
 40
1.150694
100
AcDbArc
 50
28.592423
 51
151.407577
  0
ARC
  5
367
100
AcDbEntity
  8
M01
100
AcDbCircle
 10
522.044627
 20
632.040636
 30
0.0
 40
3.702778
100
AcDbArc
 50
56.92527
 51
123.07473
  0
LINE
  5
368
100
AcDbEntity
  8
M01
100
AcDbLine
 10
520.023901
 20
635.143414
 30
0.0
 11
520.023901
 21
633.343414
 31
0.0
  0
LINE
  5
369
100
AcDbEntity
  8
M01
100
AcDbLine
 10
518.003175
 20
635.143414
 30
0.0
 11
518.003175
 21
633.343414
 31
0.0
  0
ARC
  5
36A
100
AcDbEntity
  8
M01
100
AcDbCircle
 10
525.075715
 20
634.59272
 30
0.0
 40
1.150694
100
AcDbArc
 50
28.592423
 51
151.407577
  0
LINE
  5
36B
100
AcDbEntity
  8
M01
100
AcDbLine
 10
524.065352
 20
635.143414
 30
0.0
 11
524.065352
 21
633.343414
 31
0.0
  0
LINE
  5
36C
100
AcDbEntity
  8
M01
100
AcDbLine
 10
526.086078
 20
635.143414
 30
0.0
 11
526.086078
 21
633.343414
 31
0.0
  0
LINE
  5
36D
100
AcDbEntity
  8
M01
100
AcDbLine
 10
526.544627
 20
635.743414
 30
0.0
 11
517.544627
 21
635.743414
 31
0.0
  0
LINE
  5
36E
100
AcDbEntity
  8
M01
100
AcDbLine
 10
526.544627
 20
632.743414
 30
0.0
 11
517.544627
 21
632.743414
 31
0.0
  0
LINE
  5
36F
100
AcDbEntity
  8
M01
100
AcDbLine
 10
520.544627
 20
644.943414
 30
0.0
 11
520.044627
 21
644.443414
 31
0.0
  0
LINE
  5
370
100
AcDbEntity
  8
M01
100
AcDbLine
 10
524.044627
 20
644.443414
 30
0.0
 11
523.544627
 21
644.943414
 31
0.0
  0
LINE
  5
371
100
AcDbEntity
  8
M01
100
AcDbLine
 10
524.044627
 20
644.443414
 30
0.0
 11
520.044627
 21
644.443414
 31
0.0
  0
LINE
  5
372
100
AcDbEntity
  8
M01
100
AcDbLine
 10
520.544627
 20
644.943414
 30
0.0
 11
520.544627
 21
641.843414
 31
0.0
  0
LINE
  5
373
100
AcDbEntity
  8
M01
100
AcDbLine
 10
523.544627
 20
644.943414
 30
0.0
 11
523.544627
 21
641.843414
 31
0.0
  0
LINE
  5
374
100
AcDbEntity
  8
M01
100
AcDbLine
 10
524.044627
 20
644.443414
 30
0.0
 11
524.044627
 21
641.843414
 31
0.0
  0
LINE
  5
375
100
AcDbEntity
  8
M01
100
AcDbLine
 10
520.044627
 20
644.443414
 30
0.0
 11
520.044627
 21
641.843414
 31
0.0
  0
LINE
  5
376
100
AcDbEntity
  8
M01
100
AcDbLine
 10
523.544627
 20
644.943414
 30
0.0
 11
520.544627
 21
644.943414
 31
0.0
  0
LINE
  5
377
100
AcDbEntity
  8
M01
100
AcDbLine
 10
527.044627
 20
619.943414
 30
0.0
 11
517.044627
 21
619.943414
 31
0.0
  0
LINE
  5
378
100
AcDbEntity
  8
CENTRE
100
AcDbLine
 10
522.044627
 20
651.104303
 30
0.0
 11
522.044627
 21
587.510872
 31
0.0
  0
LINE
  5
379
100
AcDbEntity
  8
M01
100
AcDbLine
 10
495.013538
 20
641.843414
 30
0.0
 11
501.075715
 21
641.843414
 31
0.0
  0
ARC
  5
37A
100
AcDbEntity
  8
M01
100
AcDbCircle
 10
501.075715
 20
639.994109
 30
0.0
 40
1.150694
100
AcDbArc
 50
208.592423
 51
331.407577
  0
ARC
  5
37B
100
AcDbEntity
  8
M01
100
AcDbCircle
 10
498.044627
 20
642.546192
 30
0.0
 40
3.702778
100
AcDbArc
 50
236.92527
 51
303.07473
  0
ARC
  5
37C
100
AcDbEntity
  8
M01
100
AcDbCircle
 10
495.013538
 20
639.994109
 30
0.0
 40
1.150694
100
AcDbArc
 50
208.592423
 51
331.407577
  0
ARC
  5
37D
100
AcDbEntity
  8
M01
100
AcDbCircle
 10
501.075715
 20
640.69272
 30
0.0
 40
1.150694
100
AcDbArc
 50
28.592423
 51
151.407577
  0
ARC
  5
37E
100
AcDbEntity
  8
M01
100
AcDbCircle
 10
498.044627
 20
638.140636
 30
0.0
 40
3.702778
100
AcDbArc
 50
56.92527
 51
123.07473
  0
LINE
  5
37F
100
AcDbEntity
  8
M01
100
AcDbLine
 10
500.065352
 20
641.243414
 30
0.0
 11
500.065352
 21
639.443414
 31
0.0
  0
LINE
  5
380
100
AcDbEntity
  8
M01
100
AcDbLine
 10
502.086078
 20
641.243414
 30
0.0
 11
502.086078
 21
639.443414
 31
0.0
  0
ARC
  5
381
100
AcDbEntity
  8
M01
100
AcDbCircle
 10
495.013538
 20
640.69272
 30
0.0
 40
1.150694
100
AcDbArc
 50
28.592423
 51
151.407577
  0
LINE
  5
382
100
AcDbEntity
  8
M01
100
AcDbLine
 10
496.023901
 20
641.243414
 30
0.0
 11
496.023901
 21
639.443414
 31
0.0
  0
LINE
  5
383
100
AcDbEntity
  8
M01
100
AcDbLine
 10
494.003175
 20
641.243414
 30
0.0
 11
494.003175
 21
639.443414
 31
0.0
  0
LINE
  5
384
100
AcDbEntity
  8
M01
100
AcDbLine
 10
503.044627
 20
636.543414
 30
0.0
 11
503.044627
 21
638.043414
 31
0.0
  0
LINE
  5
385
100
AcDbEntity
  8
M01
100
AcDbLine
 10
493.044627
 20
636.543414
 30
0.0
 11
493.044627
 21
638.043414
 31
0.0
  0
LINE
  5
386
100
AcDbEntity
  8
M01
100
AcDbLine
 10
502.544627
 20
638.043414
 30
0.0
 11
502.544627
 21
638.843414
 31
0.0
  0
LINE
  5
387
100
AcDbEntity
  8
M01
100
AcDbLine
 10
493.544627
 20
638.043414
 30
0.0
 11
493.544627
 21
638.843414
 31
0.0
  0
LINE
  5
388
100
AcDbEntity
  8
M01
100
AcDbLine
 10
493.544627
 20
638.843414
 30
0.0
 11
502.544627
 21
638.843414
 31
0.0
  0
LINE
  5
389
100
AcDbEntity
  8
M01
100
AcDbLine
 10
493.044627
 20
638.043414
 30
0.0
 11
503.044627
 21
638.043414
 31
0.0
  0
LINE
  5
38A
100
AcDbEntity
  8
M01
100
AcDbLine
 10
502.544627
 20
635.743414
 30
0.0
 11
502.544627
 21
636.543414
 31
0.0
  0
LINE
  5
38B
100
AcDbEntity
  8
M01
100
AcDbLine
 10
493.544627
 20
635.743414
 30
0.0
 11
493.544627
 21
636.543414
 31
0.0
  0
LINE
  5
38C
100
AcDbEntity
  8
M01
100
AcDbLine
 10
493.044627
 20
636.543414
 30
0.0
 11
503.044627
 21
636.543414
 31
0.0
  0
ARC
  5
38D
100
AcDbEntity
  8
M01
100
AcDbCircle
 10
501.075715
 20
633.894109
 30
0.0
 40
1.150694
100
AcDbArc
 50
208.592423
 51
331.407577
  0
ARC
  5
38E
100
AcDbEntity
  8
M01
100
AcDbCircle
 10
498.044627
 20
636.446192
 30
0.0
 40
3.702778
100
AcDbArc
 50
236.92527
 51
303.07473
  0
ARC
  5
38F
100
AcDbEntity
  8
M01
100
AcDbCircle
 10
495.013538
 20
633.894109
 30
0.0
 40
1.150694
100
AcDbArc
 50
208.592423
 51
331.407577
  0
ARC
  5
390
100
AcDbEntity
  8
M01
100
AcDbCircle
 10
501.075715
 20
634.59272
 30
0.0
 40
1.150694
100
AcDbArc
 50
28.592423
 51
151.407577
  0
ARC
  5
391
100
AcDbEntity
  8
M01
100
AcDbCircle
 10
498.044627
 20
632.040636
 30
0.0
 40
3.702778
100
AcDbArc
 50
56.92527
 51
123.07473
  0
LINE
  5
392
100
AcDbEntity
  8
M01
100
AcDbLine
 10
500.065352
 20
635.143414
 30
0.0
 11
500.065352
 21
633.343414
 31
0.0
  0
LINE
  5
393
100
AcDbEntity
  8
M01
100
AcDbLine
 10
502.086078
 20
635.143414
 30
0.0
 11
502.086078
 21
633.343414
 31
0.0
  0
ARC
  5
394
100
AcDbEntity
  8
M01
100
AcDbCircle
 10
495.013538
 20
634.59272
 30
0.0
 40
1.150694
100
AcDbArc
 50
28.592423
 51
151.407577
  0
LINE
  5
395
100
AcDbEntity
  8
M01
100
AcDbLine
 10
496.023901
 20
635.143414
 30
0.0
 11
496.023901
 21
633.343414
 31
0.0
  0
LINE
  5
396
100
AcDbEntity
  8
M01
100
AcDbLine
 10
494.003175
 20
635.143414
 30
0.0
 11
494.003175
 21
633.343414
 31
0.0
  0
LINE
  5
397
100
AcDbEntity
  8
M01
100
AcDbLine
 10
493.544627
 20
635.743414
 30
0.0
 11
502.544627
 21
635.743414
 31
0.0
  0
LINE
  5
398
100
AcDbEntity
  8
M01
100
AcDbLine
 10
493.544627
 20
632.743414
 30
0.0
 11
502.544627
 21
632.743414
 31
0.0
  0
LINE
  5
399
100
AcDbEntity
  8
M01
100
AcDbLine
 10
493.544627
 20
631.943414
 30
0.0
 11
502.544627
 21
631.943414
 31
0.0
  0
LINE
  5
39A
100
AcDbEntity
  8
M01
100
AcDbLine
 10
499.544627
 20
644.943414
 30
0.0
 11
500.044627
 21
644.443414
 31
0.0
  0
LINE
  5
39B
100
AcDbEntity
  8
M01
100
AcDbLine
 10
496.044627
 20
644.443414
 30
0.0
 11
496.544627
 21
644.943414
 31
0.0
  0
LINE
  5
39C
100
AcDbEntity
  8
M01
100
AcDbLine
 10
496.044627
 20
644.443414
 30
0.0
 11
500.044627
 21
644.443414
 31
0.0
  0
LINE
  5
39D
100
AcDbEntity
  8
M01
100
AcDbLine
 10
499.544627
 20
644.943414
 30
0.0
 11
499.544627
 21
641.843414
 31
0.0
  0
LINE
  5
39E
100
AcDbEntity
  8
M01
100
AcDbLine
 10
496.544627
 20
644.943414
 30
0.0
 11
496.544627
 21
641.843414
 31
0.0
  0
LINE
  5
39F
100
AcDbEntity
  8
M01
100
AcDbLine
 10
496.044627
 20
644.443414
 30
0.0
 11
496.044627
 21
641.843414
 31
0.0
  0
LINE
  5
3A0
100
AcDbEntity
  8
M01
100
AcDbLine
 10
500.044627
 20
644.443414
 30
0.0
 11
500.044627
 21
641.843414
 31
0.0
  0
LINE
  5
3A1
100
AcDbEntity
  8
M01
100
AcDbLine
 10
496.544627
 20
644.943414
 30
0.0
 11
499.544627
 21
644.943414
 31
0.0
  0
LINE
  5
3A2
100
AcDbEntity
  8
M01
100
AcDbLine
 10
493.044627
 20
619.943414
 30
0.0
 11
503.044627
 21
619.943414
 31
0.0
  0
LINE
  5
3A3
100
AcDbEntity
  8
M01
100
AcDbLine
 10
502.544627
 20
632.743414
 30
0.0
 11
502.544627
 21
631.943414
 31
0.0
  0
LINE
  5
3A4
100
AcDbEntity
  8
M01
100
AcDbLine
 10
493.544627
 20
632.743414
 30
0.0
 11
493.544627
 21
631.943414
 31
0.0
  0
LINE
  5
3A5
100
AcDbEntity
  8
CENTRE
100
AcDbLine
 10
498.044627
 20
651.104303
 30
0.0
 11
498.044627
 21
587.510872
 31
0.0
  0
LWPOLYLINE
  5
3A6
100
AcDbEntity
  8
M01
100
AcDbPolyline
 90
        2
 70
     0
 43
4.0
 10
532.044627
 20
596.443414
 42
0.414214
 10
530.044627
 20
594.443414
  0
LWPOLYLINE
  5
3A7
100
AcDbEntity
  8
M01
100
AcDbPolyline
 90
        2
 70
     0
 43
4.0
 10
532.044627
 20
592.443414
 42
0.414214
 10
534.044627
 20
594.443414
  0
CIRCLE
  5
3A8
100
AcDbEntity
  8
M01
100
AcDbCircle
 10
532.044627
 20
594.443414
 30
0.0
 40
4.0
  0
LINE
  5
3A9
100
AcDbEntity
  8
M01
100
AcDbLine
 10
536.044627
 20
591.943414
 30
0.0
 11
536.044627
 21
599.943414
 31
0.0
  0
LINE
  5
3AA
100
AcDbEntity
  8
M01
100
AcDbLine
 10
528.044627
 20
591.943414
 30
0.0
 11
528.044627
 21
599.943414
 31
0.0
  0
ARC
  5
3AB
100
AcDbEntity
  8
M01
100
AcDbCircle
 10
532.044627
 20
591.943414
 30
0.0
 40
4.0
100
AcDbArc
 50
180.0
 51
0.0
  0
LINE
  5
3AC
100
AcDbEntity
  8
M01
100
AcDbLine
 10
488.044627
 20
597.943414
 30
0.0
 11
490.044627
 21
599.943414
 31
0.0
  0
LINE
  5
3AD
100
AcDbEntity
  8
M01
100
AcDbLine
 10
490.044627
 20
599.943414
 30
0.0
 11
574.044627
 21
599.943414
 31
0.0
  0
LINE
  5
3AE
100
AcDbEntity
  8
M01
100
AcDbLine
 10
488.044627
 20
597.943414
 30
0.0
 11
488.044627
 21
548.511957
 31
0.0
  0
LINE
  5
3AF
100
AcDbEntity
  8
M01
100
AcDbLine
 10
400.044627
 20
549.205084
 30
0.0
 11
400.044627
 21
528.345434
 31
0.0
  0
LINE
  5
3B0
100
AcDbEntity
  8
M01
100
AcDbLine
 10
439.642606
 20
567.943414
 30
0.0
 11
467.559345
 21
540.026675
 31
0.0
  0
LINE
  5
3B1
100
AcDbEntity
  8
M01
100
AcDbLine
 10
400.044627
 20
528.345434
 30
0.0
 11
433.961365
 21
494.428695
 31
0.0
  0
LINE
  5
3B2
100
AcDbEntity
  8
CENTRE
100
AcDbLine
 10
365.842402
 20
385.943414
 30
0.0
 11
698.246851
 21
385.943414
 31
0.0
  0
LINE
  5
3B3
100
AcDbEntity
  8
DIMS
 62
     4
100
AcDbLine
 10
432.044627
 20
232.543414
 30
0.0
 11
432.044627
 21
219.243414
 31
0.0
  0
LINE
  5
3B4
100
AcDbEntity
  8
DIMS
 62
     4
100
AcDbLine
 10
432.044627
 20
239.343414
 30
0.0
 11
432.044627
 21
252.643414
 31
0.0
  0
LINE
  5
3B5
100
AcDbEntity
  8
DIMS
 62
     4
100
AcDbLine
 10
432.044627
 20
237.643414
 30
0.0
 11
432.044627
 21
234.243414
 31
0.0
  0
CIRCLE
  5
3B6
100
AcDbEntity
  8
M03
100
AcDbCircle
 10
432.044627
 20
235.943414
 30
0.0
 40
2.3
  0
ARC
  5
3B7
100
AcDbEntity
  8
M03
100
AcDbCircle
 10
432.044627
 20
235.943414
 30
0.0
 40
3.0
100
AcDbArc
 50
173.076897
 51
102.215364
  0
LINE
  5
3B8
100
AcDbEntity
  8
M03
100
AcDbLine
 10
438.019365
 20
235.393414
 30
0.0
 11
426.069888
 21
235.393414
 31
0.0
  0
LINE
  5
3B9
100
AcDbEntity
  8
M03
100
AcDbLine
 10
438.019365
 20
236.493414
 30
0.0
 11
426.069888
 21
236.493414
 31
0.0
  0
CIRCLE
  5
3BA
100
AcDbEntity
  8
M03
100
AcDbCircle
 10
432.044627
 20
235.943414
 30
0.0
 40
15.0
  0
CIRCLE
  5
3BB
100
AcDbEntity
  8
M03
100
AcDbCircle
 10
432.044627
 20
235.943414
 30
0.0
 40
14.0
  0
CIRCLE
  5
3BC
100
AcDbEntity
  8
M03
100
AcDbCircle
 10
432.044627
 20
235.943414
 30
0.0
 40
7.858882
  0
CIRCLE
  5
3BD
100
AcDbEntity
  8
M03
100
AcDbCircle
 10
432.044627
 20
235.943414
 30
0.0
 40
6.0
  0
CIRCLE
  5
3BE
100
AcDbEntity
  8
M01
100
AcDbCircle
 10
432.044627
 20
235.943414
 30
0.0
 40
4.0
  0
LINE
  5
3BF
100
AcDbEntity
  8
DIMS
 62
     4
100
AcDbLine
 10
428.644627
 20
335.943414
 30
0.0
 11
415.344627
 21
335.943414
 31
0.0
  0
LINE
  5
3C0
100
AcDbEntity
  8
DIMS
 62
     4
100
AcDbLine
 10
435.444627
 20
335.943414
 30
0.0
 11
448.744627
 21
335.943414
 31
0.0
  0
LINE
  5
3C1
100
AcDbEntity
  8
DIMS
 62
     4
100
AcDbLine
 10
432.044627
 20
332.543414
 30
0.0
 11
432.044627
 21
319.243414
 31
0.0
  0
LINE
  5
3C2
100
AcDbEntity
  8
DIMS
 62
     4
100
AcDbLine
 10
432.044627
 20
339.343414
 30
0.0
 11
432.044627
 21
352.643414
 31
0.0
  0
LINE
  5
3C3
100
AcDbEntity
  8
DIMS
 62
     4
100
AcDbLine
 10
433.744627
 20
335.943414
 30
0.0
 11
430.344627
 21
335.943414
 31
0.0
  0
LINE
  5
3C4
100
AcDbEntity
  8
DIMS
 62
     4
100
AcDbLine
 10
432.044627
 20
337.643414
 30
0.0
 11
432.044627
 21
334.243414
 31
0.0
  0
CIRCLE
  5
3C5
100
AcDbEntity
  8
M03
100
AcDbCircle
 10
432.044627
 20
335.943414
 30
0.0
 40
2.3
  0
ARC
  5
3C6
100
AcDbEntity
  8
M03
100
AcDbCircle
 10
432.044627
 20
335.943414
 30
0.0
 40
3.0
100
AcDbArc
 50
173.076897
 51
102.215364
  0
LINE
  5
3C7
100
AcDbEntity
  8
M03
100
AcDbLine
 10
438.019365
 20
335.393414
 30
0.0
 11
426.069888
 21
335.393414
 31
0.0
  0
LINE
  5
3C8
100
AcDbEntity
  8
M03
100
AcDbLine
 10
438.019365
 20
336.493414
 30
0.0
 11
426.069888
 21
336.493414
 31
0.0
  0
CIRCLE
  5
3C9
100
AcDbEntity
  8
M03
100
AcDbCircle
 10
432.044627
 20
335.943414
 30
0.0
 40
15.0
  0
CIRCLE
  5
3CA
100
AcDbEntity
  8
M03
100
AcDbCircle
 10
432.044627
 20
335.943414
 30
0.0
 40
14.0
  0
CIRCLE
  5
3CB
100
AcDbEntity
  8
M03
100
AcDbCircle
 10
432.044627
 20
335.943414
 30
0.0
 40
7.858882
  0
CIRCLE
  5
3CC
100
AcDbEntity
  8
M03
100
AcDbCircle
 10
432.044627
 20
335.943414
 30
0.0
 40
6.0
  0
LINE
  5
3CD
100
AcDbEntity
  8
M03
100
AcDbLine
 10
429.216199
 20
333.114987
 30
0.0
 11
476.387772
 21
285.943414
 31
0.0
  0
LINE
  5
3CE
100
AcDbEntity
  8
M03
100
AcDbLine
 10
434.873054
 20
338.771841
 30
0.0
 11
482.044627
 21
291.600268
 31
0.0
  0
LINE
  5
3CF
100
AcDbEntity
  8
CENTRE
100
AcDbLine
 10
417.902491
 20
350.08555
 30
0.0
 11
482.044627
 21
285.943414
 31
0.0
  0
CIRCLE
  5
3D0
100
AcDbEntity
  8
M01
100
AcDbCircle
 10
432.044627
 20
335.943414
 30
0.0
 40
4.0
  0
LINE
  5
3D1
100
AcDbEntity
  8
DIMS
 62
     4
100
AcDbLine
 10
485.444627
 20
285.943414
 30
0.0
 11
487.744627
 21
285.943414
 31
0.0
  0
LINE
  5
3D2
100
AcDbEntity
  8
DIMS
 62
     4
100
AcDbLine
 10
478.644627
 20
285.943414
 30
0.0
 11
476.344627
 21
285.943414
 31
0.0
  0
LINE
  5
3D3
100
AcDbEntity
  8
DIMS
 62
     4
100
AcDbLine
 10
480.344627
 20
285.943414
 30
0.0
 11
483.744627
 21
285.943414
 31
0.0
  0
CIRCLE
  5
3D4
100
AcDbEntity
  8
M03
100
AcDbCircle
 10
482.044627
 20
285.943414
 30
0.0
 40
4.0
  0
LINE
  5
3D5
100
AcDbEntity
  8
M03
100
AcDbLine
 10
476.387772
 20
285.943414
 30
0.0
 11
429.216199
 21
238.771841
 31
0.0
  0
LINE
  5
3D6
100
AcDbEntity
  8
M03
100
AcDbLine
 10
534.873054
 20
333.114987
 30
0.0
 11
434.873054
 21
233.114987
 31
0.0
  0
LINE
  5
3D7
100
AcDbEntity
  8
M03
100
AcDbLine
 10
529.216199
 20
338.771841
 30
0.0
 11
482.044627
 21
291.600268
 31
0.0
  0
LINE
  5
3D8
100
AcDbEntity
  8
CENTRE
100
AcDbLine
 10
546.186762
 20
350.08555
 30
0.0
 11
417.902491
 21
221.801278
 31
0.0
  0
LINE
  5
3D9
100
AcDbEntity
  8
DIMS
 62
     4
100
AcDbLine
 10
432.044627
 20
432.543414
 30
0.0
 11
432.044627
 21
419.243414
 31
0.0
  0
LINE
  5
3DA
100
AcDbEntity
  8
DIMS
 62
     4
100
AcDbLine
 10
432.044627
 20
439.343414
 30
0.0
 11
432.044627
 21
452.643414
 31
0.0
  0
LINE
  5
3DB
100
AcDbEntity
  8
DIMS
 62
     4
100
AcDbLine
 10
432.044627
 20
437.643414
 30
0.0
 11
432.044627
 21
434.243414
 31
0.0
  0
CIRCLE
  5
3DC
100
AcDbEntity
  8
M03
100
AcDbCircle
 10
432.044627
 20
435.943414
 30
0.0
 40
2.3
  0
ARC
  5
3DD
100
AcDbEntity
  8
M03
100
AcDbCircle
 10
432.044627
 20
435.943414
 30
0.0
 40
3.0
100
AcDbArc
 50
173.076897
 51
102.215364
  0
LINE
  5
3DE
100
AcDbEntity
  8
M03
100
AcDbLine
 10
438.019365
 20
435.393414
 30
0.0
 11
426.069888
 21
435.393414
 31
0.0
  0
LINE
  5
3DF
100
AcDbEntity
  8
M03
100
AcDbLine
 10
438.019365
 20
436.493414
 30
0.0
 11
426.069888
 21
436.493414
 31
0.0
  0
CIRCLE
  5
3E0
100
AcDbEntity
  8
M03
100
AcDbCircle
 10
432.044627
 20
435.943414
 30
0.0
 40
15.0
  0
CIRCLE
  5
3E1
100
AcDbEntity
  8
M03
100
AcDbCircle
 10
432.044627
 20
435.943414
 30
0.0
 40
14.0
  0
CIRCLE
  5
3E2
100
AcDbEntity
  8
M03
100
AcDbCircle
 10
432.044627
 20
435.943414
 30
0.0
 40
7.858882
  0
CIRCLE
  5
3E3
100
AcDbEntity
  8
M03
100
AcDbCircle
 10
432.044627
 20
435.943414
 30
0.0
 40
6.0
  0
CIRCLE
  5
3E4
100
AcDbEntity
  8
M01
100
AcDbCircle
 10
432.044627
 20
435.943414
 30
0.0
 40
4.0
  0
LINE
  5
3E5
100
AcDbEntity
  8
DIMS
 62
     4
100
AcDbLine
 10
428.644627
 20
535.943414
 30
0.0
 11
415.344627
 21
535.943414
 31
0.0
  0
LINE
  5
3E6
100
AcDbEntity
  8
DIMS
 62
     4
100
AcDbLine
 10
435.444627
 20
535.943414
 30
0.0
 11
448.744627
 21
535.943414
 31
0.0
  0
LINE
  5
3E7
100
AcDbEntity
  8
DIMS
 62
     4
100
AcDbLine
 10
432.044627
 20
532.543414
 30
0.0
 11
432.044627
 21
519.243414
 31
0.0
  0
LINE
  5
3E8
100
AcDbEntity
  8
DIMS
 62
     4
100
AcDbLine
 10
432.044627
 20
539.343414
 30
0.0
 11
432.044627
 21
552.643414
 31
0.0
  0
LINE
  5
3E9
100
AcDbEntity
  8
DIMS
 62
     4
100
AcDbLine
 10
433.744627
 20
535.943414
 30
0.0
 11
430.344627
 21
535.943414
 31
0.0
  0
LINE
  5
3EA
100
AcDbEntity
  8
DIMS
 62
     4
100
AcDbLine
 10
432.044627
 20
537.643414
 30
0.0
 11
432.044627
 21
534.243414
 31
0.0
  0
CIRCLE
  5
3EB
100
AcDbEntity
  8
M03
100
AcDbCircle
 10
432.044627
 20
535.943414
 30
0.0
 40
2.3
  0
ARC
  5
3EC
100
AcDbEntity
  8
M03
100
AcDbCircle
 10
432.044627
 20
535.943414
 30
0.0
 40
3.0
100
AcDbArc
 50
173.076897
 51
102.215364
  0
LINE
  5
3ED
100
AcDbEntity
  8
M03
100
AcDbLine
 10
438.019365
 20
535.393414
 30
0.0
 11
426.069888
 21
535.393414
 31
0.0
  0
LINE
  5
3EE
100
AcDbEntity
  8
M03
100
AcDbLine
 10
438.019365
 20
536.493414
 30
0.0
 11
426.069888
 21
536.493414
 31
0.0
  0
CIRCLE
  5
3EF
100
AcDbEntity
  8
M03
100
AcDbCircle
 10
432.044627
 20
535.943414
 30
0.0
 40
14.0
  0
CIRCLE
  5
3F0
100
AcDbEntity
  8
M03
100
AcDbCircle
 10
432.044627
 20
535.943414
 30
0.0
 40
7.858882
  0
CIRCLE
  5
3F1
100
AcDbEntity
  8
M03
100
AcDbCircle
 10
432.044627
 20
535.943414
 30
0.0
 40
6.0
  0
LINE
  5
3F2
100
AcDbEntity
  8
M03
100
AcDbLine
 10
429.216199
 20
533.114987
 30
0.0
 11
476.387772
 21
485.943414
 31
0.0
  0
LINE
  5
3F3
100
AcDbEntity
  8
M03
100
AcDbLine
 10
434.873054
 20
538.771841
 30
0.0
 11
482.044627
 21
491.600268
 31
0.0
  0
LINE
  5
3F4
100
AcDbEntity
  8
CENTRE
100
AcDbLine
 10
417.902491
 20
550.08555
 30
0.0
 11
482.044627
 21
485.943414
 31
0.0
  0
CIRCLE
  5
3F5
100
AcDbEntity
  8
M01
100
AcDbCircle
 10
432.044627
 20
535.943414
 30
0.0
 40
4.0
  0
LINE
  5
3F6
100
AcDbEntity
  8
M03
100
AcDbLine
 10
478.044627
 20
485.943414
 30
0.0
 11
478.044627
 21
285.943414
 31
0.0
  0
LINE
  5
3F7
100
AcDbEntity
  8
M03
100
AcDbLine
 10
486.044627
 20
485.943414
 30
0.0
 11
486.044627
 21
389.943414
 31
0.0
  0
LINE
  5
3F8
100
AcDbEntity
  8
DIMS
 62
     4
100
AcDbLine
 10
485.444627
 20
485.943414
 30
0.0
 11
487.744627
 21
485.943414
 31
0.0
  0
LINE
  5
3F9
100
AcDbEntity
  8
DIMS
 62
     4
100
AcDbLine
 10
478.644627
 20
485.943414
 30
0.0
 11
476.344627
 21
485.943414
 31
0.0
  0
LINE
  5
3FA
100
AcDbEntity
  8
DIMS
 62
     4
100
AcDbLine
 10
480.344627
 20
485.943414
 30
0.0
 11
483.744627
 21
485.943414
 31
0.0
  0
CIRCLE
  5
3FB
100
AcDbEntity
  8
M03
100
AcDbCircle
 10
482.044627
 20
485.943414
 30
0.0
 40
4.0
  0
LINE
  5
3FC
100
AcDbEntity
  8
M03
100
AcDbLine
 10
476.387772
 20
485.943414
 30
0.0
 11
429.216199
 21
438.771841
 31
0.0
  0
LINE
  5
3FD
100
AcDbEntity
  8
DIMS
 62
     4
100
AcDbLine
 10
535.444627
 20
535.943414
 30
0.0
 11
548.744627
 21
535.943414
 31
0.0
  0
LINE
  5
3FE
100
AcDbEntity
  8
DIMS
 62
     4
100
AcDbLine
 10
528.644627
 20
535.943414
 30
0.0
 11
515.344627
 21
535.943414
 31
0.0
  0
LINE
  5
3FF
100
AcDbEntity
  8
DIMS
 62
     4
100
AcDbLine
 10
530.344627
 20
535.943414
 30
0.0
 11
533.744627
 21
535.943414
 31
0.0
  0
CIRCLE
  5
400
100
AcDbEntity
  8
M03
100
AcDbCircle
 10
532.044627
 20
535.943414
 30
0.0
 40
2.3
  0
ARC
  5
401
100
AcDbEntity
  8
M03
100
AcDbCircle
 10
532.044627
 20
535.943414
 30
0.0
 40
3.0
100
AcDbArc
 50
77.784636
 51
6.923103
  0
LINE
  5
402
100
AcDbEntity
  8
M03
100
AcDbLine
 10
526.069888
 20
535.393414
 30
0.0
 11
538.019365
 21
535.393414
 31
0.0
  0
LINE
  5
403
100
AcDbEntity
  8
M03
100
AcDbLine
 10
526.069888
 20
536.493414
 30
0.0
 11
538.019365
 21
536.493414
 31
0.0
  0
CIRCLE
  5
404
100
AcDbEntity
  8
M03
100
AcDbCircle
 10
532.044627
 20
535.943414
 30
0.0
 40
15.0
  0
CIRCLE
  5
405
100
AcDbEntity
  8
M03
100
AcDbCircle
 10
532.044627
 20
535.943414
 30
0.0
 40
14.0
  0
CIRCLE
  5
406
100
AcDbEntity
  8
M03
100
AcDbCircle
 10
532.044627
 20
535.943414
 30
0.0
 40
7.858882
  0
CIRCLE
  5
407
100
AcDbEntity
  8
M03
100
AcDbCircle
 10
532.044627
 20
535.943414
 30
0.0
 40
6.0
  0
LINE
  5
408
100
AcDbEntity
  8
M03
100
AcDbLine
 10
534.873054
 20
533.114987
 30
0.0
 11
434.873054
 21
433.114987
 31
0.0
  0
LINE
  5
409
100
AcDbEntity
  8
M03
100
AcDbLine
 10
529.216199
 20
538.771841
 30
0.0
 11
482.044627
 21
491.600268
 31
0.0
  0
LINE
  5
40A
100
AcDbEntity
  8
CENTRE
100
AcDbLine
 10
546.186762
 20
550.08555
 30
0.0
 11
417.902491
 21
421.801278
 31
0.0
  0
CIRCLE
  5
40B
100
AcDbEntity
  8
M01
100
AcDbCircle
 10
532.044627
 20
535.943414
 30
0.0
 40
4.0
  0
LINE
  5
40C
100
AcDbEntity
  8
CENTRE
100
AcDbLine
 10
532.044627
 20
702.065995
 30
0.0
 11
532.044627
 21
163.947296
 31
0.0
  0
LINE
  5
40D
100
AcDbEntity
  8
DIMS
 62
     4
100
AcDbLine
 10
632.044627
 20
539.343414
 30
0.0
 11
632.044627
 21
552.643414
 31
0.0
  0
LINE
  5
40E
100
AcDbEntity
  8
DIMS
 62
     4
100
AcDbLine
 10
632.044627
 20
532.543414
 30
0.0
 11
632.044627
 21
519.243414
 31
0.0
  0
LINE
  5
40F
100
AcDbEntity
  8
DIMS
 62
     4
100
AcDbLine
 10
632.044627
 20
534.243414
 30
0.0
 11
632.044627
 21
537.643414
 31
0.0
  0
CIRCLE
  5
410
100
AcDbEntity
  8
M03
100
AcDbCircle
 10
632.044627
 20
535.943414
 30
0.0
 40
2.3
  0
ARC
  5
411
100
AcDbEntity
  8
M03
100
AcDbCircle
 10
632.044627
 20
535.943414
 30
0.0
 40
3.0
100
AcDbArc
 50
353.076897
 51
282.215364
  0
LINE
  5
412
100
AcDbEntity
  8
M03
100
AcDbLine
 10
626.069888
 20
536.493414
 30
0.0
 11
638.019365
 21
536.493414
 31
0.0
  0
LINE
  5
413
100
AcDbEntity
  8
M03
100
AcDbLine
 10
626.069888
 20
535.393414
 30
0.0
 11
638.019365
 21
535.393414
 31
0.0
  0
CIRCLE
  5
414
100
AcDbEntity
  8
M03
100
AcDbCircle
 10
432.044627
 20
535.943414
 30
0.0
 40
15.0
  0
CIRCLE
  5
415
100
AcDbEntity
  8
M03
100
AcDbCircle
 10
632.044627
 20
535.943414
 30
0.0
 40
14.0
  0
CIRCLE
  5
416
100
AcDbEntity
  8
M03
100
AcDbCircle
 10
632.044627
 20
535.943414
 30
0.0
 40
7.858882
  0
CIRCLE
  5
417
100
AcDbEntity
  8
M03
100
AcDbCircle
 10
632.044627
 20
535.943414
 30
0.0
 40
6.0
  0
CIRCLE
  5
418
100
AcDbEntity
  8
M01
100
AcDbCircle
 10
632.044627
 20
535.943414
 30
0.0
 40
4.0
  0
LINE
  5
419
100
AcDbEntity
  8
DIMS
 62
     4
100
AcDbLine
 10
635.444627
 20
435.943414
 30
0.0
 11
648.744627
 21
435.943414
 31
0.0
  0
LINE
  5
41A
100
AcDbEntity
  8
DIMS
 62
     4
100
AcDbLine
 10
628.644627
 20
435.943414
 30
0.0
 11
615.344627
 21
435.943414
 31
0.0
  0
LINE
  5
41B
100
AcDbEntity
  8
DIMS
 62
     4
100
AcDbLine
 10
632.044627
 20
439.343414
 30
0.0
 11
632.044627
 21
452.643414
 31
0.0
  0
LINE
  5
41C
100
AcDbEntity
  8
DIMS
 62
     4
100
AcDbLine
 10
632.044627
 20
432.543414
 30
0.0
 11
632.044627
 21
419.243414
 31
0.0
  0
LINE
  5
41D
100
AcDbEntity
  8
DIMS
 62
     4
100
AcDbLine
 10
630.344627
 20
435.943414
 30
0.0
 11
633.744627
 21
435.943414
 31
0.0
  0
LINE
  5
41E
100
AcDbEntity
  8
DIMS
 62
     4
100
AcDbLine
 10
632.044627
 20
434.243414
 30
0.0
 11
632.044627
 21
437.643414
 31
0.0
  0
CIRCLE
  5
41F
100
AcDbEntity
  8
M03
100
AcDbCircle
 10
632.044627
 20
435.943414
 30
0.0
 40
2.3
  0
ARC
  5
420
100
AcDbEntity
  8
M03
100
AcDbCircle
 10
632.044627
 20
435.943414
 30
0.0
 40
3.0
100
AcDbArc
 50
353.076897
 51
282.215364
  0
LINE
  5
421
100
AcDbEntity
  8
M03
100
AcDbLine
 10
626.069888
 20
436.493414
 30
0.0
 11
638.019365
 21
436.493414
 31
0.0
  0
LINE
  5
422
100
AcDbEntity
  8
M03
100
AcDbLine
 10
626.069888
 20
435.393414
 30
0.0
 11
638.019365
 21
435.393414
 31
0.0
  0
CIRCLE
  5
423
100
AcDbEntity
  8
M03
100
AcDbCircle
 10
632.044627
 20
435.943414
 30
0.0
 40
15.0
  0
CIRCLE
  5
424
100
AcDbEntity
  8
M03
100
AcDbCircle
 10
632.044627
 20
435.943414
 30
0.0
 40
14.0
  0
CIRCLE
  5
425
100
AcDbEntity
  8
M03
100
AcDbCircle
 10
632.044627
 20
435.943414
 30
0.0
 40
7.858882
  0
CIRCLE
  5
426
100
AcDbEntity
  8
M03
100
AcDbCircle
 10
632.044627
 20
435.943414
 30
0.0
 40
6.0
  0
LINE
  5
427
100
AcDbEntity
  8
M03
100
AcDbLine
 10
634.873054
 20
438.771841
 30
0.0
 11
587.701481
 21
485.943414
 31
0.0
  0
LINE
  5
428
100
AcDbEntity
  8
M03
100
AcDbLine
 10
629.216199
 20
433.114987
 30
0.0
 11
582.044627
 21
480.28656
 31
0.0
  0
LINE
  5
429
100
AcDbEntity
  8
CENTRE
100
AcDbLine
 10
646.186762
 20
421.801278
 30
0.0
 11
582.044627
 21
485.943414
 31
0.0
  0
CIRCLE
  5
42A
100
AcDbEntity
  8
M01
100
AcDbCircle
 10
632.044627
 20
435.943414
 30
0.0
 40
4.0
  0
LINE
  5
42B
100
AcDbEntity
  8
DIMS
 62
     4
100
AcDbLine
 10
578.644627
 20
485.943414
 30
0.0
 11
576.344627
 21
485.943414
 31
0.0
  0
LINE
  5
42C
100
AcDbEntity
  8
DIMS
 62
     4
100
AcDbLine
 10
585.444627
 20
485.943414
 30
0.0
 11
587.744627
 21
485.943414
 31
0.0
  0
LINE
  5
42D
100
AcDbEntity
  8
DIMS
 62
     4
100
AcDbLine
 10
583.744627
 20
485.943414
 30
0.0
 11
580.344627
 21
485.943414
 31
0.0
  0
CIRCLE
  5
42E
100
AcDbEntity
  8
M03
100
AcDbCircle
 10
582.044627
 20
485.943414
 30
0.0
 40
4.0
  0
LINE
  5
42F
100
AcDbEntity
  8
M03
100
AcDbLine
 10
587.701481
 20
485.943414
 30
0.0
 11
634.873054
 21
533.114987
 31
0.0
  0
LINE
  5
430
100
AcDbEntity
  8
M03
100
AcDbLine
 10
529.216199
 20
438.771841
 30
0.0
 11
629.216199
 21
538.771841
 31
0.0
  0
LINE
  5
431
100
AcDbEntity
  8
M03
100
AcDbLine
 10
534.873054
 20
433.114987
 30
0.0
 11
582.044627
 21
480.28656
 31
0.0
  0
LINE
  5
432
100
AcDbEntity
  8
CENTRE
100
AcDbLine
 10
517.902491
 20
421.801278
 30
0.0
 11
646.186762
 21
550.08555
 31
0.0
  0
CIRCLE
  5
433
100
AcDbEntity
  8
M01
100
AcDbCircle
 10
532.044627
 20
435.943414
 30
0.0
 40
4.0
  0
LINE
  5
434
100
AcDbEntity
  8
DIMS
 62
     4
100
AcDbLine
 10
632.044627
 20
339.343414
 30
0.0
 11
632.044627
 21
352.643414
 31
0.0
  0
LINE
  5
435
100
AcDbEntity
  8
DIMS
 62
     4
100
AcDbLine
 10
632.044627
 20
332.543414
 30
0.0
 11
632.044627
 21
319.243414
 31
0.0
  0
LINE
  5
436
100
AcDbEntity
  8
DIMS
 62
     4
100
AcDbLine
 10
632.044627
 20
334.243414
 30
0.0
 11
632.044627
 21
337.643414
 31
0.0
  0
CIRCLE
  5
437
100
AcDbEntity
  8
M03
100
AcDbCircle
 10
632.044627
 20
335.943414
 30
0.0
 40
2.3
  0
ARC
  5
438
100
AcDbEntity
  8
M03
100
AcDbCircle
 10
632.044627
 20
335.943414
 30
0.0
 40
3.0
100
AcDbArc
 50
353.076897
 51
282.215364
  0
LINE
  5
439
100
AcDbEntity
  8
M03
100
AcDbLine
 10
626.069888
 20
336.493414
 30
0.0
 11
638.019365
 21
336.493414
 31
0.0
  0
LINE
  5
43A
100
AcDbEntity
  8
M03
100
AcDbLine
 10
626.069888
 20
335.393414
 30
0.0
 11
638.019365
 21
335.393414
 31
0.0
  0
CIRCLE
  5
43B
100
AcDbEntity
  8
M03
100
AcDbCircle
 10
632.044627
 20
335.943414
 30
0.0
 40
15.0
  0
CIRCLE
  5
43C
100
AcDbEntity
  8
M03
100
AcDbCircle
 10
632.044627
 20
335.943414
 30
0.0
 40
14.0
  0
CIRCLE
  5
43D
100
AcDbEntity
  8
M03
100
AcDbCircle
 10
632.044627
 20
335.943414
 30
0.0
 40
7.858882
  0
CIRCLE
  5
43E
100
AcDbEntity
  8
M03
100
AcDbCircle
 10
632.044627
 20
335.943414
 30
0.0
 40
6.0
  0
CIRCLE
  5
43F
100
AcDbEntity
  8
M01
100
AcDbCircle
 10
632.044627
 20
335.943414
 30
0.0
 40
4.0
  0
LINE
  5
440
100
AcDbEntity
  8
DIMS
 62
     4
100
AcDbLine
 10
635.444627
 20
235.943414
 30
0.0
 11
648.744627
 21
235.943414
 31
0.0
  0
LINE
  5
441
100
AcDbEntity
  8
DIMS
 62
     4
100
AcDbLine
 10
628.644627
 20
235.943414
 30
0.0
 11
615.344627
 21
235.943414
 31
0.0
  0
LINE
  5
442
100
AcDbEntity
  8
DIMS
 62
     4
100
AcDbLine
 10
632.044627
 20
239.343414
 30
0.0
 11
632.044627
 21
252.643414
 31
0.0
  0
LINE
  5
443
100
AcDbEntity
  8
DIMS
 62
     4
100
AcDbLine
 10
632.044627
 20
232.543414
 30
0.0
 11
632.044627
 21
219.243414
 31
0.0
  0
LINE
  5
444
100
AcDbEntity
  8
DIMS
 62
     4
100
AcDbLine
 10
630.344627
 20
235.943414
 30
0.0
 11
633.744627
 21
235.943414
 31
0.0
  0
LINE
  5
445
100
AcDbEntity
  8
DIMS
 62
     4
100
AcDbLine
 10
632.044627
 20
234.243414
 30
0.0
 11
632.044627
 21
237.643414
 31
0.0
  0
CIRCLE
  5
446
100
AcDbEntity
  8
M03
100
AcDbCircle
 10
632.044627
 20
235.943414
 30
0.0
 40
2.3
  0
ARC
  5
447
100
AcDbEntity
  8
M03
100
AcDbCircle
 10
632.044627
 20
235.943414
 30
0.0
 40
3.0
100
AcDbArc
 50
353.076897
 51
282.215364
  0
LINE
  5
448
100
AcDbEntity
  8
M03
100
AcDbLine
 10
626.069888
 20
236.493414
 30
0.0
 11
638.019365
 21
236.493414
 31
0.0
  0
LINE
  5
449
100
AcDbEntity
  8
M03
100
AcDbLine
 10
626.069888
 20
235.393414
 30
0.0
 11
638.019365
 21
235.393414
 31
0.0
  0
CIRCLE
  5
44A
100
AcDbEntity
  8
M03
100
AcDbCircle
 10
632.044627
 20
235.943414
 30
0.0
 40
15.0
  0
CIRCLE
  5
44B
100
AcDbEntity
  8
M03
100
AcDbCircle
 10
632.044627
 20
235.943414
 30
0.0
 40
14.0
  0
CIRCLE
  5
44C
100
AcDbEntity
  8
M03
100
AcDbCircle
 10
632.044627
 20
235.943414
 30
0.0
 40
7.858882
  0
CIRCLE
  5
44D
100
AcDbEntity
  8
M03
100
AcDbCircle
 10
632.044627
 20
235.943414
 30
0.0
 40
6.0
  0
LINE
  5
44E
100
AcDbEntity
  8
M03
100
AcDbLine
 10
634.873054
 20
238.771841
 30
0.0
 11
587.701481
 21
285.943414
 31
0.0
  0
LINE
  5
44F
100
AcDbEntity
  8
M03
100
AcDbLine
 10
629.216199
 20
233.114987
 30
0.0
 11
582.044627
 21
280.28656
 31
0.0
  0
LINE
  5
450
100
AcDbEntity
  8
CENTRE
100
AcDbLine
 10
646.186762
 20
221.801278
 30
0.0
 11
582.044627
 21
285.943414
 31
0.0
  0
CIRCLE
  5
451
100
AcDbEntity
  8
M01
100
AcDbCircle
 10
632.044627
 20
235.943414
 30
0.0
 40
4.0
  0
LINE
  5
452
100
AcDbEntity
  8
M03
100
AcDbLine
 10
586.044627
 20
285.943414
 30
0.0
 11
586.044627
 21
485.943414
 31
0.0
  0
LINE
  5
453
100
AcDbEntity
  8
M03
100
AcDbLine
 10
578.044627
 20
285.943414
 30
0.0
 11
578.044627
 21
381.943414
 31
0.0
  0
LINE
  5
454
100
AcDbEntity
  8
DIMS
 62
     4
100
AcDbLine
 10
578.644627
 20
285.943414
 30
0.0
 11
576.344627
 21
285.943414
 31
0.0
  0
LINE
  5
455
100
AcDbEntity
  8
DIMS
 62
     4
100
AcDbLine
 10
585.444627
 20
285.943414
 30
0.0
 11
587.744627
 21
285.943414
 31
0.0
  0
LINE
  5
456
100
AcDbEntity
  8
DIMS
 62
     4
100
AcDbLine
 10
583.744627
 20
285.943414
 30
0.0
 11
580.344627
 21
285.943414
 31
0.0
  0
CIRCLE
  5
457
100
AcDbEntity
  8
M03
100
AcDbCircle
 10
582.044627
 20
285.943414
 30
0.0
 40
4.0
  0
LINE
  5
458
100
AcDbEntity
  8
M03
100
AcDbLine
 10
587.701481
 20
285.943414
 30
0.0
 11
634.873054
 21
333.114987
 31
0.0
  0
MTEXT
  5
459
100
AcDbEntity
  8
0
  6
BYBLOCK
 62
     2
100
AcDbMText
 10
535.125709
 20
152.009745
 30
0.0
 40
3.0
 41
0.0
 71
     6
 72
     1
  1
WHERE POSSIBLE M12 PLATE RETAINING SCREWS SHOULD ALSO BE FITTED.\PMINIMUM 2 PER DROP & ALSO AROUND MANIFOLD POCKET.
  0
LINE
  5
45A
102
{ACAD_REACTORS
330
CA
102
}
100
AcDbEntity
  8
M02
100
AcDbLine
 10
872.758914
 20
221.943414
 30
0.0
 11
872.758914
 21
201.943414
 31
0.0
  0
LINE
  5
45B
100
AcDbEntity
  8
M02
100
AcDbLine
 10
872.758914
 20
351.943414
 30
0.0
 11
872.758914
 21
349.943414
 31
0.0
  0
LINE
  5
45C
102
{ACAD_REACTORS
330
CA
102
}
100
AcDbEntity
  8
M02
100
AcDbLine
 10
869.758914
 20
201.943414
 30
0.0
 11
872.758914
 21
201.943414
 31
0.0
  0
LINE
  5
45D
100
AcDbEntity
  8
M04
100
AcDbLine
 10
876.758914
 20
232.943414
 30
0.0
 11
876.758914
 21
181.430023
 31
0.0
  0
LINE
  5
45E
102
{ACAD_REACTORS
330
C9
102
}
100
AcDbEntity
  8
M01
100
AcDbLine
 10
869.758914
 20
375.943414
 30
0.0
 11
869.758914
 21
362.943414
 31
0.0
  0
LINE
  5
45F
102
{ACAD_REACTORS
330
C8
102
}
100
AcDbEntity
  8
M04
100
AcDbLine
 10
862.458914
 20
408.943414
 30
0.0
 11
859.958914
 21
408.943414
 31
0.0
  0
LINE
  5
460
102
{ACAD_REACTORS
330
C8
102
}
100
AcDbEntity
  8
M04
100
AcDbLine
 10
861.758914
 20
409.643414
 30
0.0
 11
858.458914
 21
409.643414
 31
0.0
  0
LINE
  5
461
102
{ACAD_REACTORS
330
C8
102
}
100
AcDbEntity
  8
M04
100
AcDbLine
 10
862.458914
 20
414.943414
 30
0.0
 11
859.958914
 21
414.943414
 31
0.0
  0
LINE
  5
462
102
{ACAD_REACTORS
330
C8
102
}
100
AcDbEntity
  8
M04
100
AcDbLine
 10
861.758914
 20
414.243414
 30
0.0
 11
858.458914
 21
414.243414
 31
0.0
  0
LINE
  5
463
100
AcDbEntity
  8
M05
100
AcDbLine
 10
871.758914
 20
417.193414
 30
0.0
 11
871.758914
 21
406.693414
 31
0.0
  0
LINE
  5
464
100
AcDbEntity
  8
M04
100
AcDbLine
 10
871.758914
 20
406.693414
 30
0.0
 11
871.758914
 21
406.443414
 31
0.0
  0
LINE
  5
465
100
AcDbEntity
  8
M04
100
AcDbLine
 10
871.758914
 20
417.443414
 30
0.0
 11
875.758914
 21
417.443414
 31
0.0
  0
LINE
  5
466
100
AcDbEntity
  8
M04
100
AcDbLine
 10
871.758914
 20
406.443414
 30
0.0
 11
875.758914
 21
406.443414
 31
0.0
  0
LINE
  5
467
100
AcDbEntity
  8
M05
100
AcDbLine
 10
870.758914
 20
408.943414
 30
0.0
 11
870.758914
 21
414.943414
 31
0.0
  0
LINE
  5
468
102
{ACAD_REACTORS
330
C8
102
}
100
AcDbEntity
  8
M04
100
AcDbLine
 10
858.458914
 20
414.243414
 30
0.0
 11
857.131009
 21
411.943414
 31
0.0
  0
LINE
  5
469
102
{ACAD_REACTORS
330
C8
102
}
100
AcDbEntity
  8
M04
100
AcDbLine
 10
858.458914
 20
409.643414
 30
0.0
 11
857.131009
 21
411.943414
 31
0.0
  0
LINE
  5
46A
100
AcDbEntity
  8
M04
100
AcDbLine
 10
858.458914
 20
409.643414
 30
0.0
 11
858.458914
 21
414.243414
 31
0.0
  0
LINE
  5
46B
102
{ACAD_REACTORS
330
C8
102
}
100
AcDbEntity
  8
M04
100
AcDbLine
 10
859.958914
 20
408.943414
 30
0.0
 11
859.958914
 21
414.943414
 31
0.0
  0
ARC
  5
46C
100
AcDbEntity
  8
M05
100
AcDbCircle
 10
869.232778
 20
411.943414
 30
0.0
 40
5.826136
100
AcDbArc
 50
295.69541
 51
64.30459
  0
LINE
  5
46D
100
AcDbEntity
  8
M05
100
AcDbLine
 10
862.458914
 20
414.943414
 30
0.0
 11
861.758914
 21
414.243414
 31
0.0
  0
LINE
  5
46E
100
AcDbEntity
  8
M05
100
AcDbLine
 10
862.458914
 20
408.943414
 30
0.0
 11
861.758914
 21
409.643414
 31
0.0
  0
LINE
  5
46F
100
AcDbEntity
  8
M05
100
AcDbLine
 10
862.458914
 20
408.943414
 30
0.0
 11
862.458914
 21
414.943414
 31
0.0
  0
LINE
  5
470
100
AcDbEntity
  8
M05
100
AcDbLine
 10
861.758914
 20
409.643414
 30
0.0
 11
861.758914
 21
414.243414
 31
0.0
  0
LINE
  5
471
100
AcDbEntity
  8
M04
100
AcDbLine
 10
869.758914
 20
408.243414
 30
0.0
 11
871.758914
 21
408.243414
 31
0.0
  0
LINE
  5
472
100
AcDbEntity
  8
M04
100
AcDbLine
 10
869.758914
 20
415.643414
 30
0.0
 11
871.758914
 21
415.643414
 31
0.0
  0
LINE
  5
473
100
AcDbEntity
  8
M05
100
AcDbLine
 10
861.758914
 20
414.243414
 30
0.0
 11
870.758914
 21
414.243414
 31
0.0
  0
LINE
  5
474
100
AcDbEntity
  8
M05
100
AcDbLine
 10
861.758914
 20
409.643414
 30
0.0
 11
870.758914
 21
409.643414
 31
0.0
  0
LINE
  5
475
102
{ACAD_REACTORS
330
C8
102
}
100
AcDbEntity
  8
M05
100
AcDbLine
 10
862.458914
 20
408.943414
 30
0.0
 11
871.758914
 21
408.943414
 31
0.0
  0
LINE
  5
476
102
{ACAD_REACTORS
330
C8
102
}
100
AcDbEntity
  8
M05
100
AcDbLine
 10
862.458914
 20
414.943414
 30
0.0
 11
871.758914
 21
414.943414
 31
0.0
  0
LINE
  5
477
100
AcDbEntity
  8
M04
100
AcDbLine
 10
871.758914
 20
417.443414
 30
0.0
 11
871.758914
 21
417.193414
 31
0.0
  0
LINE
  5
478
100
AcDbEntity
  8
CENTRE
100
AcDbLine
 10
854.492414
 20
411.943414
 30
0.0
 11
879.405102
 21
411.943414
 31
0.0
  0
LINE
  5
479
102
{ACAD_REACTORS
330
C9
102
}
100
AcDbEntity
  8
M04
100
AcDbLine
 10
862.458914
 20
362.943414
 30
0.0
 11
859.958914
 21
362.943414
 31
0.0
  0
LINE
  5
47A
102
{ACAD_REACTORS
330
C9
102
}
100
AcDbEntity
  8
M04
100
AcDbLine
 10
861.758914
 20
362.243414
 30
0.0
 11
858.458914
 21
362.243414
 31
0.0
  0
LINE
  5
47B
102
{ACAD_REACTORS
330
C9
102
}
100
AcDbEntity
  8
M04
100
AcDbLine
 10
862.458914
 20
356.943414
 30
0.0
 11
859.958914
 21
356.943414
 31
0.0
  0
LINE
  5
47C
102
{ACAD_REACTORS
330
C9
102
}
100
AcDbEntity
  8
M04
100
AcDbLine
 10
861.758914
 20
357.643414
 30
0.0
 11
858.458914
 21
357.643414
 31
0.0
  0
LINE
  5
47D
100
AcDbEntity
  8
M05
100
AcDbLine
 10
871.758914
 20
354.693414
 30
0.0
 11
871.758914
 21
365.193414
 31
0.0
  0
LINE
  5
47E
100
AcDbEntity
  8
M04
100
AcDbLine
 10
871.758914
 20
365.193414
 30
0.0
 11
871.758914
 21
365.443414
 31
0.0
  0
LINE
  5
47F
100
AcDbEntity
  8
M04
100
AcDbLine
 10
871.758914
 20
354.443414
 30
0.0
 11
875.758914
 21
354.443414
 31
0.0
  0
LINE
  5
480
100
AcDbEntity
  8
M04
100
AcDbLine
 10
871.758914
 20
365.443414
 30
0.0
 11
875.758914
 21
365.443414
 31
0.0
  0
LINE
  5
481
100
AcDbEntity
  8
M05
100
AcDbLine
 10
870.758914
 20
362.943414
 30
0.0
 11
870.758914
 21
356.943414
 31
0.0
  0
LINE
  5
482
102
{ACAD_REACTORS
330
C9
102
}
100
AcDbEntity
  8
M04
100
AcDbLine
 10
858.458914
 20
357.643414
 30
0.0
 11
857.131009
 21
359.943414
 31
0.0
  0
LINE
  5
483
102
{ACAD_REACTORS
330
C9
102
}
100
AcDbEntity
  8
M04
100
AcDbLine
 10
858.458914
 20
362.243414
 30
0.0
 11
857.131009
 21
359.943414
 31
0.0
  0
LINE
  5
484
100
AcDbEntity
  8
M04
100
AcDbLine
 10
858.458914
 20
362.243414
 30
0.0
 11
858.458914
 21
357.643414
 31
0.0
  0
LINE
  5
485
102
{ACAD_REACTORS
330
C9
102
}
100
AcDbEntity
  8
M04
100
AcDbLine
 10
859.958914
 20
362.943414
 30
0.0
 11
859.958914
 21
356.943414
 31
0.0
  0
ARC
  5
486
100
AcDbEntity
  8
M05
100
AcDbCircle
 10
869.232778
 20
359.943414
 30
0.0
 40
5.826136
100
AcDbArc
 50
295.69541
 51
64.30459
  0
LINE
  5
487
100
AcDbEntity
  8
M05
100
AcDbLine
 10
862.458914
 20
356.943414
 30
0.0
 11
861.758914
 21
357.643414
 31
0.0
  0
LINE
  5
488
100
AcDbEntity
  8
M05
100
AcDbLine
 10
862.458914
 20
362.943414
 30
0.0
 11
861.758914
 21
362.243414
 31
0.0
  0
LINE
  5
489
100
AcDbEntity
  8
M05
100
AcDbLine
 10
862.458914
 20
362.943414
 30
0.0
 11
862.458914
 21
356.943414
 31
0.0
  0
LINE
  5
48A
100
AcDbEntity
  8
M05
100
AcDbLine
 10
861.758914
 20
362.243414
 30
0.0
 11
861.758914
 21
357.643414
 31
0.0
  0
LINE
  5
48B
100
AcDbEntity
  8
M04
100
AcDbLine
 10
869.758914
 20
363.643414
 30
0.0
 11
871.758914
 21
363.643414
 31
0.0
  0
LINE
  5
48C
100
AcDbEntity
  8
M04
100
AcDbLine
 10
869.758914
 20
356.243414
 30
0.0
 11
871.758914
 21
356.243414
 31
0.0
  0
LINE
  5
48D
100
AcDbEntity
  8
M05
100
AcDbLine
 10
861.758914
 20
357.643414
 30
0.0
 11
870.758914
 21
357.643414
 31
0.0
  0
LINE
  5
48E
100
AcDbEntity
  8
M05
100
AcDbLine
 10
861.758914
 20
362.243414
 30
0.0
 11
870.758914
 21
362.243414
 31
0.0
  0
LINE
  5
48F
102
{ACAD_REACTORS
330
C9
102
}
100
AcDbEntity
  8
M05
100
AcDbLine
 10
862.458914
 20
362.943414
 30
0.0
 11
871.758914
 21
362.943414
 31
0.0
  0
LINE
  5
490
102
{ACAD_REACTORS
330
C9
102
}
100
AcDbEntity
  8
M05
100
AcDbLine
 10
862.458914
 20
356.943414
 30
0.0
 11
871.758914
 21
356.943414
 31
0.0
  0
LINE
  5
491
100
AcDbEntity
  8
M04
100
AcDbLine
 10
871.758914
 20
354.443414
 30
0.0
 11
871.758914
 21
354.693414
 31
0.0
  0
LINE
  5
492
100
AcDbEntity
  8
CENTRE
100
AcDbLine
 10
854.492414
 20
359.943414
 30
0.0
 11
879.405102
 21
359.943414
 31
0.0
  0
LINE
  5
493
100
AcDbEntity
  8
M04
100
AcDbLine
 10
894.758914
 20
415.943414
 30
0.0
 11
903.758914
 21
415.943414
 31
0.0
  0
LINE
  5
494
100
AcDbEntity
  8
M05
100
AcDbLine
 10
875.058914
 20
419.943414
 30
0.0
 11
875.758914
 21
419.243414
 31
0.0
  0
LINE
  5
495
100
AcDbEntity
  8
M04
100
AcDbLine
 10
894.758914
 20
415.943414
 30
0.0
 11
894.758914
 21
355.943414
 31
0.0
  0
LINE
  5
496
100
AcDbEntity
  8
M04
100
AcDbLine
 10
884.758914
 20
405.943414
 30
0.0
 11
894.758914
 21
415.943414
 31
0.0
  0
LINE
  5
497
100
AcDbEntity
  8
M04
100
AcDbLine
 10
894.758914
 20
355.943414
 30
0.0
 11
903.758914
 21
355.943414
 31
0.0
  0
LINE
  5
498
100
AcDbEntity
  8
M04
100
AcDbLine
 10
884.758914
 20
365.943414
 30
0.0
 11
894.758914
 21
355.943414
 31
0.0
  0
LINE
  5
499
100
AcDbEntity
  8
M05
100
AcDbLine
 10
878.060129
 20
388.984288
 30
0.0
 11
878.060129
 21
382.90254
 31
0.0
  0
ARC
  5
49A
100
AcDbEntity
  8
M05
100
AcDbCircle
 10
893.258914
 20
385.943414
 30
0.0
 40
15.5
100
AcDbArc
 50
143.750679
 51
168.686019
  0
LINE
  5
49B
100
AcDbEntity
  8
M05
100
AcDbLine
 10
859.758914
 20
389.943414
 30
0.0
 11
878.060129
 21
388.984288
 31
0.0
  0
LINE
  5
49C
100
AcDbEntity
  8
M05
100
AcDbLine
 10
859.758914
 20
381.943414
 30
0.0
 11
878.060129
 21
382.90254
 31
0.0
  0
ARC
  5
49D
100
AcDbEntity
  8
M05
100
AcDbCircle
 10
893.258914
 20
385.943414
 30
0.0
 40
15.5
100
AcDbArc
 50
191.313981
 51
216.249321
  0
LINE
  5
49E
100
AcDbEntity
  8
M04
100
AcDbLine
 10
878.758914
 20
405.943414
 30
0.0
 11
876.758914
 21
405.943414
 31
0.0
  0
LINE
  5
49F
100
AcDbEntity
  8
M04
100
AcDbLine
 10
880.058914
 20
405.943414
 30
0.0
 11
884.758914
 21
405.943414
 31
0.0
  0
LINE
  5
4A0
100
AcDbEntity
  8
M04
100
AcDbLine
 10
878.758914
 20
365.943414
 30
0.0
 11
876.758914
 21
365.943414
 31
0.0
  0
LINE
  5
4A1
100
AcDbEntity
  8
M04
100
AcDbLine
 10
880.058914
 20
365.943414
 30
0.0
 11
884.758914
 21
365.943414
 31
0.0
  0
LINE
  5
4A2
100
AcDbEntity
  8
M04
100
AcDbLine
 10
884.758914
 20
365.943414
 30
0.0
 11
884.758914
 21
405.943414
 31
0.0
  0
LINE
  5
4A3
100
AcDbEntity
  8
M05
100
AcDbLine
 10
878.758914
 20
405.443414
 30
0.0
 11
878.758914
 21
405.943414
 31
0.0
  0
LINE
  5
4A4
100
AcDbEntity
  8
M05
100
AcDbLine
 10
875.758914
 20
405.443414
 30
0.0
 11
875.758914
 21
419.243414
 31
0.0
  0
LINE
  5
4A5
100
AcDbEntity
  8
M05
100
AcDbLine
 10
875.758914
 20
405.443414
 30
0.0
 11
878.758914
 21
405.443414
 31
0.0
  0
LINE
  5
4A6
100
AcDbEntity
  8
M05
100
AcDbLine
 10
875.758914
 20
366.443414
 30
0.0
 11
878.758914
 21
366.443414
 31
0.0
  0
LINE
  5
4A7
100
AcDbEntity
  8
M05
100
AcDbLine
 10
878.758914
 20
365.943414
 30
0.0
 11
878.758914
 21
366.443414
 31
0.0
  0
LINE
  5
4A8
100
AcDbEntity
  8
M05
100
AcDbLine
 10
880.758914
 20
405.243414
 30
0.0
 11
880.058914
 21
405.943414
 31
0.0
  0
LINE
  5
4A9
100
AcDbEntity
  8
M05
100
AcDbLine
 10
880.758914
 20
366.643414
 30
0.0
 11
880.058914
 21
365.943414
 31
0.0
  0
LINE
  5
4AA
100
AcDbEntity
  8
M05
100
AcDbLine
 10
880.758914
 20
366.643414
 30
0.0
 11
880.758914
 21
405.243414
 31
0.0
  0
LINE
  5
4AB
100
AcDbEntity
  8
M05
100
AcDbLine
 10
878.758914
 20
405.943414
 30
0.0
 11
880.058914
 21
405.943414
 31
0.0
  0
LINE
  5
4AC
100
AcDbEntity
  8
M05
100
AcDbLine
 10
878.758914
 20
365.943414
 30
0.0
 11
880.058914
 21
365.943414
 31
0.0
  0
LINE
  5
4AD
102
{ACAD_REACTORS
330
C8
102
}
100
AcDbEntity
  8
M04
100
AcDbLine
 10
869.258914
 20
395.943414
 30
0.0
 11
869.758914
 21
396.443414
 31
0.0
  0
LINE
  5
4AE
102
{ACAD_REACTORS
330
C9
102
}
100
AcDbEntity
  8
M04
100
AcDbLine
 10
869.258914
 20
375.943414
 30
0.0
 11
869.758914
 21
375.443414
 31
0.0
  0
LINE
  5
4AF
100
AcDbEntity
  8
M05
100
AcDbLine
 10
870.458914
 20
419.943414
 30
0.0
 11
869.758914
 21
419.243414
 31
0.0
  0
LINE
  5
4B0
100
AcDbEntity
  8
M05
100
AcDbLine
 10
870.458914
 20
419.943414
 30
0.0
 11
875.058914
 21
419.943414
 31
0.0
  0
LINE
  5
4B1
100
AcDbEntity
  8
M05
100
AcDbLine
 10
870.458914
 20
351.943414
 30
0.0
 11
869.758914
 21
352.643414
 31
0.0
  0
LINE
  5
4B2
100
AcDbEntity
  8
M05
100
AcDbLine
 10
875.058914
 20
351.943414
 30
0.0
 11
875.758914
 21
352.643414
 31
0.0
  0
LINE
  5
4B3
100
AcDbEntity
  8
M05
100
AcDbLine
 10
875.758914
 20
352.643414
 30
0.0
 11
875.758914
 21
366.443414
 31
0.0
  0
LINE
  5
4B4
100
AcDbEntity
  8
M05
100
AcDbLine
 10
870.458914
 20
351.943414
 30
0.0
 11
875.058914
 21
351.943414
 31
0.0
  0
LINE
  5
4B5
102
{ACAD_REACTORS
330
C8
102
}
100
AcDbEntity
  8
M04
100
AcDbLine
 10
860.758914
 20
395.943414
 30
0.0
 11
859.758914
 21
395.943414
 31
0.0
  0
LINE
  5
4B6
102
{ACAD_REACTORS
330
C8
102
}
100
AcDbEntity
  8
M04
100
AcDbLine
 10
859.758914
 20
394.943414
 30
0.0
 11
859.758914
 21
395.943414
 31
0.0
  0
LINE
  5
4B7
102
{ACAD_REACTORS
330
C9
102
}
100
AcDbEntity
  8
M04
100
AcDbLine
 10
860.758914
 20
375.943414
 30
0.0
 11
859.758914
 21
375.943414
 31
0.0
  0
LINE
  5
4B8
102
{ACAD_REACTORS
330
C9
102
}
100
AcDbEntity
  8
M04
100
AcDbLine
 10
859.758914
 20
376.943414
 30
0.0
 11
859.758914
 21
375.943414
 31
0.0
  0
LINE
  5
4B9
100
AcDbEntity
  8
M05
100
AcDbLine
 10
859.758914
 20
376.943414
 30
0.0
 11
860.758914
 21
375.943414
 31
0.0
  0
LINE
  5
4BA
100
AcDbEntity
  8
M05
100
AcDbLine
 10
860.758914
 20
395.943414
 30
0.0
 11
859.758914
 21
394.943414
 31
0.0
  0
LINE
  5
4BB
102
{ACAD_REACTORS
330
C9
330
C8
102
}
100
AcDbEntity
  8
M05
100
AcDbLine
 10
859.758914
 20
376.943414
 30
0.0
 11
859.758914
 21
394.943414
 31
0.0
  0
LINE
  5
4BC
102
{ACAD_REACTORS
330
C8
102
}
100
AcDbEntity
  8
M05
100
AcDbLine
 10
860.758914
 20
395.943414
 30
0.0
 11
869.758914
 21
395.943414
 31
0.0
  0
LINE
  5
4BD
102
{ACAD_REACTORS
330
C9
102
}
100
AcDbEntity
  8
M05
100
AcDbLine
 10
860.758914
 20
375.943414
 30
0.0
 11
869.758914
 21
375.943414
 31
0.0
  0
LINE
  5
4BE
100
AcDbEntity
  8
M04
100
AcDbLine
 10
802.758914
 20
376.443414
 30
0.0
 11
802.758914
 21
192.943414
 31
0.0
  0
LINE
  5
4BF
102
{ACAD_REACTORS
330
10A
102
}
100
AcDbEntity
  8
M02
100
AcDbLine
 10
806.758914
 20
376.443414
 30
0.0
 11
806.758914
 21
201.943414
 31
0.0
  0
LINE
  5
4C0
102
{ACAD_REACTORS
330
10A
330
C9
102
}
100
AcDbEntity
  8
M01
100
AcDbLine
 10
809.758914
 20
376.443414
 30
0.0
 11
809.758914
 21
201.943414
 31
0.0
  0
DIMENSION
  5
4C1
100
AcDbEntity
  8
DIMS
100
AcDbDimension
  2
*D8
 10
797.758914
 20
419.231436
 30
0.0
 11
787.116057
 21
422.231436
 31
0.0
 12
21.678451
 22
-87.304292
 32
0.0
  1
5.0
  3
DIM1
100
AcDbAlignedDimension
 13
802.758914
 23
396.943414
 33
0.0
 14
797.758914
 24
395.943414
 34
0.0
 50
180.0
100
AcDbRotatedDimension
1001
ACAD
1000
DSTYLE
1002
{
1070
   144
1040
1.0
1002
}
  0
DIMENSION
  5
4CF
100
AcDbEntity
  8
DIMS
100
AcDbDimension
  2
*D7
 10
765.231686
 20
396.943414
 30
0.0
 11
762.231686
 21
385.943414
 31
0.0
 12
21.678451
 22
-87.304292
 32
0.0
  3
DIM1
100
AcDbAlignedDimension
 13
798.336265
 23
374.943414
 33
0.0
 14
798.336265
 24
396.943414
 34
0.0
 50
90.0
100
AcDbRotatedDimension
1001
ACAD
1000
DSTYLE
1002
{
1070
   144
1040
1.0
1002
}
  0
DIMENSION
  5
4DC
100
AcDbEntity
  8
DIMS
100
AcDbDimension
  2
*D6
 10
775.109099
 20
395.943414
 30
0.0
 11
772.109099
 21
415.1577
 31
0.0
 12
21.678451
 22
-87.304292
 32
0.0
  1
%%c<> H7
  3
DIM1
100
AcDbAlignedDimension
 13
792.758914
 23
375.943414
 33
0.0
 14
792.758914
 24
395.943414
 34
0.0
 50
90.0
100
AcDbRotatedDimension
1001
ACAD
1000
DSTYLE
1002
{
1070
   144
1040
1.0
1002
}
  0
DIMENSION
  5
4EA
100
AcDbEntity
  8
DIMS
100
AcDbDimension
  2
*D5
 10
792.758914
 20
359.656397
 30
0.0
 11
779.544629
 21
359.656397
 31
0.0
 12
21.678451
 22
-87.304292
 32
0.0
 70
   128
  3
DIM1
100
AcDbAlignedDimension
 13
809.758914
 23
376.443414
 33
0.0
 14
792.758914
 24
375.943414
 34
0.0
 50
180.0
100
AcDbRotatedDimension
1001
ACAD
1000
DSTYLE
1002
{
1070
   144
1040
1.0
1002
}
  0
TEXT
  5
4F8
100
AcDbEntity
  8
TEXT
100
AcDbText
 10
799.123138
 20
388.666028
 30
0.0
 40
2.0
  1
MA010008
 41
0.9
100
AcDbText
  0
LINE
  5
4F9
100
AcDbEntity
  8
M04
100
AcDbLine
 10
798.336265
 20
396.943414
 30
0.0
 11
798.336265
 21
395.443414
 31
0.0
  0
LINE
  5
4FA
100
AcDbEntity
  8
M04
100
AcDbLine
 10
798.336265
 20
396.943414
 30
0.0
 11
802.758914
 21
396.943414
 31
0.0
  0
LINE
  5
4FB
100
AcDbEntity
  8
M04
100
AcDbLine
 10
797.758914
 20
395.943414
 30
0.0
 11
798.336265
 21
396.943414
 31
0.0
  0
LINE
  5
4FC
100
AcDbEntity
  8
M04
100
AcDbLine
 10
793.758914
 20
395.943414
 30
0.0
 11
792.758914
 21
395.943414
 31
0.0
  0
LINE
  5
4FD
100
AcDbEntity
  8
M04
100
AcDbLine
 10
792.758914
 20
394.943414
 30
0.0
 11
792.758914
 21
395.943414
 31
0.0
  0
LINE
  5
4FE
102
{ACAD_REACTORS
330
C8
102
}
100
AcDbEntity
  8
M04
100
AcDbLine
 10
814.758914
 20
394.443414
 30
0.0
 11
814.758914
 21
395.443414
 31
0.0
  0
LINE
  5
4FF
102
{ACAD_REACTORS
330
C8
102
}
100
AcDbEntity
  8
M04
100
AcDbLine
 10
813.758914
 20
395.443414
 30
0.0
 11
814.758914
 21
395.443414
 31
0.0
  0
LINE
  5
500
100
AcDbEntity
  8
M04
100
AcDbLine
 10
798.336265
 20
374.943414
 30
0.0
 11
798.336265
 21
376.443414
 31
0.0
  0
LINE
  5
501
100
AcDbEntity
  8
M04
100
AcDbLine
 10
798.336265
 20
374.943414
 30
0.0
 11
802.758914
 21
374.943414
 31
0.0
  0
LINE
  5
502
100
AcDbEntity
  8
M04
100
AcDbLine
 10
797.758914
 20
375.943414
 30
0.0
 11
798.336265
 21
374.943414
 31
0.0
  0
LINE
  5
503
100
AcDbEntity
  8
M04
100
AcDbLine
 10
793.758914
 20
375.943414
 30
0.0
 11
792.758914
 21
375.943414
 31
0.0
  0
LINE
  5
504
100
AcDbEntity
  8
M04
100
AcDbLine
 10
792.758914
 20
376.943414
 30
0.0
 11
792.758914
 21
375.943414
 31
0.0
  0
LINE
  5
505
102
{ACAD_REACTORS
330
C9
102
}
100
AcDbEntity
  8
M04
100
AcDbLine
 10
814.758914
 20
377.443414
 30
0.0
 11
814.758914
 21
376.443414
 31
0.0
  0
LINE
  5
506
102
{ACAD_REACTORS
330
C9
102
}
100
AcDbEntity
  8
M04
100
AcDbLine
 10
813.758914
 20
376.443414
 30
0.0
 11
814.758914
 21
376.443414
 31
0.0
  0
LINE
  5
507
102
{ACAD_REACTORS
330
12B
102
}
100
AcDbEntity
  8
M02
100
AcDbLine
 10
806.758914
 20
396.943414
 30
0.0
 11
809.758914
 21
396.943414
 31
0.0
  0
LINE
  5
508
102
{ACAD_REACTORS
330
10A
102
}
100
AcDbEntity
  8
M02
100
AcDbLine
 10
806.758914
 20
374.943414
 30
0.0
 11
809.758914
 21
374.943414
 31
0.0
  0
LINE
  5
509
100
AcDbEntity
  8
M05
100
AcDbLine
 10
813.758914
 20
395.443414
 30
0.0
 11
813.758914
 21
376.443414
 31
0.0
  0
LINE
  5
50A
100
AcDbEntity
  8
M05
100
AcDbLine
 10
793.758914
 20
395.943414
 30
0.0
 11
793.758914
 21
375.943414
 31
0.0
  0
LINE
  5
50B
100
AcDbEntity
  8
M05
100
AcDbLine
 10
814.758914
 20
394.443414
 30
0.0
 11
813.758914
 21
395.443414
 31
0.0
  0
LINE
  5
50C
100
AcDbEntity
  8
M05
100
AcDbLine
 10
813.758914
 20
376.443414
 30
0.0
 11
814.758914
 21
377.443414
 31
0.0
  0
LINE
  5
50D
100
AcDbEntity
  8
M05
100
AcDbLine
 10
792.758914
 20
376.943414
 30
0.0
 11
793.758914
 21
375.943414
 31
0.0
  0
LINE
  5
50E
100
AcDbEntity
  8
M05
100
AcDbLine
 10
793.758914
 20
395.943414
 30
0.0
 11
792.758914
 21
394.943414
 31
0.0
  0
LINE
  5
50F
100
AcDbEntity
  8
M05
100
AcDbLine
 10
793.758914
 20
375.943414
 30
0.0
 11
797.758914
 21
375.943414
 31
0.0
  0
LINE
  5
510
100
AcDbEntity
  8
M05
100
AcDbLine
 10
793.758914
 20
395.943414
 30
0.0
 11
797.758914
 21
395.943414
 31
0.0
  0
LINE
  5
511
100
AcDbEntity
  8
M05
100
AcDbLine
 10
797.758914
 20
375.943414
 30
0.0
 11
797.758914
 21
395.943414
 31
0.0
  0
LINE
  5
512
100
AcDbEntity
  8
M05
100
AcDbLine
 10
792.758914
 20
376.943414
 30
0.0
 11
792.758914
 21
394.943414
 31
0.0
  0
LINE
  5
513
102
{ACAD_REACTORS
330
C8
102
}
100
AcDbEntity
  8
M05
100
AcDbLine
 10
797.758914
 20
395.443414
 30
0.0
 11
813.758914
 21
395.443414
 31
0.0
  0
LINE
  5
514
102
{ACAD_REACTORS
330
C9
102
}
100
AcDbEntity
  8
M05
100
AcDbLine
 10
797.758914
 20
376.443414
 30
0.0
 11
813.758914
 21
376.443414
 31
0.0
  0
LINE
  5
515
102
{ACAD_REACTORS
330
C9
330
C8
102
}
100
AcDbEntity
  8
M05
100
AcDbLine
 10
814.758914
 20
377.443414
 30
0.0
 11
814.758914
 21
394.443414
 31
0.0
  0
HATCH
  5
516
100
AcDbEntity
  8
HATCH
100
AcDbHatch
 10
0.0
 20
0.0
 30
0.0
210
0.0
220
0.0
230
1.0
  2
_U
 70
     0
 71
     0
 91
        2
 92
        7
 72
     0
 73
     1
 93
       11
 10
869.7589143034768
 20
243.8022960494266
 10
869.7589143034768
 20
249.2434140619692
 10
870.4589143034768
 20
249.9434140619694
 10
876.0589143034771
 20
249.9434140619694
 10
876.7589143034768
 20
249.2434140619694
 10
876.7589143034768
 20
246.4434140619692
 10
875.758914303477
 20
245.4434140619694
 10
875.7589143034769
 20
243.4434140619696
 10
876.7589143034768
 20
242.4434140619701
 10
876.7589143034768
 20
239.4434140619694
 10
874.117796290934
 20
239.4434140619694
 97
        0
 92
        7
 72
     0
 73
     1
 93
       11
 10
870.4589143034768
 20
221.9434140619694
 10
869.758914303477
 20
222.6434140619695
 10
869.758914303477
 20
228.0845320745125
 10
874.117796290934
 20
232.4434140619694
 10
876.7589143034768
 20
232.4434140619694
 10
876.7589143034768
 20
229.4434140619687
 10
875.7589143034769
 20
228.443414061969
 10
875.758914303477
 20
226.4434140619694
 10
876.758914303477
 20
225.4434140619697
 10
876.7589143034768
 20
222.6434140619695
 10
876.0589143034771
 20
221.9434140619696
 97
        0
 75
     0
 76
     0
 52
225.0
 41
1.5
 77
     0
 78
     1
 53
135.0
 43
1117.245389
 44
846.390655
 45
1.060660171779821
 46
1.060660171779821
 79
     0
 47
0.151518
 98
        2
 10
873.074877
 20
245.467484
 10
872.468806
 20
226.823073
  0
LINE
  5
517
100
AcDbEntity
  8
M05
100
AcDbLine
 10
875.758914
 20
245.443414
 30
0.0
 11
876.758914
 21
246.443414
 31
0.0
  0
LINE
  5
518
100
AcDbEntity
  8
M05
100
AcDbLine
 10
875.758914
 20
243.443414
 30
0.0
 11
876.758914
 21
242.443414
 31
0.0
  0
LINE
  5
519
100
AcDbEntity
  8
M05
100
AcDbLine
 10
875.758914
 20
245.443414
 30
0.0
 11
875.758914
 21
243.443414
 31
0.0
  0
LINE
  5
51A
100
AcDbEntity
  8
M05
100
AcDbLine
 10
875.758914
 20
226.443414
 30
0.0
 11
876.758914
 21
225.443414
 31
0.0
  0
LINE
  5
51B
100
AcDbEntity
  8
M05
100
AcDbLine
 10
875.758914
 20
228.443414
 30
0.0
 11
876.758914
 21
229.443414
 31
0.0
  0
LINE
  5
51C
100
AcDbEntity
  8
M05
100
AcDbLine
 10
875.758914
 20
226.443414
 30
0.0
 11
875.758914
 21
228.443414
 31
0.0
  0
MTEXT
  5
51D
100
AcDbEntity
  8
HATCH
 62
     2
100
AcDbMText
 10
893.464114
 20
219.145569
 30
0.0
 40
3.0
 41
0.0
 71
     1
 72
     5
  1
MA010006 (x12)
  0
LINE
  5
51E
100
AcDbEntity
  8
M04
100
AcDbLine
 10
894.58682
 20
235.943414
 30
0.0
 11
893.258914
 21
233.643414
 31
0.0
  0
LINE
  5
51F
100
AcDbEntity
  8
M04
100
AcDbLine
 10
893.258914
 20
238.243414
 30
0.0
 11
894.58682
 21
235.943414
 31
0.0
  0
LINE
  5
520
100
AcDbEntity
  8
M04
100
AcDbLine
 10
893.258914
 20
238.243414
 30
0.0
 11
893.258914
 21
233.643414
 31
0.0
  0
LINE
  5
521
100
AcDbEntity
  8
M04
100
AcDbLine
 10
888.197796
 20
238.943414
 30
0.0
 11
891.758914
 21
238.943414
 31
0.0
  0
LINE
  5
522
100
AcDbEntity
  8
M04
100
AcDbLine
 10
888.897796
 20
238.243414
 30
0.0
 11
893.258914
 21
238.243414
 31
0.0
  0
LINE
  5
523
100
AcDbEntity
  8
M04
100
AcDbLine
 10
888.197796
 20
232.943414
 30
0.0
 11
891.758914
 21
232.943414
 31
0.0
  0
LINE
  5
524
100
AcDbEntity
  8
M04
100
AcDbLine
 10
888.897796
 20
233.643414
 30
0.0
 11
893.258914
 21
233.643414
 31
0.0
  0
LINE
  5
525
100
AcDbEntity
  8
M05
100
AcDbLine
 10
888.897796
 20
233.643414
 30
0.0
 11
888.197796
 21
232.943414
 31
0.0
  0
LINE
  5
526
100
AcDbEntity
  8
M05
100
AcDbLine
 10
888.197796
 20
238.943414
 30
0.0
 11
888.897796
 21
238.243414
 31
0.0
  0
LINE
  5
527
100
AcDbEntity
  8
M05
100
AcDbLine
 10
876.117796
 20
233.643414
 30
0.0
 11
888.897796
 21
233.643414
 31
0.0
  0
LINE
  5
528
100
AcDbEntity
  8
M05
100
AcDbLine
 10
876.117796
 20
238.243414
 30
0.0
 11
888.897796
 21
238.243414
 31
0.0
  0
LINE
  5
529
100
AcDbEntity
  8
M05
100
AcDbLine
 10
888.197796
 20
238.943414
 30
0.0
 11
888.197796
 21
232.943414
 31
0.0
  0
LINE
  5
52A
100
AcDbEntity
  8
M04
100
AcDbLine
 10
891.758914
 20
238.943414
 30
0.0
 11
891.758914
 21
232.943414
 31
0.0
  0
LINE
  5
52B
100
AcDbEntity
  8
M05
100
AcDbLine
 10
888.897796
 20
238.243414
 30
0.0
 11
888.897796
 21
233.643414
 31
0.0
  0
LINE
  5
52C
102
{ACAD_REACTORS
330
C9
102
}
100
AcDbEntity
  8
M05
  6
HIDDEN
100
AcDbLine
 10
869.458914
 20
244.102296
 30
0.0
 11
868.758914
 21
244.802296
 31
0.0
  0
LINE
  5
52D
102
{ACAD_REACTORS
330
C9
102
}
100
AcDbEntity
  8
M05
  6
HIDDEN
100
AcDbLine
 10
869.458914
 20
227.784532
 30
0.0
 11
868.758914
 21
227.084532
 31
0.0
  0
LINE
  5
52E
100
AcDbEntity
  8
M05
100
AcDbLine
 10
876.117796
 20
238.943414
 30
0.0
 11
876.117796
 21
232.943414
 31
0.0
  0
LINE
  5
52F
100
AcDbEntity
  8
M05
100
AcDbLine
 10
871.617796
 20
235.393414
 30
0.0
 11
871.617796
 21
229.943414
 31
0.0
  0
LINE
  5
530
100
AcDbEntity
  8
M05
100
AcDbLine
 10
870.897796
 20
235.393414
 30
0.0
 11
870.897796
 21
229.943414
 31
0.0
  0
LINE
  5
531
100
AcDbEntity
  8
M05
100
AcDbLine
 10
870.897796
 20
235.393414
 30
0.0
 11
872.397796
 21
235.393414
 31
0.0
  0
LINE
  5
532
100
AcDbEntity
  8
M05
100
AcDbLine
 10
870.897796
 20
236.493414
 30
0.0
 11
872.397796
 21
236.493414
 31
0.0
  0
LINE
  5
533
100
AcDbEntity
  8
M05
100
AcDbLine
 10
872.397796
 20
236.493414
 30
0.0
 11
872.397796
 21
235.393414
 31
0.0
  0
LINE
  5
534
100
AcDbEntity
  8
M05
100
AcDbLine
 10
874.117796
 20
232.443414
 30
0.0
 11
876.758914
 21
232.443414
 31
0.0
  0
LINE
  5
535
100
AcDbEntity
  8
M05
100
AcDbLine
 10
874.117796
 20
239.443414
 30
0.0
 11
876.758914
 21
239.443414
 31
0.0
  0
LINE
  5
536
100
AcDbEntity
  8
M05
100
AcDbLine
 10
871.617796
 20
241.943414
 30
0.0
 11
871.617796
 21
236.493414
 31
0.0
  0
LINE
  5
537
102
{ACAD_REACTORS
330
C9
102
}
100
AcDbEntity
  8
M05
100
AcDbLine
 10
874.617796
 20
238.943414
 30
0.0
 11
869.458914
 21
244.102296
 31
0.0
  0
LINE
  5
538
100
AcDbEntity
  8
M05
100
AcDbLine
 10
870.897796
 20
241.943414
 30
0.0
 11
871.617796
 21
241.943414
 31
0.0
  0
LINE
  5
539
102
{ACAD_REACTORS
330
C9
102
}
100
AcDbEntity
  8
M05
100
AcDbLine
 10
874.617796
 20
232.943414
 30
0.0
 11
869.458914
 21
227.784532
 31
0.0
  0
LINE
  5
53A
100
AcDbEntity
  8
M05
100
AcDbLine
 10
874.617796
 20
238.943414
 30
0.0
 11
874.617796
 21
232.943414
 31
0.0
  0
LINE
  5
53B
100
AcDbEntity
  8
M05
100
AcDbLine
 10
874.617796
 20
238.943414
 30
0.0
 11
888.197796
 21
238.943414
 31
0.0
  0
LINE
  5
53C
100
AcDbEntity
  8
M05
100
AcDbLine
 10
874.617796
 20
232.943414
 30
0.0
 11
888.197796
 21
232.943414
 31
0.0
  0
LINE
  5
53D
100
AcDbEntity
  8
M05
100
AcDbLine
 10
870.897796
 20
229.943414
 30
0.0
 11
871.617796
 21
229.943414
 31
0.0
  0
LINE
  5
53E
100
AcDbEntity
  8
M05
100
AcDbLine
 10
870.897796
 20
241.943414
 30
0.0
 11
870.897796
 21
236.493414
 31
0.0
  0
LINE
  5
53F
102
{ACAD_REACTORS
330
C9
102
}
100
AcDbEntity
  8
M05
  6
HIDDEN
100
AcDbLine
 10
869.458914
 20
249.943414
 30
0.0
 11
869.458914
 21
221.943414
 31
0.0
  0
LINE
  5
540
102
{ACAD_REACTORS
330
C9
102
}
100
AcDbEntity
  8
M05
  6
HIDDEN
100
AcDbLine
 10
869.458914
 20
221.943414
 30
0.0
 11
868.758914
 21
222.643414
 31
0.0
  0
LINE
  5
541
102
{ACAD_REACTORS
330
C9
102
}
100
AcDbEntity
  8
M05
  6
HIDDEN
100
AcDbLine
 10
870.458914
 20
221.943414
 30
0.0
 11
869.458914
 21
221.943414
 31
0.0
  0
LINE
  5
542
100
AcDbEntity
  8
M05
100
AcDbLine
 10
870.458914
 20
221.943414
 30
0.0
 11
869.758914
 21
222.643414
 31
0.0
  0
LINE
  5
543
100
AcDbEntity
  8
M05
100
AcDbLine
 10
876.058914
 20
221.943414
 30
0.0
 11
876.758914
 21
222.643414
 31
0.0
  0
LINE
  5
544
100
AcDbEntity
  8
M05
100
AcDbLine
 10
870.458914
 20
221.943414
 30
0.0
 11
876.058914
 21
221.943414
 31
0.0
  0
LINE
  5
545
102
{ACAD_REACTORS
330
C9
102
}
100
AcDbEntity
  8
M05
  6
HIDDEN
100
AcDbLine
 10
869.458914
 20
249.943414
 30
0.0
 11
868.758914
 21
249.243414
 31
0.0
  0
LINE
  5
546
102
{ACAD_REACTORS
330
C9
102
}
100
AcDbEntity
  8
M05
  6
HIDDEN
100
AcDbLine
 10
870.458914
 20
249.943414
 30
0.0
 11
869.458914
 21
249.943414
 31
0.0
  0
LINE
  5
547
100
AcDbEntity
  8
M05
100
AcDbLine
 10
870.458914
 20
249.943414
 30
0.0
 11
869.758914
 21
249.243414
 31
0.0
  0
LINE
  5
548
100
AcDbEntity
  8
M05
100
AcDbLine
 10
876.058914
 20
249.943414
 30
0.0
 11
876.758914
 21
249.243414
 31
0.0
  0
LINE
  5
549
102
{ACAD_REACTORS
330
CA
102
}
100
AcDbEntity
  8
M02
100
AcDbLine
 10
869.758914
 20
220.943414
 30
0.0
 11
872.758914
 21
220.943414
 31
0.0
  0
LINE
  5
54A
102
{ACAD_REACTORS
330
CA
102
}
100
AcDbEntity
  8
M02
100
AcDbLine
 10
869.758914
 20
250.943414
 30
0.0
 11
872.758914
 21
250.943414
 31
0.0
  0
LINE
  5
54B
102
{ACAD_REACTORS
330
C9
102
}
100
AcDbEntity
  8
M05
  6
HIDDEN
100
AcDbLine
 10
868.758914
 20
249.243414
 30
0.0
 11
868.758914
 21
222.643414
 31
0.0
  0
LINE
  5
54C
100
AcDbEntity
  8
M05
100
AcDbLine
 10
870.458914
 20
249.943414
 30
0.0
 11
876.058914
 21
249.943414
 31
0.0
  0
LINE
  5
54D
102
{ACAD_REACTORS
330
C9
102
}
100
AcDbEntity
  8
CENTRE
100
AcDbLine
 10
864.249804
 20
235.943414
 30
0.0
 11
897.328142
 21
235.943414
 31
0.0
  0
LINE
  5
54E
100
AcDbEntity
  8
DIMS
 62
     4
100
AcDbLine
 10
528.644627
 20
235.943414
 30
0.0
 11
515.344627
 21
235.943414
 31
0.0
  0
LINE
  5
54F
100
AcDbEntity
  8
DIMS
 62
     4
100
AcDbLine
 10
535.444627
 20
235.943414
 30
0.0
 11
548.744627
 21
235.943414
 31
0.0
  0
LINE
  5
550
100
AcDbEntity
  8
DIMS
 62
     4
100
AcDbLine
 10
533.744627
 20
235.943414
 30
0.0
 11
530.344627
 21
235.943414
 31
0.0
  0
CIRCLE
  5
551
100
AcDbEntity
  8
M03
100
AcDbCircle
 10
532.044627
 20
235.943414
 30
0.0
 40
2.3
  0
ARC
  5
552
100
AcDbEntity
  8
M03
100
AcDbCircle
 10
532.044627
 20
235.943414
 30
0.0
 40
3.0
100
AcDbArc
 50
257.784636
 51
186.923103
  0
LINE
  5
553
100
AcDbEntity
  8
M03
100
AcDbLine
 10
538.019365
 20
236.493414
 30
0.0
 11
526.069888
 21
236.493414
 31
0.0
  0
LINE
  5
554
100
AcDbEntity
  8
M03
100
AcDbLine
 10
538.019365
 20
235.393414
 30
0.0
 11
526.069888
 21
235.393414
 31
0.0
  0
CIRCLE
  5
555
100
AcDbEntity
  8
M03
100
AcDbCircle
 10
532.044627
 20
235.943414
 30
0.0
 40
15.0
  0
CIRCLE
  5
556
100
AcDbEntity
  8
M03
100
AcDbCircle
 10
532.044627
 20
235.943414
 30
0.0
 40
14.0
  0
CIRCLE
  5
557
100
AcDbEntity
  8
M03
100
AcDbCircle
 10
532.044627
 20
235.943414
 30
0.0
 40
7.858882
  0
CIRCLE
  5
558
100
AcDbEntity
  8
M03
100
AcDbCircle
 10
532.044627
 20
235.943414
 30
0.0
 40
6.0
  0
LINE
  5
559
100
AcDbEntity
  8
DIMS
 62
     4
100
AcDbLine
 10
506.044627
 20
382.543414
 30
0.0
 11
506.044627
 21
378.743414
 31
0.0
  0
LINE
  5
55A
100
AcDbEntity
  8
DIMS
 62
     4
100
AcDbLine
 10
506.044627
 20
389.343414
 30
0.0
 11
506.044627
 21
393.143414
 31
0.0
  0
LINE
  5
55B
100
AcDbEntity
  8
DIMS
 62
     4
100
AcDbLine
 10
506.044627
 20
387.643414
 30
0.0
 11
506.044627
 21
384.243414
 31
0.0
  0
CIRCLE
  5
55C
100
AcDbEntity
  8
M03
100
AcDbCircle
 10
506.044627
 20
385.943414
 30
0.0
 40
2.3
  0
ARC
  5
55D
100
AcDbEntity
  8
M03
100
AcDbCircle
 10
506.044627
 20
385.943414
 30
0.0
 40
3.0
100
AcDbArc
 50
77.784636
 51
6.923103
  0
CIRCLE
  5
55E
100
AcDbEntity
  8
M03
100
AcDbCircle
 10
506.044627
 20
385.943414
 30
0.0
 40
5.5
  0
CIRCLE
  5
55F
100
AcDbEntity
  8
M03
100
AcDbCircle
 10
532.044627
 20
385.943414
 30
0.0
 40
34.0
  0
LINE
  5
560
100
AcDbEntity
  8
DIMS
 62
     4
100
AcDbLine
 10
535.444627
 20
411.943414
 30
0.0
 11
539.244627
 21
411.943414
 31
0.0
  0
LINE
  5
561
100
AcDbEntity
  8
DIMS
 62
     4
100
AcDbLine
 10
528.644627
 20
411.943414
 30
0.0
 11
524.844627
 21
411.943414
 31
0.0
  0
LINE
  5
562
100
AcDbEntity
  8
DIMS
 62
     4
100
AcDbLine
 10
530.344627
 20
411.943414
 30
0.0
 11
533.744627
 21
411.943414
 31
0.0
  0
LINE
  5
563
100
AcDbEntity
  8
DIMS
 62
     4
100
AcDbLine
 10
535.444627
 20
359.943414
 30
0.0
 11
539.244627
 21
359.943414
 31
0.0
  0
LINE
  5
564
100
AcDbEntity
  8
DIMS
 62
     4
100
AcDbLine
 10
528.644627
 20
359.943414
 30
0.0
 11
524.844627
 21
359.943414
 31
0.0
  0
LINE
  5
565
100
AcDbEntity
  8
DIMS
 62
     4
100
AcDbLine
 10
530.344627
 20
359.943414
 30
0.0
 11
533.744627
 21
359.943414
 31
0.0
  0
LINE
  5
566
100
AcDbEntity
  8
DIMS
 62
     4
100
AcDbLine
 10
558.044627
 20
382.543414
 30
0.0
 11
558.044627
 21
378.743414
 31
0.0
  0
LINE
  5
567
100
AcDbEntity
  8
DIMS
 62
     4
100
AcDbLine
 10
558.044627
 20
389.343414
 30
0.0
 11
558.044627
 21
393.143414
 31
0.0
  0
LINE
  5
568
100
AcDbEntity
  8
DIMS
 62
     4
100
AcDbLine
 10
558.044627
 20
387.643414
 30
0.0
 11
558.044627
 21
384.243414
 31
0.0
  0
CIRCLE
  5
569
100
AcDbEntity
  8
M03
100
AcDbCircle
 10
532.044627
 20
359.943414
 30
0.0
 40
2.3
  0
ARC
  5
56A
100
AcDbEntity
  8
M03
100
AcDbCircle
 10
532.044627
 20
359.943414
 30
0.0
 40
3.0
100
AcDbArc
 50
77.784636
 51
6.923103
  0
CIRCLE
  5
56B
100
AcDbEntity
  8
M03
100
AcDbCircle
 10
532.044627
 20
359.943414
 30
0.0
 40
5.5
  0
CIRCLE
  5
56C
100
AcDbEntity
  8
M03
100
AcDbCircle
 10
532.044627
 20
411.943414
 30
0.0
 40
2.3
  0
ARC
  5
56D
100
AcDbEntity
  8
M03
100
AcDbCircle
 10
532.044627
 20
411.943414
 30
0.0
 40
3.0
100
AcDbArc
 50
77.784636
 51
6.923103
  0
CIRCLE
  5
56E
100
AcDbEntity
  8
M03
100
AcDbCircle
 10
532.044627
 20
411.943414
 30
0.0
 40
5.5
  0
CIRCLE
  5
56F
100
AcDbEntity
  8
M03
100
AcDbCircle
 10
558.044627
 20
385.943414
 30
0.0
 40
2.3
  0
ARC
  5
570
100
AcDbEntity
  8
M03
100
AcDbCircle
 10
558.044627
 20
385.943414
 30
0.0
 40
3.0
100
AcDbArc
 50
77.784636
 51
6.923103
  0
CIRCLE
  5
571
100
AcDbEntity
  8
M03
100
AcDbCircle
 10
558.044627
 20
385.943414
 30
0.0
 40
5.5
  0
CIRCLE
  5
572
100
AcDbEntity
  8
M03
100
AcDbCircle
 10
532.044627
 20
385.943414
 30
0.0
 40
20.0
  0
HATCH
  5
573
100
AcDbEntity
  8
M01
 62
     4
100
AcDbHatch
 10
0.0
 20
0.0
 30
0.0
210
0.0
220
0.0
230
1.0
  2
_U
 70
     0
 71
     0
 91
       13
 92
        7
 72
     1
 73
     1
 93
        4
 10
526.0446265495065
 20
393.3088739932975
 42
0.0
 10
526.0446265495065
 20
389.9434140619693
 42
0.0
 10
532.0446265495065
 20
389.9434140619693
 42
0.0
 10
532.0446265495065
 20
395.4434140619693
 42
0.1725804109198133
 97
        0
 92
        7
 72
     1
 73
     1
 93
        4
 10
532.0446265495065
 20
389.9434140619693
 42
0.0
 10
526.0446265495065
 20
389.9434140619693
 42
0.0
 10
526.0446265495065
 20
385.9434140619693
 42
0.0
 10
528.0446265495065
 20
385.9434140619693
 42
-0.4142135623730992
 97
        0
 92
       22
 72
     1
 73
     1
 93
        3
 10
532.0446265495065
 20
389.9434140619693
 42
0.4142135623730909
 10
528.0446265495065
 20
385.9434140619693
 42
0.0
 10
532.0446265495065
 20
385.9434140619693
 42
0.0
 97
        0
 92
        7
 72
     1
 73
     1
 93
        4
 10
526.0446265495065
 20
389.9434140619693
 42
0.0
 10
523.4277825796996
 20
389.9434140619693
 42
0.1090809576248918
 10
522.5446265495065
 20
385.9434140619693
 42
0.0
 10
526.0446265495065
 20
385.9434140619693
 42
0.0
 97
        0
 92
       22
 72
     1
 73
     1
 93
        3
 10
526.0446265495065
 20
393.3088739932973
 42
0.1136360637262233
 10
523.4277825796996
 20
389.9434140619693
 42
0.0
 10
526.0446265495063
 20
389.9434140619693
 42
0.0
 97
        0
 92
        7
 72
     1
 73
     1
 93
        4
 10
522.0446265495065
 20
385.9434140619693
 42
0.0
 10
522.5446265495065
 20
385.9434140619693
 42
-0.1090809576248918
 10
523.4277825796996
 20
389.9434140619693
 42
0.0
 10
522.8794751595948
 20
389.9434140619693
 42
0.1032437171755979
 97
        0
 92
        7
 72
     1
 73
     1
 93
        4
 10
522.8794751595948
 20
389.9434140619693
 42
0.0
 10
523.4277825796996
 20
389.9434140619693
 42
-0.1136360637262264
 10
526.0446265495065
 20
393.3088739932975
 42
0.0
 10
526.0446265495065
 20
393.9434140619693
 42
0.1296640194076911
 97
        0
 92
        7
 72
     1
 73
     1
 93
        4
 10
532.0446265495065
 20
395.4434140619693
 42
0.0
 10
532.0446265495065
 20
395.9434140619693
 42
0.1622776601683798
 10
526.0446265495065
 20
393.9434140619693
 42
0.0
 10
526.0446265495065
 20
393.3088739932975
 42
-0.1725804109198127
 97
        0
 92
       23
 72
     1
 73
     1
 93
        3
 10
532.0446265495065
 20
385.9434140619693
 42
0.0
 10
532.0446265495065
 20
381.9434140619693
 42
0.4142135623730909
 10
536.0446265495065
 20
385.9434140619693
 42
0.0
 97
        0
 92
        7
 72
     1
 73
     1
 93
        4
 10
536.0446265495065
 20
385.9434140619693
 42
-0.4142135623730909
 10
532.0446265495065
 20
381.9434140619693
 42
0.0
 10
540.6614705193137
 20
381.9434140619693
 42
0.1090809576248888
 10
541.5446265495066
 20
385.9434140619693
 42
0.0
 97
        0
 92
       23
 72
     1
 73
     1
 93
        3
 10
532.0446265495065
 20
381.9434140619693
 42
0.0
 10
532.0446265495065
 20
376.4434140619693
 42
0.2919418509678903
 10
540.6614705193137
 20
381.9434140619693
 42
0.0
 97
        0
 92
        7
 72
     1
 73
     1
 93
        4
 10
541.2097779394182
 20
381.9434140619693
 42
0.0
 10
540.6614705193137
 20
381.9434140619693
 42
-0.2919418509678903
 10
532.0446265495065
 20
376.4434140619693
 42
0.0
 10
532.0446265495065
 20
375.9434140619693
 42
0.2982166266986068
 97
        0
 92
        7
 72
     1
 73
     1
 93
        4
 10
542.0446265495066
 20
385.9434140619693
 42
0.0
 10
541.5446265495066
 20
385.9434140619693
 42
-0.1090809576248888
 10
540.6614705193137
 20
381.9434140619693
 42
0.0
 10
541.2097779394182
 20
381.9434140619693
 42
0.1032437171755951
 97
        0
 75
     0
 76
     0
 52
45.0
 41
1.0
 77
     1
 78
     2
 53
45.0
 43
-23.402614
 44
-46.615812
 45
-0.7071067811865474
 46
0.7071067811865478
 79
     0
 53
135.0
 43
-23.402614
 44
-46.615812
 45
-0.7071067811865478
 46
-0.7071067811865474
 79
     0
 47
0.087843
 98
       13
 10
529.375596
 20
392.75895
 10
527.793771
 20
388.366804
 10
530.781663
 20
387.839746
 10
524.893758
 20
387.839746
 10
525.333154
 20
390.826405
 10
522.6089
 20
388.542489
 10
525.508913
 20
393.198165
 10
528.145288
 20
394.86718
 10
533.769556
 20
384.765243
 10
537.899877
 20
383.974657
 10
535.615019
 20
380.373097
 10
534.560469
 20
376.420165
 10
541.678683
 20
384.0625
  0
CIRCLE
  5
574
100
AcDbEntity
  8
M01
100
AcDbCircle
 10
532.044627
 20
385.943414
 30
0.0
 40
10.0
  0
CIRCLE
  5
575
100
AcDbEntity
  8
M03
100
AcDbCircle
 10
532.044627
 20
385.943414
 30
0.0
 40
9.5
  0
WIPEOUT
  5
576
100
AcDbEntity
  8
TEXT
 92
      140
310
8C00000001000000840000000600000005000000600B59F334128A40CC8E1691D1126A4000000000000000006EF5F9011F8B8A40CC8E1691D1126A4000000000000000006FF5F9011F8B8A40C88E1691D1926A400000000000000000610B59F334128A40CC8E1691D1926A400000000000000000600B59F334128A40CC8E16
310
91D1126A400000000000000000
100
AcDbWipeout
 90
        0
 10
824.482321
 20
187.680262
 30
0.0
 11
24.907819
 21
0.0
 31
0.0
 12
0.0
 22
24.907819
 32
0.0
 13
0.0
 23
0.0
340
0
 70
     7
280
     1
281
    50
282
    50
283
     0
360
0
 71
     2
 91
        5
 14
-0.106809
 24
-0.339408
 14
0.5
 24
-0.339408
 14
0.5
 24
-0.5
 14
-0.106809
 24
-0.5
 14
-0.106809
 24
-0.339408
  0
TEXT
  5
577
102
{ACAD_REACTORS
330
C9
102
}
100
AcDbEntity
  8
TEXT
100
AcDbText
 10
835.275855
 20
209.588082
 30
0.0
 40
2.0
  1
MM010141
 41
0.9
100
AcDbText
  0
CIRCLE
  5
578
100
AcDbEntity
  8
M03
100
AcDbCircle
 10
532.044627
 20
385.943414
 30
0.0
 40
4.0
  0
LINE
  5
579
102
{ACAD_REACTORS
330
10A
102
}
100
AcDbEntity
  8
M02
100
AcDbLine
 10
809.758914
 20
217.943414
 30
0.0
 11
806.758914
 21
217.943414
 31
0.0
  0
LINE
  5
57A
102
{ACAD_REACTORS
330
10A
102
}
100
AcDbEntity
  8
M02
100
AcDbLine
 10
809.758914
 20
253.943414
 30
0.0
 11
806.758914
 21
253.943414
 31
0.0
  0
MTEXT
  5
57B
100
AcDbEntity
  8
DIMS
 62
     2
100
AcDbMText
 10
361.892912
 20
482.931524
 30
0.0
 40
3.0
 41
0.0
 71
     4
 72
     5
  1
HGX10037 (x2)
  0
LINE
  5
57C
100
AcDbEntity
  8
M01
100
AcDbLine
 10
863.746926
 20
660.179082
 30
0.0
 11
865.726634
 21
661.385811
 31
0.0
  0
LINE
  5
57D
100
AcDbEntity
  8
M01
100
AcDbLine
 10
871.480893
 20
671.632309
 30
0.0
 11
871.480893
 21
680.207121
 31
0.0
  0
LINE
  5
57E
100
AcDbEntity
  8
M01
100
AcDbLine
 10
867.480893
 20
671.632309
 30
0.0
 11
867.480893
 21
680.207121
 31
0.0
  0
ARC
  5
57F
100
AcDbEntity
  8
M01
100
AcDbCircle
 10
859.480893
 20
671.632309
 30
0.0
 40
12.0
100
AcDbArc
 50
301.364349
 51
0.0
  0
ARC
  5
580
100
AcDbEntity
  8
M01
100
AcDbCircle
 10
859.480893
 20
671.632309
 30
0.0
 40
8.0
100
AcDbArc
 50
308.846454
 51
0.0
  0
LINE
  5
581
100
AcDbEntity
  8
M01
100
AcDbLine
 10
850.115565
 20
656.554629
 30
0.0
 11
860.342978
 21
662.788737
 31
0.0
  0
LINE
  5
582
100
AcDbEntity
  8
M01
100
AcDbLine
 10
852.197479
 20
653.13913
 30
0.0
 11
852.521011
 21
653.336339
 31
0.0
  0
LINE
  5
583
100
AcDbEntity
  8
M01
100
AcDbLine
 10
850.758914
 20
646.136722
 30
0.0
 11
850.758914
 21
645.543414
 31
0.0
  0
LINE
  5
584
100
AcDbEntity
  8
M01
100
AcDbLine
 10
846.758914
 20
650.577505
 30
0.0
 11
846.758914
 21
647.851661
 31
0.0
  0
ARC
  5
585
100
AcDbEntity
  8
M01
100
AcDbCircle
 10
853.758914
 20
650.577505
 30
0.0
 40
3.0
100
AcDbArc
 50
121.364349
 51
151.672691
  0
ARC
  5
586
100
AcDbEntity
  8
M01
100
AcDbCircle
 10
853.758914
 20
650.577505
 30
0.0
 40
7.0
100
AcDbArc
 50
121.364349
 51
180.0
  0
ARC
  5
587
100
AcDbEntity
  8
M01
100
AcDbCircle
 10
853.758914
 20
645.543414
 30
0.0
 40
7.0
100
AcDbArc
 50
202.678679
 51
270.0
  0
ARC
  5
588
100
AcDbEntity
  8
M01
100
AcDbCircle
 10
853.758914
 20
645.543414
 30
0.0
 40
3.0
100
AcDbArc
 50
180.0
 51
270.0
  0
ARC
  5
589
100
AcDbEntity
  8
M01
100
AcDbCircle
 10
852.498777
 20
664.359889
 30
0.0
 40
12.0
100
AcDbArc
 50
313.586993
 51
0.0
  0
ARC
  5
58A
100
AcDbEntity
  8
M01
100
AcDbCircle
 10
852.498777
 20
664.359889
 30
0.0
 40
8.0
100
AcDbArc
 50
313.586993
 51
0.0
  0
LINE
  5
58B
100
AcDbEntity
  8
M01
100
AcDbLine
 10
853.758914
 20
642.543414
 30
0.0
 11
858.758914
 21
642.543414
 31
0.0
  0
LINE
  5
58C
100
AcDbEntity
  8
M01
100
AcDbLine
 10
854.758914
 20
642.543414
 30
0.0
 11
854.758914
 21
638.543414
 31
0.0
  0
LINE
  5
58D
100
AcDbEntity
  8
M01
100
AcDbLine
 10
858.758914
 20
642.543414
 30
0.0
 11
858.758914
 21
638.543414
 31
0.0
  0
LINE
  5
58E
100
AcDbEntity
  8
M01
100
AcDbLine
 10
810.758914
 20
638.543414
 30
0.0
 11
837.983453
 21
638.543414
 31
0.0
  0
LINE
  5
58F
100
AcDbEntity
  8
M01
100
AcDbLine
 10
837.983453
 20
642.543414
 30
0.0
 11
820.758914
 21
642.543414
 31
0.0
  0
ARC
  5
590
100
AcDbEntity
  8
M01
100
AcDbCircle
 10
837.983453
 20
650.543414
 30
0.0
 40
12.0
100
AcDbArc
 50
270.0
 51
313.586993
  0
ARC
  5
591
100
AcDbEntity
  8
M01
100
AcDbCircle
 10
837.983453
 20
650.543414
 30
0.0
 40
8.0
100
AcDbArc
 50
270.0
 51
313.586993
  0
LINE
  5
592
100
AcDbEntity
  8
M01
100
AcDbLine
 10
824.758914
 20
642.543414
 30
0.0
 11
824.758914
 21
638.543414
 31
0.0
  0
LINE
  5
593
100
AcDbEntity
  8
M01
100
AcDbLine
 10
820.758914
 20
642.543414
 30
0.0
 11
820.758914
 21
638.543414
 31
0.0
  0
LINE
  5
594
100
AcDbEntity
  8
M01
100
AcDbLine
 10
860.772239
 20
655.667948
 30
0.0
 11
846.256914
 21
641.851473
 31
0.0
  0
LINE
  5
595
100
AcDbEntity
  8
M01
100
AcDbLine
 10
858.014418
 20
658.565262
 30
0.0
 11
843.499094
 21
644.748787
 31
0.0
  0
LINE
  5
596
100
AcDbEntity
  8
M01
100
AcDbLine
 10
864.498777
 20
680.198379
 30
0.0
 11
864.498777
 21
664.359889
 31
0.0
  0
LINE
  5
597
100
AcDbEntity
  8
M01
100
AcDbLine
 10
860.498777
 20
680.198379
 30
0.0
 11
860.498777
 21
664.359889
 31
0.0
  0
LINE
  5
598
100
AcDbEntity
  8
M01
100
AcDbLine
 10
860.508914
 20
623.887514
 30
0.0
 11
867.008914
 21
623.887514
 31
0.0
  0
LINE
  5
599
100
AcDbEntity
  8
M01
100
AcDbLine
 10
860.508914
 20
631.999314
 30
0.0
 11
867.008914
 21
631.999314
 31
0.0
  0
LINE
  5
59A
100
AcDbEntity
  8
M01
100
AcDbLine
 10
860.508914
 20
623.887514
 30
0.0
 11
860.508914
 21
621.943414
 31
0.0
  0
ARC
  5
59B
100
AcDbEntity
  8
M01
100
AcDbCircle
 10
859.258914
 20
625.448764
 30
0.0
 40
2.0
100
AcDbArc
 50
308.682187
 51
0.0
  0
ARC
  5
59C
100
AcDbEntity
  8
M01
100
AcDbCircle
 10
859.258914
 20
630.438064
 30
0.0
 40
2.0
100
AcDbArc
 50
0.0
 51
51.317813
  0
LINE
  5
59D
100
AcDbEntity
  8
M01
100
AcDbLine
 10
860.508914
 20
633.943414
 30
0.0
 11
860.508914
 21
631.999314
 31
0.0
  0
LINE
  5
59E
100
AcDbEntity
  8
M01
100
AcDbLine
 10
861.258914
 20
630.438064
 30
0.0
 11
861.258914
 21
625.448764
 31
0.0
  0
LINE
  5
59F
100
AcDbEntity
  8
M01
100
AcDbLine
 10
867.008914
 20
623.887514
 30
0.0
 11
867.008914
 21
621.943414
 31
0.0
  0
ARC
  5
5A0
100
AcDbEntity
  8
M01
100
AcDbCircle
 10
868.258914
 20
625.448764
 30
0.0
 40
2.0
100
AcDbArc
 50
180.0
 51
231.317813
  0
ARC
  5
5A1
100
AcDbEntity
  8
M01
100
AcDbCircle
 10
868.258914
 20
630.438064
 30
0.0
 40
2.0
100
AcDbArc
 50
128.682187
 51
180.0
  0
LINE
  5
5A2
100
AcDbEntity
  8
M01
100
AcDbLine
 10
867.008914
 20
633.943414
 30
0.0
 11
867.008914
 21
631.999314
 31
0.0
  0
LINE
  5
5A3
100
AcDbEntity
  8
M01
100
AcDbLine
 10
866.258914
 20
630.438064
 30
0.0
 11
866.258914
 21
625.448764
 31
0.0
  0
LINE
  5
5A4
100
AcDbEntity
  8
DIMS
 62
     4
100
AcDbLine
 10
865.758914
 20
211.994681
 30
0.0
 11
865.758914
 21
214.294681
 31
0.0
  0
LINE
  5
5A5
100
AcDbEntity
  8
DIMS
 62
     4
100
AcDbLine
 10
865.758914
 20
205.194681
 30
0.0
 11
865.758914
 21
202.894681
 31
0.0
  0
LINE
  5
5A6
100
AcDbEntity
  8
DIMS
 62
     4
100
AcDbLine
 10
869.158914
 20
208.594681
 30
0.0
 11
871.458914
 21
208.594681
 31
0.0
  0
LINE
  5
5A7
100
AcDbEntity
  8
DIMS
 62
     4
100
AcDbLine
 10
862.358914
 20
208.594681
 30
0.0
 11
860.058914
 21
208.594681
 31
0.0
  0
LINE
  5
5A8
100
AcDbEntity
  8
DIMS
 62
     4
100
AcDbLine
 10
865.758914
 20
206.894681
 30
0.0
 11
865.758914
 21
210.294681
 31
0.0
  0
LINE
  5
5A9
100
AcDbEntity
  8
DIMS
 62
     4
100
AcDbLine
 10
864.058914
 20
208.594681
 30
0.0
 11
867.458914
 21
208.594681
 31
0.0
  0
LINE
  5
5AA
100
AcDbEntity
  8
DIMS
 62
     4
100
AcDbLine
 10
813.758914
 20
211.994681
 30
0.0
 11
813.758914
 21
214.294681
 31
0.0
  0
LINE
  5
5AB
100
AcDbEntity
  8
DIMS
 62
     4
100
AcDbLine
 10
813.758914
 20
205.194681
 30
0.0
 11
813.758914
 21
202.894681
 31
0.0
  0
LINE
  5
5AC
100
AcDbEntity
  8
DIMS
 62
     4
100
AcDbLine
 10
817.158914
 20
208.594681
 30
0.0
 11
819.458914
 21
208.594681
 31
0.0
  0
LINE
  5
5AD
100
AcDbEntity
  8
DIMS
 62
     4
100
AcDbLine
 10
810.358914
 20
208.594681
 30
0.0
 11
808.058914
 21
208.594681
 31
0.0
  0
LINE
  5
5AE
100
AcDbEntity
  8
DIMS
 62
     4
100
AcDbLine
 10
813.758914
 20
206.894681
 30
0.0
 11
813.758914
 21
210.294681
 31
0.0
  0
LINE
  5
5AF
100
AcDbEntity
  8
DIMS
 62
     4
100
AcDbLine
 10
812.058914
 20
208.594681
 30
0.0
 11
815.458914
 21
208.594681
 31
0.0
  0
HATCH
  5
5B0
100
AcDbEntity
  8
HATCH
100
AcDbHatch
 10
0.0
 20
0.0
 30
0.0
210
0.0
220
0.0
230
1.0
  2
_U
 70
     0
 71
     1
 91
        2
 92
        7
 72
     1
 73
     1
 93
        2
 10
817.7589143034763
 20
208.5946808615498
 42
1.0
 10
809.7589143034763
 20
208.5946808615498
 42
1.0
 97
        1
330
5B6
 92
        7
 72
     1
 73
     1
 93
        2
 10
869.7589143034765
 20
208.5946808615498
 42
1.0
 10
861.7589143034765
 20
208.5946808615498
 42
1.0
 97
        1
330
5B5
 75
     0
 76
     0
 52
135.0
 41
0.8
 77
     0
 78
     1
 53
135.0
 43
21.678451
 44
-87.642148
 45
-0.5656854249492382
 46
-0.565685424949238
 79
     0
 47
0.095608
 98
        2
 10
813.892263
 20
208.294039
 10
852.916454
 20
209.441337
  0
LINE
  5
5B1
102
{ACAD_REACTORS
330
C9
102
}
100
AcDbEntity
  8
M01
100
AcDbLine
 10
865.758914
 20
204.594681
 30
0.0
 11
869.758914
 21
204.594681
 31
0.0
  0
LINE
  5
5B2
102
{ACAD_REACTORS
330
C9
102
}
100
AcDbEntity
  8
M01
100
AcDbLine
 10
865.758914
 20
212.594681
 30
0.0
 11
869.758914
 21
212.594681
 31
0.0
  0
LINE
  5
5B3
102
{ACAD_REACTORS
330
C9
102
}
100
AcDbEntity
  8
M01
100
AcDbLine
 10
813.758914
 20
204.594681
 30
0.0
 11
809.758914
 21
204.594681
 31
0.0
  0
LINE
  5
5B4
102
{ACAD_REACTORS
330
C9
102
}
100
AcDbEntity
  8
M01
100
AcDbLine
 10
813.758914
 20
212.594681
 30
0.0
 11
809.758914
 21
212.594681
 31
0.0
  0
CIRCLE
  5
5B5
102
{ACAD_REACTORS
330
5B0
330
C9
102
}
100
AcDbEntity
  8
M01
100
AcDbCircle
 10
865.758914
 20
208.594681
 30
0.0
 40
4.0
  0
CIRCLE
  5
5B6
102
{ACAD_REACTORS
330
5B0
330
C9
102
}
100
AcDbEntity
  8
M01
100
AcDbCircle
 10
813.758914
 20
208.594681
 30
0.0
 40
4.0
  0
DIMENSION
  5
5B7
100
AcDbEntity
  8
DIMS
100
AcDbDimension
  2
*D4
 10
775.082749
 20
592.443414
 30
0.0
 11
772.082749
 21
547.6577
 31
0.0
 12
21.678451
 22
-60.304292
 32
0.0
  1
%%c<> H7
  3
DIM1
100
AcDbAlignedDimension
 13
789.758914
 23
600.443414
 33
0.0
 14
789.758914
 24
592.443414
 34
0.0
 50
90.0
100
AcDbRotatedDimension
1001
ACAD
1000
DSTYLE
1002
{
1070
   144
1040
1.0
1002
}
  0
DIMENSION
  5
5C5
100
AcDbEntity
  8
DIMS
100
AcDbDimension
  2
*D3
 10
921.074031
 20
405.943414
 30
0.0
 11
918.074031
 21
385.943414
 31
0.0
 12
21.678451
 22
-87.304292
 32
0.0
  1
%%c<> H7
  3
DIM1
100
AcDbAlignedDimension
 13
884.758914
 23
365.943414
 33
0.0
 14
884.758914
 24
405.943414
 34
0.0
 50
90.0
100
AcDbRotatedDimension
1001
ACAD
1000
DSTYLE
1002
{
1070
   144
1040
1.0
1002
}
  0
DIMENSION
  5
5D2
100
AcDbEntity
  8
DIMS
100
AcDbDimension
  2
*D2
 10
802.758914
 20
166.560717
 30
0.0
 11
792.116057
 21
169.560717
 31
0.0
  1
7.0
  3
DIM1
100
AcDbAlignedDimension
 13
809.758914
 23
201.943414
 33
0.0
 14
802.758914
 24
192.943414
 34
0.0
100
AcDbRotatedDimension
1001
ACAD
1000
DSTYLE
1002
{
1070
   144
1040
1.0
1002
}
  0
DIMENSION
  5
5E0
100
AcDbEntity
  8
DIMS
100
AcDbDimension
  2
*D1
 10
876.758914
 20
166.560717
 30
0.0
 11
887.401771
 21
169.560717
 31
0.0
  1
7.0
  3
DIM1
100
AcDbAlignedDimension
 13
869.758914
 23
201.943414
 33
0.0
 14
876.758914
 24
181.430023
 34
0.0
100
AcDbRotatedDimension
1001
ACAD
1000
DSTYLE
1002
{
1070
   144
1040
1.0
1002
}
  0
DIMENSION
  5
5EE
100
AcDbEntity
  8
DIMS
100
AcDbDimension
  2
*D0
 10
869.758914
 20
166.560717
 30
0.0
 11
839.758914
 21
169.560717
 31
0.0
  3
DIM1
100
AcDbAlignedDimension
 13
809.758914
 23
201.943414
 33
0.0
 14
869.758914
 24
199.943414
 34
0.0
100
AcDbRotatedDimension
1001
ACAD
1000
DSTYLE
1002
{
1070
   144
1040
1.0
1002
}
  0
LINE
  5
5FB
100
AcDbEntity
  8
M01
100
AcDbLine
 10
858.758914
 20
616.943414
 30
0.0
 11
868.758914
 21
616.943414
 31
0.0
  0
LINE
  5
5FC
100
AcDbEntity
  8
M01
100
AcDbLine
 10
812.508914
 20
623.887514
 30
0.0
 11
819.008914
 21
623.887514
 31
0.0
  0
LINE
  5
5FD
100
AcDbEntity
  8
M01
100
AcDbLine
 10
812.508914
 20
631.999314
 30
0.0
 11
819.008914
 21
631.999314
 31
0.0
  0
LINE
  5
5FE
100
AcDbEntity
  8
M01
100
AcDbLine
 10
812.508914
 20
623.887514
 30
0.0
 11
812.508914
 21
621.943414
 31
0.0
  0
ARC
  5
5FF
100
AcDbEntity
  8
M01
100
AcDbCircle
 10
811.258914
 20
625.448764
 30
0.0
 40
2.0
100
AcDbArc
 50
308.682187
 51
0.0
  0
ARC
  5
600
100
AcDbEntity
  8
M01
100
AcDbCircle
 10
811.258914
 20
630.438064
 30
0.0
 40
2.0
100
AcDbArc
 50
0.0
 51
51.317813
  0
LINE
  5
601
100
AcDbEntity
  8
M01
100
AcDbLine
 10
812.508914
 20
633.943414
 30
0.0
 11
812.508914
 21
631.999314
 31
0.0
  0
LINE
  5
602
100
AcDbEntity
  8
M01
100
AcDbLine
 10
813.258914
 20
630.438064
 30
0.0
 11
813.258914
 21
625.448764
 31
0.0
  0
LINE
  5
603
100
AcDbEntity
  8
M01
100
AcDbLine
 10
819.008914
 20
623.887514
 30
0.0
 11
819.008914
 21
621.943414
 31
0.0
  0
ARC
  5
604
100
AcDbEntity
  8
M01
100
AcDbCircle
 10
820.258914
 20
625.448764
 30
0.0
 40
2.0
100
AcDbArc
 50
180.0
 51
231.317813
  0
ARC
  5
605
100
AcDbEntity
  8
M01
100
AcDbCircle
 10
820.258914
 20
630.438064
 30
0.0
 40
2.0
100
AcDbArc
 50
128.682187
 51
180.0
  0
LINE
  5
606
100
AcDbEntity
  8
M01
100
AcDbLine
 10
819.008914
 20
633.943414
 30
0.0
 11
819.008914
 21
631.999314
 31
0.0
  0
LINE
  5
607
100
AcDbEntity
  8
M01
100
AcDbLine
 10
818.258914
 20
630.438064
 30
0.0
 11
818.258914
 21
625.448764
 31
0.0
  0
LINE
  5
608
100
AcDbEntity
  8
M01
100
AcDbLine
 10
810.758914
 20
616.943414
 30
0.0
 11
820.758914
 21
616.943414
 31
0.0
  0
LINE
  5
609
100
AcDbEntity
  8
M01
100
AcDbLine
 10
868.758914
 20
621.943414
 30
0.0
 11
868.758914
 21
600.943414
 31
0.0
  0
LINE
  5
60A
100
AcDbEntity
  8
M01
100
AcDbLine
 10
858.758914
 20
621.943414
 30
0.0
 11
858.758914
 21
601.943414
 31
0.0
  0
LINE
  5
60B
100
AcDbEntity
  8
M01
100
AcDbLine
 10
810.758914
 20
621.943414
 30
0.0
 11
810.758914
 21
600.943414
 31
0.0
  0
LINE
  5
60C
100
AcDbEntity
  8
M01
100
AcDbLine
 10
820.758914
 20
621.943414
 30
0.0
 11
820.758914
 21
601.943414
 31
0.0
  0
LINE
  5
60D
100
AcDbEntity
  8
M01
100
AcDbLine
 10
860.727825
 20
643.843414
 30
0.0
 11
866.790003
 21
643.843414
 31
0.0
  0
ARC
  5
60E
100
AcDbEntity
  8
M01
100
AcDbCircle
 10
866.790003
 20
641.994109
 30
0.0
 40
1.150694
100
AcDbArc
 50
208.592423
 51
331.407577
  0
ARC
  5
60F
100
AcDbEntity
  8
M01
100
AcDbCircle
 10
863.758914
 20
644.546192
 30
0.0
 40
3.702778
100
AcDbArc
 50
236.92527
 51
303.07473
  0
ARC
  5
610
100
AcDbEntity
  8
M01
100
AcDbCircle
 10
860.727825
 20
641.994109
 30
0.0
 40
1.150694
100
AcDbArc
 50
208.592423
 51
331.407577
  0
ARC
  5
611
100
AcDbEntity
  8
M01
100
AcDbCircle
 10
866.790003
 20
642.69272
 30
0.0
 40
1.150694
100
AcDbArc
 50
28.592423
 51
151.407577
  0
ARC
  5
612
100
AcDbEntity
  8
M01
100
AcDbCircle
 10
863.758914
 20
640.140636
 30
0.0
 40
3.702778
100
AcDbArc
 50
56.92527
 51
123.07473
  0
LINE
  5
613
100
AcDbEntity
  8
M01
100
AcDbLine
 10
865.77964
 20
643.243414
 30
0.0
 11
865.77964
 21
641.443414
 31
0.0
  0
LINE
  5
614
100
AcDbEntity
  8
M01
100
AcDbLine
 10
867.800366
 20
643.243414
 30
0.0
 11
867.800366
 21
641.443414
 31
0.0
  0
ARC
  5
615
100
AcDbEntity
  8
M01
100
AcDbCircle
 10
860.727825
 20
642.69272
 30
0.0
 40
1.150694
100
AcDbArc
 50
28.592423
 51
151.407577
  0
LINE
  5
616
100
AcDbEntity
  8
M01
100
AcDbLine
 10
861.738188
 20
643.243414
 30
0.0
 11
861.738188
 21
641.443414
 31
0.0
  0
LINE
  5
617
100
AcDbEntity
  8
M01
100
AcDbLine
 10
859.717462
 20
643.243414
 30
0.0
 11
859.717462
 21
641.443414
 31
0.0
  0
LINE
  5
618
100
AcDbEntity
  8
M01
100
AcDbLine
 10
868.758914
 20
638.543414
 30
0.0
 11
868.758914
 21
640.043414
 31
0.0
  0
LINE
  5
619
100
AcDbEntity
  8
M01
100
AcDbLine
 10
858.758914
 20
638.543414
 30
0.0
 11
858.758914
 21
640.043414
 31
0.0
  0
LINE
  5
61A
100
AcDbEntity
  8
M01
100
AcDbLine
 10
868.258914
 20
640.043414
 30
0.0
 11
868.258914
 21
640.843414
 31
0.0
  0
LINE
  5
61B
100
AcDbEntity
  8
M01
100
AcDbLine
 10
859.258914
 20
640.043414
 30
0.0
 11
859.258914
 21
640.843414
 31
0.0
  0
LINE
  5
61C
100
AcDbEntity
  8
M01
100
AcDbLine
 10
859.258914
 20
640.843414
 30
0.0
 11
868.258914
 21
640.843414
 31
0.0
  0
LINE
  5
61D
100
AcDbEntity
  8
M01
100
AcDbLine
 10
858.758914
 20
640.043414
 30
0.0
 11
868.758914
 21
640.043414
 31
0.0
  0
LINE
  5
61E
100
AcDbEntity
  8
M01
100
AcDbLine
 10
868.258914
 20
637.743414
 30
0.0
 11
868.258914
 21
638.543414
 31
0.0
  0
LINE
  5
61F
100
AcDbEntity
  8
M01
100
AcDbLine
 10
859.258914
 20
637.743414
 30
0.0
 11
859.258914
 21
638.543414
 31
0.0
  0
LINE
  5
620
100
AcDbEntity
  8
M01
100
AcDbLine
 10
853.758914
 20
638.543414
 30
0.0
 11
868.758914
 21
638.543414
 31
0.0
  0
ARC
  5
621
100
AcDbEntity
  8
M01
100
AcDbCircle
 10
866.790003
 20
635.894109
 30
0.0
 40
1.150694
100
AcDbArc
 50
208.592423
 51
331.407577
  0
ARC
  5
622
100
AcDbEntity
  8
M01
100
AcDbCircle
 10
863.758914
 20
638.446192
 30
0.0
 40
3.702778
100
AcDbArc
 50
236.92527
 51
303.07473
  0
ARC
  5
623
100
AcDbEntity
  8
M01
100
AcDbCircle
 10
860.727825
 20
635.894109
 30
0.0
 40
1.150694
100
AcDbArc
 50
208.592423
 51
331.407577
  0
ARC
  5
624
100
AcDbEntity
  8
M01
100
AcDbCircle
 10
866.790003
 20
636.59272
 30
0.0
 40
1.150694
100
AcDbArc
 50
28.592423
 51
151.407577
  0
ARC
  5
625
100
AcDbEntity
  8
M01
100
AcDbCircle
 10
863.758914
 20
634.040636
 30
0.0
 40
3.702778
100
AcDbArc
 50
56.92527
 51
123.07473
  0
LINE
  5
626
100
AcDbEntity
  8
M01
100
AcDbLine
 10
865.77964
 20
637.143414
 30
0.0
 11
865.77964
 21
635.343414
 31
0.0
  0
LINE
  5
627
100
AcDbEntity
  8
M01
100
AcDbLine
 10
867.800366
 20
637.143414
 30
0.0
 11
867.800366
 21
635.343414
 31
0.0
  0
ARC
  5
628
100
AcDbEntity
  8
M01
100
AcDbCircle
 10
860.727825
 20
636.59272
 30
0.0
 40
1.150694
100
AcDbArc
 50
28.592423
 51
151.407577
  0
LINE
  5
629
100
AcDbEntity
  8
M01
100
AcDbLine
 10
861.738188
 20
637.143414
 30
0.0
 11
861.738188
 21
635.343414
 31
0.0
  0
LINE
  5
62A
100
AcDbEntity
  8
M01
100
AcDbLine
 10
859.717462
 20
637.143414
 30
0.0
 11
859.717462
 21
635.343414
 31
0.0
  0
LINE
  5
62B
100
AcDbEntity
  8
M01
100
AcDbLine
 10
859.258914
 20
637.743414
 30
0.0
 11
868.258914
 21
637.743414
 31
0.0
  0
LINE
  5
62C
100
AcDbEntity
  8
M01
100
AcDbLine
 10
859.258914
 20
634.743414
 30
0.0
 11
868.258914
 21
634.743414
 31
0.0
  0
LINE
  5
62D
100
AcDbEntity
  8
M01
100
AcDbLine
 10
859.258914
 20
633.943414
 30
0.0
 11
868.258914
 21
633.943414
 31
0.0
  0
LINE
  5
62E
100
AcDbEntity
  8
M01
100
AcDbLine
 10
865.258914
 20
646.943414
 30
0.0
 11
865.758914
 21
646.443414
 31
0.0
  0
LINE
  5
62F
100
AcDbEntity
  8
M01
100
AcDbLine
 10
861.758914
 20
646.443414
 30
0.0
 11
862.258914
 21
646.943414
 31
0.0
  0
LINE
  5
630
100
AcDbEntity
  8
M01
100
AcDbLine
 10
861.758914
 20
646.443414
 30
0.0
 11
865.758914
 21
646.443414
 31
0.0
  0
LINE
  5
631
100
AcDbEntity
  8
M01
100
AcDbLine
 10
865.258914
 20
646.943414
 30
0.0
 11
865.258914
 21
643.843414
 31
0.0
  0
LINE
  5
632
100
AcDbEntity
  8
M01
100
AcDbLine
 10
862.258914
 20
646.943414
 30
0.0
 11
862.258914
 21
643.843414
 31
0.0
  0
LINE
  5
633
100
AcDbEntity
  8
M01
100
AcDbLine
 10
861.758914
 20
646.443414
 30
0.0
 11
861.758914
 21
643.843414
 31
0.0
  0
LINE
  5
634
100
AcDbEntity
  8
M01
100
AcDbLine
 10
865.758914
 20
646.443414
 30
0.0
 11
865.758914
 21
643.843414
 31
0.0
  0
LINE
  5
635
100
AcDbEntity
  8
M01
100
AcDbLine
 10
862.258914
 20
646.943414
 30
0.0
 11
865.258914
 21
646.943414
 31
0.0
  0
LINE
  5
636
100
AcDbEntity
  8
M01
100
AcDbLine
 10
858.758914
 20
621.943414
 30
0.0
 11
868.758914
 21
621.943414
 31
0.0
  0
LINE
  5
637
100
AcDbEntity
  8
M01
100
AcDbLine
 10
868.258914
 20
634.743414
 30
0.0
 11
868.258914
 21
633.943414
 31
0.0
  0
LINE
  5
638
100
AcDbEntity
  8
M01
100
AcDbLine
 10
859.258914
 20
634.743414
 30
0.0
 11
859.258914
 21
633.943414
 31
0.0
  0
LINE
  5
639
100
AcDbEntity
  8
CENTRE
100
AcDbLine
 10
863.758914
 20
653.104303
 30
0.0
 11
863.758914
 21
589.510872
 31
0.0
  0
LINE
  5
63A
100
AcDbEntity
  8
M01
100
AcDbLine
 10
818.790003
 20
643.843414
 30
0.0
 11
812.727825
 21
643.843414
 31
0.0
  0
ARC
  5
63B
100
AcDbEntity
  8
M01
100
AcDbCircle
 10
812.727825
 20
641.994109
 30
0.0
 40
1.150694
100
AcDbArc
 50
208.592423
 51
331.407577
  0
ARC
  5
63C
100
AcDbEntity
  8
M01
100
AcDbCircle
 10
815.758914
 20
644.546192
 30
0.0
 40
3.702778
100
AcDbArc
 50
236.92527
 51
303.07473
  0
ARC
  5
63D
100
AcDbEntity
  8
M01
100
AcDbCircle
 10
818.790003
 20
641.994109
 30
0.0
 40
1.150694
100
AcDbArc
 50
208.592423
 51
331.407577
  0
ARC
  5
63E
100
AcDbEntity
  8
M01
100
AcDbCircle
 10
812.727825
 20
642.69272
 30
0.0
 40
1.150694
100
AcDbArc
 50
28.592423
 51
151.407577
  0
ARC
  5
63F
100
AcDbEntity
  8
M01
100
AcDbCircle
 10
815.758914
 20
640.140636
 30
0.0
 40
3.702778
100
AcDbArc
 50
56.92527
 51
123.07473
  0
LINE
  5
640
100
AcDbEntity
  8
M01
100
AcDbLine
 10
813.738188
 20
643.243414
 30
0.0
 11
813.738188
 21
641.443414
 31
0.0
  0
LINE
  5
641
100
AcDbEntity
  8
M01
100
AcDbLine
 10
811.717462
 20
643.243414
 30
0.0
 11
811.717462
 21
641.443414
 31
0.0
  0
ARC
  5
642
100
AcDbEntity
  8
M01
100
AcDbCircle
 10
818.790003
 20
642.69272
 30
0.0
 40
1.150694
100
AcDbArc
 50
28.592423
 51
151.407577
  0
LINE
  5
643
100
AcDbEntity
  8
M01
100
AcDbLine
 10
817.77964
 20
643.243414
 30
0.0
 11
817.77964
 21
641.443414
 31
0.0
  0
LINE
  5
644
100
AcDbEntity
  8
M01
100
AcDbLine
 10
819.800366
 20
643.243414
 30
0.0
 11
819.800366
 21
641.443414
 31
0.0
  0
LINE
  5
645
100
AcDbEntity
  8
M01
100
AcDbLine
 10
810.758914
 20
638.543414
 30
0.0
 11
810.758914
 21
640.043414
 31
0.0
  0
LINE
  5
646
100
AcDbEntity
  8
M01
100
AcDbLine
 10
811.258914
 20
640.043414
 30
0.0
 11
811.258914
 21
640.843414
 31
0.0
  0
LINE
  5
647
100
AcDbEntity
  8
M01
100
AcDbLine
 10
820.258914
 20
640.043414
 30
0.0
 11
820.258914
 21
640.843414
 31
0.0
  0
LINE
  5
648
100
AcDbEntity
  8
M01
100
AcDbLine
 10
820.258914
 20
640.843414
 30
0.0
 11
811.258914
 21
640.843414
 31
0.0
  0
LINE
  5
649
100
AcDbEntity
  8
M01
100
AcDbLine
 10
820.758914
 20
640.043414
 30
0.0
 11
810.758914
 21
640.043414
 31
0.0
  0
LINE
  5
64A
100
AcDbEntity
  8
M01
100
AcDbLine
 10
811.258914
 20
637.743414
 30
0.0
 11
811.258914
 21
638.543414
 31
0.0
  0
LINE
  5
64B
100
AcDbEntity
  8
M01
100
AcDbLine
 10
820.258914
 20
637.743414
 30
0.0
 11
820.258914
 21
638.543414
 31
0.0
  0
ARC
  5
64C
100
AcDbEntity
  8
M01
100
AcDbCircle
 10
812.727825
 20
635.894109
 30
0.0
 40
1.150694
100
AcDbArc
 50
208.592423
 51
331.407577
  0
ARC
  5
64D
100
AcDbEntity
  8
M01
100
AcDbCircle
 10
815.758914
 20
638.446192
 30
0.0
 40
3.702778
100
AcDbArc
 50
236.92527
 51
303.07473
  0
ARC
  5
64E
100
AcDbEntity
  8
M01
100
AcDbCircle
 10
818.790003
 20
635.894109
 30
0.0
 40
1.150694
100
AcDbArc
 50
208.592423
 51
331.407577
  0
ARC
  5
64F
100
AcDbEntity
  8
M01
100
AcDbCircle
 10
812.727825
 20
636.59272
 30
0.0
 40
1.150694
100
AcDbArc
 50
28.592423
 51
151.407577
  0
ARC
  5
650
100
AcDbEntity
  8
M01
100
AcDbCircle
 10
815.758914
 20
634.040636
 30
0.0
 40
3.702778
100
AcDbArc
 50
56.92527
 51
123.07473
  0
LINE
  5
651
100
AcDbEntity
  8
M01
100
AcDbLine
 10
813.738188
 20
637.143414
 30
0.0
 11
813.738188
 21
635.343414
 31
0.0
  0
LINE
  5
652
100
AcDbEntity
  8
M01
100
AcDbLine
 10
811.717462
 20
637.143414
 30
0.0
 11
811.717462
 21
635.343414
 31
0.0
  0
ARC
  5
653
100
AcDbEntity
  8
M01
100
AcDbCircle
 10
818.790003
 20
636.59272
 30
0.0
 40
1.150694
100
AcDbArc
 50
28.592423
 51
151.407577
  0
LINE
  5
654
100
AcDbEntity
  8
M01
100
AcDbLine
 10
817.77964
 20
637.143414
 30
0.0
 11
817.77964
 21
635.343414
 31
0.0
  0
LINE
  5
655
100
AcDbEntity
  8
M01
100
AcDbLine
 10
819.800366
 20
637.143414
 30
0.0
 11
819.800366
 21
635.343414
 31
0.0
  0
LINE
  5
656
100
AcDbEntity
  8
M01
100
AcDbLine
 10
820.258914
 20
637.743414
 30
0.0
 11
811.258914
 21
637.743414
 31
0.0
  0
LINE
  5
657
100
AcDbEntity
  8
M01
100
AcDbLine
 10
820.258914
 20
634.743414
 30
0.0
 11
811.258914
 21
634.743414
 31
0.0
  0
LINE
  5
658
100
AcDbEntity
  8
M01
100
AcDbLine
 10
820.258914
 20
633.943414
 30
0.0
 11
811.258914
 21
633.943414
 31
0.0
  0
LINE
  5
659
100
AcDbEntity
  8
M01
100
AcDbLine
 10
814.258914
 20
646.943414
 30
0.0
 11
813.758914
 21
646.443414
 31
0.0
  0
LINE
  5
65A
100
AcDbEntity
  8
M01
100
AcDbLine
 10
817.758914
 20
646.443414
 30
0.0
 11
817.258914
 21
646.943414
 31
0.0
  0
LINE
  5
65B
100
AcDbEntity
  8
M01
100
AcDbLine
 10
817.758914
 20
646.443414
 30
0.0
 11
813.758914
 21
646.443414
 31
0.0
  0
LINE
  5
65C
100
AcDbEntity
  8
M01
100
AcDbLine
 10
814.258914
 20
646.943414
 30
0.0
 11
814.258914
 21
643.843414
 31
0.0
  0
LINE
  5
65D
100
AcDbEntity
  8
M01
100
AcDbLine
 10
817.258914
 20
646.943414
 30
0.0
 11
817.258914
 21
643.843414
 31
0.0
  0
LINE
  5
65E
100
AcDbEntity
  8
M01
100
AcDbLine
 10
817.758914
 20
646.443414
 30
0.0
 11
817.758914
 21
643.843414
 31
0.0
  0
LINE
  5
65F
100
AcDbEntity
  8
M01
100
AcDbLine
 10
813.758914
 20
646.443414
 30
0.0
 11
813.758914
 21
643.843414
 31
0.0
  0
LINE
  5
660
100
AcDbEntity
  8
M01
100
AcDbLine
 10
817.258914
 20
646.943414
 30
0.0
 11
814.258914
 21
646.943414
 31
0.0
  0
LINE
  5
661
100
AcDbEntity
  8
M01
100
AcDbLine
 10
820.758914
 20
621.943414
 30
0.0
 11
810.758914
 21
621.943414
 31
0.0
  0
LINE
  5
662
100
AcDbEntity
  8
M01
100
AcDbLine
 10
811.258914
 20
634.743414
 30
0.0
 11
811.258914
 21
633.943414
 31
0.0
  0
LINE
  5
663
100
AcDbEntity
  8
M01
100
AcDbLine
 10
820.258914
 20
634.743414
 30
0.0
 11
820.258914
 21
633.943414
 31
0.0
  0
LINE
  5
664
102
{ACAD_REACTORS
330
C8
102
}
100
AcDbEntity
  8
CENTRE
100
AcDbLine
 10
815.758914
 20
653.104303
 30
0.0
 11
815.758914
 21
589.510872
 31
0.0
  0
LINE
  5
665
100
AcDbEntity
  8
M04
100
AcDbLine
 10
848.758914
 20
661.943414
 30
0.0
 11
858.758914
 21
671.943414
 31
0.0
  0
LINE
  5
666
100
AcDbEntity
  8
M04
100
AcDbLine
 10
858.758914
 20
682.614892
 30
0.0
 11
858.758914
 21
671.943414
 31
0.0
  0
LINE
  5
667
100
AcDbEntity
  8
M04
100
AcDbLine
 10
802.758914
 20
661.943414
 30
0.0
 11
876.758914
 21
661.943414
 31
0.0
  0
LINE
  5
668
102
{ACAD_REACTORS
330
C9
102
}
100
AcDbEntity
  8
M01
100
AcDbLine
 10
848.758914
 20
381.943414
 30
0.0
 11
859.758914
 21
381.943414
 31
0.0
  0
LINE
  5
669
102
{ACAD_REACTORS
330
C8
102
}
100
AcDbEntity
  8
M01
100
AcDbLine
 10
848.758914
 20
389.943414
 30
0.0
 11
859.758914
 21
389.943414
 31
0.0
  0
LINE
  5
66A
100
AcDbEntity
  8
M04
100
AcDbLine
 10
876.758914
 20
366.443414
 30
0.0
 11
876.758914
 21
338.943414
 31
0.0
  0
LINE
  5
66B
100
AcDbEntity
  8
M04
100
AcDbLine
 10
787.449513
 20
596.443414
 30
0.0
 11
789.758914
 21
600.443414
 31
0.0
  0
LINE
  5
66C
100
AcDbEntity
  8
M04
100
AcDbLine
 10
789.758914
 20
592.443414
 30
0.0
 11
787.449513
 21
596.443414
 31
0.0
  0
LINE
  5
66D
100
AcDbEntity
  8
M04
100
AcDbLine
 10
792.758914
 20
592.443414
 30
0.0
 11
789.758914
 21
592.443414
 31
0.0
  0
LINE
  5
66E
100
AcDbEntity
  8
M04
100
AcDbLine
 10
789.758914
 20
600.443414
 30
0.0
 11
789.758914
 21
592.443414
 31
0.0
  0
LINE
  5
66F
100
AcDbEntity
  8
M04
100
AcDbLine
 10
792.758914
 20
600.443414
 30
0.0
 11
789.758914
 21
600.443414
 31
0.0
  0
ARC
  5
670
100
AcDbEntity
  8
M05
100
AcDbCircle
 10
802.096619
 20
596.443414
 30
0.0
 40
10.837705
100
AcDbArc
 50
161.372238
 51
198.627762
  0
LINE
  5
671
100
AcDbEntity
  8
M05
100
AcDbLine
 10
792.758914
 20
592.443414
 30
0.0
 11
791.826661
 21
592.981651
 31
0.0
  0
LINE
  5
672
100
AcDbEntity
  8
M05
100
AcDbLine
 10
791.826661
 20
599.905177
 30
0.0
 11
791.826661
 21
592.981651
 31
0.0
  0
LINE
  5
673
100
AcDbEntity
  8
M05
100
AcDbLine
 10
792.758914
 20
600.443414
 30
0.0
 11
791.826661
 21
599.905177
 31
0.0
  0
LINE
  5
674
100
AcDbEntity
  8
M05
100
AcDbLine
 10
792.758914
 20
600.443414
 30
0.0
 11
792.758914
 21
592.443414
 31
0.0
  0
LINE
  5
675
100
AcDbEntity
  8
M04
100
AcDbLine
 10
802.758914
 20
592.443414
 30
0.0
 11
802.758914
 21
395.443414
 31
0.0
  0
LINE
  5
676
100
AcDbEntity
  8
M04
100
AcDbLine
 10
802.258914
 20
592.443414
 30
0.0
 11
802.758914
 21
591.943414
 31
0.0
  0
LINE
  5
677
100
AcDbEntity
  8
M04
100
AcDbLine
 10
802.258914
 20
600.443414
 30
0.0
 11
802.758914
 21
600.943414
 31
0.0
  0
ARC
  5
678
100
AcDbEntity
  8
M05
100
AcDbCircle
 10
801.625581
 20
596.443414
 30
0.0
 40
13.633333
100
AcDbArc
 50
342.938469
 51
17.061531
  0
LINE
  5
679
100
AcDbEntity
  8
M05
100
AcDbLine
 10
814.658914
 20
600.443414
 30
0.0
 11
814.658914
 21
592.443414
 31
0.0
  0
LINE
  5
67A
100
AcDbEntity
  8
M05
100
AcDbLine
 10
792.758914
 20
592.443414
 30
0.0
 11
814.658914
 21
592.443414
 31
0.0
  0
LINE
  5
67B
100
AcDbEntity
  8
M05
100
AcDbLine
 10
792.758914
 20
600.443414
 30
0.0
 11
814.658914
 21
600.443414
 31
0.0
  0
LINE
  5
67C
102
{ACAD_REACTORS
330
C9
330
C8
102
}
100
AcDbEntity
  8
CENTRE
100
AcDbLine
 10
786.933992
 20
385.943414
 30
0.0
 11
909.650954
 21
385.943414
 31
0.0
  0
LINE
  5
67D
100
AcDbEntity
  8
CENTRE
100
AcDbLine
 10
782.412796
 20
596.443414
 30
0.0
 11
820.502496
 21
596.443414
 31
0.0
  0
LINE
  5
67E
100
AcDbEntity
  8
M04
100
AcDbLine
 10
876.758914
 20
682.614892
 30
0.0
 11
876.758914
 21
538.943414
 31
0.0
  0
LINE
  5
67F
100
AcDbEntity
  8
M04
100
AcDbLine
 10
802.758914
 20
192.943414
 30
0.0
 11
876.758914
 21
192.943414
 31
0.0
  0
LINE
  5
680
100
AcDbEntity
  8
M04
100
AcDbLine
 10
802.758914
 20
661.943414
 30
0.0
 11
802.758914
 21
600.443414
 31
0.0
  0
LINE
  5
681
102
{ACAD_REACTORS
330
12B
102
}
100
AcDbEntity
  8
M02
100
AcDbLine
 10
809.758914
 20
589.943414
 30
0.0
 11
806.758914
 21
589.943414
 31
0.0
  0
LINE
  5
682
102
{ACAD_REACTORS
330
C8
102
}
100
AcDbEntity
  8
M01
100
AcDbLine
 10
809.758914
 20
589.943414
 30
0.0
 11
815.758914
 21
589.943414
 31
0.0
  0
LINE
  5
683
100
AcDbEntity
  8
M01
100
AcDbLine
 10
815.758914
 20
601.943414
 30
0.0
 11
815.758914
 21
589.943414
 31
0.0
  0
LINE
  5
684
102
{ACAD_REACTORS
330
12C
102
}
100
AcDbEntity
  8
M02
100
AcDbLine
 10
869.758914
 20
599.943414
 30
0.0
 11
872.758914
 21
599.943414
 31
0.0
  0
LINE
  5
685
102
{ACAD_REACTORS
330
10A
102
}
100
AcDbEntity
  8
M02
100
AcDbLine
 10
809.758914
 20
201.943414
 30
0.0
 11
806.758914
 21
201.943414
 31
0.0
  0
LINE
  5
686
102
{ACAD_REACTORS
330
12C
102
}
100
AcDbEntity
  8
M02
100
AcDbLine
 10
872.758914
 20
599.943414
 30
0.0
 11
872.758914
 21
549.943414
 31
0.0
  0
LINE
  5
687
102
{ACAD_REACTORS
330
12B
102
}
100
AcDbEntity
  8
M02
100
AcDbLine
 10
806.758914
 20
592.443414
 30
0.0
 11
806.758914
 21
395.443414
 31
0.0
  0
LINE
  5
688
102
{ACAD_REACTORS
330
C9
102
}
100
AcDbEntity
  8
M01
100
AcDbLine
 10
869.758914
 20
201.943414
 30
0.0
 11
867.758914
 21
199.943414
 31
0.0
  0
LINE
  5
689
102
{ACAD_REACTORS
330
C8
102
}
100
AcDbEntity
  8
M01
100
AcDbLine
 10
867.758914
 20
601.943414
 30
0.0
 11
869.758914
 21
599.943414
 31
0.0
  0
LINE
  5
68A
100
AcDbEntity
  8
M01
100
AcDbLine
 10
810.758914
 20
600.943414
 30
0.0
 11
811.758914
 21
601.943414
 31
0.0
  0
LINE
  5
68B
102
{ACAD_REACTORS
330
C9
102
}
100
AcDbEntity
  8
M01
100
AcDbLine
 10
811.758914
 20
199.943414
 30
0.0
 11
809.758914
 21
201.943414
 31
0.0
  0
LINE
  5
68C
102
{ACAD_REACTORS
330
12C
330
C8
330
C7
102
}
100
AcDbEntity
  8
M01
100
AcDbLine
 10
869.758914
 20
599.943414
 30
0.0
 11
869.758914
 21
414.943414
 31
0.0
  0
LINE
  5
68D
102
{ACAD_REACTORS
330
C9
102
}
100
AcDbEntity
  8
M01
100
AcDbLine
 10
811.758914
 20
199.943414
 30
0.0
 11
867.758914
 21
199.943414
 31
0.0
  0
LINE
  5
68E
102
{ACAD_REACTORS
330
C8
102
}
100
AcDbEntity
  8
M01
100
AcDbLine
 10
811.758914
 20
601.943414
 30
0.0
 11
867.758914
 21
601.943414
 31
0.0
  0
LINE
  5
68F
102
{ACAD_REACTORS
330
12B
330
C8
102
}
100
AcDbEntity
  8
M01
100
AcDbLine
 10
809.758914
 20
592.443414
 30
0.0
 11
809.758914
 21
395.443414
 31
0.0
  0
LINE
  5
690
100
AcDbEntity
  8
M03
100
AcDbLine
 10
529.216199
 20
238.771841
 30
0.0
 11
629.216199
 21
338.771841
 31
0.0
  0
LINE
  5
691
100
AcDbEntity
  8
M03
100
AcDbLine
 10
534.873054
 20
233.114987
 30
0.0
 11
582.044627
 21
280.28656
 31
0.0
  0
LINE
  5
692
100
AcDbEntity
  8
CENTRE
100
AcDbLine
 10
517.902491
 20
221.801278
 30
0.0
 11
646.186762
 21
350.08555
 31
0.0
  0
CIRCLE
  5
693
100
AcDbEntity
  8
M01
100
AcDbCircle
 10
532.044627
 20
235.943414
 30
0.0
 40
4.0
  0
LINE
  5
694
100
AcDbEntity
  8
CENTRE
100
AcDbLine
 10
482.044627
 20
497.257123
 30
0.0
 11
482.044627
 21
274.629706
 31
0.0
  0
ENDSEC
  0
SECTION
  2
OBJECTS
  0
DICTIONARY
  5
1C
100
AcDbDictionary
  3
ACAD_GROUP
350
1A
  3
ACAD_MLINESTYLE
350
1B
  0
DICTIONARY
  5
3
100
AcDbDictionary
280
     1
  3
ACAD_SORTENTS
360
4
  0
DICTIONARY
  5
1A
102
{ACAD_REACTORS
330
1C
102
}
100
AcDbDictionary
  0
DICTIONARY
  5
1B
102
{ACAD_REACTORS
330
1C
102
}
100
AcDbDictionary
  3
STANDARD
350
1E
  0
SORTENTSTABLE
  5
4
102
{ACAD_REACTORS
330
3
102
}
100
AcDbSortentsTable
330
2
  0
MLINESTYLE
  5
1E
102
{ACAD_REACTORS
330
1B
102
}
100
AcDbMlineStyle
  2
STANDARD
 70
     0
  3

 62
   256
 51
90.0
 52
90.0
 71
     2
 49
0.5
 62
   256
  6
BYLAYER
 49
-0.5
 62
   256
  6
BYLAYER
  0
ENDSEC
  0
EOF
