  0
SECTION
  2
HEADER
  9
$ACADVER
  1
AC1014
  9
$ACADMAINTVER
 70
     9
  9
$DWGCODEPAGE
  3
ANSI_1252
  9
$INSBASE
 10
0.0
 20
0.0
 30
0.0
  9
$EXTMIN
 10
173.782646
 20
74.128736
 30
-0.222949
  9
$EXTMAX
 10
1173.151693
 20
726.150925
 30
0.0
  9
$LIMMIN
 10
0.0
 20
0.0
  9
$LIMMAX
 10
1189.0
 20
841.0
  9
$ORTHOMODE
 70
     1
  9
$REGENMODE
 70
     1
  9
$FILLMODE
 70
     1
  9
$QTEXTMODE
 70
     0
  9
$MIRRTEXT
 70
     1
  9
$DRAGMODE
 70
     2
  9
$LTSCALE
 40
8.0
  9
$OSMODE
 70
     0
  9
$ATTMODE
 70
     1
  9
$TEXTSIZE
 40
3.0
  9
$TRACEWID
 40
10.0
  9
$TEXTSTYLE
  7
STANDARD
  9
$CLAYER
  8
HATCH
  9
$CELTYPE
  6
BYLAYER
  9
$CECOLOR
 62
   256
  9
$CELTSCALE
 40
1.0
  9
$DELOBJ
 70
     1
  9
$DISPSILH
 70
     0
  9
$DIMSCALE
 40
1.0
  9
$DIMASZ
 40
3.0
  9
$DIMEXO
 40
1.0
  9
$DIMDLI
 40
10.0
  9
$DIMRND
 40
0.01
  9
$DIMDLE
 40
1.25
  9
$DIMEXE
 40
2.5
  9
$DIMTP
 40
0.05
  9
$DIMTM
 40
0.0
  9
$DIMTXT
 40
3.0
  9
$DIMCEN
 40
-1.7
  9
$DIMTSZ
 40
0.0
  9
$DIMTOL
 70
     0
  9
$DIMLIM
 70
     0
  9
$DIMTIH
 70
     0
  9
$DIMTOH
 70
     0
  9
$DIMSE1
 70
     0
  9
$DIMSE2
 70
     0
  9
$DIMTAD
 70
     3
  9
$DIMZIN
 70
     1
  9
$DIMBLK
  1

  9
$DIMASO
 70
     1
  9
$DIMSHO
 70
     0
  9
$DIMPOST
  1

  9
$DIMAPOST
  1

  9
$DIMALT
 70
     0
  9
$DIMALTD
 70
     2
  9
$DIMALTF
 40
0.039
  9
$DIMLFAC
 40
1.0
  9
$DIMTOFL
 70
     0
  9
$DIMTVP
 40
1.5
  9
$DIMTIX
 70
     0
  9
$DIMSOXD
 70
     0
  9
$DIMSAH
 70
     0
  9
$DIMBLK1
  1

  9
$DIMBLK2
  1

  9
$DIMSTYLE
  2
DIM1
  9
$DIMCLRD
 70
     4
  9
$DIMCLRE
 70
     4
  9
$DIMCLRT
 70
     2
  9
$DIMTFAC
 40
0.7
  9
$DIMGAP
 40
1.5
  9
$DIMJUST
 70
     0
  9
$DIMSD1
 70
     0
  9
$DIMSD2
 70
     0
  9
$DIMTOLJ
 70
     1
  9
$DIMTZIN
 70
     1
  9
$DIMALTZ
 70
     1
  9
$DIMALTTZ
 70
     1
  9
$DIMFIT
 70
     0
  9
$DIMUPT
 70
     0
  9
$DIMUNIT
 70
     2
  9
$DIMDEC
 70
     2
  9
$DIMTDEC
 70
     2
  9
$DIMALTU
 70
     2
  9
$DIMALTTD
 70
     2
  9
$DIMTXSTY
  7
STANDARD
  9
$DIMAUNIT
 70
     0
  9
$LUNITS
 70
     2
  9
$LUPREC
 70
     2
  9
$SKETCHINC
 40
1.0
  9
$FILLETRAD
 40
5.0
  9
$AUNITS
 70
     0
  9
$AUPREC
 70
     3
  9
$MENU
  1
ACAD
  9
$ELEVATION
 40
0.0
  9
$PELEVATION
 40
0.0
  9
$THICKNESS
 40
0.0
  9
$LIMCHECK
 70
     0
  9
$BLIPMODE
 70
     1
  9
$CHAMFERA
 40
7.0
  9
$CHAMFERB
 40
7.0
  9
$CHAMFERC
 40
0.0
  9
$CHAMFERD
 40
0.0
  9
$SKPOLY
 70
     1
  9
$TDCREATE
 40
2449993.725698611
  9
$TDUPDATE
 40
2452213.721271921
  9
$TDINDWG
 40
1.5556298495
  9
$TDUSRTIMER
 40
1.5556298495
  9
$USRTIMER
 70
     1
  9
$ANGBASE
 50
0.0
  9
$ANGDIR
 70
     0
  9
$PDMODE
 70
     3
  9
$PDSIZE
 40
0.0
  9
$PLINEWID
 40
0.0
  9
$COORDS
 70
     2
  9
$SPLFRAME
 70
     0
  9
$SPLINETYPE
 70
     6
  9
$SPLINESEGS
 70
     6
  9
$ATTDIA
 70
     1
  9
$ATTREQ
 70
     1
  9
$HANDLING
 70
     1
  9
$HANDSEED
  5
613
  9
$SURFTAB1
 70
    12
  9
$SURFTAB2
 70
    12
  9
$SURFTYPE
 70
     6
  9
$SURFU
 70
    12
  9
$SURFV
 70
    12
  9
$UCSNAME
  2

  9
$UCSORG
 10
0.0
 20
0.0
 30
0.0
  9
$UCSXDIR
 10
1.0
 20
0.0
 30
0.0
  9
$UCSYDIR
 10
0.0
 20
1.0
 30
0.0
  9
$PUCSNAME
  2

  9
$PUCSORG
 10
0.0
 20
0.0
 30
0.0
  9
$PUCSXDIR
 10
1.0
 20
0.0
 30
0.0
  9
$PUCSYDIR
 10
0.0
 20
1.0
 30
0.0
  9
$USERI1
 70
     0
  9
$USERI2
 70
     0
  9
$USERI3
 70
     0
  9
$USERI4
 70
     0
  9
$USERI5
 70
     0
  9
$USERR1
 40
0.0
  9
$USERR2
 40
0.0
  9
$USERR3
 40
0.0
  9
$USERR4
 40
0.0
  9
$USERR5
 40
0.0
  9
$WORLDVIEW
 70
     0
  9
$SHADEDGE
 70
     3
  9
$SHADEDIF
 70
    70
  9
$TILEMODE
 70
     1
  9
$MAXACTVP
 70
    16
  9
$PINSBASE
 10
0.0
 20
0.0
 30
0.0
  9
$PLIMCHECK
 70
     0
  9
$PEXTMIN
 10
1.000000E+20
 20
1.000000E+20
 30
1.000000E+20
  9
$PEXTMAX
 10
-1.000000E+20
 20
-1.000000E+20
 30
-1.000000E+20
  9
$PLIMMIN
 10
0.0
 20
0.0
  9
$PLIMMAX
 10
12.0
 20
9.0
  9
$UNITMODE
 70
     0
  9
$VISRETAIN
 70
     0
  9
$PLINEGEN
 70
     0
  9
$PSLTSCALE
 70
     0
  9
$TREEDEPTH
 70
  3020
  9
$PICKSTYLE
 70
     1
  9
$CMLSTYLE
  2
STANDARD
  9
$CMLJUST
 70
     0
  9
$CMLSCALE
 40
1.0
  9
$PROXYGRAPHICS
 70
     1
  9
$MEASUREMENT
 70
     0
  0
ENDSEC
  0
SECTION
  2
CLASSES
  0
CLASS
  1
DICTIONARYVAR
  2
AcDbDictionaryVar
  3
"AutoCAD"
 90
        0
280
     0
281
     0
  0
CLASS
  1
LWPOLYLINE
  2
AcDbPolyline
  3
"AutoCAD"
 90
        0
280
     0
281
     1
  0
CLASS
  1
HATCH
  2
AcDbHatch
  3
"ACAD_SEDONA"
 90
        0
280
     0
281
     1
  0
CLASS
  1
SORTENTSTABLE
  2
AcDbSortentsTable
  3
"AutoCAD"
 90
        0
280
     0
281
     0
  0
CLASS
  1
WIPEOUTVARIABLES
  2
AcDbWipeoutVariables
  3
WIPEOUT
 90
        0
280
     0
281
     0
  0
CLASS
  1
WIPEOUT
  2
AcDbWipeout
  3
WIPEOUT
 90
      127
280
     0
281
     1
  0
ENDSEC
  0
SECTION
  2
TABLES
  0
TABLE
  2
VPORT
  5
14
100
AcDbSymbolTable
 70
     2
  0
VPORT
  5
612
100
AcDbSymbolTableRecord
100
AcDbViewportTableRecord
  2
*ACTIVE
 70
     0
 10
0.0
 20
0.0
 11
1.0
 21
1.0
 12
602.038644
 22
407.720885
 13
0.0
 23
0.0
 14
10.0
 24
10.0
 15
0.0
 25
0.0
 16
0.0
 26
0.0
 36
1.0
 17
16.313321
 27
12.779115
 37
0.222949
 40
841.0
 41
1.470516
 42
50.0
 43
0.0
 44
0.0
 50
0.0
 51
0.0
 71
     0
 72
  2000
 73
     1
 74
     2
 75
     0
 76
     0
 77
     0
 78
     1
  0
ENDTAB
  0
TABLE
  2
LTYPE
  5
F
100
AcDbSymbolTable
 70
     3
  0
LTYPE
  5
10
100
AcDbSymbolTableRecord
100
AcDbLinetypeTableRecord
  2
BYBLOCK
 70
     0
  3

 72
    65
 73
     0
 40
0.0
  0
LTYPE
  5
11
100
AcDbSymbolTableRecord
100
AcDbLinetypeTableRecord
  2
BYLAYER
 70
     0
  3

 72
    65
 73
     0
 40
0.0
  0
LTYPE
  5
7
100
AcDbSymbolTableRecord
100
AcDbLinetypeTableRecord
  2
CONTINUOUS
 70
     0
  3
Solid line
 72
    65
 73
     0
 40
0.0
  0
LTYPE
  5
152
100
AcDbSymbolTableRecord
100
AcDbLinetypeTableRecord
  2
CENTER
 70
     0
  3
Center ____ _ ____ _ ____ _ ____ _ ____ _ ____
 72
    65
 73
     4
 40
2.0
 49
1.25
 74
     0
 49
-0.25
 74
     0
 49
0.25
 74
     0
 49
-0.25
 74
     0
  0
LTYPE
  5
121
100
AcDbSymbolTableRecord
100
AcDbLinetypeTableRecord
  2
HIDDEN
 70
     0
  3
Hidden __ __ __ __ __ __ __ __ __ __ __ __ __ _
 72
    65
 73
     2
 40
0.375
 49
0.25
 74
     0
 49
-0.125
 74
     0
  0
ENDTAB
  0
TABLE
  2
LAYER
  5
C
100
AcDbSymbolTable
 70
    11
  0
LAYER
  5
6
100
AcDbSymbolTableRecord
100
AcDbLayerTableRecord
  2
0
 70
     0
 62
     7
  6
CONTINUOUS
  0
LAYER
  5
151
100
AcDbSymbolTableRecord
100
AcDbLayerTableRecord
  2
CENTRE
 70
     0
 62
     3
  6
CENTER
  0
LAYER
  5
32
100
AcDbSymbolTableRecord
100
AcDbLayerTableRecord
  2
M01
 70
     0
 62
     1
  6
CONTINUOUS
  0
LAYER
  5
124
100
AcDbSymbolTableRecord
100
AcDbLayerTableRecord
  2
M02
 70
     0
 62
     2
  6
CONTINUOUS
  0
LAYER
  5
120
100
AcDbSymbolTableRecord
100
AcDbLayerTableRecord
  2
M03
 70
     0
 62
     2
  6
HIDDEN
  0
LAYER
  5
21
100
AcDbSymbolTableRecord
100
AcDbLayerTableRecord
  2
M04
 70
     0
 62
     7
  6
CONTINUOUS
  0
LAYER
  5
24C
100
AcDbSymbolTableRecord
100
AcDbLayerTableRecord
  2
M05
 70
     0
 62
     5
  6
CONTINUOUS
  0
LAYER
  5
49
100
AcDbSymbolTableRecord
100
AcDbLayerTableRecord
  2
DIMS
 70
     0
 62
     4
  6
CONTINUOUS
  0
LAYER
  5
41
100
AcDbSymbolTableRecord
100
AcDbLayerTableRecord
  2
TEXT
 70
     0
 62
     2
  6
CONTINUOUS
  0
LAYER
  5
1D
100
AcDbSymbolTableRecord
100
AcDbLayerTableRecord
  2
HATCH
 70
     0
 62
     4
  6
CONTINUOUS
  0
LAYER
  5
52
100
AcDbSymbolTableRecord
100
AcDbLayerTableRecord
  2
DEFPOINTS
 70
     0
 62
     7
  6
CONTINUOUS
  0
ENDTAB
  0
TABLE
  2
STYLE
  5
D
100
AcDbSymbolTable
 70
     1
  0
STYLE
  5
E
100
AcDbSymbolTableRecord
100
AcDbTextStyleTableRecord
  2
STANDARD
 70
     0
 40
0.0
 41
1.0
 50
0.0
 71
     0
 42
3.0
  3
SIMPLEX
  4

  0
ENDTAB
  0
TABLE
  2
VIEW
  5
12
100
AcDbSymbolTable
 70
     0
  0
ENDTAB
  0
TABLE
  2
UCS
  5
13
100
AcDbSymbolTable
 70
     0
  0
ENDTAB
  0
TABLE
  2
APPID
  5
16
100
AcDbSymbolTable
 70
     1
  0
APPID
  5
17
100
AcDbSymbolTableRecord
100
AcDbRegAppTableRecord
  2
ACAD
 70
     0
  0
ENDTAB
  0
TABLE
  2
DIMSTYLE
  5
18
100
AcDbSymbolTable
 70
     2
  0
DIMSTYLE
105
1F
102
{ACAD_REACTORS
330
570
330
562
330
554
330
547
330
539
330
477
330
469
330
45C
330
44E
330
A2
330
96
330
89
330
7C
330
6F
330
63
330
57
330
48
102
}
100
AcDbSymbolTableRecord
100
AcDbDimStyleTableRecord
  2
DIM1
 70
     0
  3

  4

  5

  6

  7

 40
1.0
 41
3.0
 42
1.0
 43
10.0
 44
2.5
 45
0.01
 46
1.25
 47
0.05
 48
0.0
140
3.0
141
-1.7
142
0.0
143
0.039
144
0.2
145
1.5
146
0.7
147
1.5
 71
     0
 72
     0
 73
     0
 74
     0
 75
     0
 76
     0
 77
     3
 78
     1
170
     0
171
     2
172
     0
173
     0
174
     0
175
     0
176
     4
177
     4
178
     2
270
     2
271
     2
272
     2
273
     2
274
     2
340
E
275
     0
280
     0
281
     0
282
     0
283
     1
284
     1
285
     1
286
     1
287
     0
288
     0
  0
DIMSTYLE
105
28B
100
AcDbSymbolTableRecord
100
AcDbDimStyleTableRecord
  2
DIM1$7
 70
     0
  3

  4

  5

  6

  7

 40
1.0
 41
3.0
 42
1.0
 43
10.0
 44
2.5
 45
0.01
 46
1.25
 47
0.0
 48
0.0
140
3.0
141
-1.7
142
0.0
143
0.039
144
1.0
145
0.0
146
1.0
147
1.5
 71
     0
 72
     0
 73
     0
 74
     0
 75
     0
 76
     0
 77
     0
 78
     1
170
     0
171
     2
172
     0
173
     0
174
     0
175
     0
176
     4
177
     4
178
     2
270
     2
271
     2
272
     2
273
     2
274
     2
340
E
275
     0
280
     0
281
     0
282
     0
283
     1
284
     1
285
     1
286
     1
287
     0
288
     0
  0
ENDTAB
  0
TABLE
  2
BLOCK_RECORD
  5
1
100
AcDbSymbolTable
 70
    17
  0
BLOCK_RECORD
  5
2
102
{ACAD_XDICTIONARY
360
3
102
}
100
AcDbSymbolTableRecord
100
AcDbBlockTableRecord
  2
*MODEL_SPACE
  0
BLOCK_RECORD
  5
9
100
AcDbSymbolTableRecord
100
AcDbBlockTableRecord
  2
*PAPER_SPACE
  0
BLOCK_RECORD
  5
571
100
AcDbSymbolTableRecord
100
AcDbBlockTableRecord
  2
*D0
  0
BLOCK_RECORD
  5
563
100
AcDbSymbolTableRecord
100
AcDbBlockTableRecord
  2
*D1
  0
BLOCK_RECORD
  5
555
100
AcDbSymbolTableRecord
100
AcDbBlockTableRecord
  2
*D2
  0
BLOCK_RECORD
  5
548
100
AcDbSymbolTableRecord
100
AcDbBlockTableRecord
  2
*D3
  0
BLOCK_RECORD
  5
53A
100
AcDbSymbolTableRecord
100
AcDbBlockTableRecord
  2
*D4
  0
BLOCK_RECORD
  5
478
100
AcDbSymbolTableRecord
100
AcDbBlockTableRecord
  2
*D5
  0
BLOCK_RECORD
  5
46A
100
AcDbSymbolTableRecord
100
AcDbBlockTableRecord
  2
*D6
  0
BLOCK_RECORD
  5
45D
100
AcDbSymbolTableRecord
100
AcDbBlockTableRecord
  2
*D7
  0
BLOCK_RECORD
  5
44F
100
AcDbSymbolTableRecord
100
AcDbBlockTableRecord
  2
*D8
  0
BLOCK_RECORD
  5
A3
100
AcDbSymbolTableRecord
100
AcDbBlockTableRecord
  2
*D9
  0
BLOCK_RECORD
  5
97
100
AcDbSymbolTableRecord
100
AcDbBlockTableRecord
  2
*D10
  0
BLOCK_RECORD
  5
8A
100
AcDbSymbolTableRecord
100
AcDbBlockTableRecord
  2
*D11
  0
BLOCK_RECORD
  5
7D
100
AcDbSymbolTableRecord
100
AcDbBlockTableRecord
  2
*D12
  0
BLOCK_RECORD
  5
70
100
AcDbSymbolTableRecord
100
AcDbBlockTableRecord
  2
*D13
  0
BLOCK_RECORD
  5
64
100
AcDbSymbolTableRecord
100
AcDbBlockTableRecord
  2
*D14
  0
BLOCK_RECORD
  5
58
100
AcDbSymbolTableRecord
100
AcDbBlockTableRecord
  2
*D15
  0
BLOCK_RECORD
  5
4A
100
AcDbSymbolTableRecord
100
AcDbBlockTableRecord
  2
*D16
  0
ENDTAB
  0
ENDSEC
  0
SECTION
  2
BLOCKS
  0
BLOCK
  5
5
100
AcDbEntity
  8
0
100
AcDbBlockBegin
  2
*MODEL_SPACE
 70
     0
 10
0.0
 20
0.0
 30
0.0
  3
*MODEL_SPACE
  1

  0
ENDBLK
  5
8
100
AcDbEntity
  8
0
100
AcDbBlockEnd
  0
BLOCK
  5
A
100
AcDbEntity
 67
     1
  8
0
100
AcDbBlockBegin
  2
*PAPER_SPACE
 70
     0
 10
0.0
 20
0.0
 30
0.0
  3
*PAPER_SPACE
  1

  0
ENDBLK
  5
B
100
AcDbEntity
 67
     1
  8
0
100
AcDbBlockEnd
  0
BLOCK
  5
57B
100
AcDbEntity
  8
0
100
AcDbBlockBegin
  2
*D0
 70
     1
 10
0.0
 20
0.0
 30
0.0
  3
*D0
  1

  0
LINE
  5
572
100
AcDbEntity
  8
0
  6
BYBLOCK
 62
     4
100
AcDbLine
 10
788.080464
 20
293.337706
 30
0.0
 11
788.080464
 21
251.365009
 31
0.0
  0
LINE
  5
573
100
AcDbEntity
  8
0
  6
BYBLOCK
 62
     4
100
AcDbLine
 10
848.080464
 20
291.337706
 30
0.0
 11
848.080464
 21
251.365009
 31
0.0
  0
LINE
  5
574
100
AcDbEntity
  8
0
  6
BYBLOCK
 62
     4
100
AcDbLine
 10
791.080464
 20
253.865009
 30
0.0
 11
845.080464
 21
253.865009
 31
0.0
  0
SOLID
  5
575
100
AcDbEntity
  8
0
  6
BYBLOCK
 62
     4
100
AcDbTrace
 10
791.080464
 20
254.365009
 30
0.0
 11
791.080464
 21
253.365009
 31
0.0
 12
788.080464
 22
253.865009
 32
0.0
 13
788.080464
 23
253.865009
 33
0.0
  0
SOLID
  5
576
100
AcDbEntity
  8
0
  6
BYBLOCK
 62
     4
100
AcDbTrace
 10
845.080464
 20
254.365009
 30
0.0
 11
845.080464
 21
253.365009
 31
0.0
 12
848.080464
 22
253.865009
 32
0.0
 13
848.080464
 23
253.865009
 33
0.0
  0
MTEXT
  5
577
100
AcDbEntity
  8
0
  6
BYBLOCK
 62
     2
100
AcDbMText
 10
818.080464
 20
256.865009
 30
0.0
 40
3.0
 41
0.0
 71
     5
 72
     1
  1
\A1;60.00
  0
POINT
  5
578
100
AcDbEntity
  8
DEFPOINTS
  6
BYBLOCK
 62
     0
100
AcDbPoint
 10
788.080464
 20
294.337706
 30
0.0
  0
POINT
  5
579
100
AcDbEntity
  8
DEFPOINTS
  6
BYBLOCK
 62
     0
100
AcDbPoint
 10
848.080464
 20
292.337706
 30
0.0
  0
POINT
  5
57A
100
AcDbEntity
  8
DEFPOINTS
  6
BYBLOCK
 62
     0
100
AcDbPoint
 10
848.080464
 20
253.865009
 30
0.0
  0
ENDBLK
  5
57C
100
AcDbEntity
  8
0
100
AcDbBlockEnd
  0
BLOCK
  5
56E
100
AcDbEntity
  8
0
100
AcDbBlockBegin
  2
*D1
 70
     1
 10
0.0
 20
0.0
 30
0.0
  3
*D1
  1

  0
LINE
  5
564
100
AcDbEntity
  8
0
  6
BYBLOCK
 62
     4
100
AcDbLine
 10
848.080464
 20
293.337706
 30
0.0
 11
848.080464
 21
251.365009
 31
0.0
  0
LINE
  5
565
100
AcDbEntity
  8
0
  6
BYBLOCK
 62
     4
100
AcDbLine
 10
855.080464
 20
272.824315
 30
0.0
 11
855.080464
 21
251.365009
 31
0.0
  0
LINE
  5
566
100
AcDbEntity
  8
0
  6
BYBLOCK
 62
     4
100
AcDbLine
 10
845.080464
 20
253.865009
 30
0.0
 11
842.080464
 21
253.865009
 31
0.0
  0
LINE
  5
567
100
AcDbEntity
  8
0
  6
BYBLOCK
 62
     4
100
AcDbLine
 10
858.080464
 20
253.865009
 30
0.0
 11
870.366178
 21
253.865009
 31
0.0
  0
SOLID
  5
568
100
AcDbEntity
  8
0
  6
BYBLOCK
 62
     4
100
AcDbTrace
 10
845.080464
 20
254.365009
 30
0.0
 11
845.080464
 21
253.365009
 31
0.0
 12
848.080464
 22
253.865009
 32
0.0
 13
848.080464
 23
253.865009
 33
0.0
  0
SOLID
  5
569
100
AcDbEntity
  8
0
  6
BYBLOCK
 62
     4
100
AcDbTrace
 10
858.080464
 20
254.365009
 30
0.0
 11
858.080464
 21
253.365009
 31
0.0
 12
855.080464
 22
253.865009
 32
0.0
 13
855.080464
 23
253.865009
 33
0.0
  0
MTEXT
  5
56A
100
AcDbEntity
  8
0
  6
BYBLOCK
 62
     2
100
AcDbMText
 10
865.723321
 20
256.865009
 30
0.0
 40
3.0
 41
0.0
 71
     5
 72
     1
  1
\A1;7.0
  0
POINT
  5
56B
100
AcDbEntity
  8
DEFPOINTS
  6
BYBLOCK
 62
     0
100
AcDbPoint
 10
848.080464
 20
294.337706
 30
0.0
  0
POINT
  5
56C
100
AcDbEntity
  8
DEFPOINTS
  6
BYBLOCK
 62
     0
100
AcDbPoint
 10
855.080464
 20
273.824315
 30
0.0
  0
POINT
  5
56D
100
AcDbEntity
  8
DEFPOINTS
  6
BYBLOCK
 62
     0
100
AcDbPoint
 10
855.080464
 20
253.865009
 30
0.0
  0
ENDBLK
  5
56F
100
AcDbEntity
  8
0
100
AcDbBlockEnd
  0
BLOCK
  5
560
100
AcDbEntity
  8
0
100
AcDbBlockBegin
  2
*D2
 70
     1
 10
0.0
 20
0.0
 30
0.0
  3
*D2
  1

  0
LINE
  5
556
100
AcDbEntity
  8
0
  6
BYBLOCK
 62
     4
100
AcDbLine
 10
788.080464
 20
293.337706
 30
0.0
 11
788.080464
 21
251.365009
 31
0.0
  0
LINE
  5
557
100
AcDbEntity
  8
0
  6
BYBLOCK
 62
     4
100
AcDbLine
 10
781.080464
 20
284.337706
 30
0.0
 11
781.080464
 21
251.365009
 31
0.0
  0
LINE
  5
558
100
AcDbEntity
  8
0
  6
BYBLOCK
 62
     4
100
AcDbLine
 10
791.080464
 20
253.865009
 30
0.0
 11
794.080464
 21
253.865009
 31
0.0
  0
LINE
  5
559
100
AcDbEntity
  8
0
  6
BYBLOCK
 62
     4
100
AcDbLine
 10
778.080464
 20
253.865009
 30
0.0
 11
765.794749
 21
253.865009
 31
0.0
  0
SOLID
  5
55A
100
AcDbEntity
  8
0
  6
BYBLOCK
 62
     4
100
AcDbTrace
 10
791.080464
 20
254.365009
 30
0.0
 11
791.080464
 21
253.365009
 31
0.0
 12
788.080464
 22
253.865009
 32
0.0
 13
788.080464
 23
253.865009
 33
0.0
  0
SOLID
  5
55B
100
AcDbEntity
  8
0
  6
BYBLOCK
 62
     4
100
AcDbTrace
 10
778.080464
 20
254.365009
 30
0.0
 11
778.080464
 21
253.365009
 31
0.0
 12
781.080464
 22
253.865009
 32
0.0
 13
781.080464
 23
253.865009
 33
0.0
  0
MTEXT
  5
55C
100
AcDbEntity
  8
0
  6
BYBLOCK
 62
     2
100
AcDbMText
 10
770.437606
 20
256.865009
 30
0.0
 40
3.0
 41
0.0
 71
     5
 72
     1
  1
\A1;7.0
  0
POINT
  5
55D
100
AcDbEntity
  8
DEFPOINTS
  6
BYBLOCK
 62
     0
100
AcDbPoint
 10
788.080464
 20
294.337706
 30
0.0
  0
POINT
  5
55E
100
AcDbEntity
  8
DEFPOINTS
  6
BYBLOCK
 62
     0
100
AcDbPoint
 10
781.080464
 20
285.337706
 30
0.0
  0
POINT
  5
55F
100
AcDbEntity
  8
DEFPOINTS
  6
BYBLOCK
 62
     0
100
AcDbPoint
 10
781.080464
 20
253.865009
 30
0.0
  0
ENDBLK
  5
561
100
AcDbEntity
  8
0
100
AcDbBlockEnd
  0
BLOCK
  5
552
100
AcDbEntity
  8
0
100
AcDbBlockBegin
  2
*D3
 70
     1
 10
0.0
 20
0.0
 30
0.0
  3
*D3
  1

  0
LINE
  5
549
100
AcDbEntity
  8
0
  6
BYBLOCK
 62
     4
100
AcDbLine
 10
864.080464
 20
453.247706
 30
0.0
 11
901.89558
 21
453.247706
 31
0.0
  0
LINE
  5
54A
100
AcDbEntity
  8
0
  6
BYBLOCK
 62
     4
100
AcDbLine
 10
864.080464
 20
493.247706
 30
0.0
 11
901.89558
 21
493.247706
 31
0.0
  0
LINE
  5
54B
100
AcDbEntity
  8
0
  6
BYBLOCK
 62
     4
100
AcDbLine
 10
899.39558
 20
456.247706
 30
0.0
 11
899.39558
 21
490.247706
 31
0.0
  0
SOLID
  5
54C
100
AcDbEntity
  8
0
  6
BYBLOCK
 62
     4
100
AcDbTrace
 10
898.89558
 20
456.247706
 30
0.0
 11
899.89558
 21
456.247706
 31
0.0
 12
899.39558
 22
453.247706
 32
0.0
 13
899.39558
 23
453.247706
 33
0.0
  0
SOLID
  5
54D
100
AcDbEntity
  8
0
  6
BYBLOCK
 62
     4
100
AcDbTrace
 10
898.89558
 20
490.247706
 30
0.0
 11
899.89558
 21
490.247706
 31
0.0
 12
899.39558
 22
493.247706
 32
0.0
 13
899.39558
 23
493.247706
 33
0.0
  0
MTEXT
  5
54E
100
AcDbEntity
  8
0
  6
BYBLOCK
 62
     2
100
AcDbMText
 10
896.39558
 20
473.247706
 30
0.0
 40
3.0
 41
0.0
 71
     5
 72
     1
  1
\A1;\U+220540.00 H7
 11
0.0
 21
1.0
 31
0.0
  0
POINT
  5
54F
100
AcDbEntity
  8
DEFPOINTS
  6
BYBLOCK
 62
     0
100
AcDbPoint
 10
863.080464
 20
453.247706
 30
0.0
  0
POINT
  5
550
100
AcDbEntity
  8
DEFPOINTS
  6
BYBLOCK
 62
     0
100
AcDbPoint
 10
863.080464
 20
493.247706
 30
0.0
  0
POINT
  5
551
100
AcDbEntity
  8
DEFPOINTS
  6
BYBLOCK
 62
     0
100
AcDbPoint
 10
899.39558
 20
493.247706
 30
0.0
  0
ENDBLK
  5
553
100
AcDbEntity
  8
0
100
AcDbBlockEnd
  0
BLOCK
  5
545
100
AcDbEntity
  8
0
100
AcDbBlockBegin
  2
*D4
 70
     1
 10
0.0
 20
0.0
 30
0.0
  3
*D4
  1

  0
LINE
  5
53B
100
AcDbEntity
  8
0
  6
BYBLOCK
 62
     4
100
AcDbLine
 10
767.080464
 20
660.747706
 30
0.0
 11
750.904299
 21
660.747706
 31
0.0
  0
LINE
  5
53C
100
AcDbEntity
  8
0
  6
BYBLOCK
 62
     4
100
AcDbLine
 10
767.080464
 20
652.747706
 30
0.0
 11
750.904299
 21
652.747706
 31
0.0
  0
LINE
  5
53D
100
AcDbEntity
  8
0
  6
BYBLOCK
 62
     4
100
AcDbLine
 10
753.404299
 20
663.747706
 30
0.0
 11
753.404299
 21
666.747706
 31
0.0
  0
LINE
  5
53E
100
AcDbEntity
  8
0
  6
BYBLOCK
 62
     4
100
AcDbLine
 10
753.404299
 20
649.747706
 30
0.0
 11
753.404299
 21
623.176278
 31
0.0
  0
SOLID
  5
53F
100
AcDbEntity
  8
0
  6
BYBLOCK
 62
     4
100
AcDbTrace
 10
752.904299
 20
663.747706
 30
0.0
 11
753.904299
 21
663.747706
 31
0.0
 12
753.404299
 22
660.747706
 32
0.0
 13
753.404299
 23
660.747706
 33
0.0
  0
SOLID
  5
540
100
AcDbEntity
  8
0
  6
BYBLOCK
 62
     4
100
AcDbTrace
 10
752.904299
 20
649.747706
 30
0.0
 11
753.904299
 21
649.747706
 31
0.0
 12
753.404299
 22
652.747706
 32
0.0
 13
753.404299
 23
652.747706
 33
0.0
  0
MTEXT
  5
541
100
AcDbEntity
  8
0
  6
BYBLOCK
 62
     2
100
AcDbMText
 10
750.404299
 20
634.961992
 30
0.0
 40
3.0
 41
0.0
 71
     5
 72
     1
  1
\A1;\U+22058.00 H7
 11
0.0
 21
1.0
 31
0.0
  0
POINT
  5
542
100
AcDbEntity
  8
DEFPOINTS
  6
BYBLOCK
 62
     0
100
AcDbPoint
 10
768.080464
 20
660.747706
 30
0.0
  0
POINT
  5
543
100
AcDbEntity
  8
DEFPOINTS
  6
BYBLOCK
 62
     0
100
AcDbPoint
 10
768.080464
 20
652.747706
 30
0.0
  0
POINT
  5
544
100
AcDbEntity
  8
DEFPOINTS
  6
BYBLOCK
 62
     0
100
AcDbPoint
 10
753.404299
 20
652.747706
 30
0.0
  0
ENDBLK
  5
546
100
AcDbEntity
  8
0
100
AcDbBlockEnd
  0
BLOCK
  5
483
100
AcDbEntity
  8
0
100
AcDbBlockBegin
  2
*D5
 70
     1
 10
0.0
 20
0.0
 30
0.0
  3
*D5
  1

  0
LINE
  5
479
100
AcDbEntity
  8
0
  6
BYBLOCK
 62
     4
100
AcDbLine
 10
788.080464
 20
462.747706
 30
0.0
 11
788.080464
 21
444.460689
 31
0.0
  0
LINE
  5
47A
100
AcDbEntity
  8
0
  6
BYBLOCK
 62
     4
100
AcDbLine
 10
771.080464
 20
462.247706
 30
0.0
 11
771.080464
 21
444.460689
 31
0.0
  0
LINE
  5
47B
100
AcDbEntity
  8
0
  6
BYBLOCK
 62
     4
100
AcDbLine
 10
791.080464
 20
446.960689
 30
0.0
 11
794.080464
 21
446.960689
 31
0.0
  0
LINE
  5
47C
100
AcDbEntity
  8
0
  6
BYBLOCK
 62
     4
100
AcDbLine
 10
768.080464
 20
446.960689
 30
0.0
 11
750.651892
 21
446.960689
 31
0.0
  0
SOLID
  5
47D
100
AcDbEntity
  8
0
  6
BYBLOCK
 62
     4
100
AcDbTrace
 10
791.080464
 20
447.460689
 30
0.0
 11
791.080464
 21
446.460689
 31
0.0
 12
788.080464
 22
446.960689
 32
0.0
 13
788.080464
 23
446.960689
 33
0.0
  0
SOLID
  5
47E
100
AcDbEntity
  8
0
  6
BYBLOCK
 62
     4
100
AcDbTrace
 10
768.080464
 20
447.460689
 30
0.0
 11
768.080464
 21
446.460689
 31
0.0
 12
771.080464
 22
446.960689
 32
0.0
 13
771.080464
 23
446.960689
 33
0.0
  0
MTEXT
  5
47F
100
AcDbEntity
  8
0
  6
BYBLOCK
 62
     2
100
AcDbMText
 10
757.866178
 20
449.960689
 30
0.0
 40
3.0
 41
0.0
 71
     5
 72
     1
  1
\A1;17.00
  0
POINT
  5
480
100
AcDbEntity
  8
DEFPOINTS
  6
BYBLOCK
 62
     0
100
AcDbPoint
 10
788.080464
 20
463.747706
 30
0.0
  0
POINT
  5
481
100
AcDbEntity
  8
DEFPOINTS
  6
BYBLOCK
 62
     0
100
AcDbPoint
 10
771.080464
 20
463.247706
 30
0.0
  0
POINT
  5
482
100
AcDbEntity
  8
DEFPOINTS
  6
BYBLOCK
 62
     0
100
AcDbPoint
 10
771.080464
 20
446.960689
 30
0.0
  0
ENDBLK
  5
484
100
AcDbEntity
  8
0
100
AcDbBlockEnd
  0
BLOCK
  5
475
100
AcDbEntity
  8
0
100
AcDbBlockBegin
  2
*D6
 70
     1
 10
0.0
 20
0.0
 30
0.0
  3
*D6
  1

  0
LINE
  5
46B
100
AcDbEntity
  8
0
  6
BYBLOCK
 62
     4
100
AcDbLine
 10
770.080464
 20
463.247706
 30
0.0
 11
750.930649
 21
463.247706
 31
0.0
  0
LINE
  5
46C
100
AcDbEntity
  8
0
  6
BYBLOCK
 62
     4
100
AcDbLine
 10
770.080464
 20
483.247706
 30
0.0
 11
750.930649
 21
483.247706
 31
0.0
  0
LINE
  5
46D
100
AcDbEntity
  8
0
  6
BYBLOCK
 62
     4
100
AcDbLine
 10
753.430649
 20
460.247706
 30
0.0
 11
753.430649
 21
457.247706
 31
0.0
  0
LINE
  5
46E
100
AcDbEntity
  8
0
  6
BYBLOCK
 62
     4
100
AcDbLine
 10
753.430649
 20
486.247706
 30
0.0
 11
753.430649
 21
515.676278
 31
0.0
  0
SOLID
  5
46F
100
AcDbEntity
  8
0
  6
BYBLOCK
 62
     4
100
AcDbTrace
 10
752.930649
 20
460.247706
 30
0.0
 11
753.930649
 21
460.247706
 31
0.0
 12
753.430649
 22
463.247706
 32
0.0
 13
753.430649
 23
463.247706
 33
0.0
  0
SOLID
  5
470
100
AcDbEntity
  8
0
  6
BYBLOCK
 62
     4
100
AcDbTrace
 10
752.930649
 20
486.247706
 30
0.0
 11
753.930649
 21
486.247706
 31
0.0
 12
753.430649
 22
483.247706
 32
0.0
 13
753.430649
 23
483.247706
 33
0.0
  0
MTEXT
  5
471
100
AcDbEntity
  8
0
  6
BYBLOCK
 62
     2
100
AcDbMText
 10
750.430649
 20
502.461992
 30
0.0
 40
3.0
 41
0.0
 71
     5
 72
     1
  1
\A1;\U+220520.00 H7
 11
0.0
 21
1.0
 31
0.0
  0
POINT
  5
472
100
AcDbEntity
  8
DEFPOINTS
  6
BYBLOCK
 62
     0
100
AcDbPoint
 10
771.080464
 20
463.247706
 30
0.0
  0
POINT
  5
473
100
AcDbEntity
  8
DEFPOINTS
  6
BYBLOCK
 62
     0
100
AcDbPoint
 10
771.080464
 20
483.247706
 30
0.0
  0
POINT
  5
474
100
AcDbEntity
  8
DEFPOINTS
  6
BYBLOCK
 62
     0
100
AcDbPoint
 10
753.430649
 20
483.247706
 30
0.0
  0
ENDBLK
  5
476
100
AcDbEntity
  8
0
100
AcDbBlockEnd
  0
BLOCK
  5
467
100
AcDbEntity
  8
0
100
AcDbBlockBegin
  2
*D7
 70
     1
 10
0.0
 20
0.0
 30
0.0
  3
*D7
  1

  0
LINE
  5
45E
100
AcDbEntity
  8
0
  6
BYBLOCK
 62
     4
100
AcDbLine
 10
775.657814
 20
462.247706
 30
0.0
 11
741.053236
 21
462.247706
 31
0.0
  0
LINE
  5
45F
100
AcDbEntity
  8
0
  6
BYBLOCK
 62
     4
100
AcDbLine
 10
775.657814
 20
484.247706
 30
0.0
 11
741.053236
 21
484.247706
 31
0.0
  0
LINE
  5
460
100
AcDbEntity
  8
0
  6
BYBLOCK
 62
     4
100
AcDbLine
 10
743.553236
 20
465.247706
 30
0.0
 11
743.553236
 21
481.247706
 31
0.0
  0
SOLID
  5
461
100
AcDbEntity
  8
0
  6
BYBLOCK
 62
     4
100
AcDbTrace
 10
743.053236
 20
465.247706
 30
0.0
 11
744.053236
 21
465.247706
 31
0.0
 12
743.553236
 22
462.247706
 32
0.0
 13
743.553236
 23
462.247706
 33
0.0
  0
SOLID
  5
462
100
AcDbEntity
  8
0
  6
BYBLOCK
 62
     4
100
AcDbTrace
 10
743.053236
 20
481.247706
 30
0.0
 11
744.053236
 21
481.247706
 31
0.0
 12
743.553236
 22
484.247706
 32
0.0
 13
743.553236
 23
484.247706
 33
0.0
  0
MTEXT
  5
463
100
AcDbEntity
  8
0
  6
BYBLOCK
 62
     2
100
AcDbMText
 10
740.553236
 20
473.247706
 30
0.0
 40
3.0
 41
0.0
 71
     5
 72
     1
  1
\A1;22.00
 11
0.0
 21
1.0
 31
0.0
  0
POINT
  5
464
100
AcDbEntity
  8
DEFPOINTS
  6
BYBLOCK
 62
     0
100
AcDbPoint
 10
776.657814
 20
462.247706
 30
0.0
  0
POINT
  5
465
100
AcDbEntity
  8
DEFPOINTS
  6
BYBLOCK
 62
     0
100
AcDbPoint
 10
776.657814
 20
484.247706
 30
0.0
  0
POINT
  5
466
100
AcDbEntity
  8
DEFPOINTS
  6
BYBLOCK
 62
     0
100
AcDbPoint
 10
743.553236
 20
484.247706
 30
0.0
  0
ENDBLK
  5
468
100
AcDbEntity
  8
0
100
AcDbBlockEnd
  0
BLOCK
  5
45A
100
AcDbEntity
  8
0
100
AcDbBlockBegin
  2
*D8
 70
     1
 10
0.0
 20
0.0
 30
0.0
  3
*D8
  1

  0
LINE
  5
450
100
AcDbEntity
  8
0
  6
BYBLOCK
 62
     4
100
AcDbLine
 10
781.080464
 20
485.247706
 30
0.0
 11
781.080464
 21
509.035729
 31
0.0
  0
LINE
  5
451
100
AcDbEntity
  8
0
  6
BYBLOCK
 62
     4
100
AcDbLine
 10
776.080464
 20
484.247706
 30
0.0
 11
776.080464
 21
509.035729
 31
0.0
  0
LINE
  5
452
100
AcDbEntity
  8
0
  6
BYBLOCK
 62
     4
100
AcDbLine
 10
784.080464
 20
506.535729
 30
0.0
 11
787.080464
 21
506.535729
 31
0.0
  0
LINE
  5
453
100
AcDbEntity
  8
0
  6
BYBLOCK
 62
     4
100
AcDbLine
 10
773.080464
 20
506.535729
 30
0.0
 11
760.794749
 21
506.535729
 31
0.0
  0
SOLID
  5
454
100
AcDbEntity
  8
0
  6
BYBLOCK
 62
     4
100
AcDbTrace
 10
784.080464
 20
507.035729
 30
0.0
 11
784.080464
 21
506.035729
 31
0.0
 12
781.080464
 22
506.535729
 32
0.0
 13
781.080464
 23
506.535729
 33
0.0
  0
SOLID
  5
455
100
AcDbEntity
  8
0
  6
BYBLOCK
 62
     4
100
AcDbTrace
 10
773.080464
 20
507.035729
 30
0.0
 11
773.080464
 21
506.035729
 31
0.0
 12
776.080464
 22
506.535729
 32
0.0
 13
776.080464
 23
506.535729
 33
0.0
  0
MTEXT
  5
456
100
AcDbEntity
  8
0
  6
BYBLOCK
 62
     2
100
AcDbMText
 10
765.437606
 20
509.535729
 30
0.0
 40
3.0
 41
0.0
 71
     5
 72
     1
  1
\A1;5.0
  0
POINT
  5
457
100
AcDbEntity
  8
DEFPOINTS
  6
BYBLOCK
 62
     0
100
AcDbPoint
 10
781.080464
 20
484.247706
 30
0.0
  0
POINT
  5
458
100
AcDbEntity
  8
DEFPOINTS
  6
BYBLOCK
 62
     0
100
AcDbPoint
 10
776.080464
 20
483.247706
 30
0.0
  0
POINT
  5
459
100
AcDbEntity
  8
DEFPOINTS
  6
BYBLOCK
 62
     0
100
AcDbPoint
 10
776.080464
 20
506.535729
 30
0.0
  0
ENDBLK
  5
45B
100
AcDbEntity
  8
0
100
AcDbBlockEnd
  0
BLOCK
  5
AD
100
AcDbEntity
  8
0
100
AcDbBlockBegin
  2
*D9
 70
     1
 10
0.0
 20
0.0
 30
0.0
  3
*D9
  1

  0
LINE
  5
A4
100
AcDbEntity
  8
0
  6
BYBLOCK
 62
     4
100
AcDbLine
 10
457.044627
 20
516.143414
 30
0.0
 11
457.044627
 21
682.541041
 31
0.0
  0
LINE
  5
A5
100
AcDbEntity
  8
0
  6
BYBLOCK
 62
     4
100
AcDbLine
 10
532.044627
 20
665.565995
 30
0.0
 11
532.044627
 21
682.541041
 31
0.0
  0
LINE
  5
A6
100
AcDbEntity
  8
0
  6
BYBLOCK
 62
     4
100
AcDbLine
 10
460.044627
 20
680.041041
 30
0.0
 11
529.044627
 21
680.041041
 31
0.0
  0
SOLID
  5
A7
100
AcDbEntity
  8
0
  6
BYBLOCK
 62
     4
100
AcDbTrace
 10
460.044627
 20
680.541041
 30
0.0
 11
460.044627
 21
679.541041
 31
0.0
 12
457.044627
 22
680.041041
 32
0.0
 13
457.044627
 23
680.041041
 33
0.0
  0
SOLID
  5
A8
100
AcDbEntity
  8
0
  6
BYBLOCK
 62
     4
100
AcDbTrace
 10
529.044627
 20
680.541041
 30
0.0
 11
529.044627
 21
679.541041
 31
0.0
 12
532.044627
 22
680.041041
 32
0.0
 13
532.044627
 23
680.041041
 33
0.0
  0
MTEXT
  5
A9
100
AcDbEntity
  8
0
  6
BYBLOCK
 62
     2
100
AcDbMText
 10
494.544627
 20
683.041041
 30
0.0
 40
3.0
 41
0.0
 71
     5
 72
     1
  1
\A1;C=75.00
  0
POINT
  5
AA
100
AcDbEntity
  8
DEFPOINTS
  6
BYBLOCK
 62
     0
100
AcDbPoint
 10
457.044627
 20
515.143414
 30
0.0
  0
POINT
  5
AB
100
AcDbEntity
  8
DEFPOINTS
  6
BYBLOCK
 62
     0
100
AcDbPoint
 10
532.044627
 20
664.565995
 30
0.0
  0
POINT
  5
AC
100
AcDbEntity
  8
DEFPOINTS
  6
BYBLOCK
 62
     0
100
AcDbPoint
 10
532.044627
 20
680.041041
 30
0.0
  0
ENDBLK
  5
AE
100
AcDbEntity
  8
0
100
AcDbBlockEnd
  0
BLOCK
  5
A0
100
AcDbEntity
  8
0
100
AcDbBlockBegin
  2
*D10
 70
     1
 10
0.0
 20
0.0
 30
0.0
  3
*D10
  1

  0
LINE
  5
98
100
AcDbEntity
  8
0
  6
BYBLOCK
 62
     4
100
AcDbLine
 10
607.044627
 20
516.143414
 30
0.0
 11
607.044627
 21
682.541041
 31
0.0
  0
LINE
  5
99
100
AcDbEntity
  8
0
  6
BYBLOCK
 62
     4
100
AcDbLine
 10
535.044627
 20
680.041041
 30
0.0
 11
604.044627
 21
680.041041
 31
0.0
  0
SOLID
  5
9A
100
AcDbEntity
  8
0
  6
BYBLOCK
 62
     4
100
AcDbTrace
 10
535.044627
 20
680.541041
 30
0.0
 11
535.044627
 21
679.541041
 31
0.0
 12
532.044627
 22
680.041041
 32
0.0
 13
532.044627
 23
680.041041
 33
0.0
  0
SOLID
  5
9B
100
AcDbEntity
  8
0
  6
BYBLOCK
 62
     4
100
AcDbTrace
 10
604.044627
 20
680.541041
 30
0.0
 11
604.044627
 21
679.541041
 31
0.0
 12
607.044627
 22
680.041041
 32
0.0
 13
607.044627
 23
680.041041
 33
0.0
  0
MTEXT
  5
9C
100
AcDbEntity
  8
0
  6
BYBLOCK
 62
     2
100
AcDbMText
 10
569.544627
 20
683.041041
 30
0.0
 40
3.0
 41
0.0
 71
     5
 72
     1
  1
\A1;C=75.00
  0
POINT
  5
9D
100
AcDbEntity
  8
DEFPOINTS
  6
BYBLOCK
 62
     0
100
AcDbPoint
 10
532.044627
 20
664.565995
 30
0.0
  0
POINT
  5
9E
100
AcDbEntity
  8
DEFPOINTS
  6
BYBLOCK
 62
     0
100
AcDbPoint
 10
607.044627
 20
515.143414
 30
0.0
  0
POINT
  5
9F
100
AcDbEntity
  8
DEFPOINTS
  6
BYBLOCK
 62
     0
100
AcDbPoint
 10
607.044627
 20
680.041041
 30
0.0
  0
ENDBLK
  5
A1
100
AcDbEntity
  8
0
100
AcDbBlockEnd
  0
BLOCK
  5
94
100
AcDbEntity
  8
0
100
AcDbBlockBegin
  2
*D11
 70
     1
 10
0.0
 20
0.0
 30
0.0
  3
*D11
  1

  0
LINE
  5
8B
100
AcDbEntity
  8
0
  6
BYBLOCK
 62
     4
100
AcDbLine
 10
425.044627
 20
512.705084
 30
0.0
 11
425.044627
 21
692.173813
 31
0.0
  0
LINE
  5
8C
100
AcDbEntity
  8
0
  6
BYBLOCK
 62
     4
100
AcDbLine
 10
639.044627
 20
512.705084
 30
0.0
 11
639.044627
 21
692.173813
 31
0.0
  0
LINE
  5
8D
100
AcDbEntity
  8
0
  6
BYBLOCK
 62
     4
100
AcDbLine
 10
428.044627
 20
689.673813
 30
0.0
 11
636.044627
 21
689.673813
 31
0.0
  0
SOLID
  5
8E
100
AcDbEntity
  8
0
  6
BYBLOCK
 62
     4
100
AcDbTrace
 10
428.044627
 20
690.173813
 30
0.0
 11
428.044627
 21
689.173813
 31
0.0
 12
425.044627
 22
689.673813
 32
0.0
 13
425.044627
 23
689.673813
 33
0.0
  0
SOLID
  5
8F
100
AcDbEntity
  8
0
  6
BYBLOCK
 62
     4
100
AcDbTrace
 10
636.044627
 20
690.173813
 30
0.0
 11
636.044627
 21
689.173813
 31
0.0
 12
639.044627
 22
689.673813
 32
0.0
 13
639.044627
 23
689.673813
 33
0.0
  0
MTEXT
  5
90
100
AcDbEntity
  8
0
  6
BYBLOCK
 62
     2
100
AcDbMText
 10
532.044627
 20
692.673813
 30
0.0
 40
3.0
 41
0.0
 71
     5
 72
     1
  1
\A1;L1=214.00
  0
POINT
  5
91
100
AcDbEntity
  8
DEFPOINTS
  6
BYBLOCK
 62
     0
100
AcDbPoint
 10
425.044627
 20
511.705084
 30
0.0
  0
POINT
  5
92
100
AcDbEntity
  8
DEFPOINTS
  6
BYBLOCK
 62
     0
100
AcDbPoint
 10
639.044627
 20
511.705084
 30
0.0
  0
POINT
  5
93
100
AcDbEntity
  8
DEFPOINTS
  6
BYBLOCK
 62
     0
100
AcDbPoint
 10
639.044627
 20
689.673813
 30
0.0
  0
ENDBLK
  5
95
100
AcDbEntity
  8
0
100
AcDbBlockEnd
  0
BLOCK
  5
87
100
AcDbEntity
  8
0
100
AcDbBlockBegin
  2
*D12
 70
     1
 10
0.0
 20
0.0
 30
0.0
  3
*D12
  1

  0
LINE
  5
7E
100
AcDbEntity
  8
0
  6
BYBLOCK
 62
     4
100
AcDbLine
 10
600.153754
 20
531.150521
 30
0.0
 11
635.729372
 21
566.726139
 31
0.0
  0
LINE
  5
7F
100
AcDbEntity
  8
0
  6
BYBLOCK
 62
     4
100
AcDbLine
 10
639.751733
 20
491.552541
 30
0.0
 11
675.327352
 21
527.12816
 31
0.0
  0
LINE
  5
80
100
AcDbEntity
  8
0
  6
BYBLOCK
 62
     4
100
AcDbLine
 10
636.082926
 20
562.837052
 30
0.0
 11
671.438265
 21
527.481713
 31
0.0
  0
SOLID
  5
81
100
AcDbEntity
  8
0
  6
BYBLOCK
 62
     4
100
AcDbTrace
 10
636.436479
 20
563.190606
 30
0.0
 11
635.729372
 21
562.483499
 31
0.0
 12
633.961605
 22
564.958372
 32
0.0
 13
633.961605
 23
564.958372
 33
0.0
  0
SOLID
  5
82
100
AcDbEntity
  8
0
  6
BYBLOCK
 62
     4
100
AcDbTrace
 10
671.791818
 20
527.835266
 30
0.0
 11
671.084711
 21
527.12816
 31
0.0
 12
673.559585
 22
525.360393
 32
0.0
 13
673.559585
 23
525.360393
 33
0.0
  0
MTEXT
  5
83
100
AcDbEntity
  8
0
  6
BYBLOCK
 62
     2
100
AcDbMText
 10
655.881915
 20
547.280703
 30
0.0
 40
3.0
 41
0.0
 71
     5
 72
     1
  1
\A1;W=56.00
 11
0.707107
 21
-0.707107
 31
0.0
  0
POINT
  5
84
100
AcDbEntity
  8
DEFPOINTS
  6
BYBLOCK
 62
     0
100
AcDbPoint
 10
599.446647
 20
530.443414
 30
0.0
  0
POINT
  5
85
100
AcDbEntity
  8
DEFPOINTS
  6
BYBLOCK
 62
     0
100
AcDbPoint
 10
639.044627
 20
490.845434
 30
0.0
  0
POINT
  5
86
100
AcDbEntity
  8
DEFPOINTS
  6
BYBLOCK
 62
     0
100
AcDbPoint
 10
673.559585
 20
525.360393
 30
0.0
  0
ENDBLK
  5
88
100
AcDbEntity
  8
0
100
AcDbBlockEnd
  0
BLOCK
  5
7A
100
AcDbEntity
  8
0
100
AcDbBlockBegin
  2
*D13
 70
     1
 10
0.0
 20
0.0
 30
0.0
  3
*D13
  1

  0
LINE
  5
71
100
AcDbEntity
  8
0
  6
BYBLOCK
 62
     4
100
AcDbLine
 10
439.344627
 20
498.443414
 30
0.0
 11
362.436401
 21
498.443414
 31
0.0
  0
LINE
  5
72
100
AcDbEntity
  8
0
  6
BYBLOCK
 62
     4
100
AcDbLine
 10
439.344627
 20
423.443414
 30
0.0
 11
362.436401
 21
423.443414
 31
0.0
  0
LINE
  5
73
100
AcDbEntity
  8
0
  6
BYBLOCK
 62
     4
100
AcDbLine
 10
364.936401
 20
495.443414
 30
0.0
 11
364.936401
 21
426.443414
 31
0.0
  0
SOLID
  5
74
100
AcDbEntity
  8
0
  6
BYBLOCK
 62
     4
100
AcDbTrace
 10
364.436401
 20
495.443414
 30
0.0
 11
365.436401
 21
495.443414
 31
0.0
 12
364.936401
 22
498.443414
 32
0.0
 13
364.936401
 23
498.443414
 33
0.0
  0
SOLID
  5
75
100
AcDbEntity
  8
0
  6
BYBLOCK
 62
     4
100
AcDbTrace
 10
364.436401
 20
426.443414
 30
0.0
 11
365.436401
 21
426.443414
 31
0.0
 12
364.936401
 22
423.443414
 32
0.0
 13
364.936401
 23
423.443414
 33
0.0
  0
MTEXT
  5
76
100
AcDbEntity
  8
0
  6
BYBLOCK
 62
     2
100
AcDbMText
 10
361.936401
 20
460.943414
 30
0.0
 40
3.0
 41
0.0
 71
     5
 72
     1
  1
\A1;A=75.00
 11
0.0
 21
1.0
 31
0.0
  0
POINT
  5
77
100
AcDbEntity
  8
DEFPOINTS
  6
BYBLOCK
 62
     0
100
AcDbPoint
 10
440.344627
 20
498.443414
 30
0.0
  0
POINT
  5
78
100
AcDbEntity
  8
DEFPOINTS
  6
BYBLOCK
 62
     0
100
AcDbPoint
 10
440.344627
 20
423.443414
 30
0.0
  0
POINT
  5
79
100
AcDbEntity
  8
DEFPOINTS
  6
BYBLOCK
 62
     0
100
AcDbPoint
 10
364.936401
 20
423.443414
 30
0.0
  0
ENDBLK
  5
7B
100
AcDbEntity
  8
0
100
AcDbBlockEnd
  0
BLOCK
  5
6D
100
AcDbEntity
  8
0
100
AcDbBlockBegin
  2
*D14
 70
     1
 10
0.0
 20
0.0
 30
0.0
  3
*D14
  1

  0
LINE
  5
65
100
AcDbEntity
  8
0
  6
BYBLOCK
 62
     4
100
AcDbLine
 10
439.344627
 20
348.443414
 30
0.0
 11
362.436401
 21
348.443414
 31
0.0
  0
LINE
  5
66
100
AcDbEntity
  8
0
  6
BYBLOCK
 62
     4
100
AcDbLine
 10
364.936401
 20
420.443414
 30
0.0
 11
364.936401
 21
351.443414
 31
0.0
  0
SOLID
  5
67
100
AcDbEntity
  8
0
  6
BYBLOCK
 62
     4
100
AcDbTrace
 10
364.436401
 20
420.443414
 30
0.0
 11
365.436401
 21
420.443414
 31
0.0
 12
364.936401
 22
423.443414
 32
0.0
 13
364.936401
 23
423.443414
 33
0.0
  0
SOLID
  5
68
100
AcDbEntity
  8
0
  6
BYBLOCK
 62
     4
100
AcDbTrace
 10
364.436401
 20
351.443414
 30
0.0
 11
365.436401
 21
351.443414
 31
0.0
 12
364.936401
 22
348.443414
 32
0.0
 13
364.936401
 23
348.443414
 33
0.0
  0
MTEXT
  5
69
100
AcDbEntity
  8
0
  6
BYBLOCK
 62
     2
100
AcDbMText
 10
361.936401
 20
385.943414
 30
0.0
 40
3.0
 41
0.0
 71
     5
 72
     1
  1
\A1;B=75.00
 11
0.0
 21
1.0
 31
0.0
  0
POINT
  5
6A
100
AcDbEntity
  8
DEFPOINTS
  6
BYBLOCK
 62
     0
100
AcDbPoint
 10
440.344627
 20
423.443414
 30
0.0
  0
POINT
  5
6B
100
AcDbEntity
  8
DEFPOINTS
  6
BYBLOCK
 62
     0
100
AcDbPoint
 10
440.344627
 20
348.443414
 30
0.0
  0
POINT
  5
6C
100
AcDbEntity
  8
DEFPOINTS
  6
BYBLOCK
 62
     0
100
AcDbPoint
 10
364.936401
 20
348.443414
 30
0.0
  0
ENDBLK
  5
6E
100
AcDbEntity
  8
0
100
AcDbBlockEnd
  0
BLOCK
  5
61
100
AcDbEntity
  8
0
100
AcDbBlockBegin
  2
*D15
 70
     1
 10
0.0
 20
0.0
 30
0.0
  3
*D15
  1

  0
LINE
  5
59
100
AcDbEntity
  8
0
  6
BYBLOCK
 62
     4
100
AcDbLine
 10
439.344627
 20
273.443414
 30
0.0
 11
362.436401
 21
273.443414
 31
0.0
  0
LINE
  5
5A
100
AcDbEntity
  8
0
  6
BYBLOCK
 62
     4
100
AcDbLine
 10
364.936401
 20
345.443414
 30
0.0
 11
364.936401
 21
276.443414
 31
0.0
  0
SOLID
  5
5B
100
AcDbEntity
  8
0
  6
BYBLOCK
 62
     4
100
AcDbTrace
 10
364.436401
 20
345.443414
 30
0.0
 11
365.436401
 21
345.443414
 31
0.0
 12
364.936401
 22
348.443414
 32
0.0
 13
364.936401
 23
348.443414
 33
0.0
  0
SOLID
  5
5C
100
AcDbEntity
  8
0
  6
BYBLOCK
 62
     4
100
AcDbTrace
 10
364.436401
 20
276.443414
 30
0.0
 11
365.436401
 21
276.443414
 31
0.0
 12
364.936401
 22
273.443414
 32
0.0
 13
364.936401
 23
273.443414
 33
0.0
  0
MTEXT
  5
5D
100
AcDbEntity
  8
0
  6
BYBLOCK
 62
     2
100
AcDbMText
 10
361.936401
 20
310.943414
 30
0.0
 40
3.0
 41
0.0
 71
     5
 72
     1
  1
\A1;A=75.00
 11
0.0
 21
1.0
 31
0.0
  0
POINT
  5
5E
100
AcDbEntity
  8
DEFPOINTS
  6
BYBLOCK
 62
     0
100
AcDbPoint
 10
440.344627
 20
348.443414
 30
0.0
  0
POINT
  5
5F
100
AcDbEntity
  8
DEFPOINTS
  6
BYBLOCK
 62
     0
100
AcDbPoint
 10
440.344627
 20
273.443414
 30
0.0
  0
POINT
  5
60
100
AcDbEntity
  8
DEFPOINTS
  6
BYBLOCK
 62
     0
100
AcDbPoint
 10
364.936401
 20
273.443414
 30
0.0
  0
ENDBLK
  5
62
100
AcDbEntity
  8
0
100
AcDbBlockEnd
  0
BLOCK
  5
55
100
AcDbEntity
  8
0
100
AcDbBlockBegin
  2
*D16
 70
     1
 10
0.0
 20
0.0
 30
0.0
  3
*D16
  1

  0
LINE
  5
4B
100
AcDbEntity
  8
0
  6
BYBLOCK
 62
     4
100
AcDbLine
 10
489.044627
 20
562.443414
 30
0.0
 11
352.381855
 21
562.443414
 31
0.0
  0
LINE
  5
4C
100
AcDbEntity
  8
0
  6
BYBLOCK
 62
     4
100
AcDbLine
 10
441.782956
 20
242.443414
 30
0.0
 11
352.381855
 21
242.443414
 31
0.0
  0
LINE
  5
4D
100
AcDbEntity
  8
0
  6
BYBLOCK
 62
     4
100
AcDbLine
 10
354.881855
 20
559.443414
 30
0.0
 11
354.881855
 21
245.443414
 31
0.0
  0
SOLID
  5
4E
100
AcDbEntity
  8
0
  6
BYBLOCK
 62
     4
100
AcDbTrace
 10
354.381855
 20
559.443414
 30
0.0
 11
355.381855
 21
559.443414
 31
0.0
 12
354.881855
 22
562.443414
 32
0.0
 13
354.881855
 23
562.443414
 33
0.0
  0
SOLID
  5
4F
100
AcDbEntity
  8
0
  6
BYBLOCK
 62
     4
100
AcDbTrace
 10
354.381855
 20
245.443414
 30
0.0
 11
355.381855
 21
245.443414
 31
0.0
 12
354.881855
 22
242.443414
 32
0.0
 13
354.881855
 23
242.443414
 33
0.0
  0
MTEXT
  5
50
100
AcDbEntity
  8
0
  6
BYBLOCK
 62
     2
100
AcDbMText
 10
351.881855
 20
402.443414
 30
0.0
 40
3.0
 41
0.0
 71
     5
 72
     1
  1
\A1;L=320.00
 11
0.0
 21
1.0
 31
0.0
  0
POINT
  5
51
100
AcDbEntity
  8
DEFPOINTS
  6
BYBLOCK
 62
     0
100
AcDbPoint
 10
490.044627
 20
562.443414
 30
0.0
  0
POINT
  5
53
100
AcDbEntity
  8
DEFPOINTS
  6
BYBLOCK
 62
     0
100
AcDbPoint
 10
442.782956
 20
242.443414
 30
0.0
  0
POINT
  5
54
100
AcDbEntity
  8
DEFPOINTS
  6
BYBLOCK
 62
     0
100
AcDbPoint
 10
354.881855
 20
242.443414
 30
0.0
  0
ENDBLK
  5
56
100
AcDbEntity
  8
0
100
AcDbBlockEnd
  0
ENDSEC
  0
SECTION
  2
ENTITIES
  0
ARC
  5
20
100
AcDbEntity
  8
M04
100
AcDbCircle
 10
432.312394
 20
385.943414
 30
0.0
 40
5.0
100
AcDbArc
 50
315.0
 51
45.0
  0
ARC
  5
22
100
AcDbEntity
  8
M04
100
AcDbCircle
 10
631.77686
 20
385.943414
 30
0.0
 40
5.0
100
AcDbArc
 50
135.0
 51
225.0
  0
ARC
  5
23
100
AcDbEntity
  8
M04
100
AcDbCircle
 10
446.096665
 20
250.443414
 30
0.0
 40
15.0
100
AcDbArc
 50
225.0
 51
270.0
  0
ARC
  5
24
100
AcDbEntity
  8
M04
100
AcDbCircle
 10
617.992588
 20
250.443414
 30
0.0
 40
15.0
100
AcDbArc
 50
270.0
 51
315.0
  0
ARC
  5
25
100
AcDbEntity
  8
M04
100
AcDbCircle
 10
638.160743
 20
270.611569
 30
0.0
 40
15.0
100
AcDbArc
 50
315.0
 51
45.0
  0
ARC
  5
26
100
AcDbEntity
  8
M04
100
AcDbCircle
 10
638.160743
 20
351.275259
 30
0.0
 40
15.0
100
AcDbArc
 50
315.0
 51
45.0
  0
ARC
  5
27
100
AcDbEntity
  8
M04
100
AcDbCircle
 10
611.821015
 20
527.614987
 30
0.0
 40
15.0
100
AcDbArc
 50
45.0
 51
90.0
  0
ARC
  5
28
100
AcDbEntity
  8
M04
100
AcDbCircle
 10
638.160743
 20
501.275259
 30
0.0
 40
15.0
100
AcDbArc
 50
315.0
 51
45.0
  0
ARC
  5
29
100
AcDbEntity
  8
M04
100
AcDbCircle
 10
638.160743
 20
420.611569
 30
0.0
 40
15.0
100
AcDbArc
 50
315.0
 51
45.0
  0
ARC
  5
2A
100
AcDbEntity
  8
M04
100
AcDbCircle
 10
425.92851
 20
270.611569
 30
0.0
 40
15.0
100
AcDbArc
 50
135.0
 51
225.0
  0
ARC
  5
2B
100
AcDbEntity
  8
M04
100
AcDbCircle
 10
425.92851
 20
351.275259
 30
0.0
 40
15.0
100
AcDbArc
 50
135.0
 51
225.0
  0
ARC
  5
2C
100
AcDbEntity
  8
M04
100
AcDbCircle
 10
425.92851
 20
420.611569
 30
0.0
 40
15.0
100
AcDbArc
 50
135.0
 51
225.0
  0
ARC
  5
2D
100
AcDbEntity
  8
M04
100
AcDbCircle
 10
425.92851
 20
501.275259
 30
0.0
 40
15.0
100
AcDbArc
 50
135.0
 51
225.0
  0
ARC
  5
2E
100
AcDbEntity
  8
M04
100
AcDbCircle
 10
452.268238
 20
527.614987
 30
0.0
 40
15.0
100
AcDbArc
 50
90.0
 51
135.0
  0
LINE
  5
2F
100
AcDbEntity
  8
M04
100
AcDbLine
 10
415.321908
 20
260.004967
 30
0.0
 11
435.490063
 21
239.836812
 31
0.0
  0
LINE
  5
30
100
AcDbEntity
  8
M04
100
AcDbLine
 10
648.767345
 20
260.004967
 30
0.0
 11
628.59919
 21
239.836812
 31
0.0
  0
LINE
  5
31
100
AcDbEntity
  8
M01
100
AcDbLine
 10
639.044627
 20
260.181744
 30
0.0
 11
621.306297
 21
242.443414
 31
0.0
  0
LINE
  5
33
100
AcDbEntity
  8
M01
100
AcDbLine
 10
425.044627
 20
260.181744
 30
0.0
 11
442.782956
 21
242.443414
 31
0.0
  0
LINE
  5
34
100
AcDbEntity
  8
M01
100
AcDbLine
 10
639.044627
 20
361.705084
 30
0.0
 11
620.306297
 21
380.443414
 31
0.0
  0
LINE
  5
35
100
AcDbEntity
  8
M04
100
AcDbLine
 10
648.767345
 20
361.881861
 30
0.0
 11
628.241326
 21
382.40788
 31
0.0
  0
LINE
  5
36
100
AcDbEntity
  8
M04
100
AcDbLine
 10
648.767345
 20
410.004967
 30
0.0
 11
628.241326
 21
389.478948
 31
0.0
  0
LINE
  5
37
100
AcDbEntity
  8
M01
100
AcDbLine
 10
639.044627
 20
410.181744
 30
0.0
 11
620.306297
 21
391.443414
 31
0.0
  0
LINE
  5
38
100
AcDbEntity
  8
M04
100
AcDbLine
 10
415.321908
 20
361.881861
 30
0.0
 11
435.847927
 21
382.40788
 31
0.0
  0
LINE
  5
39
100
AcDbEntity
  8
M01
100
AcDbLine
 10
425.044627
 20
361.705084
 30
0.0
 11
443.782956
 21
380.443414
 31
0.0
  0
LINE
  5
3A
100
AcDbEntity
  8
M01
100
AcDbLine
 10
425.044627
 20
410.181744
 30
0.0
 11
443.782956
 21
391.443414
 31
0.0
  0
LINE
  5
3B
100
AcDbEntity
  8
M04
100
AcDbLine
 10
415.321908
 20
410.004967
 30
0.0
 11
435.847927
 21
389.478948
 31
0.0
  0
LINE
  5
3C
100
AcDbEntity
  8
M01
100
AcDbLine
 10
639.044627
 20
511.705084
 30
0.0
 11
620.306297
 21
530.443414
 31
0.0
  0
LINE
  5
3D
100
AcDbEntity
  8
M04
100
AcDbLine
 10
648.767345
 20
511.881861
 30
0.0
 11
622.427617
 21
538.221589
 31
0.0
  0
LINE
  5
3E
100
AcDbEntity
  8
M01
100
AcDbLine
 10
425.044627
 20
511.705084
 30
0.0
 11
443.782956
 21
530.443414
 31
0.0
  0
LINE
  5
3F
100
AcDbEntity
  8
M04
100
AcDbLine
 10
415.321908
 20
511.881861
 30
0.0
 11
441.661636
 21
538.221589
 31
0.0
  0
TEXT
  5
40
100
AcDbEntity
  8
TEXT
100
AcDbText
 10
242.007941
 20
146.459331
 30
0.0
 40
6.0
  1
design may vary from this example !
100
AcDbText
  0
TEXT
  5
42
100
AcDbEntity
  8
TEXT
100
AcDbText
 10
241.627073
 20
156.555739
 30
0.0
 40
6.0
  1
you finalize your tool design, as our final system
100
AcDbText
  0
TEXT
  5
43
100
AcDbEntity
  8
TEXT
100
AcDbText
 10
218.332954
 20
166.652147
 30
0.0
 40
6.0
  1
N.B. ALL designs MUST be approved by Fast Heat BEFORE
100
AcDbText
  0
TEXT
  5
44
100
AcDbEntity
  8
TEXT
100
AcDbText
 10
707.278659
 20
664.251445
 30
0.0
 40
6.0
  1
depending on the bush size to be used.
100
AcDbText
  0
TEXT
  5
45
100
AcDbEntity
  8
TEXT
100
AcDbText
 10
674.612703
 20
674.347853
 30
0.0
 40
6.0
  1
NOTE: Manifold width `W' can be 50mm or 64mm
100
AcDbText
  0
HATCH
  5
46
100
AcDbEntity
  8
HATCH
100
AcDbHatch
 10
0.0
 20
0.0
 30
0.0
210
0.0
220
0.0
230
1.0
  2
_U
 70
     0
 71
     1
 91
        8
 92
        7
 72
     0
 73
     1
 93
        4
 10
869.458914303477
 20
490.2845320745121
 10
868.758914303477
 20
489.5845320745123
 10
868.758914303477
 20
485.1434140619693
 10
869.458914303477
 20
484.4434140619693
 97
        4
330
261
330
27F
330
274
330
273
 92
        7
 72
     0
 73
     1
 93
        4
 10
869.7589143034768
 20
490.5845320745121
 10
869.458914303477
 20
490.2845320745123
 10
869.458914303477
 20
484.4434140619695
 10
869.7589143034765
 20
484.4434140619695
 97
        4
330
26D
330
273
330
275
330
60D
 92
        7
 72
     0
 73
     1
 93
        4
 10
869.458914303477
 20
498.4434140619693
 10
868.7589143034768
 20
498.4434140619693
 10
868.7589143034768
 20
489.584532074512
 10
869.4589143034768
 20
490.2845320745122
 97
        4
330
281
330
27F
330
261
330
273
 92
        7
 72
     0
 73
     1
 93
        4
 10
869.7589143034766
 20
498.4434140619693
 10
869.458914303477
 20
498.4434140619692
 10
869.458914303477
 20
490.2845320745123
 10
869.7589143034766
 20
490.5845320745121
 97
        4
330
281
330
273
330
26D
330
60D
 92
        7
 72
     0
 73
     1
 93
        4
 10
869.7589143034766
 20
506.3022960494264
 10
869.458914303477
 20
506.6022960494263
 10
869.458914303477
 20
498.4434140619693
 10
869.7589143034765
 20
498.4434140619693
 97
        4
330
26B
330
273
330
281
330
60D
 92
        7
 72
     0
 73
     1
 93
        4
 10
869.458914303477
 20
506.6022960494264
 10
868.758914303477
 20
507.3022960494264
 10
868.758914303477
 20
498.4434140619694
 10
869.4589143034768
 20
498.4434140619693
 97
        4
330
260
330
27F
330
281
330
273
 92
        7
 72
     0
 73
     1
 93
        4
 10
869.7589143034765
 20
512.4434140619694
 10
869.458914303477
 20
512.4434140619694
 10
869.458914303477
 20
506.6022960494263
 10
869.7589143034765
 20
506.3022960494267
 97
        4
330
27A
330
273
330
26B
330
60D
 92
        7
 72
     0
 73
     1
 93
        4
 10
869.458914303477
 20
512.4434140619695
 10
868.758914303477
 20
511.7434140619695
 10
868.7589143034772
 20
507.3022960494264
 10
869.458914303477
 20
506.6022960494266
 97
        4
330
279
330
27F
330
260
330
273
 75
     0
 76
     0
 52
45.0
 41
6.0
 77
     0
 78
     1
 53
45.0
 43
0.0
 44
0.0
 45
-4.242640687119284
 46
4.242640687119285
 79
     0
 47
0.060775
 98
        8
 10
869.188031
 20
486.769622
 10
869.613619
 20
487.620468
 10
869.24883
 20
490.476872
 10
869.55282
 20
491.510041
 10
869.613619
 20
499.289188
 10
869.188031
 20
499.289188
 10
869.613619
 20
510.04629
 10
869.24883
 20
509.985516
  0
HATCH
  5
47
100
AcDbEntity
  8
HATCH
100
AcDbHatch
 10
0.0
 20
0.0
 30
0.0
210
0.0
220
0.0
230
1.0
  2
_U
 70
     0
 71
     1
 91
        8
 92
        7
 72
     0
 73
     1
 93
        4
 10
869.4589143034766
 20
265.284532074512
 10
868.758914303477
 20
264.5845320745122
 10
868.758914303477
 20
260.1434140619695
 10
869.4589143034768
 20
259.4434140619694
 97
        4
330
4BA
330
4D8
330
4CD
330
4CC
 92
        7
 72
     0
 73
     1
 93
        4
 10
869.7589143034766
 20
265.584532074512
 10
869.458914303477
 20
265.2845320745121
 10
869.458914303477
 20
259.4434140619694
 10
869.7589143034766
 20
259.4434140619694
 97
        4
330
4C6
330
4CC
330
4CE
330
226
 92
        7
 72
     0
 73
     1
 93
        4
 10
869.4589143034766
 20
273.4434140619694
 10
868.758914303477
 20
273.4434140619694
 10
868.758914303477
 20
264.5845320745122
 10
869.458914303477
 20
265.2845320745124
 97
        4
330
4DA
330
4D8
330
4BA
330
4CC
 92
        7
 72
     0
 73
     1
 93
        4
 10
869.7589143034766
 20
273.4434140619695
 10
869.458914303477
 20
273.4434140619695
 10
869.458914303477
 20
265.2845320745123
 10
869.7589143034768
 20
265.5845320745122
 97
        4
330
4DA
330
4CC
330
4C6
330
226
 92
        7
 72
     0
 73
     1
 93
        4
 10
869.4589143034768
 20
281.6022960494267
 10
868.758914303477
 20
282.3022960494265
 10
868.7589143034768
 20
273.4434140619694
 10
869.458914303477
 20
273.4434140619694
 97
        4
330
4B9
330
4D8
330
4DA
330
4CC
 92
        7
 72
     0
 73
     1
 93
        4
 10
869.7589143034768
 20
281.3022960494267
 10
869.458914303477
 20
281.6022960494264
 10
869.458914303477
 20
273.4434140619694
 10
869.7589143034766
 20
273.4434140619695
 97
        4
330
4C4
330
4CC
330
4DA
330
226
 92
        7
 72
     0
 73
     1
 93
        4
 10
869.7589143034766
 20
287.4434140619694
 10
869.458914303477
 20
287.4434140619695
 10
869.458914303477
 20
281.6022960494263
 10
869.7589143034768
 20
281.3022960494265
 97
        4
330
4D3
330
4CC
330
4C4
330
226
 92
        7
 72
     0
 73
     1
 93
        4
 10
869.4589143034768
 20
287.4434140619694
 10
868.758914303477
 20
286.7434140619694
 10
868.758914303477
 20
282.3022960494266
 10
869.458914303477
 20
281.6022960494266
 97
        4
330
4D2
330
4D8
330
4B9
330
4CC
 75
     0
 76
     0
 52
45.0
 41
6.0
 77
     0
 78
     1
 53
45.0
 43
0.0
 44
0.0
 45
-4.242640687119284
 46
4.242640687119285
 79
     0
 47
0.080106
 98
        8
 10
868.911776
 20
261.71632
 10
869.713149
 20
262.11685
 10
869.232325
 20
266.362462
 10
869.633012
 20
266.682886
 10
868.991913
 20
274.933794
 10
869.552874
 20
280.461101
 10
869.552874
 20
281.983113
 10
869.152188
 20
282.864278
  0
DIMENSION
  5
48
100
AcDbEntity
  8
DIMS
100
AcDbDimension
  2
*D16
 10
354.881855
 20
242.443414
 30
0.0
 11
351.881855
 21
402.443414
 31
0.0
  1
L=<>
  3
DIM1
100
AcDbAlignedDimension
 13
490.044627
 23
562.443414
 33
0.0
 14
442.782956
 24
242.443414
 34
0.0
 50
90.0
100
AcDbRotatedDimension
1001
ACAD
1000
DSTYLE
1002
{
1070
   144
1040
1.0
1002
}
  0
DIMENSION
  5
57
100
AcDbEntity
  8
DIMS
100
AcDbDimension
  2
*D15
 10
364.936401
 20
273.443414
 30
0.0
 11
361.936401
 21
310.943414
 31
0.0
  1
A=<>
  3
DIM1
100
AcDbAlignedDimension
 13
440.344627
 23
348.443414
 33
0.0
 14
440.344627
 24
273.443414
 34
0.0
 50
90.0
100
AcDbRotatedDimension
1001
ACAD
1000
DSTYLE
1002
{
1070
    75
1070
     1
1070
   144
1040
1.0
1070
   287
1070
     4
1002
}
  0
DIMENSION
  5
63
100
AcDbEntity
  8
DIMS
100
AcDbDimension
  2
*D14
 10
364.936401
 20
348.443414
 30
0.0
 11
361.936401
 21
385.943414
 31
0.0
  1
B=<>
  3
DIM1
100
AcDbAlignedDimension
 13
440.344627
 23
423.443414
 33
0.0
 14
440.344627
 24
348.443414
 34
0.0
 50
90.0
100
AcDbRotatedDimension
1001
ACAD
1000
DSTYLE
1002
{
1070
    75
1070
     1
1070
   144
1040
1.0
1070
   287
1070
     4
1002
}
  0
DIMENSION
  5
6F
100
AcDbEntity
  8
DIMS
100
AcDbDimension
  2
*D13
 10
364.936401
 20
423.443414
 30
0.0
 11
361.936401
 21
460.943414
 31
0.0
  1
A=<>
  3
DIM1
100
AcDbAlignedDimension
 13
440.344627
 23
498.443414
 33
0.0
 14
440.344627
 24
423.443414
 34
0.0
 50
90.0
100
AcDbRotatedDimension
1001
ACAD
1000
DSTYLE
1002
{
1070
   144
1040
1.0
1002
}
  0
DIMENSION
  5
7C
100
AcDbEntity
  8
DIMS
100
AcDbDimension
  2
*D12
 10
673.559585
 20
525.360393
 30
0.0
 11
655.881915
 21
547.280703
 31
0.0
 70
     1
  1
W=<>
  3
DIM1
100
AcDbAlignedDimension
 13
599.446647
 23
530.443414
 33
0.0
 14
639.044627
 24
490.845434
 34
0.0
1001
ACAD
1000
DSTYLE
1002
{
1070
   144
1040
1.0
1002
}
  0
DIMENSION
  5
89
100
AcDbEntity
  8
DIMS
100
AcDbDimension
  2
*D11
 10
639.044627
 20
689.673813
 30
0.0
 11
532.044627
 21
692.673813
 31
0.0
  1
L1=<>
  3
DIM1
100
AcDbAlignedDimension
 13
425.044627
 23
511.705084
 33
0.0
 14
639.044627
 24
511.705084
 34
0.0
100
AcDbRotatedDimension
1001
ACAD
1000
DSTYLE
1002
{
1070
   144
1040
1.0
1002
}
  0
DIMENSION
  5
96
100
AcDbEntity
  8
DIMS
100
AcDbDimension
  2
*D10
 10
607.044627
 20
680.041041
 30
0.0
 11
569.544627
 21
683.041041
 31
0.0
  1
C=<>
  3
DIM1
100
AcDbAlignedDimension
 13
532.044627
 23
664.565995
 33
0.0
 14
607.044627
 24
515.143414
 34
0.0
100
AcDbRotatedDimension
1001
ACAD
1000
DSTYLE
1002
{
1070
    75
1070
     1
1070
   144
1040
1.0
1070
   287
1070
     4
1002
}
  0
DIMENSION
  5
A2
100
AcDbEntity
  8
DIMS
100
AcDbDimension
  2
*D9
 10
532.044627
 20
680.041041
 30
0.0
 11
494.544627
 21
683.041041
 31
0.0
  1
C=<>
  3
DIM1
100
AcDbAlignedDimension
 13
457.044627
 23
515.143414
 33
0.0
 14
532.044627
 24
664.565995
 34
0.0
100
AcDbRotatedDimension
1001
ACAD
1000
DSTYLE
1002
{
1070
   144
1040
1.0
1002
}
  0
LINE
  5
AF
100
AcDbEntity
  8
DIMS
 62
     4
100
AcDbLine
 10
535.444627
 20
224.443414
 30
0.0
 11
540.244627
 21
224.443414
 31
0.0
  0
LINE
  5
B0
100
AcDbEntity
  8
DIMS
 62
     4
100
AcDbLine
 10
528.644627
 20
224.443414
 30
0.0
 11
523.844627
 21
224.443414
 31
0.0
  0
LINE
  5
B1
100
AcDbEntity
  8
DIMS
 62
     4
100
AcDbLine
 10
530.344627
 20
224.443414
 30
0.0
 11
533.744627
 21
224.443414
 31
0.0
  0
CIRCLE
  5
B2
100
AcDbEntity
  8
M04
100
AcDbCircle
 10
532.044627
 20
224.443414
 30
0.0
 40
6.5
  0
LINE
  5
B3
100
AcDbEntity
  8
DIMS
 62
     4
100
AcDbLine
 10
457.044627
 20
227.843414
 30
0.0
 11
457.044627
 21
232.643414
 31
0.0
  0
LINE
  5
B4
100
AcDbEntity
  8
DIMS
 62
     4
100
AcDbLine
 10
457.044627
 20
221.043414
 30
0.0
 11
457.044627
 21
216.243414
 31
0.0
  0
LINE
  5
B5
100
AcDbEntity
  8
DIMS
 62
     4
100
AcDbLine
 10
453.644627
 20
224.443414
 30
0.0
 11
448.844627
 21
224.443414
 31
0.0
  0
LINE
  5
B6
100
AcDbEntity
  8
DIMS
 62
     4
100
AcDbLine
 10
460.444627
 20
224.443414
 30
0.0
 11
465.244627
 21
224.443414
 31
0.0
  0
LINE
  5
B7
100
AcDbEntity
  8
DIMS
 62
     4
100
AcDbLine
 10
457.044627
 20
222.743414
 30
0.0
 11
457.044627
 21
226.143414
 31
0.0
  0
LINE
  5
B8
100
AcDbEntity
  8
DIMS
 62
     4
100
AcDbLine
 10
458.744627
 20
224.443414
 30
0.0
 11
455.344627
 21
224.443414
 31
0.0
  0
CIRCLE
  5
B9
100
AcDbEntity
  8
M04
100
AcDbCircle
 10
457.044627
 20
224.443414
 30
0.0
 40
6.5
  0
LINE
  5
BA
100
AcDbEntity
  8
DIMS
 62
     4
100
AcDbLine
 10
419.044627
 20
238.843414
 30
0.0
 11
419.044627
 21
243.643414
 31
0.0
  0
LINE
  5
BB
100
AcDbEntity
  8
DIMS
 62
     4
100
AcDbLine
 10
419.044627
 20
232.043414
 30
0.0
 11
419.044627
 21
227.243414
 31
0.0
  0
LINE
  5
BC
100
AcDbEntity
  8
DIMS
 62
     4
100
AcDbLine
 10
415.644627
 20
235.443414
 30
0.0
 11
410.844627
 21
235.443414
 31
0.0
  0
LINE
  5
BD
100
AcDbEntity
  8
DIMS
 62
     4
100
AcDbLine
 10
422.444627
 20
235.443414
 30
0.0
 11
427.244627
 21
235.443414
 31
0.0
  0
LINE
  5
BE
100
AcDbEntity
  8
DIMS
 62
     4
100
AcDbLine
 10
419.044627
 20
233.743414
 30
0.0
 11
419.044627
 21
237.143414
 31
0.0
  0
LINE
  5
BF
100
AcDbEntity
  8
DIMS
 62
     4
100
AcDbLine
 10
420.744627
 20
235.443414
 30
0.0
 11
417.344627
 21
235.443414
 31
0.0
  0
CIRCLE
  5
C0
100
AcDbEntity
  8
M04
100
AcDbCircle
 10
419.044627
 20
235.443414
 30
0.0
 40
6.5
  0
LINE
  5
C1
100
AcDbEntity
  8
DIMS
 62
     4
100
AcDbLine
 10
427.044627
 20
314.343414
 30
0.0
 11
427.044627
 21
319.143414
 31
0.0
  0
LINE
  5
C2
100
AcDbEntity
  8
DIMS
 62
     4
100
AcDbLine
 10
427.044627
 20
307.543414
 30
0.0
 11
427.044627
 21
302.743414
 31
0.0
  0
LINE
  5
C3
100
AcDbEntity
  8
DIMS
 62
     4
100
AcDbLine
 10
423.644627
 20
310.943414
 30
0.0
 11
418.844627
 21
310.943414
 31
0.0
  0
LINE
  5
C4
100
AcDbEntity
  8
DIMS
 62
     4
100
AcDbLine
 10
430.444627
 20
310.943414
 30
0.0
 11
435.244627
 21
310.943414
 31
0.0
  0
LINE
  5
C5
100
AcDbEntity
  8
DIMS
 62
     4
100
AcDbLine
 10
427.044627
 20
309.243414
 30
0.0
 11
427.044627
 21
312.643414
 31
0.0
  0
LINE
  5
C6
100
AcDbEntity
  8
DIMS
 62
     4
100
AcDbLine
 10
428.744627
 20
310.943414
 30
0.0
 11
425.344627
 21
310.943414
 31
0.0
  0
CIRCLE
  5
C7
100
AcDbEntity
  8
M04
100
AcDbCircle
 10
427.044627
 20
310.943414
 30
0.0
 40
6.5
  0
LINE
  5
C8
100
AcDbEntity
  8
DIMS
 62
     4
100
AcDbLine
 10
607.044627
 20
227.843414
 30
0.0
 11
607.044627
 21
232.643414
 31
0.0
  0
LINE
  5
C9
100
AcDbEntity
  8
DIMS
 62
     4
100
AcDbLine
 10
607.044627
 20
221.043414
 30
0.0
 11
607.044627
 21
216.243414
 31
0.0
  0
LINE
  5
CA
100
AcDbEntity
  8
DIMS
 62
     4
100
AcDbLine
 10
610.444627
 20
224.443414
 30
0.0
 11
615.244627
 21
224.443414
 31
0.0
  0
LINE
  5
CB
100
AcDbEntity
  8
DIMS
 62
     4
100
AcDbLine
 10
603.644627
 20
224.443414
 30
0.0
 11
598.844627
 21
224.443414
 31
0.0
  0
LINE
  5
CC
100
AcDbEntity
  8
DIMS
 62
     4
100
AcDbLine
 10
607.044627
 20
222.743414
 30
0.0
 11
607.044627
 21
226.143414
 31
0.0
  0
LINE
  5
CD
100
AcDbEntity
  8
DIMS
 62
     4
100
AcDbLine
 10
605.344627
 20
224.443414
 30
0.0
 11
608.744627
 21
224.443414
 31
0.0
  0
CIRCLE
  5
CE
100
AcDbEntity
  8
M04
100
AcDbCircle
 10
607.044627
 20
224.443414
 30
0.0
 40
6.5
  0
LINE
  5
CF
100
AcDbEntity
  8
DIMS
 62
     4
100
AcDbLine
 10
645.044627
 20
238.843414
 30
0.0
 11
645.044627
 21
243.643414
 31
0.0
  0
LINE
  5
D0
100
AcDbEntity
  8
DIMS
 62
     4
100
AcDbLine
 10
645.044627
 20
232.043414
 30
0.0
 11
645.044627
 21
227.243414
 31
0.0
  0
LINE
  5
D1
100
AcDbEntity
  8
DIMS
 62
     4
100
AcDbLine
 10
648.444627
 20
235.443414
 30
0.0
 11
653.244627
 21
235.443414
 31
0.0
  0
LINE
  5
D2
100
AcDbEntity
  8
DIMS
 62
     4
100
AcDbLine
 10
641.644627
 20
235.443414
 30
0.0
 11
636.844627
 21
235.443414
 31
0.0
  0
LINE
  5
D3
100
AcDbEntity
  8
DIMS
 62
     4
100
AcDbLine
 10
645.044627
 20
233.743414
 30
0.0
 11
645.044627
 21
237.143414
 31
0.0
  0
LINE
  5
D4
100
AcDbEntity
  8
DIMS
 62
     4
100
AcDbLine
 10
643.344627
 20
235.443414
 30
0.0
 11
646.744627
 21
235.443414
 31
0.0
  0
CIRCLE
  5
D5
100
AcDbEntity
  8
M04
100
AcDbCircle
 10
645.044627
 20
235.443414
 30
0.0
 40
6.5
  0
LINE
  5
D6
100
AcDbEntity
  8
DIMS
 62
     4
100
AcDbLine
 10
637.044627
 20
314.343414
 30
0.0
 11
637.044627
 21
319.143414
 31
0.0
  0
LINE
  5
D7
100
AcDbEntity
  8
DIMS
 62
     4
100
AcDbLine
 10
637.044627
 20
307.543414
 30
0.0
 11
637.044627
 21
302.743414
 31
0.0
  0
LINE
  5
D8
100
AcDbEntity
  8
DIMS
 62
     4
100
AcDbLine
 10
640.444627
 20
310.943414
 30
0.0
 11
645.244627
 21
310.943414
 31
0.0
  0
LINE
  5
D9
100
AcDbEntity
  8
DIMS
 62
     4
100
AcDbLine
 10
633.644627
 20
310.943414
 30
0.0
 11
628.844627
 21
310.943414
 31
0.0
  0
LINE
  5
DA
100
AcDbEntity
  8
DIMS
 62
     4
100
AcDbLine
 10
637.044627
 20
309.243414
 30
0.0
 11
637.044627
 21
312.643414
 31
0.0
  0
LINE
  5
DB
100
AcDbEntity
  8
DIMS
 62
     4
100
AcDbLine
 10
635.344627
 20
310.943414
 30
0.0
 11
638.744627
 21
310.943414
 31
0.0
  0
CIRCLE
  5
DC
100
AcDbEntity
  8
M04
100
AcDbCircle
 10
637.044627
 20
310.943414
 30
0.0
 40
6.5
  0
LINE
  5
DD
100
AcDbEntity
  8
DIMS
 62
     4
100
AcDbLine
 10
457.044627
 20
550.544987
 30
0.0
 11
457.044627
 21
545.744987
 31
0.0
  0
LINE
  5
DE
100
AcDbEntity
  8
DIMS
 62
     4
100
AcDbLine
 10
457.044627
 20
557.344987
 30
0.0
 11
457.044627
 21
562.144987
 31
0.0
  0
LINE
  5
DF
100
AcDbEntity
  8
DIMS
 62
     4
100
AcDbLine
 10
453.644627
 20
553.944987
 30
0.0
 11
448.844627
 21
553.944987
 31
0.0
  0
LINE
  5
E0
100
AcDbEntity
  8
DIMS
 62
     4
100
AcDbLine
 10
460.444627
 20
553.944987
 30
0.0
 11
465.244627
 21
553.944987
 31
0.0
  0
LINE
  5
E1
100
AcDbEntity
  8
DIMS
 62
     4
100
AcDbLine
 10
457.044627
 20
555.644987
 30
0.0
 11
457.044627
 21
552.244987
 31
0.0
  0
LINE
  5
E2
100
AcDbEntity
  8
DIMS
 62
     4
100
AcDbLine
 10
458.744627
 20
553.944987
 30
0.0
 11
455.344627
 21
553.944987
 31
0.0
  0
CIRCLE
  5
E3
100
AcDbEntity
  8
M04
100
AcDbCircle
 10
457.044627
 20
553.944987
 30
0.0
 40
6.5
  0
LINE
  5
E4
100
AcDbEntity
  8
DIMS
 62
     4
100
AcDbLine
 10
419.044627
 20
533.043414
 30
0.0
 11
419.044627
 21
528.243414
 31
0.0
  0
LINE
  5
E5
100
AcDbEntity
  8
DIMS
 62
     4
100
AcDbLine
 10
419.044627
 20
539.843414
 30
0.0
 11
419.044627
 21
544.643414
 31
0.0
  0
LINE
  5
E6
100
AcDbEntity
  8
DIMS
 62
     4
100
AcDbLine
 10
415.644627
 20
536.443414
 30
0.0
 11
410.844627
 21
536.443414
 31
0.0
  0
LINE
  5
E7
100
AcDbEntity
  8
DIMS
 62
     4
100
AcDbLine
 10
422.444627
 20
536.443414
 30
0.0
 11
427.244627
 21
536.443414
 31
0.0
  0
LINE
  5
E8
100
AcDbEntity
  8
DIMS
 62
     4
100
AcDbLine
 10
419.044627
 20
538.143414
 30
0.0
 11
419.044627
 21
534.743414
 31
0.0
  0
LINE
  5
E9
100
AcDbEntity
  8
DIMS
 62
     4
100
AcDbLine
 10
420.744627
 20
536.443414
 30
0.0
 11
417.344627
 21
536.443414
 31
0.0
  0
CIRCLE
  5
EA
100
AcDbEntity
  8
M04
100
AcDbCircle
 10
419.044627
 20
536.443414
 30
0.0
 40
6.5
  0
LINE
  5
EB
100
AcDbEntity
  8
DIMS
 62
     4
100
AcDbLine
 10
419.044627
 20
382.543414
 30
0.0
 11
419.044627
 21
377.743414
 31
0.0
  0
LINE
  5
EC
100
AcDbEntity
  8
DIMS
 62
     4
100
AcDbLine
 10
419.044627
 20
389.343414
 30
0.0
 11
419.044627
 21
394.143414
 31
0.0
  0
LINE
  5
ED
100
AcDbEntity
  8
DIMS
 62
     4
100
AcDbLine
 10
419.044627
 20
387.643414
 30
0.0
 11
419.044627
 21
384.243414
 31
0.0
  0
CIRCLE
  5
EE
100
AcDbEntity
  8
M04
100
AcDbCircle
 10
419.044627
 20
385.943414
 30
0.0
 40
6.5
  0
LINE
  5
EF
100
AcDbEntity
  8
DIMS
 62
     4
100
AcDbLine
 10
427.044627
 20
457.543414
 30
0.0
 11
427.044627
 21
452.743414
 31
0.0
  0
LINE
  5
F0
100
AcDbEntity
  8
DIMS
 62
     4
100
AcDbLine
 10
427.044627
 20
464.343414
 30
0.0
 11
427.044627
 21
469.143414
 31
0.0
  0
LINE
  5
F1
100
AcDbEntity
  8
DIMS
 62
     4
100
AcDbLine
 10
423.644627
 20
460.943414
 30
0.0
 11
418.844627
 21
460.943414
 31
0.0
  0
LINE
  5
F2
100
AcDbEntity
  8
DIMS
 62
     4
100
AcDbLine
 10
430.444627
 20
460.943414
 30
0.0
 11
435.244627
 21
460.943414
 31
0.0
  0
LINE
  5
F3
100
AcDbEntity
  8
DIMS
 62
     4
100
AcDbLine
 10
427.044627
 20
462.643414
 30
0.0
 11
427.044627
 21
459.243414
 31
0.0
  0
LINE
  5
F4
100
AcDbEntity
  8
DIMS
 62
     4
100
AcDbLine
 10
428.744627
 20
460.943414
 30
0.0
 11
425.344627
 21
460.943414
 31
0.0
  0
CIRCLE
  5
F5
100
AcDbEntity
  8
M04
100
AcDbCircle
 10
427.044627
 20
460.943414
 30
0.0
 40
6.5
  0
LINE
  5
F6
100
AcDbEntity
  8
DIMS
 62
     4
100
AcDbLine
 10
607.044627
 20
550.544987
 30
0.0
 11
607.044627
 21
545.744987
 31
0.0
  0
LINE
  5
F7
100
AcDbEntity
  8
DIMS
 62
     4
100
AcDbLine
 10
607.044627
 20
557.344987
 30
0.0
 11
607.044627
 21
562.144987
 31
0.0
  0
LINE
  5
F8
100
AcDbEntity
  8
DIMS
 62
     4
100
AcDbLine
 10
610.444627
 20
553.944987
 30
0.0
 11
615.244627
 21
553.944987
 31
0.0
  0
LINE
  5
F9
100
AcDbEntity
  8
DIMS
 62
     4
100
AcDbLine
 10
603.644627
 20
553.944987
 30
0.0
 11
598.844627
 21
553.944987
 31
0.0
  0
LINE
  5
FA
100
AcDbEntity
  8
DIMS
 62
     4
100
AcDbLine
 10
607.044627
 20
555.644987
 30
0.0
 11
607.044627
 21
552.244987
 31
0.0
  0
LINE
  5
FB
100
AcDbEntity
  8
DIMS
 62
     4
100
AcDbLine
 10
605.344627
 20
553.944987
 30
0.0
 11
608.744627
 21
553.944987
 31
0.0
  0
CIRCLE
  5
FC
100
AcDbEntity
  8
M04
100
AcDbCircle
 10
607.044627
 20
553.944987
 30
0.0
 40
6.5
  0
LINE
  5
FD
100
AcDbEntity
  8
DIMS
 62
     4
100
AcDbLine
 10
645.044627
 20
533.043414
 30
0.0
 11
645.044627
 21
528.243414
 31
0.0
  0
LINE
  5
FE
100
AcDbEntity
  8
DIMS
 62
     4
100
AcDbLine
 10
645.044627
 20
539.843414
 30
0.0
 11
645.044627
 21
544.643414
 31
0.0
  0
LINE
  5
FF
100
AcDbEntity
  8
DIMS
 62
     4
100
AcDbLine
 10
648.444627
 20
536.443414
 30
0.0
 11
653.244627
 21
536.443414
 31
0.0
  0
LINE
  5
100
100
AcDbEntity
  8
DIMS
 62
     4
100
AcDbLine
 10
641.644627
 20
536.443414
 30
0.0
 11
636.844627
 21
536.443414
 31
0.0
  0
LINE
  5
101
100
AcDbEntity
  8
DIMS
 62
     4
100
AcDbLine
 10
645.044627
 20
538.143414
 30
0.0
 11
645.044627
 21
534.743414
 31
0.0
  0
LINE
  5
102
100
AcDbEntity
  8
DIMS
 62
     4
100
AcDbLine
 10
643.344627
 20
536.443414
 30
0.0
 11
646.744627
 21
536.443414
 31
0.0
  0
CIRCLE
  5
103
100
AcDbEntity
  8
M04
100
AcDbCircle
 10
645.044627
 20
536.443414
 30
0.0
 40
6.5
  0
LINE
  5
104
100
AcDbEntity
  8
DIMS
 62
     4
100
AcDbLine
 10
645.044627
 20
382.543414
 30
0.0
 11
645.044627
 21
377.743414
 31
0.0
  0
LINE
  5
105
100
AcDbEntity
  8
DIMS
 62
     4
100
AcDbLine
 10
645.044627
 20
389.343414
 30
0.0
 11
645.044627
 21
394.143414
 31
0.0
  0
LINE
  5
106
100
AcDbEntity
  8
DIMS
 62
     4
100
AcDbLine
 10
645.044627
 20
387.643414
 30
0.0
 11
645.044627
 21
384.243414
 31
0.0
  0
CIRCLE
  5
107
100
AcDbEntity
  8
M04
100
AcDbCircle
 10
645.044627
 20
385.943414
 30
0.0
 40
6.5
  0
LINE
  5
108
100
AcDbEntity
  8
DIMS
 62
     4
100
AcDbLine
 10
637.044627
 20
457.543414
 30
0.0
 11
637.044627
 21
452.743414
 31
0.0
  0
LINE
  5
109
100
AcDbEntity
  8
DIMS
 62
     4
100
AcDbLine
 10
637.044627
 20
464.343414
 30
0.0
 11
637.044627
 21
469.143414
 31
0.0
  0
LINE
  5
10A
100
AcDbEntity
  8
DIMS
 62
     4
100
AcDbLine
 10
640.444627
 20
460.943414
 30
0.0
 11
645.244627
 21
460.943414
 31
0.0
  0
LINE
  5
10B
100
AcDbEntity
  8
DIMS
 62
     4
100
AcDbLine
 10
633.644627
 20
460.943414
 30
0.0
 11
628.844627
 21
460.943414
 31
0.0
  0
LINE
  5
10C
100
AcDbEntity
  8
DIMS
 62
     4
100
AcDbLine
 10
637.044627
 20
462.643414
 30
0.0
 11
637.044627
 21
459.243414
 31
0.0
  0
LINE
  5
10D
100
AcDbEntity
  8
DIMS
 62
     4
100
AcDbLine
 10
635.344627
 20
460.943414
 30
0.0
 11
638.744627
 21
460.943414
 31
0.0
  0
CIRCLE
  5
10E
100
AcDbEntity
  8
M04
100
AcDbCircle
 10
637.044627
 20
460.943414
 30
0.0
 40
6.5
  0
HATCH
  5
10F
100
AcDbEntity
  8
HATCH
100
AcDbHatch
 10
0.0
 20
0.0
 30
0.0
210
0.0
220
0.0
230
1.0
  2
_U
 70
     0
 71
     1
 91
        5
 92
        7
 72
     0
 73
     1
 93
        4
 10
822.7589143034769
 20
303.4434140619692
 10
809.758914303477
 20
303.4434140619693
 10
809.7589143034769
 20
277.4434140619693
 10
822.7589143034771
 20
277.4434140619693
 97
        4
330
219
330
44D
330
221
330
212
 92
       23
 72
     0
 73
     1
 93
        4
 10
826.758914303477
 20
303.4434140619692
 10
822.7589143034771
 20
303.4434140619692
 10
822.7589143034773
 20
277.4434140619693
 10
826.7589143034774
 20
277.4434140619693
 97
        4
330
219
330
212
330
221
330
210
 92
       22
 72
     1
 73
     1
 93
        4
 10
830.7589143034771
 20
303.4434140619692
 42
0.0
 10
826.7589143034772
 20
303.4434140619692
 42
0.0
 10
826.7589143034772
 20
277.4434140619693
 42
-0.4142135623730868
 10
830.7589143034771
 20
273.4434140619693
 42
0.0
 97
        4
330
219
330
210
330
220
330
211
 92
        7
 72
     1
 73
     1
 93
       25
 10
869.7589143034768
 20
303.4434140619692
 42
0.0
 10
830.7589143034771
 20
303.4434140619692
 42
0.0
 10
830.7589143034771
 20
273.4434140619693
 42
-0.4142135623730951
 10
826.758914303477
 20
269.4434140619692
 42
0.0
 10
809.758914303477
 20
269.4434140619692
 42
0.0
 10
809.7589143034772
 20
255.1846808615501
 42
0.0
 10
813.7589143034764
 20
255.1846808615501
 42
-0.4142135623730951
 10
817.7589143034763
 20
251.1846808615501
 42
-0.4142135623730951
 10
813.7589143034764
 20
247.1846808615501
 42
0.0
 10
809.758914303477
 20
247.1846808615501
 42
0.0
 10
809.758914303477
 20
244.5334140619694
 42
0.0
 10
811.7589143034768
 20
242.5334140619695
 42
0.0
 10
867.7589143034763
 20
242.5334140619694
 42
0.0
 10
869.7589143034766
 20
244.5334140619697
 42
0.0
 10
869.7589143034766
 20
247.1846808615501
 42
0.0
 10
865.7589143034764
 20
247.1846808615501
 42
-0.4142135623730951
 10
861.7589143034765
 20
251.1846808615501
 42
-0.4142135623730951
 10
865.7589143034764
 20
255.1846808615501
 42
0.0
 10
869.7589143034768
 20
255.1846808615501
 42
0.0
 10
869.7589143034768
 20
259.4434140619694
 42
0.0
 10
869.458914303477
 20
259.4434140619694
 42
0.0
 10
868.758914303477
 20
260.1434140619693
 42
0.0
 10
868.7589143034768
 20
286.7434140619693
 42
0.0
 10
869.4589143034768
 20
287.4434140619694
 42
0.0
 10
869.7589143034768
 20
287.4434140619694
 42
0.0
 97
       20
330
219
330
211
330
220
330
222
330
44D
330
536
330
538
330
535
330
60C
330
60E
330
609
330
226
330
533
330
537
330
534
330
4CE
330
4CD
330
4D8
330
4D2
330
4D3
 92
       24
 93
        4
 72
     1
 10
834.775855
 20
251.678082
 11
848.89014
 21
251.678082
 72
     1
 10
848.89014
 20
251.678082
 11
848.89014
 21
254.678082
 72
     1
 10
848.89014
 20
254.678082
 11
834.775855
 21
254.678082
 72
     1
 10
834.775855
 20
254.678082
 11
834.775855
 21
251.678082
 97
        1
330
4F9
 75
     0
 76
     0
 52
45.0
 41
6.0
 77
     0
 78
     1
 53
45.0
 43
0.0
 44
0.0
 45
-4.242640687119284
 46
4.242640687119285
 79
     0
 47
0.196251
 98
        4
 10
819.77852
 20
294.908683
 10
825.275715
 20
294.712431
 10
828.024311
 20
294.712431
 10
835.877443
 20
292.749918
  0
HATCH
  5
110
100
AcDbEntity
  8
HATCH
100
AcDbHatch
 10
0.0
 20
0.0
 30
0.0
210
0.0
220
0.0
230
1.0
  2
_U
 70
     0
 71
     1
 91
        7
 92
        7
 72
     1
 73
     1
 93
       11
 10
844.7589143034765
 20
385.9434140619694
 42
0.0
 10
814.7589143034768
 20
385.9434140619694
 42
0.0
 10
814.7589143034769
 20
377.4434140619694
 42
0.0
 10
814.7589143034769
 20
376.4434140619694
 42
0.0
 10
813.7589143034769
 20
376.4434140619694
 42
0.0
 10
809.7589143034769
 20
376.4434140619694
 42
0.0
 10
809.758914303477
 20
352.4434140619693
 42
0.0
 10
826.758914303477
 20
352.4434140619693
 42
-0.4142135623730951
 10
830.7589143034771
 20
348.4434140619693
 42
0.0
 10
830.7589143034771
 20
318.4434140619693
 42
0.0
 10
844.7589143034765
 20
318.4434140619693
 42
0.0
 97
       11
330
5FD
330
4A2
330
492
330
493
330
4A1
330
44D
330
21B
330
21A
330
20D
330
218
330
231
 92
        7
 72
     1
 73
     1
 93
        4
 10
830.7589143034771
 20
348.4434140619693
 42
-0.4142135623730951
 10
826.758914303477
 20
344.4434140619692
 42
0.0
 10
826.758914303477
 20
318.4434140619692
 42
0.0
 10
830.7589143034769
 20
318.4434140619691
 42
0.0
 97
        4
330
21A
330
210
330
218
330
20D
 92
       23
 72
     0
 73
     1
 93
        4
 10
826.758914303477
 20
344.4434140619692
 10
822.7589143034771
 20
344.4434140619692
 10
822.7589143034773
 20
318.4434140619693
 10
826.7589143034772
 20
318.4434140619693
 97
        4
330
21C
330
212
330
218
330
210
 92
       23
 72
     0
 73
     1
 93
        4
 10
822.7589143034771
 20
344.4434140619692
 10
809.758914303477
 20
344.4434140619692
 10
809.758914303477
 20
318.4434140619693
 10
822.7589143034771
 20
318.4434140619693
 97
        4
330
21C
330
44D
330
218
330
212
 92
        7
 72
     1
 73
     1
 93
        4
 10
848.7589143034766
 20
381.9434140619695
 42
-0.4142135623731158
 10
844.7589143034763
 20
385.9434140619694
 42
0.0
 10
844.7589143034763
 20
318.4434140619693
 42
0.0
 10
848.7589143034764
 20
318.4434140619693
 42
0.0
 97
        4
330
241
330
231
330
218
330
22D
 92
        7
 72
     0
 73
     1
 93
        4
 10
852.7589143034765
 20
381.9434140619694
 10
848.7589143034764
 20
381.9434140619694
 10
848.7589143034764
 20
318.4434140619692
 10
852.7589143034765
 20
318.4434140619692
 97
        4
330
5EA
330
22D
330
218
330
233
 92
        7
 72
     0
 73
     1
 93
       20
 10
869.7589143034768
 20
356.9434140619694
 10
862.4589143034768
 20
356.9434140619694
 10
859.9589143034769
 20
356.9434140619694
 10
859.9589143034767
 20
357.6434140619695
 10
858.4589143034772
 20
357.6434140619695
 10
857.1310086843409
 20
359.9434140619694
 10
858.4589143034769
 20
362.2434140619694
 10
859.9589143034771
 20
362.2434140619694
 10
859.9589143034767
 20
362.9434140619694
 10
862.4589143034766
 20
362.9434140619694
 10
869.7589143034768
 20
362.9434140619694
 10
869.7589143034766
 20
375.4434140619696
 10
869.2589143034771
 20
375.9434140619694
 10
860.758914303477
 20
375.9434140619694
 10
859.758914303477
 20
375.9434140619696
 10
859.758914303477
 20
376.9434140619694
 10
859.758914303477
 20
381.9434140619694
 10
852.7589143034765
 20
381.9434140619694
 10
852.7589143034765
 20
318.4434140619693
 10
869.7589143034766
 20
318.4434140619692
 97
       19
330
41D
330
408
330
412
330
409
330
40F
330
410
330
407
330
406
330
41C
330
3EB
330
43B
330
44A
330
444
330
445
330
448
330
5EA
330
233
330
218
330
226
 75
     0
 76
     0
 52
45.0
 41
6.0
 77
     0
 78
     1
 53
45.0
 43
0.0
 44
0.0
 45
-4.242640687119284
 46
4.242640687119285
 79
     0
 47
0.196251
 98
        7
 10
835.681116
 20
360.456608
 10
829.398609
 20
331.60767
 10
824.883056
 20
331.215168
 10
819.582192
 20
331.411419
 10
846.871831
 20
331.803921
 10
851.97637
 20
332.588926
 10
859.829503
 20
332.588926
  0
HATCH
  5
111
100
AcDbEntity
  8
HATCH
100
AcDbHatch
 10
0.0
 20
0.0
 30
0.0
210
0.0
220
0.0
230
1.0
  2
_U
 70
     0
 71
     1
 91
        7
 92
        7
 72
     0
 73
     1
 93
        4
 10
822.7589143034773
 20
453.4434140619694
 10
809.7589143034767
 20
453.4434140619694
 10
809.7589143034767
 20
427.4434140619693
 10
822.7589143034773
 20
427.4434140619694
 97
        4
330
23F
330
610
330
245
330
235
 92
       23
 72
     0
 73
     1
 93
        4
 10
826.758914303477
 20
453.4434140619693
 10
822.7589143034771
 20
453.4434140619693
 10
822.7589143034771
 20
427.4434140619693
 10
826.758914303477
 20
427.4434140619693
 97
        4
330
23F
330
235
330
245
330
232
 92
       22
 72
     1
 73
     1
 93
        4
 10
830.7589143034769
 20
453.4434140619693
 42
0.0
 10
826.7589143034774
 20
453.4434140619693
 42
0.0
 10
826.7589143034772
 20
427.4434140619693
 42
-0.4142135623730868
 10
830.7589143034771
 20
423.4434140619693
 42
0.0
 97
        4
330
23F
330
232
330
243
330
22E
 92
        7
 72
     1
 73
     1
 93
       11
 10
844.7589143034763
 20
453.4434140619693
 42
0.0
 10
830.7589143034771
 20
453.4434140619693
 42
0.0
 10
830.7589143034771
 20
423.4434140619693
 42
-0.4142135623730951
 10
826.758914303477
 20
419.4434140619693
 42
0.0
 10
809.7589143034767
 20
419.4434140619693
 42
0.0
 10
809.758914303477
 20
395.4434140619694
 42
0.0
 10
813.7589143034769
 20
395.4434140619694
 42
0.0
 10
814.7589143034769
 20
395.4434140619694
 42
0.0
 10
814.7589143034769
 20
394.4434140619694
 42
0.0
 10
814.7589143034768
 20
385.9434140619694
 42
0.0
 10
844.7589143034763
 20
385.9434140619694
 42
0.0
 97
       11
330
23F
330
22E
330
243
330
244
330
610
330
4A0
330
48C
330
48B
330
4A2
330
5FD
330
231
 92
        7
 72
     1
 73
     1
 93
        4
 10
848.7589143034764
 20
453.4434140619693
 42
0.0
 10
844.7589143034763
 20
453.4434140619691
 42
0.0
 10
844.7589143034763
 20
385.9434140619694
 42
-0.4142135623731076
 10
848.7589143034764
 20
389.9434140619693
 42
0.0
 97
        4
330
23F
330
231
330
241
330
22D
 92
        7
 72
     0
 73
     1
 93
        4
 10
852.7589143034765
 20
453.4434140619693
 10
848.7589143034764
 20
453.4434140619694
 10
848.7589143034764
 20
389.9434140619693
 10
852.7589143034763
 20
389.9434140619693
 97
        4
330
23F
330
22D
330
5EB
330
233
 92
        7
 72
     0
 73
     1
 93
       20
 10
869.7589143034766
 20
453.4434140619693
 10
852.7589143034765
 20
453.4434140619693
 10
852.7589143034765
 20
389.9434140619693
 10
859.7589143034769
 20
389.9434140619695
 10
859.7589143034769
 20
394.9434140619694
 10
859.7589143034769
 20
395.9434140619692
 10
860.7589143034768
 20
395.9434140619692
 10
869.2589143034771
 20
395.9434140619694
 10
869.7589143034768
 20
396.4434140619692
 10
869.7589143034766
 20
408.9434140619694
 10
862.4589143034768
 20
408.9434140619694
 10
859.9589143034769
 20
408.9434140619694
 10
859.9589143034767
 20
409.6434140619694
 10
858.4589143034769
 20
409.6434140619694
 10
857.1310086843409
 20
411.9434140619696
 10
858.458914303477
 20
414.2434140619694
 10
859.9589143034769
 20
414.2434140619693
 10
859.9589143034769
 20
414.9434140619694
 10
862.4589143034766
 20
414.9434140619694
 10
869.7589143034766
 20
414.9434140619694
 97
       19
330
23F
330
233
330
5EB
330
448
330
443
330
442
330
449
330
43A
330
227
330
402
330
3EC
330
3F8
330
3ED
330
3F6
330
3F5
330
3EF
330
3EE
330
403
330
60D
 75
     0
 76
     0
 52
45.0
 41
6.0
 77
     0
 78
     1
 53
45.0
 43
0.0
 44
0.0
 45
-4.242640687119284
 46
4.242640687119285
 79
     0
 47
0.285969
 98
        7
 10
816.428265
 20
446.207965
 10
824.152471
 20
446.493935
 10
828.443699
 20
446.207965
 10
835.595744
 20
444.778117
 10
846.752934
 20
442.490362
 10
851.330242
 20
441.918423
 10
860.77094
 20
441.918423
  0
HATCH
  5
112
100
AcDbEntity
  8
HATCH
100
AcDbHatch
 10
0.0
 20
0.0
 30
0.0
210
0.0
220
0.0
230
1.0
  2
_U
 70
     0
 71
     0
 91
        4
 92
        7
 72
     1
 73
     1
 93
       16
 10
869.7589143034765
 20
560.4434140619694
 42
0.0
 10
867.7589143034763
 20
562.4434140619696
 42
0.0
 10
815.7589143034767
 20
562.4434140619696
 42
0.0
 10
815.7589143034767
 20
550.4434140619695
 42
0.0
 10
809.7589143034767
 20
550.4434140619696
 42
0.0
 10
809.7589143034767
 20
502.4434140619693
 42
0.0
 10
826.758914303477
 20
502.4434140619693
 42
-0.4142135623730951
 10
830.7589143034771
 20
498.4434140619693
 42
0.0
 10
830.7589143034771
 20
468.4434140619694
 42
0.0
 10
869.7589143034765
 20
468.4434140619694
 42
0.0
 10
869.7589143034765
 20
484.4434140619693
 42
0.0
 10
869.458914303477
 20
484.4434140619695
 42
0.0
 10
868.758914303477
 20
485.1434140619693
 42
0.0
 10
868.758914303477
 20
511.7434140619694
 42
0.0
 10
869.458914303477
 20
512.4434140619695
 42
0.0
 10
869.7589143034766
 20
512.4434140619692
 42
0.0
 97
        0
 92
        7
 72
     0
 73
     1
 93
        4
 10
822.7589143034769
 20
494.4434140619693
 10
809.7589143034767
 20
494.4434140619693
 10
809.7589143034769
 20
468.4434140619693
 10
822.7589143034773
 20
468.4434140619694
 97
        0
 92
       23
 72
     0
 73
     1
 93
        4
 10
826.7589143034772
 20
494.4434140619693
 10
822.7589143034773
 20
494.4434140619694
 10
822.7589143034773
 20
468.4434140619694
 10
826.7589143034772
 20
468.4434140619694
 97
        0
 92
       22
 72
     1
 73
     1
 93
        4
 10
830.7589143034771
 20
498.4434140619693
 42
-0.4142135623730868
 10
826.7589143034772
 20
494.4434140619693
 42
0.0
 10
826.7589143034772
 20
468.4434140619694
 42
0.0
 10
830.7589143034771
 20
468.4434140619694
 42
0.0
 97
        0
 75
     0
 76
     0
 52
45.0
 41
6.0
 77
     0
 78
     1
 53
45.0
 43
0.0
 44
0.0
 45
-4.242640687119284
 46
4.242640687119285
 79
     0
 47
0.285969
 98
        4
 10
845.894686
 20
536.860284
 10
816.428265
 20
479.952361
 10
824.438553
 20
484.527873
 10
827.871534
 20
485.099812
  0
HATCH
  5
113
100
AcDbEntity
  8
HATCH
100
AcDbHatch
 10
0.0
 20
0.0
 30
0.0
210
0.0
220
0.0
230
1.0
  2
_U
 70
     0
 71
     1
 91
        2
 92
        7
 72
     0
 73
     1
 93
        4
 10
872.7589143034762
 20
303.4434140619693
 10
869.7589143034768
 20
303.4434140619693
 10
869.7589143034766
 20
288.4434140619694
 10
872.7589143034762
 20
288.4434140619694
 97
        4
330
216
330
226
330
4D7
330
204
 92
        7
 72
     0
 73
     1
 93
        4
 10
872.7589143034762
 20
258.4434140619694
 10
869.7589143034766
 20
258.4434140619694
 10
869.7589143034768
 20
244.5334140619694
 10
872.7589143034766
 20
244.5334140619695
 97
        4
330
4D6
330
226
330
3E9
330
3E8
 75
     0
 76
     0
 52
135.0
 41
0.8
 77
     0
 78
     1
 53
135.0
 43
0.0
 44
0.0
 45
-0.5656854249492382
 46
-0.565685424949238
 79
     0
 47
0.207647
 98
        2
 10
871.007552
 20
294.721928
 10
871.838465
 20
249.039696
  0
HATCH
  5
114
100
AcDbEntity
  8
HATCH
100
AcDbHatch
 10
0.0
 20
0.0
 30
0.0
210
0.0
220
0.0
230
1.0
  2
_U
 70
     0
 71
     1
 91
        2
 92
        7
 72
     0
 73
     1
 93
        4
 10
809.758914303477
 20
303.4434140619692
 10
806.7589143034767
 20
303.4434140619692
 10
806.7589143034769
 20
291.4434140619694
 10
809.7589143034769
 20
291.4434140619694
 97
        4
330
217
330
44C
330
4FC
330
44D
 92
        7
 72
     0
 73
     1
 93
        4
 10
809.758914303477
 20
255.4434140619695
 10
806.7589143034769
 20
255.4434140619695
 10
806.7589143034769
 20
244.5334140619694
 10
809.758914303477
 20
244.5334140619694
 97
        4
330
4FB
330
44C
330
606
330
44D
 75
     0
 76
     0
 52
135.0
 41
0.8
 77
     0
 78
     1
 53
135.0
 43
0.0
 44
0.0
 45
-0.5656854249492382
 46
-0.565685424949238
 79
     0
 47
0.207647
 98
        2
 10
808.273679
 20
296.175454
 10
807.650494
 20
248.416756
  0
HATCH
  5
115
100
AcDbEntity
  8
HATCH
100
AcDbHatch
 10
0.0
 20
0.0
 30
0.0
210
0.0
220
0.0
230
1.0
  2
_U
 70
     0
 71
     1
 91
        1
 92
        7
 72
     0
 73
     1
 93
        4
 10
872.7589143034762
 20
350.9434140619694
 10
869.7589143034768
 20
350.9434140619694
 10
869.7589143034766
 20
318.4434140619695
 10
872.7589143034762
 20
318.4434140619694
 97
        4
330
123
330
226
330
206
330
204
 75
     0
 76
     0
 52
135.0
 41
0.8
 77
     0
 78
     1
 53
135.0
 43
0.0
 44
0.0
 45
-0.5656854249492382
 46
-0.565685424949238
 79
     0
 47
0.177259
 98
        1
 10
871.289378
 20
348.722679
  0
HATCH
  5
116
100
AcDbEntity
  8
HATCH
100
AcDbHatch
 10
0.0
 20
0.0
 30
0.0
210
0.0
220
0.0
230
1.0
  2
_U
 70
     0
 71
     1
 91
        3
 92
        7
 72
     0
 73
     1
 93
        4
 10
809.758914303477
 20
405.4434140619694
 10
806.7589143034767
 20
405.4434140619694
 10
806.7589143034767
 20
396.9434140619695
 10
809.7589143034769
 20
396.9434140619695
 97
        4
330
246
330
608
330
494
330
610
 92
        7
 72
     0
 73
     1
 93
        4
 10
809.7589143034769
 20
374.9434140619694
 10
806.7589143034767
 20
374.9434140619694
 10
806.7589143034769
 20
366.4434140619693
 10
809.7589143034769
 20
366.4434140619693
 97
        4
330
495
330
44C
330
21D
330
44D
 92
        7
 72
     0
 73
     1
 93
        4
 10
809.758914303477
 20
330.4434140619692
 10
806.7589143034767
 20
330.4434140619692
 10
806.7589143034769
 20
318.4434140619693
 10
809.7589143034769
 20
318.4434140619692
 97
        4
330
21E
330
44C
330
215
330
44D
 75
     0
 76
     0
 52
135.0
 41
0.8
 77
     0
 78
     1
 53
135.0
 43
0.0
 44
0.0
 45
-0.5656854249492382
 46
-0.565685424949238
 79
     0
 47
0.177259
 98
        3
 10
808.514972
 20
401.723185
 10
808.160313
 20
370.880083
 10
807.096339
 20
327.806092
  0
HATCH
  5
117
100
AcDbEntity
  8
HATCH
100
AcDbHatch
 10
0.0
 20
0.0
 30
0.0
210
0.0
220
0.0
230
1.0
  2
_U
 70
     0
 71
     1
 91
        3
 92
        7
 72
     0
 73
     1
 93
        4
 10
872.7589143034766
 20
560.4434140619696
 10
869.7589143034766
 20
560.4434140619696
 10
869.7589143034766
 20
513.4434140619694
 10
872.7589143034766
 20
513.4434140619694
 97
        4
330
605
330
60D
330
27E
330
607
 92
        7
 72
     0
 73
     1
 93
        4
 10
872.7589143034766
 20
483.4434140619693
 10
869.7589143034765
 20
483.4434140619694
 10
869.7589143034768
 20
468.4434140619694
 10
872.7589143034766
 20
468.4434140619693
 97
        4
330
27D
330
60D
330
23D
330
242
 92
        7
 72
     0
 73
     1
 93
        4
 10
872.7589143034766
 20
453.4434140619693
 10
869.7589143034765
 20
453.4434140619693
 10
869.7589143034765
 20
420.9434140619694
 10
872.7589143034766
 20
420.9434140619693
 97
        4
330
23B
330
60D
330
125
330
242
 75
     0
 76
     0
 52
135.0
 41
0.8
 77
     0
 78
     1
 53
135.0
 43
0.0
 44
0.0
 45
-0.5656854249492382
 46
-0.565685424949238
 79
     0
 47
0.216509
 98
        3
 10
871.130417
 20
522.998241
 10
871.563606
 20
473.417573
 10
871.34701
 20
444.405304
  0
HATCH
  5
118
100
AcDbEntity
  8
HATCH
100
AcDbHatch
 10
0.0
 20
0.0
 30
0.0
210
0.0
220
0.0
230
1.0
  2
_U
 70
     0
 71
     1
 91
        3
 92
        7
 72
     0
 73
     1
 93
        4
 10
809.7589143034769
 20
550.4434140619696
 10
806.7589143034766
 20
550.4434140619696
 10
806.7589143034766
 20
516.4434140619694
 10
809.7589143034767
 20
516.4434140619694
 97
        4
330
602
330
608
330
285
330
610
 92
        7
 72
     0
 73
     1
 93
        4
 10
809.7589143034767
 20
480.4434140619694
 10
806.7589143034766
 20
480.4434140619694
 10
806.7589143034766
 20
468.4434140619694
 10
809.7589143034767
 20
468.4434140619694
 97
        4
330
284
330
608
330
23E
330
610
 92
        7
 72
     0
 73
     1
 93
        4
 10
809.7589143034769
 20
453.4434140619693
 10
806.7589143034767
 20
453.4434140619693
 10
806.7589143034766
 20
441.4434140619694
 10
809.7589143034767
 20
441.4434140619693
 97
        4
330
23C
330
608
330
247
330
610
 75
     0
 76
     0
 52
135.0
 41
0.8
 77
     0
 78
     1
 53
135.0
 43
0.0
 44
0.0
 45
-0.5656854249492382
 46
-0.565685424949238
 79
     0
 47
0.216509
 98
        3
 10
807.668228
 20
544.865696
 10
808.318011
 20
475.366158
 10
807.884821
 20
445.92087
  0
LINE
  5
119
100
AcDbEntity
  8
DIMS
 62
     4
100
AcDbLine
 10
535.444627
 20
348.443414
 30
0.0
 11
537.744627
 21
348.443414
 31
0.0
  0
LINE
  5
11A
100
AcDbEntity
  8
DIMS
 62
     4
100
AcDbLine
 10
528.644627
 20
348.443414
 30
0.0
 11
526.344627
 21
348.443414
 31
0.0
  0
LINE
  5
11B
100
AcDbEntity
  8
DIMS
 62
     4
100
AcDbLine
 10
530.344627
 20
348.443414
 30
0.0
 11
533.744627
 21
348.443414
 31
0.0
  0
LINE
  5
11C
100
AcDbEntity
  8
DIMS
 62
     4
100
AcDbLine
 10
535.444627
 20
423.443414
 30
0.0
 11
537.744627
 21
423.443414
 31
0.0
  0
LINE
  5
11D
100
AcDbEntity
  8
DIMS
 62
     4
100
AcDbLine
 10
528.644627
 20
423.443414
 30
0.0
 11
526.344627
 21
423.443414
 31
0.0
  0
LINE
  5
11E
100
AcDbEntity
  8
DIMS
 62
     4
100
AcDbLine
 10
530.344627
 20
423.443414
 30
0.0
 11
533.744627
 21
423.443414
 31
0.0
  0
LINE
  5
11F
100
AcDbEntity
  8
M03
100
AcDbLine
 10
569.544627
 20
385.943414
 30
0.0
 11
565.544627
 21
389.943414
 31
0.0
  0
LINE
  5
122
100
AcDbEntity
  8
M03
100
AcDbLine
 10
565.544627
 20
381.943414
 30
0.0
 11
569.544627
 21
385.943414
 31
0.0
  0
LINE
  5
123
102
{ACAD_REACTORS
330
115
102
}
100
AcDbEntity
  8
M02
100
AcDbLine
 10
869.758914
 20
350.943414
 30
0.0
 11
872.758914
 21
350.943414
 31
0.0
  0
LINE
  5
125
102
{ACAD_REACTORS
330
117
102
}
100
AcDbEntity
  8
M02
100
AcDbLine
 10
869.758914
 20
420.943414
 30
0.0
 11
872.758914
 21
420.943414
 31
0.0
  0
LINE
  5
126
100
AcDbEntity
  8
M04
100
AcDbLine
 10
446.096665
 20
235.443414
 30
0.0
 11
617.992588
 21
235.443414
 31
0.0
  0
LINE
  5
127
100
AcDbEntity
  8
M04
100
AcDbLine
 10
593.044627
 20
542.614987
 30
0.0
 11
586.044627
 21
549.614987
 31
0.0
  0
LINE
  5
128
100
AcDbEntity
  8
M04
100
AcDbLine
 10
611.821015
 20
542.614987
 30
0.0
 11
593.044627
 21
542.614987
 31
0.0
  0
ARC
  5
129
100
AcDbEntity
  8
M04
100
AcDbCircle
 10
626.113169
 20
310.943414
 30
0.0
 40
5.0
100
AcDbArc
 50
135.0
 51
225.0
  0
LINE
  5
12A
100
AcDbEntity
  8
M04
100
AcDbLine
 10
648.767345
 20
340.668658
 30
0.0
 11
622.577635
 21
314.478948
 31
0.0
  0
LINE
  5
12B
100
AcDbEntity
  8
M04
100
AcDbLine
 10
648.767345
 20
281.218171
 30
0.0
 11
622.577635
 21
307.40788
 31
0.0
  0
ARC
  5
12C
100
AcDbEntity
  8
M04
100
AcDbCircle
 10
626.113169
 20
460.943414
 30
0.0
 40
5.0
100
AcDbArc
 50
135.0
 51
225.0
  0
LINE
  5
12D
100
AcDbEntity
  8
M04
100
AcDbLine
 10
648.767345
 20
431.218171
 30
0.0
 11
622.577635
 21
457.40788
 31
0.0
  0
LINE
  5
12E
100
AcDbEntity
  8
M04
100
AcDbLine
 10
648.767345
 20
490.668658
 30
0.0
 11
622.577635
 21
464.478948
 31
0.0
  0
LINE
  5
12F
100
AcDbEntity
  8
M04
100
AcDbLine
 10
586.044627
 20
607.443414
 30
0.0
 11
586.044627
 21
549.614987
 31
0.0
  0
ARC
  5
130
100
AcDbEntity
  8
M01
100
AcDbCircle
 10
437.976084
 20
310.943414
 30
0.0
 40
12.0
100
AcDbArc
 50
315.0
 51
45.0
  0
LINE
  5
131
100
AcDbEntity
  8
M01
100
AcDbLine
 10
425.044627
 20
281.041394
 30
0.0
 11
446.461365
 21
302.458133
 31
0.0
  0
LINE
  5
132
100
AcDbEntity
  8
DIMS
 62
     4
100
AcDbLine
 10
460.444627
 20
273.443414
 30
0.0
 11
473.744627
 21
273.443414
 31
0.0
  0
LINE
  5
133
100
AcDbEntity
  8
DIMS
 62
     4
100
AcDbLine
 10
453.644627
 20
273.443414
 30
0.0
 11
440.344627
 21
273.443414
 31
0.0
  0
LINE
  5
134
100
AcDbEntity
  8
DIMS
 62
     4
100
AcDbLine
 10
455.344627
 20
273.443414
 30
0.0
 11
458.744627
 21
273.443414
 31
0.0
  0
LINE
  5
135
100
AcDbEntity
  8
DIMS
 62
     4
100
AcDbLine
 10
457.044627
 20
270.043414
 30
0.0
 11
457.044627
 21
256.743414
 31
0.0
  0
LINE
  5
136
100
AcDbEntity
  8
DIMS
 62
     4
100
AcDbLine
 10
457.044627
 20
276.843414
 30
0.0
 11
457.044627
 21
290.143414
 31
0.0
  0
LINE
  5
137
100
AcDbEntity
  8
DIMS
 62
     4
100
AcDbLine
 10
457.044627
 20
275.143414
 30
0.0
 11
457.044627
 21
271.743414
 31
0.0
  0
CIRCLE
  5
138
100
AcDbEntity
  8
M03
100
AcDbCircle
 10
457.044627
 20
273.443414
 30
0.0
 40
2.3
  0
ARC
  5
139
100
AcDbEntity
  8
M03
100
AcDbCircle
 10
457.044627
 20
273.443414
 30
0.0
 40
3.0
100
AcDbArc
 50
173.076897
 51
102.215364
  0
LINE
  5
13A
100
AcDbEntity
  8
M03
100
AcDbLine
 10
463.019365
 20
272.893414
 30
0.0
 11
451.069888
 21
272.893414
 31
0.0
  0
LINE
  5
13B
100
AcDbEntity
  8
M03
100
AcDbLine
 10
463.019365
 20
273.993414
 30
0.0
 11
451.069888
 21
273.993414
 31
0.0
  0
CIRCLE
  5
13C
100
AcDbEntity
  8
M03
100
AcDbCircle
 10
457.044627
 20
273.443414
 30
0.0
 40
15.0
  0
CIRCLE
  5
13D
100
AcDbEntity
  8
M03
100
AcDbCircle
 10
457.044627
 20
273.443414
 30
0.0
 40
14.0
  0
CIRCLE
  5
13E
100
AcDbEntity
  8
M03
100
AcDbCircle
 10
457.044627
 20
273.443414
 30
0.0
 40
7.858882
  0
CIRCLE
  5
13F
100
AcDbEntity
  8
M03
100
AcDbCircle
 10
457.044627
 20
273.443414
 30
0.0
 40
6.0
  0
CIRCLE
  5
140
100
AcDbEntity
  8
M01
100
AcDbCircle
 10
457.044627
 20
273.443414
 30
0.0
 40
4.0
  0
LINE
  5
141
100
AcDbEntity
  8
DIMS
 62
     4
100
AcDbLine
 10
453.644627
 20
348.443414
 30
0.0
 11
440.344627
 21
348.443414
 31
0.0
  0
LINE
  5
142
100
AcDbEntity
  8
DIMS
 62
     4
100
AcDbLine
 10
460.444627
 20
348.443414
 30
0.0
 11
473.744627
 21
348.443414
 31
0.0
  0
LINE
  5
143
100
AcDbEntity
  8
DIMS
 62
     4
100
AcDbLine
 10
457.044627
 20
345.043414
 30
0.0
 11
457.044627
 21
331.743414
 31
0.0
  0
LINE
  5
144
100
AcDbEntity
  8
DIMS
 62
     4
100
AcDbLine
 10
457.044627
 20
351.843414
 30
0.0
 11
457.044627
 21
365.143414
 31
0.0
  0
LINE
  5
145
100
AcDbEntity
  8
DIMS
 62
     4
100
AcDbLine
 10
458.744627
 20
348.443414
 30
0.0
 11
455.344627
 21
348.443414
 31
0.0
  0
LINE
  5
146
100
AcDbEntity
  8
DIMS
 62
     4
100
AcDbLine
 10
457.044627
 20
350.143414
 30
0.0
 11
457.044627
 21
346.743414
 31
0.0
  0
CIRCLE
  5
147
100
AcDbEntity
  8
M03
100
AcDbCircle
 10
457.044627
 20
348.443414
 30
0.0
 40
2.3
  0
ARC
  5
148
100
AcDbEntity
  8
M03
100
AcDbCircle
 10
457.044627
 20
348.443414
 30
0.0
 40
3.0
100
AcDbArc
 50
173.076897
 51
102.215364
  0
LINE
  5
149
100
AcDbEntity
  8
M03
100
AcDbLine
 10
463.019365
 20
347.893414
 30
0.0
 11
451.069888
 21
347.893414
 31
0.0
  0
LINE
  5
14A
100
AcDbEntity
  8
M03
100
AcDbLine
 10
463.019365
 20
348.993414
 30
0.0
 11
451.069888
 21
348.993414
 31
0.0
  0
CIRCLE
  5
14B
100
AcDbEntity
  8
M03
100
AcDbCircle
 10
457.044627
 20
348.443414
 30
0.0
 40
14.0
  0
CIRCLE
  5
14C
100
AcDbEntity
  8
M03
100
AcDbCircle
 10
457.044627
 20
348.443414
 30
0.0
 40
7.858882
  0
CIRCLE
  5
14D
100
AcDbEntity
  8
M03
100
AcDbCircle
 10
457.044627
 20
348.443414
 30
0.0
 40
6.0
  0
LINE
  5
14E
100
AcDbEntity
  8
M03
100
AcDbLine
 10
454.216199
 20
345.614987
 30
0.0
 11
488.887772
 21
310.943414
 31
0.0
  0
LINE
  5
14F
100
AcDbEntity
  8
M03
100
AcDbLine
 10
459.873054
 20
351.271841
 30
0.0
 11
494.544627
 21
316.600268
 31
0.0
  0
LINE
  5
150
100
AcDbEntity
  8
CENTRE
100
AcDbLine
 10
442.902491
 20
362.58555
 30
0.0
 11
494.544627
 21
310.943414
 31
0.0
  0
CIRCLE
  5
153
100
AcDbEntity
  8
M01
100
AcDbCircle
 10
457.044627
 20
348.443414
 30
0.0
 40
4.0
  0
LINE
  5
154
100
AcDbEntity
  8
DIMS
 62
     4
100
AcDbLine
 10
497.944627
 20
310.943414
 30
0.0
 11
500.244627
 21
310.943414
 31
0.0
  0
LINE
  5
155
100
AcDbEntity
  8
DIMS
 62
     4
100
AcDbLine
 10
491.144627
 20
310.943414
 30
0.0
 11
488.844627
 21
310.943414
 31
0.0
  0
LINE
  5
156
100
AcDbEntity
  8
DIMS
 62
     4
100
AcDbLine
 10
492.844627
 20
310.943414
 30
0.0
 11
496.244627
 21
310.943414
 31
0.0
  0
CIRCLE
  5
157
100
AcDbEntity
  8
M03
100
AcDbCircle
 10
494.544627
 20
310.943414
 30
0.0
 40
4.0
  0
LINE
  5
158
100
AcDbEntity
  8
M03
100
AcDbLine
 10
488.887772
 20
310.943414
 30
0.0
 11
454.216199
 21
276.271841
 31
0.0
  0
LINE
  5
159
100
AcDbEntity
  8
M03
100
AcDbLine
 10
534.873054
 20
345.614987
 30
0.0
 11
459.873054
 21
270.614987
 31
0.0
  0
LINE
  5
15A
100
AcDbEntity
  8
M03
100
AcDbLine
 10
529.216199
 20
351.271841
 30
0.0
 11
494.544627
 21
316.600268
 31
0.0
  0
LINE
  5
15B
100
AcDbEntity
  8
CENTRE
100
AcDbLine
 10
538.408588
 20
354.807375
 30
0.0
 11
442.902491
 21
259.301278
 31
0.0
  0
CIRCLE
  5
15C
100
AcDbEntity
  8
M01
100
AcDbCircle
 10
532.044627
 20
348.443414
 30
0.0
 40
4.0
  0
CIRCLE
  5
15D
100
AcDbEntity
  8
M03
100
AcDbCircle
 10
457.044627
 20
348.443414
 30
0.0
 40
15.0
  0
LINE
  5
15E
100
AcDbEntity
  8
DIMS
 62
     4
100
AcDbLine
 10
460.444627
 20
423.443414
 30
0.0
 11
473.744627
 21
423.443414
 31
0.0
  0
LINE
  5
15F
100
AcDbEntity
  8
DIMS
 62
     4
100
AcDbLine
 10
453.644627
 20
423.443414
 30
0.0
 11
440.344627
 21
423.443414
 31
0.0
  0
LINE
  5
160
100
AcDbEntity
  8
DIMS
 62
     4
100
AcDbLine
 10
455.344627
 20
423.443414
 30
0.0
 11
458.744627
 21
423.443414
 31
0.0
  0
LINE
  5
161
100
AcDbEntity
  8
M03
100
AcDbLine
 10
498.544627
 20
381.943414
 30
0.0
 11
498.544627
 21
310.943414
 31
0.0
  0
LINE
  5
162
100
AcDbEntity
  8
DIMS
 62
     4
100
AcDbLine
 10
457.044627
 20
420.043414
 30
0.0
 11
457.044627
 21
406.743414
 31
0.0
  0
LINE
  5
163
100
AcDbEntity
  8
DIMS
 62
     4
100
AcDbLine
 10
457.044627
 20
426.843414
 30
0.0
 11
457.044627
 21
440.143414
 31
0.0
  0
LINE
  5
164
100
AcDbEntity
  8
DIMS
 62
     4
100
AcDbLine
 10
457.044627
 20
425.143414
 30
0.0
 11
457.044627
 21
421.743414
 31
0.0
  0
CIRCLE
  5
165
100
AcDbEntity
  8
M03
100
AcDbCircle
 10
457.044627
 20
423.443414
 30
0.0
 40
2.3
  0
ARC
  5
166
100
AcDbEntity
  8
M03
100
AcDbCircle
 10
457.044627
 20
423.443414
 30
0.0
 40
3.0
100
AcDbArc
 50
173.076897
 51
102.215364
  0
LINE
  5
167
100
AcDbEntity
  8
M03
100
AcDbLine
 10
463.019365
 20
422.893414
 30
0.0
 11
451.069888
 21
422.893414
 31
0.0
  0
LINE
  5
168
100
AcDbEntity
  8
M03
100
AcDbLine
 10
463.019365
 20
423.993414
 30
0.0
 11
451.069888
 21
423.993414
 31
0.0
  0
CIRCLE
  5
169
100
AcDbEntity
  8
M03
100
AcDbCircle
 10
457.044627
 20
423.443414
 30
0.0
 40
15.0
  0
CIRCLE
  5
16A
100
AcDbEntity
  8
M03
100
AcDbCircle
 10
457.044627
 20
423.443414
 30
0.0
 40
14.0
  0
CIRCLE
  5
16B
100
AcDbEntity
  8
M03
100
AcDbCircle
 10
457.044627
 20
423.443414
 30
0.0
 40
7.858882
  0
CIRCLE
  5
16C
100
AcDbEntity
  8
M03
100
AcDbCircle
 10
457.044627
 20
423.443414
 30
0.0
 40
6.0
  0
CIRCLE
  5
16D
100
AcDbEntity
  8
M01
100
AcDbCircle
 10
457.044627
 20
423.443414
 30
0.0
 40
4.0
  0
LINE
  5
16E
100
AcDbEntity
  8
DIMS
 62
     4
100
AcDbLine
 10
453.644627
 20
498.443414
 30
0.0
 11
440.344627
 21
498.443414
 31
0.0
  0
LINE
  5
16F
100
AcDbEntity
  8
DIMS
 62
     4
100
AcDbLine
 10
460.444627
 20
498.443414
 30
0.0
 11
473.744627
 21
498.443414
 31
0.0
  0
LINE
  5
170
100
AcDbEntity
  8
DIMS
 62
     4
100
AcDbLine
 10
457.044627
 20
495.043414
 30
0.0
 11
457.044627
 21
481.743414
 31
0.0
  0
LINE
  5
171
100
AcDbEntity
  8
DIMS
 62
     4
100
AcDbLine
 10
457.044627
 20
501.843414
 30
0.0
 11
457.044627
 21
515.143414
 31
0.0
  0
LINE
  5
172
100
AcDbEntity
  8
DIMS
 62
     4
100
AcDbLine
 10
458.744627
 20
498.443414
 30
0.0
 11
455.344627
 21
498.443414
 31
0.0
  0
LINE
  5
173
100
AcDbEntity
  8
DIMS
 62
     4
100
AcDbLine
 10
457.044627
 20
500.143414
 30
0.0
 11
457.044627
 21
496.743414
 31
0.0
  0
CIRCLE
  5
174
100
AcDbEntity
  8
M03
100
AcDbCircle
 10
457.044627
 20
498.443414
 30
0.0
 40
2.3
  0
ARC
  5
175
100
AcDbEntity
  8
M03
100
AcDbCircle
 10
457.044627
 20
498.443414
 30
0.0
 40
3.0
100
AcDbArc
 50
173.076897
 51
102.215364
  0
LINE
  5
176
100
AcDbEntity
  8
M03
100
AcDbLine
 10
463.019365
 20
497.893414
 30
0.0
 11
451.069888
 21
497.893414
 31
0.0
  0
LINE
  5
177
100
AcDbEntity
  8
M03
100
AcDbLine
 10
463.019365
 20
498.993414
 30
0.0
 11
451.069888
 21
498.993414
 31
0.0
  0
CIRCLE
  5
178
100
AcDbEntity
  8
M03
100
AcDbCircle
 10
457.044627
 20
498.443414
 30
0.0
 40
14.0
  0
CIRCLE
  5
179
100
AcDbEntity
  8
M03
100
AcDbCircle
 10
457.044627
 20
498.443414
 30
0.0
 40
7.858882
  0
CIRCLE
  5
17A
100
AcDbEntity
  8
M03
100
AcDbCircle
 10
457.044627
 20
498.443414
 30
0.0
 40
6.0
  0
LINE
  5
17B
100
AcDbEntity
  8
M03
100
AcDbLine
 10
454.216199
 20
495.614987
 30
0.0
 11
488.887772
 21
460.943414
 31
0.0
  0
LINE
  5
17C
100
AcDbEntity
  8
M03
100
AcDbLine
 10
459.873054
 20
501.271841
 30
0.0
 11
494.544627
 21
466.600268
 31
0.0
  0
LINE
  5
17D
100
AcDbEntity
  8
CENTRE
100
AcDbLine
 10
442.902491
 20
512.58555
 30
0.0
 11
494.544627
 21
460.943414
 31
0.0
  0
CIRCLE
  5
17E
100
AcDbEntity
  8
M01
100
AcDbCircle
 10
457.044627
 20
498.443414
 30
0.0
 40
4.0
  0
LINE
  5
17F
100
AcDbEntity
  8
M03
100
AcDbLine
 10
490.544627
 20
460.943414
 30
0.0
 11
490.544627
 21
310.943414
 31
0.0
  0
LINE
  5
180
100
AcDbEntity
  8
M03
100
AcDbLine
 10
498.544627
 20
460.943414
 30
0.0
 11
498.544627
 21
389.943414
 31
0.0
  0
LINE
  5
181
100
AcDbEntity
  8
DIMS
 62
     4
100
AcDbLine
 10
497.944627
 20
460.943414
 30
0.0
 11
500.244627
 21
460.943414
 31
0.0
  0
LINE
  5
182
100
AcDbEntity
  8
DIMS
 62
     4
100
AcDbLine
 10
491.144627
 20
460.943414
 30
0.0
 11
488.844627
 21
460.943414
 31
0.0
  0
LINE
  5
183
100
AcDbEntity
  8
DIMS
 62
     4
100
AcDbLine
 10
492.844627
 20
460.943414
 30
0.0
 11
496.244627
 21
460.943414
 31
0.0
  0
CIRCLE
  5
184
100
AcDbEntity
  8
M03
100
AcDbCircle
 10
494.544627
 20
460.943414
 30
0.0
 40
4.0
  0
LINE
  5
185
100
AcDbEntity
  8
M03
100
AcDbLine
 10
488.887772
 20
460.943414
 30
0.0
 11
454.216199
 21
426.271841
 31
0.0
  0
LINE
  5
186
100
AcDbEntity
  8
DIMS
 62
     4
100
AcDbLine
 10
535.444627
 20
498.443414
 30
0.0
 11
548.744627
 21
498.443414
 31
0.0
  0
LINE
  5
187
100
AcDbEntity
  8
DIMS
 62
     4
100
AcDbLine
 10
528.644627
 20
498.443414
 30
0.0
 11
515.344627
 21
498.443414
 31
0.0
  0
LINE
  5
188
100
AcDbEntity
  8
DIMS
 62
     4
100
AcDbLine
 10
530.344627
 20
498.443414
 30
0.0
 11
533.744627
 21
498.443414
 31
0.0
  0
CIRCLE
  5
189
100
AcDbEntity
  8
M03
100
AcDbCircle
 10
532.044627
 20
498.443414
 30
0.0
 40
2.3
  0
ARC
  5
18A
100
AcDbEntity
  8
M03
100
AcDbCircle
 10
532.044627
 20
498.443414
 30
0.0
 40
3.0
100
AcDbArc
 50
77.784636
 51
6.923103
  0
LINE
  5
18B
100
AcDbEntity
  8
M03
100
AcDbLine
 10
526.069888
 20
497.893414
 30
0.0
 11
538.019365
 21
497.893414
 31
0.0
  0
LINE
  5
18C
100
AcDbEntity
  8
M03
100
AcDbLine
 10
526.069888
 20
498.993414
 30
0.0
 11
538.019365
 21
498.993414
 31
0.0
  0
CIRCLE
  5
18D
100
AcDbEntity
  8
M03
100
AcDbCircle
 10
532.044627
 20
498.443414
 30
0.0
 40
15.0
  0
CIRCLE
  5
18E
100
AcDbEntity
  8
M03
100
AcDbCircle
 10
532.044627
 20
498.443414
 30
0.0
 40
14.0
  0
CIRCLE
  5
18F
100
AcDbEntity
  8
M03
100
AcDbCircle
 10
532.044627
 20
498.443414
 30
0.0
 40
7.858882
  0
CIRCLE
  5
190
100
AcDbEntity
  8
M03
100
AcDbCircle
 10
532.044627
 20
498.443414
 30
0.0
 40
6.0
  0
LINE
  5
191
100
AcDbEntity
  8
M03
100
AcDbLine
 10
534.873054
 20
495.614987
 30
0.0
 11
459.873054
 21
420.614987
 31
0.0
  0
LINE
  5
192
100
AcDbEntity
  8
M03
100
AcDbLine
 10
529.216199
 20
501.271841
 30
0.0
 11
494.544627
 21
466.600268
 31
0.0
  0
LINE
  5
193
100
AcDbEntity
  8
CENTRE
100
AcDbLine
 10
546.186762
 20
512.58555
 30
0.0
 11
442.902491
 21
409.301278
 31
0.0
  0
CIRCLE
  5
194
100
AcDbEntity
  8
M01
100
AcDbCircle
 10
532.044627
 20
498.443414
 30
0.0
 40
4.0
  0
CIRCLE
  5
195
100
AcDbEntity
  8
M03
100
AcDbCircle
 10
457.044627
 20
498.443414
 30
0.0
 40
15.0
  0
LINE
  5
196
100
AcDbEntity
  8
CENTRE
100
AcDbLine
 10
494.544627
 20
472.257123
 30
0.0
 11
494.544627
 21
287.129706
 31
0.0
  0
ARC
  5
197
100
AcDbEntity
  8
M01
100
AcDbCircle
 10
610.044627
 20
385.943414
 30
0.0
 40
5.5
100
AcDbArc
 50
90.0
 51
270.0
  0
ARC
  5
198
100
AcDbEntity
  8
M01
100
AcDbCircle
 10
626.113169
 20
310.943414
 30
0.0
 40
12.0
100
AcDbArc
 50
135.0
 51
225.0
  0
LINE
  5
199
100
AcDbEntity
  8
M01
100
AcDbLine
 10
620.306297
 20
380.443414
 30
0.0
 11
610.044627
 21
380.443414
 31
0.0
  0
LINE
  5
19A
100
AcDbEntity
  8
M01
100
AcDbLine
 10
639.044627
 20
361.705084
 30
0.0
 11
639.044627
 21
340.845434
 31
0.0
  0
LINE
  5
19B
100
AcDbEntity
  8
M01
100
AcDbLine
 10
639.044627
 20
340.845434
 30
0.0
 11
617.627888
 21
319.428695
 31
0.0
  0
LINE
  5
19C
100
AcDbEntity
  8
M01
100
AcDbLine
 10
639.044627
 20
260.181744
 30
0.0
 11
639.044627
 21
281.041394
 31
0.0
  0
LINE
  5
19D
100
AcDbEntity
  8
M01
100
AcDbLine
 10
639.044627
 20
281.041394
 30
0.0
 11
617.627888
 21
302.458133
 31
0.0
  0
ARC
  5
19E
100
AcDbEntity
  8
M01
100
AcDbCircle
 10
588.044627
 20
536.011957
 30
0.0
 40
12.0
100
AcDbArc
 50
180.0
 51
315.0
  0
ARC
  5
19F
100
AcDbEntity
  8
M01
100
AcDbCircle
 10
626.113169
 20
460.943414
 30
0.0
 40
12.0
100
AcDbArc
 50
135.0
 51
225.0
  0
LINE
  5
1A0
100
AcDbEntity
  8
M01
100
AcDbLine
 10
620.306297
 20
391.443414
 30
0.0
 11
610.044627
 21
391.443414
 31
0.0
  0
LINE
  5
1A1
100
AcDbEntity
  8
M01
100
AcDbLine
 10
639.044627
 20
410.181744
 30
0.0
 11
639.044627
 21
431.041394
 31
0.0
  0
LINE
  5
1A2
100
AcDbEntity
  8
M01
100
AcDbLine
 10
639.044627
 20
431.041394
 30
0.0
 11
617.627888
 21
452.458133
 31
0.0
  0
LINE
  5
1A3
100
AcDbEntity
  8
M01
100
AcDbLine
 10
620.306297
 20
530.443414
 30
0.0
 11
599.446647
 21
530.443414
 31
0.0
  0
LINE
  5
1A4
100
AcDbEntity
  8
M01
100
AcDbLine
 10
576.044627
 20
560.443414
 30
0.0
 11
576.044627
 21
536.011957
 31
0.0
  0
LINE
  5
1A5
100
AcDbEntity
  8
M01
100
AcDbLine
 10
639.044627
 20
511.705084
 30
0.0
 11
639.044627
 21
490.845434
 31
0.0
  0
LINE
  5
1A6
100
AcDbEntity
  8
M01
100
AcDbLine
 10
599.446647
 20
530.443414
 30
0.0
 11
596.529908
 21
527.526675
 31
0.0
  0
LINE
  5
1A7
100
AcDbEntity
  8
M01
100
AcDbLine
 10
639.044627
 20
490.845434
 30
0.0
 11
617.627888
 21
469.428695
 31
0.0
  0
LINE
  5
1A8
100
AcDbEntity
  8
M01
100
AcDbLine
 10
527.044627
 20
318.443414
 30
0.0
 11
537.044627
 21
318.443414
 31
0.0
  0
ARC
  5
1A9
100
AcDbEntity
  8
M01
100
AcDbCircle
 10
537.044627
 20
310.943414
 30
0.0
 40
7.5
100
AcDbArc
 50
270.0
 51
90.0
  0
LINE
  5
1AA
100
AcDbEntity
  8
M01
100
AcDbLine
 10
527.044627
 20
303.443414
 30
0.0
 11
537.044627
 21
303.443414
 31
0.0
  0
ARC
  5
1AB
100
AcDbEntity
  8
M01
100
AcDbCircle
 10
527.044627
 20
310.943414
 30
0.0
 40
7.5
100
AcDbArc
 50
90.0
 51
270.0
  0
LINE
  5
1AC
100
AcDbEntity
  8
M04
100
AcDbLine
 10
471.044627
 20
542.614987
 30
0.0
 11
478.044627
 21
549.614987
 31
0.0
  0
LINE
  5
1AD
100
AcDbEntity
  8
M04
100
AcDbLine
 10
452.268238
 20
542.614987
 30
0.0
 11
471.044627
 21
542.614987
 31
0.0
  0
ARC
  5
1AE
100
AcDbEntity
  8
M04
100
AcDbCircle
 10
437.976084
 20
310.943414
 30
0.0
 40
5.0
100
AcDbArc
 50
315.0
 51
45.0
  0
LINE
  5
1AF
100
AcDbEntity
  8
M04
100
AcDbLine
 10
415.321908
 20
340.668658
 30
0.0
 11
441.511618
 21
314.478948
 31
0.0
  0
LINE
  5
1B0
100
AcDbEntity
  8
M04
100
AcDbLine
 10
415.321908
 20
281.218171
 30
0.0
 11
441.511618
 21
307.40788
 31
0.0
  0
LINE
  5
1B1
100
AcDbEntity
  8
M03
100
AcDbLine
 10
430.268861
 20
489.149024
 30
0.0
 11
431.481413
 21
488.824121
 31
0.0
  0
LINE
  5
1B2
100
AcDbEntity
  8
M03
100
AcDbLine
 10
429.278911
 20
490.138973
 30
0.0
 11
432.052961
 21
489.395669
 31
0.0
  0
LINE
  5
1B3
100
AcDbEntity
  8
M03
100
AcDbLine
 10
428.288962
 20
491.128923
 30
0.0
 11
431.95948
 21
490.14541
 31
0.0
  0
LINE
  5
1B4
100
AcDbEntity
  8
M03
100
AcDbLine
 10
427.299012
 20
492.118872
 30
0.0
 11
430.96953
 21
491.13536
 31
0.0
  0
LINE
  5
1B5
100
AcDbEntity
  8
M03
100
AcDbLine
 10
426.309063
 20
493.108822
 30
0.0
 11
429.979581
 21
492.125309
 31
0.0
  0
LINE
  5
1B6
100
AcDbEntity
  8
M03
100
AcDbLine
 10
425.319113
 20
494.098771
 30
0.0
 11
428.989631
 21
493.115259
 31
0.0
  0
LINE
  5
1B7
100
AcDbEntity
  8
M03
100
AcDbLine
 10
425.044627
 20
494.897013
 30
0.0
 11
427.999682
 21
494.105208
 31
0.0
  0
LINE
  5
1B8
100
AcDbEntity
  8
M03
100
AcDbLine
 10
425.044627
 20
495.621706
 30
0.0
 11
427.009732
 21
495.095158
 31
0.0
  0
LINE
  5
1B9
100
AcDbEntity
  8
M03
100
AcDbLine
 10
425.044627
 20
496.3464
 30
0.0
 11
426.019783
 21
496.085107
 31
0.0
  0
LINE
  5
1BA
100
AcDbEntity
  8
M03
100
AcDbLine
 10
425.044627
 20
494.918266
 30
0.0
 11
425.244114
 21
494.173771
 31
0.0
  0
LINE
  5
1BB
100
AcDbEntity
  8
M03
100
AcDbLine
 10
425.250551
 20
496.854339
 30
0.0
 11
426.234063
 21
493.183821
 31
0.0
  0
LINE
  5
1BC
100
AcDbEntity
  8
M03
100
AcDbLine
 10
426.2405
 20
495.86439
 30
0.0
 11
427.224013
 21
492.193872
 31
0.0
  0
LINE
  5
1BD
100
AcDbEntity
  8
M03
100
AcDbLine
 10
427.23045
 20
494.87444
 30
0.0
 11
428.213962
 21
491.203922
 31
0.0
  0
LINE
  5
1BE
100
AcDbEntity
  8
M03
100
AcDbLine
 10
428.220399
 20
493.884491
 30
0.0
 11
429.203912
 21
490.213973
 31
0.0
  0
LINE
  5
1BF
100
AcDbEntity
  8
M03
100
AcDbLine
 10
429.210349
 20
492.894541
 30
0.0
 11
430.193861
 21
489.224023
 31
0.0
  0
LINE
  5
1C0
100
AcDbEntity
  8
M03
100
AcDbLine
 10
430.200298
 20
491.904592
 30
0.0
 11
431.12201
 21
488.464718
 31
0.0
  0
LINE
  5
1C1
100
AcDbEntity
  8
M03
100
AcDbLine
 10
431.190248
 20
490.914642
 30
0.0
 11
431.693557
 21
489.036265
 31
0.0
  0
LINE
  5
1C2
100
AcDbEntity
  8
M03
100
AcDbLine
 10
432.180197
 20
489.924693
 30
0.0
 11
432.265105
 21
489.607813
 31
0.0
  0
LINE
  5
1C3
100
AcDbEntity
  8
M01
100
AcDbLine
 10
527.044627
 20
453.443414
 30
0.0
 11
537.044627
 21
453.443414
 31
0.0
  0
ARC
  5
1C4
100
AcDbEntity
  8
M01
100
AcDbCircle
 10
537.044627
 20
460.943414
 30
0.0
 40
7.5
100
AcDbArc
 50
270.0
 51
90.0
  0
LINE
  5
1C5
100
AcDbEntity
  8
M01
100
AcDbLine
 10
527.044627
 20
468.443414
 30
0.0
 11
537.044627
 21
468.443414
 31
0.0
  0
ARC
  5
1C6
100
AcDbEntity
  8
M01
100
AcDbCircle
 10
527.044627
 20
460.943414
 30
0.0
 40
7.5
100
AcDbArc
 50
90.0
 51
270.0
  0
ARC
  5
1C7
100
AcDbEntity
  8
M01
100
AcDbCircle
 10
454.044627
 20
385.943414
 30
0.0
 40
5.5
100
AcDbArc
 50
270.0
 51
90.0
  0
ARC
  5
1C8
100
AcDbEntity
  8
M01
100
AcDbCircle
 10
626.113169
 20
460.943414
 30
0.0
 40
12.0
100
AcDbArc
 50
135.0
 51
225.0
  0
LINE
  5
1C9
100
AcDbEntity
  8
M01
100
AcDbLine
 10
443.782956
 20
380.443414
 30
0.0
 11
454.044627
 21
380.443414
 31
0.0
  0
LINE
  5
1CA
100
AcDbEntity
  8
M01
100
AcDbLine
 10
425.044627
 20
361.705084
 30
0.0
 11
425.044627
 21
340.845434
 31
0.0
  0
LINE
  5
1CB
100
AcDbEntity
  8
M01
100
AcDbLine
 10
425.044627
 20
340.845434
 30
0.0
 11
446.461365
 21
319.428695
 31
0.0
  0
LINE
  5
1CC
100
AcDbEntity
  8
M01
100
AcDbLine
 10
425.044627
 20
260.181744
 30
0.0
 11
425.044627
 21
281.041394
 31
0.0
  0
LINE
  5
1CD
100
AcDbEntity
  8
M01
100
AcDbLine
 10
639.044627
 20
490.845434
 30
0.0
 11
617.627888
 21
469.428695
 31
0.0
  0
LINE
  5
1CE
100
AcDbEntity
  8
M01
100
AcDbLine
 10
442.782956
 20
242.443414
 30
0.0
 11
621.306297
 21
242.443414
 31
0.0
  0
ARC
  5
1CF
100
AcDbEntity
  8
M01
100
AcDbCircle
 10
476.044627
 20
536.011957
 30
0.0
 40
12.0
100
AcDbArc
 50
225.0
 51
360.0
  0
ARC
  5
1D0
100
AcDbEntity
  8
M04
100
AcDbCircle
 10
437.976084
 20
460.943414
 30
0.0
 40
5.0
100
AcDbArc
 50
315.0
 51
45.0
  0
ARC
  5
1D1
100
AcDbEntity
  8
M01
100
AcDbCircle
 10
437.976084
 20
460.943414
 30
0.0
 40
12.0
100
AcDbArc
 50
315.0
 51
45.0
  0
LINE
  5
1D2
100
AcDbEntity
  8
M01
100
AcDbLine
 10
443.782956
 20
391.443414
 30
0.0
 11
454.044627
 21
391.443414
 31
0.0
  0
LINE
  5
1D3
100
AcDbEntity
  8
M04
100
AcDbLine
 10
415.321908
 20
431.21817
 30
0.0
 11
441.511618
 21
457.40788
 31
0.0
  0
LINE
  5
1D4
100
AcDbEntity
  8
M01
100
AcDbLine
 10
425.044627
 20
410.181744
 30
0.0
 11
425.044627
 21
431.041394
 31
0.0
  0
LINE
  5
1D5
100
AcDbEntity
  8
M01
100
AcDbLine
 10
425.044627
 20
431.041394
 30
0.0
 11
446.461365
 21
452.458133
 31
0.0
  0
LINE
  5
1D6
100
AcDbEntity
  8
DIMS
 62
     4
100
AcDbLine
 10
603.644627
 20
498.443414
 30
0.0
 11
590.344627
 21
498.443414
 31
0.0
  0
LINE
  5
1D7
100
AcDbEntity
  8
DIMS
 62
     4
100
AcDbLine
 10
610.444627
 20
498.443414
 30
0.0
 11
623.744627
 21
498.443414
 31
0.0
  0
LINE
  5
1D8
100
AcDbEntity
  8
DIMS
 62
     4
100
AcDbLine
 10
608.744627
 20
498.443414
 30
0.0
 11
605.344627
 21
498.443414
 31
0.0
  0
LINE
  5
1D9
100
AcDbEntity
  8
DIMS
 62
     4
100
AcDbLine
 10
607.044627
 20
501.843414
 30
0.0
 11
607.044627
 21
515.143414
 31
0.0
  0
LINE
  5
1DA
100
AcDbEntity
  8
DIMS
 62
     4
100
AcDbLine
 10
607.044627
 20
495.043414
 30
0.0
 11
607.044627
 21
481.743414
 31
0.0
  0
LINE
  5
1DB
100
AcDbEntity
  8
DIMS
 62
     4
100
AcDbLine
 10
607.044627
 20
496.743414
 30
0.0
 11
607.044627
 21
500.143414
 31
0.0
  0
CIRCLE
  5
1DC
100
AcDbEntity
  8
M03
100
AcDbCircle
 10
607.044627
 20
498.443414
 30
0.0
 40
2.3
  0
ARC
  5
1DD
100
AcDbEntity
  8
M03
100
AcDbCircle
 10
607.044627
 20
498.443414
 30
0.0
 40
3.0
100
AcDbArc
 50
353.076897
 51
282.215364
  0
LINE
  5
1DE
100
AcDbEntity
  8
M03
100
AcDbLine
 10
601.069888
 20
498.993414
 30
0.0
 11
613.019365
 21
498.993414
 31
0.0
  0
LINE
  5
1DF
100
AcDbEntity
  8
M03
100
AcDbLine
 10
601.069888
 20
497.893414
 30
0.0
 11
613.019365
 21
497.893414
 31
0.0
  0
CIRCLE
  5
1E0
100
AcDbEntity
  8
M03
100
AcDbCircle
 10
607.044627
 20
498.443414
 30
0.0
 40
15.0
  0
CIRCLE
  5
1E1
100
AcDbEntity
  8
M03
100
AcDbCircle
 10
607.044627
 20
498.443414
 30
0.0
 40
14.0
  0
CIRCLE
  5
1E2
100
AcDbEntity
  8
M03
100
AcDbCircle
 10
607.044627
 20
498.443414
 30
0.0
 40
7.858882
  0
CIRCLE
  5
1E3
100
AcDbEntity
  8
M03
100
AcDbCircle
 10
607.044627
 20
498.443414
 30
0.0
 40
6.0
  0
CIRCLE
  5
1E4
100
AcDbEntity
  8
M01
100
AcDbCircle
 10
607.044627
 20
498.443414
 30
0.0
 40
4.0
  0
LINE
  5
1E5
100
AcDbEntity
  8
DIMS
 62
     4
100
AcDbLine
 10
610.444627
 20
423.443414
 30
0.0
 11
623.744627
 21
423.443414
 31
0.0
  0
LINE
  5
1E6
100
AcDbEntity
  8
DIMS
 62
     4
100
AcDbLine
 10
603.644627
 20
423.443414
 30
0.0
 11
590.344627
 21
423.443414
 31
0.0
  0
LINE
  5
1E7
100
AcDbEntity
  8
DIMS
 62
     4
100
AcDbLine
 10
607.044627
 20
426.843414
 30
0.0
 11
607.044627
 21
440.143414
 31
0.0
  0
LINE
  5
1E8
100
AcDbEntity
  8
DIMS
 62
     4
100
AcDbLine
 10
607.044627
 20
420.043414
 30
0.0
 11
607.044627
 21
406.743414
 31
0.0
  0
LINE
  5
1E9
100
AcDbEntity
  8
DIMS
 62
     4
100
AcDbLine
 10
605.344627
 20
423.443414
 30
0.0
 11
608.744627
 21
423.443414
 31
0.0
  0
LINE
  5
1EA
100
AcDbEntity
  8
DIMS
 62
     4
100
AcDbLine
 10
607.044627
 20
421.743414
 30
0.0
 11
607.044627
 21
425.143414
 31
0.0
  0
CIRCLE
  5
1EB
100
AcDbEntity
  8
M03
100
AcDbCircle
 10
607.044627
 20
423.443414
 30
0.0
 40
2.3
  0
ARC
  5
1EC
100
AcDbEntity
  8
M03
100
AcDbCircle
 10
607.044627
 20
423.443414
 30
0.0
 40
3.0
100
AcDbArc
 50
353.076897
 51
282.215364
  0
LINE
  5
1ED
100
AcDbEntity
  8
M03
100
AcDbLine
 10
601.069888
 20
423.993414
 30
0.0
 11
613.019365
 21
423.993414
 31
0.0
  0
LINE
  5
1EE
100
AcDbEntity
  8
M03
100
AcDbLine
 10
601.069888
 20
422.893414
 30
0.0
 11
613.019365
 21
422.893414
 31
0.0
  0
CIRCLE
  5
1EF
100
AcDbEntity
  8
M03
100
AcDbCircle
 10
607.044627
 20
423.443414
 30
0.0
 40
14.0
  0
CIRCLE
  5
1F0
100
AcDbEntity
  8
M03
100
AcDbCircle
 10
607.044627
 20
423.443414
 30
0.0
 40
7.858882
  0
CIRCLE
  5
1F1
100
AcDbEntity
  8
M03
100
AcDbCircle
 10
607.044627
 20
423.443414
 30
0.0
 40
6.0
  0
LINE
  5
1F2
100
AcDbEntity
  8
M03
100
AcDbLine
 10
609.873054
 20
426.271841
 30
0.0
 11
575.201481
 21
460.943414
 31
0.0
  0
LINE
  5
1F3
100
AcDbEntity
  8
M03
100
AcDbLine
 10
604.216199
 20
420.614987
 30
0.0
 11
569.544627
 21
455.28656
 31
0.0
  0
LINE
  5
1F4
100
AcDbEntity
  8
CENTRE
100
AcDbLine
 10
621.186762
 20
409.301278
 30
0.0
 11
569.544627
 21
460.943414
 31
0.0
  0
CIRCLE
  5
1F5
100
AcDbEntity
  8
M01
100
AcDbCircle
 10
607.044627
 20
423.443414
 30
0.0
 40
4.0
  0
LINE
  5
1F6
100
AcDbEntity
  8
DIMS
 62
     4
100
AcDbLine
 10
566.144627
 20
460.943414
 30
0.0
 11
563.844627
 21
460.943414
 31
0.0
  0
LINE
  5
1F7
100
AcDbEntity
  8
DIMS
 62
     4
100
AcDbLine
 10
572.944627
 20
460.943414
 30
0.0
 11
575.244627
 21
460.943414
 31
0.0
  0
LINE
  5
1F8
100
AcDbEntity
  8
DIMS
 62
     4
100
AcDbLine
 10
571.244627
 20
460.943414
 30
0.0
 11
567.844627
 21
460.943414
 31
0.0
  0
CIRCLE
  5
1F9
100
AcDbEntity
  8
M03
100
AcDbCircle
 10
569.544627
 20
460.943414
 30
0.0
 40
4.0
  0
LINE
  5
1FA
100
AcDbEntity
  8
M03
100
AcDbLine
 10
575.201481
 20
460.943414
 30
0.0
 11
609.873054
 21
495.614987
 31
0.0
  0
LINE
  5
1FB
100
AcDbEntity
  8
M03
100
AcDbLine
 10
529.216199
 20
426.271841
 30
0.0
 11
604.216199
 21
501.271841
 31
0.0
  0
LINE
  5
1FC
100
AcDbEntity
  8
M03
100
AcDbLine
 10
534.873054
 20
420.614987
 30
0.0
 11
569.544627
 21
455.28656
 31
0.0
  0
LINE
  5
1FD
100
AcDbEntity
  8
CENTRE
100
AcDbLine
 10
525.680666
 20
417.079453
 30
0.0
 11
621.186762
 21
512.58555
 31
0.0
  0
CIRCLE
  5
1FE
100
AcDbEntity
  8
M01
100
AcDbCircle
 10
532.044627
 20
423.443414
 30
0.0
 40
4.0
  0
CIRCLE
  5
1FF
100
AcDbEntity
  8
M03
100
AcDbCircle
 10
607.044627
 20
423.443414
 30
0.0
 40
15.0
  0
LINE
  5
200
100
AcDbEntity
  8
M01
100
AcDbLine
 10
443.782956
 20
530.443414
 30
0.0
 11
464.642606
 21
530.443414
 31
0.0
  0
LINE
  5
201
100
AcDbEntity
  8
DIMS
 62
     4
100
AcDbLine
 10
603.644627
 20
348.443414
 30
0.0
 11
590.344627
 21
348.443414
 31
0.0
  0
LINE
  5
202
100
AcDbEntity
  8
DIMS
 62
     4
100
AcDbLine
 10
610.444627
 20
348.443414
 30
0.0
 11
623.744627
 21
348.443414
 31
0.0
  0
LINE
  5
203
100
AcDbEntity
  8
DIMS
 62
     4
100
AcDbLine
 10
608.744627
 20
348.443414
 30
0.0
 11
605.344627
 21
348.443414
 31
0.0
  0
LINE
  5
204
102
{ACAD_REACTORS
330
115
330
113
102
}
100
AcDbEntity
  8
M02
100
AcDbLine
 10
872.758914
 20
351.943414
 30
0.0
 11
872.758914
 21
287.443414
 31
0.0
  0
LINE
  5
205
100
AcDbEntity
  8
M04
100
AcDbLine
 10
876.758914
 20
366.443414
 30
0.0
 11
876.758914
 21
276.443414
 31
0.0
  0
LINE
  5
206
102
{ACAD_REACTORS
330
115
102
}
100
AcDbEntity
  8
M02
100
AcDbLine
 10
869.758914
 20
318.443414
 30
0.0
 11
872.758914
 21
318.443414
 31
0.0
  0
LWPOLYLINE
  5
207
100
AcDbEntity
  8
HATCH
 62
     4
100
AcDbPolyline
 90
        3
 70
     0
 43
0.0
 10
877.578341
 20
261.994929
 10
888.494094
 20
254.282472
 10
891.494094
 20
254.282472
1001
ACAD
1000
DSTYLE
1002
{
1070
   144
1040
1.0
1002
}
  0
SOLID
  5
208
100
AcDbEntity
  8
HATCH
 62
     4
100
AcDbTrace
 10
877.289819
 20
261.586572
 30
0.0
 11
875.128201
 21
263.72606
 31
0.0
 12
877.866862
 22
262.403286
 32
0.0
 13
877.866862
 23
262.403286
 33
0.0
1001
ACAD
1000
DSTYLE
1002
{
1070
   144
1040
1.0
1002
}
  0
ARC
  5
209
100
AcDbEntity
  8
M03
100
AcDbCircle
 10
848.758914
 20
310.943414
 30
0.0
 40
4.0
100
AcDbArc
 50
270.0
 51
0.0
  0
LINE
  5
20A
100
AcDbEntity
  8
M03
100
AcDbLine
 10
826.758914
 20
310.943414
 30
0.0
 11
830.758914
 21
306.943414
 31
0.0
  0
LINE
  5
20B
100
AcDbEntity
  8
M03
100
AcDbLine
 10
830.758914
 20
314.943414
 30
0.0
 11
826.758914
 21
310.943414
 31
0.0
  0
LINE
  5
20C
100
AcDbEntity
  8
M03
100
AcDbLine
 10
844.758914
 20
314.943414
 30
0.0
 11
848.758914
 21
310.943414
 31
0.0
  0
LINE
  5
20D
102
{ACAD_REACTORS
330
110
102
}
100
AcDbEntity
  8
M03
100
AcDbLine
 10
830.758914
 20
314.943414
 30
0.0
 11
830.758914
 21
348.443414
 31
0.0
  0
LINE
  5
20E
100
AcDbEntity
  8
M03
100
AcDbLine
 10
830.758914
 20
314.943414
 30
0.0
 11
844.758914
 21
314.943414
 31
0.0
  0
LINE
  5
20F
100
AcDbEntity
  8
M03
100
AcDbLine
 10
830.758914
 20
306.943414
 30
0.0
 11
848.758914
 21
306.943414
 31
0.0
  0
LINE
  5
210
102
{ACAD_REACTORS
330
110
330
10F
102
}
100
AcDbEntity
  8
CENTRE
100
AcDbLine
 10
826.758914
 20
356.443414
 30
0.0
 11
826.758914
 21
265.443414
 31
0.0
  0
LINE
  5
211
102
{ACAD_REACTORS
330
10F
102
}
100
AcDbEntity
  8
M03
100
AcDbLine
 10
830.758914
 20
273.443414
 30
0.0
 11
830.758914
 21
306.943414
 31
0.0
  0
LINE
  5
212
102
{ACAD_REACTORS
330
110
330
10F
102
}
100
AcDbEntity
  8
M03
100
AcDbLine
 10
822.758914
 20
273.443414
 30
0.0
 11
822.758914
 21
348.443414
 31
0.0
  0
LINE
  5
213
100
AcDbEntity
  8
CENTRE
100
AcDbLine
 10
818.758914
 20
310.943414
 30
0.0
 11
856.758914
 21
310.943414
 31
0.0
  0
LINE
  5
214
100
AcDbEntity
  8
M02
100
AcDbLine
 10
869.758914
 20
318.443414
 30
0.0
 11
872.758914
 21
318.443414
 31
0.0
  0
LINE
  5
215
102
{ACAD_REACTORS
330
116
102
}
100
AcDbEntity
  8
M02
100
AcDbLine
 10
809.758914
 20
318.443414
 30
0.0
 11
806.758914
 21
318.443414
 31
0.0
  0
LINE
  5
216
102
{ACAD_REACTORS
330
113
102
}
100
AcDbEntity
  8
M02
100
AcDbLine
 10
869.758914
 20
303.443414
 30
0.0
 11
872.758914
 21
303.443414
 31
0.0
  0
LINE
  5
217
102
{ACAD_REACTORS
330
114
102
}
100
AcDbEntity
  8
M02
100
AcDbLine
 10
809.758914
 20
303.443414
 30
0.0
 11
806.758914
 21
303.443414
 31
0.0
  0
LINE
  5
218
102
{ACAD_REACTORS
330
110
102
}
100
AcDbEntity
  8
M01
100
AcDbLine
 10
809.758914
 20
318.443414
 30
0.0
 11
869.758914
 21
318.443414
 31
0.0
  0
LINE
  5
219
102
{ACAD_REACTORS
330
10F
102
}
100
AcDbEntity
  8
M01
100
AcDbLine
 10
809.758914
 20
303.443414
 30
0.0
 11
869.758914
 21
303.443414
 31
0.0
  0
CIRCLE
  5
21A
102
{ACAD_REACTORS
330
110
102
}
100
AcDbEntity
  8
M01
100
AcDbCircle
 10
826.758914
 20
348.443414
 30
0.0
 40
4.0
  0
LINE
  5
21B
102
{ACAD_REACTORS
330
110
102
}
100
AcDbEntity
  8
M01
100
AcDbLine
 10
809.758914
 20
352.443414
 30
0.0
 11
826.758914
 21
352.443414
 31
0.0
  0
LINE
  5
21C
102
{ACAD_REACTORS
330
110
102
}
100
AcDbEntity
  8
M01
100
AcDbLine
 10
809.758914
 20
344.443414
 30
0.0
 11
826.758914
 21
344.443414
 31
0.0
  0
LINE
  5
21D
102
{ACAD_REACTORS
330
116
102
}
100
AcDbEntity
  8
M02
100
AcDbLine
 10
809.758914
 20
366.443414
 30
0.0
 11
806.758914
 21
366.443414
 31
0.0
  0
LINE
  5
21E
102
{ACAD_REACTORS
330
116
102
}
100
AcDbEntity
  8
M02
100
AcDbLine
 10
809.758914
 20
330.443414
 30
0.0
 11
806.758914
 21
330.443414
 31
0.0
  0
LINE
  5
21F
100
AcDbEntity
  8
CENTRE
100
AcDbLine
 10
796.947319
 20
348.443414
 30
0.0
 11
834.758914
 21
348.443414
 31
0.0
  0
CIRCLE
  5
220
102
{ACAD_REACTORS
330
10F
102
}
100
AcDbEntity
  8
M01
100
AcDbCircle
 10
826.758914
 20
273.443414
 30
0.0
 40
4.0
  0
LINE
  5
221
102
{ACAD_REACTORS
330
10F
102
}
100
AcDbEntity
  8
M01
100
AcDbLine
 10
809.758914
 20
277.443414
 30
0.0
 11
826.758914
 21
277.443414
 31
0.0
  0
LINE
  5
222
102
{ACAD_REACTORS
330
10F
102
}
100
AcDbEntity
  8
M01
100
AcDbLine
 10
809.758914
 20
269.443414
 30
0.0
 11
826.758914
 21
269.443414
 31
0.0
  0
LINE
  5
223
100
AcDbEntity
  8
CENTRE
100
AcDbLine
 10
796.947319
 20
273.443414
 30
0.0
 11
834.758914
 21
273.443414
 31
0.0
  0
WIPEOUT
  5
224
100
AcDbEntity
  8
TEXT
 92
      140
310
8C0000000100000084000000060000000500000038273BB8F2F38A401168ACCC4D6E784000000000000000004711DCC6DC6C8B401168ACCC4D6E784000000000000000004811DCC6DC6C8B400F68ACCC4DAE784000000000000000003A273BB8F2F38A401168ACCC4DAE7840000000000000000038273BB8F2F38A401168AC
310
CC4D6E78400000000000000000
100
AcDbWipeout
 90
        0
 10
827.792162
 20
345.078355
 30
0.0
 11
49.815639
 21
0.0
 31
0.0
 12
0.0
 22
49.815639
 32
0.0
 13
0.0
 23
0.0
340
0
 70
     7
280
     1
281
    50
282
    50
283
     0
360
0
 71
     2
 91
        5
 14
0.196596
 24
-0.419704
 14
0.5
 24
-0.419704
 14
0.5
 24
-0.5
 14
0.196596
 24
-0.5
 14
0.196596
 24
-0.419704
  0
TEXT
  5
225
100
AcDbEntity
  8
TEXT
100
AcDbText
 10
863.493515
 20
391.893994
 30
0.0
 40
2.0
  1
MA010000
 41
0.9
100
AcDbText
  0
LINE
  5
226
102
{ACAD_REACTORS
330
115
330
113
330
110
330
10F
330
47
102
}
100
AcDbEntity
  8
M01
100
AcDbLine
 10
869.758914
 20
356.943414
 30
0.0
 11
869.758914
 21
244.533414
 31
0.0
  0
LINE
  5
227
102
{ACAD_REACTORS
330
111
102
}
100
AcDbEntity
  8
M01
100
AcDbLine
 10
869.758914
 20
408.943414
 30
0.0
 11
869.758914
 21
395.943414
 31
0.0
  0
HATCH
  5
228
100
AcDbEntity
  8
HATCH
100
AcDbHatch
 10
0.0
 20
0.0
 30
0.0
210
0.0
220
0.0
230
1.0
  2
_U
 70
     0
 71
     0
 91
        4
 92
        7
 72
     1
 73
     1
 93
       16
 10
880.7589143034773
 20
405.2434140619694
 42
0.0
 10
880.0589143034773
 20
405.9434140619694
 42
0.0
 10
878.7589143034772
 20
405.9434140619694
 42
0.0
 10
878.7589143034772
 20
405.4434140619695
 42
0.0
 10
875.7589143034767
 20
405.4434140619695
 42
0.0
 10
875.7589143034767
 20
406.4434140619694
 42
0.0
 10
871.758914303477
 20
406.4434140619694
 42
0.0
 10
871.758914303477
 20
406.6934140619694
 42
0.0
 10
871.758914303477
 20
408.2434140619694
 42
0.0
 10
869.7589143034766
 20
408.2434140619694
 42
0.0
 10
869.7589143034766
 20
395.9434140619693
 42
0.0
 10
860.7589143034768
 20
395.9434140619694
 42
0.0
 10
859.758914303477
 20
394.9434140619695
 42
0.0
 10
859.758914303477
 20
389.9434140619693
 42
0.0
 10
878.0601286503756
 20
388.9842880598656
 42
-0.1092323044357322
 10
880.7589143034771
 20
395.1085654518814
 42
0.0
 97
        0
 92
        7
 72
     0
 73
     1
 93
        9
 10
875.7589143034767
 20
419.2434140619696
 10
875.0589143034767
 20
419.9434140619697
 10
870.4589143034768
 20
419.9434140619697
 10
869.7589143034766
 20
419.2434140619694
 10
869.7589143034766
 20
415.6434140619695
 10
871.758914303477
 20
415.6434140619695
 10
871.758914303477
 20
417.1934140619696
 10
871.758914303477
 20
417.4434140619694
 10
875.7589143034767
 20
417.4434140619694
 97
        0
 92
        7
 72
     1
 73
     1
 93
       16
 10
880.7589143034769
 20
376.7782626720578
 42
-0.109232304435728
 10
878.0601286503756
 20
382.9025400640735
 42
0.0
 10
859.758914303477
 20
381.9434140619695
 42
0.0
 10
859.7589143034769
 20
376.9434140619694
 42
0.0
 10
860.758914303477
 20
375.9434140619695
 42
0.0
 10
869.7589143034766
 20
375.9434140619694
 42
0.0
 10
869.7589143034768
 20
363.6434140619693
 42
0.0
 10
871.758914303477
 20
363.6434140619694
 42
0.0
 10
871.758914303477
 20
365.1934140619692
 42
0.0
 10
871.758914303477
 20
365.4434140619692
 42
0.0
 10
875.7589143034769
 20
365.4434140619692
 42
0.0
 10
875.7589143034769
 20
366.4434140619694
 42
0.0
 10
878.7589143034768
 20
366.4434140619694
 42
0.0
 10
878.7589143034768
 20
365.9434140619694
 42
0.0
 10
880.0589143034768
 20
365.9434140619694
 42
0.0
 10
880.7589143034769
 20
366.6434140619696
 42
0.0
 97
        0
 92
        7
 72
     0
 73
     1
 93
        9
 10
875.758914303477
 20
354.4434140619694
 10
871.758914303477
 20
354.4434140619694
 10
871.758914303477
 20
354.6934140619692
 10
871.7589143034771
 20
356.2434140619694
 10
869.7589143034766
 20
356.2434140619694
 10
869.7589143034766
 20
352.6434140619695
 10
870.458914303477
 20
351.9434140619693
 10
875.0589143034769
 20
351.9434140619692
 10
875.7589143034769
 20
352.6434140619692
 97
        0
 75
     0
 76
     0
 52
135.0
 41
2.5
 77
     0
 78
     1
 53
135.0
 43
21.678451
 44
-82.552148
 45
-1.767766952966368
 46
-1.767766952966368
 79
     0
 47
0.185848
 98
        4
 10
873.375545
 20
399.954983
 10
872.0741
 20
418.353918
 10
873.003702
 20
373.378744
 10
871.330416
 20
352.935484
  0
ARC
  5
229
100
AcDbEntity
  8
M03
100
AcDbCircle
 10
848.758914
 20
460.943414
 30
0.0
 40
4.0
100
AcDbArc
 50
0.0
 51
90.0
  0
LINE
  5
22A
100
AcDbEntity
  8
M03
100
AcDbLine
 10
826.758914
 20
460.943414
 30
0.0
 11
830.758914
 21
464.943414
 31
0.0
  0
LINE
  5
22B
100
AcDbEntity
  8
M03
100
AcDbLine
 10
830.758914
 20
456.943414
 30
0.0
 11
826.758914
 21
460.943414
 31
0.0
  0
LINE
  5
22C
100
AcDbEntity
  8
M03
100
AcDbLine
 10
844.758914
 20
456.943414
 30
0.0
 11
848.758914
 21
460.943414
 31
0.0
  0
LINE
  5
22D
102
{ACAD_REACTORS
330
111
330
110
102
}
100
AcDbEntity
  8
CENTRE
100
AcDbLine
 10
848.758914
 20
468.943414
 30
0.0
 11
848.758914
 21
302.943414
 31
0.0
  0
LINE
  5
22E
102
{ACAD_REACTORS
330
111
102
}
100
AcDbEntity
  8
M03
100
AcDbLine
 10
830.758914
 20
456.943414
 30
0.0
 11
830.758914
 21
423.443414
 31
0.0
  0
LINE
  5
22F
100
AcDbEntity
  8
M03
100
AcDbLine
 10
830.758914
 20
456.943414
 30
0.0
 11
844.758914
 21
456.943414
 31
0.0
  0
LINE
  5
230
100
AcDbEntity
  8
M03
100
AcDbLine
 10
830.758914
 20
464.943414
 30
0.0
 11
848.758914
 21
464.943414
 31
0.0
  0
LINE
  5
231
102
{ACAD_REACTORS
330
111
330
110
102
}
100
AcDbEntity
  8
M03
100
AcDbLine
 10
844.758914
 20
456.943414
 30
0.0
 11
844.758914
 21
314.943414
 31
0.0
  0
LINE
  5
232
102
{ACAD_REACTORS
330
111
102
}
100
AcDbEntity
  8
CENTRE
100
AcDbLine
 10
826.758914
 20
415.443414
 30
0.0
 11
826.758914
 21
506.443414
 31
0.0
  0
LINE
  5
233
102
{ACAD_REACTORS
330
111
330
110
102
}
100
AcDbEntity
  8
M03
100
AcDbLine
 10
852.758914
 20
460.943414
 30
0.0
 11
852.758914
 21
310.943414
 31
0.0
  0
LINE
  5
234
100
AcDbEntity
  8
M03
100
AcDbLine
 10
830.758914
 20
498.443414
 30
0.0
 11
830.758914
 21
464.943414
 31
0.0
  0
LINE
  5
235
102
{ACAD_REACTORS
330
111
102
}
100
AcDbEntity
  8
M03
100
AcDbLine
 10
822.758914
 20
498.443414
 30
0.0
 11
822.758914
 21
423.443414
 31
0.0
  0
LINE
  5
236
100
AcDbEntity
  8
CENTRE
100
AcDbLine
 10
818.758914
 20
460.943414
 30
0.0
 11
856.758914
 21
460.943414
 31
0.0
  0
LINE
  5
237
100
AcDbEntity
  8
M03
100
AcDbLine
 10
494.544627
 20
385.943414
 30
0.0
 11
498.544627
 21
389.943414
 31
0.0
  0
LINE
  5
238
100
AcDbEntity
  8
M03
100
AcDbLine
 10
498.544627
 20
381.943414
 30
0.0
 11
494.544627
 21
385.943414
 31
0.0
  0
LINE
  5
239
100
AcDbEntity
  8
M03
100
AcDbLine
 10
565.544627
 20
389.943414
 30
0.0
 11
565.544627
 21
460.943414
 31
0.0
  0
LINE
  5
23A
100
AcDbEntity
  8
M04
100
AcDbLine
 10
876.758914
 20
495.443414
 30
0.0
 11
876.758914
 21
405.443414
 31
0.0
  0
LINE
  5
23B
102
{ACAD_REACTORS
330
117
102
}
100
AcDbEntity
  8
M02
100
AcDbLine
 10
869.758914
 20
453.443414
 30
0.0
 11
872.758914
 21
453.443414
 31
0.0
  0
LINE
  5
23C
102
{ACAD_REACTORS
330
118
102
}
100
AcDbEntity
  8
M02
100
AcDbLine
 10
809.758914
 20
453.443414
 30
0.0
 11
806.758914
 21
453.443414
 31
0.0
  0
LINE
  5
23D
102
{ACAD_REACTORS
330
117
102
}
100
AcDbEntity
  8
M02
100
AcDbLine
 10
869.758914
 20
468.443414
 30
0.0
 11
872.758914
 21
468.443414
 31
0.0
  0
LINE
  5
23E
102
{ACAD_REACTORS
330
118
102
}
100
AcDbEntity
  8
M02
100
AcDbLine
 10
809.758914
 20
468.443414
 30
0.0
 11
806.758914
 21
468.443414
 31
0.0
  0
LINE
  5
23F
102
{ACAD_REACTORS
330
111
102
}
100
AcDbEntity
  8
M01
100
AcDbLine
 10
809.758914
 20
453.443414
 30
0.0
 11
869.758914
 21
453.443414
 31
0.0
  0
LINE
  5
240
100
AcDbEntity
  8
M01
100
AcDbLine
 10
809.758914
 20
468.443414
 30
0.0
 11
869.758914
 21
468.443414
 31
0.0
  0
CIRCLE
  5
241
102
{ACAD_REACTORS
330
111
330
110
102
}
100
AcDbEntity
  8
M01
100
AcDbCircle
 10
848.758914
 20
385.943414
 30
0.0
 40
4.0
  0
LINE
  5
242
102
{ACAD_REACTORS
330
117
102
}
100
AcDbEntity
  8
M02
100
AcDbLine
 10
872.758914
 20
484.443414
 30
0.0
 11
872.758914
 21
419.943414
 31
0.0
  0
CIRCLE
  5
243
102
{ACAD_REACTORS
330
111
102
}
100
AcDbEntity
  8
M01
100
AcDbCircle
 10
826.758914
 20
423.443414
 30
0.0
 40
4.0
  0
LINE
  5
244
102
{ACAD_REACTORS
330
111
102
}
100
AcDbEntity
  8
M01
100
AcDbLine
 10
809.758914
 20
419.443414
 30
0.0
 11
826.758914
 21
419.443414
 31
0.0
  0
LINE
  5
245
102
{ACAD_REACTORS
330
111
102
}
100
AcDbEntity
  8
M01
100
AcDbLine
 10
809.758914
 20
427.443414
 30
0.0
 11
826.758914
 21
427.443414
 31
0.0
  0
LINE
  5
246
102
{ACAD_REACTORS
330
116
102
}
100
AcDbEntity
  8
M02
100
AcDbLine
 10
809.758914
 20
405.443414
 30
0.0
 11
806.758914
 21
405.443414
 31
0.0
  0
LINE
  5
247
102
{ACAD_REACTORS
330
118
102
}
100
AcDbEntity
  8
M02
100
AcDbLine
 10
809.758914
 20
441.443414
 30
0.0
 11
806.758914
 21
441.443414
 31
0.0
  0
LINE
  5
248
100
AcDbEntity
  8
CENTRE
100
AcDbLine
 10
796.947319
 20
423.443414
 30
0.0
 11
834.758914
 21
423.443414
 31
0.0
  0
CIRCLE
  5
249
100
AcDbEntity
  8
M01
100
AcDbCircle
 10
826.758914
 20
498.443414
 30
0.0
 40
4.0
  0
HATCH
  5
24A
100
AcDbEntity
  8
HATCH
100
AcDbHatch
 10
0.0
 20
0.0
 30
0.0
210
0.0
220
0.0
230
1.0
  2
_U
 70
     0
 71
     0
 91
        2
 92
        7
 72
     0
 73
     1
 93
       11
 10
869.7589143034768
 20
506.3022960494265
 10
869.7589143034768
 20
511.7434140619691
 10
870.4589143034768
 20
512.4434140619694
 10
876.0589143034771
 20
512.4434140619694
 10
876.7589143034768
 20
511.7434140619693
 10
876.7589143034768
 20
508.9434140619691
 10
875.758914303477
 20
507.9434140619694
 10
875.7589143034769
 20
505.9434140619696
 10
876.7589143034768
 20
504.9434140619701
 10
876.7589143034768
 20
501.9434140619694
 10
874.117796290934
 20
501.9434140619694
 97
        0
 92
        7
 72
     0
 73
     1
 93
       11
 10
870.4589143034768
 20
484.4434140619694
 10
869.758914303477
 20
485.1434140619694
 10
869.758914303477
 20
490.5845320745124
 10
874.117796290934
 20
494.9434140619693
 10
876.7589143034768
 20
494.9434140619693
 10
876.7589143034768
 20
491.9434140619687
 10
875.7589143034769
 20
490.9434140619689
 10
875.758914303477
 20
488.9434140619694
 10
876.758914303477
 20
487.9434140619696
 10
876.7589143034768
 20
485.1434140619694
 10
876.0589143034771
 20
484.4434140619696
 97
        0
 75
     0
 76
     0
 52
225.0
 41
1.5
 77
     0
 78
     1
 53
135.0
 43
1117.245389
 44
1108.890655
 45
1.060660171779821
 46
1.060660171779821
 79
     0
 47
0.151518
 98
        2
 10
873.074877
 20
507.967484
 10
872.468806
 20
489.323073
  0
LINE
  5
24B
100
AcDbEntity
  8
M05
100
AcDbLine
 10
875.758914
 20
507.943414
 30
0.0
 11
876.758914
 21
508.943414
 31
0.0
  0
LINE
  5
24D
100
AcDbEntity
  8
M05
100
AcDbLine
 10
875.758914
 20
505.943414
 30
0.0
 11
876.758914
 21
504.943414
 31
0.0
  0
LINE
  5
24E
100
AcDbEntity
  8
M05
100
AcDbLine
 10
875.758914
 20
507.943414
 30
0.0
 11
875.758914
 21
505.943414
 31
0.0
  0
LINE
  5
24F
100
AcDbEntity
  8
M05
100
AcDbLine
 10
875.758914
 20
488.943414
 30
0.0
 11
876.758914
 21
487.943414
 31
0.0
  0
LINE
  5
250
100
AcDbEntity
  8
M05
100
AcDbLine
 10
875.758914
 20
490.943414
 30
0.0
 11
876.758914
 21
491.943414
 31
0.0
  0
LINE
  5
251
100
AcDbEntity
  8
M05
100
AcDbLine
 10
875.758914
 20
488.943414
 30
0.0
 11
875.758914
 21
490.943414
 31
0.0
  0
LINE
  5
252
100
AcDbEntity
  8
M04
100
AcDbLine
 10
894.58682
 20
498.443414
 30
0.0
 11
893.258914
 21
496.143414
 31
0.0
  0
LINE
  5
253
100
AcDbEntity
  8
M04
100
AcDbLine
 10
893.258914
 20
500.743414
 30
0.0
 11
894.58682
 21
498.443414
 31
0.0
  0
LINE
  5
254
100
AcDbEntity
  8
M04
100
AcDbLine
 10
893.258914
 20
500.743414
 30
0.0
 11
893.258914
 21
496.143414
 31
0.0
  0
LINE
  5
255
100
AcDbEntity
  8
M04
100
AcDbLine
 10
888.197796
 20
501.443414
 30
0.0
 11
891.758914
 21
501.443414
 31
0.0
  0
LINE
  5
256
100
AcDbEntity
  8
M04
100
AcDbLine
 10
888.897796
 20
500.743414
 30
0.0
 11
893.258914
 21
500.743414
 31
0.0
  0
LINE
  5
257
100
AcDbEntity
  8
M04
100
AcDbLine
 10
888.197796
 20
495.443414
 30
0.0
 11
891.758914
 21
495.443414
 31
0.0
  0
LINE
  5
258
100
AcDbEntity
  8
M04
100
AcDbLine
 10
888.897796
 20
496.143414
 30
0.0
 11
893.258914
 21
496.143414
 31
0.0
  0
LINE
  5
259
100
AcDbEntity
  8
M05
100
AcDbLine
 10
888.897796
 20
496.143414
 30
0.0
 11
888.197796
 21
495.443414
 31
0.0
  0
LINE
  5
25A
100
AcDbEntity
  8
M05
100
AcDbLine
 10
888.197796
 20
501.443414
 30
0.0
 11
888.897796
 21
500.743414
 31
0.0
  0
LINE
  5
25B
100
AcDbEntity
  8
M05
100
AcDbLine
 10
876.117796
 20
496.143414
 30
0.0
 11
888.897796
 21
496.143414
 31
0.0
  0
LINE
  5
25C
100
AcDbEntity
  8
M05
100
AcDbLine
 10
876.117796
 20
500.743414
 30
0.0
 11
888.897796
 21
500.743414
 31
0.0
  0
LINE
  5
25D
100
AcDbEntity
  8
M05
100
AcDbLine
 10
888.197796
 20
501.443414
 30
0.0
 11
888.197796
 21
495.443414
 31
0.0
  0
LINE
  5
25E
100
AcDbEntity
  8
M04
100
AcDbLine
 10
891.758914
 20
501.443414
 30
0.0
 11
891.758914
 21
495.443414
 31
0.0
  0
LINE
  5
25F
100
AcDbEntity
  8
M05
100
AcDbLine
 10
888.897796
 20
500.743414
 30
0.0
 11
888.897796
 21
496.143414
 31
0.0
  0
LINE
  5
260
102
{ACAD_REACTORS
330
46
102
}
100
AcDbEntity
  8
M05
  6
HIDDEN
100
AcDbLine
 10
869.458914
 20
506.602296
 30
0.0
 11
868.758914
 21
507.302296
 31
0.0
  0
LINE
  5
261
102
{ACAD_REACTORS
330
46
102
}
100
AcDbEntity
  8
M05
  6
HIDDEN
100
AcDbLine
 10
869.458914
 20
490.284532
 30
0.0
 11
868.758914
 21
489.584532
 31
0.0
  0
LINE
  5
262
100
AcDbEntity
  8
M05
100
AcDbLine
 10
876.117796
 20
501.443414
 30
0.0
 11
876.117796
 21
495.443414
 31
0.0
  0
LINE
  5
263
100
AcDbEntity
  8
M05
100
AcDbLine
 10
871.617796
 20
497.893414
 30
0.0
 11
871.617796
 21
492.443414
 31
0.0
  0
LINE
  5
264
100
AcDbEntity
  8
M05
100
AcDbLine
 10
870.897796
 20
497.893414
 30
0.0
 11
870.897796
 21
492.443414
 31
0.0
  0
LINE
  5
265
100
AcDbEntity
  8
M05
100
AcDbLine
 10
870.897796
 20
497.893414
 30
0.0
 11
872.397796
 21
497.893414
 31
0.0
  0
LINE
  5
266
100
AcDbEntity
  8
M05
100
AcDbLine
 10
870.897796
 20
498.993414
 30
0.0
 11
872.397796
 21
498.993414
 31
0.0
  0
LINE
  5
267
100
AcDbEntity
  8
M05
100
AcDbLine
 10
872.397796
 20
498.993414
 30
0.0
 11
872.397796
 21
497.893414
 31
0.0
  0
LINE
  5
268
100
AcDbEntity
  8
M05
100
AcDbLine
 10
874.117796
 20
494.943414
 30
0.0
 11
876.758914
 21
494.943414
 31
0.0
  0
LINE
  5
269
100
AcDbEntity
  8
M05
100
AcDbLine
 10
874.117796
 20
501.943414
 30
0.0
 11
876.758914
 21
501.943414
 31
0.0
  0
LINE
  5
26A
100
AcDbEntity
  8
M05
100
AcDbLine
 10
871.617796
 20
504.443414
 30
0.0
 11
871.617796
 21
498.993414
 31
0.0
  0
LINE
  5
26B
102
{ACAD_REACTORS
330
46
102
}
100
AcDbEntity
  8
M05
100
AcDbLine
 10
874.617796
 20
501.443414
 30
0.0
 11
869.458914
 21
506.602296
 31
0.0
  0
LINE
  5
26C
100
AcDbEntity
  8
M05
100
AcDbLine
 10
870.897796
 20
504.443414
 30
0.0
 11
871.617796
 21
504.443414
 31
0.0
  0
LINE
  5
26D
102
{ACAD_REACTORS
330
46
102
}
100
AcDbEntity
  8
M05
100
AcDbLine
 10
874.617796
 20
495.443414
 30
0.0
 11
869.458914
 21
490.284532
 31
0.0
  0
LINE
  5
26E
100
AcDbEntity
  8
M05
100
AcDbLine
 10
874.617796
 20
501.443414
 30
0.0
 11
874.617796
 21
495.443414
 31
0.0
  0
LINE
  5
26F
100
AcDbEntity
  8
M05
100
AcDbLine
 10
874.617796
 20
501.443414
 30
0.0
 11
888.197796
 21
501.443414
 31
0.0
  0
LINE
  5
270
100
AcDbEntity
  8
M05
100
AcDbLine
 10
874.617796
 20
495.443414
 30
0.0
 11
888.197796
 21
495.443414
 31
0.0
  0
LINE
  5
271
100
AcDbEntity
  8
M05
100
AcDbLine
 10
870.897796
 20
492.443414
 30
0.0
 11
871.617796
 21
492.443414
 31
0.0
  0
LINE
  5
272
100
AcDbEntity
  8
M05
100
AcDbLine
 10
870.897796
 20
504.443414
 30
0.0
 11
870.897796
 21
498.993414
 31
0.0
  0
LINE
  5
273
102
{ACAD_REACTORS
330
46
102
}
100
AcDbEntity
  8
M05
  6
HIDDEN
100
AcDbLine
 10
869.458914
 20
512.443414
 30
0.0
 11
869.458914
 21
484.443414
 31
0.0
  0
LINE
  5
274
102
{ACAD_REACTORS
330
46
102
}
100
AcDbEntity
  8
M05
  6
HIDDEN
100
AcDbLine
 10
869.458914
 20
484.443414
 30
0.0
 11
868.758914
 21
485.143414
 31
0.0
  0
LINE
  5
275
102
{ACAD_REACTORS
330
46
102
}
100
AcDbEntity
  8
M05
  6
HIDDEN
100
AcDbLine
 10
870.458914
 20
484.443414
 30
0.0
 11
869.458914
 21
484.443414
 31
0.0
  0
LINE
  5
276
100
AcDbEntity
  8
M05
100
AcDbLine
 10
870.458914
 20
484.443414
 30
0.0
 11
869.758914
 21
485.143414
 31
0.0
  0
LINE
  5
277
100
AcDbEntity
  8
M05
100
AcDbLine
 10
876.058914
 20
484.443414
 30
0.0
 11
876.758914
 21
485.143414
 31
0.0
  0
LINE
  5
278
100
AcDbEntity
  8
M05
100
AcDbLine
 10
870.458914
 20
484.443414
 30
0.0
 11
876.058914
 21
484.443414
 31
0.0
  0
LINE
  5
279
102
{ACAD_REACTORS
330
46
102
}
100
AcDbEntity
  8
M05
  6
HIDDEN
100
AcDbLine
 10
869.458914
 20
512.443414
 30
0.0
 11
868.758914
 21
511.743414
 31
0.0
  0
LINE
  5
27A
102
{ACAD_REACTORS
330
46
102
}
100
AcDbEntity
  8
M05
  6
HIDDEN
100
AcDbLine
 10
870.458914
 20
512.443414
 30
0.0
 11
869.458914
 21
512.443414
 31
0.0
  0
LINE
  5
27B
100
AcDbEntity
  8
M05
100
AcDbLine
 10
870.458914
 20
512.443414
 30
0.0
 11
869.758914
 21
511.743414
 31
0.0
  0
LINE
  5
27C
100
AcDbEntity
  8
M05
100
AcDbLine
 10
876.058914
 20
512.443414
 30
0.0
 11
876.758914
 21
511.743414
 31
0.0
  0
LINE
  5
27D
102
{ACAD_REACTORS
330
117
102
}
100
AcDbEntity
  8
M02
100
AcDbLine
 10
869.758914
 20
483.443414
 30
0.0
 11
872.758914
 21
483.443414
 31
0.0
  0
LINE
  5
27E
102
{ACAD_REACTORS
330
117
102
}
100
AcDbEntity
  8
M02
100
AcDbLine
 10
869.758914
 20
513.443414
 30
0.0
 11
872.758914
 21
513.443414
 31
0.0
  0
LINE
  5
27F
102
{ACAD_REACTORS
330
46
102
}
100
AcDbEntity
  8
M05
  6
HIDDEN
100
AcDbLine
 10
868.758914
 20
511.743414
 30
0.0
 11
868.758914
 21
485.143414
 31
0.0
  0
LINE
  5
280
100
AcDbEntity
  8
M05
100
AcDbLine
 10
870.458914
 20
512.443414
 30
0.0
 11
876.058914
 21
512.443414
 31
0.0
  0
LINE
  5
281
102
{ACAD_REACTORS
330
46
102
}
100
AcDbEntity
  8
CENTRE
100
AcDbLine
 10
864.249804
 20
498.443414
 30
0.0
 11
897.328142
 21
498.443414
 31
0.0
  0
LINE
  5
282
100
AcDbEntity
  8
M01
100
AcDbLine
 10
809.758914
 20
494.443414
 30
0.0
 11
826.758914
 21
494.443414
 31
0.0
  0
LINE
  5
283
100
AcDbEntity
  8
M01
100
AcDbLine
 10
809.758914
 20
502.443414
 30
0.0
 11
826.758914
 21
502.443414
 31
0.0
  0
LINE
  5
284
102
{ACAD_REACTORS
330
118
102
}
100
AcDbEntity
  8
M02
100
AcDbLine
 10
809.758914
 20
480.443414
 30
0.0
 11
806.758914
 21
480.443414
 31
0.0
  0
LINE
  5
285
102
{ACAD_REACTORS
330
118
102
}
100
AcDbEntity
  8
M02
100
AcDbLine
 10
809.758914
 20
516.443414
 30
0.0
 11
806.758914
 21
516.443414
 31
0.0
  0
LINE
  5
286
100
AcDbEntity
  8
CENTRE
100
AcDbLine
 10
796.947319
 20
498.443414
 30
0.0
 11
834.758914
 21
498.443414
 31
0.0
  0
LINE
  5
287
100
AcDbEntity
  8
DIMS
 62
     4
100
AcDbLine
 10
412.230806
 20
459.991636
 30
0.0
 11
409.230806
 21
459.991636
 31
0.0
1001
ACAD
1000
DSTYLE
1002
{
1070
   144
1040
1.0
1002
}
  0
LINE
  5
288
100
AcDbEntity
  8
DIMS
 62
     4
100
AcDbLine
 10
438.252743
 20
478.36262
 30
0.0
 11
412.230806
 21
459.991636
 31
0.0
1001
ACAD
1000
DSTYLE
1002
{
1070
   144
1040
1.0
1002
}
  0
SOLID
  5
289
100
AcDbEntity
  8
DIMS
 62
     4
100
AcDbTrace
 10
437.964375
 20
478.771085
 30
0.0
 11
440.703533
 21
480.092831
 31
0.0
 12
438.541111
 22
477.954155
 32
0.0
 13
438.541111
 23
477.954155
 33
0.0
1001
ACAD
1000
DSTYLE
1002
{
1070
   144
1040
1.0
1002
}
  0
LEADER
  5
28A
100
AcDbEntity
  8
DIMS
 62
     4
100
AcDbLeader
  3
DIM1$7
 76
     2
 10
528.004246
 20
219.459138
 30
0.0
 10
516.389293
 20
201.926692
 30
0.0
 77
   256
211
0.9626188335363941
221
0.2708597078212847
231
0.0
1001
ACAD
1000
DSTYLE
1002
{
1070
   144
1040
1.0
1002
}
  0
LINE
  5
28C
100
AcDbEntity
  8
M03
100
AcDbLine
 10
453.74071
 20
487.597484
 30
0.0
 11
453.053336
 21
490.162801
 31
0.0
  0
LINE
  5
28D
100
AcDbEntity
  8
M03
100
AcDbLine
 10
450.488019
 20
490.850176
 30
0.0
 11
453.053336
 21
490.162801
 31
0.0
  0
LINE
  5
28E
100
AcDbEntity
  8
M03
100
AcDbLine
 10
450.488019
 20
490.850176
 30
0.0
 11
453.74071
 21
487.597484
 31
0.0
  0
LINE
  5
28F
100
AcDbEntity
  8
M03
100
AcDbLine
 10
448.932384
 20
490.28449
 30
0.0
 11
453.175025
 21
486.04185
 31
0.0
  0
LINE
  5
290
100
AcDbEntity
  8
M03
100
AcDbLine
 10
432.381091
 20
489.723799
 30
0.0
 11
426.267548
 21
495.837342
 31
0.0
  0
LINE
  5
291
100
AcDbEntity
  8
M03
100
AcDbLine
 10
431.037588
 20
488.380296
 30
0.0
 11
424.924045
 21
494.493839
 31
0.0
  0
LINE
  5
292
100
AcDbEntity
  8
M03
100
AcDbLine
 10
437.542971
 20
484.986184
 30
0.0
 11
447.659592
 21
474.869562
 31
0.0
  0
LINE
  5
293
100
AcDbEntity
  8
M03
100
AcDbLine
 10
437.369896
 20
486.290629
 30
0.0
 11
436.804211
 21
485.724943
 31
0.0
  0
LINE
  5
294
100
AcDbEntity
  8
M03
100
AcDbLine
 10
432.593223
 20
489.935931
 30
0.0
 11
430.825456
 21
488.168164
 31
0.0
  0
LINE
  5
295
100
AcDbEntity
  8
M03
100
AcDbLine
 10
430.825456
 20
488.168164
 30
0.0
 11
435.775204
 21
483.218417
 31
0.0
  0
LINE
  5
296
100
AcDbEntity
  8
M03
100
AcDbLine
 10
437.542971
 20
484.986184
 30
0.0
 11
435.775204
 21
483.218417
 31
0.0
  0
LINE
  5
297
100
AcDbEntity
  8
M03
100
AcDbLine
 10
448.225277
 20
475.435248
 30
0.0
 11
447.659592
 21
474.869562
 31
0.0
  0
ARC
  5
298
100
AcDbEntity
  8
M03
100
AcDbCircle
 10
444.496092
 20
481.605558
 30
0.0
 40
5.826136
100
AcDbArc
 50
160.69541
 51
289.30459
  0
LINE
  5
299
100
AcDbEntity
  8
M03
100
AcDbLine
 10
451.407258
 20
484.274083
 30
0.0
 11
451.407258
 21
485.264032
 31
0.0
  0
LINE
  5
29A
100
AcDbEntity
  8
M03
100
AcDbLine
 10
447.164617
 20
488.516723
 30
0.0
 11
448.154566
 21
488.516723
 31
0.0
  0
LINE
  5
29B
100
AcDbEntity
  8
M03
100
AcDbLine
 10
447.164617
 20
488.516723
 30
0.0
 11
451.407258
 21
484.274083
 31
0.0
  0
LINE
  5
29C
100
AcDbEntity
  8
M03
100
AcDbLine
 10
448.154566
 20
488.516723
 30
0.0
 11
451.407258
 21
485.264032
 31
0.0
  0
LINE
  5
29D
100
AcDbEntity
  8
M03
100
AcDbLine
 10
445.39685
 20
478.263675
 30
0.0
 11
450.346597
 21
473.313927
 31
0.0
  0
LINE
  5
29E
100
AcDbEntity
  8
M03
100
AcDbLine
 10
433.588167
 20
490.072358
 30
0.0
 11
433.022481
 21
489.506673
 31
0.0
  0
LINE
  5
29F
100
AcDbEntity
  8
M03
100
AcDbLine
 10
445.891825
 20
477.7687
 30
0.0
 11
445.326139
 21
477.203015
 31
0.0
  0
LINE
  5
2A0
100
AcDbEntity
  8
M03
100
AcDbLine
 10
453.74071
 20
487.597484
 30
0.0
 11
444.33619
 21
478.192964
 31
0.0
  0
LINE
  5
2A1
100
AcDbEntity
  8
M03
100
AcDbLine
 10
450.488019
 20
490.850176
 30
0.0
 11
441.083499
 21
481.445655
 31
0.0
  0
LINE
  5
2A2
100
AcDbEntity
  8
M03
100
AcDbLine
 10
448.932384
 20
490.28449
 30
0.0
 11
440.588524
 21
481.94063
 31
0.0
  0
LINE
  5
2A3
100
AcDbEntity
  8
M03
100
AcDbLine
 10
453.175025
 20
486.04185
 30
0.0
 11
444.831165
 21
477.69799
 31
0.0
  0
LINE
  5
2A4
100
AcDbEntity
  8
M03
100
AcDbLine
 10
432.593223
 20
489.935931
 30
0.0
 11
436.804211
 21
485.724943
 31
0.0
  0
LINE
  5
2A5
100
AcDbEntity
  8
M03
100
AcDbLine
 10
450.346597
 20
473.313927
 30
0.0
 11
446.461365
 21
469.428695
 31
0.0
  0
LINE
  5
2A6
100
AcDbEntity
  8
M03
100
AcDbLine
 10
425.044627
 20
498.615898
 30
0.0
 11
441.154209
 21
482.506316
 31
0.0
  0
LINE
  5
2A7
100
AcDbEntity
  8
CENTRE
100
AcDbLine
 10
456.143935
 20
493.2534
 30
0.0
 11
436.938809
 21
474.048274
 31
0.0
  0
LINE
  5
2A8
100
AcDbEntity
  8
M04
100
AcDbLine
 10
415.321908
 20
490.668658
 30
0.0
 11
441.511618
 21
464.478948
 31
0.0
  0
LINE
  5
2A9
100
AcDbEntity
  8
CENTRE
100
AcDbLine
 10
542.044627
 20
613.604303
 30
0.0
 11
542.044627
 21
550.010872
 31
0.0
  0
LINE
  5
2AA
100
AcDbEntity
  8
CENTRE
100
AcDbLine
 10
566.044627
 20
613.604303
 30
0.0
 11
566.044627
 21
550.010872
 31
0.0
  0
LINE
  5
2AB
100
AcDbEntity
  8
M04
100
AcDbLine
 10
571.044627
 20
622.443414
 30
0.0
 11
571.044627
 21
643.114892
 31
0.0
  0
ARC
  5
2AC
100
AcDbEntity
  8
M04
100
AcDbCircle
 10
571.044627
 20
607.443414
 30
0.0
 40
15.0
100
AcDbArc
 50
0.0
 51
90.0
  0
LINE
  5
2AD
100
AcDbEntity
  8
M01
100
AcDbLine
 10
538.794627
 20
584.387514
 30
0.0
 11
545.294627
 21
584.387514
 31
0.0
  0
LINE
  5
2AE
100
AcDbEntity
  8
M01
100
AcDbLine
 10
538.794627
 20
592.499314
 30
0.0
 11
545.294627
 21
592.499314
 31
0.0
  0
LINE
  5
2AF
100
AcDbEntity
  8
M01
100
AcDbLine
 10
538.794627
 20
584.387514
 30
0.0
 11
538.794627
 21
582.443414
 31
0.0
  0
ARC
  5
2B0
100
AcDbEntity
  8
M01
100
AcDbCircle
 10
537.544627
 20
585.948764
 30
0.0
 40
2.0
100
AcDbArc
 50
308.682187
 51
0.0
  0
ARC
  5
2B1
100
AcDbEntity
  8
M01
100
AcDbCircle
 10
537.544627
 20
590.938064
 30
0.0
 40
2.0
100
AcDbArc
 50
0.0
 51
51.317813
  0
LINE
  5
2B2
100
AcDbEntity
  8
M01
100
AcDbLine
 10
538.794627
 20
594.443414
 30
0.0
 11
538.794627
 21
592.499314
 31
0.0
  0
LINE
  5
2B3
100
AcDbEntity
  8
M01
100
AcDbLine
 10
539.544627
 20
590.938064
 30
0.0
 11
539.544627
 21
585.948764
 31
0.0
  0
LINE
  5
2B4
100
AcDbEntity
  8
M01
100
AcDbLine
 10
545.294627
 20
584.387514
 30
0.0
 11
545.294627
 21
582.443414
 31
0.0
  0
ARC
  5
2B5
100
AcDbEntity
  8
M01
100
AcDbCircle
 10
546.544627
 20
585.948764
 30
0.0
 40
2.0
100
AcDbArc
 50
180.0
 51
231.317813
  0
ARC
  5
2B6
100
AcDbEntity
  8
M01
100
AcDbCircle
 10
546.544627
 20
590.938064
 30
0.0
 40
2.0
100
AcDbArc
 50
128.682187
 51
180.0
  0
LINE
  5
2B7
100
AcDbEntity
  8
M01
100
AcDbLine
 10
545.294627
 20
594.443414
 30
0.0
 11
545.294627
 21
592.499314
 31
0.0
  0
LINE
  5
2B8
100
AcDbEntity
  8
M01
100
AcDbLine
 10
544.544627
 20
590.938064
 30
0.0
 11
544.544627
 21
585.948764
 31
0.0
  0
LINE
  5
2B9
100
AcDbEntity
  8
M01
100
AcDbLine
 10
546.544627
 20
594.443414
 30
0.0
 11
537.544627
 21
594.443414
 31
0.0
  0
LINE
  5
2BA
100
AcDbEntity
  8
M01
100
AcDbLine
 10
537.544627
 20
595.243414
 30
0.0
 11
537.544627
 21
594.443414
 31
0.0
  0
LINE
  5
2BB
100
AcDbEntity
  8
M01
100
AcDbLine
 10
546.544627
 20
595.243414
 30
0.0
 11
546.544627
 21
594.443414
 31
0.0
  0
LINE
  5
2BC
100
AcDbEntity
  8
M01
100
AcDbLine
 10
569.294627
 20
584.387514
 30
0.0
 11
562.794627
 21
584.387514
 31
0.0
  0
LINE
  5
2BD
100
AcDbEntity
  8
M01
100
AcDbLine
 10
569.294627
 20
592.499314
 30
0.0
 11
562.794627
 21
592.499314
 31
0.0
  0
LINE
  5
2BE
100
AcDbEntity
  8
M01
100
AcDbLine
 10
569.294627
 20
584.387514
 30
0.0
 11
569.294627
 21
582.443414
 31
0.0
  0
ARC
  5
2BF
100
AcDbEntity
  8
M01
100
AcDbCircle
 10
570.544627
 20
585.948764
 30
0.0
 40
2.0
100
AcDbArc
 50
180.0
 51
231.317813
  0
ARC
  5
2C0
100
AcDbEntity
  8
M01
100
AcDbCircle
 10
570.544627
 20
590.938064
 30
0.0
 40
2.0
100
AcDbArc
 50
128.682187
 51
180.0
  0
LINE
  5
2C1
100
AcDbEntity
  8
M01
100
AcDbLine
 10
569.294627
 20
594.443414
 30
0.0
 11
569.294627
 21
592.499314
 31
0.0
  0
LINE
  5
2C2
100
AcDbEntity
  8
M01
100
AcDbLine
 10
568.544627
 20
590.938064
 30
0.0
 11
568.544627
 21
585.948764
 31
0.0
  0
LINE
  5
2C3
100
AcDbEntity
  8
M01
100
AcDbLine
 10
562.794627
 20
584.387514
 30
0.0
 11
562.794627
 21
582.443414
 31
0.0
  0
ARC
  5
2C4
100
AcDbEntity
  8
M01
100
AcDbCircle
 10
561.544627
 20
585.948764
 30
0.0
 40
2.0
100
AcDbArc
 50
308.682187
 51
0.0
  0
ARC
  5
2C5
100
AcDbEntity
  8
M01
100
AcDbCircle
 10
561.544627
 20
590.938064
 30
0.0
 40
2.0
100
AcDbArc
 50
0.0
 51
51.317813
  0
LINE
  5
2C6
100
AcDbEntity
  8
M01
100
AcDbLine
 10
562.794627
 20
594.443414
 30
0.0
 11
562.794627
 21
592.499314
 31
0.0
  0
LINE
  5
2C7
100
AcDbEntity
  8
M01
100
AcDbLine
 10
563.544627
 20
590.938064
 30
0.0
 11
563.544627
 21
585.948764
 31
0.0
  0
LINE
  5
2C8
100
AcDbEntity
  8
M01
100
AcDbLine
 10
537.044627
 20
577.443414
 30
0.0
 11
547.044627
 21
577.443414
 31
0.0
  0
LINE
  5
2C9
100
AcDbEntity
  8
M01
100
AcDbLine
 10
571.044627
 20
577.443414
 30
0.0
 11
561.044627
 21
577.443414
 31
0.0
  0
LINE
  5
2CA
100
AcDbEntity
  8
M01
100
AcDbLine
 10
571.044627
 20
582.443414
 30
0.0
 11
571.044627
 21
562.443414
 31
0.0
  0
LINE
  5
2CB
100
AcDbEntity
  8
M01
100
AcDbLine
 10
561.044627
 20
582.443414
 30
0.0
 11
561.044627
 21
562.443414
 31
0.0
  0
LINE
  5
2CC
100
AcDbEntity
  8
M01
100
AcDbLine
 10
547.044627
 20
582.443414
 30
0.0
 11
547.044627
 21
562.443414
 31
0.0
  0
LINE
  5
2CD
100
AcDbEntity
  8
M01
100
AcDbLine
 10
537.044627
 20
582.443414
 30
0.0
 11
537.044627
 21
562.443414
 31
0.0
  0
LINE
  5
2CE
100
AcDbEntity
  8
M01
100
AcDbLine
 10
539.013538
 20
604.343414
 30
0.0
 11
545.075715
 21
604.343414
 31
0.0
  0
ARC
  5
2CF
100
AcDbEntity
  8
M01
100
AcDbCircle
 10
545.075715
 20
602.494109
 30
0.0
 40
1.150694
100
AcDbArc
 50
208.592423
 51
331.407577
  0
ARC
  5
2D0
100
AcDbEntity
  8
M01
100
AcDbCircle
 10
542.044627
 20
605.046192
 30
0.0
 40
3.702778
100
AcDbArc
 50
236.92527
 51
303.07473
  0
ARC
  5
2D1
100
AcDbEntity
  8
M01
100
AcDbCircle
 10
539.013538
 20
602.494109
 30
0.0
 40
1.150694
100
AcDbArc
 50
208.592423
 51
331.407577
  0
ARC
  5
2D2
100
AcDbEntity
  8
M01
100
AcDbCircle
 10
545.075715
 20
603.19272
 30
0.0
 40
1.150694
100
AcDbArc
 50
28.592423
 51
151.407577
  0
ARC
  5
2D3
100
AcDbEntity
  8
M01
100
AcDbCircle
 10
542.044627
 20
600.640636
 30
0.0
 40
3.702778
100
AcDbArc
 50
56.92527
 51
123.07473
  0
LINE
  5
2D4
100
AcDbEntity
  8
M01
100
AcDbLine
 10
544.065352
 20
603.743414
 30
0.0
 11
544.065352
 21
601.943414
 31
0.0
  0
LINE
  5
2D5
100
AcDbEntity
  8
M01
100
AcDbLine
 10
546.086078
 20
603.743414
 30
0.0
 11
546.086078
 21
601.943414
 31
0.0
  0
ARC
  5
2D6
100
AcDbEntity
  8
M01
100
AcDbCircle
 10
539.013538
 20
603.19272
 30
0.0
 40
1.150694
100
AcDbArc
 50
28.592423
 51
151.407577
  0
LINE
  5
2D7
100
AcDbEntity
  8
M01
100
AcDbLine
 10
540.023901
 20
603.743414
 30
0.0
 11
540.023901
 21
601.943414
 31
0.0
  0
LINE
  5
2D8
100
AcDbEntity
  8
M01
100
AcDbLine
 10
538.003175
 20
603.743414
 30
0.0
 11
538.003175
 21
601.943414
 31
0.0
  0
LINE
  5
2D9
100
AcDbEntity
  8
M01
100
AcDbLine
 10
547.044627
 20
599.043414
 30
0.0
 11
547.044627
 21
600.543414
 31
0.0
  0
LINE
  5
2DA
100
AcDbEntity
  8
M01
100
AcDbLine
 10
537.044627
 20
599.043414
 30
0.0
 11
537.044627
 21
600.543414
 31
0.0
  0
LINE
  5
2DB
100
AcDbEntity
  8
M01
100
AcDbLine
 10
546.544627
 20
600.543414
 30
0.0
 11
546.544627
 21
601.343414
 31
0.0
  0
LINE
  5
2DC
100
AcDbEntity
  8
M01
100
AcDbLine
 10
537.544627
 20
600.543414
 30
0.0
 11
537.544627
 21
601.343414
 31
0.0
  0
LINE
  5
2DD
100
AcDbEntity
  8
M01
100
AcDbLine
 10
537.544627
 20
601.343414
 30
0.0
 11
546.544627
 21
601.343414
 31
0.0
  0
LINE
  5
2DE
100
AcDbEntity
  8
M01
100
AcDbLine
 10
537.044627
 20
600.543414
 30
0.0
 11
547.044627
 21
600.543414
 31
0.0
  0
LINE
  5
2DF
100
AcDbEntity
  8
M01
100
AcDbLine
 10
546.544627
 20
598.243414
 30
0.0
 11
546.544627
 21
599.043414
 31
0.0
  0
LINE
  5
2E0
100
AcDbEntity
  8
M01
100
AcDbLine
 10
537.544627
 20
598.243414
 30
0.0
 11
537.544627
 21
599.043414
 31
0.0
  0
LINE
  5
2E1
100
AcDbEntity
  8
M01
100
AcDbLine
 10
537.044627
 20
599.043414
 30
0.0
 11
547.044627
 21
599.043414
 31
0.0
  0
ARC
  5
2E2
100
AcDbEntity
  8
M01
100
AcDbCircle
 10
545.075715
 20
596.394109
 30
0.0
 40
1.150694
100
AcDbArc
 50
208.592423
 51
331.407577
  0
ARC
  5
2E3
100
AcDbEntity
  8
M01
100
AcDbCircle
 10
542.044627
 20
598.946192
 30
0.0
 40
3.702778
100
AcDbArc
 50
236.92527
 51
303.07473
  0
ARC
  5
2E4
100
AcDbEntity
  8
M01
100
AcDbCircle
 10
539.013538
 20
596.394109
 30
0.0
 40
1.150694
100
AcDbArc
 50
208.592423
 51
331.407577
  0
ARC
  5
2E5
100
AcDbEntity
  8
M01
100
AcDbCircle
 10
545.075715
 20
597.09272
 30
0.0
 40
1.150694
100
AcDbArc
 50
28.592423
 51
151.407577
  0
ARC
  5
2E6
100
AcDbEntity
  8
M01
100
AcDbCircle
 10
542.044627
 20
594.540636
 30
0.0
 40
3.702778
100
AcDbArc
 50
56.92527
 51
123.07473
  0
LINE
  5
2E7
100
AcDbEntity
  8
M01
100
AcDbLine
 10
544.065352
 20
597.643414
 30
0.0
 11
544.065352
 21
595.843414
 31
0.0
  0
LINE
  5
2E8
100
AcDbEntity
  8
M01
100
AcDbLine
 10
546.086078
 20
597.643414
 30
0.0
 11
546.086078
 21
595.843414
 31
0.0
  0
ARC
  5
2E9
100
AcDbEntity
  8
M01
100
AcDbCircle
 10
539.013538
 20
597.09272
 30
0.0
 40
1.150694
100
AcDbArc
 50
28.592423
 51
151.407577
  0
LINE
  5
2EA
100
AcDbEntity
  8
M01
100
AcDbLine
 10
540.023901
 20
597.643414
 30
0.0
 11
540.023901
 21
595.843414
 31
0.0
  0
LINE
  5
2EB
100
AcDbEntity
  8
M01
100
AcDbLine
 10
538.003175
 20
597.643414
 30
0.0
 11
538.003175
 21
595.843414
 31
0.0
  0
LINE
  5
2EC
100
AcDbEntity
  8
M01
100
AcDbLine
 10
537.544627
 20
598.243414
 30
0.0
 11
546.544627
 21
598.243414
 31
0.0
  0
LINE
  5
2ED
100
AcDbEntity
  8
M01
100
AcDbLine
 10
537.544627
 20
595.243414
 30
0.0
 11
546.544627
 21
595.243414
 31
0.0
  0
LINE
  5
2EE
100
AcDbEntity
  8
M01
100
AcDbLine
 10
543.544627
 20
607.443414
 30
0.0
 11
544.044627
 21
606.943414
 31
0.0
  0
LINE
  5
2EF
100
AcDbEntity
  8
M01
100
AcDbLine
 10
540.044627
 20
606.943414
 30
0.0
 11
540.544627
 21
607.443414
 31
0.0
  0
LINE
  5
2F0
100
AcDbEntity
  8
M01
100
AcDbLine
 10
540.044627
 20
606.943414
 30
0.0
 11
544.044627
 21
606.943414
 31
0.0
  0
LINE
  5
2F1
100
AcDbEntity
  8
M01
100
AcDbLine
 10
543.544627
 20
607.443414
 30
0.0
 11
543.544627
 21
604.343414
 31
0.0
  0
LINE
  5
2F2
100
AcDbEntity
  8
M01
100
AcDbLine
 10
540.544627
 20
607.443414
 30
0.0
 11
540.544627
 21
604.343414
 31
0.0
  0
LINE
  5
2F3
100
AcDbEntity
  8
M01
100
AcDbLine
 10
540.044627
 20
606.943414
 30
0.0
 11
540.044627
 21
604.343414
 31
0.0
  0
LINE
  5
2F4
100
AcDbEntity
  8
M01
100
AcDbLine
 10
544.044627
 20
606.943414
 30
0.0
 11
544.044627
 21
604.343414
 31
0.0
  0
LINE
  5
2F5
100
AcDbEntity
  8
M01
100
AcDbLine
 10
540.544627
 20
607.443414
 30
0.0
 11
543.544627
 21
607.443414
 31
0.0
  0
LINE
  5
2F6
100
AcDbEntity
  8
M01
100
AcDbLine
 10
537.044627
 20
582.443414
 30
0.0
 11
547.044627
 21
582.443414
 31
0.0
  0
LINE
  5
2F7
100
AcDbEntity
  8
M01
100
AcDbLine
 10
569.075715
 20
604.343414
 30
0.0
 11
563.013538
 21
604.343414
 31
0.0
  0
ARC
  5
2F8
100
AcDbEntity
  8
M01
100
AcDbCircle
 10
563.013538
 20
602.494109
 30
0.0
 40
1.150694
100
AcDbArc
 50
208.592423
 51
331.407577
  0
ARC
  5
2F9
100
AcDbEntity
  8
M01
100
AcDbCircle
 10
566.044627
 20
605.046192
 30
0.0
 40
3.702778
100
AcDbArc
 50
236.92527
 51
303.07473
  0
ARC
  5
2FA
100
AcDbEntity
  8
M01
100
AcDbCircle
 10
569.075715
 20
602.494109
 30
0.0
 40
1.150694
100
AcDbArc
 50
208.592423
 51
331.407577
  0
ARC
  5
2FB
100
AcDbEntity
  8
M01
100
AcDbCircle
 10
563.013538
 20
603.19272
 30
0.0
 40
1.150694
100
AcDbArc
 50
28.592423
 51
151.407577
  0
ARC
  5
2FC
100
AcDbEntity
  8
M01
100
AcDbCircle
 10
566.044627
 20
600.640636
 30
0.0
 40
3.702778
100
AcDbArc
 50
56.92527
 51
123.07473
  0
LINE
  5
2FD
100
AcDbEntity
  8
M01
100
AcDbLine
 10
564.023901
 20
603.743414
 30
0.0
 11
564.023901
 21
601.943414
 31
0.0
  0
LINE
  5
2FE
100
AcDbEntity
  8
M01
100
AcDbLine
 10
562.003175
 20
603.743414
 30
0.0
 11
562.003175
 21
601.943414
 31
0.0
  0
ARC
  5
2FF
100
AcDbEntity
  8
M01
100
AcDbCircle
 10
569.075715
 20
603.19272
 30
0.0
 40
1.150694
100
AcDbArc
 50
28.592423
 51
151.407577
  0
LINE
  5
300
100
AcDbEntity
  8
M01
100
AcDbLine
 10
568.065352
 20
603.743414
 30
0.0
 11
568.065352
 21
601.943414
 31
0.0
  0
LINE
  5
301
100
AcDbEntity
  8
M01
100
AcDbLine
 10
570.086078
 20
603.743414
 30
0.0
 11
570.086078
 21
601.943414
 31
0.0
  0
LINE
  5
302
100
AcDbEntity
  8
M01
100
AcDbLine
 10
561.044627
 20
599.043414
 30
0.0
 11
561.044627
 21
600.543414
 31
0.0
  0
LINE
  5
303
100
AcDbEntity
  8
M01
100
AcDbLine
 10
571.044627
 20
599.043414
 30
0.0
 11
571.044627
 21
600.543414
 31
0.0
  0
LINE
  5
304
100
AcDbEntity
  8
M01
100
AcDbLine
 10
561.544627
 20
600.543414
 30
0.0
 11
561.544627
 21
601.343414
 31
0.0
  0
LINE
  5
305
100
AcDbEntity
  8
M01
100
AcDbLine
 10
570.544627
 20
600.543414
 30
0.0
 11
570.544627
 21
601.343414
 31
0.0
  0
LINE
  5
306
100
AcDbEntity
  8
M01
100
AcDbLine
 10
570.544627
 20
601.343414
 30
0.0
 11
561.544627
 21
601.343414
 31
0.0
  0
LINE
  5
307
100
AcDbEntity
  8
M01
100
AcDbLine
 10
571.044627
 20
600.543414
 30
0.0
 11
561.044627
 21
600.543414
 31
0.0
  0
LINE
  5
308
100
AcDbEntity
  8
M01
100
AcDbLine
 10
561.544627
 20
598.243414
 30
0.0
 11
561.544627
 21
599.043414
 31
0.0
  0
LINE
  5
309
100
AcDbEntity
  8
M01
100
AcDbLine
 10
570.544627
 20
598.243414
 30
0.0
 11
570.544627
 21
599.043414
 31
0.0
  0
LINE
  5
30A
100
AcDbEntity
  8
M01
100
AcDbLine
 10
571.044627
 20
599.043414
 30
0.0
 11
561.044627
 21
599.043414
 31
0.0
  0
ARC
  5
30B
100
AcDbEntity
  8
M01
100
AcDbCircle
 10
563.013538
 20
596.394109
 30
0.0
 40
1.150694
100
AcDbArc
 50
208.592423
 51
331.407577
  0
ARC
  5
30C
100
AcDbEntity
  8
M01
100
AcDbCircle
 10
566.044627
 20
598.946192
 30
0.0
 40
3.702778
100
AcDbArc
 50
236.92527
 51
303.07473
  0
ARC
  5
30D
100
AcDbEntity
  8
M01
100
AcDbCircle
 10
569.075715
 20
596.394109
 30
0.0
 40
1.150694
100
AcDbArc
 50
208.592423
 51
331.407577
  0
ARC
  5
30E
100
AcDbEntity
  8
M01
100
AcDbCircle
 10
563.013538
 20
597.09272
 30
0.0
 40
1.150694
100
AcDbArc
 50
28.592423
 51
151.407577
  0
ARC
  5
30F
100
AcDbEntity
  8
M01
100
AcDbCircle
 10
566.044627
 20
594.540636
 30
0.0
 40
3.702778
100
AcDbArc
 50
56.92527
 51
123.07473
  0
LINE
  5
310
100
AcDbEntity
  8
M01
100
AcDbLine
 10
564.023901
 20
597.643414
 30
0.0
 11
564.023901
 21
595.843414
 31
0.0
  0
LINE
  5
311
100
AcDbEntity
  8
M01
100
AcDbLine
 10
562.003175
 20
597.643414
 30
0.0
 11
562.003175
 21
595.843414
 31
0.0
  0
ARC
  5
312
100
AcDbEntity
  8
M01
100
AcDbCircle
 10
569.075715
 20
597.09272
 30
0.0
 40
1.150694
100
AcDbArc
 50
28.592423
 51
151.407577
  0
LINE
  5
313
100
AcDbEntity
  8
M01
100
AcDbLine
 10
568.065352
 20
597.643414
 30
0.0
 11
568.065352
 21
595.843414
 31
0.0
  0
LINE
  5
314
100
AcDbEntity
  8
M01
100
AcDbLine
 10
570.086078
 20
597.643414
 30
0.0
 11
570.086078
 21
595.843414
 31
0.0
  0
LINE
  5
315
100
AcDbEntity
  8
M01
100
AcDbLine
 10
570.544627
 20
598.243414
 30
0.0
 11
561.544627
 21
598.243414
 31
0.0
  0
LINE
  5
316
100
AcDbEntity
  8
M01
100
AcDbLine
 10
570.544627
 20
595.243414
 30
0.0
 11
561.544627
 21
595.243414
 31
0.0
  0
LINE
  5
317
100
AcDbEntity
  8
M01
100
AcDbLine
 10
570.544627
 20
594.443414
 30
0.0
 11
561.544627
 21
594.443414
 31
0.0
  0
LINE
  5
318
100
AcDbEntity
  8
M01
100
AcDbLine
 10
564.544627
 20
607.443414
 30
0.0
 11
564.044627
 21
606.943414
 31
0.0
  0
LINE
  5
319
100
AcDbEntity
  8
M01
100
AcDbLine
 10
568.044627
 20
606.943414
 30
0.0
 11
567.544627
 21
607.443414
 31
0.0
  0
LINE
  5
31A
100
AcDbEntity
  8
M01
100
AcDbLine
 10
568.044627
 20
606.943414
 30
0.0
 11
564.044627
 21
606.943414
 31
0.0
  0
LINE
  5
31B
100
AcDbEntity
  8
M01
100
AcDbLine
 10
564.544627
 20
607.443414
 30
0.0
 11
564.544627
 21
604.343414
 31
0.0
  0
LINE
  5
31C
100
AcDbEntity
  8
M01
100
AcDbLine
 10
567.544627
 20
607.443414
 30
0.0
 11
567.544627
 21
604.343414
 31
0.0
  0
LINE
  5
31D
100
AcDbEntity
  8
M01
100
AcDbLine
 10
568.044627
 20
606.943414
 30
0.0
 11
568.044627
 21
604.343414
 31
0.0
  0
LINE
  5
31E
100
AcDbEntity
  8
M01
100
AcDbLine
 10
564.044627
 20
606.943414
 30
0.0
 11
564.044627
 21
604.343414
 31
0.0
  0
LINE
  5
31F
100
AcDbEntity
  8
M01
100
AcDbLine
 10
567.544627
 20
607.443414
 30
0.0
 11
564.544627
 21
607.443414
 31
0.0
  0
LINE
  5
320
100
AcDbEntity
  8
M01
100
AcDbLine
 10
571.044627
 20
582.443414
 30
0.0
 11
561.044627
 21
582.443414
 31
0.0
  0
LINE
  5
321
100
AcDbEntity
  8
M01
100
AcDbLine
 10
561.544627
 20
595.243414
 30
0.0
 11
561.544627
 21
594.443414
 31
0.0
  0
LINE
  5
322
100
AcDbEntity
  8
M01
100
AcDbLine
 10
570.544627
 20
595.243414
 30
0.0
 11
570.544627
 21
594.443414
 31
0.0
  0
LINE
  5
323
100
AcDbEntity
  8
M04
100
AcDbLine
 10
493.044627
 20
622.443414
 30
0.0
 11
493.044627
 21
643.114892
 31
0.0
  0
ARC
  5
324
100
AcDbEntity
  8
M04
100
AcDbCircle
 10
493.044627
 20
607.443414
 30
0.0
 40
15.0
100
AcDbArc
 50
90.0
 51
180.0
  0
LINE
  5
325
100
AcDbEntity
  8
M04
100
AcDbLine
 10
493.044627
 20
622.443414
 30
0.0
 11
571.044627
 21
622.443414
 31
0.0
  0
LINE
  5
326
100
AcDbEntity
  8
M04
100
AcDbLine
 10
478.044627
 20
607.443414
 30
0.0
 11
478.044627
 21
549.614987
 31
0.0
  0
LINE
  5
327
100
AcDbEntity
  8
M03
100
AcDbLine
 10
498.544627
 20
381.943414
 30
0.0
 11
565.544627
 21
381.943414
 31
0.0
  0
LINE
  5
328
100
AcDbEntity
  8
M03
100
AcDbLine
 10
498.544627
 20
389.943414
 30
0.0
 11
565.544627
 21
389.943414
 31
0.0
  0
LINE
  5
329
100
AcDbEntity
  8
M01
100
AcDbLine
 10
576.044627
 20
560.443414
 30
0.0
 11
574.044627
 21
562.443414
 31
0.0
  0
LINE
  5
32A
100
AcDbEntity
  8
M01
100
AcDbLine
 10
525.294627
 20
584.387514
 30
0.0
 11
518.794627
 21
584.387514
 31
0.0
  0
LINE
  5
32B
100
AcDbEntity
  8
M01
100
AcDbLine
 10
525.294627
 20
592.499314
 30
0.0
 11
518.794627
 21
592.499314
 31
0.0
  0
LINE
  5
32C
100
AcDbEntity
  8
M01
100
AcDbLine
 10
525.294627
 20
584.387514
 30
0.0
 11
525.294627
 21
582.443414
 31
0.0
  0
ARC
  5
32D
100
AcDbEntity
  8
M01
100
AcDbCircle
 10
526.544627
 20
585.948764
 30
0.0
 40
2.0
100
AcDbArc
 50
180.0
 51
231.317813
  0
ARC
  5
32E
100
AcDbEntity
  8
M01
100
AcDbCircle
 10
526.544627
 20
590.938064
 30
0.0
 40
2.0
100
AcDbArc
 50
128.682187
 51
180.0
  0
LINE
  5
32F
100
AcDbEntity
  8
M01
100
AcDbLine
 10
525.294627
 20
594.443414
 30
0.0
 11
525.294627
 21
592.499314
 31
0.0
  0
LINE
  5
330
100
AcDbEntity
  8
M01
100
AcDbLine
 10
524.544627
 20
590.938064
 30
0.0
 11
524.544627
 21
585.948764
 31
0.0
  0
LINE
  5
331
100
AcDbEntity
  8
M01
100
AcDbLine
 10
518.794627
 20
584.387514
 30
0.0
 11
518.794627
 21
582.443414
 31
0.0
  0
ARC
  5
332
100
AcDbEntity
  8
M01
100
AcDbCircle
 10
517.544627
 20
585.948764
 30
0.0
 40
2.0
100
AcDbArc
 50
308.682187
 51
0.0
  0
ARC
  5
333
100
AcDbEntity
  8
M01
100
AcDbCircle
 10
517.544627
 20
590.938064
 30
0.0
 40
2.0
100
AcDbArc
 50
0.0
 51
51.317813
  0
LINE
  5
334
100
AcDbEntity
  8
M01
100
AcDbLine
 10
518.794627
 20
594.443414
 30
0.0
 11
518.794627
 21
592.499314
 31
0.0
  0
LINE
  5
335
100
AcDbEntity
  8
M01
100
AcDbLine
 10
519.544627
 20
590.938064
 30
0.0
 11
519.544627
 21
585.948764
 31
0.0
  0
LINE
  5
336
100
AcDbEntity
  8
M01
100
AcDbLine
 10
517.544627
 20
594.443414
 30
0.0
 11
526.544627
 21
594.443414
 31
0.0
  0
LINE
  5
337
100
AcDbEntity
  8
M01
100
AcDbLine
 10
526.544627
 20
595.243414
 30
0.0
 11
526.544627
 21
594.443414
 31
0.0
  0
LINE
  5
338
100
AcDbEntity
  8
M01
100
AcDbLine
 10
517.544627
 20
595.243414
 30
0.0
 11
517.544627
 21
594.443414
 31
0.0
  0
LINE
  5
339
100
AcDbEntity
  8
M01
100
AcDbLine
 10
494.794627
 20
584.387514
 30
0.0
 11
501.294627
 21
584.387514
 31
0.0
  0
LINE
  5
33A
100
AcDbEntity
  8
M01
100
AcDbLine
 10
494.794627
 20
592.499314
 30
0.0
 11
501.294627
 21
592.499314
 31
0.0
  0
LINE
  5
33B
100
AcDbEntity
  8
M01
100
AcDbLine
 10
494.794627
 20
584.387514
 30
0.0
 11
494.794627
 21
582.443414
 31
0.0
  0
ARC
  5
33C
100
AcDbEntity
  8
M01
100
AcDbCircle
 10
493.544627
 20
585.948764
 30
0.0
 40
2.0
100
AcDbArc
 50
308.682187
 51
0.0
  0
ARC
  5
33D
100
AcDbEntity
  8
M01
100
AcDbCircle
 10
493.544627
 20
590.938064
 30
0.0
 40
2.0
100
AcDbArc
 50
0.0
 51
51.317813
  0
LINE
  5
33E
100
AcDbEntity
  8
M01
100
AcDbLine
 10
494.794627
 20
594.443414
 30
0.0
 11
494.794627
 21
592.499314
 31
0.0
  0
LINE
  5
33F
100
AcDbEntity
  8
M01
100
AcDbLine
 10
495.544627
 20
590.938064
 30
0.0
 11
495.544627
 21
585.948764
 31
0.0
  0
LINE
  5
340
100
AcDbEntity
  8
M01
100
AcDbLine
 10
501.294627
 20
584.387514
 30
0.0
 11
501.294627
 21
582.443414
 31
0.0
  0
ARC
  5
341
100
AcDbEntity
  8
M01
100
AcDbCircle
 10
502.544627
 20
585.948764
 30
0.0
 40
2.0
100
AcDbArc
 50
180.0
 51
231.317813
  0
ARC
  5
342
100
AcDbEntity
  8
M01
100
AcDbCircle
 10
502.544627
 20
590.938064
 30
0.0
 40
2.0
100
AcDbArc
 50
128.682187
 51
180.0
  0
LINE
  5
343
100
AcDbEntity
  8
M01
100
AcDbLine
 10
501.294627
 20
594.443414
 30
0.0
 11
501.294627
 21
592.499314
 31
0.0
  0
LINE
  5
344
100
AcDbEntity
  8
M01
100
AcDbLine
 10
500.544627
 20
590.938064
 30
0.0
 11
500.544627
 21
585.948764
 31
0.0
  0
LINE
  5
345
100
AcDbEntity
  8
M01
100
AcDbLine
 10
527.044627
 20
577.443414
 30
0.0
 11
517.044627
 21
577.443414
 31
0.0
  0
LINE
  5
346
100
AcDbEntity
  8
M01
100
AcDbLine
 10
493.044627
 20
577.443414
 30
0.0
 11
503.044627
 21
577.443414
 31
0.0
  0
LINE
  5
347
100
AcDbEntity
  8
M01
100
AcDbLine
 10
493.044627
 20
582.443414
 30
0.0
 11
493.044627
 21
562.443414
 31
0.0
  0
LINE
  5
348
100
AcDbEntity
  8
M01
100
AcDbLine
 10
503.044627
 20
582.443414
 30
0.0
 11
503.044627
 21
562.443414
 31
0.0
  0
LINE
  5
349
100
AcDbEntity
  8
M01
100
AcDbLine
 10
517.044627
 20
582.443414
 30
0.0
 11
517.044627
 21
562.443414
 31
0.0
  0
LINE
  5
34A
100
AcDbEntity
  8
M01
100
AcDbLine
 10
527.044627
 20
582.443414
 30
0.0
 11
527.044627
 21
562.443414
 31
0.0
  0
LINE
  5
34B
100
AcDbEntity
  8
DIMS
 62
     4
100
AcDbLine
 10
535.444627
 20
556.943414
 30
0.0
 11
537.744627
 21
556.943414
 31
0.0
  0
LINE
  5
34C
100
AcDbEntity
  8
DIMS
 62
     4
100
AcDbLine
 10
528.644627
 20
556.943414
 30
0.0
 11
526.344627
 21
556.943414
 31
0.0
  0
LINE
  5
34D
100
AcDbEntity
  8
DIMS
 62
     4
100
AcDbLine
 10
530.344627
 20
556.943414
 30
0.0
 11
533.744627
 21
556.943414
 31
0.0
  0
LINE
  5
34E
100
AcDbEntity
  8
M01
100
AcDbLine
 10
525.075715
 20
604.343414
 30
0.0
 11
519.013538
 21
604.343414
 31
0.0
  0
ARC
  5
34F
100
AcDbEntity
  8
M01
100
AcDbCircle
 10
519.013538
 20
602.494109
 30
0.0
 40
1.150694
100
AcDbArc
 50
208.592423
 51
331.407577
  0
ARC
  5
350
100
AcDbEntity
  8
M01
100
AcDbCircle
 10
522.044627
 20
605.046192
 30
0.0
 40
3.702778
100
AcDbArc
 50
236.92527
 51
303.07473
  0
ARC
  5
351
100
AcDbEntity
  8
M01
100
AcDbCircle
 10
525.075715
 20
602.494109
 30
0.0
 40
1.150694
100
AcDbArc
 50
208.592423
 51
331.407577
  0
ARC
  5
352
100
AcDbEntity
  8
M01
100
AcDbCircle
 10
519.013538
 20
603.19272
 30
0.0
 40
1.150694
100
AcDbArc
 50
28.592423
 51
151.407577
  0
ARC
  5
353
100
AcDbEntity
  8
M01
100
AcDbCircle
 10
522.044627
 20
600.640636
 30
0.0
 40
3.702778
100
AcDbArc
 50
56.92527
 51
123.07473
  0
LINE
  5
354
100
AcDbEntity
  8
M01
100
AcDbLine
 10
520.023901
 20
603.743414
 30
0.0
 11
520.023901
 21
601.943414
 31
0.0
  0
LINE
  5
355
100
AcDbEntity
  8
M01
100
AcDbLine
 10
518.003175
 20
603.743414
 30
0.0
 11
518.003175
 21
601.943414
 31
0.0
  0
ARC
  5
356
100
AcDbEntity
  8
M01
100
AcDbCircle
 10
525.075715
 20
603.19272
 30
0.0
 40
1.150694
100
AcDbArc
 50
28.592423
 51
151.407577
  0
LINE
  5
357
100
AcDbEntity
  8
M01
100
AcDbLine
 10
524.065352
 20
603.743414
 30
0.0
 11
524.065352
 21
601.943414
 31
0.0
  0
LINE
  5
358
100
AcDbEntity
  8
M01
100
AcDbLine
 10
526.086078
 20
603.743414
 30
0.0
 11
526.086078
 21
601.943414
 31
0.0
  0
LINE
  5
359
100
AcDbEntity
  8
M01
100
AcDbLine
 10
517.044627
 20
599.043414
 30
0.0
 11
517.044627
 21
600.543414
 31
0.0
  0
LINE
  5
35A
100
AcDbEntity
  8
M01
100
AcDbLine
 10
527.044627
 20
599.043414
 30
0.0
 11
527.044627
 21
600.543414
 31
0.0
  0
LINE
  5
35B
100
AcDbEntity
  8
M01
100
AcDbLine
 10
517.544627
 20
600.543414
 30
0.0
 11
517.544627
 21
601.343414
 31
0.0
  0
LINE
  5
35C
100
AcDbEntity
  8
M01
100
AcDbLine
 10
526.544627
 20
600.543414
 30
0.0
 11
526.544627
 21
601.343414
 31
0.0
  0
LINE
  5
35D
100
AcDbEntity
  8
M01
100
AcDbLine
 10
526.544627
 20
601.343414
 30
0.0
 11
517.544627
 21
601.343414
 31
0.0
  0
LINE
  5
35E
100
AcDbEntity
  8
M01
100
AcDbLine
 10
527.044627
 20
600.543414
 30
0.0
 11
517.044627
 21
600.543414
 31
0.0
  0
LINE
  5
35F
100
AcDbEntity
  8
M01
100
AcDbLine
 10
517.544627
 20
598.243414
 30
0.0
 11
517.544627
 21
599.043414
 31
0.0
  0
LINE
  5
360
100
AcDbEntity
  8
M01
100
AcDbLine
 10
526.544627
 20
598.243414
 30
0.0
 11
526.544627
 21
599.043414
 31
0.0
  0
LINE
  5
361
100
AcDbEntity
  8
M01
100
AcDbLine
 10
527.044627
 20
599.043414
 30
0.0
 11
517.044627
 21
599.043414
 31
0.0
  0
ARC
  5
362
100
AcDbEntity
  8
M01
100
AcDbCircle
 10
519.013538
 20
596.394109
 30
0.0
 40
1.150694
100
AcDbArc
 50
208.592423
 51
331.407577
  0
ARC
  5
363
100
AcDbEntity
  8
M01
100
AcDbCircle
 10
522.044627
 20
598.946192
 30
0.0
 40
3.702778
100
AcDbArc
 50
236.92527
 51
303.07473
  0
ARC
  5
364
100
AcDbEntity
  8
M01
100
AcDbCircle
 10
525.075715
 20
596.394109
 30
0.0
 40
1.150694
100
AcDbArc
 50
208.592423
 51
331.407577
  0
ARC
  5
365
100
AcDbEntity
  8
M01
100
AcDbCircle
 10
519.013538
 20
597.09272
 30
0.0
 40
1.150694
100
AcDbArc
 50
28.592423
 51
151.407577
  0
ARC
  5
366
100
AcDbEntity
  8
M01
100
AcDbCircle
 10
522.044627
 20
594.540636
 30
0.0
 40
3.702778
100
AcDbArc
 50
56.92527
 51
123.07473
  0
LINE
  5
367
100
AcDbEntity
  8
M01
100
AcDbLine
 10
520.023901
 20
597.643414
 30
0.0
 11
520.023901
 21
595.843414
 31
0.0
  0
LINE
  5
368
100
AcDbEntity
  8
M01
100
AcDbLine
 10
518.003175
 20
597.643414
 30
0.0
 11
518.003175
 21
595.843414
 31
0.0
  0
ARC
  5
369
100
AcDbEntity
  8
M01
100
AcDbCircle
 10
525.075715
 20
597.09272
 30
0.0
 40
1.150694
100
AcDbArc
 50
28.592423
 51
151.407577
  0
LINE
  5
36A
100
AcDbEntity
  8
M01
100
AcDbLine
 10
524.065352
 20
597.643414
 30
0.0
 11
524.065352
 21
595.843414
 31
0.0
  0
LINE
  5
36B
100
AcDbEntity
  8
M01
100
AcDbLine
 10
526.086078
 20
597.643414
 30
0.0
 11
526.086078
 21
595.843414
 31
0.0
  0
LINE
  5
36C
100
AcDbEntity
  8
M01
100
AcDbLine
 10
526.544627
 20
598.243414
 30
0.0
 11
517.544627
 21
598.243414
 31
0.0
  0
LINE
  5
36D
100
AcDbEntity
  8
M01
100
AcDbLine
 10
526.544627
 20
595.243414
 30
0.0
 11
517.544627
 21
595.243414
 31
0.0
  0
LINE
  5
36E
100
AcDbEntity
  8
M01
100
AcDbLine
 10
520.544627
 20
607.443414
 30
0.0
 11
520.044627
 21
606.943414
 31
0.0
  0
LINE
  5
36F
100
AcDbEntity
  8
M01
100
AcDbLine
 10
524.044627
 20
606.943414
 30
0.0
 11
523.544627
 21
607.443414
 31
0.0
  0
LINE
  5
370
100
AcDbEntity
  8
M01
100
AcDbLine
 10
524.044627
 20
606.943414
 30
0.0
 11
520.044627
 21
606.943414
 31
0.0
  0
LINE
  5
371
100
AcDbEntity
  8
M01
100
AcDbLine
 10
520.544627
 20
607.443414
 30
0.0
 11
520.544627
 21
604.343414
 31
0.0
  0
LINE
  5
372
100
AcDbEntity
  8
M01
100
AcDbLine
 10
523.544627
 20
607.443414
 30
0.0
 11
523.544627
 21
604.343414
 31
0.0
  0
LINE
  5
373
100
AcDbEntity
  8
M01
100
AcDbLine
 10
524.044627
 20
606.943414
 30
0.0
 11
524.044627
 21
604.343414
 31
0.0
  0
LINE
  5
374
100
AcDbEntity
  8
M01
100
AcDbLine
 10
520.044627
 20
606.943414
 30
0.0
 11
520.044627
 21
604.343414
 31
0.0
  0
LINE
  5
375
100
AcDbEntity
  8
M01
100
AcDbLine
 10
523.544627
 20
607.443414
 30
0.0
 11
520.544627
 21
607.443414
 31
0.0
  0
LINE
  5
376
100
AcDbEntity
  8
M01
100
AcDbLine
 10
527.044627
 20
582.443414
 30
0.0
 11
517.044627
 21
582.443414
 31
0.0
  0
LINE
  5
377
100
AcDbEntity
  8
CENTRE
100
AcDbLine
 10
522.044627
 20
613.604303
 30
0.0
 11
522.044627
 21
550.010872
 31
0.0
  0
LINE
  5
378
100
AcDbEntity
  8
M01
100
AcDbLine
 10
495.013538
 20
604.343414
 30
0.0
 11
501.075715
 21
604.343414
 31
0.0
  0
ARC
  5
379
100
AcDbEntity
  8
M01
100
AcDbCircle
 10
501.075715
 20
602.494109
 30
0.0
 40
1.150694
100
AcDbArc
 50
208.592423
 51
331.407577
  0
ARC
  5
37A
100
AcDbEntity
  8
M01
100
AcDbCircle
 10
498.044627
 20
605.046192
 30
0.0
 40
3.702778
100
AcDbArc
 50
236.92527
 51
303.07473
  0
ARC
  5
37B
100
AcDbEntity
  8
M01
100
AcDbCircle
 10
495.013538
 20
602.494109
 30
0.0
 40
1.150694
100
AcDbArc
 50
208.592423
 51
331.407577
  0
ARC
  5
37C
100
AcDbEntity
  8
M01
100
AcDbCircle
 10
501.075715
 20
603.19272
 30
0.0
 40
1.150694
100
AcDbArc
 50
28.592423
 51
151.407577
  0
ARC
  5
37D
100
AcDbEntity
  8
M01
100
AcDbCircle
 10
498.044627
 20
600.640636
 30
0.0
 40
3.702778
100
AcDbArc
 50
56.92527
 51
123.07473
  0
LINE
  5
37E
100
AcDbEntity
  8
M01
100
AcDbLine
 10
500.065352
 20
603.743414
 30
0.0
 11
500.065352
 21
601.943414
 31
0.0
  0
LINE
  5
37F
100
AcDbEntity
  8
M01
100
AcDbLine
 10
502.086078
 20
603.743414
 30
0.0
 11
502.086078
 21
601.943414
 31
0.0
  0
ARC
  5
380
100
AcDbEntity
  8
M01
100
AcDbCircle
 10
495.013538
 20
603.19272
 30
0.0
 40
1.150694
100
AcDbArc
 50
28.592423
 51
151.407577
  0
LINE
  5
381
100
AcDbEntity
  8
M01
100
AcDbLine
 10
496.023901
 20
603.743414
 30
0.0
 11
496.023901
 21
601.943414
 31
0.0
  0
LINE
  5
382
100
AcDbEntity
  8
M01
100
AcDbLine
 10
494.003175
 20
603.743414
 30
0.0
 11
494.003175
 21
601.943414
 31
0.0
  0
LINE
  5
383
100
AcDbEntity
  8
M01
100
AcDbLine
 10
503.044627
 20
599.043414
 30
0.0
 11
503.044627
 21
600.543414
 31
0.0
  0
LINE
  5
384
100
AcDbEntity
  8
M01
100
AcDbLine
 10
493.044627
 20
599.043414
 30
0.0
 11
493.044627
 21
600.543414
 31
0.0
  0
LINE
  5
385
100
AcDbEntity
  8
M01
100
AcDbLine
 10
502.544627
 20
600.543414
 30
0.0
 11
502.544627
 21
601.343414
 31
0.0
  0
LINE
  5
386
100
AcDbEntity
  8
M01
100
AcDbLine
 10
493.544627
 20
600.543414
 30
0.0
 11
493.544627
 21
601.343414
 31
0.0
  0
LINE
  5
387
100
AcDbEntity
  8
M01
100
AcDbLine
 10
493.544627
 20
601.343414
 30
0.0
 11
502.544627
 21
601.343414
 31
0.0
  0
LINE
  5
388
100
AcDbEntity
  8
M01
100
AcDbLine
 10
493.044627
 20
600.543414
 30
0.0
 11
503.044627
 21
600.543414
 31
0.0
  0
LINE
  5
389
100
AcDbEntity
  8
M01
100
AcDbLine
 10
502.544627
 20
598.243414
 30
0.0
 11
502.544627
 21
599.043414
 31
0.0
  0
LINE
  5
38A
100
AcDbEntity
  8
M01
100
AcDbLine
 10
493.544627
 20
598.243414
 30
0.0
 11
493.544627
 21
599.043414
 31
0.0
  0
LINE
  5
38B
100
AcDbEntity
  8
M01
100
AcDbLine
 10
493.044627
 20
599.043414
 30
0.0
 11
503.044627
 21
599.043414
 31
0.0
  0
ARC
  5
38C
100
AcDbEntity
  8
M01
100
AcDbCircle
 10
501.075715
 20
596.394109
 30
0.0
 40
1.150694
100
AcDbArc
 50
208.592423
 51
331.407577
  0
ARC
  5
38D
100
AcDbEntity
  8
M01
100
AcDbCircle
 10
498.044627
 20
598.946192
 30
0.0
 40
3.702778
100
AcDbArc
 50
236.92527
 51
303.07473
  0
ARC
  5
38E
100
AcDbEntity
  8
M01
100
AcDbCircle
 10
495.013538
 20
596.394109
 30
0.0
 40
1.150694
100
AcDbArc
 50
208.592423
 51
331.407577
  0
ARC
  5
38F
100
AcDbEntity
  8
M01
100
AcDbCircle
 10
501.075715
 20
597.09272
 30
0.0
 40
1.150694
100
AcDbArc
 50
28.592423
 51
151.407577
  0
ARC
  5
390
100
AcDbEntity
  8
M01
100
AcDbCircle
 10
498.044627
 20
594.540636
 30
0.0
 40
3.702778
100
AcDbArc
 50
56.92527
 51
123.07473
  0
LINE
  5
391
100
AcDbEntity
  8
M01
100
AcDbLine
 10
500.065352
 20
597.643414
 30
0.0
 11
500.065352
 21
595.843414
 31
0.0
  0
LINE
  5
392
100
AcDbEntity
  8
M01
100
AcDbLine
 10
502.086078
 20
597.643414
 30
0.0
 11
502.086078
 21
595.843414
 31
0.0
  0
ARC
  5
393
100
AcDbEntity
  8
M01
100
AcDbCircle
 10
495.013538
 20
597.09272
 30
0.0
 40
1.150694
100
AcDbArc
 50
28.592423
 51
151.407577
  0
LINE
  5
394
100
AcDbEntity
  8
M01
100
AcDbLine
 10
496.023901
 20
597.643414
 30
0.0
 11
496.023901
 21
595.843414
 31
0.0
  0
LINE
  5
395
100
AcDbEntity
  8
M01
100
AcDbLine
 10
494.003175
 20
597.643414
 30
0.0
 11
494.003175
 21
595.843414
 31
0.0
  0
LINE
  5
396
100
AcDbEntity
  8
M01
100
AcDbLine
 10
493.544627
 20
598.243414
 30
0.0
 11
502.544627
 21
598.243414
 31
0.0
  0
LINE
  5
397
100
AcDbEntity
  8
M01
100
AcDbLine
 10
493.544627
 20
595.243414
 30
0.0
 11
502.544627
 21
595.243414
 31
0.0
  0
LINE
  5
398
100
AcDbEntity
  8
M01
100
AcDbLine
 10
493.544627
 20
594.443414
 30
0.0
 11
502.544627
 21
594.443414
 31
0.0
  0
LINE
  5
399
100
AcDbEntity
  8
M01
100
AcDbLine
 10
499.544627
 20
607.443414
 30
0.0
 11
500.044627
 21
606.943414
 31
0.0
  0
LINE
  5
39A
100
AcDbEntity
  8
M01
100
AcDbLine
 10
496.044627
 20
606.943414
 30
0.0
 11
496.544627
 21
607.443414
 31
0.0
  0
LINE
  5
39B
100
AcDbEntity
  8
M01
100
AcDbLine
 10
496.044627
 20
606.943414
 30
0.0
 11
500.044627
 21
606.943414
 31
0.0
  0
LINE
  5
39C
100
AcDbEntity
  8
M01
100
AcDbLine
 10
499.544627
 20
607.443414
 30
0.0
 11
499.544627
 21
604.343414
 31
0.0
  0
LINE
  5
39D
100
AcDbEntity
  8
M01
100
AcDbLine
 10
496.544627
 20
607.443414
 30
0.0
 11
496.544627
 21
604.343414
 31
0.0
  0
LINE
  5
39E
100
AcDbEntity
  8
M01
100
AcDbLine
 10
496.044627
 20
606.943414
 30
0.0
 11
496.044627
 21
604.343414
 31
0.0
  0
LINE
  5
39F
100
AcDbEntity
  8
M01
100
AcDbLine
 10
500.044627
 20
606.943414
 30
0.0
 11
500.044627
 21
604.343414
 31
0.0
  0
LINE
  5
3A0
100
AcDbEntity
  8
M01
100
AcDbLine
 10
496.544627
 20
607.443414
 30
0.0
 11
499.544627
 21
607.443414
 31
0.0
  0
LINE
  5
3A1
100
AcDbEntity
  8
M01
100
AcDbLine
 10
493.044627
 20
582.443414
 30
0.0
 11
503.044627
 21
582.443414
 31
0.0
  0
LINE
  5
3A2
100
AcDbEntity
  8
M01
100
AcDbLine
 10
502.544627
 20
595.243414
 30
0.0
 11
502.544627
 21
594.443414
 31
0.0
  0
LINE
  5
3A3
100
AcDbEntity
  8
M01
100
AcDbLine
 10
493.544627
 20
595.243414
 30
0.0
 11
493.544627
 21
594.443414
 31
0.0
  0
LINE
  5
3A4
100
AcDbEntity
  8
CENTRE
100
AcDbLine
 10
498.044627
 20
613.604303
 30
0.0
 11
498.044627
 21
550.010872
 31
0.0
  0
LWPOLYLINE
  5
3A5
100
AcDbEntity
  8
M01
100
AcDbPolyline
 90
        2
 70
     0
 43
4.0
 10
532.044627
 20
558.943414
 42
0.414214
 10
530.044627
 20
556.943414
  0
LWPOLYLINE
  5
3A6
100
AcDbEntity
  8
M01
100
AcDbPolyline
 90
        2
 70
     0
 43
4.0
 10
532.044627
 20
554.943414
 42
0.414214
 10
534.044627
 20
556.943414
  0
CIRCLE
  5
3A7
100
AcDbEntity
  8
M01
100
AcDbCircle
 10
532.044627
 20
556.943414
 30
0.0
 40
4.0
  0
LINE
  5
3A8
100
AcDbEntity
  8
M01
100
AcDbLine
 10
536.044627
 20
554.443414
 30
0.0
 11
536.044627
 21
562.443414
 31
0.0
  0
LINE
  5
3A9
100
AcDbEntity
  8
M01
100
AcDbLine
 10
528.044627
 20
554.443414
 30
0.0
 11
528.044627
 21
562.443414
 31
0.0
  0
ARC
  5
3AA
100
AcDbEntity
  8
M01
100
AcDbCircle
 10
532.044627
 20
554.443414
 30
0.0
 40
4.0
100
AcDbArc
 50
180.0
 51
0.0
  0
LINE
  5
3AB
100
AcDbEntity
  8
M01
100
AcDbLine
 10
488.044627
 20
560.443414
 30
0.0
 11
490.044627
 21
562.443414
 31
0.0
  0
LINE
  5
3AC
100
AcDbEntity
  8
M01
100
AcDbLine
 10
490.044627
 20
562.443414
 30
0.0
 11
574.044627
 21
562.443414
 31
0.0
  0
LINE
  5
3AD
100
AcDbEntity
  8
M01
100
AcDbLine
 10
488.044627
 20
560.443414
 30
0.0
 11
488.044627
 21
536.011957
 31
0.0
  0
LINE
  5
3AE
100
AcDbEntity
  8
M01
100
AcDbLine
 10
425.044627
 20
511.705084
 30
0.0
 11
425.044627
 21
490.845434
 31
0.0
  0
LINE
  5
3AF
100
AcDbEntity
  8
M01
100
AcDbLine
 10
464.642606
 20
530.443414
 30
0.0
 11
467.559345
 21
527.526675
 31
0.0
  0
LINE
  5
3B0
100
AcDbEntity
  8
M01
100
AcDbLine
 10
425.044627
 20
490.845434
 30
0.0
 11
446.461365
 21
469.428695
 31
0.0
  0
LINE
  5
3B1
100
AcDbEntity
  8
CENTRE
100
AcDbLine
 10
392.044649
 20
385.943414
 30
0.0
 11
672.044604
 21
385.943414
 31
0.0
  0
LINE
  5
3B2
100
AcDbEntity
  8
DIMS
 62
     4
100
AcDbLine
 10
607.044627
 20
351.843414
 30
0.0
 11
607.044627
 21
365.143414
 31
0.0
  0
LINE
  5
3B3
100
AcDbEntity
  8
DIMS
 62
     4
100
AcDbLine
 10
607.044627
 20
345.043414
 30
0.0
 11
607.044627
 21
331.743414
 31
0.0
  0
LINE
  5
3B4
100
AcDbEntity
  8
DIMS
 62
     4
100
AcDbLine
 10
607.044627
 20
346.743414
 30
0.0
 11
607.044627
 21
350.143414
 31
0.0
  0
CIRCLE
  5
3B5
100
AcDbEntity
  8
M03
100
AcDbCircle
 10
607.044627
 20
348.443414
 30
0.0
 40
2.3
  0
ARC
  5
3B6
100
AcDbEntity
  8
M03
100
AcDbCircle
 10
607.044627
 20
348.443414
 30
0.0
 40
3.0
100
AcDbArc
 50
353.076897
 51
282.215364
  0
LINE
  5
3B7
100
AcDbEntity
  8
M03
100
AcDbLine
 10
601.069888
 20
348.993414
 30
0.0
 11
613.019365
 21
348.993414
 31
0.0
  0
LINE
  5
3B8
100
AcDbEntity
  8
M03
100
AcDbLine
 10
601.069888
 20
347.893414
 30
0.0
 11
613.019365
 21
347.893414
 31
0.0
  0
CIRCLE
  5
3B9
100
AcDbEntity
  8
M03
100
AcDbCircle
 10
607.044627
 20
348.443414
 30
0.0
 40
15.0
  0
CIRCLE
  5
3BA
100
AcDbEntity
  8
M03
100
AcDbCircle
 10
607.044627
 20
348.443414
 30
0.0
 40
14.0
  0
CIRCLE
  5
3BB
100
AcDbEntity
  8
M03
100
AcDbCircle
 10
607.044627
 20
348.443414
 30
0.0
 40
7.858882
  0
CIRCLE
  5
3BC
100
AcDbEntity
  8
M03
100
AcDbCircle
 10
607.044627
 20
348.443414
 30
0.0
 40
6.0
  0
CIRCLE
  5
3BD
100
AcDbEntity
  8
M01
100
AcDbCircle
 10
607.044627
 20
348.443414
 30
0.0
 40
4.0
  0
LINE
  5
3BE
100
AcDbEntity
  8
DIMS
 62
     4
100
AcDbLine
 10
610.444627
 20
273.443414
 30
0.0
 11
623.744627
 21
273.443414
 31
0.0
  0
LINE
  5
3BF
100
AcDbEntity
  8
DIMS
 62
     4
100
AcDbLine
 10
603.644627
 20
273.443414
 30
0.0
 11
590.344627
 21
273.443414
 31
0.0
  0
LINE
  5
3C0
100
AcDbEntity
  8
DIMS
 62
     4
100
AcDbLine
 10
607.044627
 20
276.843414
 30
0.0
 11
607.044627
 21
290.143414
 31
0.0
  0
LINE
  5
3C1
100
AcDbEntity
  8
DIMS
 62
     4
100
AcDbLine
 10
607.044627
 20
270.043414
 30
0.0
 11
607.044627
 21
256.743414
 31
0.0
  0
LINE
  5
3C2
100
AcDbEntity
  8
DIMS
 62
     4
100
AcDbLine
 10
605.344627
 20
273.443414
 30
0.0
 11
608.744627
 21
273.443414
 31
0.0
  0
LINE
  5
3C3
100
AcDbEntity
  8
DIMS
 62
     4
100
AcDbLine
 10
607.044627
 20
271.743414
 30
0.0
 11
607.044627
 21
275.143414
 31
0.0
  0
CIRCLE
  5
3C4
100
AcDbEntity
  8
M03
100
AcDbCircle
 10
607.044627
 20
273.443414
 30
0.0
 40
2.3
  0
ARC
  5
3C5
100
AcDbEntity
  8
M03
100
AcDbCircle
 10
607.044627
 20
273.443414
 30
0.0
 40
3.0
100
AcDbArc
 50
353.076897
 51
282.215364
  0
LINE
  5
3C6
100
AcDbEntity
  8
M03
100
AcDbLine
 10
601.069888
 20
273.993414
 30
0.0
 11
613.019365
 21
273.993414
 31
0.0
  0
LINE
  5
3C7
100
AcDbEntity
  8
M03
100
AcDbLine
 10
601.069888
 20
272.893414
 30
0.0
 11
613.019365
 21
272.893414
 31
0.0
  0
CIRCLE
  5
3C8
100
AcDbEntity
  8
M03
100
AcDbCircle
 10
607.044627
 20
273.443414
 30
0.0
 40
14.0
  0
CIRCLE
  5
3C9
100
AcDbEntity
  8
M03
100
AcDbCircle
 10
607.044627
 20
273.443414
 30
0.0
 40
7.858882
  0
CIRCLE
  5
3CA
100
AcDbEntity
  8
M03
100
AcDbCircle
 10
607.044627
 20
273.443414
 30
0.0
 40
6.0
  0
LINE
  5
3CB
100
AcDbEntity
  8
M03
100
AcDbLine
 10
609.873054
 20
276.271841
 30
0.0
 11
575.201481
 21
310.943414
 31
0.0
  0
LINE
  5
3CC
100
AcDbEntity
  8
M03
100
AcDbLine
 10
604.216199
 20
270.614987
 30
0.0
 11
569.544627
 21
305.28656
 31
0.0
  0
LINE
  5
3CD
100
AcDbEntity
  8
CENTRE
100
AcDbLine
 10
621.186762
 20
259.301278
 30
0.0
 11
569.544627
 21
310.943414
 31
0.0
  0
CIRCLE
  5
3CE
100
AcDbEntity
  8
M01
100
AcDbCircle
 10
607.044627
 20
273.443414
 30
0.0
 40
4.0
  0
LINE
  5
3CF
100
AcDbEntity
  8
M03
100
AcDbLine
 10
573.544627
 20
310.943414
 30
0.0
 11
573.544627
 21
460.943414
 31
0.0
  0
LINE
  5
3D0
100
AcDbEntity
  8
M03
100
AcDbLine
 10
565.544627
 20
310.943414
 30
0.0
 11
565.544627
 21
381.943414
 31
0.0
  0
LINE
  5
3D1
100
AcDbEntity
  8
DIMS
 62
     4
100
AcDbLine
 10
566.144627
 20
310.943414
 30
0.0
 11
563.844627
 21
310.943414
 31
0.0
  0
LINE
  5
3D2
100
AcDbEntity
  8
DIMS
 62
     4
100
AcDbLine
 10
572.944627
 20
310.943414
 30
0.0
 11
575.244627
 21
310.943414
 31
0.0
  0
LINE
  5
3D3
100
AcDbEntity
  8
DIMS
 62
     4
100
AcDbLine
 10
571.244627
 20
310.943414
 30
0.0
 11
567.844627
 21
310.943414
 31
0.0
  0
CIRCLE
  5
3D4
100
AcDbEntity
  8
M03
100
AcDbCircle
 10
569.544627
 20
310.943414
 30
0.0
 40
4.0
  0
LINE
  5
3D5
100
AcDbEntity
  8
M03
100
AcDbLine
 10
575.201481
 20
310.943414
 30
0.0
 11
609.873054
 21
345.614987
 31
0.0
  0
LINE
  5
3D6
100
AcDbEntity
  8
DIMS
 62
     4
100
AcDbLine
 10
528.644627
 20
273.443414
 30
0.0
 11
515.344627
 21
273.443414
 31
0.0
  0
LINE
  5
3D7
100
AcDbEntity
  8
DIMS
 62
     4
100
AcDbLine
 10
535.444627
 20
273.443414
 30
0.0
 11
548.744627
 21
273.443414
 31
0.0
  0
LINE
  5
3D8
100
AcDbEntity
  8
DIMS
 62
     4
100
AcDbLine
 10
533.744627
 20
273.443414
 30
0.0
 11
530.344627
 21
273.443414
 31
0.0
  0
CIRCLE
  5
3D9
100
AcDbEntity
  8
M03
100
AcDbCircle
 10
532.044627
 20
273.443414
 30
0.0
 40
2.3
  0
ARC
  5
3DA
100
AcDbEntity
  8
M03
100
AcDbCircle
 10
532.044627
 20
273.443414
 30
0.0
 40
3.0
100
AcDbArc
 50
257.784636
 51
186.923103
  0
LINE
  5
3DB
100
AcDbEntity
  8
M03
100
AcDbLine
 10
538.019365
 20
273.993414
 30
0.0
 11
526.069888
 21
273.993414
 31
0.0
  0
LINE
  5
3DC
100
AcDbEntity
  8
M03
100
AcDbLine
 10
538.019365
 20
272.893414
 30
0.0
 11
526.069888
 21
272.893414
 31
0.0
  0
CIRCLE
  5
3DD
100
AcDbEntity
  8
M03
100
AcDbCircle
 10
532.044627
 20
273.443414
 30
0.0
 40
15.0
  0
CIRCLE
  5
3DE
100
AcDbEntity
  8
M03
100
AcDbCircle
 10
532.044627
 20
273.443414
 30
0.0
 40
14.0
  0
CIRCLE
  5
3DF
100
AcDbEntity
  8
M03
100
AcDbCircle
 10
532.044627
 20
273.443414
 30
0.0
 40
7.858882
  0
CIRCLE
  5
3E0
100
AcDbEntity
  8
M03
100
AcDbCircle
 10
532.044627
 20
273.443414
 30
0.0
 40
6.0
  0
LINE
  5
3E1
100
AcDbEntity
  8
M03
100
AcDbLine
 10
529.216199
 20
276.271841
 30
0.0
 11
604.216199
 21
351.271841
 31
0.0
  0
LINE
  5
3E2
100
AcDbEntity
  8
M03
100
AcDbLine
 10
534.873054
 20
270.614987
 30
0.0
 11
569.544627
 21
305.28656
 31
0.0
  0
LINE
  5
3E3
100
AcDbEntity
  8
CENTRE
100
AcDbLine
 10
517.902491
 20
259.301278
 30
0.0
 11
621.186762
 21
362.58555
 31
0.0
  0
CIRCLE
  5
3E4
100
AcDbEntity
  8
M01
100
AcDbCircle
 10
532.044627
 20
273.443414
 30
0.0
 40
4.0
  0
LINE
  5
3E5
100
AcDbEntity
  8
CENTRE
100
AcDbLine
 10
532.044627
 20
664.565995
 30
0.0
 11
532.044627
 21
204.141838
 31
0.0
  0
CIRCLE
  5
3E6
100
AcDbEntity
  8
M03
100
AcDbCircle
 10
607.044627
 20
273.443414
 30
0.0
 40
15.0
  0
MTEXT
  5
3E7
100
AcDbEntity
  8
0
  6
BYBLOCK
 62
     2
100
AcDbMText
 10
535.125709
 20
194.61716
 30
0.0
 40
3.0
 41
0.0
 71
     6
 72
     1
  1
WHERE POSSIBLE M12 PLATE RETAINING SCREWS SHOULD ALSO BE FITTED.\PMINIMUM 2 PER DROP & ALSO AROUND MANIFOLD POCKET.
  0
LINE
  5
3E8
102
{ACAD_REACTORS
330
113
102
}
100
AcDbEntity
  8
M02
100
AcDbLine
 10
872.758914
 20
259.443414
 30
0.0
 11
872.758914
 21
244.533414
 31
0.0
  0
LINE
  5
3E9
102
{ACAD_REACTORS
330
113
102
}
100
AcDbEntity
  8
M02
100
AcDbLine
 10
869.758914
 20
244.533414
 30
0.0
 11
872.758914
 21
244.533414
 31
0.0
  0
LINE
  5
3EA
100
AcDbEntity
  8
M04
100
AcDbLine
 10
876.758914
 20
270.443414
 30
0.0
 11
876.758914
 21
224.020023
 31
0.0
  0
LINE
  5
3EB
102
{ACAD_REACTORS
330
110
102
}
100
AcDbEntity
  8
M01
100
AcDbLine
 10
869.758914
 20
375.943414
 30
0.0
 11
869.758914
 21
362.943414
 31
0.0
  0
LINE
  5
3EC
102
{ACAD_REACTORS
330
111
102
}
100
AcDbEntity
  8
M04
100
AcDbLine
 10
862.458914
 20
408.943414
 30
0.0
 11
859.958914
 21
408.943414
 31
0.0
  0
LINE
  5
3ED
102
{ACAD_REACTORS
330
111
102
}
100
AcDbEntity
  8
M04
100
AcDbLine
 10
861.758914
 20
409.643414
 30
0.0
 11
858.458914
 21
409.643414
 31
0.0
  0
LINE
  5
3EE
102
{ACAD_REACTORS
330
111
102
}
100
AcDbEntity
  8
M04
100
AcDbLine
 10
862.458914
 20
414.943414
 30
0.0
 11
859.958914
 21
414.943414
 31
0.0
  0
LINE
  5
3EF
102
{ACAD_REACTORS
330
111
102
}
100
AcDbEntity
  8
M04
100
AcDbLine
 10
861.758914
 20
414.243414
 30
0.0
 11
858.458914
 21
414.243414
 31
0.0
  0
LINE
  5
3F0
100
AcDbEntity
  8
M05
100
AcDbLine
 10
871.758914
 20
417.193414
 30
0.0
 11
871.758914
 21
406.693414
 31
0.0
  0
LINE
  5
3F1
100
AcDbEntity
  8
M04
100
AcDbLine
 10
871.758914
 20
406.693414
 30
0.0
 11
871.758914
 21
406.443414
 31
0.0
  0
LINE
  5
3F2
100
AcDbEntity
  8
M04
100
AcDbLine
 10
871.758914
 20
417.443414
 30
0.0
 11
875.758914
 21
417.443414
 31
0.0
  0
LINE
  5
3F3
100
AcDbEntity
  8
M04
100
AcDbLine
 10
871.758914
 20
406.443414
 30
0.0
 11
875.758914
 21
406.443414
 31
0.0
  0
LINE
  5
3F4
100
AcDbEntity
  8
M05
100
AcDbLine
 10
870.758914
 20
408.943414
 30
0.0
 11
870.758914
 21
414.943414
 31
0.0
  0
LINE
  5
3F5
102
{ACAD_REACTORS
330
111
102
}
100
AcDbEntity
  8
M04
100
AcDbLine
 10
858.458914
 20
414.243414
 30
0.0
 11
857.131009
 21
411.943414
 31
0.0
  0
LINE
  5
3F6
102
{ACAD_REACTORS
330
111
102
}
100
AcDbEntity
  8
M04
100
AcDbLine
 10
858.458914
 20
409.643414
 30
0.0
 11
857.131009
 21
411.943414
 31
0.0
  0
LINE
  5
3F7
100
AcDbEntity
  8
M04
100
AcDbLine
 10
858.458914
 20
409.643414
 30
0.0
 11
858.458914
 21
414.243414
 31
0.0
  0
LINE
  5
3F8
102
{ACAD_REACTORS
330
111
102
}
100
AcDbEntity
  8
M04
100
AcDbLine
 10
859.958914
 20
408.943414
 30
0.0
 11
859.958914
 21
414.943414
 31
0.0
  0
ARC
  5
3F9
100
AcDbEntity
  8
M05
100
AcDbCircle
 10
869.232778
 20
411.943414
 30
0.0
 40
5.826136
100
AcDbArc
 50
295.69541
 51
64.30459
  0
LINE
  5
3FA
100
AcDbEntity
  8
M05
100
AcDbLine
 10
862.458914
 20
414.943414
 30
0.0
 11
861.758914
 21
414.243414
 31
0.0
  0
LINE
  5
3FB
100
AcDbEntity
  8
M05
100
AcDbLine
 10
862.458914
 20
408.943414
 30
0.0
 11
861.758914
 21
409.643414
 31
0.0
  0
LINE
  5
3FC
100
AcDbEntity
  8
M05
100
AcDbLine
 10
862.458914
 20
408.943414
 30
0.0
 11
862.458914
 21
414.943414
 31
0.0
  0
LINE
  5
3FD
100
AcDbEntity
  8
M05
100
AcDbLine
 10
861.758914
 20
409.643414
 30
0.0
 11
861.758914
 21
414.243414
 31
0.0
  0
LINE
  5
3FE
100
AcDbEntity
  8
M04
100
AcDbLine
 10
869.758914
 20
408.243414
 30
0.0
 11
871.758914
 21
408.243414
 31
0.0
  0
LINE
  5
3FF
100
AcDbEntity
  8
M04
100
AcDbLine
 10
869.758914
 20
415.643414
 30
0.0
 11
871.758914
 21
415.643414
 31
0.0
  0
LINE
  5
400
100
AcDbEntity
  8
M05
100
AcDbLine
 10
861.758914
 20
414.243414
 30
0.0
 11
870.758914
 21
414.243414
 31
0.0
  0
LINE
  5
401
100
AcDbEntity
  8
M05
100
AcDbLine
 10
861.758914
 20
409.643414
 30
0.0
 11
870.758914
 21
409.643414
 31
0.0
  0
LINE
  5
402
102
{ACAD_REACTORS
330
111
102
}
100
AcDbEntity
  8
M05
100
AcDbLine
 10
862.458914
 20
408.943414
 30
0.0
 11
871.758914
 21
408.943414
 31
0.0
  0
LINE
  5
403
102
{ACAD_REACTORS
330
111
102
}
100
AcDbEntity
  8
M05
100
AcDbLine
 10
862.458914
 20
414.943414
 30
0.0
 11
871.758914
 21
414.943414
 31
0.0
  0
LINE
  5
404
100
AcDbEntity
  8
M04
100
AcDbLine
 10
871.758914
 20
417.443414
 30
0.0
 11
871.758914
 21
417.193414
 31
0.0
  0
LINE
  5
405
100
AcDbEntity
  8
CENTRE
100
AcDbLine
 10
854.492414
 20
411.943414
 30
0.0
 11
879.405102
 21
411.943414
 31
0.0
  0
LINE
  5
406
102
{ACAD_REACTORS
330
110
102
}
100
AcDbEntity
  8
M04
100
AcDbLine
 10
862.458914
 20
362.943414
 30
0.0
 11
859.958914
 21
362.943414
 31
0.0
  0
LINE
  5
407
102
{ACAD_REACTORS
330
110
102
}
100
AcDbEntity
  8
M04
100
AcDbLine
 10
861.758914
 20
362.243414
 30
0.0
 11
858.458914
 21
362.243414
 31
0.0
  0
LINE
  5
408
102
{ACAD_REACTORS
330
110
102
}
100
AcDbEntity
  8
M04
100
AcDbLine
 10
862.458914
 20
356.943414
 30
0.0
 11
859.958914
 21
356.943414
 31
0.0
  0
LINE
  5
409
102
{ACAD_REACTORS
330
110
102
}
100
AcDbEntity
  8
M04
100
AcDbLine
 10
861.758914
 20
357.643414
 30
0.0
 11
858.458914
 21
357.643414
 31
0.0
  0
LINE
  5
40A
100
AcDbEntity
  8
M05
100
AcDbLine
 10
871.758914
 20
354.693414
 30
0.0
 11
871.758914
 21
365.193414
 31
0.0
  0
LINE
  5
40B
100
AcDbEntity
  8
M04
100
AcDbLine
 10
871.758914
 20
365.193414
 30
0.0
 11
871.758914
 21
365.443414
 31
0.0
  0
LINE
  5
40C
100
AcDbEntity
  8
M04
100
AcDbLine
 10
871.758914
 20
354.443414
 30
0.0
 11
875.758914
 21
354.443414
 31
0.0
  0
LINE
  5
40D
100
AcDbEntity
  8
M04
100
AcDbLine
 10
871.758914
 20
365.443414
 30
0.0
 11
875.758914
 21
365.443414
 31
0.0
  0
LINE
  5
40E
100
AcDbEntity
  8
M05
100
AcDbLine
 10
870.758914
 20
362.943414
 30
0.0
 11
870.758914
 21
356.943414
 31
0.0
  0
LINE
  5
40F
102
{ACAD_REACTORS
330
110
102
}
100
AcDbEntity
  8
M04
100
AcDbLine
 10
858.458914
 20
357.643414
 30
0.0
 11
857.131009
 21
359.943414
 31
0.0
  0
LINE
  5
410
102
{ACAD_REACTORS
330
110
102
}
100
AcDbEntity
  8
M04
100
AcDbLine
 10
858.458914
 20
362.243414
 30
0.0
 11
857.131009
 21
359.943414
 31
0.0
  0
LINE
  5
411
100
AcDbEntity
  8
M04
100
AcDbLine
 10
858.458914
 20
362.243414
 30
0.0
 11
858.458914
 21
357.643414
 31
0.0
  0
LINE
  5
412
102
{ACAD_REACTORS
330
110
102
}
100
AcDbEntity
  8
M04
100
AcDbLine
 10
859.958914
 20
362.943414
 30
0.0
 11
859.958914
 21
356.943414
 31
0.0
  0
ARC
  5
413
100
AcDbEntity
  8
M05
100
AcDbCircle
 10
869.232778
 20
359.943414
 30
0.0
 40
5.826136
100
AcDbArc
 50
295.69541
 51
64.30459
  0
LINE
  5
414
100
AcDbEntity
  8
M05
100
AcDbLine
 10
862.458914
 20
356.943414
 30
0.0
 11
861.758914
 21
357.643414
 31
0.0
  0
LINE
  5
415
100
AcDbEntity
  8
M05
100
AcDbLine
 10
862.458914
 20
362.943414
 30
0.0
 11
861.758914
 21
362.243414
 31
0.0
  0
LINE
  5
416
100
AcDbEntity
  8
M05
100
AcDbLine
 10
862.458914
 20
362.943414
 30
0.0
 11
862.458914
 21
356.943414
 31
0.0
  0
LINE
  5
417
100
AcDbEntity
  8
M05
100
AcDbLine
 10
861.758914
 20
362.243414
 30
0.0
 11
861.758914
 21
357.643414
 31
0.0
  0
LINE
  5
418
100
AcDbEntity
  8
M04
100
AcDbLine
 10
869.758914
 20
363.643414
 30
0.0
 11
871.758914
 21
363.643414
 31
0.0
  0
LINE
  5
419
100
AcDbEntity
  8
M04
100
AcDbLine
 10
869.758914
 20
356.243414
 30
0.0
 11
871.758914
 21
356.243414
 31
0.0
  0
LINE
  5
41A
100
AcDbEntity
  8
M05
100
AcDbLine
 10
861.758914
 20
357.643414
 30
0.0
 11
870.758914
 21
357.643414
 31
0.0
  0
LINE
  5
41B
100
AcDbEntity
  8
M05
100
AcDbLine
 10
861.758914
 20
362.243414
 30
0.0
 11
870.758914
 21
362.243414
 31
0.0
  0
LINE
  5
41C
102
{ACAD_REACTORS
330
110
102
}
100
AcDbEntity
  8
M05
100
AcDbLine
 10
862.458914
 20
362.943414
 30
0.0
 11
871.758914
 21
362.943414
 31
0.0
  0
LINE
  5
41D
102
{ACAD_REACTORS
330
110
102
}
100
AcDbEntity
  8
M05
100
AcDbLine
 10
862.458914
 20
356.943414
 30
0.0
 11
871.758914
 21
356.943414
 31
0.0
  0
LINE
  5
41E
100
AcDbEntity
  8
M04
100
AcDbLine
 10
871.758914
 20
354.443414
 30
0.0
 11
871.758914
 21
354.693414
 31
0.0
  0
LINE
  5
41F
100
AcDbEntity
  8
CENTRE
100
AcDbLine
 10
854.492414
 20
359.943414
 30
0.0
 11
879.405102
 21
359.943414
 31
0.0
  0
LINE
  5
420
100
AcDbEntity
  8
M04
100
AcDbLine
 10
894.758914
 20
415.943414
 30
0.0
 11
903.758914
 21
415.943414
 31
0.0
  0
LINE
  5
421
100
AcDbEntity
  8
M05
100
AcDbLine
 10
875.058914
 20
419.943414
 30
0.0
 11
875.758914
 21
419.243414
 31
0.0
  0
LINE
  5
422
100
AcDbEntity
  8
M04
100
AcDbLine
 10
894.758914
 20
415.943414
 30
0.0
 11
894.758914
 21
355.943414
 31
0.0
  0
LINE
  5
423
100
AcDbEntity
  8
M04
100
AcDbLine
 10
884.758914
 20
405.943414
 30
0.0
 11
894.758914
 21
415.943414
 31
0.0
  0
LINE
  5
424
100
AcDbEntity
  8
M04
100
AcDbLine
 10
894.758914
 20
355.943414
 30
0.0
 11
903.758914
 21
355.943414
 31
0.0
  0
LINE
  5
425
100
AcDbEntity
  8
M04
100
AcDbLine
 10
884.758914
 20
365.943414
 30
0.0
 11
894.758914
 21
355.943414
 31
0.0
  0
LINE
  5
426
100
AcDbEntity
  8
M05
100
AcDbLine
 10
878.060129
 20
388.984288
 30
0.0
 11
878.060129
 21
382.90254
 31
0.0
  0
ARC
  5
427
100
AcDbEntity
  8
M05
100
AcDbCircle
 10
893.258914
 20
385.943414
 30
0.0
 40
15.5
100
AcDbArc
 50
143.750679
 51
168.686019
  0
LINE
  5
428
100
AcDbEntity
  8
M05
100
AcDbLine
 10
859.758914
 20
389.943414
 30
0.0
 11
878.060129
 21
388.984288
 31
0.0
  0
LINE
  5
429
100
AcDbEntity
  8
M05
100
AcDbLine
 10
859.758914
 20
381.943414
 30
0.0
 11
878.060129
 21
382.90254
 31
0.0
  0
ARC
  5
42A
100
AcDbEntity
  8
M05
100
AcDbCircle
 10
893.258914
 20
385.943414
 30
0.0
 40
15.5
100
AcDbArc
 50
191.313981
 51
216.249321
  0
LINE
  5
42B
100
AcDbEntity
  8
M04
100
AcDbLine
 10
878.758914
 20
405.943414
 30
0.0
 11
876.758914
 21
405.943414
 31
0.0
  0
LINE
  5
42C
100
AcDbEntity
  8
M04
100
AcDbLine
 10
880.058914
 20
405.943414
 30
0.0
 11
884.758914
 21
405.943414
 31
0.0
  0
LINE
  5
42D
100
AcDbEntity
  8
M04
100
AcDbLine
 10
878.758914
 20
365.943414
 30
0.0
 11
876.758914
 21
365.943414
 31
0.0
  0
LINE
  5
42E
100
AcDbEntity
  8
M04
100
AcDbLine
 10
880.058914
 20
365.943414
 30
0.0
 11
884.758914
 21
365.943414
 31
0.0
  0
LINE
  5
42F
100
AcDbEntity
  8
M04
100
AcDbLine
 10
884.758914
 20
365.943414
 30
0.0
 11
884.758914
 21
405.943414
 31
0.0
  0
LINE
  5
430
100
AcDbEntity
  8
M05
100
AcDbLine
 10
878.758914
 20
405.443414
 30
0.0
 11
878.758914
 21
405.943414
 31
0.0
  0
LINE
  5
431
100
AcDbEntity
  8
M05
100
AcDbLine
 10
875.758914
 20
405.443414
 30
0.0
 11
875.758914
 21
419.243414
 31
0.0
  0
LINE
  5
432
100
AcDbEntity
  8
M05
100
AcDbLine
 10
875.758914
 20
405.443414
 30
0.0
 11
878.758914
 21
405.443414
 31
0.0
  0
LINE
  5
433
100
AcDbEntity
  8
M05
100
AcDbLine
 10
875.758914
 20
366.443414
 30
0.0
 11
878.758914
 21
366.443414
 31
0.0
  0
LINE
  5
434
100
AcDbEntity
  8
M05
100
AcDbLine
 10
878.758914
 20
365.943414
 30
0.0
 11
878.758914
 21
366.443414
 31
0.0
  0
LINE
  5
435
100
AcDbEntity
  8
M05
100
AcDbLine
 10
880.758914
 20
405.243414
 30
0.0
 11
880.058914
 21
405.943414
 31
0.0
  0
LINE
  5
436
100
AcDbEntity
  8
M05
100
AcDbLine
 10
880.758914
 20
366.643414
 30
0.0
 11
880.058914
 21
365.943414
 31
0.0
  0
LINE
  5
437
100
AcDbEntity
  8
M05
100
AcDbLine
 10
880.758914
 20
366.643414
 30
0.0
 11
880.758914
 21
405.243414
 31
0.0
  0
LINE
  5
438
100
AcDbEntity
  8
M05
100
AcDbLine
 10
878.758914
 20
405.943414
 30
0.0
 11
880.058914
 21
405.943414
 31
0.0
  0
LINE
  5
439
100
AcDbEntity
  8
M05
100
AcDbLine
 10
878.758914
 20
365.943414
 30
0.0
 11
880.058914
 21
365.943414
 31
0.0
  0
LINE
  5
43A
102
{ACAD_REACTORS
330
111
102
}
100
AcDbEntity
  8
M04
100
AcDbLine
 10
869.258914
 20
395.943414
 30
0.0
 11
869.758914
 21
396.443414
 31
0.0
  0
LINE
  5
43B
102
{ACAD_REACTORS
330
110
102
}
100
AcDbEntity
  8
M04
100
AcDbLine
 10
869.258914
 20
375.943414
 30
0.0
 11
869.758914
 21
375.443414
 31
0.0
  0
LINE
  5
43C
100
AcDbEntity
  8
M05
100
AcDbLine
 10
870.458914
 20
419.943414
 30
0.0
 11
869.758914
 21
419.243414
 31
0.0
  0
LINE
  5
43D
100
AcDbEntity
  8
M05
100
AcDbLine
 10
870.458914
 20
419.943414
 30
0.0
 11
875.058914
 21
419.943414
 31
0.0
  0
LINE
  5
43E
100
AcDbEntity
  8
M05
100
AcDbLine
 10
870.458914
 20
351.943414
 30
0.0
 11
869.758914
 21
352.643414
 31
0.0
  0
LINE
  5
43F
100
AcDbEntity
  8
M05
100
AcDbLine
 10
875.058914
 20
351.943414
 30
0.0
 11
875.758914
 21
352.643414
 31
0.0
  0
LINE
  5
440
100
AcDbEntity
  8
M05
100
AcDbLine
 10
875.758914
 20
352.643414
 30
0.0
 11
875.758914
 21
366.443414
 31
0.0
  0
LINE
  5
441
100
AcDbEntity
  8
M05
100
AcDbLine
 10
870.458914
 20
351.943414
 30
0.0
 11
875.058914
 21
351.943414
 31
0.0
  0
LINE
  5
442
102
{ACAD_REACTORS
330
111
102
}
100
AcDbEntity
  8
M04
100
AcDbLine
 10
860.758914
 20
395.943414
 30
0.0
 11
859.758914
 21
395.943414
 31
0.0
  0
LINE
  5
443
102
{ACAD_REACTORS
330
111
102
}
100
AcDbEntity
  8
M04
100
AcDbLine
 10
859.758914
 20
394.943414
 30
0.0
 11
859.758914
 21
395.943414
 31
0.0
  0
LINE
  5
444
102
{ACAD_REACTORS
330
110
102
}
100
AcDbEntity
  8
M04
100
AcDbLine
 10
860.758914
 20
375.943414
 30
0.0
 11
859.758914
 21
375.943414
 31
0.0
  0
LINE
  5
445
102
{ACAD_REACTORS
330
110
102
}
100
AcDbEntity
  8
M04
100
AcDbLine
 10
859.758914
 20
376.943414
 30
0.0
 11
859.758914
 21
375.943414
 31
0.0
  0
LINE
  5
446
100
AcDbEntity
  8
M05
100
AcDbLine
 10
859.758914
 20
376.943414
 30
0.0
 11
860.758914
 21
375.943414
 31
0.0
  0
LINE
  5
447
100
AcDbEntity
  8
M05
100
AcDbLine
 10
860.758914
 20
395.943414
 30
0.0
 11
859.758914
 21
394.943414
 31
0.0
  0
LINE
  5
448
102
{ACAD_REACTORS
330
111
330
110
102
}
100
AcDbEntity
  8
M05
100
AcDbLine
 10
859.758914
 20
376.943414
 30
0.0
 11
859.758914
 21
394.943414
 31
0.0
  0
LINE
  5
449
102
{ACAD_REACTORS
330
111
102
}
100
AcDbEntity
  8
M05
100
AcDbLine
 10
860.758914
 20
395.943414
 30
0.0
 11
869.758914
 21
395.943414
 31
0.0
  0
LINE
  5
44A
102
{ACAD_REACTORS
330
110
102
}
100
AcDbEntity
  8
M05
100
AcDbLine
 10
860.758914
 20
375.943414
 30
0.0
 11
869.758914
 21
375.943414
 31
0.0
  0
LINE
  5
44B
100
AcDbEntity
  8
M04
100
AcDbLine
 10
802.758914
 20
376.443414
 30
0.0
 11
802.758914
 21
235.533414
 31
0.0
  0
LINE
  5
44C
102
{ACAD_REACTORS
330
116
330
114
102
}
100
AcDbEntity
  8
M02
100
AcDbLine
 10
806.758914
 20
376.443414
 30
0.0
 11
806.758914
 21
244.533414
 31
0.0
  0
LINE
  5
44D
102
{ACAD_REACTORS
330
116
330
114
330
110
330
10F
102
}
100
AcDbEntity
  8
M01
100
AcDbLine
 10
809.758914
 20
376.443414
 30
0.0
 11
809.758914
 21
244.533414
 31
0.0
  0
DIMENSION
  5
44E
100
AcDbEntity
  8
DIMS
100
AcDbDimension
  2
*D8
 10
797.758914
 20
419.231436
 30
0.0
 11
787.116057
 21
422.231436
 31
0.0
 12
21.678451
 22
-87.304292
 32
0.0
  1
5.0
  3
DIM1
100
AcDbAlignedDimension
 13
802.758914
 23
396.943414
 33
0.0
 14
797.758914
 24
395.943414
 34
0.0
 50
180.0
100
AcDbRotatedDimension
1001
ACAD
1000
DSTYLE
1002
{
1070
   144
1040
1.0
1002
}
  0
DIMENSION
  5
45C
100
AcDbEntity
  8
DIMS
100
AcDbDimension
  2
*D7
 10
765.231686
 20
396.943414
 30
0.0
 11
762.231686
 21
385.943414
 31
0.0
 12
21.678451
 22
-87.304292
 32
0.0
  3
DIM1
100
AcDbAlignedDimension
 13
798.336265
 23
374.943414
 33
0.0
 14
798.336265
 24
396.943414
 34
0.0
 50
90.0
100
AcDbRotatedDimension
1001
ACAD
1000
DSTYLE
1002
{
1070
   144
1040
1.0
1002
}
  0
DIMENSION
  5
469
100
AcDbEntity
  8
DIMS
100
AcDbDimension
  2
*D6
 10
775.109099
 20
395.943414
 30
0.0
 11
772.109099
 21
415.1577
 31
0.0
 12
21.678451
 22
-87.304292
 32
0.0
  1
%%c<> H7
  3
DIM1
100
AcDbAlignedDimension
 13
792.758914
 23
375.943414
 33
0.0
 14
792.758914
 24
395.943414
 34
0.0
 50
90.0
100
AcDbRotatedDimension
1001
ACAD
1000
DSTYLE
1002
{
1070
   144
1040
1.0
1002
}
  0
DIMENSION
  5
477
100
AcDbEntity
  8
DIMS
100
AcDbDimension
  2
*D5
 10
792.758914
 20
359.656397
 30
0.0
 11
779.544629
 21
359.656397
 31
0.0
 12
21.678451
 22
-87.304292
 32
0.0
 70
   128
  3
DIM1
100
AcDbAlignedDimension
 13
809.758914
 23
376.443414
 33
0.0
 14
792.758914
 24
375.943414
 34
0.0
 50
180.0
100
AcDbRotatedDimension
1001
ACAD
1000
DSTYLE
1002
{
1070
   144
1040
1.0
1002
}
  0
TEXT
  5
485
100
AcDbEntity
  8
TEXT
100
AcDbText
 10
799.123138
 20
388.666028
 30
0.0
 40
2.0
  1
MA010008
 41
0.9
100
AcDbText
  0
LINE
  5
486
100
AcDbEntity
  8
M04
100
AcDbLine
 10
798.336265
 20
396.943414
 30
0.0
 11
798.336265
 21
395.443414
 31
0.0
  0
LINE
  5
487
100
AcDbEntity
  8
M04
100
AcDbLine
 10
798.336265
 20
396.943414
 30
0.0
 11
802.758914
 21
396.943414
 31
0.0
  0
LINE
  5
488
100
AcDbEntity
  8
M04
100
AcDbLine
 10
797.758914
 20
395.943414
 30
0.0
 11
798.336265
 21
396.943414
 31
0.0
  0
LINE
  5
489
100
AcDbEntity
  8
M04
100
AcDbLine
 10
793.758914
 20
395.943414
 30
0.0
 11
792.758914
 21
395.943414
 31
0.0
  0
LINE
  5
48A
100
AcDbEntity
  8
M04
100
AcDbLine
 10
792.758914
 20
394.943414
 30
0.0
 11
792.758914
 21
395.943414
 31
0.0
  0
LINE
  5
48B
102
{ACAD_REACTORS
330
111
102
}
100
AcDbEntity
  8
M04
100
AcDbLine
 10
814.758914
 20
394.443414
 30
0.0
 11
814.758914
 21
395.443414
 31
0.0
  0
LINE
  5
48C
102
{ACAD_REACTORS
330
111
102
}
100
AcDbEntity
  8
M04
100
AcDbLine
 10
813.758914
 20
395.443414
 30
0.0
 11
814.758914
 21
395.443414
 31
0.0
  0
LINE
  5
48D
100
AcDbEntity
  8
M04
100
AcDbLine
 10
798.336265
 20
374.943414
 30
0.0
 11
798.336265
 21
376.443414
 31
0.0
  0
LINE
  5
48E
100
AcDbEntity
  8
M04
100
AcDbLine
 10
798.336265
 20
374.943414
 30
0.0
 11
802.758914
 21
374.943414
 31
0.0
  0
LINE
  5
48F
100
AcDbEntity
  8
M04
100
AcDbLine
 10
797.758914
 20
375.943414
 30
0.0
 11
798.336265
 21
374.943414
 31
0.0
  0
LINE
  5
490
100
AcDbEntity
  8
M04
100
AcDbLine
 10
793.758914
 20
375.943414
 30
0.0
 11
792.758914
 21
375.943414
 31
0.0
  0
LINE
  5
491
100
AcDbEntity
  8
M04
100
AcDbLine
 10
792.758914
 20
376.943414
 30
0.0
 11
792.758914
 21
375.943414
 31
0.0
  0
LINE
  5
492
102
{ACAD_REACTORS
330
110
102
}
100
AcDbEntity
  8
M04
100
AcDbLine
 10
814.758914
 20
377.443414
 30
0.0
 11
814.758914
 21
376.443414
 31
0.0
  0
LINE
  5
493
102
{ACAD_REACTORS
330
110
102
}
100
AcDbEntity
  8
M04
100
AcDbLine
 10
813.758914
 20
376.443414
 30
0.0
 11
814.758914
 21
376.443414
 31
0.0
  0
LINE
  5
494
102
{ACAD_REACTORS
330
116
102
}
100
AcDbEntity
  8
M02
100
AcDbLine
 10
806.758914
 20
396.943414
 30
0.0
 11
809.758914
 21
396.943414
 31
0.0
  0
LINE
  5
495
102
{ACAD_REACTORS
330
116
102
}
100
AcDbEntity
  8
M02
100
AcDbLine
 10
806.758914
 20
374.943414
 30
0.0
 11
809.758914
 21
374.943414
 31
0.0
  0
LINE
  5
496
100
AcDbEntity
  8
M05
100
AcDbLine
 10
813.758914
 20
395.443414
 30
0.0
 11
813.758914
 21
376.443414
 31
0.0
  0
LINE
  5
497
100
AcDbEntity
  8
M05
100
AcDbLine
 10
793.758914
 20
395.943414
 30
0.0
 11
793.758914
 21
375.943414
 31
0.0
  0
LINE
  5
498
100
AcDbEntity
  8
M05
100
AcDbLine
 10
814.758914
 20
394.443414
 30
0.0
 11
813.758914
 21
395.443414
 31
0.0
  0
LINE
  5
499
100
AcDbEntity
  8
M05
100
AcDbLine
 10
813.758914
 20
376.443414
 30
0.0
 11
814.758914
 21
377.443414
 31
0.0
  0
LINE
  5
49A
100
AcDbEntity
  8
M05
100
AcDbLine
 10
792.758914
 20
376.943414
 30
0.0
 11
793.758914
 21
375.943414
 31
0.0
  0
LINE
  5
49B
100
AcDbEntity
  8
M05
100
AcDbLine
 10
793.758914
 20
395.943414
 30
0.0
 11
792.758914
 21
394.943414
 31
0.0
  0
LINE
  5
49C
100
AcDbEntity
  8
M05
100
AcDbLine
 10
793.758914
 20
375.943414
 30
0.0
 11
797.758914
 21
375.943414
 31
0.0
  0
LINE
  5
49D
100
AcDbEntity
  8
M05
100
AcDbLine
 10
793.758914
 20
395.943414
 30
0.0
 11
797.758914
 21
395.943414
 31
0.0
  0
LINE
  5
49E
100
AcDbEntity
  8
M05
100
AcDbLine
 10
797.758914
 20
375.943414
 30
0.0
 11
797.758914
 21
395.943414
 31
0.0
  0
LINE
  5
49F
100
AcDbEntity
  8
M05
100
AcDbLine
 10
792.758914
 20
376.943414
 30
0.0
 11
792.758914
 21
394.943414
 31
0.0
  0
LINE
  5
4A0
102
{ACAD_REACTORS
330
111
102
}
100
AcDbEntity
  8
M05
100
AcDbLine
 10
797.758914
 20
395.443414
 30
0.0
 11
813.758914
 21
395.443414
 31
0.0
  0
LINE
  5
4A1
102
{ACAD_REACTORS
330
110
102
}
100
AcDbEntity
  8
M05
100
AcDbLine
 10
797.758914
 20
376.443414
 30
0.0
 11
813.758914
 21
376.443414
 31
0.0
  0
LINE
  5
4A2
102
{ACAD_REACTORS
330
111
330
110
102
}
100
AcDbEntity
  8
M05
100
AcDbLine
 10
814.758914
 20
377.443414
 30
0.0
 11
814.758914
 21
394.443414
 31
0.0
  0
HATCH
  5
4A3
100
AcDbEntity
  8
HATCH
100
AcDbHatch
 10
0.0
 20
0.0
 30
0.0
210
0.0
220
0.0
230
1.0
  2
_U
 70
     0
 71
     0
 91
        2
 92
        7
 72
     0
 73
     1
 93
       11
 10
869.7589143034768
 20
281.3022960494265
 10
869.7589143034768
 20
286.7434140619692
 10
870.4589143034768
 20
287.4434140619694
 10
876.0589143034771
 20
287.4434140619694
 10
876.7589143034768
 20
286.7434140619694
 10
876.7589143034768
 20
283.9434140619692
 10
875.758914303477
 20
282.9434140619694
 10
875.7589143034769
 20
280.9434140619696
 10
876.7589143034768
 20
279.9434140619701
 10
876.7589143034768
 20
276.9434140619694
 10
874.117796290934
 20
276.9434140619694
 97
        0
 92
        7
 72
     0
 73
     1
 93
       11
 10
870.4589143034768
 20
259.4434140619694
 10
869.758914303477
 20
260.1434140619695
 10
869.758914303477
 20
265.5845320745125
 10
874.117796290934
 20
269.9434140619694
 10
876.7589143034768
 20
269.9434140619694
 10
876.7589143034768
 20
266.9434140619687
 10
875.7589143034769
 20
265.943414061969
 10
875.758914303477
 20
263.9434140619694
 10
876.758914303477
 20
262.9434140619697
 10
876.7589143034768
 20
260.1434140619695
 10
876.0589143034771
 20
259.4434140619696
 97
        0
 75
     0
 76
     0
 52
225.0
 41
1.5
 77
     0
 78
     1
 53
135.0
 43
1117.245389
 44
883.890655
 45
1.060660171779821
 46
1.060660171779821
 79
     0
 47
0.151518
 98
        2
 10
873.074877
 20
282.967484
 10
872.468806
 20
264.323073
  0
LINE
  5
4A4
100
AcDbEntity
  8
M05
100
AcDbLine
 10
875.758914
 20
282.943414
 30
0.0
 11
876.758914
 21
283.943414
 31
0.0
  0
LINE
  5
4A5
100
AcDbEntity
  8
M05
100
AcDbLine
 10
875.758914
 20
280.943414
 30
0.0
 11
876.758914
 21
279.943414
 31
0.0
  0
LINE
  5
4A6
100
AcDbEntity
  8
M05
100
AcDbLine
 10
875.758914
 20
282.943414
 30
0.0
 11
875.758914
 21
280.943414
 31
0.0
  0
LINE
  5
4A7
100
AcDbEntity
  8
M05
100
AcDbLine
 10
875.758914
 20
263.943414
 30
0.0
 11
876.758914
 21
262.943414
 31
0.0
  0
LINE
  5
4A8
100
AcDbEntity
  8
M05
100
AcDbLine
 10
875.758914
 20
265.943414
 30
0.0
 11
876.758914
 21
266.943414
 31
0.0
  0
LINE
  5
4A9
100
AcDbEntity
  8
M05
100
AcDbLine
 10
875.758914
 20
263.943414
 30
0.0
 11
875.758914
 21
265.943414
 31
0.0
  0
MTEXT
  5
4AA
100
AcDbEntity
  8
HATCH
 62
     2
100
AcDbMText
 10
893.464114
 20
256.645569
 30
0.0
 40
3.0
 41
0.0
 71
     1
 72
     5
  1
MA010006 (x10)
  0
LINE
  5
4AB
100
AcDbEntity
  8
M04
100
AcDbLine
 10
894.58682
 20
273.443414
 30
0.0
 11
893.258914
 21
271.143414
 31
0.0
  0
LINE
  5
4AC
100
AcDbEntity
  8
M04
100
AcDbLine
 10
893.258914
 20
275.743414
 30
0.0
 11
894.58682
 21
273.443414
 31
0.0
  0
LINE
  5
4AD
100
AcDbEntity
  8
M04
100
AcDbLine
 10
893.258914
 20
275.743414
 30
0.0
 11
893.258914
 21
271.143414
 31
0.0
  0
LINE
  5
4AE
100
AcDbEntity
  8
M04
100
AcDbLine
 10
888.197796
 20
276.443414
 30
0.0
 11
891.758914
 21
276.443414
 31
0.0
  0
LINE
  5
4AF
100
AcDbEntity
  8
M04
100
AcDbLine
 10
888.897796
 20
275.743414
 30
0.0
 11
893.258914
 21
275.743414
 31
0.0
  0
LINE
  5
4B0
100
AcDbEntity
  8
M04
100
AcDbLine
 10
888.197796
 20
270.443414
 30
0.0
 11
891.758914
 21
270.443414
 31
0.0
  0
LINE
  5
4B1
100
AcDbEntity
  8
M04
100
AcDbLine
 10
888.897796
 20
271.143414
 30
0.0
 11
893.258914
 21
271.143414
 31
0.0
  0
LINE
  5
4B2
100
AcDbEntity
  8
M05
100
AcDbLine
 10
888.897796
 20
271.143414
 30
0.0
 11
888.197796
 21
270.443414
 31
0.0
  0
LINE
  5
4B3
100
AcDbEntity
  8
M05
100
AcDbLine
 10
888.197796
 20
276.443414
 30
0.0
 11
888.897796
 21
275.743414
 31
0.0
  0
LINE
  5
4B4
100
AcDbEntity
  8
M05
100
AcDbLine
 10
876.117796
 20
271.143414
 30
0.0
 11
888.897796
 21
271.143414
 31
0.0
  0
LINE
  5
4B5
100
AcDbEntity
  8
M05
100
AcDbLine
 10
876.117796
 20
275.743414
 30
0.0
 11
888.897796
 21
275.743414
 31
0.0
  0
LINE
  5
4B6
100
AcDbEntity
  8
M05
100
AcDbLine
 10
888.197796
 20
276.443414
 30
0.0
 11
888.197796
 21
270.443414
 31
0.0
  0
LINE
  5
4B7
100
AcDbEntity
  8
M04
100
AcDbLine
 10
891.758914
 20
276.443414
 30
0.0
 11
891.758914
 21
270.443414
 31
0.0
  0
LINE
  5
4B8
100
AcDbEntity
  8
M05
100
AcDbLine
 10
888.897796
 20
275.743414
 30
0.0
 11
888.897796
 21
271.143414
 31
0.0
  0
LINE
  5
4B9
102
{ACAD_REACTORS
330
47
102
}
100
AcDbEntity
  8
M05
  6
HIDDEN
100
AcDbLine
 10
869.458914
 20
281.602296
 30
0.0
 11
868.758914
 21
282.302296
 31
0.0
  0
LINE
  5
4BA
102
{ACAD_REACTORS
330
47
102
}
100
AcDbEntity
  8
M05
  6
HIDDEN
100
AcDbLine
 10
869.458914
 20
265.284532
 30
0.0
 11
868.758914
 21
264.584532
 31
0.0
  0
LINE
  5
4BB
100
AcDbEntity
  8
M05
100
AcDbLine
 10
876.117796
 20
276.443414
 30
0.0
 11
876.117796
 21
270.443414
 31
0.0
  0
LINE
  5
4BC
100
AcDbEntity
  8
M05
100
AcDbLine
 10
871.617796
 20
272.893414
 30
0.0
 11
871.617796
 21
267.443414
 31
0.0
  0
LINE
  5
4BD
100
AcDbEntity
  8
M05
100
AcDbLine
 10
870.897796
 20
272.893414
 30
0.0
 11
870.897796
 21
267.443414
 31
0.0
  0
LINE
  5
4BE
100
AcDbEntity
  8
M05
100
AcDbLine
 10
870.897796
 20
272.893414
 30
0.0
 11
872.397796
 21
272.893414
 31
0.0
  0
LINE
  5
4BF
100
AcDbEntity
  8
M05
100
AcDbLine
 10
870.897796
 20
273.993414
 30
0.0
 11
872.397796
 21
273.993414
 31
0.0
  0
LINE
  5
4C0
100
AcDbEntity
  8
M05
100
AcDbLine
 10
872.397796
 20
273.993414
 30
0.0
 11
872.397796
 21
272.893414
 31
0.0
  0
LINE
  5
4C1
100
AcDbEntity
  8
M05
100
AcDbLine
 10
874.117796
 20
269.943414
 30
0.0
 11
876.758914
 21
269.943414
 31
0.0
  0
LINE
  5
4C2
100
AcDbEntity
  8
M05
100
AcDbLine
 10
874.117796
 20
276.943414
 30
0.0
 11
876.758914
 21
276.943414
 31
0.0
  0
LINE
  5
4C3
100
AcDbEntity
  8
M05
100
AcDbLine
 10
871.617796
 20
279.443414
 30
0.0
 11
871.617796
 21
273.993414
 31
0.0
  0
LINE
  5
4C4
102
{ACAD_REACTORS
330
47
102
}
100
AcDbEntity
  8
M05
100
AcDbLine
 10
874.617796
 20
276.443414
 30
0.0
 11
869.458914
 21
281.602296
 31
0.0
  0
LINE
  5
4C5
100
AcDbEntity
  8
M05
100
AcDbLine
 10
870.897796
 20
279.443414
 30
0.0
 11
871.617796
 21
279.443414
 31
0.0
  0
LINE
  5
4C6
102
{ACAD_REACTORS
330
47
102
}
100
AcDbEntity
  8
M05
100
AcDbLine
 10
874.617796
 20
270.443414
 30
0.0
 11
869.458914
 21
265.284532
 31
0.0
  0
LINE
  5
4C7
100
AcDbEntity
  8
M05
100
AcDbLine
 10
874.617796
 20
276.443414
 30
0.0
 11
874.617796
 21
270.443414
 31
0.0
  0
LINE
  5
4C8
100
AcDbEntity
  8
M05
100
AcDbLine
 10
874.617796
 20
276.443414
 30
0.0
 11
888.197796
 21
276.443414
 31
0.0
  0
LINE
  5
4C9
100
AcDbEntity
  8
M05
100
AcDbLine
 10
874.617796
 20
270.443414
 30
0.0
 11
888.197796
 21
270.443414
 31
0.0
  0
LINE
  5
4CA
100
AcDbEntity
  8
M05
100
AcDbLine
 10
870.897796
 20
267.443414
 30
0.0
 11
871.617796
 21
267.443414
 31
0.0
  0
LINE
  5
4CB
100
AcDbEntity
  8
M05
100
AcDbLine
 10
870.897796
 20
279.443414
 30
0.0
 11
870.897796
 21
273.993414
 31
0.0
  0
LINE
  5
4CC
102
{ACAD_REACTORS
330
47
102
}
100
AcDbEntity
  8
M05
  6
HIDDEN
100
AcDbLine
 10
869.458914
 20
287.443414
 30
0.0
 11
869.458914
 21
259.443414
 31
0.0
  0
LINE
  5
4CD
102
{ACAD_REACTORS
330
10F
330
47
102
}
100
AcDbEntity
  8
M05
  6
HIDDEN
100
AcDbLine
 10
869.458914
 20
259.443414
 30
0.0
 11
868.758914
 21
260.143414
 31
0.0
  0
LINE
  5
4CE
102
{ACAD_REACTORS
330
10F
330
47
102
}
100
AcDbEntity
  8
M05
  6
HIDDEN
100
AcDbLine
 10
870.458914
 20
259.443414
 30
0.0
 11
869.458914
 21
259.443414
 31
0.0
  0
LINE
  5
4CF
100
AcDbEntity
  8
M05
100
AcDbLine
 10
870.458914
 20
259.443414
 30
0.0
 11
869.758914
 21
260.143414
 31
0.0
  0
LINE
  5
4D0
100
AcDbEntity
  8
M05
100
AcDbLine
 10
876.058914
 20
259.443414
 30
0.0
 11
876.758914
 21
260.143414
 31
0.0
  0
LINE
  5
4D1
100
AcDbEntity
  8
M05
100
AcDbLine
 10
870.458914
 20
259.443414
 30
0.0
 11
876.058914
 21
259.443414
 31
0.0
  0
LINE
  5
4D2
102
{ACAD_REACTORS
330
10F
330
47
102
}
100
AcDbEntity
  8
M05
  6
HIDDEN
100
AcDbLine
 10
869.458914
 20
287.443414
 30
0.0
 11
868.758914
 21
286.743414
 31
0.0
  0
LINE
  5
4D3
102
{ACAD_REACTORS
330
10F
330
47
102
}
100
AcDbEntity
  8
M05
  6
HIDDEN
100
AcDbLine
 10
870.458914
 20
287.443414
 30
0.0
 11
869.458914
 21
287.443414
 31
0.0
  0
LINE
  5
4D4
100
AcDbEntity
  8
M05
100
AcDbLine
 10
870.458914
 20
287.443414
 30
0.0
 11
869.758914
 21
286.743414
 31
0.0
  0
LINE
  5
4D5
100
AcDbEntity
  8
M05
100
AcDbLine
 10
876.058914
 20
287.443414
 30
0.0
 11
876.758914
 21
286.743414
 31
0.0
  0
LINE
  5
4D6
102
{ACAD_REACTORS
330
113
102
}
100
AcDbEntity
  8
M02
100
AcDbLine
 10
869.758914
 20
258.443414
 30
0.0
 11
872.758914
 21
258.443414
 31
0.0
  0
LINE
  5
4D7
102
{ACAD_REACTORS
330
113
102
}
100
AcDbEntity
  8
M02
100
AcDbLine
 10
869.758914
 20
288.443414
 30
0.0
 11
872.758914
 21
288.443414
 31
0.0
  0
LINE
  5
4D8
102
{ACAD_REACTORS
330
10F
330
47
102
}
100
AcDbEntity
  8
M05
  6
HIDDEN
100
AcDbLine
 10
868.758914
 20
286.743414
 30
0.0
 11
868.758914
 21
260.143414
 31
0.0
  0
LINE
  5
4D9
100
AcDbEntity
  8
M05
100
AcDbLine
 10
870.458914
 20
287.443414
 30
0.0
 11
876.058914
 21
287.443414
 31
0.0
  0
LINE
  5
4DA
102
{ACAD_REACTORS
330
47
102
}
100
AcDbEntity
  8
CENTRE
100
AcDbLine
 10
864.249804
 20
273.443414
 30
0.0
 11
897.328142
 21
273.443414
 31
0.0
  0
LINE
  5
4DB
100
AcDbEntity
  8
DIMS
 62
     4
100
AcDbLine
 10
506.044627
 20
382.543414
 30
0.0
 11
506.044627
 21
378.743414
 31
0.0
  0
LINE
  5
4DC
100
AcDbEntity
  8
DIMS
 62
     4
100
AcDbLine
 10
506.044627
 20
389.343414
 30
0.0
 11
506.044627
 21
393.143414
 31
0.0
  0
LINE
  5
4DD
100
AcDbEntity
  8
DIMS
 62
     4
100
AcDbLine
 10
506.044627
 20
387.643414
 30
0.0
 11
506.044627
 21
384.243414
 31
0.0
  0
CIRCLE
  5
4DE
100
AcDbEntity
  8
M03
100
AcDbCircle
 10
506.044627
 20
385.943414
 30
0.0
 40
2.3
  0
ARC
  5
4DF
100
AcDbEntity
  8
M03
100
AcDbCircle
 10
506.044627
 20
385.943414
 30
0.0
 40
3.0
100
AcDbArc
 50
77.784636
 51
6.923103
  0
CIRCLE
  5
4E0
100
AcDbEntity
  8
M03
100
AcDbCircle
 10
506.044627
 20
385.943414
 30
0.0
 40
5.5
  0
CIRCLE
  5
4E1
100
AcDbEntity
  8
M03
100
AcDbCircle
 10
532.044627
 20
385.943414
 30
0.0
 40
34.0
  0
LINE
  5
4E2
100
AcDbEntity
  8
DIMS
 62
     4
100
AcDbLine
 10
535.444627
 20
411.943414
 30
0.0
 11
539.244627
 21
411.943414
 31
0.0
  0
LINE
  5
4E3
100
AcDbEntity
  8
DIMS
 62
     4
100
AcDbLine
 10
528.644627
 20
411.943414
 30
0.0
 11
524.844627
 21
411.943414
 31
0.0
  0
LINE
  5
4E4
100
AcDbEntity
  8
DIMS
 62
     4
100
AcDbLine
 10
530.344627
 20
411.943414
 30
0.0
 11
533.744627
 21
411.943414
 31
0.0
  0
LINE
  5
4E5
100
AcDbEntity
  8
DIMS
 62
     4
100
AcDbLine
 10
535.444627
 20
359.943414
 30
0.0
 11
539.244627
 21
359.943414
 31
0.0
  0
LINE
  5
4E6
100
AcDbEntity
  8
DIMS
 62
     4
100
AcDbLine
 10
528.644627
 20
359.943414
 30
0.0
 11
524.844627
 21
359.943414
 31
0.0
  0
LINE
  5
4E7
100
AcDbEntity
  8
DIMS
 62
     4
100
AcDbLine
 10
530.344627
 20
359.943414
 30
0.0
 11
533.744627
 21
359.943414
 31
0.0
  0
LINE
  5
4E8
100
AcDbEntity
  8
DIMS
 62
     4
100
AcDbLine
 10
558.044627
 20
382.543414
 30
0.0
 11
558.044627
 21
378.743414
 31
0.0
  0
LINE
  5
4E9
100
AcDbEntity
  8
DIMS
 62
     4
100
AcDbLine
 10
558.044627
 20
389.343414
 30
0.0
 11
558.044627
 21
393.143414
 31
0.0
  0
LINE
  5
4EA
100
AcDbEntity
  8
DIMS
 62
     4
100
AcDbLine
 10
558.044627
 20
387.643414
 30
0.0
 11
558.044627
 21
384.243414
 31
0.0
  0
CIRCLE
  5
4EB
100
AcDbEntity
  8
M03
100
AcDbCircle
 10
532.044627
 20
359.943414
 30
0.0
 40
2.3
  0
ARC
  5
4EC
100
AcDbEntity
  8
M03
100
AcDbCircle
 10
532.044627
 20
359.943414
 30
0.0
 40
3.0
100
AcDbArc
 50
77.784636
 51
6.923103
  0
CIRCLE
  5
4ED
100
AcDbEntity
  8
M03
100
AcDbCircle
 10
532.044627
 20
359.943414
 30
0.0
 40
5.5
  0
CIRCLE
  5
4EE
100
AcDbEntity
  8
M03
100
AcDbCircle
 10
532.044627
 20
411.943414
 30
0.0
 40
2.3
  0
ARC
  5
4EF
100
AcDbEntity
  8
M03
100
AcDbCircle
 10
532.044627
 20
411.943414
 30
0.0
 40
3.0
100
AcDbArc
 50
77.784636
 51
6.923103
  0
CIRCLE
  5
4F0
100
AcDbEntity
  8
M03
100
AcDbCircle
 10
532.044627
 20
411.943414
 30
0.0
 40
5.5
  0
CIRCLE
  5
4F1
100
AcDbEntity
  8
M03
100
AcDbCircle
 10
558.044627
 20
385.943414
 30
0.0
 40
2.3
  0
ARC
  5
4F2
100
AcDbEntity
  8
M03
100
AcDbCircle
 10
558.044627
 20
385.943414
 30
0.0
 40
3.0
100
AcDbArc
 50
77.784636
 51
6.923103
  0
CIRCLE
  5
4F3
100
AcDbEntity
  8
M03
100
AcDbCircle
 10
558.044627
 20
385.943414
 30
0.0
 40
5.5
  0
CIRCLE
  5
4F4
100
AcDbEntity
  8
M03
100
AcDbCircle
 10
532.044627
 20
385.943414
 30
0.0
 40
20.0
  0
HATCH
  5
4F5
100
AcDbEntity
  8
M01
 62
     4
100
AcDbHatch
 10
0.0
 20
0.0
 30
0.0
210
0.0
220
0.0
230
1.0
  2
_U
 70
     0
 71
     0
 91
       13
 92
        7
 72
     1
 73
     1
 93
        4
 10
526.0446265495065
 20
393.3088739932975
 42
0.0
 10
526.0446265495065
 20
389.9434140619693
 42
0.0
 10
532.0446265495065
 20
389.9434140619693
 42
0.0
 10
532.0446265495065
 20
395.4434140619693
 42
0.1725804109198133
 97
        0
 92
        7
 72
     1
 73
     1
 93
        4
 10
532.0446265495065
 20
389.9434140619693
 42
0.0
 10
526.0446265495065
 20
389.9434140619693
 42
0.0
 10
526.0446265495065
 20
385.9434140619693
 42
0.0
 10
528.0446265495065
 20
385.9434140619693
 42
-0.4142135623730992
 97
        0
 92
       22
 72
     1
 73
     1
 93
        3
 10
532.0446265495065
 20
389.9434140619693
 42
0.4142135623730909
 10
528.0446265495065
 20
385.9434140619693
 42
0.0
 10
532.0446265495065
 20
385.9434140619693
 42
0.0
 97
        0
 92
        7
 72
     1
 73
     1
 93
        4
 10
526.0446265495065
 20
389.9434140619693
 42
0.0
 10
523.4277825796996
 20
389.9434140619693
 42
0.1090809576248918
 10
522.5446265495065
 20
385.9434140619693
 42
0.0
 10
526.0446265495065
 20
385.9434140619693
 42
0.0
 97
        0
 92
       22
 72
     1
 73
     1
 93
        3
 10
526.0446265495065
 20
393.3088739932973
 42
0.1136360637262233
 10
523.4277825796996
 20
389.9434140619693
 42
0.0
 10
526.0446265495063
 20
389.9434140619693
 42
0.0
 97
        0
 92
        7
 72
     1
 73
     1
 93
        4
 10
522.0446265495065
 20
385.9434140619693
 42
0.0
 10
522.5446265495065
 20
385.9434140619693
 42
-0.1090809576248918
 10
523.4277825796996
 20
389.9434140619693
 42
0.0
 10
522.8794751595948
 20
389.9434140619693
 42
0.1032437171755979
 97
        0
 92
        7
 72
     1
 73
     1
 93
        4
 10
522.8794751595948
 20
389.9434140619693
 42
0.0
 10
523.4277825796996
 20
389.9434140619693
 42
-0.1136360637262264
 10
526.0446265495065
 20
393.3088739932975
 42
0.0
 10
526.0446265495065
 20
393.9434140619693
 42
0.1296640194076911
 97
        0
 92
        7
 72
     1
 73
     1
 93
        4
 10
532.0446265495065
 20
395.4434140619693
 42
0.0
 10
532.0446265495065
 20
395.9434140619693
 42
0.1622776601683798
 10
526.0446265495065
 20
393.9434140619693
 42
0.0
 10
526.0446265495065
 20
393.3088739932975
 42
-0.1725804109198127
 97
        0
 92
       23
 72
     1
 73
     1
 93
        3
 10
532.0446265495065
 20
385.9434140619693
 42
0.0
 10
532.0446265495065
 20
381.9434140619693
 42
0.4142135623730909
 10
536.0446265495065
 20
385.9434140619693
 42
0.0
 97
        0
 92
        7
 72
     1
 73
     1
 93
        4
 10
536.0446265495065
 20
385.9434140619693
 42
-0.4142135623730909
 10
532.0446265495065
 20
381.9434140619693
 42
0.0
 10
540.6614705193137
 20
381.9434140619693
 42
0.1090809576248888
 10
541.5446265495066
 20
385.9434140619693
 42
0.0
 97
        0
 92
       23
 72
     1
 73
     1
 93
        3
 10
532.0446265495065
 20
381.9434140619693
 42
0.0
 10
532.0446265495065
 20
376.4434140619693
 42
0.2919418509678903
 10
540.6614705193137
 20
381.9434140619693
 42
0.0
 97
        0
 92
        7
 72
     1
 73
     1
 93
        4
 10
541.2097779394182
 20
381.9434140619693
 42
0.0
 10
540.6614705193137
 20
381.9434140619693
 42
-0.2919418509678903
 10
532.0446265495065
 20
376.4434140619693
 42
0.0
 10
532.0446265495065
 20
375.9434140619693
 42
0.2982166266986068
 97
        0
 92
        7
 72
     1
 73
     1
 93
        4
 10
542.0446265495066
 20
385.9434140619693
 42
0.0
 10
541.5446265495066
 20
385.9434140619693
 42
-0.1090809576248888
 10
540.6614705193137
 20
381.9434140619693
 42
0.0
 10
541.2097779394182
 20
381.9434140619693
 42
0.1032437171755951
 97
        0
 75
     0
 76
     0
 52
45.0
 41
1.0
 77
     1
 78
     2
 53
45.0
 43
-23.402614
 44
-46.615812
 45
-0.7071067811865474
 46
0.7071067811865478
 79
     0
 53
135.0
 43
-23.402614
 44
-46.615812
 45
-0.7071067811865478
 46
-0.7071067811865474
 79
     0
 47
0.087843
 98
       13
 10
529.375596
 20
392.75895
 10
527.793771
 20
388.366804
 10
530.781663
 20
387.839746
 10
524.893758
 20
387.839746
 10
525.333154
 20
390.826405
 10
522.6089
 20
388.542489
 10
525.508913
 20
393.198165
 10
528.145288
 20
394.86718
 10
533.769556
 20
384.765243
 10
537.899877
 20
383.974657
 10
535.615019
 20
380.373097
 10
534.560469
 20
376.420165
 10
541.678683
 20
384.0625
  0
CIRCLE
  5
4F6
100
AcDbEntity
  8
M01
100
AcDbCircle
 10
532.044627
 20
385.943414
 30
0.0
 40
10.0
  0
CIRCLE
  5
4F7
100
AcDbEntity
  8
M03
100
AcDbCircle
 10
532.044627
 20
385.943414
 30
0.0
 40
9.5
  0
WIPEOUT
  5
4F8
100
AcDbEntity
  8
TEXT
 92
      140
310
8C00000001000000840000000600000005000000600B59F334128A4050A3C4D8B2656F4000000000000000006EF5F9011F8B8A4050A3C4D8B2656F4000000000000000006FF5F9011F8B8A404DA3C4D8B2E56F400000000000000000610B59F334128A4051A3C4D8B2E56F400000000000000000600B59F334128A4050A3C4
310
D8B2656F400000000000000000
100
AcDbWipeout
 90
        0
 10
824.482321
 20
192.770262
 30
0.0
 11
62.407819
 21
0.0
 31
0.0
 12
0.0
 22
62.407819
 32
0.0
 13
0.0
 23
0.0
340
0
 70
     7
280
     1
281
    50
282
    50
283
     0
360
0
 71
     2
 91
        5
 14
-0.343072
 24
-0.435905
 14
-0.100886
 24
-0.435905
 14
-0.100886
 24
-0.5
 14
-0.343072
 24
-0.5
 14
-0.343072
 24
-0.435905
  0
TEXT
  5
4F9
102
{ACAD_REACTORS
330
10F
102
}
100
AcDbEntity
  8
TEXT
100
AcDbText
 10
835.275855
 20
252.178082
 30
0.0
 40
2.0
  1
MM010139
 41
0.9
100
AcDbText
  0
CIRCLE
  5
4FA
100
AcDbEntity
  8
M03
100
AcDbCircle
 10
532.044627
 20
385.943414
 30
0.0
 40
4.0
  0
LINE
  5
4FB
102
{ACAD_REACTORS
330
114
102
}
100
AcDbEntity
  8
M02
100
AcDbLine
 10
809.758914
 20
255.443414
 30
0.0
 11
806.758914
 21
255.443414
 31
0.0
  0
LINE
  5
4FC
102
{ACAD_REACTORS
330
114
102
}
100
AcDbEntity
  8
M02
100
AcDbLine
 10
809.758914
 20
291.443414
 30
0.0
 11
806.758914
 21
291.443414
 31
0.0
  0
MTEXT
  5
4FD
100
AcDbEntity
  8
DIMS
 62
     2
100
AcDbMText
 10
373.069106
 20
461.204017
 30
0.0
 40
3.0
 41
0.0
 71
     4
 72
     5
  1
HGX10037 (x2)
  0
LINE
  5
4FE
100
AcDbEntity
  8
M01
100
AcDbLine
 10
863.746926
 20
620.679082
 30
0.0
 11
865.726634
 21
621.885811
 31
0.0
  0
LINE
  5
4FF
100
AcDbEntity
  8
M01
100
AcDbLine
 10
871.480893
 20
632.132309
 30
0.0
 11
871.480893
 21
640.707121
 31
0.0
  0
LINE
  5
500
100
AcDbEntity
  8
M01
100
AcDbLine
 10
867.480893
 20
632.132309
 30
0.0
 11
867.480893
 21
640.707121
 31
0.0
  0
ARC
  5
501
100
AcDbEntity
  8
M01
100
AcDbCircle
 10
859.480893
 20
632.132309
 30
0.0
 40
12.0
100
AcDbArc
 50
301.364349
 51
0.0
  0
ARC
  5
502
100
AcDbEntity
  8
M01
100
AcDbCircle
 10
859.480893
 20
632.132309
 30
0.0
 40
8.0
100
AcDbArc
 50
308.846454
 51
0.0
  0
LINE
  5
503
100
AcDbEntity
  8
M01
100
AcDbLine
 10
850.115565
 20
617.054629
 30
0.0
 11
860.342978
 21
623.288737
 31
0.0
  0
LINE
  5
504
100
AcDbEntity
  8
M01
100
AcDbLine
 10
852.197479
 20
613.63913
 30
0.0
 11
852.521011
 21
613.836339
 31
0.0
  0
LINE
  5
505
100
AcDbEntity
  8
M01
100
AcDbLine
 10
850.758914
 20
606.636722
 30
0.0
 11
850.758914
 21
606.043414
 31
0.0
  0
LINE
  5
506
100
AcDbEntity
  8
M01
100
AcDbLine
 10
846.758914
 20
611.077505
 30
0.0
 11
846.758914
 21
608.351661
 31
0.0
  0
ARC
  5
507
100
AcDbEntity
  8
M01
100
AcDbCircle
 10
853.758914
 20
611.077505
 30
0.0
 40
3.0
100
AcDbArc
 50
121.364349
 51
151.672691
  0
ARC
  5
508
100
AcDbEntity
  8
M01
100
AcDbCircle
 10
853.758914
 20
611.077505
 30
0.0
 40
7.0
100
AcDbArc
 50
121.364349
 51
180.0
  0
ARC
  5
509
100
AcDbEntity
  8
M01
100
AcDbCircle
 10
853.758914
 20
606.043414
 30
0.0
 40
7.0
100
AcDbArc
 50
202.678679
 51
270.0
  0
ARC
  5
50A
100
AcDbEntity
  8
M01
100
AcDbCircle
 10
853.758914
 20
606.043414
 30
0.0
 40
3.0
100
AcDbArc
 50
180.0
 51
270.0
  0
ARC
  5
50B
100
AcDbEntity
  8
M01
100
AcDbCircle
 10
852.498777
 20
624.859889
 30
0.0
 40
12.0
100
AcDbArc
 50
313.586993
 51
0.0
  0
ARC
  5
50C
100
AcDbEntity
  8
M01
100
AcDbCircle
 10
852.498777
 20
624.859889
 30
0.0
 40
8.0
100
AcDbArc
 50
313.586993
 51
0.0
  0
LINE
  5
50D
100
AcDbEntity
  8
M01
100
AcDbLine
 10
853.758914
 20
603.043414
 30
0.0
 11
858.758914
 21
603.043414
 31
0.0
  0
LINE
  5
50E
100
AcDbEntity
  8
M01
100
AcDbLine
 10
854.758914
 20
603.043414
 30
0.0
 11
854.758914
 21
599.043414
 31
0.0
  0
LINE
  5
50F
100
AcDbEntity
  8
M01
100
AcDbLine
 10
858.758914
 20
603.043414
 30
0.0
 11
858.758914
 21
599.043414
 31
0.0
  0
LINE
  5
510
100
AcDbEntity
  8
M01
100
AcDbLine
 10
810.758914
 20
599.043414
 30
0.0
 11
837.983453
 21
599.043414
 31
0.0
  0
LINE
  5
511
100
AcDbEntity
  8
M01
100
AcDbLine
 10
837.983453
 20
603.043414
 30
0.0
 11
820.758914
 21
603.043414
 31
0.0
  0
ARC
  5
512
100
AcDbEntity
  8
M01
100
AcDbCircle
 10
837.983453
 20
611.043414
 30
0.0
 40
12.0
100
AcDbArc
 50
270.0
 51
313.586993
  0
ARC
  5
513
100
AcDbEntity
  8
M01
100
AcDbCircle
 10
837.983453
 20
611.043414
 30
0.0
 40
8.0
100
AcDbArc
 50
270.0
 51
313.586993
  0
LINE
  5
514
100
AcDbEntity
  8
M01
100
AcDbLine
 10
824.758914
 20
603.043414
 30
0.0
 11
824.758914
 21
599.043414
 31
0.0
  0
LINE
  5
515
100
AcDbEntity
  8
M01
100
AcDbLine
 10
820.758914
 20
603.043414
 30
0.0
 11
820.758914
 21
599.043414
 31
0.0
  0
LINE
  5
516
100
AcDbEntity
  8
M01
100
AcDbLine
 10
860.772239
 20
616.167948
 30
0.0
 11
846.256914
 21
602.351473
 31
0.0
  0
LINE
  5
517
100
AcDbEntity
  8
M01
100
AcDbLine
 10
858.014418
 20
619.065262
 30
0.0
 11
843.499094
 21
605.248787
 31
0.0
  0
LINE
  5
518
100
AcDbEntity
  8
M01
100
AcDbLine
 10
864.498777
 20
640.698379
 30
0.0
 11
864.498777
 21
624.859889
 31
0.0
  0
LINE
  5
519
100
AcDbEntity
  8
M01
100
AcDbLine
 10
860.498777
 20
640.698379
 30
0.0
 11
860.498777
 21
624.859889
 31
0.0
  0
LINE
  5
51A
100
AcDbEntity
  8
M01
100
AcDbLine
 10
860.508914
 20
584.387514
 30
0.0
 11
867.008914
 21
584.387514
 31
0.0
  0
LINE
  5
51B
100
AcDbEntity
  8
M01
100
AcDbLine
 10
860.508914
 20
592.499314
 30
0.0
 11
867.008914
 21
592.499314
 31
0.0
  0
LINE
  5
51C
100
AcDbEntity
  8
M01
100
AcDbLine
 10
860.508914
 20
584.387514
 30
0.0
 11
860.508914
 21
582.443414
 31
0.0
  0
ARC
  5
51D
100
AcDbEntity
  8
M01
100
AcDbCircle
 10
859.258914
 20
585.948764
 30
0.0
 40
2.0
100
AcDbArc
 50
308.682187
 51
0.0
  0
ARC
  5
51E
100
AcDbEntity
  8
M01
100
AcDbCircle
 10
859.258914
 20
590.938064
 30
0.0
 40
2.0
100
AcDbArc
 50
0.0
 51
51.317813
  0
LINE
  5
51F
100
AcDbEntity
  8
M01
100
AcDbLine
 10
860.508914
 20
594.443414
 30
0.0
 11
860.508914
 21
592.499314
 31
0.0
  0
LINE
  5
520
100
AcDbEntity
  8
M01
100
AcDbLine
 10
861.258914
 20
590.938064
 30
0.0
 11
861.258914
 21
585.948764
 31
0.0
  0
LINE
  5
521
100
AcDbEntity
  8
M01
100
AcDbLine
 10
867.008914
 20
584.387514
 30
0.0
 11
867.008914
 21
582.443414
 31
0.0
  0
ARC
  5
522
100
AcDbEntity
  8
M01
100
AcDbCircle
 10
868.258914
 20
585.948764
 30
0.0
 40
2.0
100
AcDbArc
 50
180.0
 51
231.317813
  0
ARC
  5
523
100
AcDbEntity
  8
M01
100
AcDbCircle
 10
868.258914
 20
590.938064
 30
0.0
 40
2.0
100
AcDbArc
 50
128.682187
 51
180.0
  0
LINE
  5
524
100
AcDbEntity
  8
M01
100
AcDbLine
 10
867.008914
 20
594.443414
 30
0.0
 11
867.008914
 21
592.499314
 31
0.0
  0
LINE
  5
525
100
AcDbEntity
  8
M01
100
AcDbLine
 10
866.258914
 20
590.938064
 30
0.0
 11
866.258914
 21
585.948764
 31
0.0
  0
LINE
  5
526
100
AcDbEntity
  8
DIMS
 62
     4
100
AcDbLine
 10
865.758914
 20
254.584681
 30
0.0
 11
865.758914
 21
256.884681
 31
0.0
  0
LINE
  5
527
100
AcDbEntity
  8
DIMS
 62
     4
100
AcDbLine
 10
865.758914
 20
247.784681
 30
0.0
 11
865.758914
 21
245.484681
 31
0.0
  0
LINE
  5
528
100
AcDbEntity
  8
DIMS
 62
     4
100
AcDbLine
 10
869.158914
 20
251.184681
 30
0.0
 11
871.458914
 21
251.184681
 31
0.0
  0
LINE
  5
529
100
AcDbEntity
  8
DIMS
 62
     4
100
AcDbLine
 10
862.358914
 20
251.184681
 30
0.0
 11
860.058914
 21
251.184681
 31
0.0
  0
LINE
  5
52A
100
AcDbEntity
  8
DIMS
 62
     4
100
AcDbLine
 10
865.758914
 20
249.484681
 30
0.0
 11
865.758914
 21
252.884681
 31
0.0
  0
LINE
  5
52B
100
AcDbEntity
  8
DIMS
 62
     4
100
AcDbLine
 10
864.058914
 20
251.184681
 30
0.0
 11
867.458914
 21
251.184681
 31
0.0
  0
LINE
  5
52C
100
AcDbEntity
  8
DIMS
 62
     4
100
AcDbLine
 10
813.758914
 20
254.584681
 30
0.0
 11
813.758914
 21
256.884681
 31
0.0
  0
LINE
  5
52D
100
AcDbEntity
  8
DIMS
 62
     4
100
AcDbLine
 10
813.758914
 20
247.784681
 30
0.0
 11
813.758914
 21
245.484681
 31
0.0
  0
LINE
  5
52E
100
AcDbEntity
  8
DIMS
 62
     4
100
AcDbLine
 10
817.158914
 20
251.184681
 30
0.0
 11
819.458914
 21
251.184681
 31
0.0
  0
LINE
  5
52F
100
AcDbEntity
  8
DIMS
 62
     4
100
AcDbLine
 10
810.358914
 20
251.184681
 30
0.0
 11
808.058914
 21
251.184681
 31
0.0
  0
LINE
  5
530
100
AcDbEntity
  8
DIMS
 62
     4
100
AcDbLine
 10
813.758914
 20
249.484681
 30
0.0
 11
813.758914
 21
252.884681
 31
0.0
  0
LINE
  5
531
100
AcDbEntity
  8
DIMS
 62
     4
100
AcDbLine
 10
812.058914
 20
251.184681
 30
0.0
 11
815.458914
 21
251.184681
 31
0.0
  0
HATCH
  5
532
100
AcDbEntity
  8
HATCH
100
AcDbHatch
 10
0.0
 20
0.0
 30
0.0
210
0.0
220
0.0
230
1.0
  2
_U
 70
     0
 71
     1
 91
        2
 92
        7
 72
     1
 73
     1
 93
        2
 10
817.7589143034763
 20
251.1846808615501
 42
1.0
 10
809.7589143034763
 20
251.1846808615501
 42
1.0
 97
        1
330
538
 92
        7
 72
     1
 73
     1
 93
        2
 10
869.7589143034765
 20
251.1846808615501
 42
1.0
 10
861.7589143034765
 20
251.1846808615501
 42
1.0
 97
        1
330
537
 75
     0
 76
     0
 52
135.0
 41
0.8
 77
     0
 78
     1
 53
135.0
 43
21.678451
 44
-45.052148
 45
-0.5656854249492382
 46
-0.565685424949238
 79
     0
 47
0.095608
 98
        2
 10
813.892263
 20
250.884039
 10
852.916454
 20
252.031337
  0
LINE
  5
533
102
{ACAD_REACTORS
330
10F
102
}
100
AcDbEntity
  8
M01
100
AcDbLine
 10
865.758914
 20
247.184681
 30
0.0
 11
869.758914
 21
247.184681
 31
0.0
  0
LINE
  5
534
102
{ACAD_REACTORS
330
10F
102
}
100
AcDbEntity
  8
M01
100
AcDbLine
 10
865.758914
 20
255.184681
 30
0.0
 11
869.758914
 21
255.184681
 31
0.0
  0
LINE
  5
535
102
{ACAD_REACTORS
330
10F
102
}
100
AcDbEntity
  8
M01
100
AcDbLine
 10
813.758914
 20
247.184681
 30
0.0
 11
809.758914
 21
247.184681
 31
0.0
  0
LINE
  5
536
102
{ACAD_REACTORS
330
10F
102
}
100
AcDbEntity
  8
M01
100
AcDbLine
 10
813.758914
 20
255.184681
 30
0.0
 11
809.758914
 21
255.184681
 31
0.0
  0
CIRCLE
  5
537
102
{ACAD_REACTORS
330
532
330
10F
102
}
100
AcDbEntity
  8
M01
100
AcDbCircle
 10
865.758914
 20
251.184681
 30
0.0
 40
4.0
  0
CIRCLE
  5
538
102
{ACAD_REACTORS
330
532
330
10F
102
}
100
AcDbEntity
  8
M01
100
AcDbCircle
 10
813.758914
 20
251.184681
 30
0.0
 40
4.0
  0
DIMENSION
  5
539
100
AcDbEntity
  8
DIMS
100
AcDbDimension
  2
*D4
 10
775.082749
 20
552.943414
 30
0.0
 11
772.082749
 21
547.6577
 31
0.0
 12
21.678451
 22
-99.804292
 32
0.0
  1
%%c<> H7
  3
DIM1
100
AcDbAlignedDimension
 13
789.758914
 23
560.943414
 33
0.0
 14
789.758914
 24
552.943414
 34
0.0
 50
90.0
100
AcDbRotatedDimension
1001
ACAD
1000
DSTYLE
1002
{
1070
   144
1040
1.0
1002
}
  0
DIMENSION
  5
547
100
AcDbEntity
  8
DIMS
100
AcDbDimension
  2
*D3
 10
921.074031
 20
405.943414
 30
0.0
 11
918.074031
 21
385.943414
 31
0.0
 12
21.678451
 22
-87.304292
 32
0.0
  1
%%c<> H7
  3
DIM1
100
AcDbAlignedDimension
 13
884.758914
 23
365.943414
 33
0.0
 14
884.758914
 24
405.943414
 34
0.0
 50
90.0
100
AcDbRotatedDimension
1001
ACAD
1000
DSTYLE
1002
{
1070
   144
1040
1.0
1002
}
  0
DIMENSION
  5
554
100
AcDbEntity
  8
DIMS
100
AcDbDimension
  2
*D2
 10
802.758914
 20
204.060717
 30
0.0
 11
792.116057
 21
169.560717
 31
0.0
 12
21.678451
 22
-49.804292
 32
0.0
  1
7.0
  3
DIM1
100
AcDbAlignedDimension
 13
809.758914
 23
244.533414
 33
0.0
 14
802.758914
 24
235.533414
 34
0.0
100
AcDbRotatedDimension
1001
ACAD
1000
DSTYLE
1002
{
1070
   144
1040
1.0
1002
}
  0
DIMENSION
  5
562
100
AcDbEntity
  8
DIMS
100
AcDbDimension
  2
*D1
 10
876.758914
 20
204.060717
 30
0.0
 11
887.401771
 21
169.560717
 31
0.0
 12
21.678451
 22
-49.804292
 32
0.0
  1
7.0
  3
DIM1
100
AcDbAlignedDimension
 13
869.758914
 23
244.533414
 33
0.0
 14
876.758914
 24
224.020023
 34
0.0
100
AcDbRotatedDimension
1001
ACAD
1000
DSTYLE
1002
{
1070
   144
1040
1.0
1002
}
  0
DIMENSION
  5
570
100
AcDbEntity
  8
DIMS
100
AcDbDimension
  2
*D0
 10
869.758914
 20
204.060717
 30
0.0
 11
839.758914
 21
169.560717
 31
0.0
 12
21.678451
 22
-49.804292
 32
0.0
  3
DIM1
100
AcDbAlignedDimension
 13
809.758914
 23
244.533414
 33
0.0
 14
869.758914
 24
242.533414
 34
0.0
100
AcDbRotatedDimension
1001
ACAD
1000
DSTYLE
1002
{
1070
   144
1040
1.0
1002
}
  0
LINE
  5
57D
100
AcDbEntity
  8
M01
100
AcDbLine
 10
858.758914
 20
577.443414
 30
0.0
 11
868.758914
 21
577.443414
 31
0.0
  0
LINE
  5
57E
100
AcDbEntity
  8
M01
100
AcDbLine
 10
812.508914
 20
584.387514
 30
0.0
 11
819.008914
 21
584.387514
 31
0.0
  0
LINE
  5
57F
100
AcDbEntity
  8
M01
100
AcDbLine
 10
812.508914
 20
592.499314
 30
0.0
 11
819.008914
 21
592.499314
 31
0.0
  0
LINE
  5
580
100
AcDbEntity
  8
M01
100
AcDbLine
 10
812.508914
 20
584.387514
 30
0.0
 11
812.508914
 21
582.443414
 31
0.0
  0
ARC
  5
581
100
AcDbEntity
  8
M01
100
AcDbCircle
 10
811.258914
 20
585.948764
 30
0.0
 40
2.0
100
AcDbArc
 50
308.682187
 51
0.0
  0
ARC
  5
582
100
AcDbEntity
  8
M01
100
AcDbCircle
 10
811.258914
 20
590.938064
 30
0.0
 40
2.0
100
AcDbArc
 50
0.0
 51
51.317813
  0
LINE
  5
583
100
AcDbEntity
  8
M01
100
AcDbLine
 10
812.508914
 20
594.443414
 30
0.0
 11
812.508914
 21
592.499314
 31
0.0
  0
LINE
  5
584
100
AcDbEntity
  8
M01
100
AcDbLine
 10
813.258914
 20
590.938064
 30
0.0
 11
813.258914
 21
585.948764
 31
0.0
  0
LINE
  5
585
100
AcDbEntity
  8
M01
100
AcDbLine
 10
819.008914
 20
584.387514
 30
0.0
 11
819.008914
 21
582.443414
 31
0.0
  0
ARC
  5
586
100
AcDbEntity
  8
M01
100
AcDbCircle
 10
820.258914
 20
585.948764
 30
0.0
 40
2.0
100
AcDbArc
 50
180.0
 51
231.317813
  0
ARC
  5
587
100
AcDbEntity
  8
M01
100
AcDbCircle
 10
820.258914
 20
590.938064
 30
0.0
 40
2.0
100
AcDbArc
 50
128.682187
 51
180.0
  0
LINE
  5
588
100
AcDbEntity
  8
M01
100
AcDbLine
 10
819.008914
 20
594.443414
 30
0.0
 11
819.008914
 21
592.499314
 31
0.0
  0
LINE
  5
589
100
AcDbEntity
  8
M01
100
AcDbLine
 10
818.258914
 20
590.938064
 30
0.0
 11
818.258914
 21
585.948764
 31
0.0
  0
LINE
  5
58A
100
AcDbEntity
  8
M01
100
AcDbLine
 10
810.758914
 20
577.443414
 30
0.0
 11
820.758914
 21
577.443414
 31
0.0
  0
LINE
  5
58B
100
AcDbEntity
  8
M01
100
AcDbLine
 10
868.758914
 20
582.443414
 30
0.0
 11
868.758914
 21
561.443414
 31
0.0
  0
LINE
  5
58C
100
AcDbEntity
  8
M01
100
AcDbLine
 10
858.758914
 20
582.443414
 30
0.0
 11
858.758914
 21
562.443414
 31
0.0
  0
LINE
  5
58D
100
AcDbEntity
  8
M01
100
AcDbLine
 10
810.758914
 20
582.443414
 30
0.0
 11
810.758914
 21
561.443414
 31
0.0
  0
LINE
  5
58E
100
AcDbEntity
  8
M01
100
AcDbLine
 10
820.758914
 20
582.443414
 30
0.0
 11
820.758914
 21
562.443414
 31
0.0
  0
LINE
  5
58F
100
AcDbEntity
  8
M01
100
AcDbLine
 10
860.727825
 20
604.343414
 30
0.0
 11
866.790003
 21
604.343414
 31
0.0
  0
ARC
  5
590
100
AcDbEntity
  8
M01
100
AcDbCircle
 10
866.790003
 20
602.494109
 30
0.0
 40
1.150694
100
AcDbArc
 50
208.592423
 51
331.407577
  0
ARC
  5
591
100
AcDbEntity
  8
M01
100
AcDbCircle
 10
863.758914
 20
605.046192
 30
0.0
 40
3.702778
100
AcDbArc
 50
236.92527
 51
303.07473
  0
ARC
  5
592
100
AcDbEntity
  8
M01
100
AcDbCircle
 10
860.727825
 20
602.494109
 30
0.0
 40
1.150694
100
AcDbArc
 50
208.592423
 51
331.407577
  0
ARC
  5
593
100
AcDbEntity
  8
M01
100
AcDbCircle
 10
866.790003
 20
603.19272
 30
0.0
 40
1.150694
100
AcDbArc
 50
28.592423
 51
151.407577
  0
ARC
  5
594
100
AcDbEntity
  8
M01
100
AcDbCircle
 10
863.758914
 20
600.640636
 30
0.0
 40
3.702778
100
AcDbArc
 50
56.92527
 51
123.07473
  0
LINE
  5
595
100
AcDbEntity
  8
M01
100
AcDbLine
 10
865.77964
 20
603.743414
 30
0.0
 11
865.77964
 21
601.943414
 31
0.0
  0
LINE
  5
596
100
AcDbEntity
  8
M01
100
AcDbLine
 10
867.800366
 20
603.743414
 30
0.0
 11
867.800366
 21
601.943414
 31
0.0
  0
ARC
  5
597
100
AcDbEntity
  8
M01
100
AcDbCircle
 10
860.727825
 20
603.19272
 30
0.0
 40
1.150694
100
AcDbArc
 50
28.592423
 51
151.407577
  0
LINE
  5
598
100
AcDbEntity
  8
M01
100
AcDbLine
 10
861.738188
 20
603.743414
 30
0.0
 11
861.738188
 21
601.943414
 31
0.0
  0
LINE
  5
599
100
AcDbEntity
  8
M01
100
AcDbLine
 10
859.717462
 20
603.743414
 30
0.0
 11
859.717462
 21
601.943414
 31
0.0
  0
LINE
  5
59A
100
AcDbEntity
  8
M01
100
AcDbLine
 10
868.758914
 20
599.043414
 30
0.0
 11
868.758914
 21
600.543414
 31
0.0
  0
LINE
  5
59B
100
AcDbEntity
  8
M01
100
AcDbLine
 10
858.758914
 20
599.043414
 30
0.0
 11
858.758914
 21
600.543414
 31
0.0
  0
LINE
  5
59C
100
AcDbEntity
  8
M01
100
AcDbLine
 10
868.258914
 20
600.543414
 30
0.0
 11
868.258914
 21
601.343414
 31
0.0
  0
LINE
  5
59D
100
AcDbEntity
  8
M01
100
AcDbLine
 10
859.258914
 20
600.543414
 30
0.0
 11
859.258914
 21
601.343414
 31
0.0
  0
LINE
  5
59E
100
AcDbEntity
  8
M01
100
AcDbLine
 10
859.258914
 20
601.343414
 30
0.0
 11
868.258914
 21
601.343414
 31
0.0
  0
LINE
  5
59F
100
AcDbEntity
  8
M01
100
AcDbLine
 10
858.758914
 20
600.543414
 30
0.0
 11
868.758914
 21
600.543414
 31
0.0
  0
LINE
  5
5A0
100
AcDbEntity
  8
M01
100
AcDbLine
 10
868.258914
 20
598.243414
 30
0.0
 11
868.258914
 21
599.043414
 31
0.0
  0
LINE
  5
5A1
100
AcDbEntity
  8
M01
100
AcDbLine
 10
859.258914
 20
598.243414
 30
0.0
 11
859.258914
 21
599.043414
 31
0.0
  0
LINE
  5
5A2
100
AcDbEntity
  8
M01
100
AcDbLine
 10
853.758914
 20
599.043414
 30
0.0
 11
868.758914
 21
599.043414
 31
0.0
  0
ARC
  5
5A3
100
AcDbEntity
  8
M01
100
AcDbCircle
 10
866.790003
 20
596.394109
 30
0.0
 40
1.150694
100
AcDbArc
 50
208.592423
 51
331.407577
  0
ARC
  5
5A4
100
AcDbEntity
  8
M01
100
AcDbCircle
 10
863.758914
 20
598.946192
 30
0.0
 40
3.702778
100
AcDbArc
 50
236.92527
 51
303.07473
  0
ARC
  5
5A5
100
AcDbEntity
  8
M01
100
AcDbCircle
 10
860.727825
 20
596.394109
 30
0.0
 40
1.150694
100
AcDbArc
 50
208.592423
 51
331.407577
  0
ARC
  5
5A6
100
AcDbEntity
  8
M01
100
AcDbCircle
 10
866.790003
 20
597.09272
 30
0.0
 40
1.150694
100
AcDbArc
 50
28.592423
 51
151.407577
  0
ARC
  5
5A7
100
AcDbEntity
  8
M01
100
AcDbCircle
 10
863.758914
 20
594.540636
 30
0.0
 40
3.702778
100
AcDbArc
 50
56.92527
 51
123.07473
  0
LINE
  5
5A8
100
AcDbEntity
  8
M01
100
AcDbLine
 10
865.77964
 20
597.643414
 30
0.0
 11
865.77964
 21
595.843414
 31
0.0
  0
LINE
  5
5A9
100
AcDbEntity
  8
M01
100
AcDbLine
 10
867.800366
 20
597.643414
 30
0.0
 11
867.800366
 21
595.843414
 31
0.0
  0
ARC
  5
5AA
100
AcDbEntity
  8
M01
100
AcDbCircle
 10
860.727825
 20
597.09272
 30
0.0
 40
1.150694
100
AcDbArc
 50
28.592423
 51
151.407577
  0
LINE
  5
5AB
100
AcDbEntity
  8
M01
100
AcDbLine
 10
861.738188
 20
597.643414
 30
0.0
 11
861.738188
 21
595.843414
 31
0.0
  0
LINE
  5
5AC
100
AcDbEntity
  8
M01
100
AcDbLine
 10
859.717462
 20
597.643414
 30
0.0
 11
859.717462
 21
595.843414
 31
0.0
  0
LINE
  5
5AD
100
AcDbEntity
  8
M01
100
AcDbLine
 10
859.258914
 20
598.243414
 30
0.0
 11
868.258914
 21
598.243414
 31
0.0
  0
LINE
  5
5AE
100
AcDbEntity
  8
M01
100
AcDbLine
 10
859.258914
 20
595.243414
 30
0.0
 11
868.258914
 21
595.243414
 31
0.0
  0
LINE
  5
5AF
100
AcDbEntity
  8
M01
100
AcDbLine
 10
859.258914
 20
594.443414
 30
0.0
 11
868.258914
 21
594.443414
 31
0.0
  0
LINE
  5
5B0
100
AcDbEntity
  8
M01
100
AcDbLine
 10
865.258914
 20
607.443414
 30
0.0
 11
865.758914
 21
606.943414
 31
0.0
  0
LINE
  5
5B1
100
AcDbEntity
  8
M01
100
AcDbLine
 10
861.758914
 20
606.943414
 30
0.0
 11
862.258914
 21
607.443414
 31
0.0
  0
LINE
  5
5B2
100
AcDbEntity
  8
M01
100
AcDbLine
 10
861.758914
 20
606.943414
 30
0.0
 11
865.758914
 21
606.943414
 31
0.0
  0
LINE
  5
5B3
100
AcDbEntity
  8
M01
100
AcDbLine
 10
865.258914
 20
607.443414
 30
0.0
 11
865.258914
 21
604.343414
 31
0.0
  0
LINE
  5
5B4
100
AcDbEntity
  8
M01
100
AcDbLine
 10
862.258914
 20
607.443414
 30
0.0
 11
862.258914
 21
604.343414
 31
0.0
  0
LINE
  5
5B5
100
AcDbEntity
  8
M01
100
AcDbLine
 10
861.758914
 20
606.943414
 30
0.0
 11
861.758914
 21
604.343414
 31
0.0
  0
LINE
  5
5B6
100
AcDbEntity
  8
M01
100
AcDbLine
 10
865.758914
 20
606.943414
 30
0.0
 11
865.758914
 21
604.343414
 31
0.0
  0
LINE
  5
5B7
100
AcDbEntity
  8
M01
100
AcDbLine
 10
862.258914
 20
607.443414
 30
0.0
 11
865.258914
 21
607.443414
 31
0.0
  0
LINE
  5
5B8
100
AcDbEntity
  8
M01
100
AcDbLine
 10
858.758914
 20
582.443414
 30
0.0
 11
868.758914
 21
582.443414
 31
0.0
  0
LINE
  5
5B9
100
AcDbEntity
  8
M01
100
AcDbLine
 10
868.258914
 20
595.243414
 30
0.0
 11
868.258914
 21
594.443414
 31
0.0
  0
LINE
  5
5BA
100
AcDbEntity
  8
M01
100
AcDbLine
 10
859.258914
 20
595.243414
 30
0.0
 11
859.258914
 21
594.443414
 31
0.0
  0
LINE
  5
5BB
100
AcDbEntity
  8
CENTRE
100
AcDbLine
 10
863.758914
 20
613.604303
 30
0.0
 11
863.758914
 21
550.010872
 31
0.0
  0
LINE
  5
5BC
100
AcDbEntity
  8
M01
100
AcDbLine
 10
818.790003
 20
604.343414
 30
0.0
 11
812.727825
 21
604.343414
 31
0.0
  0
ARC
  5
5BD
100
AcDbEntity
  8
M01
100
AcDbCircle
 10
812.727825
 20
602.494109
 30
0.0
 40
1.150694
100
AcDbArc
 50
208.592423
 51
331.407577
  0
ARC
  5
5BE
100
AcDbEntity
  8
M01
100
AcDbCircle
 10
815.758914
 20
605.046192
 30
0.0
 40
3.702778
100
AcDbArc
 50
236.92527
 51
303.07473
  0
ARC
  5
5BF
100
AcDbEntity
  8
M01
100
AcDbCircle
 10
818.790003
 20
602.494109
 30
0.0
 40
1.150694
100
AcDbArc
 50
208.592423
 51
331.407577
  0
ARC
  5
5C0
100
AcDbEntity
  8
M01
100
AcDbCircle
 10
812.727825
 20
603.19272
 30
0.0
 40
1.150694
100
AcDbArc
 50
28.592423
 51
151.407577
  0
ARC
  5
5C1
100
AcDbEntity
  8
M01
100
AcDbCircle
 10
815.758914
 20
600.640636
 30
0.0
 40
3.702778
100
AcDbArc
 50
56.92527
 51
123.07473
  0
LINE
  5
5C2
100
AcDbEntity
  8
M01
100
AcDbLine
 10
813.738188
 20
603.743414
 30
0.0
 11
813.738188
 21
601.943414
 31
0.0
  0
LINE
  5
5C3
100
AcDbEntity
  8
M01
100
AcDbLine
 10
811.717462
 20
603.743414
 30
0.0
 11
811.717462
 21
601.943414
 31
0.0
  0
ARC
  5
5C4
100
AcDbEntity
  8
M01
100
AcDbCircle
 10
818.790003
 20
603.19272
 30
0.0
 40
1.150694
100
AcDbArc
 50
28.592423
 51
151.407577
  0
LINE
  5
5C5
100
AcDbEntity
  8
M01
100
AcDbLine
 10
817.77964
 20
603.743414
 30
0.0
 11
817.77964
 21
601.943414
 31
0.0
  0
LINE
  5
5C6
100
AcDbEntity
  8
M01
100
AcDbLine
 10
819.800366
 20
603.743414
 30
0.0
 11
819.800366
 21
601.943414
 31
0.0
  0
LINE
  5
5C7
100
AcDbEntity
  8
M01
100
AcDbLine
 10
810.758914
 20
599.043414
 30
0.0
 11
810.758914
 21
600.543414
 31
0.0
  0
LINE
  5
5C8
100
AcDbEntity
  8
M01
100
AcDbLine
 10
811.258914
 20
600.543414
 30
0.0
 11
811.258914
 21
601.343414
 31
0.0
  0
LINE
  5
5C9
100
AcDbEntity
  8
M01
100
AcDbLine
 10
820.258914
 20
600.543414
 30
0.0
 11
820.258914
 21
601.343414
 31
0.0
  0
LINE
  5
5CA
100
AcDbEntity
  8
M01
100
AcDbLine
 10
820.258914
 20
601.343414
 30
0.0
 11
811.258914
 21
601.343414
 31
0.0
  0
LINE
  5
5CB
100
AcDbEntity
  8
M01
100
AcDbLine
 10
820.758914
 20
600.543414
 30
0.0
 11
810.758914
 21
600.543414
 31
0.0
  0
LINE
  5
5CC
100
AcDbEntity
  8
M01
100
AcDbLine
 10
811.258914
 20
598.243414
 30
0.0
 11
811.258914
 21
599.043414
 31
0.0
  0
LINE
  5
5CD
100
AcDbEntity
  8
M01
100
AcDbLine
 10
820.258914
 20
598.243414
 30
0.0
 11
820.258914
 21
599.043414
 31
0.0
  0
ARC
  5
5CE
100
AcDbEntity
  8
M01
100
AcDbCircle
 10
812.727825
 20
596.394109
 30
0.0
 40
1.150694
100
AcDbArc
 50
208.592423
 51
331.407577
  0
ARC
  5
5CF
100
AcDbEntity
  8
M01
100
AcDbCircle
 10
815.758914
 20
598.946192
 30
0.0
 40
3.702778
100
AcDbArc
 50
236.92527
 51
303.07473
  0
ARC
  5
5D0
100
AcDbEntity
  8
M01
100
AcDbCircle
 10
818.790003
 20
596.394109
 30
0.0
 40
1.150694
100
AcDbArc
 50
208.592423
 51
331.407577
  0
ARC
  5
5D1
100
AcDbEntity
  8
M01
100
AcDbCircle
 10
812.727825
 20
597.09272
 30
0.0
 40
1.150694
100
AcDbArc
 50
28.592423
 51
151.407577
  0
ARC
  5
5D2
100
AcDbEntity
  8
M01
100
AcDbCircle
 10
815.758914
 20
594.540636
 30
0.0
 40
3.702778
100
AcDbArc
 50
56.92527
 51
123.07473
  0
LINE
  5
5D3
100
AcDbEntity
  8
M01
100
AcDbLine
 10
813.738188
 20
597.643414
 30
0.0
 11
813.738188
 21
595.843414
 31
0.0
  0
LINE
  5
5D4
100
AcDbEntity
  8
M01
100
AcDbLine
 10
811.717462
 20
597.643414
 30
0.0
 11
811.717462
 21
595.843414
 31
0.0
  0
ARC
  5
5D5
100
AcDbEntity
  8
M01
100
AcDbCircle
 10
818.790003
 20
597.09272
 30
0.0
 40
1.150694
100
AcDbArc
 50
28.592423
 51
151.407577
  0
LINE
  5
5D6
100
AcDbEntity
  8
M01
100
AcDbLine
 10
817.77964
 20
597.643414
 30
0.0
 11
817.77964
 21
595.843414
 31
0.0
  0
LINE
  5
5D7
100
AcDbEntity
  8
M01
100
AcDbLine
 10
819.800366
 20
597.643414
 30
0.0
 11
819.800366
 21
595.843414
 31
0.0
  0
LINE
  5
5D8
100
AcDbEntity
  8
M01
100
AcDbLine
 10
820.258914
 20
598.243414
 30
0.0
 11
811.258914
 21
598.243414
 31
0.0
  0
LINE
  5
5D9
100
AcDbEntity
  8
M01
100
AcDbLine
 10
820.258914
 20
595.243414
 30
0.0
 11
811.258914
 21
595.243414
 31
0.0
  0
LINE
  5
5DA
100
AcDbEntity
  8
M01
100
AcDbLine
 10
820.258914
 20
594.443414
 30
0.0
 11
811.258914
 21
594.443414
 31
0.0
  0
LINE
  5
5DB
100
AcDbEntity
  8
M01
100
AcDbLine
 10
814.258914
 20
607.443414
 30
0.0
 11
813.758914
 21
606.943414
 31
0.0
  0
LINE
  5
5DC
100
AcDbEntity
  8
M01
100
AcDbLine
 10
817.758914
 20
606.943414
 30
0.0
 11
817.258914
 21
607.443414
 31
0.0
  0
LINE
  5
5DD
100
AcDbEntity
  8
M01
100
AcDbLine
 10
817.758914
 20
606.943414
 30
0.0
 11
813.758914
 21
606.943414
 31
0.0
  0
LINE
  5
5DE
100
AcDbEntity
  8
M01
100
AcDbLine
 10
814.258914
 20
607.443414
 30
0.0
 11
814.258914
 21
604.343414
 31
0.0
  0
LINE
  5
5DF
100
AcDbEntity
  8
M01
100
AcDbLine
 10
817.258914
 20
607.443414
 30
0.0
 11
817.258914
 21
604.343414
 31
0.0
  0
LINE
  5
5E0
100
AcDbEntity
  8
M01
100
AcDbLine
 10
817.758914
 20
606.943414
 30
0.0
 11
817.758914
 21
604.343414
 31
0.0
  0
LINE
  5
5E1
100
AcDbEntity
  8
M01
100
AcDbLine
 10
813.758914
 20
606.943414
 30
0.0
 11
813.758914
 21
604.343414
 31
0.0
  0
LINE
  5
5E2
100
AcDbEntity
  8
M01
100
AcDbLine
 10
817.258914
 20
607.443414
 30
0.0
 11
814.258914
 21
607.443414
 31
0.0
  0
LINE
  5
5E3
100
AcDbEntity
  8
M01
100
AcDbLine
 10
820.758914
 20
582.443414
 30
0.0
 11
810.758914
 21
582.443414
 31
0.0
  0
LINE
  5
5E4
100
AcDbEntity
  8
M01
100
AcDbLine
 10
811.258914
 20
595.243414
 30
0.0
 11
811.258914
 21
594.443414
 31
0.0
  0
LINE
  5
5E5
100
AcDbEntity
  8
M01
100
AcDbLine
 10
820.258914
 20
595.243414
 30
0.0
 11
820.258914
 21
594.443414
 31
0.0
  0
LINE
  5
5E6
100
AcDbEntity
  8
CENTRE
100
AcDbLine
 10
815.758914
 20
613.604303
 30
0.0
 11
815.758914
 21
550.010872
 31
0.0
  0
LINE
  5
5E7
100
AcDbEntity
  8
M04
100
AcDbLine
 10
848.758914
 20
622.443414
 30
0.0
 11
858.758914
 21
632.443414
 31
0.0
  0
LINE
  5
5E8
100
AcDbEntity
  8
M04
100
AcDbLine
 10
858.758914
 20
643.114892
 30
0.0
 11
858.758914
 21
632.443414
 31
0.0
  0
LINE
  5
5E9
100
AcDbEntity
  8
M04
100
AcDbLine
 10
802.758914
 20
622.443414
 30
0.0
 11
876.758914
 21
622.443414
 31
0.0
  0
LINE
  5
5EA
102
{ACAD_REACTORS
330
110
102
}
100
AcDbEntity
  8
M01
100
AcDbLine
 10
848.758914
 20
381.943414
 30
0.0
 11
859.758914
 21
381.943414
 31
0.0
  0
LINE
  5
5EB
102
{ACAD_REACTORS
330
111
102
}
100
AcDbEntity
  8
M01
100
AcDbLine
 10
848.758914
 20
389.943414
 30
0.0
 11
859.758914
 21
389.943414
 31
0.0
  0
LINE
  5
5EC
100
AcDbEntity
  8
M04
100
AcDbLine
 10
787.449513
 20
556.943414
 30
0.0
 11
789.758914
 21
560.943414
 31
0.0
  0
LINE
  5
5ED
100
AcDbEntity
  8
M04
100
AcDbLine
 10
789.758914
 20
552.943414
 30
0.0
 11
787.449513
 21
556.943414
 31
0.0
  0
LINE
  5
5EE
100
AcDbEntity
  8
M04
100
AcDbLine
 10
792.758914
 20
552.943414
 30
0.0
 11
789.758914
 21
552.943414
 31
0.0
  0
LINE
  5
5EF
100
AcDbEntity
  8
M04
100
AcDbLine
 10
789.758914
 20
560.943414
 30
0.0
 11
789.758914
 21
552.943414
 31
0.0
  0
LINE
  5
5F0
100
AcDbEntity
  8
M04
100
AcDbLine
 10
792.758914
 20
560.943414
 30
0.0
 11
789.758914
 21
560.943414
 31
0.0
  0
ARC
  5
5F1
100
AcDbEntity
  8
M05
100
AcDbCircle
 10
802.096619
 20
556.943414
 30
0.0
 40
10.837705
100
AcDbArc
 50
161.372238
 51
198.627762
  0
LINE
  5
5F2
100
AcDbEntity
  8
M05
100
AcDbLine
 10
792.758914
 20
552.943414
 30
0.0
 11
791.826661
 21
553.481651
 31
0.0
  0
LINE
  5
5F3
100
AcDbEntity
  8
M05
100
AcDbLine
 10
791.826661
 20
560.405177
 30
0.0
 11
791.826661
 21
553.481651
 31
0.0
  0
LINE
  5
5F4
100
AcDbEntity
  8
M05
100
AcDbLine
 10
792.758914
 20
560.943414
 30
0.0
 11
791.826661
 21
560.405177
 31
0.0
  0
LINE
  5
5F5
100
AcDbEntity
  8
M05
100
AcDbLine
 10
792.758914
 20
560.943414
 30
0.0
 11
792.758914
 21
552.943414
 31
0.0
  0
LINE
  5
5F6
100
AcDbEntity
  8
M04
100
AcDbLine
 10
802.758914
 20
552.943414
 30
0.0
 11
802.758914
 21
395.443414
 31
0.0
  0
LINE
  5
5F7
100
AcDbEntity
  8
M04
100
AcDbLine
 10
802.258914
 20
552.943414
 30
0.0
 11
802.758914
 21
552.443414
 31
0.0
  0
LINE
  5
5F8
100
AcDbEntity
  8
M04
100
AcDbLine
 10
802.258914
 20
560.943414
 30
0.0
 11
802.758914
 21
561.443414
 31
0.0
  0
ARC
  5
5F9
100
AcDbEntity
  8
M05
100
AcDbCircle
 10
801.625581
 20
556.943414
 30
0.0
 40
13.633333
100
AcDbArc
 50
342.938469
 51
17.061531
  0
LINE
  5
5FA
100
AcDbEntity
  8
M05
100
AcDbLine
 10
814.658914
 20
560.943414
 30
0.0
 11
814.658914
 21
552.943414
 31
0.0
  0
LINE
  5
5FB
100
AcDbEntity
  8
M05
100
AcDbLine
 10
792.758914
 20
552.943414
 30
0.0
 11
814.658914
 21
552.943414
 31
0.0
  0
LINE
  5
5FC
100
AcDbEntity
  8
M05
100
AcDbLine
 10
792.758914
 20
560.943414
 30
0.0
 11
814.658914
 21
560.943414
 31
0.0
  0
LINE
  5
5FD
102
{ACAD_REACTORS
330
111
330
110
102
}
100
AcDbEntity
  8
CENTRE
100
AcDbLine
 10
786.933992
 20
385.943414
 30
0.0
 11
909.650954
 21
385.943414
 31
0.0
  0
LINE
  5
5FE
100
AcDbEntity
  8
CENTRE
100
AcDbLine
 10
782.412796
 20
556.943414
 30
0.0
 11
820.502496
 21
556.943414
 31
0.0
  0
LINE
  5
5FF
100
AcDbEntity
  8
M04
100
AcDbLine
 10
876.758914
 20
643.114892
 30
0.0
 11
876.758914
 21
501.443414
 31
0.0
  0
LINE
  5
600
100
AcDbEntity
  8
M04
100
AcDbLine
 10
802.758914
 20
235.533414
 30
0.0
 11
876.758914
 21
235.533414
 31
0.0
  0
LINE
  5
601
100
AcDbEntity
  8
M04
100
AcDbLine
 10
802.758914
 20
622.443414
 30
0.0
 11
802.758914
 21
560.943414
 31
0.0
  0
LINE
  5
602
102
{ACAD_REACTORS
330
118
102
}
100
AcDbEntity
  8
M02
100
AcDbLine
 10
809.758914
 20
550.443414
 30
0.0
 11
806.758914
 21
550.443414
 31
0.0
  0
LINE
  5
603
100
AcDbEntity
  8
M01
100
AcDbLine
 10
809.758914
 20
550.443414
 30
0.0
 11
815.758914
 21
550.443414
 31
0.0
  0
LINE
  5
604
100
AcDbEntity
  8
M01
100
AcDbLine
 10
815.758914
 20
562.443414
 30
0.0
 11
815.758914
 21
550.443414
 31
0.0
  0
LINE
  5
605
102
{ACAD_REACTORS
330
117
102
}
100
AcDbEntity
  8
M02
100
AcDbLine
 10
869.758914
 20
560.443414
 30
0.0
 11
872.758914
 21
560.443414
 31
0.0
  0
LINE
  5
606
102
{ACAD_REACTORS
330
114
102
}
100
AcDbEntity
  8
M02
100
AcDbLine
 10
809.758914
 20
244.533414
 30
0.0
 11
806.758914
 21
244.533414
 31
0.0
  0
LINE
  5
607
102
{ACAD_REACTORS
330
117
102
}
100
AcDbEntity
  8
M02
100
AcDbLine
 10
872.758914
 20
560.443414
 30
0.0
 11
872.758914
 21
512.443414
 31
0.0
  0
LINE
  5
608
102
{ACAD_REACTORS
330
118
330
116
102
}
100
AcDbEntity
  8
M02
100
AcDbLine
 10
806.758914
 20
552.943414
 30
0.0
 11
806.758914
 21
395.443414
 31
0.0
  0
LINE
  5
609
102
{ACAD_REACTORS
330
10F
102
}
100
AcDbEntity
  8
M01
100
AcDbLine
 10
869.758914
 20
244.533414
 30
0.0
 11
867.758914
 21
242.533414
 31
0.0
  0
LINE
  5
60A
100
AcDbEntity
  8
M01
100
AcDbLine
 10
867.758914
 20
562.443414
 30
0.0
 11
869.758914
 21
560.443414
 31
0.0
  0
LINE
  5
60B
100
AcDbEntity
  8
M01
100
AcDbLine
 10
810.758914
 20
561.443414
 30
0.0
 11
811.758914
 21
562.443414
 31
0.0
  0
LINE
  5
60C
102
{ACAD_REACTORS
330
10F
102
}
100
AcDbEntity
  8
M01
100
AcDbLine
 10
811.758914
 20
242.533414
 30
0.0
 11
809.758914
 21
244.533414
 31
0.0
  0
LINE
  5
60D
102
{ACAD_REACTORS
330
117
330
111
330
46
102
}
100
AcDbEntity
  8
M01
100
AcDbLine
 10
869.758914
 20
560.443414
 30
0.0
 11
869.758914
 21
414.943414
 31
0.0
  0
LINE
  5
60E
102
{ACAD_REACTORS
330
10F
102
}
100
AcDbEntity
  8
M01
100
AcDbLine
 10
811.758914
 20
242.533414
 30
0.0
 11
867.758914
 21
242.533414
 31
0.0
  0
LINE
  5
60F
100
AcDbEntity
  8
M01
100
AcDbLine
 10
811.758914
 20
562.443414
 30
0.0
 11
867.758914
 21
562.443414
 31
0.0
  0
LINE
  5
610
102
{ACAD_REACTORS
330
118
330
116
330
111
102
}
100
AcDbEntity
  8
M01
100
AcDbLine
 10
809.758914
 20
552.943414
 30
0.0
 11
809.758914
 21
395.443414
 31
0.0
  0
LINE
  5
611
100
AcDbEntity
  8
CENTRE
100
AcDbLine
 10
569.544627
 20
299.629706
 30
0.0
 11
569.544627
 21
484.757123
 31
0.0
  0
ENDSEC
  0
SECTION
  2
OBJECTS
  0
DICTIONARY
  5
1C
100
AcDbDictionary
  3
ACAD_GROUP
350
1A
  3
ACAD_MLINESTYLE
350
1B
  0
DICTIONARY
  5
3
100
AcDbDictionary
280
     1
  3
ACAD_SORTENTS
360
4
  0
DICTIONARY
  5
1A
102
{ACAD_REACTORS
330
1C
102
}
100
AcDbDictionary
  0
DICTIONARY
  5
1B
102
{ACAD_REACTORS
330
1C
102
}
100
AcDbDictionary
  3
STANDARD
350
1E
  0
SORTENTSTABLE
  5
4
102
{ACAD_REACTORS
330
3
102
}
100
AcDbSortentsTable
330
2
  0
MLINESTYLE
  5
1E
102
{ACAD_REACTORS
330
1B
102
}
100
AcDbMlineStyle
  2
STANDARD
 70
     0
  3

 62
   256
 51
90.0
 52
90.0
 71
     2
 49
0.5
 62
   256
  6
BYLAYER
 49
-0.5
 62
   256
  6
BYLAYER
  0
ENDSEC
  0
EOF
