  0
SECTION
  2
HEADER
  9
$ACADVER
  1
AC1014
  9
$ACADMAINTVER
 70
     9
  9
$DWGCODEPAGE
  3
ANSI_1252
  9
$INSBASE
 10
0.0
 20
0.0
 30
0.0
  9
$EXTMIN
 10
173.782646
 20
74.128736
 30
-0.222949
  9
$EXTMAX
 10
1173.151693
 20
726.150925
 30
0.0
  9
$LIMMIN
 10
0.0
 20
0.0
  9
$LIMMAX
 10
1189.0
 20
841.0
  9
$ORTHOMODE
 70
     1
  9
$REGENMODE
 70
     1
  9
$FILLMODE
 70
     1
  9
$QTEXTMODE
 70
     0
  9
$MIRRTEXT
 70
     1
  9
$DRAGMODE
 70
     2
  9
$LTSCALE
 40
8.0
  9
$OSMODE
 70
     0
  9
$ATTMODE
 70
     1
  9
$TEXTSIZE
 40
3.0
  9
$TRACEWID
 40
10.0
  9
$TEXTSTYLE
  7
STANDARD
  9
$CLAYER
  8
HATCH
  9
$CELTYPE
  6
BYLAYER
  9
$CECOLOR
 62
   256
  9
$CELTSCALE
 40
1.0
  9
$DELOBJ
 70
     1
  9
$DISPSILH
 70
     0
  9
$DIMSCALE
 40
1.0
  9
$DIMASZ
 40
3.0
  9
$DIMEXO
 40
1.0
  9
$DIMDLI
 40
10.0
  9
$DIMRND
 40
0.01
  9
$DIMDLE
 40
1.25
  9
$DIMEXE
 40
2.5
  9
$DIMTP
 40
0.05
  9
$DIMTM
 40
0.0
  9
$DIMTXT
 40
3.0
  9
$DIMCEN
 40
-1.7
  9
$DIMTSZ
 40
0.0
  9
$DIMTOL
 70
     0
  9
$DIMLIM
 70
     0
  9
$DIMTIH
 70
     0
  9
$DIMTOH
 70
     0
  9
$DIMSE1
 70
     0
  9
$DIMSE2
 70
     0
  9
$DIMTAD
 70
     3
  9
$DIMZIN
 70
     1
  9
$DIMBLK
  1

  9
$DIMASO
 70
     1
  9
$DIMSHO
 70
     0
  9
$DIMPOST
  1

  9
$DIMAPOST
  1

  9
$DIMALT
 70
     0
  9
$DIMALTD
 70
     2
  9
$DIMALTF
 40
0.039
  9
$DIMLFAC
 40
1.0
  9
$DIMTOFL
 70
     0
  9
$DIMTVP
 40
1.5
  9
$DIMTIX
 70
     0
  9
$DIMSOXD
 70
     0
  9
$DIMSAH
 70
     0
  9
$DIMBLK1
  1

  9
$DIMBLK2
  1

  9
$DIMSTYLE
  2
DIM1
  9
$DIMCLRD
 70
     4
  9
$DIMCLRE
 70
     4
  9
$DIMCLRT
 70
     2
  9
$DIMTFAC
 40
0.7
  9
$DIMGAP
 40
1.5
  9
$DIMJUST
 70
     0
  9
$DIMSD1
 70
     0
  9
$DIMSD2
 70
     0
  9
$DIMTOLJ
 70
     1
  9
$DIMTZIN
 70
     1
  9
$DIMALTZ
 70
     1
  9
$DIMALTTZ
 70
     1
  9
$DIMFIT
 70
     0
  9
$DIMUPT
 70
     0
  9
$DIMUNIT
 70
     2
  9
$DIMDEC
 70
     2
  9
$DIMTDEC
 70
     2
  9
$DIMALTU
 70
     2
  9
$DIMALTTD
 70
     2
  9
$DIMTXSTY
  7
STANDARD
  9
$DIMAUNIT
 70
     0
  9
$LUNITS
 70
     2
  9
$LUPREC
 70
     2
  9
$SKETCHINC
 40
1.0
  9
$FILLETRAD
 40
15.0
  9
$AUNITS
 70
     0
  9
$AUPREC
 70
     3
  9
$MENU
  1
ACAD
  9
$ELEVATION
 40
0.0
  9
$PELEVATION
 40
0.0
  9
$THICKNESS
 40
0.0
  9
$LIMCHECK
 70
     0
  9
$BLIPMODE
 70
     1
  9
$CHAMFERA
 40
5.0
  9
$CHAMFERB
 40
5.0
  9
$CHAMFERC
 40
0.0
  9
$CHAMFERD
 40
0.0
  9
$SKPOLY
 70
     1
  9
$TDCREATE
 40
2449993.725698611
  9
$TDUPDATE
 40
2452214.342467326
  9
$TDINDWG
 40
1.4855063310
  9
$TDUSRTIMER
 40
1.4855063310
  9
$USRTIMER
 70
     1
  9
$ANGBASE
 50
0.0
  9
$ANGDIR
 70
     0
  9
$PDMODE
 70
     3
  9
$PDSIZE
 40
0.0
  9
$PLINEWID
 40
0.0
  9
$COORDS
 70
     2
  9
$SPLFRAME
 70
     0
  9
$SPLINETYPE
 70
     6
  9
$SPLINESEGS
 70
     6
  9
$ATTDIA
 70
     1
  9
$ATTREQ
 70
     1
  9
$HANDLING
 70
     1
  9
$HANDSEED
  5
614
  9
$SURFTAB1
 70
    12
  9
$SURFTAB2
 70
    12
  9
$SURFTYPE
 70
     6
  9
$SURFU
 70
    12
  9
$SURFV
 70
    12
  9
$UCSNAME
  2

  9
$UCSORG
 10
0.0
 20
0.0
 30
0.0
  9
$UCSXDIR
 10
1.0
 20
0.0
 30
0.0
  9
$UCSYDIR
 10
0.0
 20
1.0
 30
0.0
  9
$PUCSNAME
  2

  9
$PUCSORG
 10
0.0
 20
0.0
 30
0.0
  9
$PUCSXDIR
 10
1.0
 20
0.0
 30
0.0
  9
$PUCSYDIR
 10
0.0
 20
1.0
 30
0.0
  9
$USERI1
 70
     0
  9
$USERI2
 70
     0
  9
$USERI3
 70
     0
  9
$USERI4
 70
     0
  9
$USERI5
 70
     0
  9
$USERR1
 40
0.0
  9
$USERR2
 40
0.0
  9
$USERR3
 40
0.0
  9
$USERR4
 40
0.0
  9
$USERR5
 40
0.0
  9
$WORLDVIEW
 70
     0
  9
$SHADEDGE
 70
     3
  9
$SHADEDIF
 70
    70
  9
$TILEMODE
 70
     1
  9
$MAXACTVP
 70
    16
  9
$PINSBASE
 10
0.0
 20
0.0
 30
0.0
  9
$PLIMCHECK
 70
     0
  9
$PEXTMIN
 10
1.000000E+20
 20
1.000000E+20
 30
1.000000E+20
  9
$PEXTMAX
 10
-1.000000E+20
 20
-1.000000E+20
 30
-1.000000E+20
  9
$PLIMMIN
 10
0.0
 20
0.0
  9
$PLIMMAX
 10
12.0
 20
9.0
  9
$UNITMODE
 70
     0
  9
$VISRETAIN
 70
     0
  9
$PLINEGEN
 70
     0
  9
$PSLTSCALE
 70
     0
  9
$TREEDEPTH
 70
  3020
  9
$PICKSTYLE
 70
     1
  9
$CMLSTYLE
  2
STANDARD
  9
$CMLJUST
 70
     0
  9
$CMLSCALE
 40
1.0
  9
$PROXYGRAPHICS
 70
     1
  9
$MEASUREMENT
 70
     0
  0
ENDSEC
  0
SECTION
  2
CLASSES
  0
CLASS
  1
DICTIONARYVAR
  2
AcDbDictionaryVar
  3
"AutoCAD"
 90
        0
280
     0
281
     0
  0
CLASS
  1
LWPOLYLINE
  2
AcDbPolyline
  3
"AutoCAD"
 90
        0
280
     0
281
     1
  0
CLASS
  1
HATCH
  2
AcDbHatch
  3
"ACAD_SEDONA"
 90
        0
280
     0
281
     1
  0
CLASS
  1
SORTENTSTABLE
  2
AcDbSortentsTable
  3
"AutoCAD"
 90
        0
280
     0
281
     0
  0
CLASS
  1
WIPEOUTVARIABLES
  2
AcDbWipeoutVariables
  3
WIPEOUT
 90
        0
280
     0
281
     0
  0
CLASS
  1
WIPEOUT
  2
AcDbWipeout
  3
WIPEOUT
 90
      127
280
     0
281
     1
  0
ENDSEC
  0
SECTION
  2
TABLES
  0
TABLE
  2
VPORT
  5
14
100
AcDbSymbolTable
 70
     2
  0
VPORT
  5
613
100
AcDbSymbolTableRecord
100
AcDbViewportTableRecord
  2
*ACTIVE
 70
     0
 10
0.0
 20
0.0
 11
1.0
 21
1.0
 12
602.038644
 22
407.720885
 13
0.0
 23
0.0
 14
10.0
 24
10.0
 15
0.0
 25
0.0
 16
0.0
 26
0.0
 36
1.0
 17
16.313321
 27
12.779115
 37
0.222949
 40
841.0
 41
1.470516
 42
50.0
 43
0.0
 44
0.0
 50
0.0
 51
0.0
 71
     0
 72
  2000
 73
     1
 74
     2
 75
     0
 76
     0
 77
     0
 78
     1
  0
ENDTAB
  0
TABLE
  2
LTYPE
  5
F
100
AcDbSymbolTable
 70
     3
  0
LTYPE
  5
10
100
AcDbSymbolTableRecord
100
AcDbLinetypeTableRecord
  2
BYBLOCK
 70
     0
  3

 72
    65
 73
     0
 40
0.0
  0
LTYPE
  5
11
100
AcDbSymbolTableRecord
100
AcDbLinetypeTableRecord
  2
BYLAYER
 70
     0
  3

 72
    65
 73
     0
 40
0.0
  0
LTYPE
  5
7
100
AcDbSymbolTableRecord
100
AcDbLinetypeTableRecord
  2
CONTINUOUS
 70
     0
  3
Solid line
 72
    65
 73
     0
 40
0.0
  0
LTYPE
  5
12C
100
AcDbSymbolTableRecord
100
AcDbLinetypeTableRecord
  2
CENTER
 70
     0
  3
Center ____ _ ____ _ ____ _ ____ _ ____ _ ____
 72
    65
 73
     4
 40
2.0
 49
1.25
 74
     0
 49
-0.25
 74
     0
 49
0.25
 74
     0
 49
-0.25
 74
     0
  0
LTYPE
  5
FD
100
AcDbSymbolTableRecord
100
AcDbLinetypeTableRecord
  2
HIDDEN
 70
     0
  3
Hidden __ __ __ __ __ __ __ __ __ __ __ __ __ _
 72
    65
 73
     2
 40
0.375
 49
0.25
 74
     0
 49
-0.125
 74
     0
  0
ENDTAB
  0
TABLE
  2
LAYER
  5
C
100
AcDbSymbolTable
 70
    11
  0
LAYER
  5
6
100
AcDbSymbolTableRecord
100
AcDbLayerTableRecord
  2
0
 70
     0
 62
     7
  6
CONTINUOUS
  0
LAYER
  5
12B
100
AcDbSymbolTableRecord
100
AcDbLayerTableRecord
  2
CENTRE
 70
     0
 62
     3
  6
CENTER
  0
LAYER
  5
2C
100
AcDbSymbolTableRecord
100
AcDbLayerTableRecord
  2
M01
 70
     0
 62
     1
  6
CONTINUOUS
  0
LAYER
  5
1FD
100
AcDbSymbolTableRecord
100
AcDbLayerTableRecord
  2
M02
 70
     0
 62
     2
  6
CONTINUOUS
  0
LAYER
  5
FC
100
AcDbSymbolTableRecord
100
AcDbLayerTableRecord
  2
M03
 70
     0
 62
     2
  6
HIDDEN
  0
LAYER
  5
27
100
AcDbSymbolTableRecord
100
AcDbLayerTableRecord
  2
M04
 70
     0
 62
     7
  6
CONTINUOUS
  0
LAYER
  5
285
100
AcDbSymbolTableRecord
100
AcDbLayerTableRecord
  2
M05
 70
     0
 62
     5
  6
CONTINUOUS
  0
LAYER
  5
52
100
AcDbSymbolTableRecord
100
AcDbLayerTableRecord
  2
DIMS
 70
     0
 62
     4
  6
CONTINUOUS
  0
LAYER
  5
21
100
AcDbSymbolTableRecord
100
AcDbLayerTableRecord
  2
TEXT
 70
     0
 62
     2
  6
CONTINUOUS
  0
LAYER
  5
1D
100
AcDbSymbolTableRecord
100
AcDbLayerTableRecord
  2
HATCH
 70
     0
 62
     4
  6
CONTINUOUS
  0
LAYER
  5
5B
100
AcDbSymbolTableRecord
100
AcDbLayerTableRecord
  2
DEFPOINTS
 70
     0
 62
     7
  6
CONTINUOUS
  0
ENDTAB
  0
TABLE
  2
STYLE
  5
D
100
AcDbSymbolTable
 70
     1
  0
STYLE
  5
E
100
AcDbSymbolTableRecord
100
AcDbTextStyleTableRecord
  2
STANDARD
 70
     0
 40
0.0
 41
1.0
 50
0.0
 71
     0
 42
3.0
  3
SIMPLEX
  4

  0
ENDTAB
  0
TABLE
  2
VIEW
  5
12
100
AcDbSymbolTable
 70
     0
  0
ENDTAB
  0
TABLE
  2
UCS
  5
13
100
AcDbSymbolTable
 70
     0
  0
ENDTAB
  0
TABLE
  2
APPID
  5
16
100
AcDbSymbolTable
 70
     1
  0
APPID
  5
17
100
AcDbSymbolTableRecord
100
AcDbRegAppTableRecord
  2
ACAD
 70
     0
  0
ENDTAB
  0
TABLE
  2
DIMSTYLE
  5
18
100
AcDbSymbolTable
 70
     2
  0
DIMSTYLE
105
1F
102
{ACAD_REACTORS
330
572
330
564
330
556
330
549
330
53B
330
479
330
46B
330
45E
330
450
330
9E
330
92
330
86
330
79
330
6C
330
60
330
51
102
}
100
AcDbSymbolTableRecord
100
AcDbDimStyleTableRecord
  2
DIM1
 70
     0
  3

  4

  5

  6

  7

 40
1.0
 41
3.0
 42
1.0
 43
10.0
 44
2.5
 45
0.01
 46
1.25
 47
0.05
 48
0.0
140
3.0
141
-1.7
142
0.0
143
0.039
144
0.2
145
1.5
146
0.7
147
1.5
 71
     0
 72
     0
 73
     0
 74
     0
 75
     0
 76
     0
 77
     3
 78
     1
170
     0
171
     2
172
     0
173
     0
174
     0
175
     0
176
     4
177
     4
178
     2
270
     2
271
     2
272
     2
273
     2
274
     2
340
E
275
     0
280
     0
281
     0
282
     0
283
     1
284
     1
285
     1
286
     1
287
     0
288
     0
  0
DIMSTYLE
105
2C4
100
AcDbSymbolTableRecord
100
AcDbDimStyleTableRecord
  2
DIM1$7
 70
     0
  3

  4

  5

  6

  7

 40
1.0
 41
3.0
 42
1.0
 43
10.0
 44
2.5
 45
0.01
 46
1.25
 47
0.0
 48
0.0
140
3.0
141
-1.7
142
0.0
143
0.039
144
1.0
145
0.0
146
1.0
147
1.5
 71
     0
 72
     0
 73
     0
 74
     0
 75
     0
 76
     0
 77
     0
 78
     1
170
     0
171
     2
172
     0
173
     0
174
     0
175
     0
176
     4
177
     4
178
     2
270
     2
271
     2
272
     2
273
     2
274
     2
340
E
275
     0
280
     0
281
     0
282
     0
283
     1
284
     1
285
     1
286
     1
287
     0
288
     0
  0
ENDTAB
  0
TABLE
  2
BLOCK_RECORD
  5
1
100
AcDbSymbolTable
 70
    16
  0
BLOCK_RECORD
  5
2
102
{ACAD_XDICTIONARY
360
3
102
}
100
AcDbSymbolTableRecord
100
AcDbBlockTableRecord
  2
*MODEL_SPACE
  0
BLOCK_RECORD
  5
9
100
AcDbSymbolTableRecord
100
AcDbBlockTableRecord
  2
*PAPER_SPACE
  0
BLOCK_RECORD
  5
573
100
AcDbSymbolTableRecord
100
AcDbBlockTableRecord
  2
*D0
  0
BLOCK_RECORD
  5
565
100
AcDbSymbolTableRecord
100
AcDbBlockTableRecord
  2
*D1
  0
BLOCK_RECORD
  5
557
100
AcDbSymbolTableRecord
100
AcDbBlockTableRecord
  2
*D2
  0
BLOCK_RECORD
  5
54A
100
AcDbSymbolTableRecord
100
AcDbBlockTableRecord
  2
*D3
  0
BLOCK_RECORD
  5
53C
100
AcDbSymbolTableRecord
100
AcDbBlockTableRecord
  2
*D4
  0
BLOCK_RECORD
  5
47A
100
AcDbSymbolTableRecord
100
AcDbBlockTableRecord
  2
*D5
  0
BLOCK_RECORD
  5
46C
100
AcDbSymbolTableRecord
100
AcDbBlockTableRecord
  2
*D6
  0
BLOCK_RECORD
  5
45F
100
AcDbSymbolTableRecord
100
AcDbBlockTableRecord
  2
*D7
  0
BLOCK_RECORD
  5
451
100
AcDbSymbolTableRecord
100
AcDbBlockTableRecord
  2
*D8
  0
BLOCK_RECORD
  5
9F
100
AcDbSymbolTableRecord
100
AcDbBlockTableRecord
  2
*D9
  0
BLOCK_RECORD
  5
93
100
AcDbSymbolTableRecord
100
AcDbBlockTableRecord
  2
*D10
  0
BLOCK_RECORD
  5
87
100
AcDbSymbolTableRecord
100
AcDbBlockTableRecord
  2
*D11
  0
BLOCK_RECORD
  5
7A
100
AcDbSymbolTableRecord
100
AcDbBlockTableRecord
  2
*D12
  0
BLOCK_RECORD
  5
6D
100
AcDbSymbolTableRecord
100
AcDbBlockTableRecord
  2
*D13
  0
BLOCK_RECORD
  5
61
100
AcDbSymbolTableRecord
100
AcDbBlockTableRecord
  2
*D14
  0
BLOCK_RECORD
  5
53
100
AcDbSymbolTableRecord
100
AcDbBlockTableRecord
  2
*D15
  0
ENDTAB
  0
ENDSEC
  0
SECTION
  2
BLOCKS
  0
BLOCK
  5
5
100
AcDbEntity
  8
0
100
AcDbBlockBegin
  2
*MODEL_SPACE
 70
     0
 10
0.0
 20
0.0
 30
0.0
  3
*MODEL_SPACE
  1

  0
ENDBLK
  5
8
100
AcDbEntity
  8
0
100
AcDbBlockEnd
  0
BLOCK
  5
A
100
AcDbEntity
 67
     1
  8
0
100
AcDbBlockBegin
  2
*PAPER_SPACE
 70
     0
 10
0.0
 20
0.0
 30
0.0
  3
*PAPER_SPACE
  1

  0
ENDBLK
  5
B
100
AcDbEntity
 67
     1
  8
0
100
AcDbBlockEnd
  0
BLOCK
  5
57D
100
AcDbEntity
  8
0
100
AcDbBlockBegin
  2
*D0
 70
     1
 10
0.0
 20
0.0
 30
0.0
  3
*D0
  1

  0
LINE
  5
574
100
AcDbEntity
  8
0
  6
BYBLOCK
 62
     4
100
AcDbLine
 10
724.788006
 20
268.533414
 30
0.0
 11
724.788006
 21
226.560717
 31
0.0
  0
LINE
  5
575
100
AcDbEntity
  8
0
  6
BYBLOCK
 62
     4
100
AcDbLine
 10
784.788006
 20
266.533414
 30
0.0
 11
784.788006
 21
226.560717
 31
0.0
  0
LINE
  5
576
100
AcDbEntity
  8
0
  6
BYBLOCK
 62
     4
100
AcDbLine
 10
727.788006
 20
229.060717
 30
0.0
 11
781.788006
 21
229.060717
 31
0.0
  0
SOLID
  5
577
100
AcDbEntity
  8
0
  6
BYBLOCK
 62
     4
100
AcDbTrace
 10
727.788006
 20
229.560717
 30
0.0
 11
727.788006
 21
228.560717
 31
0.0
 12
724.788006
 22
229.060717
 32
0.0
 13
724.788006
 23
229.060717
 33
0.0
  0
SOLID
  5
578
100
AcDbEntity
  8
0
  6
BYBLOCK
 62
     4
100
AcDbTrace
 10
781.788006
 20
229.560717
 30
0.0
 11
781.788006
 21
228.560717
 31
0.0
 12
784.788006
 22
229.060717
 32
0.0
 13
784.788006
 23
229.060717
 33
0.0
  0
MTEXT
  5
579
100
AcDbEntity
  8
0
  6
BYBLOCK
 62
     2
100
AcDbMText
 10
754.788006
 20
232.060717
 30
0.0
 40
3.0
 41
0.0
 71
     5
 72
     1
  1
\A1;60.00
  0
POINT
  5
57A
100
AcDbEntity
  8
DEFPOINTS
  6
BYBLOCK
 62
     0
100
AcDbPoint
 10
724.788006
 20
269.533414
 30
0.0
  0
POINT
  5
57B
100
AcDbEntity
  8
DEFPOINTS
  6
BYBLOCK
 62
     0
100
AcDbPoint
 10
784.788006
 20
267.533414
 30
0.0
  0
POINT
  5
57C
100
AcDbEntity
  8
DEFPOINTS
  6
BYBLOCK
 62
     0
100
AcDbPoint
 10
784.788006
 20
229.060717
 30
0.0
  0
ENDBLK
  5
57E
100
AcDbEntity
  8
0
100
AcDbBlockEnd
  0
BLOCK
  5
570
100
AcDbEntity
  8
0
100
AcDbBlockBegin
  2
*D1
 70
     1
 10
0.0
 20
0.0
 30
0.0
  3
*D1
  1

  0
LINE
  5
566
100
AcDbEntity
  8
0
  6
BYBLOCK
 62
     4
100
AcDbLine
 10
784.788006
 20
268.533414
 30
0.0
 11
784.788006
 21
226.560717
 31
0.0
  0
LINE
  5
567
100
AcDbEntity
  8
0
  6
BYBLOCK
 62
     4
100
AcDbLine
 10
791.788006
 20
248.020023
 30
0.0
 11
791.788006
 21
226.560717
 31
0.0
  0
LINE
  5
568
100
AcDbEntity
  8
0
  6
BYBLOCK
 62
     4
100
AcDbLine
 10
781.788006
 20
229.060717
 30
0.0
 11
778.788006
 21
229.060717
 31
0.0
  0
LINE
  5
569
100
AcDbEntity
  8
0
  6
BYBLOCK
 62
     4
100
AcDbLine
 10
794.788006
 20
229.060717
 30
0.0
 11
807.07372
 21
229.060717
 31
0.0
  0
SOLID
  5
56A
100
AcDbEntity
  8
0
  6
BYBLOCK
 62
     4
100
AcDbTrace
 10
781.788006
 20
229.560717
 30
0.0
 11
781.788006
 21
228.560717
 31
0.0
 12
784.788006
 22
229.060717
 32
0.0
 13
784.788006
 23
229.060717
 33
0.0
  0
SOLID
  5
56B
100
AcDbEntity
  8
0
  6
BYBLOCK
 62
     4
100
AcDbTrace
 10
794.788006
 20
229.560717
 30
0.0
 11
794.788006
 21
228.560717
 31
0.0
 12
791.788006
 22
229.060717
 32
0.0
 13
791.788006
 23
229.060717
 33
0.0
  0
MTEXT
  5
56C
100
AcDbEntity
  8
0
  6
BYBLOCK
 62
     2
100
AcDbMText
 10
802.430863
 20
232.060717
 30
0.0
 40
3.0
 41
0.0
 71
     5
 72
     1
  1
\A1;7.0
  0
POINT
  5
56D
100
AcDbEntity
  8
DEFPOINTS
  6
BYBLOCK
 62
     0
100
AcDbPoint
 10
784.788006
 20
269.533414
 30
0.0
  0
POINT
  5
56E
100
AcDbEntity
  8
DEFPOINTS
  6
BYBLOCK
 62
     0
100
AcDbPoint
 10
791.788006
 20
249.020023
 30
0.0
  0
POINT
  5
56F
100
AcDbEntity
  8
DEFPOINTS
  6
BYBLOCK
 62
     0
100
AcDbPoint
 10
791.788006
 20
229.060717
 30
0.0
  0
ENDBLK
  5
571
100
AcDbEntity
  8
0
100
AcDbBlockEnd
  0
BLOCK
  5
562
100
AcDbEntity
  8
0
100
AcDbBlockBegin
  2
*D2
 70
     1
 10
0.0
 20
0.0
 30
0.0
  3
*D2
  1

  0
LINE
  5
558
100
AcDbEntity
  8
0
  6
BYBLOCK
 62
     4
100
AcDbLine
 10
724.788006
 20
268.533414
 30
0.0
 11
724.788006
 21
226.560717
 31
0.0
  0
LINE
  5
559
100
AcDbEntity
  8
0
  6
BYBLOCK
 62
     4
100
AcDbLine
 10
717.788006
 20
259.533414
 30
0.0
 11
717.788006
 21
226.560717
 31
0.0
  0
LINE
  5
55A
100
AcDbEntity
  8
0
  6
BYBLOCK
 62
     4
100
AcDbLine
 10
727.788006
 20
229.060717
 30
0.0
 11
730.788006
 21
229.060717
 31
0.0
  0
LINE
  5
55B
100
AcDbEntity
  8
0
  6
BYBLOCK
 62
     4
100
AcDbLine
 10
714.788006
 20
229.060717
 30
0.0
 11
702.502291
 21
229.060717
 31
0.0
  0
SOLID
  5
55C
100
AcDbEntity
  8
0
  6
BYBLOCK
 62
     4
100
AcDbTrace
 10
727.788006
 20
229.560717
 30
0.0
 11
727.788006
 21
228.560717
 31
0.0
 12
724.788006
 22
229.060717
 32
0.0
 13
724.788006
 23
229.060717
 33
0.0
  0
SOLID
  5
55D
100
AcDbEntity
  8
0
  6
BYBLOCK
 62
     4
100
AcDbTrace
 10
714.788006
 20
229.560717
 30
0.0
 11
714.788006
 21
228.560717
 31
0.0
 12
717.788006
 22
229.060717
 32
0.0
 13
717.788006
 23
229.060717
 33
0.0
  0
MTEXT
  5
55E
100
AcDbEntity
  8
0
  6
BYBLOCK
 62
     2
100
AcDbMText
 10
707.145148
 20
232.060717
 30
0.0
 40
3.0
 41
0.0
 71
     5
 72
     1
  1
\A1;7.0
  0
POINT
  5
55F
100
AcDbEntity
  8
DEFPOINTS
  6
BYBLOCK
 62
     0
100
AcDbPoint
 10
724.788006
 20
269.533414
 30
0.0
  0
POINT
  5
560
100
AcDbEntity
  8
DEFPOINTS
  6
BYBLOCK
 62
     0
100
AcDbPoint
 10
717.788006
 20
260.533414
 30
0.0
  0
POINT
  5
561
100
AcDbEntity
  8
DEFPOINTS
  6
BYBLOCK
 62
     0
100
AcDbPoint
 10
717.788006
 20
229.060717
 30
0.0
  0
ENDBLK
  5
563
100
AcDbEntity
  8
0
100
AcDbBlockEnd
  0
BLOCK
  5
554
100
AcDbEntity
  8
0
100
AcDbBlockBegin
  2
*D3
 70
     1
 10
0.0
 20
0.0
 30
0.0
  3
*D3
  1

  0
LINE
  5
54B
100
AcDbEntity
  8
0
  6
BYBLOCK
 62
     4
100
AcDbLine
 10
864.080464
 20
453.247706
 30
0.0
 11
901.89558
 21
453.247706
 31
0.0
  0
LINE
  5
54C
100
AcDbEntity
  8
0
  6
BYBLOCK
 62
     4
100
AcDbLine
 10
864.080464
 20
493.247706
 30
0.0
 11
901.89558
 21
493.247706
 31
0.0
  0
LINE
  5
54D
100
AcDbEntity
  8
0
  6
BYBLOCK
 62
     4
100
AcDbLine
 10
899.39558
 20
456.247706
 30
0.0
 11
899.39558
 21
490.247706
 31
0.0
  0
SOLID
  5
54E
100
AcDbEntity
  8
0
  6
BYBLOCK
 62
     4
100
AcDbTrace
 10
898.89558
 20
456.247706
 30
0.0
 11
899.89558
 21
456.247706
 31
0.0
 12
899.39558
 22
453.247706
 32
0.0
 13
899.39558
 23
453.247706
 33
0.0
  0
SOLID
  5
54F
100
AcDbEntity
  8
0
  6
BYBLOCK
 62
     4
100
AcDbTrace
 10
898.89558
 20
490.247706
 30
0.0
 11
899.89558
 21
490.247706
 31
0.0
 12
899.39558
 22
493.247706
 32
0.0
 13
899.39558
 23
493.247706
 33
0.0
  0
MTEXT
  5
550
100
AcDbEntity
  8
0
  6
BYBLOCK
 62
     2
100
AcDbMText
 10
896.39558
 20
473.247706
 30
0.0
 40
3.0
 41
0.0
 71
     5
 72
     1
  1
\A1;\U+220540.00 H7
 11
0.0
 21
1.0
 31
0.0
  0
POINT
  5
551
100
AcDbEntity
  8
DEFPOINTS
  6
BYBLOCK
 62
     0
100
AcDbPoint
 10
863.080464
 20
453.247706
 30
0.0
  0
POINT
  5
552
100
AcDbEntity
  8
DEFPOINTS
  6
BYBLOCK
 62
     0
100
AcDbPoint
 10
863.080464
 20
493.247706
 30
0.0
  0
POINT
  5
553
100
AcDbEntity
  8
DEFPOINTS
  6
BYBLOCK
 62
     0
100
AcDbPoint
 10
899.39558
 20
493.247706
 30
0.0
  0
ENDBLK
  5
555
100
AcDbEntity
  8
0
100
AcDbBlockEnd
  0
BLOCK
  5
547
100
AcDbEntity
  8
0
100
AcDbBlockBegin
  2
*D4
 70
     1
 10
0.0
 20
0.0
 30
0.0
  3
*D4
  1

  0
LINE
  5
53D
100
AcDbEntity
  8
0
  6
BYBLOCK
 62
     4
100
AcDbLine
 10
767.080464
 20
660.747706
 30
0.0
 11
750.904299
 21
660.747706
 31
0.0
  0
LINE
  5
53E
100
AcDbEntity
  8
0
  6
BYBLOCK
 62
     4
100
AcDbLine
 10
767.080464
 20
652.747706
 30
0.0
 11
750.904299
 21
652.747706
 31
0.0
  0
LINE
  5
53F
100
AcDbEntity
  8
0
  6
BYBLOCK
 62
     4
100
AcDbLine
 10
753.404299
 20
663.747706
 30
0.0
 11
753.404299
 21
666.747706
 31
0.0
  0
LINE
  5
540
100
AcDbEntity
  8
0
  6
BYBLOCK
 62
     4
100
AcDbLine
 10
753.404299
 20
649.747706
 30
0.0
 11
753.404299
 21
623.176278
 31
0.0
  0
SOLID
  5
541
100
AcDbEntity
  8
0
  6
BYBLOCK
 62
     4
100
AcDbTrace
 10
752.904299
 20
663.747706
 30
0.0
 11
753.904299
 21
663.747706
 31
0.0
 12
753.404299
 22
660.747706
 32
0.0
 13
753.404299
 23
660.747706
 33
0.0
  0
SOLID
  5
542
100
AcDbEntity
  8
0
  6
BYBLOCK
 62
     4
100
AcDbTrace
 10
752.904299
 20
649.747706
 30
0.0
 11
753.904299
 21
649.747706
 31
0.0
 12
753.404299
 22
652.747706
 32
0.0
 13
753.404299
 23
652.747706
 33
0.0
  0
MTEXT
  5
543
100
AcDbEntity
  8
0
  6
BYBLOCK
 62
     2
100
AcDbMText
 10
750.404299
 20
634.961992
 30
0.0
 40
3.0
 41
0.0
 71
     5
 72
     1
  1
\A1;\U+22058.00 H7
 11
0.0
 21
1.0
 31
0.0
  0
POINT
  5
544
100
AcDbEntity
  8
DEFPOINTS
  6
BYBLOCK
 62
     0
100
AcDbPoint
 10
768.080464
 20
660.747706
 30
0.0
  0
POINT
  5
545
100
AcDbEntity
  8
DEFPOINTS
  6
BYBLOCK
 62
     0
100
AcDbPoint
 10
768.080464
 20
652.747706
 30
0.0
  0
POINT
  5
546
100
AcDbEntity
  8
DEFPOINTS
  6
BYBLOCK
 62
     0
100
AcDbPoint
 10
753.404299
 20
652.747706
 30
0.0
  0
ENDBLK
  5
548
100
AcDbEntity
  8
0
100
AcDbBlockEnd
  0
BLOCK
  5
485
100
AcDbEntity
  8
0
100
AcDbBlockBegin
  2
*D5
 70
     1
 10
0.0
 20
0.0
 30
0.0
  3
*D5
  1

  0
LINE
  5
47B
100
AcDbEntity
  8
0
  6
BYBLOCK
 62
     4
100
AcDbLine
 10
788.080464
 20
462.747706
 30
0.0
 11
788.080464
 21
444.460689
 31
0.0
  0
LINE
  5
47C
100
AcDbEntity
  8
0
  6
BYBLOCK
 62
     4
100
AcDbLine
 10
771.080464
 20
462.247706
 30
0.0
 11
771.080464
 21
444.460689
 31
0.0
  0
LINE
  5
47D
100
AcDbEntity
  8
0
  6
BYBLOCK
 62
     4
100
AcDbLine
 10
791.080464
 20
446.960689
 30
0.0
 11
794.080464
 21
446.960689
 31
0.0
  0
LINE
  5
47E
100
AcDbEntity
  8
0
  6
BYBLOCK
 62
     4
100
AcDbLine
 10
768.080464
 20
446.960689
 30
0.0
 11
750.651892
 21
446.960689
 31
0.0
  0
SOLID
  5
47F
100
AcDbEntity
  8
0
  6
BYBLOCK
 62
     4
100
AcDbTrace
 10
791.080464
 20
447.460689
 30
0.0
 11
791.080464
 21
446.460689
 31
0.0
 12
788.080464
 22
446.960689
 32
0.0
 13
788.080464
 23
446.960689
 33
0.0
  0
SOLID
  5
480
100
AcDbEntity
  8
0
  6
BYBLOCK
 62
     4
100
AcDbTrace
 10
768.080464
 20
447.460689
 30
0.0
 11
768.080464
 21
446.460689
 31
0.0
 12
771.080464
 22
446.960689
 32
0.0
 13
771.080464
 23
446.960689
 33
0.0
  0
MTEXT
  5
481
100
AcDbEntity
  8
0
  6
BYBLOCK
 62
     2
100
AcDbMText
 10
757.866178
 20
449.960689
 30
0.0
 40
3.0
 41
0.0
 71
     5
 72
     1
  1
\A1;17.00
  0
POINT
  5
482
100
AcDbEntity
  8
DEFPOINTS
  6
BYBLOCK
 62
     0
100
AcDbPoint
 10
788.080464
 20
463.747706
 30
0.0
  0
POINT
  5
483
100
AcDbEntity
  8
DEFPOINTS
  6
BYBLOCK
 62
     0
100
AcDbPoint
 10
771.080464
 20
463.247706
 30
0.0
  0
POINT
  5
484
100
AcDbEntity
  8
DEFPOINTS
  6
BYBLOCK
 62
     0
100
AcDbPoint
 10
771.080464
 20
446.960689
 30
0.0
  0
ENDBLK
  5
486
100
AcDbEntity
  8
0
100
AcDbBlockEnd
  0
BLOCK
  5
477
100
AcDbEntity
  8
0
100
AcDbBlockBegin
  2
*D6
 70
     1
 10
0.0
 20
0.0
 30
0.0
  3
*D6
  1

  0
LINE
  5
46D
100
AcDbEntity
  8
0
  6
BYBLOCK
 62
     4
100
AcDbLine
 10
770.080464
 20
463.247706
 30
0.0
 11
750.930649
 21
463.247706
 31
0.0
  0
LINE
  5
46E
100
AcDbEntity
  8
0
  6
BYBLOCK
 62
     4
100
AcDbLine
 10
770.080464
 20
483.247706
 30
0.0
 11
750.930649
 21
483.247706
 31
0.0
  0
LINE
  5
46F
100
AcDbEntity
  8
0
  6
BYBLOCK
 62
     4
100
AcDbLine
 10
753.430649
 20
460.247706
 30
0.0
 11
753.430649
 21
457.247706
 31
0.0
  0
LINE
  5
470
100
AcDbEntity
  8
0
  6
BYBLOCK
 62
     4
100
AcDbLine
 10
753.430649
 20
486.247706
 30
0.0
 11
753.430649
 21
515.676278
 31
0.0
  0
SOLID
  5
471
100
AcDbEntity
  8
0
  6
BYBLOCK
 62
     4
100
AcDbTrace
 10
752.930649
 20
460.247706
 30
0.0
 11
753.930649
 21
460.247706
 31
0.0
 12
753.430649
 22
463.247706
 32
0.0
 13
753.430649
 23
463.247706
 33
0.0
  0
SOLID
  5
472
100
AcDbEntity
  8
0
  6
BYBLOCK
 62
     4
100
AcDbTrace
 10
752.930649
 20
486.247706
 30
0.0
 11
753.930649
 21
486.247706
 31
0.0
 12
753.430649
 22
483.247706
 32
0.0
 13
753.430649
 23
483.247706
 33
0.0
  0
MTEXT
  5
473
100
AcDbEntity
  8
0
  6
BYBLOCK
 62
     2
100
AcDbMText
 10
750.430649
 20
502.461992
 30
0.0
 40
3.0
 41
0.0
 71
     5
 72
     1
  1
\A1;\U+220520.00 H7
 11
0.0
 21
1.0
 31
0.0
  0
POINT
  5
474
100
AcDbEntity
  8
DEFPOINTS
  6
BYBLOCK
 62
     0
100
AcDbPoint
 10
771.080464
 20
463.247706
 30
0.0
  0
POINT
  5
475
100
AcDbEntity
  8
DEFPOINTS
  6
BYBLOCK
 62
     0
100
AcDbPoint
 10
771.080464
 20
483.247706
 30
0.0
  0
POINT
  5
476
100
AcDbEntity
  8
DEFPOINTS
  6
BYBLOCK
 62
     0
100
AcDbPoint
 10
753.430649
 20
483.247706
 30
0.0
  0
ENDBLK
  5
478
100
AcDbEntity
  8
0
100
AcDbBlockEnd
  0
BLOCK
  5
469
100
AcDbEntity
  8
0
100
AcDbBlockBegin
  2
*D7
 70
     1
 10
0.0
 20
0.0
 30
0.0
  3
*D7
  1

  0
LINE
  5
460
100
AcDbEntity
  8
0
  6
BYBLOCK
 62
     4
100
AcDbLine
 10
775.657814
 20
462.247706
 30
0.0
 11
741.053236
 21
462.247706
 31
0.0
  0
LINE
  5
461
100
AcDbEntity
  8
0
  6
BYBLOCK
 62
     4
100
AcDbLine
 10
775.657814
 20
484.247706
 30
0.0
 11
741.053236
 21
484.247706
 31
0.0
  0
LINE
  5
462
100
AcDbEntity
  8
0
  6
BYBLOCK
 62
     4
100
AcDbLine
 10
743.553236
 20
465.247706
 30
0.0
 11
743.553236
 21
481.247706
 31
0.0
  0
SOLID
  5
463
100
AcDbEntity
  8
0
  6
BYBLOCK
 62
     4
100
AcDbTrace
 10
743.053236
 20
465.247706
 30
0.0
 11
744.053236
 21
465.247706
 31
0.0
 12
743.553236
 22
462.247706
 32
0.0
 13
743.553236
 23
462.247706
 33
0.0
  0
SOLID
  5
464
100
AcDbEntity
  8
0
  6
BYBLOCK
 62
     4
100
AcDbTrace
 10
743.053236
 20
481.247706
 30
0.0
 11
744.053236
 21
481.247706
 31
0.0
 12
743.553236
 22
484.247706
 32
0.0
 13
743.553236
 23
484.247706
 33
0.0
  0
MTEXT
  5
465
100
AcDbEntity
  8
0
  6
BYBLOCK
 62
     2
100
AcDbMText
 10
740.553236
 20
473.247706
 30
0.0
 40
3.0
 41
0.0
 71
     5
 72
     1
  1
\A1;22.00
 11
0.0
 21
1.0
 31
0.0
  0
POINT
  5
466
100
AcDbEntity
  8
DEFPOINTS
  6
BYBLOCK
 62
     0
100
AcDbPoint
 10
776.657814
 20
462.247706
 30
0.0
  0
POINT
  5
467
100
AcDbEntity
  8
DEFPOINTS
  6
BYBLOCK
 62
     0
100
AcDbPoint
 10
776.657814
 20
484.247706
 30
0.0
  0
POINT
  5
468
100
AcDbEntity
  8
DEFPOINTS
  6
BYBLOCK
 62
     0
100
AcDbPoint
 10
743.553236
 20
484.247706
 30
0.0
  0
ENDBLK
  5
46A
100
AcDbEntity
  8
0
100
AcDbBlockEnd
  0
BLOCK
  5
45C
100
AcDbEntity
  8
0
100
AcDbBlockBegin
  2
*D8
 70
     1
 10
0.0
 20
0.0
 30
0.0
  3
*D8
  1

  0
LINE
  5
452
100
AcDbEntity
  8
0
  6
BYBLOCK
 62
     4
100
AcDbLine
 10
781.080464
 20
485.247706
 30
0.0
 11
781.080464
 21
509.035729
 31
0.0
  0
LINE
  5
453
100
AcDbEntity
  8
0
  6
BYBLOCK
 62
     4
100
AcDbLine
 10
776.080464
 20
484.247706
 30
0.0
 11
776.080464
 21
509.035729
 31
0.0
  0
LINE
  5
454
100
AcDbEntity
  8
0
  6
BYBLOCK
 62
     4
100
AcDbLine
 10
784.080464
 20
506.535729
 30
0.0
 11
787.080464
 21
506.535729
 31
0.0
  0
LINE
  5
455
100
AcDbEntity
  8
0
  6
BYBLOCK
 62
     4
100
AcDbLine
 10
773.080464
 20
506.535729
 30
0.0
 11
760.794749
 21
506.535729
 31
0.0
  0
SOLID
  5
456
100
AcDbEntity
  8
0
  6
BYBLOCK
 62
     4
100
AcDbTrace
 10
784.080464
 20
507.035729
 30
0.0
 11
784.080464
 21
506.035729
 31
0.0
 12
781.080464
 22
506.535729
 32
0.0
 13
781.080464
 23
506.535729
 33
0.0
  0
SOLID
  5
457
100
AcDbEntity
  8
0
  6
BYBLOCK
 62
     4
100
AcDbTrace
 10
773.080464
 20
507.035729
 30
0.0
 11
773.080464
 21
506.035729
 31
0.0
 12
776.080464
 22
506.535729
 32
0.0
 13
776.080464
 23
506.535729
 33
0.0
  0
MTEXT
  5
458
100
AcDbEntity
  8
0
  6
BYBLOCK
 62
     2
100
AcDbMText
 10
765.437606
 20
509.535729
 30
0.0
 40
3.0
 41
0.0
 71
     5
 72
     1
  1
\A1;5.0
  0
POINT
  5
459
100
AcDbEntity
  8
DEFPOINTS
  6
BYBLOCK
 62
     0
100
AcDbPoint
 10
781.080464
 20
484.247706
 30
0.0
  0
POINT
  5
45A
100
AcDbEntity
  8
DEFPOINTS
  6
BYBLOCK
 62
     0
100
AcDbPoint
 10
776.080464
 20
483.247706
 30
0.0
  0
POINT
  5
45B
100
AcDbEntity
  8
DEFPOINTS
  6
BYBLOCK
 62
     0
100
AcDbPoint
 10
776.080464
 20
506.535729
 30
0.0
  0
ENDBLK
  5
45D
100
AcDbEntity
  8
0
100
AcDbBlockEnd
  0
BLOCK
  5
A9
100
AcDbEntity
  8
0
100
AcDbBlockBegin
  2
*D9
 70
     1
 10
0.0
 20
0.0
 30
0.0
  3
*D9
  1

  0
LINE
  5
A0
100
AcDbEntity
  8
0
  6
BYBLOCK
 62
     4
100
AcDbLine
 10
464.344627
 20
298.443414
 30
0.0
 11
387.658411
 21
298.443414
 31
0.0
  0
LINE
  5
A1
100
AcDbEntity
  8
0
  6
BYBLOCK
 62
     4
100
AcDbLine
 10
464.344627
 20
348.443414
 30
0.0
 11
387.658411
 21
348.443414
 31
0.0
  0
LINE
  5
A2
100
AcDbEntity
  8
0
  6
BYBLOCK
 62
     4
100
AcDbLine
 10
390.158411
 20
301.443414
 30
0.0
 11
390.158411
 21
345.443414
 31
0.0
  0
SOLID
  5
A3
100
AcDbEntity
  8
0
  6
BYBLOCK
 62
     4
100
AcDbTrace
 10
389.658411
 20
301.443414
 30
0.0
 11
390.658411
 21
301.443414
 31
0.0
 12
390.158411
 22
298.443414
 32
0.0
 13
390.158411
 23
298.443414
 33
0.0
  0
SOLID
  5
A4
100
AcDbEntity
  8
0
  6
BYBLOCK
 62
     4
100
AcDbTrace
 10
389.658411
 20
345.443414
 30
0.0
 11
390.658411
 21
345.443414
 31
0.0
 12
390.158411
 22
348.443414
 32
0.0
 13
390.158411
 23
348.443414
 33
0.0
  0
MTEXT
  5
A5
100
AcDbEntity
  8
0
  6
BYBLOCK
 62
     2
100
AcDbMText
 10
387.158411
 20
323.443414
 30
0.0
 40
3.0
 41
0.0
 71
     5
 72
     1
  1
\A1;A=50.00
 11
0.0
 21
1.0
 31
0.0
  0
POINT
  5
A6
100
AcDbEntity
  8
DEFPOINTS
  6
BYBLOCK
 62
     0
100
AcDbPoint
 10
465.344627
 20
298.443414
 30
0.0
  0
POINT
  5
A7
100
AcDbEntity
  8
DEFPOINTS
  6
BYBLOCK
 62
     0
100
AcDbPoint
 10
465.344627
 20
348.443414
 30
0.0
  0
POINT
  5
A8
100
AcDbEntity
  8
DEFPOINTS
  6
BYBLOCK
 62
     0
100
AcDbPoint
 10
390.158411
 20
348.443414
 30
0.0
  0
ENDBLK
  5
AA
100
AcDbEntity
  8
0
100
AcDbBlockEnd
  0
BLOCK
  5
9C
100
AcDbEntity
  8
0
100
AcDbBlockBegin
  2
*D10
 70
     1
 10
0.0
 20
0.0
 30
0.0
  3
*D10
  1

  0
LINE
  5
94
100
AcDbEntity
  8
0
  6
BYBLOCK
 62
     4
100
AcDbLine
 10
464.344627
 20
423.443414
 30
0.0
 11
387.658411
 21
423.443414
 31
0.0
  0
LINE
  5
95
100
AcDbEntity
  8
0
  6
BYBLOCK
 62
     4
100
AcDbLine
 10
390.158411
 20
351.443414
 30
0.0
 11
390.158411
 21
420.443414
 31
0.0
  0
SOLID
  5
96
100
AcDbEntity
  8
0
  6
BYBLOCK
 62
     4
100
AcDbTrace
 10
389.658411
 20
351.443414
 30
0.0
 11
390.658411
 21
351.443414
 31
0.0
 12
390.158411
 22
348.443414
 32
0.0
 13
390.158411
 23
348.443414
 33
0.0
  0
SOLID
  5
97
100
AcDbEntity
  8
0
  6
BYBLOCK
 62
     4
100
AcDbTrace
 10
389.658411
 20
420.443414
 30
0.0
 11
390.658411
 21
420.443414
 31
0.0
 12
390.158411
 22
423.443414
 32
0.0
 13
390.158411
 23
423.443414
 33
0.0
  0
MTEXT
  5
98
100
AcDbEntity
  8
0
  6
BYBLOCK
 62
     2
100
AcDbMText
 10
387.158411
 20
385.943414
 30
0.0
 40
3.0
 41
0.0
 71
     5
 72
     1
  1
\A1;B=75.00
 11
0.0
 21
1.0
 31
0.0
  0
POINT
  5
99
100
AcDbEntity
  8
DEFPOINTS
  6
BYBLOCK
 62
     0
100
AcDbPoint
 10
465.344627
 20
348.443414
 30
0.0
  0
POINT
  5
9A
100
AcDbEntity
  8
DEFPOINTS
  6
BYBLOCK
 62
     0
100
AcDbPoint
 10
465.344627
 20
423.443414
 30
0.0
  0
POINT
  5
9B
100
AcDbEntity
  8
DEFPOINTS
  6
BYBLOCK
 62
     0
100
AcDbPoint
 10
390.158411
 20
423.443414
 30
0.0
  0
ENDBLK
  5
9D
100
AcDbEntity
  8
0
100
AcDbBlockEnd
  0
BLOCK
  5
90
100
AcDbEntity
  8
0
100
AcDbBlockBegin
  2
*D11
 70
     1
 10
0.0
 20
0.0
 30
0.0
  3
*D11
  1

  0
LINE
  5
88
100
AcDbEntity
  8
0
  6
BYBLOCK
 62
     4
100
AcDbLine
 10
464.344627
 20
473.443414
 30
0.0
 11
387.658411
 21
473.443414
 31
0.0
  0
LINE
  5
89
100
AcDbEntity
  8
0
  6
BYBLOCK
 62
     4
100
AcDbLine
 10
390.158411
 20
426.443414
 30
0.0
 11
390.158411
 21
470.443414
 31
0.0
  0
SOLID
  5
8A
100
AcDbEntity
  8
0
  6
BYBLOCK
 62
     4
100
AcDbTrace
 10
389.658411
 20
426.443414
 30
0.0
 11
390.658411
 21
426.443414
 31
0.0
 12
390.158411
 22
423.443414
 32
0.0
 13
390.158411
 23
423.443414
 33
0.0
  0
SOLID
  5
8B
100
AcDbEntity
  8
0
  6
BYBLOCK
 62
     4
100
AcDbTrace
 10
389.658411
 20
470.443414
 30
0.0
 11
390.658411
 21
470.443414
 31
0.0
 12
390.158411
 22
473.443414
 32
0.0
 13
390.158411
 23
473.443414
 33
0.0
  0
MTEXT
  5
8C
100
AcDbEntity
  8
0
  6
BYBLOCK
 62
     2
100
AcDbMText
 10
387.158411
 20
448.443414
 30
0.0
 40
3.0
 41
0.0
 71
     5
 72
     1
  1
\A1;A=50.00
 11
0.0
 21
1.0
 31
0.0
  0
POINT
  5
8D
100
AcDbEntity
  8
DEFPOINTS
  6
BYBLOCK
 62
     0
100
AcDbPoint
 10
465.344627
 20
423.443414
 30
0.0
  0
POINT
  5
8E
100
AcDbEntity
  8
DEFPOINTS
  6
BYBLOCK
 62
     0
100
AcDbPoint
 10
465.344627
 20
473.443414
 30
0.0
  0
POINT
  5
8F
100
AcDbEntity
  8
DEFPOINTS
  6
BYBLOCK
 62
     0
100
AcDbPoint
 10
390.158411
 20
473.443414
 30
0.0
  0
ENDBLK
  5
91
100
AcDbEntity
  8
0
100
AcDbBlockEnd
  0
BLOCK
  5
84
100
AcDbEntity
  8
0
100
AcDbBlockBegin
  2
*D12
 70
     1
 10
0.0
 20
0.0
 30
0.0
  3
*D12
  1

  0
LINE
  5
7B
100
AcDbEntity
  8
0
  6
BYBLOCK
 62
     4
100
AcDbLine
 10
466.782956
 20
267.443414
 30
0.0
 11
377.635418
 21
267.443414
 31
0.0
  0
LINE
  5
7C
100
AcDbEntity
  8
0
  6
BYBLOCK
 62
     4
100
AcDbLine
 10
489.044627
 20
537.443414
 30
0.0
 11
377.635418
 21
537.443414
 31
0.0
  0
LINE
  5
7D
100
AcDbEntity
  8
0
  6
BYBLOCK
 62
     4
100
AcDbLine
 10
380.135418
 20
270.443414
 30
0.0
 11
380.135418
 21
534.443414
 31
0.0
  0
SOLID
  5
7E
100
AcDbEntity
  8
0
  6
BYBLOCK
 62
     4
100
AcDbTrace
 10
379.635418
 20
270.443414
 30
0.0
 11
380.635418
 21
270.443414
 31
0.0
 12
380.135418
 22
267.443414
 32
0.0
 13
380.135418
 23
267.443414
 33
0.0
  0
SOLID
  5
7F
100
AcDbEntity
  8
0
  6
BYBLOCK
 62
     4
100
AcDbTrace
 10
379.635418
 20
534.443414
 30
0.0
 11
380.635418
 21
534.443414
 31
0.0
 12
380.135418
 22
537.443414
 32
0.0
 13
380.135418
 23
537.443414
 33
0.0
  0
MTEXT
  5
80
100
AcDbEntity
  8
0
  6
BYBLOCK
 62
     2
100
AcDbMText
 10
377.135418
 20
402.443414
 30
0.0
 40
3.0
 41
0.0
 71
     5
 72
     1
  1
\A1;L=270.00
 11
0.0
 21
1.0
 31
0.0
  0
POINT
  5
81
100
AcDbEntity
  8
DEFPOINTS
  6
BYBLOCK
 62
     0
100
AcDbPoint
 10
467.782956
 20
267.443414
 30
0.0
  0
POINT
  5
82
100
AcDbEntity
  8
DEFPOINTS
  6
BYBLOCK
 62
     0
100
AcDbPoint
 10
490.044627
 20
537.443414
 30
0.0
  0
POINT
  5
83
100
AcDbEntity
  8
DEFPOINTS
  6
BYBLOCK
 62
     0
100
AcDbPoint
 10
380.135418
 20
537.443414
 30
0.0
  0
ENDBLK
  5
85
100
AcDbEntity
  8
0
100
AcDbBlockEnd
  0
BLOCK
  5
77
100
AcDbEntity
  8
0
100
AcDbBlockBegin
  2
*D13
 70
     1
 10
0.0
 20
0.0
 30
0.0
  3
*D13
  1

  0
LINE
  5
6E
100
AcDbEntity
  8
0
  6
BYBLOCK
 62
     4
100
AcDbLine
 10
482.044627
 20
491.143414
 30
0.0
 11
482.044627
 21
657.284199
 31
0.0
  0
LINE
  5
6F
100
AcDbEntity
  8
0
  6
BYBLOCK
 62
     4
100
AcDbLine
 10
532.044627
 20
640.565995
 30
0.0
 11
532.044627
 21
657.284199
 31
0.0
  0
LINE
  5
70
100
AcDbEntity
  8
0
  6
BYBLOCK
 62
     4
100
AcDbLine
 10
485.044627
 20
654.784199
 30
0.0
 11
529.044627
 21
654.784199
 31
0.0
  0
SOLID
  5
71
100
AcDbEntity
  8
0
  6
BYBLOCK
 62
     4
100
AcDbTrace
 10
485.044627
 20
655.284199
 30
0.0
 11
485.044627
 21
654.284199
 31
0.0
 12
482.044627
 22
654.784199
 32
0.0
 13
482.044627
 23
654.784199
 33
0.0
  0
SOLID
  5
72
100
AcDbEntity
  8
0
  6
BYBLOCK
 62
     4
100
AcDbTrace
 10
529.044627
 20
655.284199
 30
0.0
 11
529.044627
 21
654.284199
 31
0.0
 12
532.044627
 22
654.784199
 32
0.0
 13
532.044627
 23
654.784199
 33
0.0
  0
MTEXT
  5
73
100
AcDbEntity
  8
0
  6
BYBLOCK
 62
     2
100
AcDbMText
 10
507.044627
 20
657.784199
 30
0.0
 40
3.0
 41
0.0
 71
     5
 72
     1
  1
\A1;C=50.00
  0
POINT
  5
74
100
AcDbEntity
  8
DEFPOINTS
  6
BYBLOCK
 62
     0
100
AcDbPoint
 10
482.044627
 20
490.143414
 30
0.0
  0
POINT
  5
75
100
AcDbEntity
  8
DEFPOINTS
  6
BYBLOCK
 62
     0
100
AcDbPoint
 10
532.044627
 20
639.565995
 30
0.0
  0
POINT
  5
76
100
AcDbEntity
  8
DEFPOINTS
  6
BYBLOCK
 62
     0
100
AcDbPoint
 10
532.044627
 20
654.784199
 30
0.0
  0
ENDBLK
  5
78
100
AcDbEntity
  8
0
100
AcDbBlockEnd
  0
BLOCK
  5
6A
100
AcDbEntity
  8
0
100
AcDbBlockBegin
  2
*D14
 70
     1
 10
0.0
 20
0.0
 30
0.0
  3
*D14
  1

  0
LINE
  5
62
100
AcDbEntity
  8
0
  6
BYBLOCK
 62
     4
100
AcDbLine
 10
582.044627
 20
491.143414
 30
0.0
 11
582.044627
 21
657.284199
 31
0.0
  0
LINE
  5
63
100
AcDbEntity
  8
0
  6
BYBLOCK
 62
     4
100
AcDbLine
 10
535.044627
 20
654.784199
 30
0.0
 11
579.044627
 21
654.784199
 31
0.0
  0
SOLID
  5
64
100
AcDbEntity
  8
0
  6
BYBLOCK
 62
     4
100
AcDbTrace
 10
535.044627
 20
655.284199
 30
0.0
 11
535.044627
 21
654.284199
 31
0.0
 12
532.044627
 22
654.784199
 32
0.0
 13
532.044627
 23
654.784199
 33
0.0
  0
SOLID
  5
65
100
AcDbEntity
  8
0
  6
BYBLOCK
 62
     4
100
AcDbTrace
 10
579.044627
 20
655.284199
 30
0.0
 11
579.044627
 21
654.284199
 31
0.0
 12
582.044627
 22
654.784199
 32
0.0
 13
582.044627
 23
654.784199
 33
0.0
  0
MTEXT
  5
66
100
AcDbEntity
  8
0
  6
BYBLOCK
 62
     2
100
AcDbMText
 10
557.044627
 20
657.784199
 30
0.0
 40
3.0
 41
0.0
 71
     5
 72
     1
  1
\A1;C=50.00
  0
POINT
  5
67
100
AcDbEntity
  8
DEFPOINTS
  6
BYBLOCK
 62
     0
100
AcDbPoint
 10
532.044627
 20
639.565995
 30
0.0
  0
POINT
  5
68
100
AcDbEntity
  8
DEFPOINTS
  6
BYBLOCK
 62
     0
100
AcDbPoint
 10
582.044627
 20
490.143414
 30
0.0
  0
POINT
  5
69
100
AcDbEntity
  8
DEFPOINTS
  6
BYBLOCK
 62
     0
100
AcDbPoint
 10
582.044627
 20
654.784199
 30
0.0
  0
ENDBLK
  5
6B
100
AcDbEntity
  8
0
100
AcDbBlockEnd
  0
BLOCK
  5
5E
100
AcDbEntity
  8
0
100
AcDbBlockBegin
  2
*D15
 70
     1
 10
0.0
 20
0.0
 30
0.0
  3
*D15
  1

  0
LINE
  5
54
100
AcDbEntity
  8
0
  6
BYBLOCK
 62
     4
100
AcDbLine
 10
450.044627
 20
487.705084
 30
0.0
 11
450.044627
 21
667.722804
 31
0.0
  0
LINE
  5
55
100
AcDbEntity
  8
0
  6
BYBLOCK
 62
     4
100
AcDbLine
 10
614.044627
 20
487.705084
 30
0.0
 11
614.044627
 21
667.722804
 31
0.0
  0
LINE
  5
56
100
AcDbEntity
  8
0
  6
BYBLOCK
 62
     4
100
AcDbLine
 10
453.044627
 20
665.222804
 30
0.0
 11
611.044627
 21
665.222804
 31
0.0
  0
SOLID
  5
57
100
AcDbEntity
  8
0
  6
BYBLOCK
 62
     4
100
AcDbTrace
 10
453.044627
 20
665.722804
 30
0.0
 11
453.044627
 21
664.722804
 31
0.0
 12
450.044627
 22
665.222804
 32
0.0
 13
450.044627
 23
665.222804
 33
0.0
  0
SOLID
  5
58
100
AcDbEntity
  8
0
  6
BYBLOCK
 62
     4
100
AcDbTrace
 10
611.044627
 20
665.722804
 30
0.0
 11
611.044627
 21
664.722804
 31
0.0
 12
614.044627
 22
665.222804
 32
0.0
 13
614.044627
 23
665.222804
 33
0.0
  0
MTEXT
  5
59
100
AcDbEntity
  8
0
  6
BYBLOCK
 62
     2
100
AcDbMText
 10
532.044627
 20
668.222804
 30
0.0
 40
3.0
 41
0.0
 71
     5
 72
     1
  1
\A1;L1=164.00
  0
POINT
  5
5A
100
AcDbEntity
  8
DEFPOINTS
  6
BYBLOCK
 62
     0
100
AcDbPoint
 10
450.044627
 20
486.705084
 30
0.0
  0
POINT
  5
5C
100
AcDbEntity
  8
DEFPOINTS
  6
BYBLOCK
 62
     0
100
AcDbPoint
 10
614.044627
 20
486.705084
 30
0.0
  0
POINT
  5
5D
100
AcDbEntity
  8
DEFPOINTS
  6
BYBLOCK
 62
     0
100
AcDbPoint
 10
614.044627
 20
665.222804
 30
0.0
  0
ENDBLK
  5
5F
100
AcDbEntity
  8
0
100
AcDbBlockEnd
  0
ENDSEC
  0
SECTION
  2
ENTITIES
  0
TEXT
  5
20
100
AcDbEntity
  8
TEXT
100
AcDbText
 10
683.535597
 20
640.517704
 30
0.0
 40
6.0
  1
depending on the bush size to be used.
100
AcDbText
  0
TEXT
  5
22
100
AcDbEntity
  8
TEXT
100
AcDbText
 10
650.869641
 20
650.614112
 30
0.0
 40
6.0
  1
NOTE: Manifold width `W' can be 50mm or 64mm
100
AcDbText
  0
TEXT
  5
23
100
AcDbEntity
  8
TEXT
100
AcDbText
 10
271.944849
 20
172.256877
 30
0.0
 40
6.0
  1
design may vary from this example !
100
AcDbText
  0
TEXT
  5
24
100
AcDbEntity
  8
TEXT
100
AcDbText
 10
271.563982
 20
182.353285
 30
0.0
 40
6.0
  1
you finalize your tool design, as our final system
100
AcDbText
  0
TEXT
  5
25
100
AcDbEntity
  8
TEXT
100
AcDbText
 10
248.269862
 20
192.449693
 30
0.0
 40
6.0
  1
N.B. ALL designs MUST be approved by Fast Heat BEFORE
100
AcDbText
  0
ARC
  5
26
100
AcDbEntity
  8
M04
100
AcDbCircle
 10
458.044627
 20
288.495452
 30
0.0
 40
15.0
100
AcDbArc
 50
180.0
 51
225.0
  0
ARC
  5
28
100
AcDbEntity
  8
M04
100
AcDbCircle
 10
471.096665
 20
275.443414
 30
0.0
 40
15.0
100
AcDbArc
 50
225.0
 51
270.0
  0
ARC
  5
29
100
AcDbEntity
  8
M04
100
AcDbCircle
 10
606.044627
 20
288.495452
 30
0.0
 40
15.0
100
AcDbArc
 50
315.0
 51
0.0
  0
ARC
  5
2A
100
AcDbEntity
  8
M04
100
AcDbCircle
 10
592.992588
 20
275.443414
 30
0.0
 40
15.0
100
AcDbArc
 50
270.0
 51
315.0
  0
LINE
  5
2B
100
AcDbEntity
  8
M01
100
AcDbLine
 10
614.044627
 20
285.181744
 30
0.0
 11
596.306297
 21
267.443414
 31
0.0
  0
LINE
  5
2D
100
AcDbEntity
  8
M04
100
AcDbLine
 10
616.651228
 20
277.888851
 30
0.0
 11
603.59919
 21
264.836812
 31
0.0
  0
LINE
  5
2E
100
AcDbEntity
  8
M01
100
AcDbLine
 10
450.044627
 20
285.181744
 30
0.0
 11
467.782956
 21
267.443414
 31
0.0
  0
LINE
  5
2F
100
AcDbEntity
  8
M04
100
AcDbLine
 10
447.438025
 20
277.888851
 30
0.0
 11
460.490063
 21
264.836812
 31
0.0
  0
LINE
  5
30
100
AcDbEntity
  8
M04
100
AcDbLine
 10
473.044627
 20
512.443414
 30
0.0
 11
478.044627
 21
517.443414
 31
0.0
  0
LINE
  5
31
100
AcDbEntity
  8
M04
100
AcDbLine
 10
591.044627
 20
512.443414
 30
0.0
 11
586.044627
 21
517.443414
 31
0.0
  0
ARC
  5
32
100
AcDbEntity
  8
M04
100
AcDbCircle
 10
472.096665
 20
497.443414
 30
0.0
 40
15.0
100
AcDbArc
 50
90.0
 51
135.0
  0
ARC
  5
33
100
AcDbEntity
  8
M04
100
AcDbCircle
 10
591.992588
 20
497.443414
 30
0.0
 40
15.0
100
AcDbArc
 50
45.0
 51
90.0
  0
LINE
  5
34
100
AcDbEntity
  8
M04
100
AcDbLine
 10
591.992588
 20
512.443414
 30
0.0
 11
591.044627
 21
512.443414
 31
0.0
  0
LINE
  5
35
100
AcDbEntity
  8
M04
100
AcDbLine
 10
472.096665
 20
512.443414
 30
0.0
 11
473.044627
 21
512.443414
 31
0.0
  0
ARC
  5
36
100
AcDbEntity
  8
M04
100
AcDbCircle
 10
458.044627
 20
483.391376
 30
0.0
 40
15.0
100
AcDbArc
 50
135.0
 51
180.0
  0
ARC
  5
37
100
AcDbEntity
  8
M04
100
AcDbCircle
 10
606.044627
 20
483.391376
 30
0.0
 40
15.0
100
AcDbArc
 50
360.0
 51
45.0
  0
ARC
  5
38
100
AcDbEntity
  8
M04
100
AcDbCircle
 10
606.044627
 20
358.391376
 30
0.0
 40
15.0
100
AcDbArc
 50
0.0
 51
45.0
  0
ARC
  5
39
100
AcDbEntity
  8
M04
100
AcDbCircle
 10
606.044627
 20
413.495452
 30
0.0
 40
15.0
100
AcDbArc
 50
315.0
 51
0.0
  0
ARC
  5
3A
100
AcDbEntity
  8
M04
100
AcDbCircle
 10
458.044627
 20
413.495452
 30
0.0
 40
15.0
100
AcDbArc
 50
180.0
 51
225.0
  0
ARC
  5
3B
100
AcDbEntity
  8
M04
100
AcDbCircle
 10
458.044627
 20
358.391376
 30
0.0
 40
15.0
100
AcDbArc
 50
135.0
 51
180.0
  0
ARC
  5
3C
100
AcDbEntity
  8
M04
100
AcDbCircle
 10
606.77686
 20
385.943414
 30
0.0
 40
5.0
100
AcDbArc
 50
135.0
 51
225.0
  0
ARC
  5
3D
100
AcDbEntity
  8
M04
100
AcDbCircle
 10
457.312394
 20
385.943414
 30
0.0
 40
5.0
100
AcDbArc
 50
315.0
 51
45.0
  0
ARC
  5
3E
100
AcDbEntity
  8
M01
100
AcDbCircle
 10
606.77686
 20
385.943414
 30
0.0
 40
12.0
100
AcDbArc
 50
135.0
 51
225.0
  0
ARC
  5
3F
100
AcDbEntity
  8
M01
100
AcDbCircle
 10
457.312394
 20
385.943414
 30
0.0
 40
12.0
100
AcDbArc
 50
315.0
 51
45.0
  0
LINE
  5
40
100
AcDbEntity
  8
M01
100
AcDbLine
 10
450.044627
 20
410.181744
 30
0.0
 11
465.797675
 21
394.428695
 31
0.0
  0
LINE
  5
41
100
AcDbEntity
  8
M01
100
AcDbLine
 10
450.044627
 20
361.705084
 30
0.0
 11
465.797675
 21
377.458133
 31
0.0
  0
LINE
  5
42
100
AcDbEntity
  8
M04
100
AcDbLine
 10
447.438025
 20
368.997978
 30
0.0
 11
460.847927
 21
382.40788
 31
0.0
  0
LINE
  5
43
100
AcDbEntity
  8
M04
100
AcDbLine
 10
447.438025
 20
402.888851
 30
0.0
 11
460.847927
 21
389.478948
 31
0.0
  0
LINE
  5
44
100
AcDbEntity
  8
M01
100
AcDbLine
 10
614.044627
 20
361.705084
 30
0.0
 11
598.291578
 21
377.458133
 31
0.0
  0
LINE
  5
45
100
AcDbEntity
  8
M04
100
AcDbLine
 10
616.651228
 20
368.997978
 30
0.0
 11
603.241326
 21
382.40788
 31
0.0
  0
LINE
  5
46
100
AcDbEntity
  8
M01
100
AcDbLine
 10
614.044627
 20
410.181744
 30
0.0
 11
598.291578
 21
394.428695
 31
0.0
  0
LINE
  5
47
100
AcDbEntity
  8
M04
100
AcDbLine
 10
616.651228
 20
402.888851
 30
0.0
 11
603.241326
 21
389.478948
 31
0.0
  0
LINE
  5
48
100
AcDbEntity
  8
M01
100
AcDbLine
 10
450.044627
 20
486.705084
 30
0.0
 11
468.782956
 21
505.443414
 31
0.0
  0
LINE
  5
49
100
AcDbEntity
  8
M04
100
AcDbLine
 10
447.438025
 20
493.997978
 30
0.0
 11
461.490063
 21
508.050016
 31
0.0
  0
LINE
  5
4A
100
AcDbEntity
  8
M04
100
AcDbLine
 10
616.651228
 20
493.997978
 30
0.0
 11
602.59919
 21
508.050016
 31
0.0
  0
LINE
  5
4B
100
AcDbEntity
  8
M01
100
AcDbLine
 10
614.044627
 20
486.705084
 30
0.0
 11
595.306297
 21
505.443414
 31
0.0
  0
HATCH
  5
4C
100
AcDbEntity
  8
HATCH
100
AcDbHatch
 10
0.0
 20
0.0
 30
0.0
210
0.0
220
0.0
230
1.0
  2
_U
 70
     0
 71
     1
 91
        5
 92
        7
 72
     0
 73
     1
 93
        4
 10
724.7880055868598
 20
525.4434140619696
 10
721.7880055868596
 20
525.4434140619696
 10
721.7880055868596
 20
491.4434140619694
 10
724.7880055868598
 20
491.4434140619693
 97
        4
330
604
330
60A
330
2BE
330
612
 92
        7
 72
     0
 73
     1
 93
        4
 10
724.7880055868598
 20
455.4434140619694
 10
721.7880055868597
 20
455.4434140619693
 10
721.7880055868597
 20
441.4434140619693
 10
724.7880055868598
 20
441.4434140619695
 97
        4
330
2BD
330
60A
330
280
330
612
 92
        7
 72
     0
 73
     1
 93
        4
 10
724.7880055868598
 20
405.4434140619693
 10
721.7880055868597
 20
405.4434140619694
 10
721.7880055868597
 20
396.9434140619695
 10
724.7880055868599
 20
396.9434140619694
 97
        4
330
27F
330
60A
330
496
330
612
 92
        7
 72
     0
 73
     1
 93
        4
 10
787.7880055868595
 20
458.4434140619694
 10
784.7880055868595
 20
458.4434140619694
 10
784.7880055868596
 20
420.9434140619693
 10
787.7880055868594
 20
420.9434140619694
 97
        4
330
2B6
330
60F
330
1FE
330
27B
 92
        7
 72
     0
 73
     1
 93
        4
 10
787.7880055868595
 20
535.4434140619696
 10
784.7880055868594
 20
535.4434140619696
 10
784.7880055868593
 20
488.4434140619693
 10
787.7880055868595
 20
488.4434140619694
 97
        4
330
607
330
60F
330
2B7
330
609
 75
     0
 76
     0
 52
135.0
 41
0.8
 77
     0
 78
     1
 53
135.0
 43
0.0
 44
0.0
 45
-0.5656854249492382
 46
-0.565685424949238
 79
     0
 47
0.204233
 98
        5
 10
724.147457
 20
500.712811
 10
722.512947
 20
451.084101
 10
723.534517
 20
402.06809
 10
786.463101
 20
425.350696
 10
786.258786
 20
492.951943
  0
HATCH
  5
4D
100
AcDbEntity
  8
HATCH
100
AcDbHatch
 10
0.0
 20
0.0
 30
0.0
210
0.0
220
0.0
230
1.0
  2
_U
 70
     0
 71
     1
 91
        2
 92
        7
 72
     0
 73
     1
 93
        4
 10
787.7880055868593
 20
350.9434140619694
 10
784.7880055868598
 20
350.9434140619694
 10
784.78800558686
 20
313.4434140619694
 10
787.7880055868591
 20
313.4434140619694
 97
        4
330
1FC
330
266
330
4D9
330
24B
 92
        7
 72
     0
 73
     1
 93
        4
 10
787.7880055868593
 20
283.4434140619694
 10
784.7880055868598
 20
283.4434140619694
 10
784.7880055868597
 20
269.4434140619697
 10
787.7880055868593
 20
269.4434140619696
 97
        4
330
4D8
330
266
330
3EB
330
3EA
 75
     0
 76
     0
 52
135.0
 41
0.8
 77
     0
 78
     1
 53
135.0
 43
0.0
 44
0.0
 45
-0.5656854249492382
 46
-0.565685424949238
 79
     0
 47
0.178179
 98
        2
 10
787.183246
 20
346.501906
 10
786.113752
 20
280.219351
  0
HATCH
  5
4E
100
AcDbEntity
  8
HATCH
100
AcDbHatch
 10
0.0
 20
0.0
 30
0.0
210
0.0
220
0.0
230
1.0
  2
_U
 70
     0
 71
     0
 91
        3
 92
        7
 72
     0
 73
     1
 93
        4
 10
724.7880055868598
 20
374.9434140619694
 10
721.7880055868597
 20
374.9434140619694
 10
721.7880055868597
 20
366.4434140619693
 10
724.7880055868599
 20
366.4434140619693
 97
        0
 92
        7
 72
     0
 73
     1
 93
        4
 10
724.7880055868598
 20
330.4434140619692
 10
721.7880055868598
 20
330.4434140619692
 10
721.7880055868597
 20
316.4434140619694
 10
724.7880055868599
 20
316.4434140619694
 97
        0
 92
        7
 72
     0
 73
     1
 93
        4
 10
724.7880055868598
 20
280.4434140619694
 10
721.7880055868599
 20
280.4434140619694
 10
721.7880055868599
 20
269.4434140619696
 10
724.78800558686
 20
269.4434140619696
 97
        0
 75
     0
 76
     0
 52
135.0
 41
0.8
 77
     0
 78
     1
 53
135.0
 43
0.0
 44
0.0
 45
-0.5656854249492382
 46
-0.565685424949238
 79
     0
 47
0.178179
 98
        3
 10
723.726639
 20
370.377881
 10
723.548392
 20
326.367689
 10
722.835396
 20
278.61574
  0
HATCH
  5
4F
100
AcDbEntity
  8
HATCH
100
AcDbHatch
 10
0.0
 20
0.0
 30
0.0
210
0.0
220
0.0
230
1.0
  2
_U
 70
     0
 71
     1
 91
       21
 92
        7
 72
     1
 73
     1
 93
       44
 10
783.7880055868598
 20
311.7434140619693
 42
0.0
 10
784.48800558686
 20
312.4434140619694
 42
0.0
 10
784.7880055868597
 20
312.4434140619694
 42
0.0
 10
784.7880055868596
 20
356.9434140619694
 42
0.0
 10
777.4880055868598
 20
356.9434140619694
 42
0.0
 10
774.98800558686
 20
356.9434140619694
 42
0.0
 10
774.98800558686
 20
357.6434140619695
 42
0.0
 10
773.4880055868599
 20
357.6434140619694
 42
0.0
 10
772.1600999677238
 20
359.9434140619694
 42
0.0
 10
773.4880055868599
 20
362.2434140619694
 42
0.0
 10
774.9880055868599
 20
362.2434140619694
 42
0.0
 10
774.9880055868599
 20
362.9434140619694
 42
0.0
 10
777.4880055868597
 20
362.9434140619694
 42
0.0
 10
784.7880055868597
 20
362.9434140619694
 42
0.0
 10
784.7880055868595
 20
375.4434140619696
 42
0.0
 10
784.2880055868603
 20
375.9434140619694
 42
0.0
 10
775.7880055868599
 20
375.9434140619694
 42
0.0
 10
774.7880055868599
 20
375.9434140619696
 42
0.0
 10
774.7880055868599
 20
376.9434140619694
 42
0.0
 10
774.7880055868599
 20
381.9434140619694
 42
0.0
 10
767.7880055868594
 20
381.9434140619694
 42
0.0
 10
767.7880055868594
 20
323.4434140619693
 42
-0.4142135623730951
 10
763.7880055868594
 20
319.4434140619692
 42
0.0
 10
745.78800558686
 20
319.4434140619693
 42
0.0
 10
745.78800558686
 20
298.4434140619693
 42
-0.4142135623730951
 10
741.78800558686
 20
294.4434140619692
 42
0.0
 10
724.7880055868599
 20
294.4434140619692
 42
0.0
 10
724.7880055868599
 20
280.1846808615501
 42
0.0
 10
728.7880055868594
 20
280.1846808615501
 42
-0.4142135623730951
 10
732.7880055868594
 20
276.1846808615501
 42
-0.4142135623730951
 10
728.7880055868594
 20
272.1846808615501
 42
0.0
 10
724.78800558686
 20
272.1846808615501
 42
0.0
 10
724.7880055868599
 20
269.4434140619694
 42
0.0
 10
726.7880055868596
 20
267.4434140619696
 42
0.0
 10
782.7880055868596
 20
267.4434140619696
 42
0.0
 10
784.7880055868598
 20
269.44341406197
 42
0.0
 10
784.7880055868597
 20
272.1846808615501
 42
0.0
 10
780.7880055868594
 20
272.1846808615501
 42
-0.4142135623730951
 10
776.7880055868594
 20
276.1846808615501
 42
-0.4142135623730951
 10
780.7880055868594
 20
280.1846808615501
 42
0.0
 10
784.7880055868597
 20
280.1846808615501
 42
0.0
 10
784.7880055868597
 20
284.4434140619694
 42
0.0
 10
784.4880055868599
 20
284.4434140619694
 42
0.0
 10
783.7880055868599
 20
285.1434140619694
 42
0.0
 97
       38
330
4D4
330
4D5
330
266
330
41F
330
40A
330
414
330
40B
330
411
330
412
330
409
330
408
330
41E
330
3ED
330
43D
330
44C
330
446
330
447
330
44A
330
5EC
330
273
330
24F
330
255
330
257
330
260
330
262
330
44F
330
538
330
53A
330
537
330
60E
330
610
330
60B
330
535
330
539
330
536
330
4D0
330
4CF
330
4DA
 92
       22
 72
     1
 73
     1
 93
        3
 10
767.7880055868594
 20
323.4434140619693
 42
0.0
 10
763.7880055868594
 20
323.4434140619693
 42
0.0
 10
763.7880055868594
 20
319.4434140619692
 42
0.4142135623730951
 97
        3
330
259
330
26D
330
24F
 92
       23
 72
     0
 73
     1
 93
        4
 10
763.7880055868595
 20
323.4434140619693
 10
741.78800558686
 20
323.4434140619693
 10
745.78800558686
 20
319.4434140619692
 10
763.7880055868594
 20
319.4434140619692
 97
        4
330
259
330
250
330
255
330
26D
 92
        7
 72
     0
 73
     1
 93
        4
 10
767.7880055868594
 20
381.9434140619694
 10
763.7880055868594
 20
381.9434140619694
 10
763.7880055868594
 20
323.4434140619693
 10
767.7880055868594
 20
323.4434140619692
 97
        4
330
5EC
330
26D
330
259
330
273
 92
       23
 72
     0
 73
     1
 93
        4
 10
759.7880055868594
 20
327.4434140619693
 10
745.78800558686
 20
327.4434140619693
 10
741.78800558686
 20
323.4434140619693
 10
763.7880055868594
 20
323.4434140619693
 97
        4
330
254
330
251
330
259
330
252
 92
        7
 72
     1
 73
     1
 93
        4
 10
763.7880055868594
 20
381.9434140619695
 42
-0.4142135623731076
 10
759.7880055868593
 20
385.9434140619694
 42
0.0
 10
759.7880055868593
 20
327.4434140619693
 42
0.0
 10
763.7880055868593
 20
323.4434140619693
 42
0.0
 97
        4
330
27A
330
271
330
252
330
26D
 92
       23
 72
     1
 73
     1
 93
        4
 10
745.78800558686
 20
348.4434140619693
 42
-0.4142135623730951
 10
741.78800558686
 20
344.4434140619692
 42
0.0
 10
741.7880055868602
 20
323.4434140619693
 42
0.0
 10
745.78800558686
 20
327.4434140619693
 42
0.0
 97
        4
330
25A
330
256
330
251
330
253
 92
       23
 72
     0
 73
     1
 93
        4
 10
741.78800558686
 20
344.4434140619692
 10
737.7880055868601
 20
344.4434140619692
 10
737.7880055868599
 20
323.4434140619693
 10
741.78800558686
 20
323.4434140619693
 97
        4
330
25C
330
258
330
259
330
256
 92
       23
 72
     0
 73
     1
 93
        4
 10
741.7880055868602
 20
323.4434140619693
 10
737.7880055868601
 20
323.4434140619693
 10
737.7880055868601
 20
302.4434140619693
 10
741.7880055868602
 20
302.4434140619693
 97
        4
330
259
330
258
330
261
330
256
 92
       22
 72
     1
 73
     1
 93
        4
 10
745.78800558686
 20
319.4434140619692
 42
0.0
 10
741.78800558686
 20
323.4434140619692
 42
0.0
 10
741.7880055868602
 20
302.4434140619693
 42
-0.4142135623730868
 10
745.78800558686
 20
298.4434140619693
 42
0.0
 97
        4
330
250
330
256
330
260
330
257
 92
       23
 72
     0
 73
     1
 93
        4
 10
737.7880055868601
 20
344.4434140619692
 10
724.7880055868599
 20
344.4434140619692
 10
724.7880055868599
 20
302.4434140619693
 10
737.7880055868601
 20
302.4434140619693
 97
        4
330
25C
330
44F
330
261
330
258
 92
        7
 72
     1
 73
     1
 93
       11
 10
759.7880055868594
 20
385.9434140619694
 42
0.0
 10
729.7880055868598
 20
385.9434140619694
 42
0.0
 10
729.7880055868598
 20
377.4434140619694
 42
0.0
 10
729.7880055868598
 20
376.4434140619694
 42
0.0
 10
728.7880055868598
 20
376.4434140619694
 42
0.0
 10
724.7880055868599
 20
376.4434140619694
 42
0.0
 10
724.7880055868598
 20
352.4434140619693
 42
0.0
 10
741.78800558686
 20
352.4434140619693
 42
-0.4142135623730951
 10
745.78800558686
 20
348.4434140619693
 42
0.0
 10
745.78800558686
 20
327.4434140619693
 42
0.0
 10
759.7880055868594
 20
327.4434140619693
 42
0.0
 97
       11
330
5FF
330
4A4
330
494
330
495
330
4A3
330
44F
330
25B
330
25A
330
253
330
254
330
271
 92
       22
 72
     0
 73
     1
 93
        4
 10
784.4880055868599
 20
312.4434140619695
 10
783.7880055868601
 20
311.7434140619695
 10
783.7880055868601
 20
307.3022960494264
 10
784.4880055868599
 20
306.6022960494264
 97
        4
330
4D4
330
4DA
330
4BB
330
4CE
 92
       22
 72
     0
 73
     1
 93
        4
 10
784.7880055868597
 20
312.4434140619694
 10
784.48800558686
 20
312.4434140619694
 10
784.4880055868599
 20
306.602296049426
 10
784.7880055868597
 20
306.3022960494261
 97
        4
330
4D5
330
4CE
330
4C6
330
266
 92
       23
 72
     0
 73
     1
 93
        4
 10
784.4880055868598
 20
306.6022960494267
 10
783.7880055868598
 20
307.3022960494264
 10
783.7880055868598
 20
298.4434140619694
 10
784.4880055868599
 20
298.4434140619694
 97
        4
330
4BB
330
4DA
330
4DC
330
4CE
 92
       23
 72
     0
 73
     1
 93
        4
 10
784.7880055868597
 20
306.3022960494263
 10
784.48800558686
 20
306.6022960494263
 10
784.4880055868599
 20
298.4434140619694
 10
784.7880055868598
 20
298.4434140619694
 97
        4
330
4C6
330
4CE
330
4DC
330
266
 92
       23
 72
     0
 73
     1
 93
        4
 10
784.48800558686
 20
298.4434140619694
 10
783.7880055868599
 20
298.4434140619694
 10
783.7880055868599
 20
289.5845320745123
 10
784.4880055868599
 20
290.2845320745124
 97
        4
330
4DC
330
4DA
330
4BC
330
4CE
 92
       23
 72
     0
 73
     1
 93
        4
 10
784.7880055868597
 20
298.4434140619694
 10
784.4880055868599
 20
298.4434140619694
 10
784.4880055868599
 20
290.2845320745123
 10
784.7880055868597
 20
290.5845320745121
 97
        4
330
4DC
330
4CE
330
4C8
330
266
 92
       23
 72
     0
 73
     1
 93
        4
 10
784.4880055868599
 20
290.2845320745123
 10
783.7880055868601
 20
289.5845320745124
 10
783.7880055868601
 20
285.1434140619695
 10
784.4880055868599
 20
284.4434140619693
 97
        4
330
4BC
330
4DA
330
4CF
330
4CE
 92
       23
 72
     0
 73
     1
 93
        4
 10
784.7880055868597
 20
290.584532074512
 10
784.48800558686
 20
290.2845320745124
 10
784.48800558686
 20
284.4434140619694
 10
784.7880055868597
 20
284.4434140619694
 97
        4
330
4C8
330
4CE
330
4D0
330
266
 92
       24
 93
        4
 72
     1
 10
749.804946
 20
276.678082
 11
764.004946
 21
276.678082
 72
     1
 10
764.004946
 20
276.678082
 11
764.004946
 21
279.678082
 72
     1
 10
764.004946
 20
279.678082
 11
749.804946
 21
279.678082
 72
     1
 10
749.804946
 20
279.678082
 11
749.804946
 21
276.678082
 97
        1
330
4FB
 75
     0
 76
     0
 52
45.0
 41
6.0
 77
     0
 78
     1
 53
45.0
 43
0.0
 44
0.0
 45
-4.242640687119284
 46
4.242640687119285
 79
     0
 47
0.043944
 98
       20
 10
761.158908
 20
290.553728
 10
766.149876
 20
322.091395
 10
758.841671
 20
321.913217
 10
766.328126
 20
325.833152
 10
757.237433
 20
325.833152
 10
762.763148
 20
328.327658
 10
744.581759
 20
328.684015
 10
740.482035
 20
328.149478
 10
740.482035
 20
317.636922
 10
743.868765
 20
315.320596
 10
732.995582
 20
311.935198
 10
750.820471
 20
337.058423
 10
784.257995
 20
309.727419
 10
784.653641
 20
309.771364
 10
784.301956
 20
305.640673
 10
784.697602
 20
305.860391
 10
783.906307
 20
296.588309
 10
784.60968
 20
297.247462
 10
783.906307
 20
288.370873
 10
784.697602
 20
289.381573
  0
HATCH
  5
50
100
AcDbEntity
  8
HATCH
100
AcDbHatch
 10
0.0
 20
0.0
 30
0.0
210
0.0
220
0.0
230
1.0
  2
_U
 70
     0
 71
     0
 91
       20
 92
        7
 72
     1
 73
     1
 93
       11
 10
759.7880055868594
 20
444.4434140619693
 42
0.0
 10
745.78800558686
 20
444.4434140619693
 42
0.0
 10
745.78800558686
 20
423.4434140619693
 42
-0.4142135623730951
 10
741.78800558686
 20
419.4434140619693
 42
0.0
 10
724.7880055868598
 20
419.4434140619693
 42
0.0
 10
724.7880055868598
 20
395.4434140619694
 42
0.0
 10
728.7880055868598
 20
395.4434140619694
 42
0.0
 10
729.7880055868598
 20
395.4434140619694
 42
0.0
 10
729.7880055868598
 20
394.4434140619694
 42
0.0
 10
729.7880055868598
 20
385.9434140619694
 42
0.0
 10
759.7880055868595
 20
385.9434140619694
 42
0.0
 97
        0
 92
        7
 72
     1
 73
     1
 93
        4
 10
763.7880055868594
 20
448.4434140619694
 42
0.0
 10
759.7880055868595
 20
444.4434140619695
 42
0.0
 10
759.7880055868594
 20
385.9434140619694
 42
-0.4142135623730992
 10
763.7880055868594
 20
389.9434140619693
 42
0.0
 97
        0
 92
        7
 72
     0
 73
     1
 93
        4
 10
767.7880055868595
 20
448.4434140619693
 10
763.7880055868594
 20
448.4434140619693
 10
763.7880055868594
 20
389.9434140619693
 10
767.7880055868594
 20
389.9434140619694
 97
        0
 92
        7
 72
     1
 73
     1
 93
       35
 10
784.7880055868597
 20
408.9434140619694
 42
0.0
 10
777.4880055868598
 20
408.9434140619694
 42
0.0
 10
774.98800558686
 20
408.9434140619694
 42
0.0
 10
774.98800558686
 20
409.6434140619694
 42
0.0
 10
773.4880055868598
 20
409.6434140619694
 42
0.0
 10
772.1600999677239
 20
411.9434140619695
 42
0.0
 10
773.4880055868599
 20
414.2434140619694
 42
0.0
 10
774.9880055868599
 20
414.2434140619694
 42
0.0
 10
774.9880055868599
 20
414.9434140619694
 42
0.0
 10
777.4880055868597
 20
414.9434140619694
 42
0.0
 10
784.7880055868596
 20
414.9434140619694
 42
0.0
 10
784.7880055868595
 20
459.4434140619694
 42
0.0
 10
784.48800558686
 20
459.4434140619695
 42
0.0
 10
783.7880055868599
 20
460.1434140619694
 42
0.0
 10
783.7880055868599
 20
486.7434140619694
 42
0.0
 10
784.4880055868599
 20
487.4434140619694
 42
0.0
 10
784.7880055868595
 20
487.4434140619694
 42
0.0
 10
784.7880055868596
 20
535.4434140619694
 42
0.0
 10
782.7880055868595
 20
537.4434140619696
 42
0.0
 10
730.7880055868597
 20
537.4434140619696
 42
0.0
 10
730.7880055868597
 20
525.4434140619696
 42
0.0
 10
724.7880055868598
 20
525.4434140619696
 42
0.0
 10
724.7880055868599
 20
477.4434140619693
 42
0.0
 10
741.78800558686
 20
477.4434140619693
 42
-0.4142135623730951
 10
745.78800558686
 20
473.4434140619693
 42
0.0
 10
745.78800558686
 20
452.4434140619693
 42
0.0
 10
763.7880055868594
 20
452.4434140619693
 42
-0.4142135623730951
 10
767.7880055868594
 20
448.4434140619693
 42
0.0
 10
767.7880055868593
 20
389.9434140619693
 42
0.0
 10
774.7880055868599
 20
389.9434140619693
 42
0.0
 10
774.7880055868598
 20
394.9434140619694
 42
0.0
 10
774.7880055868598
 20
395.9434140619692
 42
0.0
 10
775.7880055868598
 20
395.9434140619692
 42
0.0
 10
784.2880055868601
 20
395.9434140619693
 42
0.0
 10
784.7880055868597
 20
396.4434140619692
 42
0.0
 97
        0
 92
       22
 72
     1
 73
     1
 93
        3
 10
763.7880055868594
 20
452.4434140619693
 42
0.0
 10
763.7880055868594
 20
448.4434140619693
 42
0.0
 10
767.7880055868594
 20
448.4434140619693
 42
0.4142135623730951
 97
        0
 92
       22
 72
     0
 73
     1
 93
        4
 10
763.7880055868594
 20
452.4434140619693
 10
745.78800558686
 20
452.4434140619693
 10
741.78800558686
 20
448.4434140619693
 10
763.7880055868594
 20
448.4434140619693
 97
        0
 92
       23
 72
     0
 73
     1
 93
        4
 10
763.7880055868594
 20
448.4434140619694
 10
741.78800558686
 20
448.4434140619693
 10
745.7880055868602
 20
444.4434140619693
 10
759.7880055868594
 20
444.4434140619693
 97
        0
 92
       23
 72
     1
 73
     1
 93
        4
 10
745.78800558686
 20
444.4434140619695
 42
0.0
 10
741.7880055868602
 20
448.4434140619693
 42
0.0
 10
741.78800558686
 20
427.4434140619693
 42
-0.4142135623730951
 10
745.78800558686
 20
423.4434140619693
 42
0.0
 97
        0
 92
       23
 72
     0
 73
     1
 93
        4
 10
741.7880055868603
 20
448.4434140619693
 10
737.7880055868601
 20
448.4434140619693
 10
737.7880055868601
 20
427.4434140619693
 10
741.7880055868602
 20
427.4434140619693
 97
        0
 92
        7
 72
     0
 73
     1
 93
        4
 10
737.7880055868601
 20
469.4434140619693
 10
724.7880055868598
 20
469.4434140619693
 10
724.7880055868598
 20
427.4434140619693
 10
737.7880055868601
 20
427.4434140619693
 97
        0
 92
       23
 72
     0
 73
     1
 93
        4
 10
741.7880055868602
 20
469.4434140619693
 10
737.7880055868601
 20
469.4434140619693
 10
737.7880055868601
 20
448.4434140619693
 10
741.78800558686
 20
448.4434140619693
 97
        0
 92
       22
 72
     1
 73
     1
 93
        4
 10
745.78800558686
 20
473.4434140619693
 42
-0.4142135623730868
 10
741.7880055868602
 20
469.4434140619693
 42
0.0
 10
741.78800558686
 20
448.4434140619694
 42
0.0
 10
745.78800558686
 20
452.4434140619695
 42
0.0
 97
        0
 92
       22
 72
     0
 73
     1
 93
        4
 10
784.4880055868599
 20
487.4434140619694
 10
783.7880055868599
 20
486.7434140619694
 10
783.7880055868598
 20
482.3022960494265
 10
784.4880055868599
 20
481.6022960494265
 97
        0
 92
       22
 72
     0
 73
     1
 93
        4
 10
784.7880055868595
 20
487.4434140619694
 10
784.4880055868599
 20
487.4434140619694
 10
784.4880055868599
 20
481.6022960494263
 10
784.7880055868596
 20
481.3022960494266
 97
        0
 92
       23
 72
     0
 73
     1
 93
        4
 10
784.4880055868599
 20
481.6022960494265
 10
783.7880055868598
 20
482.3022960494267
 10
783.7880055868599
 20
473.4434140619693
 10
784.4880055868599
 20
473.4434140619693
 97
        0
 92
       23
 72
     0
 73
     1
 93
        4
 10
784.7880055868595
 20
481.3022960494268
 10
784.4880055868599
 20
481.602296049426
 10
784.4880055868599
 20
473.4434140619693
 10
784.7880055868595
 20
473.4434140619692
 97
        0
 92
       23
 72
     0
 73
     1
 93
        4
 10
784.4880055868599
 20
473.4434140619694
 10
783.7880055868598
 20
473.4434140619693
 10
783.7880055868599
 20
464.5845320745122
 10
784.4880055868599
 20
465.2845320745123
 97
        0
 92
       23
 72
     0
 73
     1
 93
        4
 10
784.7880055868595
 20
473.4434140619693
 10
784.4880055868599
 20
473.4434140619693
 10
784.4880055868599
 20
465.2845320745123
 10
784.7880055868596
 20
465.584532074512
 97
        0
 92
       23
 72
     0
 73
     1
 93
        4
 10
784.4880055868598
 20
465.2845320745122
 10
783.7880055868599
 20
464.5845320745122
 10
783.7880055868599
 20
460.1434140619694
 10
784.4880055868599
 20
459.4434140619695
 97
        0
 92
       23
 72
     0
 73
     1
 93
        4
 10
784.7880055868595
 20
465.5845320745119
 10
784.4880055868599
 20
465.2845320745123
 10
784.4880055868599
 20
459.4434140619694
 10
784.7880055868595
 20
459.4434140619694
 97
        0
 75
     0
 76
     0
 52
45.0
 41
6.0
 77
     0
 78
     1
 53
45.0
 43
0.0
 44
0.0
 45
-4.242640687119284
 46
4.242640687119285
 79
     0
 47
0.04263
 98
       20
 10
748.864469
 20
399.411173
 10
761.74498
 20
408.199183
 10
765.834031
 20
408.199183
 10
773.194323
 20
405.542343
 10
765.834031
 20
450.504246
 10
758.678192
 20
450.0955
 10
755.406952
 20
445.803683
 10
743.957609
 20
435.585068
 10
740.481916
 20
434.563208
 10
733.530529
 20
434.563208
 10
739.459653
 20
451.526106
 10
742.935345
 20
455.613552
 10
784.1294
 20
484.962918
 10
784.726452
 20
485.090807
 10
784.342633
 20
480.657308
 10
784.726452
 20
480.699938
 10
784.172046
 20
472.515015
 10
784.726452
 20
472.770793
 10
784.257339
 20
463.775906
 10
784.683804
 20
464.074314
  0
DIMENSION
  5
51
100
AcDbEntity
  8
DIMS
100
AcDbDimension
  2
*D15
 10
614.044627
 20
665.222804
 30
0.0
 11
532.044627
 21
668.222804
 31
0.0
  1
L1=<>
  3
DIM1
100
AcDbAlignedDimension
 13
450.044627
 23
486.705084
 33
0.0
 14
614.044627
 24
486.705084
 34
0.0
100
AcDbRotatedDimension
1001
ACAD
1000
DSTYLE
1002
{
1070
   144
1040
1.0
1002
}
  0
DIMENSION
  5
60
100
AcDbEntity
  8
DIMS
100
AcDbDimension
  2
*D14
 10
582.044627
 20
654.784199
 30
0.0
 11
557.044627
 21
657.784199
 31
0.0
  1
C=<>
  3
DIM1
100
AcDbAlignedDimension
 13
532.044627
 23
639.565995
 33
0.0
 14
582.044627
 24
490.143414
 34
0.0
100
AcDbRotatedDimension
1001
ACAD
1000
DSTYLE
1002
{
1070
    75
1070
     1
1070
   144
1040
1.0
1070
   287
1070
     4
1002
}
  0
DIMENSION
  5
6C
100
AcDbEntity
  8
DIMS
100
AcDbDimension
  2
*D13
 10
532.044627
 20
654.784199
 30
0.0
 11
507.044627
 21
657.784199
 31
0.0
  1
C=<>
  3
DIM1
100
AcDbAlignedDimension
 13
482.044627
 23
490.143414
 33
0.0
 14
532.044627
 24
639.565995
 34
0.0
100
AcDbRotatedDimension
1001
ACAD
1000
DSTYLE
1002
{
1070
   144
1040
1.0
1002
}
  0
DIMENSION
  5
79
100
AcDbEntity
  8
DIMS
100
AcDbDimension
  2
*D12
 10
380.135418
 20
537.443414
 30
0.0
 11
377.135418
 21
402.443414
 31
0.0
  1
L=<>
  3
DIM1
100
AcDbAlignedDimension
 13
467.782956
 23
267.443414
 33
0.0
 14
490.044627
 24
537.443414
 34
0.0
 50
90.0
100
AcDbRotatedDimension
1001
ACAD
1000
DSTYLE
1002
{
1070
   144
1040
1.0
1002
}
  0
DIMENSION
  5
86
100
AcDbEntity
  8
DIMS
100
AcDbDimension
  2
*D11
 10
390.158411
 20
473.443414
 30
0.0
 11
387.158411
 21
448.443414
 31
0.0
  1
A=<>
  3
DIM1
100
AcDbAlignedDimension
 13
465.344627
 23
423.443414
 33
0.0
 14
465.344627
 24
473.443414
 34
0.0
 50
90.0
100
AcDbRotatedDimension
1001
ACAD
1000
DSTYLE
1002
{
1070
    75
1070
     1
1070
   144
1040
1.0
1070
   287
1070
     4
1002
}
  0
DIMENSION
  5
92
100
AcDbEntity
  8
DIMS
100
AcDbDimension
  2
*D10
 10
390.158411
 20
423.443414
 30
0.0
 11
387.158411
 21
385.943414
 31
0.0
  1
B=<>
  3
DIM1
100
AcDbAlignedDimension
 13
465.344627
 23
348.443414
 33
0.0
 14
465.344627
 24
423.443414
 34
0.0
 50
90.0
100
AcDbRotatedDimension
1001
ACAD
1000
DSTYLE
1002
{
1070
    75
1070
     1
1070
   144
1040
1.0
1070
   287
1070
     4
1002
}
  0
DIMENSION
  5
9E
100
AcDbEntity
  8
DIMS
100
AcDbDimension
  2
*D9
 10
390.158411
 20
348.443414
 30
0.0
 11
387.158411
 21
323.443414
 31
0.0
  1
A=<>
  3
DIM1
100
AcDbAlignedDimension
 13
465.344627
 23
298.443414
 33
0.0
 14
465.344627
 24
348.443414
 34
0.0
 50
90.0
100
AcDbRotatedDimension
1001
ACAD
1000
DSTYLE
1002
{
1070
   144
1040
1.0
1002
}
  0
LINE
  5
AB
100
AcDbEntity
  8
DIMS
 62
     4
100
AcDbLine
 10
482.044627
 20
252.843414
 30
0.0
 11
482.044627
 21
257.643414
 31
0.0
  0
LINE
  5
AC
100
AcDbEntity
  8
DIMS
 62
     4
100
AcDbLine
 10
482.044627
 20
246.043414
 30
0.0
 11
482.044627
 21
241.243414
 31
0.0
  0
LINE
  5
AD
100
AcDbEntity
  8
DIMS
 62
     4
100
AcDbLine
 10
485.444627
 20
249.443414
 30
0.0
 11
490.244627
 21
249.443414
 31
0.0
  0
LINE
  5
AE
100
AcDbEntity
  8
DIMS
 62
     4
100
AcDbLine
 10
478.644627
 20
249.443414
 30
0.0
 11
473.844627
 21
249.443414
 31
0.0
  0
LINE
  5
AF
100
AcDbEntity
  8
DIMS
 62
     4
100
AcDbLine
 10
482.044627
 20
247.743414
 30
0.0
 11
482.044627
 21
251.143414
 31
0.0
  0
LINE
  5
B0
100
AcDbEntity
  8
DIMS
 62
     4
100
AcDbLine
 10
480.344627
 20
249.443414
 30
0.0
 11
483.744627
 21
249.443414
 31
0.0
  0
LINE
  5
B1
100
AcDbEntity
  8
DIMS
 62
     4
100
AcDbLine
 10
582.044627
 20
252.843414
 30
0.0
 11
582.044627
 21
257.643414
 31
0.0
  0
LINE
  5
B2
100
AcDbEntity
  8
DIMS
 62
     4
100
AcDbLine
 10
582.044627
 20
246.043414
 30
0.0
 11
582.044627
 21
241.243414
 31
0.0
  0
LINE
  5
B3
100
AcDbEntity
  8
DIMS
 62
     4
100
AcDbLine
 10
585.444627
 20
249.443414
 30
0.0
 11
590.244627
 21
249.443414
 31
0.0
  0
LINE
  5
B4
100
AcDbEntity
  8
DIMS
 62
     4
100
AcDbLine
 10
578.644627
 20
249.443414
 30
0.0
 11
573.844627
 21
249.443414
 31
0.0
  0
LINE
  5
B5
100
AcDbEntity
  8
DIMS
 62
     4
100
AcDbLine
 10
582.044627
 20
247.743414
 30
0.0
 11
582.044627
 21
251.143414
 31
0.0
  0
LINE
  5
B6
100
AcDbEntity
  8
DIMS
 62
     4
100
AcDbLine
 10
580.344627
 20
249.443414
 30
0.0
 11
583.744627
 21
249.443414
 31
0.0
  0
CIRCLE
  5
B7
100
AcDbEntity
  8
M04
100
AcDbCircle
 10
482.044627
 20
249.443414
 30
0.0
 40
6.5
  0
CIRCLE
  5
B8
100
AcDbEntity
  8
M04
100
AcDbCircle
 10
582.044627
 20
249.443414
 30
0.0
 40
6.5
  0
LINE
  5
B9
100
AcDbEntity
  8
DIMS
 62
     4
100
AcDbLine
 10
535.444627
 20
249.443414
 30
0.0
 11
540.244627
 21
249.443414
 31
0.0
  0
LINE
  5
BA
100
AcDbEntity
  8
DIMS
 62
     4
100
AcDbLine
 10
528.644627
 20
249.443414
 30
0.0
 11
523.844627
 21
249.443414
 31
0.0
  0
LINE
  5
BB
100
AcDbEntity
  8
DIMS
 62
     4
100
AcDbLine
 10
530.344627
 20
249.443414
 30
0.0
 11
533.744627
 21
249.443414
 31
0.0
  0
CIRCLE
  5
BC
100
AcDbEntity
  8
M04
100
AcDbCircle
 10
532.044627
 20
249.443414
 30
0.0
 40
6.5
  0
LINE
  5
BD
100
AcDbEntity
  8
DIMS
 62
     4
100
AcDbLine
 10
457.044627
 20
517.543414
 30
0.0
 11
457.044627
 21
512.743414
 31
0.0
  0
LINE
  5
BE
100
AcDbEntity
  8
DIMS
 62
     4
100
AcDbLine
 10
457.044627
 20
524.343414
 30
0.0
 11
457.044627
 21
529.143414
 31
0.0
  0
LINE
  5
BF
100
AcDbEntity
  8
DIMS
 62
     4
100
AcDbLine
 10
453.644627
 20
520.943414
 30
0.0
 11
448.844627
 21
520.943414
 31
0.0
  0
LINE
  5
C0
100
AcDbEntity
  8
DIMS
 62
     4
100
AcDbLine
 10
460.444627
 20
520.943414
 30
0.0
 11
465.244627
 21
520.943414
 31
0.0
  0
LINE
  5
C1
100
AcDbEntity
  8
DIMS
 62
     4
100
AcDbLine
 10
457.044627
 20
522.643414
 30
0.0
 11
457.044627
 21
519.243414
 31
0.0
  0
LINE
  5
C2
100
AcDbEntity
  8
DIMS
 62
     4
100
AcDbLine
 10
458.744627
 20
520.943414
 30
0.0
 11
455.344627
 21
520.943414
 31
0.0
  0
CIRCLE
  5
C3
100
AcDbEntity
  8
M04
100
AcDbCircle
 10
457.044627
 20
520.943414
 30
0.0
 40
6.5
  0
LINE
  5
C4
100
AcDbEntity
  8
DIMS
 62
     4
100
AcDbLine
 10
607.044627
 20
517.543414
 30
0.0
 11
607.044627
 21
512.743414
 31
0.0
  0
LINE
  5
C5
100
AcDbEntity
  8
DIMS
 62
     4
100
AcDbLine
 10
607.044627
 20
524.343414
 30
0.0
 11
607.044627
 21
529.143414
 31
0.0
  0
LINE
  5
C6
100
AcDbEntity
  8
DIMS
 62
     4
100
AcDbLine
 10
610.444627
 20
520.943414
 30
0.0
 11
615.244627
 21
520.943414
 31
0.0
  0
LINE
  5
C7
100
AcDbEntity
  8
DIMS
 62
     4
100
AcDbLine
 10
603.644627
 20
520.943414
 30
0.0
 11
598.844627
 21
520.943414
 31
0.0
  0
LINE
  5
C8
100
AcDbEntity
  8
DIMS
 62
     4
100
AcDbLine
 10
607.044627
 20
522.643414
 30
0.0
 11
607.044627
 21
519.243414
 31
0.0
  0
LINE
  5
C9
100
AcDbEntity
  8
DIMS
 62
     4
100
AcDbLine
 10
605.344627
 20
520.943414
 30
0.0
 11
608.744627
 21
520.943414
 31
0.0
  0
CIRCLE
  5
CA
100
AcDbEntity
  8
M04
100
AcDbCircle
 10
607.044627
 20
520.943414
 30
0.0
 40
6.5
  0
LINE
  5
CB
100
AcDbEntity
  8
DIMS
 62
     4
100
AcDbLine
 10
447.044627
 20
382.543414
 30
0.0
 11
447.044627
 21
377.743414
 31
0.0
  0
LINE
  5
CC
100
AcDbEntity
  8
DIMS
 62
     4
100
AcDbLine
 10
447.044627
 20
389.343414
 30
0.0
 11
447.044627
 21
394.143414
 31
0.0
  0
LINE
  5
CD
100
AcDbEntity
  8
DIMS
 62
     4
100
AcDbLine
 10
447.044627
 20
387.643414
 30
0.0
 11
447.044627
 21
384.243414
 31
0.0
  0
CIRCLE
  5
CE
100
AcDbEntity
  8
M04
100
AcDbCircle
 10
447.044627
 20
385.943414
 30
0.0
 40
6.5
  0
LINE
  5
CF
100
AcDbEntity
  8
DIMS
 62
     4
100
AcDbLine
 10
617.044627
 20
382.543414
 30
0.0
 11
617.044627
 21
377.743414
 31
0.0
  0
LINE
  5
D0
100
AcDbEntity
  8
DIMS
 62
     4
100
AcDbLine
 10
617.044627
 20
389.343414
 30
0.0
 11
617.044627
 21
394.143414
 31
0.0
  0
LINE
  5
D1
100
AcDbEntity
  8
DIMS
 62
     4
100
AcDbLine
 10
617.044627
 20
387.643414
 30
0.0
 11
617.044627
 21
384.243414
 31
0.0
  0
CIRCLE
  5
D2
100
AcDbEntity
  8
M04
100
AcDbCircle
 10
617.044627
 20
385.943414
 30
0.0
 40
6.5
  0
LINE
  5
D3
100
AcDbEntity
  8
DIMS
 62
     4
100
AcDbLine
 10
632.044627
 20
295.043414
 30
0.0
 11
632.044627
 21
290.243414
 31
0.0
  0
LINE
  5
D4
100
AcDbEntity
  8
DIMS
 62
     4
100
AcDbLine
 10
632.044627
 20
301.843414
 30
0.0
 11
632.044627
 21
306.643414
 31
0.0
  0
LINE
  5
D5
100
AcDbEntity
  8
DIMS
 62
     4
100
AcDbLine
 10
635.444627
 20
298.443414
 30
0.0
 11
640.244627
 21
298.443414
 31
0.0
  0
LINE
  5
D6
100
AcDbEntity
  8
DIMS
 62
     4
100
AcDbLine
 10
628.644627
 20
298.443414
 30
0.0
 11
623.844627
 21
298.443414
 31
0.0
  0
LINE
  5
D7
100
AcDbEntity
  8
DIMS
 62
     4
100
AcDbLine
 10
632.044627
 20
300.143414
 30
0.0
 11
632.044627
 21
296.743414
 31
0.0
  0
LINE
  5
D8
100
AcDbEntity
  8
DIMS
 62
     4
100
AcDbLine
 10
630.344627
 20
298.443414
 30
0.0
 11
633.744627
 21
298.443414
 31
0.0
  0
CIRCLE
  5
D9
100
AcDbEntity
  8
M04
100
AcDbCircle
 10
632.044627
 20
298.443414
 30
0.0
 40
6.5
  0
LINE
  5
DA
100
AcDbEntity
  8
DIMS
 62
     4
100
AcDbLine
 10
632.044627
 20
345.043414
 30
0.0
 11
632.044627
 21
340.243414
 31
0.0
  0
LINE
  5
DB
100
AcDbEntity
  8
DIMS
 62
     4
100
AcDbLine
 10
632.044627
 20
351.843414
 30
0.0
 11
632.044627
 21
356.643414
 31
0.0
  0
LINE
  5
DC
100
AcDbEntity
  8
DIMS
 62
     4
100
AcDbLine
 10
635.444627
 20
348.443414
 30
0.0
 11
640.244627
 21
348.443414
 31
0.0
  0
LINE
  5
DD
100
AcDbEntity
  8
DIMS
 62
     4
100
AcDbLine
 10
628.644627
 20
348.443414
 30
0.0
 11
623.844627
 21
348.443414
 31
0.0
  0
LINE
  5
DE
100
AcDbEntity
  8
DIMS
 62
     4
100
AcDbLine
 10
632.044627
 20
350.143414
 30
0.0
 11
632.044627
 21
346.743414
 31
0.0
  0
LINE
  5
DF
100
AcDbEntity
  8
DIMS
 62
     4
100
AcDbLine
 10
630.344627
 20
348.443414
 30
0.0
 11
633.744627
 21
348.443414
 31
0.0
  0
CIRCLE
  5
E0
100
AcDbEntity
  8
M04
100
AcDbCircle
 10
632.044627
 20
348.443414
 30
0.0
 40
6.5
  0
LINE
  5
E1
100
AcDbEntity
  8
DIMS
 62
     4
100
AcDbLine
 10
632.044627
 20
420.043414
 30
0.0
 11
632.044627
 21
415.243414
 31
0.0
  0
LINE
  5
E2
100
AcDbEntity
  8
DIMS
 62
     4
100
AcDbLine
 10
632.044627
 20
426.843414
 30
0.0
 11
632.044627
 21
431.643414
 31
0.0
  0
LINE
  5
E3
100
AcDbEntity
  8
DIMS
 62
     4
100
AcDbLine
 10
635.444627
 20
423.443414
 30
0.0
 11
640.244627
 21
423.443414
 31
0.0
  0
LINE
  5
E4
100
AcDbEntity
  8
DIMS
 62
     4
100
AcDbLine
 10
628.644627
 20
423.443414
 30
0.0
 11
623.844627
 21
423.443414
 31
0.0
  0
LINE
  5
E5
100
AcDbEntity
  8
DIMS
 62
     4
100
AcDbLine
 10
632.044627
 20
425.143414
 30
0.0
 11
632.044627
 21
421.743414
 31
0.0
  0
LINE
  5
E6
100
AcDbEntity
  8
DIMS
 62
     4
100
AcDbLine
 10
630.344627
 20
423.443414
 30
0.0
 11
633.744627
 21
423.443414
 31
0.0
  0
CIRCLE
  5
E7
100
AcDbEntity
  8
M04
100
AcDbCircle
 10
632.044627
 20
423.443414
 30
0.0
 40
6.5
  0
LINE
  5
E8
100
AcDbEntity
  8
DIMS
 62
     4
100
AcDbLine
 10
632.044627
 20
470.043414
 30
0.0
 11
632.044627
 21
465.243414
 31
0.0
  0
LINE
  5
E9
100
AcDbEntity
  8
DIMS
 62
     4
100
AcDbLine
 10
632.044627
 20
476.843414
 30
0.0
 11
632.044627
 21
481.643414
 31
0.0
  0
LINE
  5
EA
100
AcDbEntity
  8
DIMS
 62
     4
100
AcDbLine
 10
635.444627
 20
473.443414
 30
0.0
 11
640.244627
 21
473.443414
 31
0.0
  0
LINE
  5
EB
100
AcDbEntity
  8
DIMS
 62
     4
100
AcDbLine
 10
628.644627
 20
473.443414
 30
0.0
 11
623.844627
 21
473.443414
 31
0.0
  0
LINE
  5
EC
100
AcDbEntity
  8
DIMS
 62
     4
100
AcDbLine
 10
632.044627
 20
475.143414
 30
0.0
 11
632.044627
 21
471.743414
 31
0.0
  0
LINE
  5
ED
100
AcDbEntity
  8
DIMS
 62
     4
100
AcDbLine
 10
630.344627
 20
473.443414
 30
0.0
 11
633.744627
 21
473.443414
 31
0.0
  0
CIRCLE
  5
EE
100
AcDbEntity
  8
M04
100
AcDbCircle
 10
632.044627
 20
473.443414
 30
0.0
 40
6.5
  0
LINE
  5
EF
100
AcDbEntity
  8
DIMS
 62
     4
100
AcDbLine
 10
432.044627
 20
295.043414
 30
0.0
 11
432.044627
 21
290.243414
 31
0.0
  0
LINE
  5
F0
100
AcDbEntity
  8
DIMS
 62
     4
100
AcDbLine
 10
432.044627
 20
301.843414
 30
0.0
 11
432.044627
 21
306.643414
 31
0.0
  0
LINE
  5
F1
100
AcDbEntity
  8
DIMS
 62
     4
100
AcDbLine
 10
432.044627
 20
300.143414
 30
0.0
 11
432.044627
 21
296.743414
 31
0.0
  0
CIRCLE
  5
F2
100
AcDbEntity
  8
M04
100
AcDbCircle
 10
432.044627
 20
298.443414
 30
0.0
 40
6.5
  0
LINE
  5
F3
100
AcDbEntity
  8
DIMS
 62
     4
100
AcDbLine
 10
432.044627
 20
345.043414
 30
0.0
 11
432.044627
 21
340.243414
 31
0.0
  0
LINE
  5
F4
100
AcDbEntity
  8
DIMS
 62
     4
100
AcDbLine
 10
432.044627
 20
351.843414
 30
0.0
 11
432.044627
 21
356.643414
 31
0.0
  0
LINE
  5
F5
100
AcDbEntity
  8
DIMS
 62
     4
100
AcDbLine
 10
432.044627
 20
350.143414
 30
0.0
 11
432.044627
 21
346.743414
 31
0.0
  0
CIRCLE
  5
F6
100
AcDbEntity
  8
M04
100
AcDbCircle
 10
432.044627
 20
348.443414
 30
0.0
 40
6.5
  0
LINE
  5
F7
100
AcDbEntity
  8
DIMS
 62
     4
100
AcDbLine
 10
432.044627
 20
420.043414
 30
0.0
 11
432.044627
 21
415.243414
 31
0.0
  0
LINE
  5
F8
100
AcDbEntity
  8
DIMS
 62
     4
100
AcDbLine
 10
432.044627
 20
426.843414
 30
0.0
 11
432.044627
 21
431.643414
 31
0.0
  0
LINE
  5
F9
100
AcDbEntity
  8
DIMS
 62
     4
100
AcDbLine
 10
432.044627
 20
425.143414
 30
0.0
 11
432.044627
 21
421.743414
 31
0.0
  0
CIRCLE
  5
FA
100
AcDbEntity
  8
M04
100
AcDbCircle
 10
432.044627
 20
423.443414
 30
0.0
 40
6.5
  0
LINE
  5
FB
100
AcDbEntity
  8
M03
100
AcDbLine
 10
608.67194
 20
360.320896
 30
0.0
 11
607.459387
 21
360.645799
 31
0.0
  0
LINE
  5
FE
100
AcDbEntity
  8
M03
100
AcDbLine
 10
609.661889
 20
359.330947
 30
0.0
 11
606.887839
 21
360.074251
 31
0.0
  0
LINE
  5
FF
100
AcDbEntity
  8
M03
100
AcDbLine
 10
610.651839
 20
358.340997
 30
0.0
 11
606.981321
 21
359.32451
 31
0.0
  0
LINE
  5
100
100
AcDbEntity
  8
M03
100
AcDbLine
 10
611.641788
 20
357.351048
 30
0.0
 11
607.97127
 21
358.33456
 31
0.0
  0
LINE
  5
101
100
AcDbEntity
  8
M03
100
AcDbLine
 10
612.631738
 20
356.361098
 30
0.0
 11
608.96122
 21
357.344611
 31
0.0
  0
LINE
  5
102
100
AcDbEntity
  8
M03
100
AcDbLine
 10
613.621687
 20
355.371149
 30
0.0
 11
609.951169
 21
356.354661
 31
0.0
  0
LINE
  5
103
100
AcDbEntity
  8
M03
100
AcDbLine
 10
613.896174
 20
354.572907
 30
0.0
 11
610.941119
 21
355.364712
 31
0.0
  0
LINE
  5
104
100
AcDbEntity
  8
M03
100
AcDbLine
 10
613.896174
 20
353.848214
 30
0.0
 11
611.931068
 21
354.374762
 31
0.0
  0
LINE
  5
105
100
AcDbEntity
  8
M03
100
AcDbLine
 10
613.896174
 20
353.12352
 30
0.0
 11
612.921018
 21
353.384813
 31
0.0
  0
LINE
  5
106
100
AcDbEntity
  8
M03
100
AcDbLine
 10
613.896174
 20
354.551654
 30
0.0
 11
613.696687
 21
355.296149
 31
0.0
  0
LINE
  5
107
100
AcDbEntity
  8
M03
100
AcDbLine
 10
613.69025
 20
352.615581
 30
0.0
 11
612.706737
 21
356.286099
 31
0.0
  0
LINE
  5
108
100
AcDbEntity
  8
M03
100
AcDbLine
 10
612.7003
 20
353.60553
 30
0.0
 11
611.716788
 21
357.276048
 31
0.0
  0
LINE
  5
109
100
AcDbEntity
  8
M03
100
AcDbLine
 10
611.710351
 20
354.59548
 30
0.0
 11
610.726838
 21
358.265998
 31
0.0
  0
LINE
  5
10A
100
AcDbEntity
  8
M03
100
AcDbLine
 10
610.720401
 20
355.585429
 30
0.0
 11
609.736889
 21
359.255947
 31
0.0
  0
LINE
  5
10B
100
AcDbEntity
  8
M03
100
AcDbLine
 10
609.730452
 20
356.575379
 30
0.0
 11
608.746939
 21
360.245897
 31
0.0
  0
LINE
  5
10C
100
AcDbEntity
  8
M03
100
AcDbLine
 10
608.740502
 20
357.565328
 30
0.0
 11
607.818791
 21
361.005202
 31
0.0
  0
LINE
  5
10D
100
AcDbEntity
  8
M03
100
AcDbLine
 10
607.750553
 20
358.555278
 30
0.0
 11
607.247243
 21
360.433655
 31
0.0
  0
LINE
  5
10E
100
AcDbEntity
  8
M03
100
AcDbLine
 10
606.760603
 20
359.545227
 30
0.0
 11
606.675695
 21
359.862107
 31
0.0
  0
LINE
  5
10F
100
AcDbEntity
  8
M03
100
AcDbLine
 10
585.20009
 20
361.872436
 30
0.0
 11
585.887465
 21
359.307119
 31
0.0
  0
LINE
  5
110
100
AcDbEntity
  8
M03
100
AcDbLine
 10
588.452781
 20
358.619744
 30
0.0
 11
585.887465
 21
359.307119
 31
0.0
  0
LINE
  5
111
100
AcDbEntity
  8
M03
100
AcDbLine
 10
588.452781
 20
358.619744
 30
0.0
 11
585.20009
 21
361.872436
 31
0.0
  0
LINE
  5
112
100
AcDbEntity
  8
M03
100
AcDbLine
 10
590.008416
 20
359.18543
 30
0.0
 11
585.765776
 21
363.428071
 31
0.0
  0
LINE
  5
113
100
AcDbEntity
  8
M03
100
AcDbLine
 10
606.559709
 20
359.746121
 30
0.0
 11
614.044627
 21
352.261204
 31
0.0
  0
LINE
  5
114
100
AcDbEntity
  8
M03
100
AcDbLine
 10
607.903212
 20
361.089624
 30
0.0
 11
614.016755
 21
354.976081
 31
0.0
  0
LINE
  5
115
100
AcDbEntity
  8
M03
100
AcDbLine
 10
601.39783
 20
364.483737
 30
0.0
 11
591.281208
 21
374.600358
 31
0.0
  0
LINE
  5
116
100
AcDbEntity
  8
M03
100
AcDbLine
 10
601.570904
 20
363.179291
 30
0.0
 11
602.136589
 21
363.744977
 31
0.0
  0
LINE
  5
117
100
AcDbEntity
  8
M03
100
AcDbLine
 10
606.347577
 20
359.533989
 30
0.0
 11
608.115344
 21
361.301756
 31
0.0
  0
LINE
  5
118
100
AcDbEntity
  8
M03
100
AcDbLine
 10
608.115344
 20
361.301756
 30
0.0
 11
603.165597
 21
366.251503
 31
0.0
  0
LINE
  5
119
100
AcDbEntity
  8
M03
100
AcDbLine
 10
601.39783
 20
364.483737
 30
0.0
 11
603.165597
 21
366.251503
 31
0.0
  0
LINE
  5
11A
100
AcDbEntity
  8
M03
100
AcDbLine
 10
590.715523
 20
374.034672
 30
0.0
 11
591.281208
 21
374.600358
 31
0.0
  0
ARC
  5
11B
100
AcDbEntity
  8
M03
100
AcDbCircle
 10
594.444708
 20
367.864362
 30
0.0
 40
5.826136
100
AcDbArc
 50
340.69541
 51
109.30459
  0
LINE
  5
11C
100
AcDbEntity
  8
M03
100
AcDbLine
 10
587.533543
 20
365.195837
 30
0.0
 11
587.533543
 21
364.205888
 31
0.0
  0
LINE
  5
11D
100
AcDbEntity
  8
M03
100
AcDbLine
 10
591.776183
 20
360.953197
 30
0.0
 11
590.786234
 21
360.953197
 31
0.0
  0
LINE
  5
11E
100
AcDbEntity
  8
M03
100
AcDbLine
 10
591.776183
 20
360.953197
 30
0.0
 11
587.533543
 21
365.195837
 31
0.0
  0
LINE
  5
11F
100
AcDbEntity
  8
M03
100
AcDbLine
 10
590.786234
 20
360.953197
 30
0.0
 11
587.533543
 21
364.205888
 31
0.0
  0
LINE
  5
120
100
AcDbEntity
  8
M03
100
AcDbLine
 10
593.54395
 20
371.206245
 30
0.0
 11
588.594203
 21
376.155993
 31
0.0
  0
LINE
  5
121
100
AcDbEntity
  8
M03
100
AcDbLine
 10
605.352633
 20
359.397562
 30
0.0
 11
605.918319
 21
359.963247
 31
0.0
  0
LINE
  5
122
100
AcDbEntity
  8
M03
100
AcDbLine
 10
593.048975
 20
371.70122
 30
0.0
 11
593.614661
 21
372.266905
 31
0.0
  0
LINE
  5
123
100
AcDbEntity
  8
M03
100
AcDbLine
 10
585.20009
 20
361.872436
 30
0.0
 11
594.60461
 21
371.276956
 31
0.0
  0
LINE
  5
124
100
AcDbEntity
  8
M03
100
AcDbLine
 10
588.452781
 20
358.619744
 30
0.0
 11
597.857302
 21
368.024265
 31
0.0
  0
LINE
  5
125
100
AcDbEntity
  8
M03
100
AcDbLine
 10
590.008416
 20
359.18543
 30
0.0
 11
598.352276
 21
367.52929
 31
0.0
  0
LINE
  5
126
100
AcDbEntity
  8
M03
100
AcDbLine
 10
585.765776
 20
363.428071
 30
0.0
 11
594.109636
 21
371.771931
 31
0.0
  0
LINE
  5
127
100
AcDbEntity
  8
M03
100
AcDbLine
 10
606.347577
 20
359.533989
 30
0.0
 11
602.136589
 21
363.744977
 31
0.0
  0
LINE
  5
128
100
AcDbEntity
  8
M03
100
AcDbLine
 10
588.594203
 20
376.155993
 30
0.0
 11
595.204962
 21
382.766752
 31
0.0
  0
LINE
  5
129
100
AcDbEntity
  8
M03
100
AcDbLine
 10
614.044627
 20
350.705569
 30
0.0
 11
597.786591
 21
366.963604
 31
0.0
  0
LINE
  5
12A
100
AcDbEntity
  8
CENTRE
100
AcDbLine
 10
582.796865
 20
356.21652
 30
0.0
 11
602.001992
 21
375.421646
 31
0.0
  0
ARC
  5
12D
100
AcDbEntity
  8
M04
100
AcDbCircle
 10
606.044627
 20
469.159143
 30
0.0
 40
15.0
100
AcDbArc
 50
315.0
 51
360.0
  0
ARC
  5
12E
100
AcDbEntity
  8
M04
100
AcDbCircle
 10
606.044627
 20
427.727685
 30
0.0
 40
15.0
100
AcDbArc
 50
0.0
 51
45.0
  0
ARC
  5
12F
100
AcDbEntity
  8
M04
100
AcDbCircle
 10
606.044627
 20
344.159143
 30
0.0
 40
15.0
100
AcDbArc
 50
315.0
 51
360.0
  0
ARC
  5
130
100
AcDbEntity
  8
M04
100
AcDbCircle
 10
606.044627
 20
302.727685
 30
0.0
 40
15.0
100
AcDbArc
 50
0.0
 51
45.0
  0
ARC
  5
131
100
AcDbEntity
  8
M04
100
AcDbCircle
 10
458.044627
 20
302.727685
 30
0.0
 40
15.0
100
AcDbArc
 50
135.0
 51
180.0
  0
ARC
  5
132
100
AcDbEntity
  8
M04
100
AcDbCircle
 10
458.044627
 20
344.159143
 30
0.0
 40
15.0
100
AcDbArc
 50
180.0
 51
225.0
  0
ARC
  5
133
100
AcDbEntity
  8
M04
100
AcDbCircle
 10
458.044627
 20
427.727685
 30
0.0
 40
15.0
100
AcDbArc
 50
135.0
 51
180.0
  0
ARC
  5
134
100
AcDbEntity
  8
M04
100
AcDbCircle
 10
458.044627
 20
469.159143
 30
0.0
 40
15.0
100
AcDbArc
 50
180.0
 51
225.0
  0
LINE
  5
135
100
AcDbEntity
  8
M04
100
AcDbLine
 10
621.044627
 20
413.495452
 30
0.0
 11
621.044627
 21
427.727685
 31
0.0
  0
LINE
  5
136
100
AcDbEntity
  8
M04
100
AcDbLine
 10
616.651228
 20
438.334287
 30
0.0
 11
610.077635
 21
444.90788
 31
0.0
  0
ARC
  5
137
100
AcDbEntity
  8
M04
100
AcDbCircle
 10
613.613169
 20
448.443414
 30
0.0
 40
5.0
100
AcDbArc
 50
135.0
 51
225.0
  0
LINE
  5
138
100
AcDbEntity
  8
M04
100
AcDbLine
 10
616.651228
 20
458.552541
 30
0.0
 11
610.077635
 21
451.978948
 31
0.0
  0
LINE
  5
139
100
AcDbEntity
  8
M04
100
AcDbLine
 10
621.044627
 20
483.391376
 30
0.0
 11
621.044627
 21
469.159143
 31
0.0
  0
LINE
  5
13A
100
AcDbEntity
  8
M04
100
AcDbLine
 10
443.044627
 20
483.391376
 30
0.0
 11
443.044627
 21
469.159143
 31
0.0
  0
LINE
  5
13B
100
AcDbEntity
  8
M04
100
AcDbLine
 10
447.438025
 20
458.552541
 30
0.0
 11
454.011618
 21
451.978948
 31
0.0
  0
ARC
  5
13C
100
AcDbEntity
  8
M04
100
AcDbCircle
 10
450.476084
 20
448.443414
 30
0.0
 40
5.0
100
AcDbArc
 50
315.0
 51
45.0
  0
LINE
  5
13D
100
AcDbEntity
  8
M04
100
AcDbLine
 10
447.438025
 20
438.334287
 30
0.0
 11
454.011618
 21
444.90788
 31
0.0
  0
LINE
  5
13E
100
AcDbEntity
  8
M04
100
AcDbLine
 10
443.044627
 20
413.495452
 30
0.0
 11
443.044627
 21
427.727685
 31
0.0
  0
LINE
  5
13F
100
AcDbEntity
  8
M04
100
AcDbLine
 10
621.044627
 20
358.391376
 30
0.0
 11
621.044627
 21
344.159143
 31
0.0
  0
LINE
  5
140
100
AcDbEntity
  8
M04
100
AcDbLine
 10
616.651228
 20
333.552541
 30
0.0
 11
610.077635
 21
326.978948
 31
0.0
  0
ARC
  5
141
100
AcDbEntity
  8
M04
100
AcDbCircle
 10
613.613169
 20
323.443414
 30
0.0
 40
5.0
100
AcDbArc
 50
135.0
 51
225.0
  0
LINE
  5
142
100
AcDbEntity
  8
M04
100
AcDbLine
 10
616.651228
 20
313.334287
 30
0.0
 11
610.077635
 21
319.90788
 31
0.0
  0
LINE
  5
143
100
AcDbEntity
  8
M04
100
AcDbLine
 10
621.044627
 20
288.495452
 30
0.0
 11
621.044627
 21
302.727685
 31
0.0
  0
LINE
  5
144
100
AcDbEntity
  8
M04
100
AcDbLine
 10
471.096665
 20
260.443414
 30
0.0
 11
592.992588
 21
260.443414
 31
0.0
  0
LINE
  5
145
100
AcDbEntity
  8
M04
100
AcDbLine
 10
443.044627
 20
358.391376
 30
0.0
 11
443.044627
 21
344.159143
 31
0.0
  0
LINE
  5
146
100
AcDbEntity
  8
M04
100
AcDbLine
 10
447.438025
 20
333.552541
 30
0.0
 11
454.011618
 21
326.978948
 31
0.0
  0
ARC
  5
147
100
AcDbEntity
  8
M04
100
AcDbCircle
 10
450.476084
 20
323.443414
 30
0.0
 40
5.0
100
AcDbArc
 50
315.0
 51
45.0
  0
LINE
  5
148
100
AcDbEntity
  8
M04
100
AcDbLine
 10
447.438025
 20
313.334287
 30
0.0
 11
454.011618
 21
319.90788
 31
0.0
  0
LINE
  5
149
100
AcDbEntity
  8
M04
100
AcDbLine
 10
443.044627
 20
288.495452
 30
0.0
 11
443.044627
 21
302.727685
 31
0.0
  0
ARC
  5
14A
100
AcDbEntity
  8
M01
100
AcDbCircle
 10
613.613169
 20
323.443414
 30
0.0
 40
12.0
100
AcDbArc
 50
135.0
 51
225.0
  0
LINE
  5
14B
100
AcDbEntity
  8
M01
100
AcDbLine
 10
614.044627
 20
340.845434
 30
0.0
 11
605.127888
 21
331.928695
 31
0.0
  0
LINE
  5
14C
100
AcDbEntity
  8
M01
100
AcDbLine
 10
614.044627
 20
361.705084
 30
0.0
 11
614.044627
 21
340.845434
 31
0.0
  0
LINE
  5
14D
100
AcDbEntity
  8
M01
100
AcDbLine
 10
614.044627
 20
306.041394
 30
0.0
 11
605.127888
 21
314.958133
 31
0.0
  0
LINE
  5
14E
100
AcDbEntity
  8
M01
100
AcDbLine
 10
614.044627
 20
285.181744
 30
0.0
 11
614.044627
 21
306.041394
 31
0.0
  0
ARC
  5
14F
100
AcDbEntity
  8
M01
100
AcDbCircle
 10
588.044627
 20
517.443414
 30
0.0
 40
12.0
100
AcDbArc
 50
180.0
 51
270.0
  0
ARC
  5
150
100
AcDbEntity
  8
M01
100
AcDbCircle
 10
613.613169
 20
448.443414
 30
0.0
 40
12.0
100
AcDbArc
 50
135.0
 51
225.0
  0
LINE
  5
151
100
AcDbEntity
  8
M01
100
AcDbLine
 10
614.044627
 20
431.041394
 30
0.0
 11
605.127888
 21
439.958133
 31
0.0
  0
LINE
  5
152
100
AcDbEntity
  8
M01
100
AcDbLine
 10
614.044627
 20
410.181744
 30
0.0
 11
614.044627
 21
431.041394
 31
0.0
  0
LINE
  5
153
100
AcDbEntity
  8
M01
100
AcDbLine
 10
595.306297
 20
505.443414
 30
0.0
 11
588.044627
 21
505.443414
 31
0.0
  0
LINE
  5
154
100
AcDbEntity
  8
M01
100
AcDbLine
 10
614.044627
 20
465.845434
 30
0.0
 11
605.127888
 21
456.928695
 31
0.0
  0
LINE
  5
155
100
AcDbEntity
  8
M01
100
AcDbLine
 10
576.044627
 20
535.443414
 30
0.0
 11
576.044627
 21
517.443414
 31
0.0
  0
LINE
  5
156
100
AcDbEntity
  8
M01
100
AcDbLine
 10
614.044627
 20
486.705084
 30
0.0
 11
614.044627
 21
465.845434
 31
0.0
  0
LINE
  5
157
100
AcDbEntity
  8
M01
100
AcDbLine
 10
467.782956
 20
267.443414
 30
0.0
 11
596.306297
 21
267.443414
 31
0.0
  0
ARC
  5
158
100
AcDbEntity
  8
M01
100
AcDbCircle
 10
450.476084
 20
323.443414
 30
0.0
 40
12.0
100
AcDbArc
 50
315.0
 51
45.0
  0
LINE
  5
159
100
AcDbEntity
  8
M01
100
AcDbLine
 10
450.044627
 20
340.845434
 30
0.0
 11
458.961365
 21
331.928695
 31
0.0
  0
LINE
  5
15A
100
AcDbEntity
  8
M01
100
AcDbLine
 10
450.044627
 20
361.705084
 30
0.0
 11
450.044627
 21
340.845434
 31
0.0
  0
LINE
  5
15B
100
AcDbEntity
  8
M01
100
AcDbLine
 10
450.044627
 20
306.041394
 30
0.0
 11
458.961365
 21
314.958133
 31
0.0
  0
LINE
  5
15C
100
AcDbEntity
  8
M01
100
AcDbLine
 10
450.044627
 20
285.181744
 30
0.0
 11
450.044627
 21
306.041394
 31
0.0
  0
ARC
  5
15D
100
AcDbEntity
  8
M01
100
AcDbCircle
 10
476.044627
 20
517.443414
 30
0.0
 40
12.0
100
AcDbArc
 50
270.0
 51
360.0
  0
ARC
  5
15E
100
AcDbEntity
  8
M01
100
AcDbCircle
 10
450.476084
 20
448.443414
 30
0.0
 40
12.0
100
AcDbArc
 50
315.0
 51
45.0
  0
LINE
  5
15F
100
AcDbEntity
  8
M01
100
AcDbLine
 10
450.044627
 20
431.041394
 30
0.0
 11
458.961365
 21
439.958133
 31
0.0
  0
LINE
  5
160
100
AcDbEntity
  8
M01
100
AcDbLine
 10
450.044627
 20
410.181744
 30
0.0
 11
450.044627
 21
431.041394
 31
0.0
  0
LINE
  5
161
100
AcDbEntity
  8
M01
100
AcDbLine
 10
468.782956
 20
505.443414
 30
0.0
 11
476.044627
 21
505.443414
 31
0.0
  0
LINE
  5
162
100
AcDbEntity
  8
M01
100
AcDbLine
 10
450.044627
 20
465.845434
 30
0.0
 11
458.961365
 21
456.928695
 31
0.0
  0
LINE
  5
163
100
AcDbEntity
  8
DIMS
 62
     4
100
AcDbLine
 10
535.444627
 20
348.443414
 30
0.0
 11
537.744627
 21
348.443414
 31
0.0
  0
LINE
  5
164
100
AcDbEntity
  8
DIMS
 62
     4
100
AcDbLine
 10
528.644627
 20
348.443414
 30
0.0
 11
526.344627
 21
348.443414
 31
0.0
  0
LINE
  5
165
100
AcDbEntity
  8
DIMS
 62
     4
100
AcDbLine
 10
530.344627
 20
348.443414
 30
0.0
 11
533.744627
 21
348.443414
 31
0.0
  0
LINE
  5
166
100
AcDbEntity
  8
DIMS
 62
     4
100
AcDbLine
 10
535.444627
 20
423.443414
 30
0.0
 11
537.744627
 21
423.443414
 31
0.0
  0
LINE
  5
167
100
AcDbEntity
  8
DIMS
 62
     4
100
AcDbLine
 10
528.644627
 20
423.443414
 30
0.0
 11
526.344627
 21
423.443414
 31
0.0
  0
LINE
  5
168
100
AcDbEntity
  8
DIMS
 62
     4
100
AcDbLine
 10
530.344627
 20
423.443414
 30
0.0
 11
533.744627
 21
423.443414
 31
0.0
  0
LINE
  5
169
100
AcDbEntity
  8
M03
100
AcDbLine
 10
557.044627
 20
385.943414
 30
0.0
 11
553.044627
 21
389.943414
 31
0.0
  0
LINE
  5
16A
100
AcDbEntity
  8
M03
100
AcDbLine
 10
553.044627
 20
381.943414
 30
0.0
 11
557.044627
 21
385.943414
 31
0.0
  0
LINE
  5
16B
100
AcDbEntity
  8
DIMS
 62
     4
100
AcDbLine
 10
485.444627
 20
298.443414
 30
0.0
 11
498.744627
 21
298.443414
 31
0.0
  0
LINE
  5
16C
100
AcDbEntity
  8
DIMS
 62
     4
100
AcDbLine
 10
478.644627
 20
298.443414
 30
0.0
 11
465.344627
 21
298.443414
 31
0.0
  0
LINE
  5
16D
100
AcDbEntity
  8
DIMS
 62
     4
100
AcDbLine
 10
480.344627
 20
298.443414
 30
0.0
 11
483.744627
 21
298.443414
 31
0.0
  0
LINE
  5
16E
100
AcDbEntity
  8
DIMS
 62
     4
100
AcDbLine
 10
482.044627
 20
295.043414
 30
0.0
 11
482.044627
 21
281.743414
 31
0.0
  0
LINE
  5
16F
100
AcDbEntity
  8
DIMS
 62
     4
100
AcDbLine
 10
482.044627
 20
301.843414
 30
0.0
 11
482.044627
 21
315.143414
 31
0.0
  0
LINE
  5
170
100
AcDbEntity
  8
DIMS
 62
     4
100
AcDbLine
 10
482.044627
 20
300.143414
 30
0.0
 11
482.044627
 21
296.743414
 31
0.0
  0
CIRCLE
  5
171
100
AcDbEntity
  8
M03
100
AcDbCircle
 10
482.044627
 20
298.443414
 30
0.0
 40
2.3
  0
ARC
  5
172
100
AcDbEntity
  8
M03
100
AcDbCircle
 10
482.044627
 20
298.443414
 30
0.0
 40
3.0
100
AcDbArc
 50
173.076897
 51
102.215364
  0
LINE
  5
173
100
AcDbEntity
  8
M03
100
AcDbLine
 10
488.019365
 20
297.893414
 30
0.0
 11
476.069888
 21
297.893414
 31
0.0
  0
LINE
  5
174
100
AcDbEntity
  8
M03
100
AcDbLine
 10
488.019365
 20
298.993414
 30
0.0
 11
476.069888
 21
298.993414
 31
0.0
  0
CIRCLE
  5
175
100
AcDbEntity
  8
M03
100
AcDbCircle
 10
482.044627
 20
298.443414
 30
0.0
 40
15.0
  0
CIRCLE
  5
176
100
AcDbEntity
  8
M03
100
AcDbCircle
 10
482.044627
 20
298.443414
 30
0.0
 40
14.0
  0
CIRCLE
  5
177
100
AcDbEntity
  8
M03
100
AcDbCircle
 10
482.044627
 20
298.443414
 30
0.0
 40
7.858882
  0
CIRCLE
  5
178
100
AcDbEntity
  8
M03
100
AcDbCircle
 10
482.044627
 20
298.443414
 30
0.0
 40
6.0
  0
CIRCLE
  5
179
100
AcDbEntity
  8
M01
100
AcDbCircle
 10
482.044627
 20
298.443414
 30
0.0
 40
4.0
  0
LINE
  5
17A
100
AcDbEntity
  8
DIMS
 62
     4
100
AcDbLine
 10
478.644627
 20
348.443414
 30
0.0
 11
465.344627
 21
348.443414
 31
0.0
  0
LINE
  5
17B
100
AcDbEntity
  8
DIMS
 62
     4
100
AcDbLine
 10
485.444627
 20
348.443414
 30
0.0
 11
498.744627
 21
348.443414
 31
0.0
  0
LINE
  5
17C
100
AcDbEntity
  8
DIMS
 62
     4
100
AcDbLine
 10
482.044627
 20
345.043414
 30
0.0
 11
482.044627
 21
331.743414
 31
0.0
  0
LINE
  5
17D
100
AcDbEntity
  8
DIMS
 62
     4
100
AcDbLine
 10
482.044627
 20
351.843414
 30
0.0
 11
482.044627
 21
365.143414
 31
0.0
  0
LINE
  5
17E
100
AcDbEntity
  8
DIMS
 62
     4
100
AcDbLine
 10
483.744627
 20
348.443414
 30
0.0
 11
480.344627
 21
348.443414
 31
0.0
  0
LINE
  5
17F
100
AcDbEntity
  8
DIMS
 62
     4
100
AcDbLine
 10
482.044627
 20
350.143414
 30
0.0
 11
482.044627
 21
346.743414
 31
0.0
  0
CIRCLE
  5
180
100
AcDbEntity
  8
M03
100
AcDbCircle
 10
482.044627
 20
348.443414
 30
0.0
 40
2.3
  0
ARC
  5
181
100
AcDbEntity
  8
M03
100
AcDbCircle
 10
482.044627
 20
348.443414
 30
0.0
 40
3.0
100
AcDbArc
 50
173.076897
 51
102.215364
  0
LINE
  5
182
100
AcDbEntity
  8
M03
100
AcDbLine
 10
488.019365
 20
347.893414
 30
0.0
 11
476.069888
 21
347.893414
 31
0.0
  0
LINE
  5
183
100
AcDbEntity
  8
M03
100
AcDbLine
 10
488.019365
 20
348.993414
 30
0.0
 11
476.069888
 21
348.993414
 31
0.0
  0
CIRCLE
  5
184
100
AcDbEntity
  8
M03
100
AcDbCircle
 10
482.044627
 20
348.443414
 30
0.0
 40
14.0
  0
CIRCLE
  5
185
100
AcDbEntity
  8
M03
100
AcDbCircle
 10
482.044627
 20
348.443414
 30
0.0
 40
7.858882
  0
CIRCLE
  5
186
100
AcDbEntity
  8
M03
100
AcDbCircle
 10
482.044627
 20
348.443414
 30
0.0
 40
6.0
  0
LINE
  5
187
100
AcDbEntity
  8
M03
100
AcDbLine
 10
479.216199
 20
345.614987
 30
0.0
 11
501.387772
 21
323.443414
 31
0.0
  0
LINE
  5
188
100
AcDbEntity
  8
M03
100
AcDbLine
 10
484.873054
 20
351.271841
 30
0.0
 11
507.044626
 21
329.100268
 31
0.0
  0
LINE
  5
189
100
AcDbEntity
  8
CENTRE
100
AcDbLine
 10
467.902491
 20
362.58555
 30
0.0
 11
507.044627
 21
323.443414
 31
0.0
  0
CIRCLE
  5
18A
100
AcDbEntity
  8
M01
100
AcDbCircle
 10
482.044627
 20
348.443414
 30
0.0
 40
4.0
  0
LINE
  5
18B
100
AcDbEntity
  8
DIMS
 62
     4
100
AcDbLine
 10
510.444627
 20
323.443414
 30
0.0
 11
512.744627
 21
323.443414
 31
0.0
  0
LINE
  5
18C
100
AcDbEntity
  8
DIMS
 62
     4
100
AcDbLine
 10
503.644627
 20
323.443414
 30
0.0
 11
501.344627
 21
323.443414
 31
0.0
  0
LINE
  5
18D
100
AcDbEntity
  8
DIMS
 62
     4
100
AcDbLine
 10
505.344627
 20
323.443414
 30
0.0
 11
508.744627
 21
323.443414
 31
0.0
  0
CIRCLE
  5
18E
100
AcDbEntity
  8
M03
100
AcDbCircle
 10
507.044627
 20
323.443414
 30
0.0
 40
4.0
  0
LINE
  5
18F
100
AcDbEntity
  8
M03
100
AcDbLine
 10
501.387772
 20
323.443414
 30
0.0
 11
479.2157
 21
301.271342
 31
0.0
  0
LINE
  5
190
100
AcDbEntity
  8
M03
100
AcDbLine
 10
534.873054
 20
345.614987
 30
0.0
 11
484.873054
 21
295.614987
 31
0.0
  0
LINE
  5
191
100
AcDbEntity
  8
M03
100
AcDbLine
 10
529.216199
 20
351.271841
 30
0.0
 11
507.044626
 21
329.100268
 31
0.0
  0
LINE
  5
192
100
AcDbEntity
  8
CENTRE
100
AcDbLine
 10
537.701481
 20
354.100268
 30
0.0
 11
467.902491
 21
284.301278
 31
0.0
  0
CIRCLE
  5
193
100
AcDbEntity
  8
M01
100
AcDbCircle
 10
532.044627
 20
348.443414
 30
0.0
 40
4.0
  0
CIRCLE
  5
194
100
AcDbEntity
  8
M03
100
AcDbCircle
 10
482.044627
 20
348.443414
 30
0.0
 40
15.0
  0
LINE
  5
195
100
AcDbEntity
  8
DIMS
 62
     4
100
AcDbLine
 10
485.444627
 20
423.443414
 30
0.0
 11
498.744627
 21
423.443414
 31
0.0
  0
LINE
  5
196
100
AcDbEntity
  8
DIMS
 62
     4
100
AcDbLine
 10
478.644627
 20
423.443414
 30
0.0
 11
465.344627
 21
423.443414
 31
0.0
  0
LINE
  5
197
100
AcDbEntity
  8
DIMS
 62
     4
100
AcDbLine
 10
480.344627
 20
423.443414
 30
0.0
 11
483.744627
 21
423.443414
 31
0.0
  0
LINE
  5
198
100
AcDbEntity
  8
M03
100
AcDbLine
 10
511.044627
 20
381.943414
 30
0.0
 11
511.044627
 21
323.443414
 31
0.0
  0
LINE
  5
199
100
AcDbEntity
  8
DIMS
 62
     4
100
AcDbLine
 10
482.044627
 20
420.043414
 30
0.0
 11
482.044627
 21
406.743414
 31
0.0
  0
LINE
  5
19A
100
AcDbEntity
  8
DIMS
 62
     4
100
AcDbLine
 10
482.044627
 20
426.843414
 30
0.0
 11
482.044627
 21
440.143414
 31
0.0
  0
LINE
  5
19B
100
AcDbEntity
  8
DIMS
 62
     4
100
AcDbLine
 10
482.044627
 20
425.143414
 30
0.0
 11
482.044627
 21
421.743414
 31
0.0
  0
CIRCLE
  5
19C
100
AcDbEntity
  8
M03
100
AcDbCircle
 10
482.044627
 20
423.443414
 30
0.0
 40
2.3
  0
ARC
  5
19D
100
AcDbEntity
  8
M03
100
AcDbCircle
 10
482.044627
 20
423.443414
 30
0.0
 40
3.0
100
AcDbArc
 50
173.076897
 51
102.215364
  0
LINE
  5
19E
100
AcDbEntity
  8
M03
100
AcDbLine
 10
488.019365
 20
422.893414
 30
0.0
 11
476.069888
 21
422.893414
 31
0.0
  0
LINE
  5
19F
100
AcDbEntity
  8
M03
100
AcDbLine
 10
488.019365
 20
423.993414
 30
0.0
 11
476.069888
 21
423.993414
 31
0.0
  0
CIRCLE
  5
1A0
100
AcDbEntity
  8
M03
100
AcDbCircle
 10
482.044627
 20
423.443414
 30
0.0
 40
15.0
  0
CIRCLE
  5
1A1
100
AcDbEntity
  8
M03
100
AcDbCircle
 10
482.044627
 20
423.443414
 30
0.0
 40
14.0
  0
CIRCLE
  5
1A2
100
AcDbEntity
  8
M03
100
AcDbCircle
 10
482.044627
 20
423.443414
 30
0.0
 40
7.858882
  0
CIRCLE
  5
1A3
100
AcDbEntity
  8
M03
100
AcDbCircle
 10
482.044627
 20
423.443414
 30
0.0
 40
6.0
  0
CIRCLE
  5
1A4
100
AcDbEntity
  8
M01
100
AcDbCircle
 10
482.044627
 20
423.443414
 30
0.0
 40
4.0
  0
LINE
  5
1A5
100
AcDbEntity
  8
DIMS
 62
     4
100
AcDbLine
 10
478.644627
 20
473.443414
 30
0.0
 11
465.344627
 21
473.443414
 31
0.0
  0
LINE
  5
1A6
100
AcDbEntity
  8
DIMS
 62
     4
100
AcDbLine
 10
485.444627
 20
473.443414
 30
0.0
 11
498.744627
 21
473.443414
 31
0.0
  0
LINE
  5
1A7
100
AcDbEntity
  8
DIMS
 62
     4
100
AcDbLine
 10
482.044627
 20
470.043414
 30
0.0
 11
482.044627
 21
456.743414
 31
0.0
  0
LINE
  5
1A8
100
AcDbEntity
  8
DIMS
 62
     4
100
AcDbLine
 10
482.044627
 20
476.843414
 30
0.0
 11
482.044627
 21
490.143414
 31
0.0
  0
LINE
  5
1A9
100
AcDbEntity
  8
DIMS
 62
     4
100
AcDbLine
 10
483.744627
 20
473.443414
 30
0.0
 11
480.344627
 21
473.443414
 31
0.0
  0
LINE
  5
1AA
100
AcDbEntity
  8
DIMS
 62
     4
100
AcDbLine
 10
482.044627
 20
475.143414
 30
0.0
 11
482.044627
 21
471.743414
 31
0.0
  0
CIRCLE
  5
1AB
100
AcDbEntity
  8
M03
100
AcDbCircle
 10
482.044627
 20
473.443414
 30
0.0
 40
2.3
  0
ARC
  5
1AC
100
AcDbEntity
  8
M03
100
AcDbCircle
 10
482.044627
 20
473.443414
 30
0.0
 40
3.0
100
AcDbArc
 50
173.076897
 51
102.215364
  0
LINE
  5
1AD
100
AcDbEntity
  8
M03
100
AcDbLine
 10
488.019365
 20
472.893414
 30
0.0
 11
476.069888
 21
472.893414
 31
0.0
  0
LINE
  5
1AE
100
AcDbEntity
  8
M03
100
AcDbLine
 10
488.019365
 20
473.993414
 30
0.0
 11
476.069888
 21
473.993414
 31
0.0
  0
CIRCLE
  5
1AF
100
AcDbEntity
  8
M03
100
AcDbCircle
 10
482.044627
 20
473.443414
 30
0.0
 40
14.0
  0
CIRCLE
  5
1B0
100
AcDbEntity
  8
M03
100
AcDbCircle
 10
482.044627
 20
473.443414
 30
0.0
 40
7.858882
  0
CIRCLE
  5
1B1
100
AcDbEntity
  8
M03
100
AcDbCircle
 10
482.044627
 20
473.443414
 30
0.0
 40
6.0
  0
LINE
  5
1B2
100
AcDbEntity
  8
M03
100
AcDbLine
 10
479.216199
 20
470.614987
 30
0.0
 11
501.387772
 21
448.443414
 31
0.0
  0
LINE
  5
1B3
100
AcDbEntity
  8
M03
100
AcDbLine
 10
484.873054
 20
476.271841
 30
0.0
 11
507.044626
 21
454.100268
 31
0.0
  0
LINE
  5
1B4
100
AcDbEntity
  8
CENTRE
100
AcDbLine
 10
467.902491
 20
487.58555
 30
0.0
 11
507.044627
 21
448.443414
 31
0.0
  0
CIRCLE
  5
1B5
100
AcDbEntity
  8
M01
100
AcDbCircle
 10
482.044627
 20
473.443414
 30
0.0
 40
4.0
  0
LINE
  5
1B6
100
AcDbEntity
  8
M03
100
AcDbLine
 10
503.044627
 20
448.443414
 30
0.0
 11
503.044627
 21
323.443414
 31
0.0
  0
LINE
  5
1B7
100
AcDbEntity
  8
M03
100
AcDbLine
 10
511.044627
 20
448.443414
 30
0.0
 11
511.044627
 21
389.943414
 31
0.0
  0
LINE
  5
1B8
100
AcDbEntity
  8
DIMS
 62
     4
100
AcDbLine
 10
510.444627
 20
448.443414
 30
0.0
 11
512.744627
 21
448.443414
 31
0.0
  0
LINE
  5
1B9
100
AcDbEntity
  8
DIMS
 62
     4
100
AcDbLine
 10
503.644627
 20
448.443414
 30
0.0
 11
501.344627
 21
448.443414
 31
0.0
  0
LINE
  5
1BA
100
AcDbEntity
  8
DIMS
 62
     4
100
AcDbLine
 10
505.344627
 20
448.443414
 30
0.0
 11
508.744627
 21
448.443414
 31
0.0
  0
CIRCLE
  5
1BB
100
AcDbEntity
  8
M03
100
AcDbCircle
 10
507.044627
 20
448.443414
 30
0.0
 40
4.0
  0
LINE
  5
1BC
100
AcDbEntity
  8
M03
100
AcDbLine
 10
501.387772
 20
448.443414
 30
0.0
 11
479.2157
 21
426.271342
 31
0.0
  0
LINE
  5
1BD
100
AcDbEntity
  8
DIMS
 62
     4
100
AcDbLine
 10
535.444627
 20
473.443414
 30
0.0
 11
548.744627
 21
473.443414
 31
0.0
  0
LINE
  5
1BE
100
AcDbEntity
  8
DIMS
 62
     4
100
AcDbLine
 10
528.644627
 20
473.443414
 30
0.0
 11
515.344627
 21
473.443414
 31
0.0
  0
LINE
  5
1BF
100
AcDbEntity
  8
DIMS
 62
     4
100
AcDbLine
 10
530.344627
 20
473.443414
 30
0.0
 11
533.744627
 21
473.443414
 31
0.0
  0
CIRCLE
  5
1C0
100
AcDbEntity
  8
M03
100
AcDbCircle
 10
532.044627
 20
473.443414
 30
0.0
 40
2.3
  0
ARC
  5
1C1
100
AcDbEntity
  8
M03
100
AcDbCircle
 10
532.044627
 20
473.443414
 30
0.0
 40
3.0
100
AcDbArc
 50
77.784636
 51
6.923103
  0
LINE
  5
1C2
100
AcDbEntity
  8
M03
100
AcDbLine
 10
526.069888
 20
472.893414
 30
0.0
 11
538.019365
 21
472.893414
 31
0.0
  0
LINE
  5
1C3
100
AcDbEntity
  8
M03
100
AcDbLine
 10
526.069888
 20
473.993414
 30
0.0
 11
538.019365
 21
473.993414
 31
0.0
  0
CIRCLE
  5
1C4
100
AcDbEntity
  8
M03
100
AcDbCircle
 10
532.044627
 20
473.443414
 30
0.0
 40
15.0
  0
CIRCLE
  5
1C5
100
AcDbEntity
  8
M03
100
AcDbCircle
 10
532.044627
 20
473.443414
 30
0.0
 40
14.0
  0
CIRCLE
  5
1C6
100
AcDbEntity
  8
M03
100
AcDbCircle
 10
532.044627
 20
473.443414
 30
0.0
 40
7.858882
  0
CIRCLE
  5
1C7
100
AcDbEntity
  8
M03
100
AcDbCircle
 10
532.044627
 20
473.443414
 30
0.0
 40
6.0
  0
LINE
  5
1C8
100
AcDbEntity
  8
M03
100
AcDbLine
 10
534.873054
 20
470.614987
 30
0.0
 11
484.873054
 21
420.614987
 31
0.0
  0
LINE
  5
1C9
100
AcDbEntity
  8
M03
100
AcDbLine
 10
529.216199
 20
476.271841
 30
0.0
 11
507.044626
 21
454.100268
 31
0.0
  0
LINE
  5
1CA
100
AcDbEntity
  8
CENTRE
100
AcDbLine
 10
546.186762
 20
487.58555
 30
0.0
 11
467.902491
 21
409.301278
 31
0.0
  0
CIRCLE
  5
1CB
100
AcDbEntity
  8
M01
100
AcDbCircle
 10
532.044627
 20
473.443414
 30
0.0
 40
4.0
  0
CIRCLE
  5
1CC
100
AcDbEntity
  8
M03
100
AcDbCircle
 10
482.044627
 20
473.443414
 30
0.0
 40
15.0
  0
LINE
  5
1CD
100
AcDbEntity
  8
CENTRE
100
AcDbLine
 10
507.044627
 20
459.757123
 30
0.0
 11
507.044627
 21
312.129706
 31
0.0
  0
LINE
  5
1CE
100
AcDbEntity
  8
DIMS
 62
     4
100
AcDbLine
 10
578.644627
 20
473.443414
 30
0.0
 11
565.344627
 21
473.443414
 31
0.0
  0
LINE
  5
1CF
100
AcDbEntity
  8
DIMS
 62
     4
100
AcDbLine
 10
585.444627
 20
473.443414
 30
0.0
 11
598.744627
 21
473.443414
 31
0.0
  0
LINE
  5
1D0
100
AcDbEntity
  8
DIMS
 62
     4
100
AcDbLine
 10
583.744627
 20
473.443414
 30
0.0
 11
580.344627
 21
473.443414
 31
0.0
  0
LINE
  5
1D1
100
AcDbEntity
  8
DIMS
 62
     4
100
AcDbLine
 10
582.044627
 20
476.843414
 30
0.0
 11
582.044627
 21
490.143414
 31
0.0
  0
LINE
  5
1D2
100
AcDbEntity
  8
DIMS
 62
     4
100
AcDbLine
 10
582.044627
 20
470.043414
 30
0.0
 11
582.044627
 21
456.743414
 31
0.0
  0
LINE
  5
1D3
100
AcDbEntity
  8
DIMS
 62
     4
100
AcDbLine
 10
582.044627
 20
471.743414
 30
0.0
 11
582.044627
 21
475.143414
 31
0.0
  0
CIRCLE
  5
1D4
100
AcDbEntity
  8
M03
100
AcDbCircle
 10
582.044627
 20
473.443414
 30
0.0
 40
2.3
  0
ARC
  5
1D5
100
AcDbEntity
  8
M03
100
AcDbCircle
 10
582.044627
 20
473.443414
 30
0.0
 40
3.0
100
AcDbArc
 50
353.076897
 51
282.215364
  0
LINE
  5
1D6
100
AcDbEntity
  8
M03
100
AcDbLine
 10
576.069888
 20
473.993414
 30
0.0
 11
588.019365
 21
473.993414
 31
0.0
  0
LINE
  5
1D7
100
AcDbEntity
  8
M03
100
AcDbLine
 10
576.069888
 20
472.893414
 30
0.0
 11
588.019365
 21
472.893414
 31
0.0
  0
CIRCLE
  5
1D8
100
AcDbEntity
  8
M03
100
AcDbCircle
 10
582.044627
 20
473.443414
 30
0.0
 40
15.0
  0
CIRCLE
  5
1D9
100
AcDbEntity
  8
M03
100
AcDbCircle
 10
582.044627
 20
473.443414
 30
0.0
 40
14.0
  0
CIRCLE
  5
1DA
100
AcDbEntity
  8
M03
100
AcDbCircle
 10
582.044627
 20
473.443414
 30
0.0
 40
7.858882
  0
CIRCLE
  5
1DB
100
AcDbEntity
  8
M03
100
AcDbCircle
 10
582.044627
 20
473.443414
 30
0.0
 40
6.0
  0
CIRCLE
  5
1DC
100
AcDbEntity
  8
M01
100
AcDbCircle
 10
582.044627
 20
473.443414
 30
0.0
 40
4.0
  0
LINE
  5
1DD
100
AcDbEntity
  8
DIMS
 62
     4
100
AcDbLine
 10
585.444627
 20
423.443414
 30
0.0
 11
598.744627
 21
423.443414
 31
0.0
  0
LINE
  5
1DE
100
AcDbEntity
  8
DIMS
 62
     4
100
AcDbLine
 10
578.644627
 20
423.443414
 30
0.0
 11
565.344627
 21
423.443414
 31
0.0
  0
LINE
  5
1DF
100
AcDbEntity
  8
DIMS
 62
     4
100
AcDbLine
 10
582.044627
 20
426.843414
 30
0.0
 11
582.044627
 21
440.143414
 31
0.0
  0
LINE
  5
1E0
100
AcDbEntity
  8
DIMS
 62
     4
100
AcDbLine
 10
582.044627
 20
420.043414
 30
0.0
 11
582.044627
 21
406.743414
 31
0.0
  0
LINE
  5
1E1
100
AcDbEntity
  8
DIMS
 62
     4
100
AcDbLine
 10
580.344627
 20
423.443414
 30
0.0
 11
583.744627
 21
423.443414
 31
0.0
  0
LINE
  5
1E2
100
AcDbEntity
  8
DIMS
 62
     4
100
AcDbLine
 10
582.044627
 20
421.743414
 30
0.0
 11
582.044627
 21
425.143414
 31
0.0
  0
CIRCLE
  5
1E3
100
AcDbEntity
  8
M03
100
AcDbCircle
 10
582.044627
 20
423.443414
 30
0.0
 40
2.3
  0
ARC
  5
1E4
100
AcDbEntity
  8
M03
100
AcDbCircle
 10
582.044627
 20
423.443414
 30
0.0
 40
3.0
100
AcDbArc
 50
353.076897
 51
282.215364
  0
LINE
  5
1E5
100
AcDbEntity
  8
M03
100
AcDbLine
 10
576.069888
 20
423.993414
 30
0.0
 11
588.019365
 21
423.993414
 31
0.0
  0
LINE
  5
1E6
100
AcDbEntity
  8
M03
100
AcDbLine
 10
576.069888
 20
422.893414
 30
0.0
 11
588.019365
 21
422.893414
 31
0.0
  0
CIRCLE
  5
1E7
100
AcDbEntity
  8
M03
100
AcDbCircle
 10
582.044627
 20
423.443414
 30
0.0
 40
14.0
  0
CIRCLE
  5
1E8
100
AcDbEntity
  8
M03
100
AcDbCircle
 10
582.044627
 20
423.443414
 30
0.0
 40
7.858882
  0
CIRCLE
  5
1E9
100
AcDbEntity
  8
M03
100
AcDbCircle
 10
582.044627
 20
423.443414
 30
0.0
 40
6.0
  0
LINE
  5
1EA
100
AcDbEntity
  8
M03
100
AcDbLine
 10
584.873054
 20
426.271841
 30
0.0
 11
562.701481
 21
448.443414
 31
0.0
  0
LINE
  5
1EB
100
AcDbEntity
  8
M03
100
AcDbLine
 10
579.216199
 20
420.614987
 30
0.0
 11
557.044627
 21
442.78656
 31
0.0
  0
LINE
  5
1EC
100
AcDbEntity
  8
CENTRE
100
AcDbLine
 10
596.186762
 20
409.301278
 30
0.0
 11
557.044627
 21
448.443414
 31
0.0
  0
CIRCLE
  5
1ED
100
AcDbEntity
  8
M01
100
AcDbCircle
 10
582.044627
 20
423.443414
 30
0.0
 40
4.0
  0
LINE
  5
1EE
100
AcDbEntity
  8
DIMS
 62
     4
100
AcDbLine
 10
553.644627
 20
448.443414
 30
0.0
 11
551.344627
 21
448.443414
 31
0.0
  0
LINE
  5
1EF
100
AcDbEntity
  8
DIMS
 62
     4
100
AcDbLine
 10
560.444627
 20
448.443414
 30
0.0
 11
562.744627
 21
448.443414
 31
0.0
  0
LINE
  5
1F0
100
AcDbEntity
  8
DIMS
 62
     4
100
AcDbLine
 10
558.744627
 20
448.443414
 30
0.0
 11
555.344627
 21
448.443414
 31
0.0
  0
CIRCLE
  5
1F1
100
AcDbEntity
  8
M03
100
AcDbCircle
 10
557.044627
 20
448.443414
 30
0.0
 40
4.0
  0
LINE
  5
1F2
100
AcDbEntity
  8
M03
100
AcDbLine
 10
562.701481
 20
448.443414
 30
0.0
 11
584.873553
 21
470.615486
 31
0.0
  0
LINE
  5
1F3
100
AcDbEntity
  8
M03
100
AcDbLine
 10
529.216199
 20
426.271841
 30
0.0
 11
579.216199
 21
476.271841
 31
0.0
  0
LINE
  5
1F4
100
AcDbEntity
  8
M03
100
AcDbLine
 10
534.873054
 20
420.614987
 30
0.0
 11
557.044627
 21
442.78656
 31
0.0
  0
LINE
  5
1F5
100
AcDbEntity
  8
CENTRE
100
AcDbLine
 10
526.387772
 20
417.78656
 30
0.0
 11
596.186762
 21
487.58555
 31
0.0
  0
CIRCLE
  5
1F6
100
AcDbEntity
  8
M01
100
AcDbCircle
 10
532.044627
 20
423.443414
 30
0.0
 40
4.0
  0
CIRCLE
  5
1F7
100
AcDbEntity
  8
M03
100
AcDbCircle
 10
582.044627
 20
423.443414
 30
0.0
 40
15.0
  0
LINE
  5
1F8
100
AcDbEntity
  8
DIMS
 62
     4
100
AcDbLine
 10
432.044627
 20
470.043414
 30
0.0
 11
432.044627
 21
465.243414
 31
0.0
  0
LINE
  5
1F9
100
AcDbEntity
  8
DIMS
 62
     4
100
AcDbLine
 10
432.044627
 20
476.843414
 30
0.0
 11
432.044627
 21
481.643414
 31
0.0
  0
LINE
  5
1FA
100
AcDbEntity
  8
DIMS
 62
     4
100
AcDbLine
 10
432.044627
 20
475.143414
 30
0.0
 11
432.044627
 21
471.743414
 31
0.0
  0
CIRCLE
  5
1FB
100
AcDbEntity
  8
M04
100
AcDbCircle
 10
432.044627
 20
473.443414
 30
0.0
 40
6.5
  0
LINE
  5
1FC
102
{ACAD_REACTORS
330
4D
102
}
100
AcDbEntity
  8
M02
100
AcDbLine
 10
784.788006
 20
350.943414
 30
0.0
 11
787.788006
 21
350.943414
 31
0.0
  0
LINE
  5
1FE
102
{ACAD_REACTORS
330
4C
102
}
100
AcDbEntity
  8
M02
100
AcDbLine
 10
784.788006
 20
420.943414
 30
0.0
 11
787.788006
 21
420.943414
 31
0.0
  0
LINE
  5
1FF
100
AcDbEntity
  8
M04
100
AcDbLine
 10
586.044627
 20
582.443414
 30
0.0
 11
586.044627
 21
517.443414
 31
0.0
  0
LINE
  5
200
100
AcDbEntity
  8
DIMS
 62
     4
100
AcDbLine
 10
578.644627
 20
348.443414
 30
0.0
 11
565.344627
 21
348.443414
 31
0.0
  0
LINE
  5
201
100
AcDbEntity
  8
DIMS
 62
     4
100
AcDbLine
 10
585.444627
 20
348.443414
 30
0.0
 11
598.744627
 21
348.443414
 31
0.0
  0
LINE
  5
202
100
AcDbEntity
  8
DIMS
 62
     4
100
AcDbLine
 10
583.744627
 20
348.443414
 30
0.0
 11
580.344627
 21
348.443414
 31
0.0
  0
LINE
  5
203
100
AcDbEntity
  8
M03
100
AcDbLine
 10
553.044627
 20
389.943414
 30
0.0
 11
553.044627
 21
448.443414
 31
0.0
  0
LINE
  5
204
100
AcDbEntity
  8
DIMS
 62
     4
100
AcDbLine
 10
582.044627
 20
351.843414
 30
0.0
 11
582.044627
 21
365.143414
 31
0.0
  0
LINE
  5
205
100
AcDbEntity
  8
DIMS
 62
     4
100
AcDbLine
 10
582.044627
 20
345.043414
 30
0.0
 11
582.044627
 21
331.743414
 31
0.0
  0
LINE
  5
206
100
AcDbEntity
  8
DIMS
 62
     4
100
AcDbLine
 10
582.044627
 20
346.743414
 30
0.0
 11
582.044627
 21
350.143414
 31
0.0
  0
CIRCLE
  5
207
100
AcDbEntity
  8
M03
100
AcDbCircle
 10
582.044627
 20
348.443414
 30
0.0
 40
2.3
  0
ARC
  5
208
100
AcDbEntity
  8
M03
100
AcDbCircle
 10
582.044627
 20
348.443414
 30
0.0
 40
3.0
100
AcDbArc
 50
353.076897
 51
282.215364
  0
LINE
  5
209
100
AcDbEntity
  8
M03
100
AcDbLine
 10
576.069888
 20
348.993414
 30
0.0
 11
588.019365
 21
348.993414
 31
0.0
  0
LINE
  5
20A
100
AcDbEntity
  8
M03
100
AcDbLine
 10
576.069888
 20
347.893414
 30
0.0
 11
588.019365
 21
347.893414
 31
0.0
  0
CIRCLE
  5
20B
100
AcDbEntity
  8
M03
100
AcDbCircle
 10
582.044627
 20
348.443414
 30
0.0
 40
15.0
  0
CIRCLE
  5
20C
100
AcDbEntity
  8
M03
100
AcDbCircle
 10
582.044627
 20
348.443414
 30
0.0
 40
14.0
  0
CIRCLE
  5
20D
100
AcDbEntity
  8
M03
100
AcDbCircle
 10
582.044627
 20
348.443414
 30
0.0
 40
7.858882
  0
CIRCLE
  5
20E
100
AcDbEntity
  8
M03
100
AcDbCircle
 10
582.044627
 20
348.443414
 30
0.0
 40
6.0
  0
CIRCLE
  5
20F
100
AcDbEntity
  8
M01
100
AcDbCircle
 10
582.044627
 20
348.443414
 30
0.0
 40
4.0
  0
LINE
  5
210
100
AcDbEntity
  8
DIMS
 62
     4
100
AcDbLine
 10
585.444627
 20
298.443414
 30
0.0
 11
598.744627
 21
298.443414
 31
0.0
  0
LINE
  5
211
100
AcDbEntity
  8
DIMS
 62
     4
100
AcDbLine
 10
578.644627
 20
298.443414
 30
0.0
 11
565.344627
 21
298.443414
 31
0.0
  0
LINE
  5
212
100
AcDbEntity
  8
DIMS
 62
     4
100
AcDbLine
 10
582.044627
 20
301.843414
 30
0.0
 11
582.044627
 21
315.143414
 31
0.0
  0
LINE
  5
213
100
AcDbEntity
  8
DIMS
 62
     4
100
AcDbLine
 10
582.044627
 20
295.043414
 30
0.0
 11
582.044627
 21
281.743414
 31
0.0
  0
LINE
  5
214
100
AcDbEntity
  8
DIMS
 62
     4
100
AcDbLine
 10
580.344627
 20
298.443414
 30
0.0
 11
583.744627
 21
298.443414
 31
0.0
  0
LINE
  5
215
100
AcDbEntity
  8
DIMS
 62
     4
100
AcDbLine
 10
582.044627
 20
296.743414
 30
0.0
 11
582.044627
 21
300.143414
 31
0.0
  0
CIRCLE
  5
216
100
AcDbEntity
  8
M03
100
AcDbCircle
 10
582.044627
 20
298.443414
 30
0.0
 40
2.3
  0
ARC
  5
217
100
AcDbEntity
  8
M03
100
AcDbCircle
 10
582.044627
 20
298.443414
 30
0.0
 40
3.0
100
AcDbArc
 50
353.076897
 51
282.215364
  0
LINE
  5
218
100
AcDbEntity
  8
M03
100
AcDbLine
 10
576.069888
 20
298.993414
 30
0.0
 11
588.019365
 21
298.993414
 31
0.0
  0
LINE
  5
219
100
AcDbEntity
  8
M03
100
AcDbLine
 10
576.069888
 20
297.893414
 30
0.0
 11
588.019365
 21
297.893414
 31
0.0
  0
CIRCLE
  5
21A
100
AcDbEntity
  8
M03
100
AcDbCircle
 10
582.044627
 20
298.443414
 30
0.0
 40
14.0
  0
CIRCLE
  5
21B
100
AcDbEntity
  8
M03
100
AcDbCircle
 10
582.044627
 20
298.443414
 30
0.0
 40
7.858882
  0
CIRCLE
  5
21C
100
AcDbEntity
  8
M03
100
AcDbCircle
 10
582.044627
 20
298.443414
 30
0.0
 40
6.0
  0
LINE
  5
21D
100
AcDbEntity
  8
M03
100
AcDbLine
 10
584.873054
 20
301.271841
 30
0.0
 11
562.701481
 21
323.443414
 31
0.0
  0
LINE
  5
21E
100
AcDbEntity
  8
M03
100
AcDbLine
 10
579.216199
 20
295.614987
 30
0.0
 11
557.044627
 21
317.78656
 31
0.0
  0
LINE
  5
21F
100
AcDbEntity
  8
CENTRE
100
AcDbLine
 10
596.186762
 20
284.301278
 30
0.0
 11
557.044627
 21
323.443414
 31
0.0
  0
CIRCLE
  5
220
100
AcDbEntity
  8
M01
100
AcDbCircle
 10
582.044627
 20
298.443414
 30
0.0
 40
4.0
  0
LINE
  5
221
100
AcDbEntity
  8
M03
100
AcDbLine
 10
561.044627
 20
323.443414
 30
0.0
 11
561.044627
 21
448.443414
 31
0.0
  0
LINE
  5
222
100
AcDbEntity
  8
M03
100
AcDbLine
 10
553.044627
 20
323.443414
 30
0.0
 11
553.044627
 21
381.943414
 31
0.0
  0
LINE
  5
223
100
AcDbEntity
  8
DIMS
 62
     4
100
AcDbLine
 10
553.644627
 20
323.443414
 30
0.0
 11
551.344627
 21
323.443414
 31
0.0
  0
LINE
  5
224
100
AcDbEntity
  8
DIMS
 62
     4
100
AcDbLine
 10
560.444627
 20
323.443414
 30
0.0
 11
562.744627
 21
323.443414
 31
0.0
  0
LINE
  5
225
100
AcDbEntity
  8
DIMS
 62
     4
100
AcDbLine
 10
558.744627
 20
323.443414
 30
0.0
 11
555.344627
 21
323.443414
 31
0.0
  0
CIRCLE
  5
226
100
AcDbEntity
  8
M03
100
AcDbCircle
 10
557.044627
 20
323.443414
 30
0.0
 40
4.0
  0
LINE
  5
227
100
AcDbEntity
  8
M03
100
AcDbLine
 10
562.701481
 20
323.443414
 30
0.0
 11
584.873553
 21
345.615486
 31
0.0
  0
LINE
  5
228
100
AcDbEntity
  8
DIMS
 62
     4
100
AcDbLine
 10
528.644627
 20
298.443414
 30
0.0
 11
515.344627
 21
298.443414
 31
0.0
  0
LINE
  5
229
100
AcDbEntity
  8
DIMS
 62
     4
100
AcDbLine
 10
535.444627
 20
298.443414
 30
0.0
 11
548.744627
 21
298.443414
 31
0.0
  0
LINE
  5
22A
100
AcDbEntity
  8
DIMS
 62
     4
100
AcDbLine
 10
533.744627
 20
298.443414
 30
0.0
 11
530.344627
 21
298.443414
 31
0.0
  0
CIRCLE
  5
22B
100
AcDbEntity
  8
M03
100
AcDbCircle
 10
532.044627
 20
298.443414
 30
0.0
 40
2.3
  0
ARC
  5
22C
100
AcDbEntity
  8
M03
100
AcDbCircle
 10
532.044627
 20
298.443414
 30
0.0
 40
3.0
100
AcDbArc
 50
257.784636
 51
186.923103
  0
LINE
  5
22D
100
AcDbEntity
  8
M03
100
AcDbLine
 10
538.019365
 20
298.993414
 30
0.0
 11
526.069888
 21
298.993414
 31
0.0
  0
LINE
  5
22E
100
AcDbEntity
  8
M03
100
AcDbLine
 10
538.019365
 20
297.893414
 30
0.0
 11
526.069888
 21
297.893414
 31
0.0
  0
CIRCLE
  5
22F
100
AcDbEntity
  8
M03
100
AcDbCircle
 10
532.044627
 20
298.443414
 30
0.0
 40
15.0
  0
CIRCLE
  5
230
100
AcDbEntity
  8
M03
100
AcDbCircle
 10
532.044627
 20
298.443414
 30
0.0
 40
14.0
  0
CIRCLE
  5
231
100
AcDbEntity
  8
M03
100
AcDbCircle
 10
532.044627
 20
298.443414
 30
0.0
 40
7.858882
  0
CIRCLE
  5
232
100
AcDbEntity
  8
M03
100
AcDbCircle
 10
532.044627
 20
298.443414
 30
0.0
 40
6.0
  0
LINE
  5
233
100
AcDbEntity
  8
M03
100
AcDbLine
 10
529.216199
 20
301.271841
 30
0.0
 11
579.216199
 21
351.271841
 31
0.0
  0
LINE
  5
234
100
AcDbEntity
  8
M03
100
AcDbLine
 10
534.873054
 20
295.614987
 30
0.0
 11
557.044627
 21
317.78656
 31
0.0
  0
LINE
  5
235
100
AcDbEntity
  8
CENTRE
100
AcDbLine
 10
517.902491
 20
284.301278
 30
0.0
 11
596.186762
 21
362.58555
 31
0.0
  0
CIRCLE
  5
236
100
AcDbEntity
  8
M01
100
AcDbCircle
 10
532.044627
 20
298.443414
 30
0.0
 40
4.0
  0
CIRCLE
  5
237
100
AcDbEntity
  8
M03
100
AcDbCircle
 10
582.044627
 20
298.443414
 30
0.0
 40
15.0
  0
LINE
  5
238
100
AcDbEntity
  8
CENTRE
100
AcDbLine
 10
557.044627
 20
312.129706
 30
0.0
 11
557.044627
 21
459.757123
 31
0.0
  0
LINE
  5
239
100
AcDbEntity
  8
M03
100
AcDbLine
 10
455.417313
 20
411.565932
 30
0.0
 11
456.629866
 21
411.241029
 31
0.0
  0
LINE
  5
23A
100
AcDbEntity
  8
M03
100
AcDbLine
 10
454.427364
 20
412.555881
 30
0.0
 11
457.201414
 21
411.812577
 31
0.0
  0
LINE
  5
23B
100
AcDbEntity
  8
M03
100
AcDbLine
 10
453.437414
 20
413.545831
 30
0.0
 11
457.107933
 21
412.562318
 31
0.0
  0
LINE
  5
23C
100
AcDbEntity
  8
M03
100
AcDbLine
 10
452.447465
 20
414.53578
 30
0.0
 11
456.117983
 21
413.552268
 31
0.0
  0
LINE
  5
23D
100
AcDbEntity
  8
M03
100
AcDbLine
 10
451.457515
 20
415.52573
 30
0.0
 11
455.128034
 21
414.542217
 31
0.0
  0
LINE
  5
23E
100
AcDbEntity
  8
M03
100
AcDbLine
 10
450.467566
 20
416.515679
 30
0.0
 11
454.138084
 21
415.532167
 31
0.0
  0
LINE
  5
23F
100
AcDbEntity
  8
M03
100
AcDbLine
 10
450.193079
 20
417.313921
 30
0.0
 11
453.148135
 21
416.522116
 31
0.0
  0
LINE
  5
240
100
AcDbEntity
  8
M03
100
AcDbLine
 10
450.193079
 20
418.038614
 30
0.0
 11
452.158185
 21
417.512066
 31
0.0
  0
LINE
  5
241
100
AcDbEntity
  8
M03
100
AcDbLine
 10
450.193079
 20
418.763308
 30
0.0
 11
451.168236
 21
418.502015
 31
0.0
  0
LINE
  5
242
100
AcDbEntity
  8
M03
100
AcDbLine
 10
450.193079
 20
417.335174
 30
0.0
 11
450.392566
 21
416.590679
 31
0.0
  0
LINE
  5
243
100
AcDbEntity
  8
M03
100
AcDbLine
 10
450.399004
 20
419.271247
 30
0.0
 11
451.382516
 21
415.600729
 31
0.0
  0
LINE
  5
244
100
AcDbEntity
  8
M03
100
AcDbLine
 10
451.388953
 20
418.281298
 30
0.0
 11
452.372465
 21
414.61078
 31
0.0
  0
LINE
  5
245
100
AcDbEntity
  8
M03
100
AcDbLine
 10
452.378903
 20
417.291348
 30
0.0
 11
453.362415
 21
413.62083
 31
0.0
  0
LINE
  5
246
100
AcDbEntity
  8
M03
100
AcDbLine
 10
453.368852
 20
416.301399
 30
0.0
 11
454.352364
 21
412.630881
 31
0.0
  0
LINE
  5
247
100
AcDbEntity
  8
M03
100
AcDbLine
 10
454.358802
 20
415.311449
 30
0.0
 11
455.342314
 21
411.640931
 31
0.0
  0
LINE
  5
248
100
AcDbEntity
  8
M03
100
AcDbLine
 10
455.348751
 20
414.3215
 30
0.0
 11
456.270463
 21
410.881626
 31
0.0
  0
LINE
  5
249
100
AcDbEntity
  8
M03
100
AcDbLine
 10
456.338701
 20
413.33155
 30
0.0
 11
456.84201
 21
411.453173
 31
0.0
  0
LINE
  5
24A
100
AcDbEntity
  8
M03
100
AcDbLine
 10
457.32865
 20
412.341601
 30
0.0
 11
457.413558
 21
412.024721
 31
0.0
  0
LINE
  5
24B
102
{ACAD_REACTORS
330
4D
102
}
100
AcDbEntity
  8
M02
100
AcDbLine
 10
787.788006
 20
351.943414
 30
0.0
 11
787.788006
 21
312.443414
 31
0.0
  0
LINE
  5
24C
100
AcDbEntity
  8
M04
100
AcDbLine
 10
791.788006
 20
366.443414
 30
0.0
 11
791.788006
 21
301.443414
 31
0.0
  0
LWPOLYLINE
  5
24D
100
AcDbEntity
  8
HATCH
 62
     4
100
AcDbPolyline
 90
        3
 70
     0
 43
0.0
 10
792.607432
 20
286.994929
 10
803.523185
 20
279.282472
 10
806.523185
 20
279.282472
1001
ACAD
1000
DSTYLE
1002
{
1070
   144
1040
1.0
1002
}
  0
SOLID
  5
24E
100
AcDbEntity
  8
HATCH
 62
     4
100
AcDbTrace
 10
792.31891
 20
286.586572
 30
0.0
 11
790.157292
 21
288.72606
 31
0.0
 12
792.895954
 22
287.403286
 32
0.0
 13
792.895954
 23
287.403286
 33
0.0
1001
ACAD
1000
DSTYLE
1002
{
1070
   144
1040
1.0
1002
}
  0
ARC
  5
24F
102
{ACAD_REACTORS
330
4F
102
}
100
AcDbEntity
  8
M03
100
AcDbCircle
 10
763.788006
 20
323.443414
 30
0.0
 40
4.0
100
AcDbArc
 50
270.0
 51
0.0
  0
LINE
  5
250
102
{ACAD_REACTORS
330
4F
102
}
100
AcDbEntity
  8
M03
100
AcDbLine
 10
741.788006
 20
323.443414
 30
0.0
 11
745.788006
 21
319.443414
 31
0.0
  0
LINE
  5
251
102
{ACAD_REACTORS
330
4F
102
}
100
AcDbEntity
  8
M03
100
AcDbLine
 10
745.788006
 20
327.443414
 30
0.0
 11
741.788006
 21
323.443414
 31
0.0
  0
LINE
  5
252
102
{ACAD_REACTORS
330
4F
102
}
100
AcDbEntity
  8
M03
100
AcDbLine
 10
759.788006
 20
327.443414
 30
0.0
 11
763.788006
 21
323.443414
 31
0.0
  0
LINE
  5
253
102
{ACAD_REACTORS
330
4F
102
}
100
AcDbEntity
  8
M03
100
AcDbLine
 10
745.788006
 20
327.443414
 30
0.0
 11
745.788006
 21
348.443414
 31
0.0
  0
LINE
  5
254
102
{ACAD_REACTORS
330
4F
102
}
100
AcDbEntity
  8
M03
100
AcDbLine
 10
745.788006
 20
327.443414
 30
0.0
 11
759.788006
 21
327.443414
 31
0.0
  0
LINE
  5
255
102
{ACAD_REACTORS
330
4F
102
}
100
AcDbEntity
  8
M03
100
AcDbLine
 10
745.788006
 20
319.443414
 30
0.0
 11
763.788006
 21
319.443414
 31
0.0
  0
LINE
  5
256
102
{ACAD_REACTORS
330
4F
102
}
100
AcDbEntity
  8
CENTRE
100
AcDbLine
 10
741.788006
 20
356.443414
 30
0.0
 11
741.788006
 21
290.443414
 31
0.0
  0
LINE
  5
257
102
{ACAD_REACTORS
330
4F
102
}
100
AcDbEntity
  8
M03
100
AcDbLine
 10
745.788006
 20
298.443414
 30
0.0
 11
745.788006
 21
319.443414
 31
0.0
  0
LINE
  5
258
102
{ACAD_REACTORS
330
4F
102
}
100
AcDbEntity
  8
M03
100
AcDbLine
 10
737.788006
 20
298.443414
 30
0.0
 11
737.788006
 21
348.443414
 31
0.0
  0
LINE
  5
259
102
{ACAD_REACTORS
330
4F
102
}
100
AcDbEntity
  8
CENTRE
100
AcDbLine
 10
733.788006
 20
323.443414
 30
0.0
 11
771.788006
 21
323.443414
 31
0.0
  0
CIRCLE
  5
25A
102
{ACAD_REACTORS
330
4F
102
}
100
AcDbEntity
  8
M01
100
AcDbCircle
 10
741.788006
 20
348.443414
 30
0.0
 40
4.0
  0
LINE
  5
25B
102
{ACAD_REACTORS
330
4F
102
}
100
AcDbEntity
  8
M01
100
AcDbLine
 10
724.788006
 20
352.443414
 30
0.0
 11
741.788006
 21
352.443414
 31
0.0
  0
LINE
  5
25C
102
{ACAD_REACTORS
330
4F
102
}
100
AcDbEntity
  8
M01
100
AcDbLine
 10
724.788006
 20
344.443414
 30
0.0
 11
741.788006
 21
344.443414
 31
0.0
  0
LINE
  5
25D
100
AcDbEntity
  8
M02
100
AcDbLine
 10
724.788006
 20
366.443414
 30
0.0
 11
721.788006
 21
366.443414
 31
0.0
  0
LINE
  5
25E
100
AcDbEntity
  8
M02
100
AcDbLine
 10
724.788006
 20
330.443414
 30
0.0
 11
721.788006
 21
330.443414
 31
0.0
  0
LINE
  5
25F
100
AcDbEntity
  8
CENTRE
100
AcDbLine
 10
711.976411
 20
348.443414
 30
0.0
 11
749.788006
 21
348.443414
 31
0.0
  0
CIRCLE
  5
260
102
{ACAD_REACTORS
330
4F
102
}
100
AcDbEntity
  8
M01
100
AcDbCircle
 10
741.788006
 20
298.443414
 30
0.0
 40
4.0
  0
LINE
  5
261
102
{ACAD_REACTORS
330
4F
102
}
100
AcDbEntity
  8
M01
100
AcDbLine
 10
724.788006
 20
302.443414
 30
0.0
 11
741.788006
 21
302.443414
 31
0.0
  0
LINE
  5
262
102
{ACAD_REACTORS
330
4F
102
}
100
AcDbEntity
  8
M01
100
AcDbLine
 10
724.788006
 20
294.443414
 30
0.0
 11
741.788006
 21
294.443414
 31
0.0
  0
LINE
  5
263
100
AcDbEntity
  8
CENTRE
100
AcDbLine
 10
711.976411
 20
298.443414
 30
0.0
 11
749.788006
 21
298.443414
 31
0.0
  0
WIPEOUT
  5
264
100
AcDbEntity
  8
TEXT
 92
      140
310
8C000000010000008400000006000000050000000C1D714C2E4C88401168ACCC4D6E784000000000000000001B07125B18C588401168ACCC4D6E784000000000000000001C07125B18C588400F68ACCC4DAE784000000000000000000E1D714C2E4C88401168ACCC4DAE784000000000000000000C1D714C2E4C88401168AC
310
CC4D6E78400000000000000000
100
AcDbWipeout
 90
        0
 10
742.821254
 20
345.078355
 30
0.0
 11
49.815639
 21
0.0
 31
0.0
 12
0.0
 22
49.815639
 32
0.0
 13
0.0
 23
0.0
340
0
 70
     7
280
     1
281
    50
282
    50
283
     0
360
0
 71
     2
 91
        5
 14
0.196596
 24
-0.419704
 14
0.5
 24
-0.419704
 14
0.5
 24
-0.5
 14
0.196596
 24
-0.5
 14
0.196596
 24
-0.419704
  0
TEXT
  5
265
100
AcDbEntity
  8
TEXT
100
AcDbText
 10
778.522607
 20
391.893994
 30
0.0
 40
2.0
  1
MA010000
 41
0.9
100
AcDbText
  0
LINE
  5
266
102
{ACAD_REACTORS
330
4F
330
4D
102
}
100
AcDbEntity
  8
M01
100
AcDbLine
 10
784.788006
 20
356.943414
 30
0.0
 11
784.788006
 21
269.443414
 31
0.0
  0
LINE
  5
267
100
AcDbEntity
  8
M01
100
AcDbLine
 10
784.788006
 20
408.943414
 30
0.0
 11
784.788006
 21
395.943414
 31
0.0
  0
HATCH
  5
268
100
AcDbEntity
  8
HATCH
100
AcDbHatch
 10
0.0
 20
0.0
 30
0.0
210
0.0
220
0.0
230
1.0
  2
_U
 70
     0
 71
     0
 91
        4
 92
        7
 72
     1
 73
     1
 93
       16
 10
795.7880055868603
 20
405.2434140619694
 42
0.0
 10
795.0880055868603
 20
405.9434140619694
 42
0.0
 10
793.7880055868601
 20
405.9434140619694
 42
0.0
 10
793.7880055868601
 20
405.4434140619695
 42
0.0
 10
790.7880055868597
 20
405.4434140619695
 42
0.0
 10
790.7880055868597
 20
406.4434140619694
 42
0.0
 10
786.7880055868599
 20
406.4434140619694
 42
0.0
 10
786.7880055868599
 20
406.6934140619694
 42
0.0
 10
786.7880055868599
 20
408.2434140619694
 42
0.0
 10
784.7880055868596
 20
408.2434140619694
 42
0.0
 10
784.7880055868596
 20
395.9434140619693
 42
0.0
 10
775.7880055868598
 20
395.9434140619694
 42
0.0
 10
774.7880055868599
 20
394.9434140619695
 42
0.0
 10
774.7880055868599
 20
389.9434140619693
 42
0.0
 10
793.0892199337586
 20
388.9842880598656
 42
-0.1092323044357322
 10
795.78800558686
 20
395.1085654518814
 42
0.0
 97
        0
 92
        7
 72
     0
 73
     1
 93
        9
 10
790.7880055868596
 20
419.2434140619696
 10
790.0880055868597
 20
419.9434140619697
 10
785.4880055868598
 20
419.9434140619697
 10
784.7880055868596
 20
419.2434140619694
 10
784.7880055868596
 20
415.6434140619695
 10
786.7880055868599
 20
415.6434140619695
 10
786.7880055868599
 20
417.1934140619696
 10
786.7880055868599
 20
417.4434140619694
 10
790.7880055868597
 20
417.4434140619694
 97
        0
 92
        7
 72
     1
 73
     1
 93
       16
 10
795.7880055868598
 20
376.7782626720578
 42
-0.109232304435728
 10
793.0892199337586
 20
382.9025400640735
 42
0.0
 10
774.7880055868599
 20
381.9434140619695
 42
0.0
 10
774.7880055868598
 20
376.9434140619694
 42
0.0
 10
775.7880055868601
 20
375.9434140619695
 42
0.0
 10
784.7880055868596
 20
375.9434140619694
 42
0.0
 10
784.7880055868597
 20
363.6434140619693
 42
0.0
 10
786.7880055868599
 20
363.6434140619694
 42
0.0
 10
786.7880055868599
 20
365.1934140619692
 42
0.0
 10
786.7880055868599
 20
365.4434140619692
 42
0.0
 10
790.7880055868599
 20
365.4434140619692
 42
0.0
 10
790.7880055868599
 20
366.4434140619694
 42
0.0
 10
793.7880055868597
 20
366.4434140619694
 42
0.0
 10
793.7880055868597
 20
365.9434140619694
 42
0.0
 10
795.0880055868597
 20
365.9434140619694
 42
0.0
 10
795.7880055868598
 20
366.6434140619696
 42
0.0
 97
        0
 92
        7
 72
     0
 73
     1
 93
        9
 10
790.7880055868599
 20
354.4434140619694
 10
786.7880055868599
 20
354.4434140619694
 10
786.7880055868599
 20
354.6934140619692
 10
786.78800558686
 20
356.2434140619694
 10
784.7880055868596
 20
356.2434140619694
 10
784.7880055868596
 20
352.6434140619695
 10
785.48800558686
 20
351.9434140619693
 10
790.0880055868598
 20
351.9434140619692
 10
790.7880055868599
 20
352.6434140619692
 97
        0
 75
     0
 76
     0
 52
135.0
 41
2.5
 77
     0
 78
     1
 53
135.0
 43
-63.292458
 44
-82.552148
 45
-1.767766952966368
 46
-1.767766952966368
 79
     0
 47
0.185848
 98
        4
 10
788.404637
 20
399.954983
 10
787.103191
 20
418.353918
 10
788.032793
 20
373.378744
 10
786.359507
 20
352.935484
  0
ARC
  5
269
100
AcDbEntity
  8
M03
100
AcDbCircle
 10
763.788006
 20
448.443414
 30
0.0
 40
4.0
100
AcDbArc
 50
0.0
 51
90.0
  0
LINE
  5
26A
100
AcDbEntity
  8
M03
100
AcDbLine
 10
741.788006
 20
448.443414
 30
0.0
 11
745.788006
 21
452.443414
 31
0.0
  0
LINE
  5
26B
100
AcDbEntity
  8
M03
100
AcDbLine
 10
745.788006
 20
444.443414
 30
0.0
 11
741.788006
 21
448.443414
 31
0.0
  0
LINE
  5
26C
100
AcDbEntity
  8
M03
100
AcDbLine
 10
759.788006
 20
444.443414
 30
0.0
 11
763.788006
 21
448.443414
 31
0.0
  0
LINE
  5
26D
102
{ACAD_REACTORS
330
4F
102
}
100
AcDbEntity
  8
CENTRE
100
AcDbLine
 10
763.788006
 20
456.443414
 30
0.0
 11
763.788006
 21
315.443414
 31
0.0
  0
LINE
  5
26E
100
AcDbEntity
  8
M03
100
AcDbLine
 10
745.788006
 20
444.443414
 30
0.0
 11
745.788006
 21
423.443414
 31
0.0
  0
LINE
  5
26F
100
AcDbEntity
  8
M03
100
AcDbLine
 10
745.788006
 20
444.443414
 30
0.0
 11
759.788006
 21
444.443414
 31
0.0
  0
LINE
  5
270
100
AcDbEntity
  8
M03
100
AcDbLine
 10
745.788006
 20
452.443414
 30
0.0
 11
763.788006
 21
452.443414
 31
0.0
  0
LINE
  5
271
102
{ACAD_REACTORS
330
4F
102
}
100
AcDbEntity
  8
M03
100
AcDbLine
 10
759.788006
 20
444.443414
 30
0.0
 11
759.788006
 21
327.443414
 31
0.0
  0
LINE
  5
272
100
AcDbEntity
  8
CENTRE
100
AcDbLine
 10
741.788006
 20
415.443414
 30
0.0
 11
741.788006
 21
481.443414
 31
0.0
  0
LINE
  5
273
102
{ACAD_REACTORS
330
4F
102
}
100
AcDbEntity
  8
M03
100
AcDbLine
 10
767.788006
 20
448.443414
 30
0.0
 11
767.788006
 21
323.443414
 31
0.0
  0
LINE
  5
274
100
AcDbEntity
  8
M03
100
AcDbLine
 10
745.788006
 20
473.443414
 30
0.0
 11
745.788006
 21
452.443414
 31
0.0
  0
LINE
  5
275
100
AcDbEntity
  8
M03
100
AcDbLine
 10
737.788006
 20
473.443414
 30
0.0
 11
737.788006
 21
423.443414
 31
0.0
  0
LINE
  5
276
100
AcDbEntity
  8
CENTRE
100
AcDbLine
 10
733.788006
 20
448.443414
 30
0.0
 11
771.788006
 21
448.443414
 31
0.0
  0
LINE
  5
277
100
AcDbEntity
  8
M03
100
AcDbLine
 10
507.044627
 20
385.943414
 30
0.0
 11
511.044627
 21
389.943414
 31
0.0
  0
LINE
  5
278
100
AcDbEntity
  8
M03
100
AcDbLine
 10
511.044627
 20
381.943414
 30
0.0
 11
507.044627
 21
385.943414
 31
0.0
  0
LINE
  5
279
100
AcDbEntity
  8
M04
100
AcDbLine
 10
791.788006
 20
470.443414
 30
0.0
 11
791.788006
 21
405.443414
 31
0.0
  0
CIRCLE
  5
27A
102
{ACAD_REACTORS
330
4F
102
}
100
AcDbEntity
  8
M01
100
AcDbCircle
 10
763.788006
 20
385.943414
 30
0.0
 40
4.0
  0
LINE
  5
27B
102
{ACAD_REACTORS
330
4C
102
}
100
AcDbEntity
  8
M02
100
AcDbLine
 10
787.788006
 20
459.443414
 30
0.0
 11
787.788006
 21
419.943414
 31
0.0
  0
CIRCLE
  5
27C
100
AcDbEntity
  8
M01
100
AcDbCircle
 10
741.788006
 20
423.443414
 30
0.0
 40
4.0
  0
LINE
  5
27D
100
AcDbEntity
  8
M01
100
AcDbLine
 10
724.788006
 20
419.443414
 30
0.0
 11
741.788006
 21
419.443414
 31
0.0
  0
LINE
  5
27E
100
AcDbEntity
  8
M01
100
AcDbLine
 10
724.788006
 20
427.443414
 30
0.0
 11
741.788006
 21
427.443414
 31
0.0
  0
LINE
  5
27F
102
{ACAD_REACTORS
330
4C
102
}
100
AcDbEntity
  8
M02
100
AcDbLine
 10
724.788006
 20
405.443414
 30
0.0
 11
721.788006
 21
405.443414
 31
0.0
  0
LINE
  5
280
102
{ACAD_REACTORS
330
4C
102
}
100
AcDbEntity
  8
M02
100
AcDbLine
 10
724.788006
 20
441.443414
 30
0.0
 11
721.788006
 21
441.443414
 31
0.0
  0
LINE
  5
281
100
AcDbEntity
  8
CENTRE
100
AcDbLine
 10
711.976411
 20
423.443414
 30
0.0
 11
749.788006
 21
423.443414
 31
0.0
  0
CIRCLE
  5
282
100
AcDbEntity
  8
M01
100
AcDbCircle
 10
741.788006
 20
473.443414
 30
0.0
 40
4.0
  0
HATCH
  5
283
100
AcDbEntity
  8
HATCH
100
AcDbHatch
 10
0.0
 20
0.0
 30
0.0
210
0.0
220
0.0
230
1.0
  2
_U
 70
     0
 71
     0
 91
        2
 92
        7
 72
     0
 73
     1
 93
       11
 10
784.7880055868598
 20
481.3022960494265
 10
784.7880055868597
 20
486.7434140619691
 10
785.4880055868598
 20
487.4434140619694
 10
791.08800558686
 20
487.4434140619694
 10
791.7880055868598
 20
486.7434140619693
 10
791.7880055868598
 20
483.9434140619691
 10
790.7880055868599
 20
482.9434140619694
 10
790.7880055868599
 20
480.9434140619696
 10
791.7880055868598
 20
479.9434140619701
 10
791.7880055868598
 20
476.9434140619694
 10
789.1468875743169
 20
476.9434140619694
 97
        0
 92
        7
 72
     0
 73
     1
 93
       11
 10
785.4880055868598
 20
459.4434140619694
 10
784.78800558686
 20
460.1434140619694
 10
784.78800558686
 20
465.5845320745124
 10
789.1468875743169
 20
469.9434140619693
 10
791.7880055868598
 20
469.9434140619693
 10
791.7880055868598
 20
466.9434140619687
 10
790.7880055868599
 20
465.9434140619689
 10
790.7880055868599
 20
463.9434140619694
 10
791.7880055868599
 20
462.9434140619696
 10
791.7880055868598
 20
460.1434140619694
 10
791.08800558686
 20
459.4434140619696
 97
        0
 75
     0
 76
     0
 52
225.0
 41
1.5
 77
     0
 78
     1
 53
135.0
 43
1032.27448
 44
1083.890655
 45
1.060660171779821
 46
1.060660171779821
 79
     0
 47
0.151518
 98
        2
 10
788.103968
 20
482.967484
 10
787.497897
 20
464.323073
  0
LINE
  5
284
100
AcDbEntity
  8
M05
100
AcDbLine
 10
790.788006
 20
482.943414
 30
0.0
 11
791.788006
 21
483.943414
 31
0.0
  0
LINE
  5
286
100
AcDbEntity
  8
M05
100
AcDbLine
 10
790.788006
 20
480.943414
 30
0.0
 11
791.788006
 21
479.943414
 31
0.0
  0
LINE
  5
287
100
AcDbEntity
  8
M05
100
AcDbLine
 10
790.788006
 20
482.943414
 30
0.0
 11
790.788006
 21
480.943414
 31
0.0
  0
LINE
  5
288
100
AcDbEntity
  8
M05
100
AcDbLine
 10
790.788006
 20
463.943414
 30
0.0
 11
791.788006
 21
462.943414
 31
0.0
  0
LINE
  5
289
100
AcDbEntity
  8
M05
100
AcDbLine
 10
790.788006
 20
465.943414
 30
0.0
 11
791.788006
 21
466.943414
 31
0.0
  0
LINE
  5
28A
100
AcDbEntity
  8
M05
100
AcDbLine
 10
790.788006
 20
463.943414
 30
0.0
 11
790.788006
 21
465.943414
 31
0.0
  0
LINE
  5
28B
100
AcDbEntity
  8
M04
100
AcDbLine
 10
809.615911
 20
473.443414
 30
0.0
 11
808.288006
 21
471.143414
 31
0.0
  0
LINE
  5
28C
100
AcDbEntity
  8
M04
100
AcDbLine
 10
808.288006
 20
475.743414
 30
0.0
 11
809.615911
 21
473.443414
 31
0.0
  0
LINE
  5
28D
100
AcDbEntity
  8
M04
100
AcDbLine
 10
808.288006
 20
475.743414
 30
0.0
 11
808.288006
 21
471.143414
 31
0.0
  0
LINE
  5
28E
100
AcDbEntity
  8
M04
100
AcDbLine
 10
803.226888
 20
476.443414
 30
0.0
 11
806.788006
 21
476.443414
 31
0.0
  0
LINE
  5
28F
100
AcDbEntity
  8
M04
100
AcDbLine
 10
803.926888
 20
475.743414
 30
0.0
 11
808.288006
 21
475.743414
 31
0.0
  0
LINE
  5
290
100
AcDbEntity
  8
M04
100
AcDbLine
 10
803.226888
 20
470.443414
 30
0.0
 11
806.788006
 21
470.443414
 31
0.0
  0
LINE
  5
291
100
AcDbEntity
  8
M04
100
AcDbLine
 10
803.926888
 20
471.143414
 30
0.0
 11
808.288006
 21
471.143414
 31
0.0
  0
LINE
  5
292
100
AcDbEntity
  8
M05
100
AcDbLine
 10
803.926888
 20
471.143414
 30
0.0
 11
803.226888
 21
470.443414
 31
0.0
  0
LINE
  5
293
100
AcDbEntity
  8
M05
100
AcDbLine
 10
803.226888
 20
476.443414
 30
0.0
 11
803.926888
 21
475.743414
 31
0.0
  0
LINE
  5
294
100
AcDbEntity
  8
M05
100
AcDbLine
 10
791.146888
 20
471.143414
 30
0.0
 11
803.926888
 21
471.143414
 31
0.0
  0
LINE
  5
295
100
AcDbEntity
  8
M05
100
AcDbLine
 10
791.146888
 20
475.743414
 30
0.0
 11
803.926888
 21
475.743414
 31
0.0
  0
LINE
  5
296
100
AcDbEntity
  8
M05
100
AcDbLine
 10
803.226888
 20
476.443414
 30
0.0
 11
803.226888
 21
470.443414
 31
0.0
  0
LINE
  5
297
100
AcDbEntity
  8
M04
100
AcDbLine
 10
806.788006
 20
476.443414
 30
0.0
 11
806.788006
 21
470.443414
 31
0.0
  0
LINE
  5
298
100
AcDbEntity
  8
M05
100
AcDbLine
 10
803.926888
 20
475.743414
 30
0.0
 11
803.926888
 21
471.143414
 31
0.0
  0
LINE
  5
299
100
AcDbEntity
  8
M05
  6
HIDDEN
100
AcDbLine
 10
784.488006
 20
481.602296
 30
0.0
 11
783.788006
 21
482.302296
 31
0.0
  0
LINE
  5
29A
100
AcDbEntity
  8
M05
  6
HIDDEN
100
AcDbLine
 10
784.488006
 20
465.284532
 30
0.0
 11
783.788006
 21
464.584532
 31
0.0
  0
LINE
  5
29B
100
AcDbEntity
  8
M05
100
AcDbLine
 10
791.146888
 20
476.443414
 30
0.0
 11
791.146888
 21
470.443414
 31
0.0
  0
LINE
  5
29C
100
AcDbEntity
  8
M05
100
AcDbLine
 10
786.646888
 20
472.893414
 30
0.0
 11
786.646888
 21
467.443414
 31
0.0
  0
LINE
  5
29D
100
AcDbEntity
  8
M05
100
AcDbLine
 10
785.926888
 20
472.893414
 30
0.0
 11
785.926888
 21
467.443414
 31
0.0
  0
LINE
  5
29E
100
AcDbEntity
  8
M05
100
AcDbLine
 10
785.926888
 20
472.893414
 30
0.0
 11
787.426888
 21
472.893414
 31
0.0
  0
LINE
  5
29F
100
AcDbEntity
  8
M05
100
AcDbLine
 10
785.926888
 20
473.993414
 30
0.0
 11
787.426888
 21
473.993414
 31
0.0
  0
LINE
  5
2A0
100
AcDbEntity
  8
M05
100
AcDbLine
 10
787.426888
 20
473.993414
 30
0.0
 11
787.426888
 21
472.893414
 31
0.0
  0
LINE
  5
2A1
100
AcDbEntity
  8
M05
100
AcDbLine
 10
789.146888
 20
469.943414
 30
0.0
 11
791.788006
 21
469.943414
 31
0.0
  0
LINE
  5
2A2
100
AcDbEntity
  8
M05
100
AcDbLine
 10
789.146888
 20
476.943414
 30
0.0
 11
791.788006
 21
476.943414
 31
0.0
  0
LINE
  5
2A3
100
AcDbEntity
  8
M05
100
AcDbLine
 10
786.646888
 20
479.443414
 30
0.0
 11
786.646888
 21
473.993414
 31
0.0
  0
LINE
  5
2A4
100
AcDbEntity
  8
M05
100
AcDbLine
 10
789.646888
 20
476.443414
 30
0.0
 11
784.488006
 21
481.602296
 31
0.0
  0
LINE
  5
2A5
100
AcDbEntity
  8
M05
100
AcDbLine
 10
785.926888
 20
479.443414
 30
0.0
 11
786.646888
 21
479.443414
 31
0.0
  0
LINE
  5
2A6
100
AcDbEntity
  8
M05
100
AcDbLine
 10
789.646888
 20
470.443414
 30
0.0
 11
784.488006
 21
465.284532
 31
0.0
  0
LINE
  5
2A7
100
AcDbEntity
  8
M05
100
AcDbLine
 10
789.646888
 20
476.443414
 30
0.0
 11
789.646888
 21
470.443414
 31
0.0
  0
LINE
  5
2A8
100
AcDbEntity
  8
M05
100
AcDbLine
 10
789.646888
 20
476.443414
 30
0.0
 11
803.226888
 21
476.443414
 31
0.0
  0
LINE
  5
2A9
100
AcDbEntity
  8
M05
100
AcDbLine
 10
789.646888
 20
470.443414
 30
0.0
 11
803.226888
 21
470.443414
 31
0.0
  0
LINE
  5
2AA
100
AcDbEntity
  8
M05
100
AcDbLine
 10
785.926888
 20
467.443414
 30
0.0
 11
786.646888
 21
467.443414
 31
0.0
  0
LINE
  5
2AB
100
AcDbEntity
  8
M05
100
AcDbLine
 10
785.926888
 20
479.443414
 30
0.0
 11
785.926888
 21
473.993414
 31
0.0
  0
LINE
  5
2AC
100
AcDbEntity
  8
M05
  6
HIDDEN
100
AcDbLine
 10
784.488006
 20
487.443414
 30
0.0
 11
784.488006
 21
459.443414
 31
0.0
  0
LINE
  5
2AD
100
AcDbEntity
  8
M05
  6
HIDDEN
100
AcDbLine
 10
784.488006
 20
459.443414
 30
0.0
 11
783.788006
 21
460.143414
 31
0.0
  0
LINE
  5
2AE
100
AcDbEntity
  8
M05
  6
HIDDEN
100
AcDbLine
 10
785.488006
 20
459.443414
 30
0.0
 11
784.488006
 21
459.443414
 31
0.0
  0
LINE
  5
2AF
100
AcDbEntity
  8
M05
100
AcDbLine
 10
785.488006
 20
459.443414
 30
0.0
 11
784.788006
 21
460.143414
 31
0.0
  0
LINE
  5
2B0
100
AcDbEntity
  8
M05
100
AcDbLine
 10
791.088006
 20
459.443414
 30
0.0
 11
791.788006
 21
460.143414
 31
0.0
  0
LINE
  5
2B1
100
AcDbEntity
  8
M05
100
AcDbLine
 10
785.488006
 20
459.443414
 30
0.0
 11
791.088006
 21
459.443414
 31
0.0
  0
LINE
  5
2B2
100
AcDbEntity
  8
M05
  6
HIDDEN
100
AcDbLine
 10
784.488006
 20
487.443414
 30
0.0
 11
783.788006
 21
486.743414
 31
0.0
  0
LINE
  5
2B3
100
AcDbEntity
  8
M05
  6
HIDDEN
100
AcDbLine
 10
785.488006
 20
487.443414
 30
0.0
 11
784.488006
 21
487.443414
 31
0.0
  0
LINE
  5
2B4
100
AcDbEntity
  8
M05
100
AcDbLine
 10
785.488006
 20
487.443414
 30
0.0
 11
784.788006
 21
486.743414
 31
0.0
  0
LINE
  5
2B5
100
AcDbEntity
  8
M05
100
AcDbLine
 10
791.088006
 20
487.443414
 30
0.0
 11
791.788006
 21
486.743414
 31
0.0
  0
LINE
  5
2B6
102
{ACAD_REACTORS
330
4C
102
}
100
AcDbEntity
  8
M02
100
AcDbLine
 10
784.788006
 20
458.443414
 30
0.0
 11
787.788006
 21
458.443414
 31
0.0
  0
LINE
  5
2B7
102
{ACAD_REACTORS
330
4C
102
}
100
AcDbEntity
  8
M02
100
AcDbLine
 10
784.788006
 20
488.443414
 30
0.0
 11
787.788006
 21
488.443414
 31
0.0
  0
LINE
  5
2B8
100
AcDbEntity
  8
M05
  6
HIDDEN
100
AcDbLine
 10
783.788006
 20
486.743414
 30
0.0
 11
783.788006
 21
460.143414
 31
0.0
  0
LINE
  5
2B9
100
AcDbEntity
  8
M05
100
AcDbLine
 10
785.488006
 20
487.443414
 30
0.0
 11
791.088006
 21
487.443414
 31
0.0
  0
LINE
  5
2BA
100
AcDbEntity
  8
CENTRE
100
AcDbLine
 10
779.278895
 20
473.443414
 30
0.0
 11
812.357233
 21
473.443414
 31
0.0
  0
LINE
  5
2BB
100
AcDbEntity
  8
M01
100
AcDbLine
 10
724.788006
 20
469.443414
 30
0.0
 11
741.788006
 21
469.443414
 31
0.0
  0
LINE
  5
2BC
100
AcDbEntity
  8
M01
100
AcDbLine
 10
724.788006
 20
477.443414
 30
0.0
 11
741.788006
 21
477.443414
 31
0.0
  0
LINE
  5
2BD
102
{ACAD_REACTORS
330
4C
102
}
100
AcDbEntity
  8
M02
100
AcDbLine
 10
724.788006
 20
455.443414
 30
0.0
 11
721.788006
 21
455.443414
 31
0.0
  0
LINE
  5
2BE
102
{ACAD_REACTORS
330
4C
102
}
100
AcDbEntity
  8
M02
100
AcDbLine
 10
724.788006
 20
491.443414
 30
0.0
 11
721.788006
 21
491.443414
 31
0.0
  0
LINE
  5
2BF
100
AcDbEntity
  8
CENTRE
100
AcDbLine
 10
711.976411
 20
473.443414
 30
0.0
 11
749.788006
 21
473.443414
 31
0.0
  0
LINE
  5
2C0
100
AcDbEntity
  8
DIMS
 62
     4
100
AcDbLine
 10
436.052403
 20
400.682519
 30
0.0
 11
433.052403
 21
400.682519
 31
0.0
1001
ACAD
1000
DSTYLE
1002
{
1070
   144
1040
1.0
1002
}
  0
LINE
  5
2C1
100
AcDbEntity
  8
DIMS
 62
     4
100
AcDbLine
 10
452.638905
 20
412.421818
 30
0.0
 11
436.052403
 21
400.682519
 31
0.0
1001
ACAD
1000
DSTYLE
1002
{
1070
   144
1040
1.0
1002
}
  0
SOLID
  5
2C2
100
AcDbEntity
  8
DIMS
 62
     4
100
AcDbTrace
 10
452.350536
 20
412.830283
 30
0.0
 11
455.089695
 21
414.152029
 31
0.0
 12
452.927273
 22
412.013353
 32
0.0
 13
452.927273
 23
412.013353
 33
0.0
1001
ACAD
1000
DSTYLE
1002
{
1070
   144
1040
1.0
1002
}
  0
LEADER
  5
2C3
100
AcDbEntity
  8
DIMS
 62
     4
100
AcDbLeader
  3
DIM1$7
 76
     2
 10
528.004246
 20
244.459138
 30
0.0
 10
516.389293
 20
226.926692
 30
0.0
 77
   256
211
0.9626188335363941
221
0.2708597078212847
231
0.0
1001
ACAD
1000
DSTYLE
1002
{
1070
   144
1040
1.0
1002
}
  0
LINE
  5
2C5
100
AcDbEntity
  8
M03
100
AcDbLine
 10
478.889163
 20
410.014393
 30
0.0
 11
478.201788
 21
412.579709
 31
0.0
  0
LINE
  5
2C6
100
AcDbEntity
  8
M03
100
AcDbLine
 10
475.636472
 20
413.267084
 30
0.0
 11
478.201788
 21
412.579709
 31
0.0
  0
LINE
  5
2C7
100
AcDbEntity
  8
M03
100
AcDbLine
 10
475.636472
 20
413.267084
 30
0.0
 11
478.889163
 21
410.014393
 31
0.0
  0
LINE
  5
2C8
100
AcDbEntity
  8
M03
100
AcDbLine
 10
474.080837
 20
412.701398
 30
0.0
 11
478.323478
 21
408.458758
 31
0.0
  0
LINE
  5
2C9
100
AcDbEntity
  8
M03
100
AcDbLine
 10
457.529544
 20
412.140707
 30
0.0
 11
450.044627
 21
419.625624
 31
0.0
  0
LINE
  5
2CA
100
AcDbEntity
  8
M03
100
AcDbLine
 10
456.186041
 20
410.797204
 30
0.0
 11
450.072498
 21
416.910747
 31
0.0
  0
LINE
  5
2CB
100
AcDbEntity
  8
M03
100
AcDbLine
 10
462.691423
 20
407.403092
 30
0.0
 11
472.808045
 21
397.28647
 31
0.0
  0
LINE
  5
2CC
100
AcDbEntity
  8
M03
100
AcDbLine
 10
462.518349
 20
408.707537
 30
0.0
 11
461.952664
 21
408.141851
 31
0.0
  0
LINE
  5
2CD
100
AcDbEntity
  8
M03
100
AcDbLine
 10
457.741676
 20
412.352839
 30
0.0
 11
455.973909
 21
410.585072
 31
0.0
  0
LINE
  5
2CE
100
AcDbEntity
  8
M03
100
AcDbLine
 10
455.973909
 20
410.585072
 30
0.0
 11
460.923657
 21
405.635325
 31
0.0
  0
LINE
  5
2CF
100
AcDbEntity
  8
M03
100
AcDbLine
 10
462.691423
 20
407.403092
 30
0.0
 11
460.923657
 21
405.635325
 31
0.0
  0
LINE
  5
2D0
100
AcDbEntity
  8
M03
100
AcDbLine
 10
473.37373
 20
397.852156
 30
0.0
 11
472.808045
 21
397.28647
 31
0.0
  0
ARC
  5
2D1
100
AcDbEntity
  8
M03
100
AcDbCircle
 10
469.644545
 20
404.022466
 30
0.0
 40
5.826136
100
AcDbArc
 50
160.69541
 51
289.30459
  0
LINE
  5
2D2
100
AcDbEntity
  8
M03
100
AcDbLine
 10
476.555711
 20
406.690991
 30
0.0
 11
476.555711
 21
407.68094
 31
0.0
  0
LINE
  5
2D3
100
AcDbEntity
  8
M03
100
AcDbLine
 10
472.31307
 20
410.933631
 30
0.0
 11
473.303019
 21
410.933631
 31
0.0
  0
LINE
  5
2D4
100
AcDbEntity
  8
M03
100
AcDbLine
 10
472.31307
 20
410.933631
 30
0.0
 11
476.555711
 21
406.690991
 31
0.0
  0
LINE
  5
2D5
100
AcDbEntity
  8
M03
100
AcDbLine
 10
473.303019
 20
410.933631
 30
0.0
 11
476.555711
 21
407.68094
 31
0.0
  0
LINE
  5
2D6
100
AcDbEntity
  8
M03
100
AcDbLine
 10
470.545303
 20
400.680583
 30
0.0
 11
475.49505
 21
395.730836
 31
0.0
  0
LINE
  5
2D7
100
AcDbEntity
  8
M03
100
AcDbLine
 10
458.73662
 20
412.489266
 30
0.0
 11
458.170934
 21
411.923581
 31
0.0
  0
LINE
  5
2D8
100
AcDbEntity
  8
M03
100
AcDbLine
 10
471.040278
 20
400.185608
 30
0.0
 11
470.474592
 21
399.619923
 31
0.0
  0
LINE
  5
2D9
100
AcDbEntity
  8
M03
100
AcDbLine
 10
478.889163
 20
410.014393
 30
0.0
 11
469.484643
 21
400.609872
 31
0.0
  0
LINE
  5
2DA
100
AcDbEntity
  8
M03
100
AcDbLine
 10
475.636472
 20
413.267084
 30
0.0
 11
466.231952
 21
403.862564
 31
0.0
  0
LINE
  5
2DB
100
AcDbEntity
  8
M03
100
AcDbLine
 10
474.080837
 20
412.701398
 30
0.0
 11
465.736977
 21
404.357538
 31
0.0
  0
LINE
  5
2DC
100
AcDbEntity
  8
M03
100
AcDbLine
 10
478.323478
 20
408.458758
 30
0.0
 11
469.979617
 21
400.114898
 31
0.0
  0
LINE
  5
2DD
100
AcDbEntity
  8
M03
100
AcDbLine
 10
457.741676
 20
412.352839
 30
0.0
 11
461.952664
 21
408.141851
 31
0.0
  0
LINE
  5
2DE
100
AcDbEntity
  8
M03
100
AcDbLine
 10
475.49505
 20
395.730836
 30
0.0
 11
468.884291
 21
389.120076
 31
0.0
  0
LINE
  5
2DF
100
AcDbEntity
  8
M03
100
AcDbLine
 10
450.044627
 20
421.181259
 30
0.0
 11
466.302662
 21
404.923224
 31
0.0
  0
LINE
  5
2E0
100
AcDbEntity
  8
CENTRE
100
AcDbLine
 10
481.292388
 20
415.670309
 30
0.0
 11
462.087261
 21
396.465182
 31
0.0
  0
LINE
  5
2E1
100
AcDbEntity
  8
CENTRE
100
AcDbLine
 10
542.044627
 20
588.604303
 30
0.0
 11
542.044627
 21
525.010872
 31
0.0
  0
LINE
  5
2E2
100
AcDbEntity
  8
CENTRE
100
AcDbLine
 10
566.044627
 20
588.604303
 30
0.0
 11
566.044627
 21
525.010872
 31
0.0
  0
LINE
  5
2E3
100
AcDbEntity
  8
M04
100
AcDbLine
 10
571.044627
 20
597.443414
 30
0.0
 11
571.044627
 21
618.114892
 31
0.0
  0
ARC
  5
2E4
100
AcDbEntity
  8
M04
100
AcDbCircle
 10
571.044627
 20
582.443414
 30
0.0
 40
15.0
100
AcDbArc
 50
0.0
 51
90.0
  0
LINE
  5
2E5
100
AcDbEntity
  8
M01
100
AcDbLine
 10
538.794627
 20
559.387514
 30
0.0
 11
545.294627
 21
559.387514
 31
0.0
  0
LINE
  5
2E6
100
AcDbEntity
  8
M01
100
AcDbLine
 10
538.794627
 20
567.499314
 30
0.0
 11
545.294627
 21
567.499314
 31
0.0
  0
LINE
  5
2E7
100
AcDbEntity
  8
M01
100
AcDbLine
 10
538.794627
 20
559.387514
 30
0.0
 11
538.794627
 21
557.443414
 31
0.0
  0
ARC
  5
2E8
100
AcDbEntity
  8
M01
100
AcDbCircle
 10
537.544627
 20
560.948764
 30
0.0
 40
2.0
100
AcDbArc
 50
308.682187
 51
0.0
  0
ARC
  5
2E9
100
AcDbEntity
  8
M01
100
AcDbCircle
 10
537.544627
 20
565.938064
 30
0.0
 40
2.0
100
AcDbArc
 50
0.0
 51
51.317813
  0
LINE
  5
2EA
100
AcDbEntity
  8
M01
100
AcDbLine
 10
538.794627
 20
569.443414
 30
0.0
 11
538.794627
 21
567.499314
 31
0.0
  0
LINE
  5
2EB
100
AcDbEntity
  8
M01
100
AcDbLine
 10
539.544627
 20
565.938064
 30
0.0
 11
539.544627
 21
560.948764
 31
0.0
  0
LINE
  5
2EC
100
AcDbEntity
  8
M01
100
AcDbLine
 10
545.294627
 20
559.387514
 30
0.0
 11
545.294627
 21
557.443414
 31
0.0
  0
ARC
  5
2ED
100
AcDbEntity
  8
M01
100
AcDbCircle
 10
546.544627
 20
560.948764
 30
0.0
 40
2.0
100
AcDbArc
 50
180.0
 51
231.317813
  0
ARC
  5
2EE
100
AcDbEntity
  8
M01
100
AcDbCircle
 10
546.544627
 20
565.938064
 30
0.0
 40
2.0
100
AcDbArc
 50
128.682187
 51
180.0
  0
LINE
  5
2EF
100
AcDbEntity
  8
M01
100
AcDbLine
 10
545.294627
 20
569.443414
 30
0.0
 11
545.294627
 21
567.499314
 31
0.0
  0
LINE
  5
2F0
100
AcDbEntity
  8
M01
100
AcDbLine
 10
544.544627
 20
565.938064
 30
0.0
 11
544.544627
 21
560.948764
 31
0.0
  0
LINE
  5
2F1
100
AcDbEntity
  8
M01
100
AcDbLine
 10
546.544627
 20
569.443414
 30
0.0
 11
537.544627
 21
569.443414
 31
0.0
  0
LINE
  5
2F2
100
AcDbEntity
  8
M01
100
AcDbLine
 10
537.544627
 20
570.243414
 30
0.0
 11
537.544627
 21
569.443414
 31
0.0
  0
LINE
  5
2F3
100
AcDbEntity
  8
M01
100
AcDbLine
 10
546.544627
 20
570.243414
 30
0.0
 11
546.544627
 21
569.443414
 31
0.0
  0
LINE
  5
2F4
100
AcDbEntity
  8
M01
100
AcDbLine
 10
569.294627
 20
559.387514
 30
0.0
 11
562.794627
 21
559.387514
 31
0.0
  0
LINE
  5
2F5
100
AcDbEntity
  8
M01
100
AcDbLine
 10
569.294627
 20
567.499314
 30
0.0
 11
562.794627
 21
567.499314
 31
0.0
  0
LINE
  5
2F6
100
AcDbEntity
  8
M01
100
AcDbLine
 10
569.294627
 20
559.387514
 30
0.0
 11
569.294627
 21
557.443414
 31
0.0
  0
ARC
  5
2F7
100
AcDbEntity
  8
M01
100
AcDbCircle
 10
570.544627
 20
560.948764
 30
0.0
 40
2.0
100
AcDbArc
 50
180.0
 51
231.317813
  0
ARC
  5
2F8
100
AcDbEntity
  8
M01
100
AcDbCircle
 10
570.544627
 20
565.938064
 30
0.0
 40
2.0
100
AcDbArc
 50
128.682187
 51
180.0
  0
LINE
  5
2F9
100
AcDbEntity
  8
M01
100
AcDbLine
 10
569.294627
 20
569.443414
 30
0.0
 11
569.294627
 21
567.499314
 31
0.0
  0
LINE
  5
2FA
100
AcDbEntity
  8
M01
100
AcDbLine
 10
568.544627
 20
565.938064
 30
0.0
 11
568.544627
 21
560.948764
 31
0.0
  0
LINE
  5
2FB
100
AcDbEntity
  8
M01
100
AcDbLine
 10
562.794627
 20
559.387514
 30
0.0
 11
562.794627
 21
557.443414
 31
0.0
  0
ARC
  5
2FC
100
AcDbEntity
  8
M01
100
AcDbCircle
 10
561.544627
 20
560.948764
 30
0.0
 40
2.0
100
AcDbArc
 50
308.682187
 51
0.0
  0
ARC
  5
2FD
100
AcDbEntity
  8
M01
100
AcDbCircle
 10
561.544627
 20
565.938064
 30
0.0
 40
2.0
100
AcDbArc
 50
0.0
 51
51.317813
  0
LINE
  5
2FE
100
AcDbEntity
  8
M01
100
AcDbLine
 10
562.794627
 20
569.443414
 30
0.0
 11
562.794627
 21
567.499314
 31
0.0
  0
LINE
  5
2FF
100
AcDbEntity
  8
M01
100
AcDbLine
 10
563.544627
 20
565.938064
 30
0.0
 11
563.544627
 21
560.948764
 31
0.0
  0
LINE
  5
300
100
AcDbEntity
  8
M01
100
AcDbLine
 10
537.044627
 20
552.443414
 30
0.0
 11
547.044627
 21
552.443414
 31
0.0
  0
LINE
  5
301
100
AcDbEntity
  8
M01
100
AcDbLine
 10
571.044627
 20
552.443414
 30
0.0
 11
561.044627
 21
552.443414
 31
0.0
  0
LINE
  5
302
100
AcDbEntity
  8
M01
100
AcDbLine
 10
571.044627
 20
557.443414
 30
0.0
 11
571.044627
 21
537.443414
 31
0.0
  0
LINE
  5
303
100
AcDbEntity
  8
M01
100
AcDbLine
 10
561.044627
 20
557.443414
 30
0.0
 11
561.044627
 21
537.443414
 31
0.0
  0
LINE
  5
304
100
AcDbEntity
  8
M01
100
AcDbLine
 10
547.044627
 20
557.443414
 30
0.0
 11
547.044627
 21
537.443414
 31
0.0
  0
LINE
  5
305
100
AcDbEntity
  8
M01
100
AcDbLine
 10
537.044627
 20
557.443414
 30
0.0
 11
537.044627
 21
537.443414
 31
0.0
  0
LINE
  5
306
100
AcDbEntity
  8
M01
100
AcDbLine
 10
539.013538
 20
579.343414
 30
0.0
 11
545.075715
 21
579.343414
 31
0.0
  0
ARC
  5
307
100
AcDbEntity
  8
M01
100
AcDbCircle
 10
545.075715
 20
577.494109
 30
0.0
 40
1.150694
100
AcDbArc
 50
208.592423
 51
331.407577
  0
ARC
  5
308
100
AcDbEntity
  8
M01
100
AcDbCircle
 10
542.044627
 20
580.046192
 30
0.0
 40
3.702778
100
AcDbArc
 50
236.92527
 51
303.07473
  0
ARC
  5
309
100
AcDbEntity
  8
M01
100
AcDbCircle
 10
539.013538
 20
577.494109
 30
0.0
 40
1.150694
100
AcDbArc
 50
208.592423
 51
331.407577
  0
ARC
  5
30A
100
AcDbEntity
  8
M01
100
AcDbCircle
 10
545.075715
 20
578.19272
 30
0.0
 40
1.150694
100
AcDbArc
 50
28.592423
 51
151.407577
  0
ARC
  5
30B
100
AcDbEntity
  8
M01
100
AcDbCircle
 10
542.044627
 20
575.640636
 30
0.0
 40
3.702778
100
AcDbArc
 50
56.92527
 51
123.07473
  0
LINE
  5
30C
100
AcDbEntity
  8
M01
100
AcDbLine
 10
544.065352
 20
578.743414
 30
0.0
 11
544.065352
 21
576.943414
 31
0.0
  0
LINE
  5
30D
100
AcDbEntity
  8
M01
100
AcDbLine
 10
546.086078
 20
578.743414
 30
0.0
 11
546.086078
 21
576.943414
 31
0.0
  0
ARC
  5
30E
100
AcDbEntity
  8
M01
100
AcDbCircle
 10
539.013538
 20
578.19272
 30
0.0
 40
1.150694
100
AcDbArc
 50
28.592423
 51
151.407577
  0
LINE
  5
30F
100
AcDbEntity
  8
M01
100
AcDbLine
 10
540.023901
 20
578.743414
 30
0.0
 11
540.023901
 21
576.943414
 31
0.0
  0
LINE
  5
310
100
AcDbEntity
  8
M01
100
AcDbLine
 10
538.003175
 20
578.743414
 30
0.0
 11
538.003175
 21
576.943414
 31
0.0
  0
LINE
  5
311
100
AcDbEntity
  8
M01
100
AcDbLine
 10
547.044627
 20
574.043414
 30
0.0
 11
547.044627
 21
575.543414
 31
0.0
  0
LINE
  5
312
100
AcDbEntity
  8
M01
100
AcDbLine
 10
537.044627
 20
574.043414
 30
0.0
 11
537.044627
 21
575.543414
 31
0.0
  0
LINE
  5
313
100
AcDbEntity
  8
M01
100
AcDbLine
 10
546.544627
 20
575.543414
 30
0.0
 11
546.544627
 21
576.343414
 31
0.0
  0
LINE
  5
314
100
AcDbEntity
  8
M01
100
AcDbLine
 10
537.544627
 20
575.543414
 30
0.0
 11
537.544627
 21
576.343414
 31
0.0
  0
LINE
  5
315
100
AcDbEntity
  8
M01
100
AcDbLine
 10
537.544627
 20
576.343414
 30
0.0
 11
546.544627
 21
576.343414
 31
0.0
  0
LINE
  5
316
100
AcDbEntity
  8
M01
100
AcDbLine
 10
537.044627
 20
575.543414
 30
0.0
 11
547.044627
 21
575.543414
 31
0.0
  0
LINE
  5
317
100
AcDbEntity
  8
M01
100
AcDbLine
 10
546.544627
 20
573.243414
 30
0.0
 11
546.544627
 21
574.043414
 31
0.0
  0
LINE
  5
318
100
AcDbEntity
  8
M01
100
AcDbLine
 10
537.544627
 20
573.243414
 30
0.0
 11
537.544627
 21
574.043414
 31
0.0
  0
LINE
  5
319
100
AcDbEntity
  8
M01
100
AcDbLine
 10
537.044627
 20
574.043414
 30
0.0
 11
547.044627
 21
574.043414
 31
0.0
  0
ARC
  5
31A
100
AcDbEntity
  8
M01
100
AcDbCircle
 10
545.075715
 20
571.394109
 30
0.0
 40
1.150694
100
AcDbArc
 50
208.592423
 51
331.407577
  0
ARC
  5
31B
100
AcDbEntity
  8
M01
100
AcDbCircle
 10
542.044627
 20
573.946192
 30
0.0
 40
3.702778
100
AcDbArc
 50
236.92527
 51
303.07473
  0
ARC
  5
31C
100
AcDbEntity
  8
M01
100
AcDbCircle
 10
539.013538
 20
571.394109
 30
0.0
 40
1.150694
100
AcDbArc
 50
208.592423
 51
331.407577
  0
ARC
  5
31D
100
AcDbEntity
  8
M01
100
AcDbCircle
 10
545.075715
 20
572.09272
 30
0.0
 40
1.150694
100
AcDbArc
 50
28.592423
 51
151.407577
  0
ARC
  5
31E
100
AcDbEntity
  8
M01
100
AcDbCircle
 10
542.044627
 20
569.540636
 30
0.0
 40
3.702778
100
AcDbArc
 50
56.92527
 51
123.07473
  0
LINE
  5
31F
100
AcDbEntity
  8
M01
100
AcDbLine
 10
544.065352
 20
572.643414
 30
0.0
 11
544.065352
 21
570.843414
 31
0.0
  0
LINE
  5
320
100
AcDbEntity
  8
M01
100
AcDbLine
 10
546.086078
 20
572.643414
 30
0.0
 11
546.086078
 21
570.843414
 31
0.0
  0
ARC
  5
321
100
AcDbEntity
  8
M01
100
AcDbCircle
 10
539.013538
 20
572.09272
 30
0.0
 40
1.150694
100
AcDbArc
 50
28.592423
 51
151.407577
  0
LINE
  5
322
100
AcDbEntity
  8
M01
100
AcDbLine
 10
540.023901
 20
572.643414
 30
0.0
 11
540.023901
 21
570.843414
 31
0.0
  0
LINE
  5
323
100
AcDbEntity
  8
M01
100
AcDbLine
 10
538.003175
 20
572.643414
 30
0.0
 11
538.003175
 21
570.843414
 31
0.0
  0
LINE
  5
324
100
AcDbEntity
  8
M01
100
AcDbLine
 10
537.544627
 20
573.243414
 30
0.0
 11
546.544627
 21
573.243414
 31
0.0
  0
LINE
  5
325
100
AcDbEntity
  8
M01
100
AcDbLine
 10
537.544627
 20
570.243414
 30
0.0
 11
546.544627
 21
570.243414
 31
0.0
  0
LINE
  5
326
100
AcDbEntity
  8
M01
100
AcDbLine
 10
543.544627
 20
582.443414
 30
0.0
 11
544.044627
 21
581.943414
 31
0.0
  0
LINE
  5
327
100
AcDbEntity
  8
M01
100
AcDbLine
 10
540.044627
 20
581.943414
 30
0.0
 11
540.544627
 21
582.443414
 31
0.0
  0
LINE
  5
328
100
AcDbEntity
  8
M01
100
AcDbLine
 10
540.044627
 20
581.943414
 30
0.0
 11
544.044627
 21
581.943414
 31
0.0
  0
LINE
  5
329
100
AcDbEntity
  8
M01
100
AcDbLine
 10
543.544627
 20
582.443414
 30
0.0
 11
543.544627
 21
579.343414
 31
0.0
  0
LINE
  5
32A
100
AcDbEntity
  8
M01
100
AcDbLine
 10
540.544627
 20
582.443414
 30
0.0
 11
540.544627
 21
579.343414
 31
0.0
  0
LINE
  5
32B
100
AcDbEntity
  8
M01
100
AcDbLine
 10
540.044627
 20
581.943414
 30
0.0
 11
540.044627
 21
579.343414
 31
0.0
  0
LINE
  5
32C
100
AcDbEntity
  8
M01
100
AcDbLine
 10
544.044627
 20
581.943414
 30
0.0
 11
544.044627
 21
579.343414
 31
0.0
  0
LINE
  5
32D
100
AcDbEntity
  8
M01
100
AcDbLine
 10
540.544627
 20
582.443414
 30
0.0
 11
543.544627
 21
582.443414
 31
0.0
  0
LINE
  5
32E
100
AcDbEntity
  8
M01
100
AcDbLine
 10
537.044627
 20
557.443414
 30
0.0
 11
547.044627
 21
557.443414
 31
0.0
  0
LINE
  5
32F
100
AcDbEntity
  8
M01
100
AcDbLine
 10
569.075715
 20
579.343414
 30
0.0
 11
563.013538
 21
579.343414
 31
0.0
  0
ARC
  5
330
100
AcDbEntity
  8
M01
100
AcDbCircle
 10
563.013538
 20
577.494109
 30
0.0
 40
1.150694
100
AcDbArc
 50
208.592423
 51
331.407577
  0
ARC
  5
331
100
AcDbEntity
  8
M01
100
AcDbCircle
 10
566.044627
 20
580.046192
 30
0.0
 40
3.702778
100
AcDbArc
 50
236.92527
 51
303.07473
  0
ARC
  5
332
100
AcDbEntity
  8
M01
100
AcDbCircle
 10
569.075715
 20
577.494109
 30
0.0
 40
1.150694
100
AcDbArc
 50
208.592423
 51
331.407577
  0
ARC
  5
333
100
AcDbEntity
  8
M01
100
AcDbCircle
 10
563.013538
 20
578.19272
 30
0.0
 40
1.150694
100
AcDbArc
 50
28.592423
 51
151.407577
  0
ARC
  5
334
100
AcDbEntity
  8
M01
100
AcDbCircle
 10
566.044627
 20
575.640636
 30
0.0
 40
3.702778
100
AcDbArc
 50
56.92527
 51
123.07473
  0
LINE
  5
335
100
AcDbEntity
  8
M01
100
AcDbLine
 10
564.023901
 20
578.743414
 30
0.0
 11
564.023901
 21
576.943414
 31
0.0
  0
LINE
  5
336
100
AcDbEntity
  8
M01
100
AcDbLine
 10
562.003175
 20
578.743414
 30
0.0
 11
562.003175
 21
576.943414
 31
0.0
  0
ARC
  5
337
100
AcDbEntity
  8
M01
100
AcDbCircle
 10
569.075715
 20
578.19272
 30
0.0
 40
1.150694
100
AcDbArc
 50
28.592423
 51
151.407577
  0
LINE
  5
338
100
AcDbEntity
  8
M01
100
AcDbLine
 10
568.065352
 20
578.743414
 30
0.0
 11
568.065352
 21
576.943414
 31
0.0
  0
LINE
  5
339
100
AcDbEntity
  8
M01
100
AcDbLine
 10
570.086078
 20
578.743414
 30
0.0
 11
570.086078
 21
576.943414
 31
0.0
  0
LINE
  5
33A
100
AcDbEntity
  8
M01
100
AcDbLine
 10
561.044627
 20
574.043414
 30
0.0
 11
561.044627
 21
575.543414
 31
0.0
  0
LINE
  5
33B
100
AcDbEntity
  8
M01
100
AcDbLine
 10
571.044627
 20
574.043414
 30
0.0
 11
571.044627
 21
575.543414
 31
0.0
  0
LINE
  5
33C
100
AcDbEntity
  8
M01
100
AcDbLine
 10
561.544627
 20
575.543414
 30
0.0
 11
561.544627
 21
576.343414
 31
0.0
  0
LINE
  5
33D
100
AcDbEntity
  8
M01
100
AcDbLine
 10
570.544627
 20
575.543414
 30
0.0
 11
570.544627
 21
576.343414
 31
0.0
  0
LINE
  5
33E
100
AcDbEntity
  8
M01
100
AcDbLine
 10
570.544627
 20
576.343414
 30
0.0
 11
561.544627
 21
576.343414
 31
0.0
  0
LINE
  5
33F
100
AcDbEntity
  8
M01
100
AcDbLine
 10
571.044627
 20
575.543414
 30
0.0
 11
561.044627
 21
575.543414
 31
0.0
  0
LINE
  5
340
100
AcDbEntity
  8
M01
100
AcDbLine
 10
561.544627
 20
573.243414
 30
0.0
 11
561.544627
 21
574.043414
 31
0.0
  0
LINE
  5
341
100
AcDbEntity
  8
M01
100
AcDbLine
 10
570.544627
 20
573.243414
 30
0.0
 11
570.544627
 21
574.043414
 31
0.0
  0
LINE
  5
342
100
AcDbEntity
  8
M01
100
AcDbLine
 10
571.044627
 20
574.043414
 30
0.0
 11
561.044627
 21
574.043414
 31
0.0
  0
ARC
  5
343
100
AcDbEntity
  8
M01
100
AcDbCircle
 10
563.013538
 20
571.394109
 30
0.0
 40
1.150694
100
AcDbArc
 50
208.592423
 51
331.407577
  0
ARC
  5
344
100
AcDbEntity
  8
M01
100
AcDbCircle
 10
566.044627
 20
573.946192
 30
0.0
 40
3.702778
100
AcDbArc
 50
236.92527
 51
303.07473
  0
ARC
  5
345
100
AcDbEntity
  8
M01
100
AcDbCircle
 10
569.075715
 20
571.394109
 30
0.0
 40
1.150694
100
AcDbArc
 50
208.592423
 51
331.407577
  0
ARC
  5
346
100
AcDbEntity
  8
M01
100
AcDbCircle
 10
563.013538
 20
572.09272
 30
0.0
 40
1.150694
100
AcDbArc
 50
28.592423
 51
151.407577
  0
ARC
  5
347
100
AcDbEntity
  8
M01
100
AcDbCircle
 10
566.044627
 20
569.540636
 30
0.0
 40
3.702778
100
AcDbArc
 50
56.92527
 51
123.07473
  0
LINE
  5
348
100
AcDbEntity
  8
M01
100
AcDbLine
 10
564.023901
 20
572.643414
 30
0.0
 11
564.023901
 21
570.843414
 31
0.0
  0
LINE
  5
349
100
AcDbEntity
  8
M01
100
AcDbLine
 10
562.003175
 20
572.643414
 30
0.0
 11
562.003175
 21
570.843414
 31
0.0
  0
ARC
  5
34A
100
AcDbEntity
  8
M01
100
AcDbCircle
 10
569.075715
 20
572.09272
 30
0.0
 40
1.150694
100
AcDbArc
 50
28.592423
 51
151.407577
  0
LINE
  5
34B
100
AcDbEntity
  8
M01
100
AcDbLine
 10
568.065352
 20
572.643414
 30
0.0
 11
568.065352
 21
570.843414
 31
0.0
  0
LINE
  5
34C
100
AcDbEntity
  8
M01
100
AcDbLine
 10
570.086078
 20
572.643414
 30
0.0
 11
570.086078
 21
570.843414
 31
0.0
  0
LINE
  5
34D
100
AcDbEntity
  8
M01
100
AcDbLine
 10
570.544627
 20
573.243414
 30
0.0
 11
561.544627
 21
573.243414
 31
0.0
  0
LINE
  5
34E
100
AcDbEntity
  8
M01
100
AcDbLine
 10
570.544627
 20
570.243414
 30
0.0
 11
561.544627
 21
570.243414
 31
0.0
  0
LINE
  5
34F
100
AcDbEntity
  8
M01
100
AcDbLine
 10
570.544627
 20
569.443414
 30
0.0
 11
561.544627
 21
569.443414
 31
0.0
  0
LINE
  5
350
100
AcDbEntity
  8
M01
100
AcDbLine
 10
564.544627
 20
582.443414
 30
0.0
 11
564.044627
 21
581.943414
 31
0.0
  0
LINE
  5
351
100
AcDbEntity
  8
M01
100
AcDbLine
 10
568.044627
 20
581.943414
 30
0.0
 11
567.544627
 21
582.443414
 31
0.0
  0
LINE
  5
352
100
AcDbEntity
  8
M01
100
AcDbLine
 10
568.044627
 20
581.943414
 30
0.0
 11
564.044627
 21
581.943414
 31
0.0
  0
LINE
  5
353
100
AcDbEntity
  8
M01
100
AcDbLine
 10
564.544627
 20
582.443414
 30
0.0
 11
564.544627
 21
579.343414
 31
0.0
  0
LINE
  5
354
100
AcDbEntity
  8
M01
100
AcDbLine
 10
567.544627
 20
582.443414
 30
0.0
 11
567.544627
 21
579.343414
 31
0.0
  0
LINE
  5
355
100
AcDbEntity
  8
M01
100
AcDbLine
 10
568.044627
 20
581.943414
 30
0.0
 11
568.044627
 21
579.343414
 31
0.0
  0
LINE
  5
356
100
AcDbEntity
  8
M01
100
AcDbLine
 10
564.044627
 20
581.943414
 30
0.0
 11
564.044627
 21
579.343414
 31
0.0
  0
LINE
  5
357
100
AcDbEntity
  8
M01
100
AcDbLine
 10
567.544627
 20
582.443414
 30
0.0
 11
564.544627
 21
582.443414
 31
0.0
  0
LINE
  5
358
100
AcDbEntity
  8
M01
100
AcDbLine
 10
571.044627
 20
557.443414
 30
0.0
 11
561.044627
 21
557.443414
 31
0.0
  0
LINE
  5
359
100
AcDbEntity
  8
M01
100
AcDbLine
 10
561.544627
 20
570.243414
 30
0.0
 11
561.544627
 21
569.443414
 31
0.0
  0
LINE
  5
35A
100
AcDbEntity
  8
M01
100
AcDbLine
 10
570.544627
 20
570.243414
 30
0.0
 11
570.544627
 21
569.443414
 31
0.0
  0
LINE
  5
35B
100
AcDbEntity
  8
M04
100
AcDbLine
 10
493.044627
 20
597.443414
 30
0.0
 11
493.044627
 21
618.114892
 31
0.0
  0
ARC
  5
35C
100
AcDbEntity
  8
M04
100
AcDbCircle
 10
493.044627
 20
582.443414
 30
0.0
 40
15.0
100
AcDbArc
 50
90.0
 51
180.0
  0
LINE
  5
35D
100
AcDbEntity
  8
M04
100
AcDbLine
 10
493.044627
 20
597.443414
 30
0.0
 11
571.044627
 21
597.443414
 31
0.0
  0
LINE
  5
35E
100
AcDbEntity
  8
M04
100
AcDbLine
 10
478.044627
 20
582.443414
 30
0.0
 11
478.044627
 21
517.443414
 31
0.0
  0
LINE
  5
35F
100
AcDbEntity
  8
M03
100
AcDbLine
 10
511.044627
 20
381.943414
 30
0.0
 11
553.044627
 21
381.943414
 31
0.0
  0
LINE
  5
360
100
AcDbEntity
  8
M03
100
AcDbLine
 10
511.044627
 20
389.943414
 30
0.0
 11
553.044627
 21
389.943414
 31
0.0
  0
LINE
  5
361
100
AcDbEntity
  8
M01
100
AcDbLine
 10
576.044627
 20
535.443414
 30
0.0
 11
574.044627
 21
537.443414
 31
0.0
  0
LINE
  5
362
100
AcDbEntity
  8
M01
100
AcDbLine
 10
525.294627
 20
559.387514
 30
0.0
 11
518.794627
 21
559.387514
 31
0.0
  0
LINE
  5
363
100
AcDbEntity
  8
M01
100
AcDbLine
 10
525.294627
 20
567.499314
 30
0.0
 11
518.794627
 21
567.499314
 31
0.0
  0
LINE
  5
364
100
AcDbEntity
  8
M01
100
AcDbLine
 10
525.294627
 20
559.387514
 30
0.0
 11
525.294627
 21
557.443414
 31
0.0
  0
ARC
  5
365
100
AcDbEntity
  8
M01
100
AcDbCircle
 10
526.544627
 20
560.948764
 30
0.0
 40
2.0
100
AcDbArc
 50
180.0
 51
231.317813
  0
ARC
  5
366
100
AcDbEntity
  8
M01
100
AcDbCircle
 10
526.544627
 20
565.938064
 30
0.0
 40
2.0
100
AcDbArc
 50
128.682187
 51
180.0
  0
LINE
  5
367
100
AcDbEntity
  8
M01
100
AcDbLine
 10
525.294627
 20
569.443414
 30
0.0
 11
525.294627
 21
567.499314
 31
0.0
  0
LINE
  5
368
100
AcDbEntity
  8
M01
100
AcDbLine
 10
524.544627
 20
565.938064
 30
0.0
 11
524.544627
 21
560.948764
 31
0.0
  0
LINE
  5
369
100
AcDbEntity
  8
M01
100
AcDbLine
 10
518.794627
 20
559.387514
 30
0.0
 11
518.794627
 21
557.443414
 31
0.0
  0
ARC
  5
36A
100
AcDbEntity
  8
M01
100
AcDbCircle
 10
517.544627
 20
560.948764
 30
0.0
 40
2.0
100
AcDbArc
 50
308.682187
 51
0.0
  0
ARC
  5
36B
100
AcDbEntity
  8
M01
100
AcDbCircle
 10
517.544627
 20
565.938064
 30
0.0
 40
2.0
100
AcDbArc
 50
0.0
 51
51.317813
  0
LINE
  5
36C
100
AcDbEntity
  8
M01
100
AcDbLine
 10
518.794627
 20
569.443414
 30
0.0
 11
518.794627
 21
567.499314
 31
0.0
  0
LINE
  5
36D
100
AcDbEntity
  8
M01
100
AcDbLine
 10
519.544627
 20
565.938064
 30
0.0
 11
519.544627
 21
560.948764
 31
0.0
  0
LINE
  5
36E
100
AcDbEntity
  8
M01
100
AcDbLine
 10
517.544627
 20
569.443414
 30
0.0
 11
526.544627
 21
569.443414
 31
0.0
  0
LINE
  5
36F
100
AcDbEntity
  8
M01
100
AcDbLine
 10
526.544627
 20
570.243414
 30
0.0
 11
526.544627
 21
569.443414
 31
0.0
  0
LINE
  5
370
100
AcDbEntity
  8
M01
100
AcDbLine
 10
517.544627
 20
570.243414
 30
0.0
 11
517.544627
 21
569.443414
 31
0.0
  0
LINE
  5
371
100
AcDbEntity
  8
M01
100
AcDbLine
 10
494.794627
 20
559.387514
 30
0.0
 11
501.294627
 21
559.387514
 31
0.0
  0
LINE
  5
372
100
AcDbEntity
  8
M01
100
AcDbLine
 10
494.794627
 20
567.499314
 30
0.0
 11
501.294627
 21
567.499314
 31
0.0
  0
LINE
  5
373
100
AcDbEntity
  8
M01
100
AcDbLine
 10
494.794627
 20
559.387514
 30
0.0
 11
494.794627
 21
557.443414
 31
0.0
  0
ARC
  5
374
100
AcDbEntity
  8
M01
100
AcDbCircle
 10
493.544627
 20
560.948764
 30
0.0
 40
2.0
100
AcDbArc
 50
308.682187
 51
0.0
  0
ARC
  5
375
100
AcDbEntity
  8
M01
100
AcDbCircle
 10
493.544627
 20
565.938064
 30
0.0
 40
2.0
100
AcDbArc
 50
0.0
 51
51.317813
  0
LINE
  5
376
100
AcDbEntity
  8
M01
100
AcDbLine
 10
494.794627
 20
569.443414
 30
0.0
 11
494.794627
 21
567.499314
 31
0.0
  0
LINE
  5
377
100
AcDbEntity
  8
M01
100
AcDbLine
 10
495.544627
 20
565.938064
 30
0.0
 11
495.544627
 21
560.948764
 31
0.0
  0
LINE
  5
378
100
AcDbEntity
  8
M01
100
AcDbLine
 10
501.294627
 20
559.387514
 30
0.0
 11
501.294627
 21
557.443414
 31
0.0
  0
ARC
  5
379
100
AcDbEntity
  8
M01
100
AcDbCircle
 10
502.544627
 20
560.948764
 30
0.0
 40
2.0
100
AcDbArc
 50
180.0
 51
231.317813
  0
ARC
  5
37A
100
AcDbEntity
  8
M01
100
AcDbCircle
 10
502.544627
 20
565.938064
 30
0.0
 40
2.0
100
AcDbArc
 50
128.682187
 51
180.0
  0
LINE
  5
37B
100
AcDbEntity
  8
M01
100
AcDbLine
 10
501.294627
 20
569.443414
 30
0.0
 11
501.294627
 21
567.499314
 31
0.0
  0
LINE
  5
37C
100
AcDbEntity
  8
M01
100
AcDbLine
 10
500.544627
 20
565.938064
 30
0.0
 11
500.544627
 21
560.948764
 31
0.0
  0
LINE
  5
37D
100
AcDbEntity
  8
M01
100
AcDbLine
 10
527.044627
 20
552.443414
 30
0.0
 11
517.044627
 21
552.443414
 31
0.0
  0
LINE
  5
37E
100
AcDbEntity
  8
M01
100
AcDbLine
 10
493.044627
 20
552.443414
 30
0.0
 11
503.044627
 21
552.443414
 31
0.0
  0
LINE
  5
37F
100
AcDbEntity
  8
M01
100
AcDbLine
 10
493.044627
 20
557.443414
 30
0.0
 11
493.044627
 21
537.443414
 31
0.0
  0
LINE
  5
380
100
AcDbEntity
  8
M01
100
AcDbLine
 10
503.044627
 20
557.443414
 30
0.0
 11
503.044627
 21
537.443414
 31
0.0
  0
LINE
  5
381
100
AcDbEntity
  8
M01
100
AcDbLine
 10
517.044627
 20
557.443414
 30
0.0
 11
517.044627
 21
537.443414
 31
0.0
  0
LINE
  5
382
100
AcDbEntity
  8
M01
100
AcDbLine
 10
527.044627
 20
557.443414
 30
0.0
 11
527.044627
 21
537.443414
 31
0.0
  0
LINE
  5
383
100
AcDbEntity
  8
DIMS
 62
     4
100
AcDbLine
 10
535.444627
 20
531.943414
 30
0.0
 11
537.744627
 21
531.943414
 31
0.0
  0
LINE
  5
384
100
AcDbEntity
  8
DIMS
 62
     4
100
AcDbLine
 10
528.644627
 20
531.943414
 30
0.0
 11
526.344627
 21
531.943414
 31
0.0
  0
LINE
  5
385
100
AcDbEntity
  8
DIMS
 62
     4
100
AcDbLine
 10
530.344627
 20
531.943414
 30
0.0
 11
533.744627
 21
531.943414
 31
0.0
  0
LINE
  5
386
100
AcDbEntity
  8
M01
100
AcDbLine
 10
525.075715
 20
579.343414
 30
0.0
 11
519.013538
 21
579.343414
 31
0.0
  0
ARC
  5
387
100
AcDbEntity
  8
M01
100
AcDbCircle
 10
519.013538
 20
577.494109
 30
0.0
 40
1.150694
100
AcDbArc
 50
208.592423
 51
331.407577
  0
ARC
  5
388
100
AcDbEntity
  8
M01
100
AcDbCircle
 10
522.044627
 20
580.046192
 30
0.0
 40
3.702778
100
AcDbArc
 50
236.92527
 51
303.07473
  0
ARC
  5
389
100
AcDbEntity
  8
M01
100
AcDbCircle
 10
525.075715
 20
577.494109
 30
0.0
 40
1.150694
100
AcDbArc
 50
208.592423
 51
331.407577
  0
ARC
  5
38A
100
AcDbEntity
  8
M01
100
AcDbCircle
 10
519.013538
 20
578.19272
 30
0.0
 40
1.150694
100
AcDbArc
 50
28.592423
 51
151.407577
  0
ARC
  5
38B
100
AcDbEntity
  8
M01
100
AcDbCircle
 10
522.044627
 20
575.640636
 30
0.0
 40
3.702778
100
AcDbArc
 50
56.92527
 51
123.07473
  0
LINE
  5
38C
100
AcDbEntity
  8
M01
100
AcDbLine
 10
520.023901
 20
578.743414
 30
0.0
 11
520.023901
 21
576.943414
 31
0.0
  0
LINE
  5
38D
100
AcDbEntity
  8
M01
100
AcDbLine
 10
518.003175
 20
578.743414
 30
0.0
 11
518.003175
 21
576.943414
 31
0.0
  0
ARC
  5
38E
100
AcDbEntity
  8
M01
100
AcDbCircle
 10
525.075715
 20
578.19272
 30
0.0
 40
1.150694
100
AcDbArc
 50
28.592423
 51
151.407577
  0
LINE
  5
38F
100
AcDbEntity
  8
M01
100
AcDbLine
 10
524.065352
 20
578.743414
 30
0.0
 11
524.065352
 21
576.943414
 31
0.0
  0
LINE
  5
390
100
AcDbEntity
  8
M01
100
AcDbLine
 10
526.086078
 20
578.743414
 30
0.0
 11
526.086078
 21
576.943414
 31
0.0
  0
LINE
  5
391
100
AcDbEntity
  8
M01
100
AcDbLine
 10
517.044627
 20
574.043414
 30
0.0
 11
517.044627
 21
575.543414
 31
0.0
  0
LINE
  5
392
100
AcDbEntity
  8
M01
100
AcDbLine
 10
527.044627
 20
574.043414
 30
0.0
 11
527.044627
 21
575.543414
 31
0.0
  0
LINE
  5
393
100
AcDbEntity
  8
M01
100
AcDbLine
 10
517.544627
 20
575.543414
 30
0.0
 11
517.544627
 21
576.343414
 31
0.0
  0
LINE
  5
394
100
AcDbEntity
  8
M01
100
AcDbLine
 10
526.544627
 20
575.543414
 30
0.0
 11
526.544627
 21
576.343414
 31
0.0
  0
LINE
  5
395
100
AcDbEntity
  8
M01
100
AcDbLine
 10
526.544627
 20
576.343414
 30
0.0
 11
517.544627
 21
576.343414
 31
0.0
  0
LINE
  5
396
100
AcDbEntity
  8
M01
100
AcDbLine
 10
527.044627
 20
575.543414
 30
0.0
 11
517.044627
 21
575.543414
 31
0.0
  0
LINE
  5
397
100
AcDbEntity
  8
M01
100
AcDbLine
 10
517.544627
 20
573.243414
 30
0.0
 11
517.544627
 21
574.043414
 31
0.0
  0
LINE
  5
398
100
AcDbEntity
  8
M01
100
AcDbLine
 10
526.544627
 20
573.243414
 30
0.0
 11
526.544627
 21
574.043414
 31
0.0
  0
LINE
  5
399
100
AcDbEntity
  8
M01
100
AcDbLine
 10
527.044627
 20
574.043414
 30
0.0
 11
517.044627
 21
574.043414
 31
0.0
  0
ARC
  5
39A
100
AcDbEntity
  8
M01
100
AcDbCircle
 10
519.013538
 20
571.394109
 30
0.0
 40
1.150694
100
AcDbArc
 50
208.592423
 51
331.407577
  0
ARC
  5
39B
100
AcDbEntity
  8
M01
100
AcDbCircle
 10
522.044627
 20
573.946192
 30
0.0
 40
3.702778
100
AcDbArc
 50
236.92527
 51
303.07473
  0
ARC
  5
39C
100
AcDbEntity
  8
M01
100
AcDbCircle
 10
525.075715
 20
571.394109
 30
0.0
 40
1.150694
100
AcDbArc
 50
208.592423
 51
331.407577
  0
ARC
  5
39D
100
AcDbEntity
  8
M01
100
AcDbCircle
 10
519.013538
 20
572.09272
 30
0.0
 40
1.150694
100
AcDbArc
 50
28.592423
 51
151.407577
  0
ARC
  5
39E
100
AcDbEntity
  8
M01
100
AcDbCircle
 10
522.044627
 20
569.540636
 30
0.0
 40
3.702778
100
AcDbArc
 50
56.92527
 51
123.07473
  0
LINE
  5
39F
100
AcDbEntity
  8
M01
100
AcDbLine
 10
520.023901
 20
572.643414
 30
0.0
 11
520.023901
 21
570.843414
 31
0.0
  0
LINE
  5
3A0
100
AcDbEntity
  8
M01
100
AcDbLine
 10
518.003175
 20
572.643414
 30
0.0
 11
518.003175
 21
570.843414
 31
0.0
  0
ARC
  5
3A1
100
AcDbEntity
  8
M01
100
AcDbCircle
 10
525.075715
 20
572.09272
 30
0.0
 40
1.150694
100
AcDbArc
 50
28.592423
 51
151.407577
  0
LINE
  5
3A2
100
AcDbEntity
  8
M01
100
AcDbLine
 10
524.065352
 20
572.643414
 30
0.0
 11
524.065352
 21
570.843414
 31
0.0
  0
LINE
  5
3A3
100
AcDbEntity
  8
M01
100
AcDbLine
 10
526.086078
 20
572.643414
 30
0.0
 11
526.086078
 21
570.843414
 31
0.0
  0
LINE
  5
3A4
100
AcDbEntity
  8
M01
100
AcDbLine
 10
526.544627
 20
573.243414
 30
0.0
 11
517.544627
 21
573.243414
 31
0.0
  0
LINE
  5
3A5
100
AcDbEntity
  8
M01
100
AcDbLine
 10
526.544627
 20
570.243414
 30
0.0
 11
517.544627
 21
570.243414
 31
0.0
  0
LINE
  5
3A6
100
AcDbEntity
  8
M01
100
AcDbLine
 10
520.544627
 20
582.443414
 30
0.0
 11
520.044627
 21
581.943414
 31
0.0
  0
LINE
  5
3A7
100
AcDbEntity
  8
M01
100
AcDbLine
 10
524.044627
 20
581.943414
 30
0.0
 11
523.544627
 21
582.443414
 31
0.0
  0
LINE
  5
3A8
100
AcDbEntity
  8
M01
100
AcDbLine
 10
524.044627
 20
581.943414
 30
0.0
 11
520.044627
 21
581.943414
 31
0.0
  0
LINE
  5
3A9
100
AcDbEntity
  8
M01
100
AcDbLine
 10
520.544627
 20
582.443414
 30
0.0
 11
520.544627
 21
579.343414
 31
0.0
  0
LINE
  5
3AA
100
AcDbEntity
  8
M01
100
AcDbLine
 10
523.544627
 20
582.443414
 30
0.0
 11
523.544627
 21
579.343414
 31
0.0
  0
LINE
  5
3AB
100
AcDbEntity
  8
M01
100
AcDbLine
 10
524.044627
 20
581.943414
 30
0.0
 11
524.044627
 21
579.343414
 31
0.0
  0
LINE
  5
3AC
100
AcDbEntity
  8
M01
100
AcDbLine
 10
520.044627
 20
581.943414
 30
0.0
 11
520.044627
 21
579.343414
 31
0.0
  0
LINE
  5
3AD
100
AcDbEntity
  8
M01
100
AcDbLine
 10
523.544627
 20
582.443414
 30
0.0
 11
520.544627
 21
582.443414
 31
0.0
  0
LINE
  5
3AE
100
AcDbEntity
  8
M01
100
AcDbLine
 10
527.044627
 20
557.443414
 30
0.0
 11
517.044627
 21
557.443414
 31
0.0
  0
LINE
  5
3AF
100
AcDbEntity
  8
CENTRE
100
AcDbLine
 10
522.044627
 20
588.604303
 30
0.0
 11
522.044627
 21
525.010872
 31
0.0
  0
LINE
  5
3B0
100
AcDbEntity
  8
M01
100
AcDbLine
 10
495.013538
 20
579.343414
 30
0.0
 11
501.075715
 21
579.343414
 31
0.0
  0
ARC
  5
3B1
100
AcDbEntity
  8
M01
100
AcDbCircle
 10
501.075715
 20
577.494109
 30
0.0
 40
1.150694
100
AcDbArc
 50
208.592423
 51
331.407577
  0
ARC
  5
3B2
100
AcDbEntity
  8
M01
100
AcDbCircle
 10
498.044627
 20
580.046192
 30
0.0
 40
3.702778
100
AcDbArc
 50
236.92527
 51
303.07473
  0
ARC
  5
3B3
100
AcDbEntity
  8
M01
100
AcDbCircle
 10
495.013538
 20
577.494109
 30
0.0
 40
1.150694
100
AcDbArc
 50
208.592423
 51
331.407577
  0
ARC
  5
3B4
100
AcDbEntity
  8
M01
100
AcDbCircle
 10
501.075715
 20
578.19272
 30
0.0
 40
1.150694
100
AcDbArc
 50
28.592423
 51
151.407577
  0
ARC
  5
3B5
100
AcDbEntity
  8
M01
100
AcDbCircle
 10
498.044627
 20
575.640636
 30
0.0
 40
3.702778
100
AcDbArc
 50
56.92527
 51
123.07473
  0
LINE
  5
3B6
100
AcDbEntity
  8
M01
100
AcDbLine
 10
500.065352
 20
578.743414
 30
0.0
 11
500.065352
 21
576.943414
 31
0.0
  0
LINE
  5
3B7
100
AcDbEntity
  8
M01
100
AcDbLine
 10
502.086078
 20
578.743414
 30
0.0
 11
502.086078
 21
576.943414
 31
0.0
  0
ARC
  5
3B8
100
AcDbEntity
  8
M01
100
AcDbCircle
 10
495.013538
 20
578.19272
 30
0.0
 40
1.150694
100
AcDbArc
 50
28.592423
 51
151.407577
  0
LINE
  5
3B9
100
AcDbEntity
  8
M01
100
AcDbLine
 10
496.023901
 20
578.743414
 30
0.0
 11
496.023901
 21
576.943414
 31
0.0
  0
LINE
  5
3BA
100
AcDbEntity
  8
M01
100
AcDbLine
 10
494.003175
 20
578.743414
 30
0.0
 11
494.003175
 21
576.943414
 31
0.0
  0
LINE
  5
3BB
100
AcDbEntity
  8
M01
100
AcDbLine
 10
503.044627
 20
574.043414
 30
0.0
 11
503.044627
 21
575.543414
 31
0.0
  0
LINE
  5
3BC
100
AcDbEntity
  8
M01
100
AcDbLine
 10
493.044627
 20
574.043414
 30
0.0
 11
493.044627
 21
575.543414
 31
0.0
  0
LINE
  5
3BD
100
AcDbEntity
  8
M01
100
AcDbLine
 10
502.544627
 20
575.543414
 30
0.0
 11
502.544627
 21
576.343414
 31
0.0
  0
LINE
  5
3BE
100
AcDbEntity
  8
M01
100
AcDbLine
 10
493.544627
 20
575.543414
 30
0.0
 11
493.544627
 21
576.343414
 31
0.0
  0
LINE
  5
3BF
100
AcDbEntity
  8
M01
100
AcDbLine
 10
493.544627
 20
576.343414
 30
0.0
 11
502.544627
 21
576.343414
 31
0.0
  0
LINE
  5
3C0
100
AcDbEntity
  8
M01
100
AcDbLine
 10
493.044627
 20
575.543414
 30
0.0
 11
503.044627
 21
575.543414
 31
0.0
  0
LINE
  5
3C1
100
AcDbEntity
  8
M01
100
AcDbLine
 10
502.544627
 20
573.243414
 30
0.0
 11
502.544627
 21
574.043414
 31
0.0
  0
LINE
  5
3C2
100
AcDbEntity
  8
M01
100
AcDbLine
 10
493.544627
 20
573.243414
 30
0.0
 11
493.544627
 21
574.043414
 31
0.0
  0
LINE
  5
3C3
100
AcDbEntity
  8
M01
100
AcDbLine
 10
493.044627
 20
574.043414
 30
0.0
 11
503.044627
 21
574.043414
 31
0.0
  0
ARC
  5
3C4
100
AcDbEntity
  8
M01
100
AcDbCircle
 10
501.075715
 20
571.394109
 30
0.0
 40
1.150694
100
AcDbArc
 50
208.592423
 51
331.407577
  0
ARC
  5
3C5
100
AcDbEntity
  8
M01
100
AcDbCircle
 10
498.044627
 20
573.946192
 30
0.0
 40
3.702778
100
AcDbArc
 50
236.92527
 51
303.07473
  0
ARC
  5
3C6
100
AcDbEntity
  8
M01
100
AcDbCircle
 10
495.013538
 20
571.394109
 30
0.0
 40
1.150694
100
AcDbArc
 50
208.592423
 51
331.407577
  0
ARC
  5
3C7
100
AcDbEntity
  8
M01
100
AcDbCircle
 10
501.075715
 20
572.09272
 30
0.0
 40
1.150694
100
AcDbArc
 50
28.592423
 51
151.407577
  0
ARC
  5
3C8
100
AcDbEntity
  8
M01
100
AcDbCircle
 10
498.044627
 20
569.540636
 30
0.0
 40
3.702778
100
AcDbArc
 50
56.92527
 51
123.07473
  0
LINE
  5
3C9
100
AcDbEntity
  8
M01
100
AcDbLine
 10
500.065352
 20
572.643414
 30
0.0
 11
500.065352
 21
570.843414
 31
0.0
  0
LINE
  5
3CA
100
AcDbEntity
  8
M01
100
AcDbLine
 10
502.086078
 20
572.643414
 30
0.0
 11
502.086078
 21
570.843414
 31
0.0
  0
ARC
  5
3CB
100
AcDbEntity
  8
M01
100
AcDbCircle
 10
495.013538
 20
572.09272
 30
0.0
 40
1.150694
100
AcDbArc
 50
28.592423
 51
151.407577
  0
LINE
  5
3CC
100
AcDbEntity
  8
M01
100
AcDbLine
 10
496.023901
 20
572.643414
 30
0.0
 11
496.023901
 21
570.843414
 31
0.0
  0
LINE
  5
3CD
100
AcDbEntity
  8
M01
100
AcDbLine
 10
494.003175
 20
572.643414
 30
0.0
 11
494.003175
 21
570.843414
 31
0.0
  0
LINE
  5
3CE
100
AcDbEntity
  8
M01
100
AcDbLine
 10
493.544627
 20
573.243414
 30
0.0
 11
502.544627
 21
573.243414
 31
0.0
  0
LINE
  5
3CF
100
AcDbEntity
  8
M01
100
AcDbLine
 10
493.544627
 20
570.243414
 30
0.0
 11
502.544627
 21
570.243414
 31
0.0
  0
LINE
  5
3D0
100
AcDbEntity
  8
M01
100
AcDbLine
 10
493.544627
 20
569.443414
 30
0.0
 11
502.544627
 21
569.443414
 31
0.0
  0
LINE
  5
3D1
100
AcDbEntity
  8
M01
100
AcDbLine
 10
499.544627
 20
582.443414
 30
0.0
 11
500.044627
 21
581.943414
 31
0.0
  0
LINE
  5
3D2
100
AcDbEntity
  8
M01
100
AcDbLine
 10
496.044627
 20
581.943414
 30
0.0
 11
496.544627
 21
582.443414
 31
0.0
  0
LINE
  5
3D3
100
AcDbEntity
  8
M01
100
AcDbLine
 10
496.044627
 20
581.943414
 30
0.0
 11
500.044627
 21
581.943414
 31
0.0
  0
LINE
  5
3D4
100
AcDbEntity
  8
M01
100
AcDbLine
 10
499.544627
 20
582.443414
 30
0.0
 11
499.544627
 21
579.343414
 31
0.0
  0
LINE
  5
3D5
100
AcDbEntity
  8
M01
100
AcDbLine
 10
496.544627
 20
582.443414
 30
0.0
 11
496.544627
 21
579.343414
 31
0.0
  0
LINE
  5
3D6
100
AcDbEntity
  8
M01
100
AcDbLine
 10
496.044627
 20
581.943414
 30
0.0
 11
496.044627
 21
579.343414
 31
0.0
  0
LINE
  5
3D7
100
AcDbEntity
  8
M01
100
AcDbLine
 10
500.044627
 20
581.943414
 30
0.0
 11
500.044627
 21
579.343414
 31
0.0
  0
LINE
  5
3D8
100
AcDbEntity
  8
M01
100
AcDbLine
 10
496.544627
 20
582.443414
 30
0.0
 11
499.544627
 21
582.443414
 31
0.0
  0
LINE
  5
3D9
100
AcDbEntity
  8
M01
100
AcDbLine
 10
493.044627
 20
557.443414
 30
0.0
 11
503.044627
 21
557.443414
 31
0.0
  0
LINE
  5
3DA
100
AcDbEntity
  8
M01
100
AcDbLine
 10
502.544627
 20
570.243414
 30
0.0
 11
502.544627
 21
569.443414
 31
0.0
  0
LINE
  5
3DB
100
AcDbEntity
  8
M01
100
AcDbLine
 10
493.544627
 20
570.243414
 30
0.0
 11
493.544627
 21
569.443414
 31
0.0
  0
LINE
  5
3DC
100
AcDbEntity
  8
CENTRE
100
AcDbLine
 10
498.044627
 20
588.604303
 30
0.0
 11
498.044627
 21
525.010872
 31
0.0
  0
LWPOLYLINE
  5
3DD
100
AcDbEntity
  8
M01
100
AcDbPolyline
 90
        2
 70
     0
 43
4.0
 10
532.044627
 20
533.943414
 42
0.414214
 10
530.044627
 20
531.943414
  0
LWPOLYLINE
  5
3DE
100
AcDbEntity
  8
M01
100
AcDbPolyline
 90
        2
 70
     0
 43
4.0
 10
532.044627
 20
529.943414
 42
0.414214
 10
534.044627
 20
531.943414
  0
CIRCLE
  5
3DF
100
AcDbEntity
  8
M01
100
AcDbCircle
 10
532.044627
 20
531.943414
 30
0.0
 40
4.0
  0
LINE
  5
3E0
100
AcDbEntity
  8
M01
100
AcDbLine
 10
536.044627
 20
529.443414
 30
0.0
 11
536.044627
 21
537.443414
 31
0.0
  0
LINE
  5
3E1
100
AcDbEntity
  8
M01
100
AcDbLine
 10
528.044627
 20
529.443414
 30
0.0
 11
528.044627
 21
537.443414
 31
0.0
  0
ARC
  5
3E2
100
AcDbEntity
  8
M01
100
AcDbCircle
 10
532.044627
 20
529.443414
 30
0.0
 40
4.0
100
AcDbArc
 50
180.0
 51
0.0
  0
LINE
  5
3E3
100
AcDbEntity
  8
M01
100
AcDbLine
 10
488.044627
 20
535.443414
 30
0.0
 11
490.044627
 21
537.443414
 31
0.0
  0
LINE
  5
3E4
100
AcDbEntity
  8
M01
100
AcDbLine
 10
490.044627
 20
537.443414
 30
0.0
 11
574.044627
 21
537.443414
 31
0.0
  0
LINE
  5
3E5
100
AcDbEntity
  8
M01
100
AcDbLine
 10
488.044627
 20
535.443414
 30
0.0
 11
488.044627
 21
517.443414
 31
0.0
  0
LINE
  5
3E6
100
AcDbEntity
  8
M01
100
AcDbLine
 10
450.044627
 20
486.705084
 30
0.0
 11
450.044627
 21
465.845434
 31
0.0
  0
LINE
  5
3E7
100
AcDbEntity
  8
CENTRE
100
AcDbLine
 10
417.044649
 20
385.943414
 30
0.0
 11
647.044604
 21
385.943414
 31
0.0
  0
LINE
  5
3E8
100
AcDbEntity
  8
CENTRE
100
AcDbLine
 10
532.044627
 20
639.565995
 30
0.0
 11
532.044627
 21
233.243224
 31
0.0
  0
MTEXT
  5
3E9
100
AcDbEntity
  8
0
  6
BYBLOCK
 62
     2
100
AcDbMText
 10
535.125709
 20
219.61716
 30
0.0
 40
3.0
 41
0.0
 71
     6
 72
     1
  1
WHERE POSSIBLE M12 PLATE RETAINING SCREWS SHOULD ALSO BE FITTED.\PMINIMUM 2 PER DROP & ALSO AROUND MANIFOLD POCKET.
  0
LINE
  5
3EA
102
{ACAD_REACTORS
330
4D
102
}
100
AcDbEntity
  8
M02
100
AcDbLine
 10
787.788006
 20
284.443414
 30
0.0
 11
787.788006
 21
269.443414
 31
0.0
  0
LINE
  5
3EB
102
{ACAD_REACTORS
330
4D
102
}
100
AcDbEntity
  8
M02
100
AcDbLine
 10
784.788006
 20
269.443414
 30
0.0
 11
787.788006
 21
269.443414
 31
0.0
  0
LINE
  5
3EC
100
AcDbEntity
  8
M04
100
AcDbLine
 10
791.788006
 20
295.443414
 30
0.0
 11
791.788006
 21
248.930023
 31
0.0
  0
LINE
  5
3ED
102
{ACAD_REACTORS
330
4F
102
}
100
AcDbEntity
  8
M01
100
AcDbLine
 10
784.788006
 20
375.943414
 30
0.0
 11
784.788006
 21
362.943414
 31
0.0
  0
LINE
  5
3EE
100
AcDbEntity
  8
M04
100
AcDbLine
 10
777.488006
 20
408.943414
 30
0.0
 11
774.988006
 21
408.943414
 31
0.0
  0
LINE
  5
3EF
100
AcDbEntity
  8
M04
100
AcDbLine
 10
776.788006
 20
409.643414
 30
0.0
 11
773.488006
 21
409.643414
 31
0.0
  0
LINE
  5
3F0
100
AcDbEntity
  8
M04
100
AcDbLine
 10
777.488006
 20
414.943414
 30
0.0
 11
774.988006
 21
414.943414
 31
0.0
  0
LINE
  5
3F1
100
AcDbEntity
  8
M04
100
AcDbLine
 10
776.788006
 20
414.243414
 30
0.0
 11
773.488006
 21
414.243414
 31
0.0
  0
LINE
  5
3F2
100
AcDbEntity
  8
M05
100
AcDbLine
 10
786.788006
 20
417.193414
 30
0.0
 11
786.788006
 21
406.693414
 31
0.0
  0
LINE
  5
3F3
100
AcDbEntity
  8
M04
100
AcDbLine
 10
786.788006
 20
406.693414
 30
0.0
 11
786.788006
 21
406.443414
 31
0.0
  0
LINE
  5
3F4
100
AcDbEntity
  8
M04
100
AcDbLine
 10
786.788006
 20
417.443414
 30
0.0
 11
790.788006
 21
417.443414
 31
0.0
  0
LINE
  5
3F5
100
AcDbEntity
  8
M04
100
AcDbLine
 10
786.788006
 20
406.443414
 30
0.0
 11
790.788006
 21
406.443414
 31
0.0
  0
LINE
  5
3F6
100
AcDbEntity
  8
M05
100
AcDbLine
 10
785.788006
 20
408.943414
 30
0.0
 11
785.788006
 21
414.943414
 31
0.0
  0
LINE
  5
3F7
100
AcDbEntity
  8
M04
100
AcDbLine
 10
773.488006
 20
414.243414
 30
0.0
 11
772.1601
 21
411.943414
 31
0.0
  0
LINE
  5
3F8
100
AcDbEntity
  8
M04
100
AcDbLine
 10
773.488006
 20
409.643414
 30
0.0
 11
772.1601
 21
411.943414
 31
0.0
  0
LINE
  5
3F9
100
AcDbEntity
  8
M04
100
AcDbLine
 10
773.488006
 20
409.643414
 30
0.0
 11
773.488006
 21
414.243414
 31
0.0
  0
LINE
  5
3FA
100
AcDbEntity
  8
M04
100
AcDbLine
 10
774.988006
 20
408.943414
 30
0.0
 11
774.988006
 21
414.943414
 31
0.0
  0
ARC
  5
3FB
100
AcDbEntity
  8
M05
100
AcDbCircle
 10
784.261869
 20
411.943414
 30
0.0
 40
5.826136
100
AcDbArc
 50
295.69541
 51
64.30459
  0
LINE
  5
3FC
100
AcDbEntity
  8
M05
100
AcDbLine
 10
777.488006
 20
414.943414
 30
0.0
 11
776.788006
 21
414.243414
 31
0.0
  0
LINE
  5
3FD
100
AcDbEntity
  8
M05
100
AcDbLine
 10
777.488006
 20
408.943414
 30
0.0
 11
776.788006
 21
409.643414
 31
0.0
  0
LINE
  5
3FE
100
AcDbEntity
  8
M05
100
AcDbLine
 10
777.488006
 20
408.943414
 30
0.0
 11
777.488006
 21
414.943414
 31
0.0
  0
LINE
  5
3FF
100
AcDbEntity
  8
M05
100
AcDbLine
 10
776.788006
 20
409.643414
 30
0.0
 11
776.788006
 21
414.243414
 31
0.0
  0
LINE
  5
400
100
AcDbEntity
  8
M04
100
AcDbLine
 10
784.788006
 20
408.243414
 30
0.0
 11
786.788006
 21
408.243414
 31
0.0
  0
LINE
  5
401
100
AcDbEntity
  8
M04
100
AcDbLine
 10
784.788006
 20
415.643414
 30
0.0
 11
786.788006
 21
415.643414
 31
0.0
  0
LINE
  5
402
100
AcDbEntity
  8
M05
100
AcDbLine
 10
776.788006
 20
414.243414
 30
0.0
 11
785.788006
 21
414.243414
 31
0.0
  0
LINE
  5
403
100
AcDbEntity
  8
M05
100
AcDbLine
 10
776.788006
 20
409.643414
 30
0.0
 11
785.788006
 21
409.643414
 31
0.0
  0
LINE
  5
404
100
AcDbEntity
  8
M05
100
AcDbLine
 10
777.488006
 20
408.943414
 30
0.0
 11
786.788006
 21
408.943414
 31
0.0
  0
LINE
  5
405
100
AcDbEntity
  8
M05
100
AcDbLine
 10
777.488006
 20
414.943414
 30
0.0
 11
786.788006
 21
414.943414
 31
0.0
  0
LINE
  5
406
100
AcDbEntity
  8
M04
100
AcDbLine
 10
786.788006
 20
417.443414
 30
0.0
 11
786.788006
 21
417.193414
 31
0.0
  0
LINE
  5
407
100
AcDbEntity
  8
CENTRE
100
AcDbLine
 10
769.521505
 20
411.943414
 30
0.0
 11
794.434194
 21
411.943414
 31
0.0
  0
LINE
  5
408
102
{ACAD_REACTORS
330
4F
102
}
100
AcDbEntity
  8
M04
100
AcDbLine
 10
777.488006
 20
362.943414
 30
0.0
 11
774.988006
 21
362.943414
 31
0.0
  0
LINE
  5
409
102
{ACAD_REACTORS
330
4F
102
}
100
AcDbEntity
  8
M04
100
AcDbLine
 10
776.788006
 20
362.243414
 30
0.0
 11
773.488006
 21
362.243414
 31
0.0
  0
LINE
  5
40A
102
{ACAD_REACTORS
330
4F
102
}
100
AcDbEntity
  8
M04
100
AcDbLine
 10
777.488006
 20
356.943414
 30
0.0
 11
774.988006
 21
356.943414
 31
0.0
  0
LINE
  5
40B
102
{ACAD_REACTORS
330
4F
102
}
100
AcDbEntity
  8
M04
100
AcDbLine
 10
776.788006
 20
357.643414
 30
0.0
 11
773.488006
 21
357.643414
 31
0.0
  0
LINE
  5
40C
100
AcDbEntity
  8
M05
100
AcDbLine
 10
786.788006
 20
354.693414
 30
0.0
 11
786.788006
 21
365.193414
 31
0.0
  0
LINE
  5
40D
100
AcDbEntity
  8
M04
100
AcDbLine
 10
786.788006
 20
365.193414
 30
0.0
 11
786.788006
 21
365.443414
 31
0.0
  0
LINE
  5
40E
100
AcDbEntity
  8
M04
100
AcDbLine
 10
786.788006
 20
354.443414
 30
0.0
 11
790.788006
 21
354.443414
 31
0.0
  0
LINE
  5
40F
100
AcDbEntity
  8
M04
100
AcDbLine
 10
786.788006
 20
365.443414
 30
0.0
 11
790.788006
 21
365.443414
 31
0.0
  0
LINE
  5
410
100
AcDbEntity
  8
M05
100
AcDbLine
 10
785.788006
 20
362.943414
 30
0.0
 11
785.788006
 21
356.943414
 31
0.0
  0
LINE
  5
411
102
{ACAD_REACTORS
330
4F
102
}
100
AcDbEntity
  8
M04
100
AcDbLine
 10
773.488006
 20
357.643414
 30
0.0
 11
772.1601
 21
359.943414
 31
0.0
  0
LINE
  5
412
102
{ACAD_REACTORS
330
4F
102
}
100
AcDbEntity
  8
M04
100
AcDbLine
 10
773.488006
 20
362.243414
 30
0.0
 11
772.1601
 21
359.943414
 31
0.0
  0
LINE
  5
413
100
AcDbEntity
  8
M04
100
AcDbLine
 10
773.488006
 20
362.243414
 30
0.0
 11
773.488006
 21
357.643414
 31
0.0
  0
LINE
  5
414
102
{ACAD_REACTORS
330
4F
102
}
100
AcDbEntity
  8
M04
100
AcDbLine
 10
774.988006
 20
362.943414
 30
0.0
 11
774.988006
 21
356.943414
 31
0.0
  0
ARC
  5
415
100
AcDbEntity
  8
M05
100
AcDbCircle
 10
784.261869
 20
359.943414
 30
0.0
 40
5.826136
100
AcDbArc
 50
295.69541
 51
64.30459
  0
LINE
  5
416
100
AcDbEntity
  8
M05
100
AcDbLine
 10
777.488006
 20
356.943414
 30
0.0
 11
776.788006
 21
357.643414
 31
0.0
  0
LINE
  5
417
100
AcDbEntity
  8
M05
100
AcDbLine
 10
777.488006
 20
362.943414
 30
0.0
 11
776.788006
 21
362.243414
 31
0.0
  0
LINE
  5
418
100
AcDbEntity
  8
M05
100
AcDbLine
 10
777.488006
 20
362.943414
 30
0.0
 11
777.488006
 21
356.943414
 31
0.0
  0
LINE
  5
419
100
AcDbEntity
  8
M05
100
AcDbLine
 10
776.788006
 20
362.243414
 30
0.0
 11
776.788006
 21
357.643414
 31
0.0
  0
LINE
  5
41A
100
AcDbEntity
  8
M04
100
AcDbLine
 10
784.788006
 20
363.643414
 30
0.0
 11
786.788006
 21
363.643414
 31
0.0
  0
LINE
  5
41B
100
AcDbEntity
  8
M04
100
AcDbLine
 10
784.788006
 20
356.243414
 30
0.0
 11
786.788006
 21
356.243414
 31
0.0
  0
LINE
  5
41C
100
AcDbEntity
  8
M05
100
AcDbLine
 10
776.788006
 20
357.643414
 30
0.0
 11
785.788006
 21
357.643414
 31
0.0
  0
LINE
  5
41D
100
AcDbEntity
  8
M05
100
AcDbLine
 10
776.788006
 20
362.243414
 30
0.0
 11
785.788006
 21
362.243414
 31
0.0
  0
LINE
  5
41E
102
{ACAD_REACTORS
330
4F
102
}
100
AcDbEntity
  8
M05
100
AcDbLine
 10
777.488006
 20
362.943414
 30
0.0
 11
786.788006
 21
362.943414
 31
0.0
  0
LINE
  5
41F
102
{ACAD_REACTORS
330
4F
102
}
100
AcDbEntity
  8
M05
100
AcDbLine
 10
777.488006
 20
356.943414
 30
0.0
 11
786.788006
 21
356.943414
 31
0.0
  0
LINE
  5
420
100
AcDbEntity
  8
M04
100
AcDbLine
 10
786.788006
 20
354.443414
 30
0.0
 11
786.788006
 21
354.693414
 31
0.0
  0
LINE
  5
421
100
AcDbEntity
  8
CENTRE
100
AcDbLine
 10
769.521505
 20
359.943414
 30
0.0
 11
794.434194
 21
359.943414
 31
0.0
  0
LINE
  5
422
100
AcDbEntity
  8
M04
100
AcDbLine
 10
809.788006
 20
415.943414
 30
0.0
 11
818.788006
 21
415.943414
 31
0.0
  0
LINE
  5
423
100
AcDbEntity
  8
M05
100
AcDbLine
 10
790.088006
 20
419.943414
 30
0.0
 11
790.788006
 21
419.243414
 31
0.0
  0
LINE
  5
424
100
AcDbEntity
  8
M04
100
AcDbLine
 10
809.788006
 20
415.943414
 30
0.0
 11
809.788006
 21
355.943414
 31
0.0
  0
LINE
  5
425
100
AcDbEntity
  8
M04
100
AcDbLine
 10
799.788006
 20
405.943414
 30
0.0
 11
809.788006
 21
415.943414
 31
0.0
  0
LINE
  5
426
100
AcDbEntity
  8
M04
100
AcDbLine
 10
809.788006
 20
355.943414
 30
0.0
 11
818.788006
 21
355.943414
 31
0.0
  0
LINE
  5
427
100
AcDbEntity
  8
M04
100
AcDbLine
 10
799.788006
 20
365.943414
 30
0.0
 11
809.788006
 21
355.943414
 31
0.0
  0
LINE
  5
428
100
AcDbEntity
  8
M05
100
AcDbLine
 10
793.08922
 20
388.984288
 30
0.0
 11
793.08922
 21
382.90254
 31
0.0
  0
ARC
  5
429
100
AcDbEntity
  8
M05
100
AcDbCircle
 10
808.288006
 20
385.943414
 30
0.0
 40
15.5
100
AcDbArc
 50
143.750679
 51
168.686019
  0
LINE
  5
42A
100
AcDbEntity
  8
M05
100
AcDbLine
 10
774.788006
 20
389.943414
 30
0.0
 11
793.08922
 21
388.984288
 31
0.0
  0
LINE
  5
42B
100
AcDbEntity
  8
M05
100
AcDbLine
 10
774.788006
 20
381.943414
 30
0.0
 11
793.08922
 21
382.90254
 31
0.0
  0
ARC
  5
42C
100
AcDbEntity
  8
M05
100
AcDbCircle
 10
808.288006
 20
385.943414
 30
0.0
 40
15.5
100
AcDbArc
 50
191.313981
 51
216.249321
  0
LINE
  5
42D
100
AcDbEntity
  8
M04
100
AcDbLine
 10
793.788006
 20
405.943414
 30
0.0
 11
791.788006
 21
405.943414
 31
0.0
  0
LINE
  5
42E
100
AcDbEntity
  8
M04
100
AcDbLine
 10
795.088006
 20
405.943414
 30
0.0
 11
799.788006
 21
405.943414
 31
0.0
  0
LINE
  5
42F
100
AcDbEntity
  8
M04
100
AcDbLine
 10
793.788006
 20
365.943414
 30
0.0
 11
791.788006
 21
365.943414
 31
0.0
  0
LINE
  5
430
100
AcDbEntity
  8
M04
100
AcDbLine
 10
795.088006
 20
365.943414
 30
0.0
 11
799.788006
 21
365.943414
 31
0.0
  0
LINE
  5
431
100
AcDbEntity
  8
M04
100
AcDbLine
 10
799.788006
 20
365.943414
 30
0.0
 11
799.788006
 21
405.943414
 31
0.0
  0
LINE
  5
432
100
AcDbEntity
  8
M05
100
AcDbLine
 10
793.788006
 20
405.443414
 30
0.0
 11
793.788006
 21
405.943414
 31
0.0
  0
LINE
  5
433
100
AcDbEntity
  8
M05
100
AcDbLine
 10
790.788006
 20
405.443414
 30
0.0
 11
790.788006
 21
419.243414
 31
0.0
  0
LINE
  5
434
100
AcDbEntity
  8
M05
100
AcDbLine
 10
790.788006
 20
405.443414
 30
0.0
 11
793.788006
 21
405.443414
 31
0.0
  0
LINE
  5
435
100
AcDbEntity
  8
M05
100
AcDbLine
 10
790.788006
 20
366.443414
 30
0.0
 11
793.788006
 21
366.443414
 31
0.0
  0
LINE
  5
436
100
AcDbEntity
  8
M05
100
AcDbLine
 10
793.788006
 20
365.943414
 30
0.0
 11
793.788006
 21
366.443414
 31
0.0
  0
LINE
  5
437
100
AcDbEntity
  8
M05
100
AcDbLine
 10
795.788006
 20
405.243414
 30
0.0
 11
795.088006
 21
405.943414
 31
0.0
  0
LINE
  5
438
100
AcDbEntity
  8
M05
100
AcDbLine
 10
795.788006
 20
366.643414
 30
0.0
 11
795.088006
 21
365.943414
 31
0.0
  0
LINE
  5
439
100
AcDbEntity
  8
M05
100
AcDbLine
 10
795.788006
 20
366.643414
 30
0.0
 11
795.788006
 21
405.243414
 31
0.0
  0
LINE
  5
43A
100
AcDbEntity
  8
M05
100
AcDbLine
 10
793.788006
 20
405.943414
 30
0.0
 11
795.088006
 21
405.943414
 31
0.0
  0
LINE
  5
43B
100
AcDbEntity
  8
M05
100
AcDbLine
 10
793.788006
 20
365.943414
 30
0.0
 11
795.088006
 21
365.943414
 31
0.0
  0
LINE
  5
43C
100
AcDbEntity
  8
M04
100
AcDbLine
 10
784.288006
 20
395.943414
 30
0.0
 11
784.788006
 21
396.443414
 31
0.0
  0
LINE
  5
43D
102
{ACAD_REACTORS
330
4F
102
}
100
AcDbEntity
  8
M04
100
AcDbLine
 10
784.288006
 20
375.943414
 30
0.0
 11
784.788006
 21
375.443414
 31
0.0
  0
LINE
  5
43E
100
AcDbEntity
  8
M05
100
AcDbLine
 10
785.488006
 20
419.943414
 30
0.0
 11
784.788006
 21
419.243414
 31
0.0
  0
LINE
  5
43F
100
AcDbEntity
  8
M05
100
AcDbLine
 10
785.488006
 20
419.943414
 30
0.0
 11
790.088006
 21
419.943414
 31
0.0
  0
LINE
  5
440
100
AcDbEntity
  8
M05
100
AcDbLine
 10
785.488006
 20
351.943414
 30
0.0
 11
784.788006
 21
352.643414
 31
0.0
  0
LINE
  5
441
100
AcDbEntity
  8
M05
100
AcDbLine
 10
790.088006
 20
351.943414
 30
0.0
 11
790.788006
 21
352.643414
 31
0.0
  0
LINE
  5
442
100
AcDbEntity
  8
M05
100
AcDbLine
 10
790.788006
 20
352.643414
 30
0.0
 11
790.788006
 21
366.443414
 31
0.0
  0
LINE
  5
443
100
AcDbEntity
  8
M05
100
AcDbLine
 10
785.488006
 20
351.943414
 30
0.0
 11
790.088006
 21
351.943414
 31
0.0
  0
LINE
  5
444
100
AcDbEntity
  8
M04
100
AcDbLine
 10
775.788006
 20
395.943414
 30
0.0
 11
774.788006
 21
395.943414
 31
0.0
  0
LINE
  5
445
100
AcDbEntity
  8
M04
100
AcDbLine
 10
774.788006
 20
394.943414
 30
0.0
 11
774.788006
 21
395.943414
 31
0.0
  0
LINE
  5
446
102
{ACAD_REACTORS
330
4F
102
}
100
AcDbEntity
  8
M04
100
AcDbLine
 10
775.788006
 20
375.943414
 30
0.0
 11
774.788006
 21
375.943414
 31
0.0
  0
LINE
  5
447
102
{ACAD_REACTORS
330
4F
102
}
100
AcDbEntity
  8
M04
100
AcDbLine
 10
774.788006
 20
376.943414
 30
0.0
 11
774.788006
 21
375.943414
 31
0.0
  0
LINE
  5
448
100
AcDbEntity
  8
M05
100
AcDbLine
 10
774.788006
 20
376.943414
 30
0.0
 11
775.788006
 21
375.943414
 31
0.0
  0
LINE
  5
449
100
AcDbEntity
  8
M05
100
AcDbLine
 10
775.788006
 20
395.943414
 30
0.0
 11
774.788006
 21
394.943414
 31
0.0
  0
LINE
  5
44A
102
{ACAD_REACTORS
330
4F
102
}
100
AcDbEntity
  8
M05
100
AcDbLine
 10
774.788006
 20
376.943414
 30
0.0
 11
774.788006
 21
394.943414
 31
0.0
  0
LINE
  5
44B
100
AcDbEntity
  8
M05
100
AcDbLine
 10
775.788006
 20
395.943414
 30
0.0
 11
784.788006
 21
395.943414
 31
0.0
  0
LINE
  5
44C
102
{ACAD_REACTORS
330
4F
102
}
100
AcDbEntity
  8
M05
100
AcDbLine
 10
775.788006
 20
375.943414
 30
0.0
 11
784.788006
 21
375.943414
 31
0.0
  0
LINE
  5
44D
100
AcDbEntity
  8
M04
100
AcDbLine
 10
717.788006
 20
376.443414
 30
0.0
 11
717.788006
 21
260.443414
 31
0.0
  0
LINE
  5
44E
100
AcDbEntity
  8
M02
100
AcDbLine
 10
721.788006
 20
376.443414
 30
0.0
 11
721.788006
 21
269.443414
 31
0.0
  0
LINE
  5
44F
102
{ACAD_REACTORS
330
4F
102
}
100
AcDbEntity
  8
M01
100
AcDbLine
 10
724.788006
 20
376.443414
 30
0.0
 11
724.788006
 21
269.443414
 31
0.0
  0
DIMENSION
  5
450
100
AcDbEntity
  8
DIMS
100
AcDbDimension
  2
*D8
 10
712.788006
 20
419.231436
 30
0.0
 11
702.145148
 21
422.231436
 31
0.0
 12
-63.292458
 22
-87.304292
 32
0.0
  1
5.0
  3
DIM1
100
AcDbAlignedDimension
 13
717.788006
 23
396.943414
 33
0.0
 14
712.788006
 24
395.943414
 34
0.0
 50
180.0
100
AcDbRotatedDimension
1001
ACAD
1000
DSTYLE
1002
{
1070
   144
1040
1.0
1002
}
  0
DIMENSION
  5
45E
100
AcDbEntity
  8
DIMS
100
AcDbDimension
  2
*D7
 10
680.260778
 20
396.943414
 30
0.0
 11
677.260778
 21
385.943414
 31
0.0
 12
-63.292458
 22
-87.304292
 32
0.0
  3
DIM1
100
AcDbAlignedDimension
 13
713.365356
 23
374.943414
 33
0.0
 14
713.365356
 24
396.943414
 34
0.0
 50
90.0
100
AcDbRotatedDimension
1001
ACAD
1000
DSTYLE
1002
{
1070
   144
1040
1.0
1002
}
  0
DIMENSION
  5
46B
100
AcDbEntity
  8
DIMS
100
AcDbDimension
  2
*D6
 10
690.138191
 20
395.943414
 30
0.0
 11
687.138191
 21
415.1577
 31
0.0
 12
-63.292458
 22
-87.304292
 32
0.0
  1
%%c<> H7
  3
DIM1
100
AcDbAlignedDimension
 13
707.788006
 23
375.943414
 33
0.0
 14
707.788006
 24
395.943414
 34
0.0
 50
90.0
100
AcDbRotatedDimension
1001
ACAD
1000
DSTYLE
1002
{
1070
   144
1040
1.0
1002
}
  0
DIMENSION
  5
479
100
AcDbEntity
  8
DIMS
100
AcDbDimension
  2
*D5
 10
707.788006
 20
359.656397
 30
0.0
 11
694.57372
 21
359.656397
 31
0.0
 12
-63.292458
 22
-87.304292
 32
0.0
 70
   128
  3
DIM1
100
AcDbAlignedDimension
 13
724.788006
 23
376.443414
 33
0.0
 14
707.788006
 24
375.943414
 34
0.0
 50
180.0
100
AcDbRotatedDimension
1001
ACAD
1000
DSTYLE
1002
{
1070
   144
1040
1.0
1002
}
  0
TEXT
  5
487
100
AcDbEntity
  8
TEXT
100
AcDbText
 10
714.152229
 20
388.666028
 30
0.0
 40
2.0
  1
MA010008
 41
0.9
100
AcDbText
  0
LINE
  5
488
100
AcDbEntity
  8
M04
100
AcDbLine
 10
713.365356
 20
396.943414
 30
0.0
 11
713.365356
 21
395.443414
 31
0.0
  0
LINE
  5
489
100
AcDbEntity
  8
M04
100
AcDbLine
 10
713.365356
 20
396.943414
 30
0.0
 11
717.788006
 21
396.943414
 31
0.0
  0
LINE
  5
48A
100
AcDbEntity
  8
M04
100
AcDbLine
 10
712.788006
 20
395.943414
 30
0.0
 11
713.365356
 21
396.943414
 31
0.0
  0
LINE
  5
48B
100
AcDbEntity
  8
M04
100
AcDbLine
 10
708.788006
 20
395.943414
 30
0.0
 11
707.788006
 21
395.943414
 31
0.0
  0
LINE
  5
48C
100
AcDbEntity
  8
M04
100
AcDbLine
 10
707.788006
 20
394.943414
 30
0.0
 11
707.788006
 21
395.943414
 31
0.0
  0
LINE
  5
48D
100
AcDbEntity
  8
M04
100
AcDbLine
 10
729.788006
 20
394.443414
 30
0.0
 11
729.788006
 21
395.443414
 31
0.0
  0
LINE
  5
48E
100
AcDbEntity
  8
M04
100
AcDbLine
 10
728.788006
 20
395.443414
 30
0.0
 11
729.788006
 21
395.443414
 31
0.0
  0
LINE
  5
48F
100
AcDbEntity
  8
M04
100
AcDbLine
 10
713.365356
 20
374.943414
 30
0.0
 11
713.365356
 21
376.443414
 31
0.0
  0
LINE
  5
490
100
AcDbEntity
  8
M04
100
AcDbLine
 10
713.365356
 20
374.943414
 30
0.0
 11
717.788006
 21
374.943414
 31
0.0
  0
LINE
  5
491
100
AcDbEntity
  8
M04
100
AcDbLine
 10
712.788006
 20
375.943414
 30
0.0
 11
713.365356
 21
374.943414
 31
0.0
  0
LINE
  5
492
100
AcDbEntity
  8
M04
100
AcDbLine
 10
708.788006
 20
375.943414
 30
0.0
 11
707.788006
 21
375.943414
 31
0.0
  0
LINE
  5
493
100
AcDbEntity
  8
M04
100
AcDbLine
 10
707.788006
 20
376.943414
 30
0.0
 11
707.788006
 21
375.943414
 31
0.0
  0
LINE
  5
494
102
{ACAD_REACTORS
330
4F
102
}
100
AcDbEntity
  8
M04
100
AcDbLine
 10
729.788006
 20
377.443414
 30
0.0
 11
729.788006
 21
376.443414
 31
0.0
  0
LINE
  5
495
102
{ACAD_REACTORS
330
4F
102
}
100
AcDbEntity
  8
M04
100
AcDbLine
 10
728.788006
 20
376.443414
 30
0.0
 11
729.788006
 21
376.443414
 31
0.0
  0
LINE
  5
496
102
{ACAD_REACTORS
330
4C
102
}
100
AcDbEntity
  8
M02
100
AcDbLine
 10
721.788006
 20
396.943414
 30
0.0
 11
724.788006
 21
396.943414
 31
0.0
  0
LINE
  5
497
100
AcDbEntity
  8
M02
100
AcDbLine
 10
721.788006
 20
374.943414
 30
0.0
 11
724.788006
 21
374.943414
 31
0.0
  0
LINE
  5
498
100
AcDbEntity
  8
M05
100
AcDbLine
 10
728.788006
 20
395.443414
 30
0.0
 11
728.788006
 21
376.443414
 31
0.0
  0
LINE
  5
499
100
AcDbEntity
  8
M05
100
AcDbLine
 10
708.788006
 20
395.943414
 30
0.0
 11
708.788006
 21
375.943414
 31
0.0
  0
LINE
  5
49A
100
AcDbEntity
  8
M05
100
AcDbLine
 10
729.788006
 20
394.443414
 30
0.0
 11
728.788006
 21
395.443414
 31
0.0
  0
LINE
  5
49B
100
AcDbEntity
  8
M05
100
AcDbLine
 10
728.788006
 20
376.443414
 30
0.0
 11
729.788006
 21
377.443414
 31
0.0
  0
LINE
  5
49C
100
AcDbEntity
  8
M05
100
AcDbLine
 10
707.788006
 20
376.943414
 30
0.0
 11
708.788006
 21
375.943414
 31
0.0
  0
LINE
  5
49D
100
AcDbEntity
  8
M05
100
AcDbLine
 10
708.788006
 20
395.943414
 30
0.0
 11
707.788006
 21
394.943414
 31
0.0
  0
LINE
  5
49E
100
AcDbEntity
  8
M05
100
AcDbLine
 10
708.788006
 20
375.943414
 30
0.0
 11
712.788006
 21
375.943414
 31
0.0
  0
LINE
  5
49F
100
AcDbEntity
  8
M05
100
AcDbLine
 10
708.788006
 20
395.943414
 30
0.0
 11
712.788006
 21
395.943414
 31
0.0
  0
LINE
  5
4A0
100
AcDbEntity
  8
M05
100
AcDbLine
 10
712.788006
 20
375.943414
 30
0.0
 11
712.788006
 21
395.943414
 31
0.0
  0
LINE
  5
4A1
100
AcDbEntity
  8
M05
100
AcDbLine
 10
707.788006
 20
376.943414
 30
0.0
 11
707.788006
 21
394.943414
 31
0.0
  0
LINE
  5
4A2
100
AcDbEntity
  8
M05
100
AcDbLine
 10
712.788006
 20
395.443414
 30
0.0
 11
728.788006
 21
395.443414
 31
0.0
  0
LINE
  5
4A3
102
{ACAD_REACTORS
330
4F
102
}
100
AcDbEntity
  8
M05
100
AcDbLine
 10
712.788006
 20
376.443414
 30
0.0
 11
728.788006
 21
376.443414
 31
0.0
  0
LINE
  5
4A4
102
{ACAD_REACTORS
330
4F
102
}
100
AcDbEntity
  8
M05
100
AcDbLine
 10
729.788006
 20
377.443414
 30
0.0
 11
729.788006
 21
394.443414
 31
0.0
  0
HATCH
  5
4A5
100
AcDbEntity
  8
HATCH
100
AcDbHatch
 10
0.0
 20
0.0
 30
0.0
210
0.0
220
0.0
230
1.0
  2
_U
 70
     0
 71
     0
 91
        2
 92
        7
 72
     0
 73
     1
 93
       11
 10
784.7880055868598
 20
306.3022960494266
 10
784.7880055868597
 20
311.7434140619692
 10
785.4880055868598
 20
312.4434140619694
 10
791.08800558686
 20
312.4434140619694
 10
791.7880055868598
 20
311.7434140619694
 10
791.7880055868598
 20
308.9434140619692
 10
790.7880055868599
 20
307.9434140619694
 10
790.7880055868599
 20
305.9434140619696
 10
791.7880055868598
 20
304.9434140619701
 10
791.7880055868598
 20
301.9434140619694
 10
789.1468875743169
 20
301.9434140619694
 97
        0
 92
        7
 72
     0
 73
     1
 93
       11
 10
785.4880055868598
 20
284.4434140619694
 10
784.78800558686
 20
285.1434140619695
 10
784.78800558686
 20
290.5845320745125
 10
789.1468875743169
 20
294.9434140619694
 10
791.7880055868598
 20
294.9434140619694
 10
791.7880055868598
 20
291.9434140619687
 10
790.7880055868599
 20
290.943414061969
 10
790.7880055868599
 20
288.9434140619694
 10
791.7880055868599
 20
287.9434140619697
 10
791.7880055868598
 20
285.1434140619695
 10
791.08800558686
 20
284.4434140619696
 97
        0
 75
     0
 76
     0
 52
225.0
 41
1.5
 77
     0
 78
     1
 53
135.0
 43
1032.27448
 44
908.890655
 45
1.060660171779821
 46
1.060660171779821
 79
     0
 47
0.151518
 98
        2
 10
788.103968
 20
307.967484
 10
787.497897
 20
289.323073
  0
LINE
  5
4A6
100
AcDbEntity
  8
M05
100
AcDbLine
 10
790.788006
 20
307.943414
 30
0.0
 11
791.788006
 21
308.943414
 31
0.0
  0
LINE
  5
4A7
100
AcDbEntity
  8
M05
100
AcDbLine
 10
790.788006
 20
305.943414
 30
0.0
 11
791.788006
 21
304.943414
 31
0.0
  0
LINE
  5
4A8
100
AcDbEntity
  8
M05
100
AcDbLine
 10
790.788006
 20
307.943414
 30
0.0
 11
790.788006
 21
305.943414
 31
0.0
  0
LINE
  5
4A9
100
AcDbEntity
  8
M05
100
AcDbLine
 10
790.788006
 20
288.943414
 30
0.0
 11
791.788006
 21
287.943414
 31
0.0
  0
LINE
  5
4AA
100
AcDbEntity
  8
M05
100
AcDbLine
 10
790.788006
 20
290.943414
 30
0.0
 11
791.788006
 21
291.943414
 31
0.0
  0
LINE
  5
4AB
100
AcDbEntity
  8
M05
100
AcDbLine
 10
790.788006
 20
288.943414
 30
0.0
 11
790.788006
 21
290.943414
 31
0.0
  0
MTEXT
  5
4AC
100
AcDbEntity
  8
HATCH
 62
     2
100
AcDbMText
 10
808.493206
 20
281.645569
 30
0.0
 40
3.0
 41
0.0
 71
     1
 72
     5
  1
MA010006 (x10)
  0
LINE
  5
4AD
100
AcDbEntity
  8
M04
100
AcDbLine
 10
809.615911
 20
298.443414
 30
0.0
 11
808.288006
 21
296.143414
 31
0.0
  0
LINE
  5
4AE
100
AcDbEntity
  8
M04
100
AcDbLine
 10
808.288006
 20
300.743414
 30
0.0
 11
809.615911
 21
298.443414
 31
0.0
  0
LINE
  5
4AF
100
AcDbEntity
  8
M04
100
AcDbLine
 10
808.288006
 20
300.743414
 30
0.0
 11
808.288006
 21
296.143414
 31
0.0
  0
LINE
  5
4B0
100
AcDbEntity
  8
M04
100
AcDbLine
 10
803.226888
 20
301.443414
 30
0.0
 11
806.788006
 21
301.443414
 31
0.0
  0
LINE
  5
4B1
100
AcDbEntity
  8
M04
100
AcDbLine
 10
803.926888
 20
300.743414
 30
0.0
 11
808.288006
 21
300.743414
 31
0.0
  0
LINE
  5
4B2
100
AcDbEntity
  8
M04
100
AcDbLine
 10
803.226888
 20
295.443414
 30
0.0
 11
806.788006
 21
295.443414
 31
0.0
  0
LINE
  5
4B3
100
AcDbEntity
  8
M04
100
AcDbLine
 10
803.926888
 20
296.143414
 30
0.0
 11
808.288006
 21
296.143414
 31
0.0
  0
LINE
  5
4B4
100
AcDbEntity
  8
M05
100
AcDbLine
 10
803.926888
 20
296.143414
 30
0.0
 11
803.226888
 21
295.443414
 31
0.0
  0
LINE
  5
4B5
100
AcDbEntity
  8
M05
100
AcDbLine
 10
803.226888
 20
301.443414
 30
0.0
 11
803.926888
 21
300.743414
 31
0.0
  0
LINE
  5
4B6
100
AcDbEntity
  8
M05
100
AcDbLine
 10
791.146888
 20
296.143414
 30
0.0
 11
803.926888
 21
296.143414
 31
0.0
  0
LINE
  5
4B7
100
AcDbEntity
  8
M05
100
AcDbLine
 10
791.146888
 20
300.743414
 30
0.0
 11
803.926888
 21
300.743414
 31
0.0
  0
LINE
  5
4B8
100
AcDbEntity
  8
M05
100
AcDbLine
 10
803.226888
 20
301.443414
 30
0.0
 11
803.226888
 21
295.443414
 31
0.0
  0
LINE
  5
4B9
100
AcDbEntity
  8
M04
100
AcDbLine
 10
806.788006
 20
301.443414
 30
0.0
 11
806.788006
 21
295.443414
 31
0.0
  0
LINE
  5
4BA
100
AcDbEntity
  8
M05
100
AcDbLine
 10
803.926888
 20
300.743414
 30
0.0
 11
803.926888
 21
296.143414
 31
0.0
  0
LINE
  5
4BB
102
{ACAD_REACTORS
330
4F
102
}
100
AcDbEntity
  8
M05
  6
HIDDEN
100
AcDbLine
 10
784.488006
 20
306.602296
 30
0.0
 11
783.788006
 21
307.302296
 31
0.0
  0
LINE
  5
4BC
102
{ACAD_REACTORS
330
4F
102
}
100
AcDbEntity
  8
M05
  6
HIDDEN
100
AcDbLine
 10
784.488006
 20
290.284532
 30
0.0
 11
783.788006
 21
289.584532
 31
0.0
  0
LINE
  5
4BD
100
AcDbEntity
  8
M05
100
AcDbLine
 10
791.146888
 20
301.443414
 30
0.0
 11
791.146888
 21
295.443414
 31
0.0
  0
LINE
  5
4BE
100
AcDbEntity
  8
M05
100
AcDbLine
 10
786.646888
 20
297.893414
 30
0.0
 11
786.646888
 21
292.443414
 31
0.0
  0
LINE
  5
4BF
100
AcDbEntity
  8
M05
100
AcDbLine
 10
785.926888
 20
297.893414
 30
0.0
 11
785.926888
 21
292.443414
 31
0.0
  0
LINE
  5
4C0
100
AcDbEntity
  8
M05
100
AcDbLine
 10
785.926888
 20
297.893414
 30
0.0
 11
787.426888
 21
297.893414
 31
0.0
  0
LINE
  5
4C1
100
AcDbEntity
  8
M05
100
AcDbLine
 10
785.926888
 20
298.993414
 30
0.0
 11
787.426888
 21
298.993414
 31
0.0
  0
LINE
  5
4C2
100
AcDbEntity
  8
M05
100
AcDbLine
 10
787.426888
 20
298.993414
 30
0.0
 11
787.426888
 21
297.893414
 31
0.0
  0
LINE
  5
4C3
100
AcDbEntity
  8
M05
100
AcDbLine
 10
789.146888
 20
294.943414
 30
0.0
 11
791.788006
 21
294.943414
 31
0.0
  0
LINE
  5
4C4
100
AcDbEntity
  8
M05
100
AcDbLine
 10
789.146888
 20
301.943414
 30
0.0
 11
791.788006
 21
301.943414
 31
0.0
  0
LINE
  5
4C5
100
AcDbEntity
  8
M05
100
AcDbLine
 10
786.646888
 20
304.443414
 30
0.0
 11
786.646888
 21
298.993414
 31
0.0
  0
LINE
  5
4C6
102
{ACAD_REACTORS
330
4F
102
}
100
AcDbEntity
  8
M05
100
AcDbLine
 10
789.646888
 20
301.443414
 30
0.0
 11
784.488006
 21
306.602296
 31
0.0
  0
LINE
  5
4C7
100
AcDbEntity
  8
M05
100
AcDbLine
 10
785.926888
 20
304.443414
 30
0.0
 11
786.646888
 21
304.443414
 31
0.0
  0
LINE
  5
4C8
102
{ACAD_REACTORS
330
4F
102
}
100
AcDbEntity
  8
M05
100
AcDbLine
 10
789.646888
 20
295.443414
 30
0.0
 11
784.488006
 21
290.284532
 31
0.0
  0
LINE
  5
4C9
100
AcDbEntity
  8
M05
100
AcDbLine
 10
789.646888
 20
301.443414
 30
0.0
 11
789.646888
 21
295.443414
 31
0.0
  0
LINE
  5
4CA
100
AcDbEntity
  8
M05
100
AcDbLine
 10
789.646888
 20
301.443414
 30
0.0
 11
803.226888
 21
301.443414
 31
0.0
  0
LINE
  5
4CB
100
AcDbEntity
  8
M05
100
AcDbLine
 10
789.646888
 20
295.443414
 30
0.0
 11
803.226888
 21
295.443414
 31
0.0
  0
LINE
  5
4CC
100
AcDbEntity
  8
M05
100
AcDbLine
 10
785.926888
 20
292.443414
 30
0.0
 11
786.646888
 21
292.443414
 31
0.0
  0
LINE
  5
4CD
100
AcDbEntity
  8
M05
100
AcDbLine
 10
785.926888
 20
304.443414
 30
0.0
 11
785.926888
 21
298.993414
 31
0.0
  0
LINE
  5
4CE
102
{ACAD_REACTORS
330
4F
102
}
100
AcDbEntity
  8
M05
  6
HIDDEN
100
AcDbLine
 10
784.488006
 20
312.443414
 30
0.0
 11
784.488006
 21
284.443414
 31
0.0
  0
LINE
  5
4CF
102
{ACAD_REACTORS
330
4F
102
}
100
AcDbEntity
  8
M05
  6
HIDDEN
100
AcDbLine
 10
784.488006
 20
284.443414
 30
0.0
 11
783.788006
 21
285.143414
 31
0.0
  0
LINE
  5
4D0
102
{ACAD_REACTORS
330
4F
102
}
100
AcDbEntity
  8
M05
  6
HIDDEN
100
AcDbLine
 10
785.488006
 20
284.443414
 30
0.0
 11
784.488006
 21
284.443414
 31
0.0
  0
LINE
  5
4D1
100
AcDbEntity
  8
M05
100
AcDbLine
 10
785.488006
 20
284.443414
 30
0.0
 11
784.788006
 21
285.143414
 31
0.0
  0
LINE
  5
4D2
100
AcDbEntity
  8
M05
100
AcDbLine
 10
791.088006
 20
284.443414
 30
0.0
 11
791.788006
 21
285.143414
 31
0.0
  0
LINE
  5
4D3
100
AcDbEntity
  8
M05
100
AcDbLine
 10
785.488006
 20
284.443414
 30
0.0
 11
791.088006
 21
284.443414
 31
0.0
  0
LINE
  5
4D4
102
{ACAD_REACTORS
330
4F
102
}
100
AcDbEntity
  8
M05
  6
HIDDEN
100
AcDbLine
 10
784.488006
 20
312.443414
 30
0.0
 11
783.788006
 21
311.743414
 31
0.0
  0
LINE
  5
4D5
102
{ACAD_REACTORS
330
4F
102
}
100
AcDbEntity
  8
M05
  6
HIDDEN
100
AcDbLine
 10
785.488006
 20
312.443414
 30
0.0
 11
784.488006
 21
312.443414
 31
0.0
  0
LINE
  5
4D6
100
AcDbEntity
  8
M05
100
AcDbLine
 10
785.488006
 20
312.443414
 30
0.0
 11
784.788006
 21
311.743414
 31
0.0
  0
LINE
  5
4D7
100
AcDbEntity
  8
M05
100
AcDbLine
 10
791.088006
 20
312.443414
 30
0.0
 11
791.788006
 21
311.743414
 31
0.0
  0
LINE
  5
4D8
102
{ACAD_REACTORS
330
4D
102
}
100
AcDbEntity
  8
M02
100
AcDbLine
 10
784.788006
 20
283.443414
 30
0.0
 11
787.788006
 21
283.443414
 31
0.0
  0
LINE
  5
4D9
102
{ACAD_REACTORS
330
4D
102
}
100
AcDbEntity
  8
M02
100
AcDbLine
 10
784.788006
 20
313.443414
 30
0.0
 11
787.788006
 21
313.443414
 31
0.0
  0
LINE
  5
4DA
102
{ACAD_REACTORS
330
4F
102
}
100
AcDbEntity
  8
M05
  6
HIDDEN
100
AcDbLine
 10
783.788006
 20
311.743414
 30
0.0
 11
783.788006
 21
285.143414
 31
0.0
  0
LINE
  5
4DB
100
AcDbEntity
  8
M05
100
AcDbLine
 10
785.488006
 20
312.443414
 30
0.0
 11
791.088006
 21
312.443414
 31
0.0
  0
LINE
  5
4DC
102
{ACAD_REACTORS
330
4F
102
}
100
AcDbEntity
  8
CENTRE
100
AcDbLine
 10
779.278895
 20
298.443414
 30
0.0
 11
812.357233
 21
298.443414
 31
0.0
  0
LINE
  5
4DD
100
AcDbEntity
  8
DIMS
 62
     4
100
AcDbLine
 10
506.044627
 20
382.543414
 30
0.0
 11
506.044627
 21
378.743414
 31
0.0
  0
LINE
  5
4DE
100
AcDbEntity
  8
DIMS
 62
     4
100
AcDbLine
 10
506.044627
 20
389.343414
 30
0.0
 11
506.044627
 21
393.143414
 31
0.0
  0
LINE
  5
4DF
100
AcDbEntity
  8
DIMS
 62
     4
100
AcDbLine
 10
506.044627
 20
387.643414
 30
0.0
 11
506.044627
 21
384.243414
 31
0.0
  0
CIRCLE
  5
4E0
100
AcDbEntity
  8
M03
100
AcDbCircle
 10
506.044627
 20
385.943414
 30
0.0
 40
2.3
  0
ARC
  5
4E1
100
AcDbEntity
  8
M03
100
AcDbCircle
 10
506.044627
 20
385.943414
 30
0.0
 40
3.0
100
AcDbArc
 50
77.784636
 51
6.923103
  0
CIRCLE
  5
4E2
100
AcDbEntity
  8
M03
100
AcDbCircle
 10
506.044627
 20
385.943414
 30
0.0
 40
5.5
  0
CIRCLE
  5
4E3
100
AcDbEntity
  8
M03
100
AcDbCircle
 10
532.044627
 20
385.943414
 30
0.0
 40
34.0
  0
LINE
  5
4E4
100
AcDbEntity
  8
DIMS
 62
     4
100
AcDbLine
 10
535.444627
 20
411.943414
 30
0.0
 11
539.244627
 21
411.943414
 31
0.0
  0
LINE
  5
4E5
100
AcDbEntity
  8
DIMS
 62
     4
100
AcDbLine
 10
528.644627
 20
411.943414
 30
0.0
 11
524.844627
 21
411.943414
 31
0.0
  0
LINE
  5
4E6
100
AcDbEntity
  8
DIMS
 62
     4
100
AcDbLine
 10
530.344627
 20
411.943414
 30
0.0
 11
533.744627
 21
411.943414
 31
0.0
  0
LINE
  5
4E7
100
AcDbEntity
  8
DIMS
 62
     4
100
AcDbLine
 10
535.444627
 20
359.943414
 30
0.0
 11
539.244627
 21
359.943414
 31
0.0
  0
LINE
  5
4E8
100
AcDbEntity
  8
DIMS
 62
     4
100
AcDbLine
 10
528.644627
 20
359.943414
 30
0.0
 11
524.844627
 21
359.943414
 31
0.0
  0
LINE
  5
4E9
100
AcDbEntity
  8
DIMS
 62
     4
100
AcDbLine
 10
530.344627
 20
359.943414
 30
0.0
 11
533.744627
 21
359.943414
 31
0.0
  0
LINE
  5
4EA
100
AcDbEntity
  8
DIMS
 62
     4
100
AcDbLine
 10
558.044627
 20
382.543414
 30
0.0
 11
558.044627
 21
378.743414
 31
0.0
  0
LINE
  5
4EB
100
AcDbEntity
  8
DIMS
 62
     4
100
AcDbLine
 10
558.044627
 20
389.343414
 30
0.0
 11
558.044627
 21
393.143414
 31
0.0
  0
LINE
  5
4EC
100
AcDbEntity
  8
DIMS
 62
     4
100
AcDbLine
 10
558.044627
 20
387.643414
 30
0.0
 11
558.044627
 21
384.243414
 31
0.0
  0
CIRCLE
  5
4ED
100
AcDbEntity
  8
M03
100
AcDbCircle
 10
532.044627
 20
359.943414
 30
0.0
 40
2.3
  0
ARC
  5
4EE
100
AcDbEntity
  8
M03
100
AcDbCircle
 10
532.044627
 20
359.943414
 30
0.0
 40
3.0
100
AcDbArc
 50
77.784636
 51
6.923103
  0
CIRCLE
  5
4EF
100
AcDbEntity
  8
M03
100
AcDbCircle
 10
532.044627
 20
359.943414
 30
0.0
 40
5.5
  0
CIRCLE
  5
4F0
100
AcDbEntity
  8
M03
100
AcDbCircle
 10
532.044627
 20
411.943414
 30
0.0
 40
2.3
  0
ARC
  5
4F1
100
AcDbEntity
  8
M03
100
AcDbCircle
 10
532.044627
 20
411.943414
 30
0.0
 40
3.0
100
AcDbArc
 50
77.784636
 51
6.923103
  0
CIRCLE
  5
4F2
100
AcDbEntity
  8
M03
100
AcDbCircle
 10
532.044627
 20
411.943414
 30
0.0
 40
5.5
  0
CIRCLE
  5
4F3
100
AcDbEntity
  8
M03
100
AcDbCircle
 10
558.044627
 20
385.943414
 30
0.0
 40
2.3
  0
ARC
  5
4F4
100
AcDbEntity
  8
M03
100
AcDbCircle
 10
558.044627
 20
385.943414
 30
0.0
 40
3.0
100
AcDbArc
 50
77.784636
 51
6.923103
  0
CIRCLE
  5
4F5
100
AcDbEntity
  8
M03
100
AcDbCircle
 10
558.044627
 20
385.943414
 30
0.0
 40
5.5
  0
CIRCLE
  5
4F6
100
AcDbEntity
  8
M03
100
AcDbCircle
 10
532.044627
 20
385.943414
 30
0.0
 40
20.0
  0
HATCH
  5
4F7
100
AcDbEntity
  8
M01
 62
     4
100
AcDbHatch
 10
0.0
 20
0.0
 30
0.0
210
0.0
220
0.0
230
1.0
  2
_U
 70
     0
 71
     0
 91
       13
 92
        7
 72
     1
 73
     1
 93
        4
 10
526.0446265495065
 20
393.3088739932975
 42
0.0
 10
526.0446265495065
 20
389.9434140619693
 42
0.0
 10
532.0446265495065
 20
389.9434140619693
 42
0.0
 10
532.0446265495065
 20
395.4434140619693
 42
0.1725804109198133
 97
        0
 92
        7
 72
     1
 73
     1
 93
        4
 10
532.0446265495065
 20
389.9434140619693
 42
0.0
 10
526.0446265495065
 20
389.9434140619693
 42
0.0
 10
526.0446265495065
 20
385.9434140619693
 42
0.0
 10
528.0446265495065
 20
385.9434140619693
 42
-0.4142135623730992
 97
        0
 92
       22
 72
     1
 73
     1
 93
        3
 10
532.0446265495065
 20
389.9434140619693
 42
0.4142135623730909
 10
528.0446265495065
 20
385.9434140619693
 42
0.0
 10
532.0446265495065
 20
385.9434140619693
 42
0.0
 97
        0
 92
        7
 72
     1
 73
     1
 93
        4
 10
526.0446265495065
 20
389.9434140619693
 42
0.0
 10
523.4277825796996
 20
389.9434140619693
 42
0.1090809576248918
 10
522.5446265495065
 20
385.9434140619693
 42
0.0
 10
526.0446265495065
 20
385.9434140619693
 42
0.0
 97
        0
 92
       22
 72
     1
 73
     1
 93
        3
 10
526.0446265495065
 20
393.3088739932973
 42
0.1136360637262233
 10
523.4277825796996
 20
389.9434140619693
 42
0.0
 10
526.0446265495063
 20
389.9434140619693
 42
0.0
 97
        0
 92
        7
 72
     1
 73
     1
 93
        4
 10
522.0446265495065
 20
385.9434140619693
 42
0.0
 10
522.5446265495065
 20
385.9434140619693
 42
-0.1090809576248918
 10
523.4277825796996
 20
389.9434140619693
 42
0.0
 10
522.8794751595948
 20
389.9434140619693
 42
0.1032437171755979
 97
        0
 92
        7
 72
     1
 73
     1
 93
        4
 10
522.8794751595948
 20
389.9434140619693
 42
0.0
 10
523.4277825796996
 20
389.9434140619693
 42
-0.1136360637262264
 10
526.0446265495065
 20
393.3088739932975
 42
0.0
 10
526.0446265495065
 20
393.9434140619693
 42
0.1296640194076911
 97
        0
 92
        7
 72
     1
 73
     1
 93
        4
 10
532.0446265495065
 20
395.4434140619693
 42
0.0
 10
532.0446265495065
 20
395.9434140619693
 42
0.1622776601683798
 10
526.0446265495065
 20
393.9434140619693
 42
0.0
 10
526.0446265495065
 20
393.3088739932975
 42
-0.1725804109198127
 97
        0
 92
       23
 72
     1
 73
     1
 93
        3
 10
532.0446265495065
 20
385.9434140619693
 42
0.0
 10
532.0446265495065
 20
381.9434140619693
 42
0.4142135623730909
 10
536.0446265495065
 20
385.9434140619693
 42
0.0
 97
        0
 92
        7
 72
     1
 73
     1
 93
        4
 10
536.0446265495065
 20
385.9434140619693
 42
-0.4142135623730909
 10
532.0446265495065
 20
381.9434140619693
 42
0.0
 10
540.6614705193137
 20
381.9434140619693
 42
0.1090809576248888
 10
541.5446265495066
 20
385.9434140619693
 42
0.0
 97
        0
 92
       23
 72
     1
 73
     1
 93
        3
 10
532.0446265495065
 20
381.9434140619693
 42
0.0
 10
532.0446265495065
 20
376.4434140619693
 42
0.2919418509678903
 10
540.6614705193137
 20
381.9434140619693
 42
0.0
 97
        0
 92
        7
 72
     1
 73
     1
 93
        4
 10
541.2097779394182
 20
381.9434140619693
 42
0.0
 10
540.6614705193137
 20
381.9434140619693
 42
-0.2919418509678903
 10
532.0446265495065
 20
376.4434140619693
 42
0.0
 10
532.0446265495065
 20
375.9434140619693
 42
0.2982166266986068
 97
        0
 92
        7
 72
     1
 73
     1
 93
        4
 10
542.0446265495066
 20
385.9434140619693
 42
0.0
 10
541.5446265495066
 20
385.9434140619693
 42
-0.1090809576248888
 10
540.6614705193137
 20
381.9434140619693
 42
0.0
 10
541.2097779394182
 20
381.9434140619693
 42
0.1032437171755951
 97
        0
 75
     0
 76
     0
 52
45.0
 41
1.0
 77
     1
 78
     2
 53
45.0
 43
-23.402614
 44
-46.615812
 45
-0.7071067811865474
 46
0.7071067811865478
 79
     0
 53
135.0
 43
-23.402614
 44
-46.615812
 45
-0.7071067811865478
 46
-0.7071067811865474
 79
     0
 47
0.087843
 98
       13
 10
529.375596
 20
392.75895
 10
527.793771
 20
388.366804
 10
530.781663
 20
387.839746
 10
524.893758
 20
387.839746
 10
525.333154
 20
390.826405
 10
522.6089
 20
388.542489
 10
525.508913
 20
393.198165
 10
528.145288
 20
394.86718
 10
533.769556
 20
384.765243
 10
537.899877
 20
383.974657
 10
535.615019
 20
380.373097
 10
534.560469
 20
376.420165
 10
541.678683
 20
384.0625
  0
CIRCLE
  5
4F8
100
AcDbEntity
  8
M01
100
AcDbCircle
 10
532.044627
 20
385.943414
 30
0.0
 40
10.0
  0
CIRCLE
  5
4F9
100
AcDbEntity
  8
M03
100
AcDbCircle
 10
532.044627
 20
385.943414
 30
0.0
 40
9.5
  0
WIPEOUT
  5
4FA
100
AcDbEntity
  8
TEXT
 92
      140
310
8C0000000100000084000000060000000500000034018F87706A8740A851626CD9427140000000000000000043EB2F965AE38740A851626CD9427140000000000000000043EB2F965AE38740A751626CD9827140000000000000000036018F87706A8740A951626CD9827140000000000000000034018F87706A8740A85162
310
6CD94271400000000000000000
100
AcDbWipeout
 90
        0
 10
749.304946
 20
223.974172
 30
0.0
 11
56.20391
 21
0.0
 31
0.0
 12
0.0
 22
56.20391
 32
0.0
 13
0.0
 23
0.0
340
0
 70
     7
280
     1
281
    50
282
    50
283
     0
360
0
 71
     2
 91
        5
 14
-0.5
 24
-0.428831
 14
-0.231081
 24
-0.428831
 14
-0.231081
 24
-0.5
 14
-0.5
 24
-0.5
 14
-0.5
 24
-0.428831
  0
TEXT
  5
4FB
102
{ACAD_REACTORS
330
4F
102
}
100
AcDbEntity
  8
TEXT
100
AcDbText
 10
750.304946
 20
277.178082
 30
0.0
 40
2.0
  1
MM010137
 41
0.9
100
AcDbText
  0
CIRCLE
  5
4FC
100
AcDbEntity
  8
M03
100
AcDbCircle
 10
532.044627
 20
385.943414
 30
0.0
 40
4.0
  0
LINE
  5
4FD
100
AcDbEntity
  8
M02
100
AcDbLine
 10
724.788006
 20
280.443414
 30
0.0
 11
721.788006
 21
280.443414
 31
0.0
  0
LINE
  5
4FE
100
AcDbEntity
  8
M02
100
AcDbLine
 10
724.788006
 20
316.443414
 30
0.0
 11
721.788006
 21
316.443414
 31
0.0
  0
MTEXT
  5
4FF
100
AcDbEntity
  8
DIMS
 62
     2
100
AcDbMText
 10
397.922703
 20
400.715934
 30
0.0
 40
3.0
 41
0.0
 71
     4
 72
     5
  1
HGX10037 (x2)
  0
LINE
  5
500
100
AcDbEntity
  8
M01
100
AcDbLine
 10
778.776017
 20
595.679082
 30
0.0
 11
780.755726
 21
596.885811
 31
0.0
  0
LINE
  5
501
100
AcDbEntity
  8
M01
100
AcDbLine
 10
786.509985
 20
607.132309
 30
0.0
 11
786.509985
 21
615.707121
 31
0.0
  0
LINE
  5
502
100
AcDbEntity
  8
M01
100
AcDbLine
 10
782.509985
 20
607.132309
 30
0.0
 11
782.509985
 21
615.707121
 31
0.0
  0
ARC
  5
503
100
AcDbEntity
  8
M01
100
AcDbCircle
 10
774.509985
 20
607.132309
 30
0.0
 40
12.0
100
AcDbArc
 50
301.364349
 51
0.0
  0
ARC
  5
504
100
AcDbEntity
  8
M01
100
AcDbCircle
 10
774.509985
 20
607.132309
 30
0.0
 40
8.0
100
AcDbArc
 50
308.846454
 51
0.0
  0
LINE
  5
505
100
AcDbEntity
  8
M01
100
AcDbLine
 10
765.144657
 20
592.054629
 30
0.0
 11
775.372069
 21
598.288737
 31
0.0
  0
LINE
  5
506
100
AcDbEntity
  8
M01
100
AcDbLine
 10
767.22657
 20
588.63913
 30
0.0
 11
767.550103
 21
588.836339
 31
0.0
  0
LINE
  5
507
100
AcDbEntity
  8
M01
100
AcDbLine
 10
765.788006
 20
581.636722
 30
0.0
 11
765.788006
 21
581.043414
 31
0.0
  0
LINE
  5
508
100
AcDbEntity
  8
M01
100
AcDbLine
 10
761.788006
 20
586.077505
 30
0.0
 11
761.788006
 21
583.351661
 31
0.0
  0
ARC
  5
509
100
AcDbEntity
  8
M01
100
AcDbCircle
 10
768.788006
 20
586.077505
 30
0.0
 40
3.0
100
AcDbArc
 50
121.364349
 51
151.672691
  0
ARC
  5
50A
100
AcDbEntity
  8
M01
100
AcDbCircle
 10
768.788006
 20
586.077505
 30
0.0
 40
7.0
100
AcDbArc
 50
121.364349
 51
180.0
  0
ARC
  5
50B
100
AcDbEntity
  8
M01
100
AcDbCircle
 10
768.788006
 20
581.043414
 30
0.0
 40
7.0
100
AcDbArc
 50
202.678679
 51
270.0
  0
ARC
  5
50C
100
AcDbEntity
  8
M01
100
AcDbCircle
 10
768.788006
 20
581.043414
 30
0.0
 40
3.0
100
AcDbArc
 50
180.0
 51
270.0
  0
ARC
  5
50D
100
AcDbEntity
  8
M01
100
AcDbCircle
 10
767.527868
 20
599.859889
 30
0.0
 40
12.0
100
AcDbArc
 50
313.586993
 51
0.0
  0
ARC
  5
50E
100
AcDbEntity
  8
M01
100
AcDbCircle
 10
767.527868
 20
599.859889
 30
0.0
 40
8.0
100
AcDbArc
 50
313.586993
 51
0.0
  0
LINE
  5
50F
100
AcDbEntity
  8
M01
100
AcDbLine
 10
768.788006
 20
578.043414
 30
0.0
 11
773.788006
 21
578.043414
 31
0.0
  0
LINE
  5
510
100
AcDbEntity
  8
M01
100
AcDbLine
 10
769.788006
 20
578.043414
 30
0.0
 11
769.788006
 21
574.043414
 31
0.0
  0
LINE
  5
511
100
AcDbEntity
  8
M01
100
AcDbLine
 10
773.788006
 20
578.043414
 30
0.0
 11
773.788006
 21
574.043414
 31
0.0
  0
LINE
  5
512
100
AcDbEntity
  8
M01
100
AcDbLine
 10
725.788006
 20
574.043414
 30
0.0
 11
753.012544
 21
574.043414
 31
0.0
  0
LINE
  5
513
100
AcDbEntity
  8
M01
100
AcDbLine
 10
753.012544
 20
578.043414
 30
0.0
 11
735.788006
 21
578.043414
 31
0.0
  0
ARC
  5
514
100
AcDbEntity
  8
M01
100
AcDbCircle
 10
753.012544
 20
586.043414
 30
0.0
 40
12.0
100
AcDbArc
 50
270.0
 51
313.586993
  0
ARC
  5
515
100
AcDbEntity
  8
M01
100
AcDbCircle
 10
753.012544
 20
586.043414
 30
0.0
 40
8.0
100
AcDbArc
 50
270.0
 51
313.586993
  0
LINE
  5
516
100
AcDbEntity
  8
M01
100
AcDbLine
 10
739.788006
 20
578.043414
 30
0.0
 11
739.788006
 21
574.043414
 31
0.0
  0
LINE
  5
517
100
AcDbEntity
  8
M01
100
AcDbLine
 10
735.788006
 20
578.043414
 30
0.0
 11
735.788006
 21
574.043414
 31
0.0
  0
LINE
  5
518
100
AcDbEntity
  8
M01
100
AcDbLine
 10
775.80133
 20
591.167948
 30
0.0
 11
761.286006
 21
577.351473
 31
0.0
  0
LINE
  5
519
100
AcDbEntity
  8
M01
100
AcDbLine
 10
773.043509
 20
594.065262
 30
0.0
 11
758.528185
 21
580.248787
 31
0.0
  0
LINE
  5
51A
100
AcDbEntity
  8
M01
100
AcDbLine
 10
779.527868
 20
615.698379
 30
0.0
 11
779.527868
 21
599.859889
 31
0.0
  0
LINE
  5
51B
100
AcDbEntity
  8
M01
100
AcDbLine
 10
775.527868
 20
615.698379
 30
0.0
 11
775.527868
 21
599.859889
 31
0.0
  0
LINE
  5
51C
100
AcDbEntity
  8
M01
100
AcDbLine
 10
775.538006
 20
559.387514
 30
0.0
 11
782.038006
 21
559.387514
 31
0.0
  0
LINE
  5
51D
100
AcDbEntity
  8
M01
100
AcDbLine
 10
775.538006
 20
567.499314
 30
0.0
 11
782.038006
 21
567.499314
 31
0.0
  0
LINE
  5
51E
100
AcDbEntity
  8
M01
100
AcDbLine
 10
775.538006
 20
559.387514
 30
0.0
 11
775.538006
 21
557.443414
 31
0.0
  0
ARC
  5
51F
100
AcDbEntity
  8
M01
100
AcDbCircle
 10
774.288006
 20
560.948764
 30
0.0
 40
2.0
100
AcDbArc
 50
308.682187
 51
0.0
  0
ARC
  5
520
100
AcDbEntity
  8
M01
100
AcDbCircle
 10
774.288006
 20
565.938064
 30
0.0
 40
2.0
100
AcDbArc
 50
0.0
 51
51.317813
  0
LINE
  5
521
100
AcDbEntity
  8
M01
100
AcDbLine
 10
775.538006
 20
569.443414
 30
0.0
 11
775.538006
 21
567.499314
 31
0.0
  0
LINE
  5
522
100
AcDbEntity
  8
M01
100
AcDbLine
 10
776.288006
 20
565.938064
 30
0.0
 11
776.288006
 21
560.948764
 31
0.0
  0
LINE
  5
523
100
AcDbEntity
  8
M01
100
AcDbLine
 10
782.038006
 20
559.387514
 30
0.0
 11
782.038006
 21
557.443414
 31
0.0
  0
ARC
  5
524
100
AcDbEntity
  8
M01
100
AcDbCircle
 10
783.288006
 20
560.948764
 30
0.0
 40
2.0
100
AcDbArc
 50
180.0
 51
231.317813
  0
ARC
  5
525
100
AcDbEntity
  8
M01
100
AcDbCircle
 10
783.288006
 20
565.938064
 30
0.0
 40
2.0
100
AcDbArc
 50
128.682187
 51
180.0
  0
LINE
  5
526
100
AcDbEntity
  8
M01
100
AcDbLine
 10
782.038006
 20
569.443414
 30
0.0
 11
782.038006
 21
567.499314
 31
0.0
  0
LINE
  5
527
100
AcDbEntity
  8
M01
100
AcDbLine
 10
781.288006
 20
565.938064
 30
0.0
 11
781.288006
 21
560.948764
 31
0.0
  0
LINE
  5
528
100
AcDbEntity
  8
DIMS
 62
     4
100
AcDbLine
 10
780.788006
 20
279.584681
 30
0.0
 11
780.788006
 21
281.884681
 31
0.0
  0
LINE
  5
529
100
AcDbEntity
  8
DIMS
 62
     4
100
AcDbLine
 10
780.788006
 20
272.784681
 30
0.0
 11
780.788006
 21
270.484681
 31
0.0
  0
LINE
  5
52A
100
AcDbEntity
  8
DIMS
 62
     4
100
AcDbLine
 10
784.188006
 20
276.184681
 30
0.0
 11
786.488006
 21
276.184681
 31
0.0
  0
LINE
  5
52B
100
AcDbEntity
  8
DIMS
 62
     4
100
AcDbLine
 10
777.388006
 20
276.184681
 30
0.0
 11
775.088006
 21
276.184681
 31
0.0
  0
LINE
  5
52C
100
AcDbEntity
  8
DIMS
 62
     4
100
AcDbLine
 10
780.788006
 20
274.484681
 30
0.0
 11
780.788006
 21
277.884681
 31
0.0
  0
LINE
  5
52D
100
AcDbEntity
  8
DIMS
 62
     4
100
AcDbLine
 10
779.088006
 20
276.184681
 30
0.0
 11
782.488006
 21
276.184681
 31
0.0
  0
LINE
  5
52E
100
AcDbEntity
  8
DIMS
 62
     4
100
AcDbLine
 10
728.788006
 20
279.584681
 30
0.0
 11
728.788006
 21
281.884681
 31
0.0
  0
LINE
  5
52F
100
AcDbEntity
  8
DIMS
 62
     4
100
AcDbLine
 10
728.788006
 20
272.784681
 30
0.0
 11
728.788006
 21
270.484681
 31
0.0
  0
LINE
  5
530
100
AcDbEntity
  8
DIMS
 62
     4
100
AcDbLine
 10
732.188006
 20
276.184681
 30
0.0
 11
734.488006
 21
276.184681
 31
0.0
  0
LINE
  5
531
100
AcDbEntity
  8
DIMS
 62
     4
100
AcDbLine
 10
725.388006
 20
276.184681
 30
0.0
 11
723.088006
 21
276.184681
 31
0.0
  0
LINE
  5
532
100
AcDbEntity
  8
DIMS
 62
     4
100
AcDbLine
 10
728.788006
 20
274.484681
 30
0.0
 11
728.788006
 21
277.884681
 31
0.0
  0
LINE
  5
533
100
AcDbEntity
  8
DIMS
 62
     4
100
AcDbLine
 10
727.088006
 20
276.184681
 30
0.0
 11
730.488006
 21
276.184681
 31
0.0
  0
HATCH
  5
534
100
AcDbEntity
  8
HATCH
100
AcDbHatch
 10
0.0
 20
0.0
 30
0.0
210
0.0
220
0.0
230
1.0
  2
_U
 70
     0
 71
     1
 91
        2
 92
        7
 72
     1
 73
     1
 93
        2
 10
732.7880055868594
 20
276.1846808615501
 42
1.0
 10
724.7880055868594
 20
276.1846808615501
 42
1.0
 97
        1
330
53A
 92
        7
 72
     1
 73
     1
 93
        2
 10
784.7880055868594
 20
276.1846808615501
 42
1.0
 10
776.7880055868594
 20
276.1846808615501
 42
1.0
 97
        1
330
539
 75
     0
 76
     0
 52
135.0
 41
0.8
 77
     0
 78
     1
 53
135.0
 43
-63.292458
 44
-20.052148
 45
-0.5656854249492382
 46
-0.565685424949238
 79
     0
 47
0.095608
 98
        2
 10
728.921354
 20
275.884039
 10
767.945545
 20
277.031337
  0
LINE
  5
535
102
{ACAD_REACTORS
330
4F
102
}
100
AcDbEntity
  8
M01
100
AcDbLine
 10
780.788006
 20
272.184681
 30
0.0
 11
784.788006
 21
272.184681
 31
0.0
  0
LINE
  5
536
102
{ACAD_REACTORS
330
4F
102
}
100
AcDbEntity
  8
M01
100
AcDbLine
 10
780.788006
 20
280.184681
 30
0.0
 11
784.788006
 21
280.184681
 31
0.0
  0
LINE
  5
537
102
{ACAD_REACTORS
330
4F
102
}
100
AcDbEntity
  8
M01
100
AcDbLine
 10
728.788006
 20
272.184681
 30
0.0
 11
724.788006
 21
272.184681
 31
0.0
  0
LINE
  5
538
102
{ACAD_REACTORS
330
4F
102
}
100
AcDbEntity
  8
M01
100
AcDbLine
 10
728.788006
 20
280.184681
 30
0.0
 11
724.788006
 21
280.184681
 31
0.0
  0
CIRCLE
  5
539
102
{ACAD_REACTORS
330
534
330
4F
102
}
100
AcDbEntity
  8
M01
100
AcDbCircle
 10
780.788006
 20
276.184681
 30
0.0
 40
4.0
  0
CIRCLE
  5
53A
102
{ACAD_REACTORS
330
534
330
4F
102
}
100
AcDbEntity
  8
M01
100
AcDbCircle
 10
728.788006
 20
276.184681
 30
0.0
 40
4.0
  0
DIMENSION
  5
53B
100
AcDbEntity
  8
DIMS
100
AcDbDimension
  2
*D4
 10
690.111841
 20
527.943414
 30
0.0
 11
687.111841
 21
547.6577
 31
0.0
 12
-63.292458
 22
-124.804292
 32
0.0
  1
%%c<> H7
  3
DIM1
100
AcDbAlignedDimension
 13
704.788006
 23
535.943414
 33
0.0
 14
704.788006
 24
527.943414
 34
0.0
 50
90.0
100
AcDbRotatedDimension
1001
ACAD
1000
DSTYLE
1002
{
1070
   144
1040
1.0
1002
}
  0
DIMENSION
  5
549
100
AcDbEntity
  8
DIMS
100
AcDbDimension
  2
*D3
 10
836.103122
 20
405.943414
 30
0.0
 11
833.103122
 21
385.943414
 31
0.0
 12
-63.292458
 22
-87.304292
 32
0.0
  1
%%c<> H7
  3
DIM1
100
AcDbAlignedDimension
 13
799.788006
 23
365.943414
 33
0.0
 14
799.788006
 24
405.943414
 34
0.0
 50
90.0
100
AcDbRotatedDimension
1001
ACAD
1000
DSTYLE
1002
{
1070
   144
1040
1.0
1002
}
  0
DIMENSION
  5
556
100
AcDbEntity
  8
DIMS
100
AcDbDimension
  2
*D2
 10
717.788006
 20
228.970717
 30
0.0
 11
707.145148
 21
232.060717
 31
0.0
 12
0.0
 22
-0.09
 32
0.0
  1
7.0
  3
DIM1
100
AcDbAlignedDimension
 13
724.788006
 23
269.443414
 33
0.0
 14
717.788006
 24
260.443414
 34
0.0
100
AcDbRotatedDimension
1001
ACAD
1000
DSTYLE
1002
{
1070
   144
1040
1.0
1002
}
  0
DIMENSION
  5
564
100
AcDbEntity
  8
DIMS
100
AcDbDimension
  2
*D1
 10
791.788006
 20
228.970717
 30
0.0
 11
802.430863
 21
232.060717
 31
0.0
 12
0.0
 22
-0.09
 32
0.0
  1
7.0
  3
DIM1
100
AcDbAlignedDimension
 13
784.788006
 23
269.443414
 33
0.0
 14
791.788006
 24
248.930023
 34
0.0
100
AcDbRotatedDimension
1001
ACAD
1000
DSTYLE
1002
{
1070
   144
1040
1.0
1002
}
  0
DIMENSION
  5
572
100
AcDbEntity
  8
DIMS
100
AcDbDimension
  2
*D0
 10
784.788006
 20
228.970717
 30
0.0
 11
754.788006
 21
232.060717
 31
0.0
 12
0.0
 22
-0.09
 32
0.0
  3
DIM1
100
AcDbAlignedDimension
 13
724.788006
 23
269.443414
 33
0.0
 14
784.788006
 24
267.443414
 34
0.0
100
AcDbRotatedDimension
1001
ACAD
1000
DSTYLE
1002
{
1070
   144
1040
1.0
1002
}
  0
LINE
  5
57F
100
AcDbEntity
  8
M01
100
AcDbLine
 10
773.788006
 20
552.443414
 30
0.0
 11
783.788006
 21
552.443414
 31
0.0
  0
LINE
  5
580
100
AcDbEntity
  8
M01
100
AcDbLine
 10
727.538006
 20
559.387514
 30
0.0
 11
734.038006
 21
559.387514
 31
0.0
  0
LINE
  5
581
100
AcDbEntity
  8
M01
100
AcDbLine
 10
727.538006
 20
567.499314
 30
0.0
 11
734.038006
 21
567.499314
 31
0.0
  0
LINE
  5
582
100
AcDbEntity
  8
M01
100
AcDbLine
 10
727.538006
 20
559.387514
 30
0.0
 11
727.538006
 21
557.443414
 31
0.0
  0
ARC
  5
583
100
AcDbEntity
  8
M01
100
AcDbCircle
 10
726.288006
 20
560.948764
 30
0.0
 40
2.0
100
AcDbArc
 50
308.682187
 51
0.0
  0
ARC
  5
584
100
AcDbEntity
  8
M01
100
AcDbCircle
 10
726.288006
 20
565.938064
 30
0.0
 40
2.0
100
AcDbArc
 50
0.0
 51
51.317813
  0
LINE
  5
585
100
AcDbEntity
  8
M01
100
AcDbLine
 10
727.538006
 20
569.443414
 30
0.0
 11
727.538006
 21
567.499314
 31
0.0
  0
LINE
  5
586
100
AcDbEntity
  8
M01
100
AcDbLine
 10
728.288006
 20
565.938064
 30
0.0
 11
728.288006
 21
560.948764
 31
0.0
  0
LINE
  5
587
100
AcDbEntity
  8
M01
100
AcDbLine
 10
734.038006
 20
559.387514
 30
0.0
 11
734.038006
 21
557.443414
 31
0.0
  0
ARC
  5
588
100
AcDbEntity
  8
M01
100
AcDbCircle
 10
735.288006
 20
560.948764
 30
0.0
 40
2.0
100
AcDbArc
 50
180.0
 51
231.317813
  0
ARC
  5
589
100
AcDbEntity
  8
M01
100
AcDbCircle
 10
735.288006
 20
565.938064
 30
0.0
 40
2.0
100
AcDbArc
 50
128.682187
 51
180.0
  0
LINE
  5
58A
100
AcDbEntity
  8
M01
100
AcDbLine
 10
734.038006
 20
569.443414
 30
0.0
 11
734.038006
 21
567.499314
 31
0.0
  0
LINE
  5
58B
100
AcDbEntity
  8
M01
100
AcDbLine
 10
733.288006
 20
565.938064
 30
0.0
 11
733.288006
 21
560.948764
 31
0.0
  0
LINE
  5
58C
100
AcDbEntity
  8
M01
100
AcDbLine
 10
725.788006
 20
552.443414
 30
0.0
 11
735.788006
 21
552.443414
 31
0.0
  0
LINE
  5
58D
100
AcDbEntity
  8
M01
100
AcDbLine
 10
783.788006
 20
557.443414
 30
0.0
 11
783.788006
 21
536.443414
 31
0.0
  0
LINE
  5
58E
100
AcDbEntity
  8
M01
100
AcDbLine
 10
773.788006
 20
557.443414
 30
0.0
 11
773.788006
 21
537.443414
 31
0.0
  0
LINE
  5
58F
100
AcDbEntity
  8
M01
100
AcDbLine
 10
725.788006
 20
557.443414
 30
0.0
 11
725.788006
 21
536.443414
 31
0.0
  0
LINE
  5
590
100
AcDbEntity
  8
M01
100
AcDbLine
 10
735.788006
 20
557.443414
 30
0.0
 11
735.788006
 21
537.443414
 31
0.0
  0
LINE
  5
591
100
AcDbEntity
  8
M01
100
AcDbLine
 10
775.756917
 20
579.343414
 30
0.0
 11
781.819095
 21
579.343414
 31
0.0
  0
ARC
  5
592
100
AcDbEntity
  8
M01
100
AcDbCircle
 10
781.819095
 20
577.494109
 30
0.0
 40
1.150694
100
AcDbArc
 50
208.592423
 51
331.407577
  0
ARC
  5
593
100
AcDbEntity
  8
M01
100
AcDbCircle
 10
778.788006
 20
580.046192
 30
0.0
 40
3.702778
100
AcDbArc
 50
236.92527
 51
303.07473
  0
ARC
  5
594
100
AcDbEntity
  8
M01
100
AcDbCircle
 10
775.756917
 20
577.494109
 30
0.0
 40
1.150694
100
AcDbArc
 50
208.592423
 51
331.407577
  0
ARC
  5
595
100
AcDbEntity
  8
M01
100
AcDbCircle
 10
781.819095
 20
578.19272
 30
0.0
 40
1.150694
100
AcDbArc
 50
28.592423
 51
151.407577
  0
ARC
  5
596
100
AcDbEntity
  8
M01
100
AcDbCircle
 10
778.788006
 20
575.640636
 30
0.0
 40
3.702778
100
AcDbArc
 50
56.92527
 51
123.07473
  0
LINE
  5
597
100
AcDbEntity
  8
M01
100
AcDbLine
 10
780.808732
 20
578.743414
 30
0.0
 11
780.808732
 21
576.943414
 31
0.0
  0
LINE
  5
598
100
AcDbEntity
  8
M01
100
AcDbLine
 10
782.829457
 20
578.743414
 30
0.0
 11
782.829457
 21
576.943414
 31
0.0
  0
ARC
  5
599
100
AcDbEntity
  8
M01
100
AcDbCircle
 10
775.756917
 20
578.19272
 30
0.0
 40
1.150694
100
AcDbArc
 50
28.592423
 51
151.407577
  0
LINE
  5
59A
100
AcDbEntity
  8
M01
100
AcDbLine
 10
776.76728
 20
578.743414
 30
0.0
 11
776.76728
 21
576.943414
 31
0.0
  0
LINE
  5
59B
100
AcDbEntity
  8
M01
100
AcDbLine
 10
774.746554
 20
578.743414
 30
0.0
 11
774.746554
 21
576.943414
 31
0.0
  0
LINE
  5
59C
100
AcDbEntity
  8
M01
100
AcDbLine
 10
783.788006
 20
574.043414
 30
0.0
 11
783.788006
 21
575.543414
 31
0.0
  0
LINE
  5
59D
100
AcDbEntity
  8
M01
100
AcDbLine
 10
773.788006
 20
574.043414
 30
0.0
 11
773.788006
 21
575.543414
 31
0.0
  0
LINE
  5
59E
100
AcDbEntity
  8
M01
100
AcDbLine
 10
783.288006
 20
575.543414
 30
0.0
 11
783.288006
 21
576.343414
 31
0.0
  0
LINE
  5
59F
100
AcDbEntity
  8
M01
100
AcDbLine
 10
774.288006
 20
575.543414
 30
0.0
 11
774.288006
 21
576.343414
 31
0.0
  0
LINE
  5
5A0
100
AcDbEntity
  8
M01
100
AcDbLine
 10
774.288006
 20
576.343414
 30
0.0
 11
783.288006
 21
576.343414
 31
0.0
  0
LINE
  5
5A1
100
AcDbEntity
  8
M01
100
AcDbLine
 10
773.788006
 20
575.543414
 30
0.0
 11
783.788006
 21
575.543414
 31
0.0
  0
LINE
  5
5A2
100
AcDbEntity
  8
M01
100
AcDbLine
 10
783.288006
 20
573.243414
 30
0.0
 11
783.288006
 21
574.043414
 31
0.0
  0
LINE
  5
5A3
100
AcDbEntity
  8
M01
100
AcDbLine
 10
774.288006
 20
573.243414
 30
0.0
 11
774.288006
 21
574.043414
 31
0.0
  0
LINE
  5
5A4
100
AcDbEntity
  8
M01
100
AcDbLine
 10
768.788006
 20
574.043414
 30
0.0
 11
783.788006
 21
574.043414
 31
0.0
  0
ARC
  5
5A5
100
AcDbEntity
  8
M01
100
AcDbCircle
 10
781.819095
 20
571.394109
 30
0.0
 40
1.150694
100
AcDbArc
 50
208.592423
 51
331.407577
  0
ARC
  5
5A6
100
AcDbEntity
  8
M01
100
AcDbCircle
 10
778.788006
 20
573.946192
 30
0.0
 40
3.702778
100
AcDbArc
 50
236.92527
 51
303.07473
  0
ARC
  5
5A7
100
AcDbEntity
  8
M01
100
AcDbCircle
 10
775.756917
 20
571.394109
 30
0.0
 40
1.150694
100
AcDbArc
 50
208.592423
 51
331.407577
  0
ARC
  5
5A8
100
AcDbEntity
  8
M01
100
AcDbCircle
 10
781.819095
 20
572.09272
 30
0.0
 40
1.150694
100
AcDbArc
 50
28.592423
 51
151.407577
  0
ARC
  5
5A9
100
AcDbEntity
  8
M01
100
AcDbCircle
 10
778.788006
 20
569.540636
 30
0.0
 40
3.702778
100
AcDbArc
 50
56.92527
 51
123.07473
  0
LINE
  5
5AA
100
AcDbEntity
  8
M01
100
AcDbLine
 10
780.808732
 20
572.643414
 30
0.0
 11
780.808732
 21
570.843414
 31
0.0
  0
LINE
  5
5AB
100
AcDbEntity
  8
M01
100
AcDbLine
 10
782.829457
 20
572.643414
 30
0.0
 11
782.829457
 21
570.843414
 31
0.0
  0
ARC
  5
5AC
100
AcDbEntity
  8
M01
100
AcDbCircle
 10
775.756917
 20
572.09272
 30
0.0
 40
1.150694
100
AcDbArc
 50
28.592423
 51
151.407577
  0
LINE
  5
5AD
100
AcDbEntity
  8
M01
100
AcDbLine
 10
776.76728
 20
572.643414
 30
0.0
 11
776.76728
 21
570.843414
 31
0.0
  0
LINE
  5
5AE
100
AcDbEntity
  8
M01
100
AcDbLine
 10
774.746554
 20
572.643414
 30
0.0
 11
774.746554
 21
570.843414
 31
0.0
  0
LINE
  5
5AF
100
AcDbEntity
  8
M01
100
AcDbLine
 10
774.288006
 20
573.243414
 30
0.0
 11
783.288006
 21
573.243414
 31
0.0
  0
LINE
  5
5B0
100
AcDbEntity
  8
M01
100
AcDbLine
 10
774.288006
 20
570.243414
 30
0.0
 11
783.288006
 21
570.243414
 31
0.0
  0
LINE
  5
5B1
100
AcDbEntity
  8
M01
100
AcDbLine
 10
774.288006
 20
569.443414
 30
0.0
 11
783.288006
 21
569.443414
 31
0.0
  0
LINE
  5
5B2
100
AcDbEntity
  8
M01
100
AcDbLine
 10
780.288006
 20
582.443414
 30
0.0
 11
780.788006
 21
581.943414
 31
0.0
  0
LINE
  5
5B3
100
AcDbEntity
  8
M01
100
AcDbLine
 10
776.788006
 20
581.943414
 30
0.0
 11
777.288006
 21
582.443414
 31
0.0
  0
LINE
  5
5B4
100
AcDbEntity
  8
M01
100
AcDbLine
 10
776.788006
 20
581.943414
 30
0.0
 11
780.788006
 21
581.943414
 31
0.0
  0
LINE
  5
5B5
100
AcDbEntity
  8
M01
100
AcDbLine
 10
780.288006
 20
582.443414
 30
0.0
 11
780.288006
 21
579.343414
 31
0.0
  0
LINE
  5
5B6
100
AcDbEntity
  8
M01
100
AcDbLine
 10
777.288006
 20
582.443414
 30
0.0
 11
777.288006
 21
579.343414
 31
0.0
  0
LINE
  5
5B7
100
AcDbEntity
  8
M01
100
AcDbLine
 10
776.788006
 20
581.943414
 30
0.0
 11
776.788006
 21
579.343414
 31
0.0
  0
LINE
  5
5B8
100
AcDbEntity
  8
M01
100
AcDbLine
 10
780.788006
 20
581.943414
 30
0.0
 11
780.788006
 21
579.343414
 31
0.0
  0
LINE
  5
5B9
100
AcDbEntity
  8
M01
100
AcDbLine
 10
777.288006
 20
582.443414
 30
0.0
 11
780.288006
 21
582.443414
 31
0.0
  0
LINE
  5
5BA
100
AcDbEntity
  8
M01
100
AcDbLine
 10
773.788006
 20
557.443414
 30
0.0
 11
783.788006
 21
557.443414
 31
0.0
  0
LINE
  5
5BB
100
AcDbEntity
  8
M01
100
AcDbLine
 10
783.288006
 20
570.243414
 30
0.0
 11
783.288006
 21
569.443414
 31
0.0
  0
LINE
  5
5BC
100
AcDbEntity
  8
M01
100
AcDbLine
 10
774.288006
 20
570.243414
 30
0.0
 11
774.288006
 21
569.443414
 31
0.0
  0
LINE
  5
5BD
100
AcDbEntity
  8
CENTRE
100
AcDbLine
 10
778.788006
 20
588.604303
 30
0.0
 11
778.788006
 21
525.010872
 31
0.0
  0
LINE
  5
5BE
100
AcDbEntity
  8
M01
100
AcDbLine
 10
733.819095
 20
579.343414
 30
0.0
 11
727.756917
 21
579.343414
 31
0.0
  0
ARC
  5
5BF
100
AcDbEntity
  8
M01
100
AcDbCircle
 10
727.756917
 20
577.494109
 30
0.0
 40
1.150694
100
AcDbArc
 50
208.592423
 51
331.407577
  0
ARC
  5
5C0
100
AcDbEntity
  8
M01
100
AcDbCircle
 10
730.788006
 20
580.046192
 30
0.0
 40
3.702778
100
AcDbArc
 50
236.92527
 51
303.07473
  0
ARC
  5
5C1
100
AcDbEntity
  8
M01
100
AcDbCircle
 10
733.819095
 20
577.494109
 30
0.0
 40
1.150694
100
AcDbArc
 50
208.592423
 51
331.407577
  0
ARC
  5
5C2
100
AcDbEntity
  8
M01
100
AcDbCircle
 10
727.756917
 20
578.19272
 30
0.0
 40
1.150694
100
AcDbArc
 50
28.592423
 51
151.407577
  0
ARC
  5
5C3
100
AcDbEntity
  8
M01
100
AcDbCircle
 10
730.788006
 20
575.640636
 30
0.0
 40
3.702778
100
AcDbArc
 50
56.92527
 51
123.07473
  0
LINE
  5
5C4
100
AcDbEntity
  8
M01
100
AcDbLine
 10
728.76728
 20
578.743414
 30
0.0
 11
728.76728
 21
576.943414
 31
0.0
  0
LINE
  5
5C5
100
AcDbEntity
  8
M01
100
AcDbLine
 10
726.746554
 20
578.743414
 30
0.0
 11
726.746554
 21
576.943414
 31
0.0
  0
ARC
  5
5C6
100
AcDbEntity
  8
M01
100
AcDbCircle
 10
733.819095
 20
578.19272
 30
0.0
 40
1.150694
100
AcDbArc
 50
28.592423
 51
151.407577
  0
LINE
  5
5C7
100
AcDbEntity
  8
M01
100
AcDbLine
 10
732.808732
 20
578.743414
 30
0.0
 11
732.808732
 21
576.943414
 31
0.0
  0
LINE
  5
5C8
100
AcDbEntity
  8
M01
100
AcDbLine
 10
734.829457
 20
578.743414
 30
0.0
 11
734.829457
 21
576.943414
 31
0.0
  0
LINE
  5
5C9
100
AcDbEntity
  8
M01
100
AcDbLine
 10
725.788006
 20
574.043414
 30
0.0
 11
725.788006
 21
575.543414
 31
0.0
  0
LINE
  5
5CA
100
AcDbEntity
  8
M01
100
AcDbLine
 10
726.288006
 20
575.543414
 30
0.0
 11
726.288006
 21
576.343414
 31
0.0
  0
LINE
  5
5CB
100
AcDbEntity
  8
M01
100
AcDbLine
 10
735.288006
 20
575.543414
 30
0.0
 11
735.288006
 21
576.343414
 31
0.0
  0
LINE
  5
5CC
100
AcDbEntity
  8
M01
100
AcDbLine
 10
735.288006
 20
576.343414
 30
0.0
 11
726.288006
 21
576.343414
 31
0.0
  0
LINE
  5
5CD
100
AcDbEntity
  8
M01
100
AcDbLine
 10
735.788006
 20
575.543414
 30
0.0
 11
725.788006
 21
575.543414
 31
0.0
  0
LINE
  5
5CE
100
AcDbEntity
  8
M01
100
AcDbLine
 10
726.288006
 20
573.243414
 30
0.0
 11
726.288006
 21
574.043414
 31
0.0
  0
LINE
  5
5CF
100
AcDbEntity
  8
M01
100
AcDbLine
 10
735.288006
 20
573.243414
 30
0.0
 11
735.288006
 21
574.043414
 31
0.0
  0
ARC
  5
5D0
100
AcDbEntity
  8
M01
100
AcDbCircle
 10
727.756917
 20
571.394109
 30
0.0
 40
1.150694
100
AcDbArc
 50
208.592423
 51
331.407577
  0
ARC
  5
5D1
100
AcDbEntity
  8
M01
100
AcDbCircle
 10
730.788006
 20
573.946192
 30
0.0
 40
3.702778
100
AcDbArc
 50
236.92527
 51
303.07473
  0
ARC
  5
5D2
100
AcDbEntity
  8
M01
100
AcDbCircle
 10
733.819095
 20
571.394109
 30
0.0
 40
1.150694
100
AcDbArc
 50
208.592423
 51
331.407577
  0
ARC
  5
5D3
100
AcDbEntity
  8
M01
100
AcDbCircle
 10
727.756917
 20
572.09272
 30
0.0
 40
1.150694
100
AcDbArc
 50
28.592423
 51
151.407577
  0
ARC
  5
5D4
100
AcDbEntity
  8
M01
100
AcDbCircle
 10
730.788006
 20
569.540636
 30
0.0
 40
3.702778
100
AcDbArc
 50
56.92527
 51
123.07473
  0
LINE
  5
5D5
100
AcDbEntity
  8
M01
100
AcDbLine
 10
728.76728
 20
572.643414
 30
0.0
 11
728.76728
 21
570.843414
 31
0.0
  0
LINE
  5
5D6
100
AcDbEntity
  8
M01
100
AcDbLine
 10
726.746554
 20
572.643414
 30
0.0
 11
726.746554
 21
570.843414
 31
0.0
  0
ARC
  5
5D7
100
AcDbEntity
  8
M01
100
AcDbCircle
 10
733.819095
 20
572.09272
 30
0.0
 40
1.150694
100
AcDbArc
 50
28.592423
 51
151.407577
  0
LINE
  5
5D8
100
AcDbEntity
  8
M01
100
AcDbLine
 10
732.808732
 20
572.643414
 30
0.0
 11
732.808732
 21
570.843414
 31
0.0
  0
LINE
  5
5D9
100
AcDbEntity
  8
M01
100
AcDbLine
 10
734.829457
 20
572.643414
 30
0.0
 11
734.829457
 21
570.843414
 31
0.0
  0
LINE
  5
5DA
100
AcDbEntity
  8
M01
100
AcDbLine
 10
735.288006
 20
573.243414
 30
0.0
 11
726.288006
 21
573.243414
 31
0.0
  0
LINE
  5
5DB
100
AcDbEntity
  8
M01
100
AcDbLine
 10
735.288006
 20
570.243414
 30
0.0
 11
726.288006
 21
570.243414
 31
0.0
  0
LINE
  5
5DC
100
AcDbEntity
  8
M01
100
AcDbLine
 10
735.288006
 20
569.443414
 30
0.0
 11
726.288006
 21
569.443414
 31
0.0
  0
LINE
  5
5DD
100
AcDbEntity
  8
M01
100
AcDbLine
 10
729.288006
 20
582.443414
 30
0.0
 11
728.788006
 21
581.943414
 31
0.0
  0
LINE
  5
5DE
100
AcDbEntity
  8
M01
100
AcDbLine
 10
732.788006
 20
581.943414
 30
0.0
 11
732.288006
 21
582.443414
 31
0.0
  0
LINE
  5
5DF
100
AcDbEntity
  8
M01
100
AcDbLine
 10
732.788006
 20
581.943414
 30
0.0
 11
728.788006
 21
581.943414
 31
0.0
  0
LINE
  5
5E0
100
AcDbEntity
  8
M01
100
AcDbLine
 10
729.288006
 20
582.443414
 30
0.0
 11
729.288006
 21
579.343414
 31
0.0
  0
LINE
  5
5E1
100
AcDbEntity
  8
M01
100
AcDbLine
 10
732.288006
 20
582.443414
 30
0.0
 11
732.288006
 21
579.343414
 31
0.0
  0
LINE
  5
5E2
100
AcDbEntity
  8
M01
100
AcDbLine
 10
732.788006
 20
581.943414
 30
0.0
 11
732.788006
 21
579.343414
 31
0.0
  0
LINE
  5
5E3
100
AcDbEntity
  8
M01
100
AcDbLine
 10
728.788006
 20
581.943414
 30
0.0
 11
728.788006
 21
579.343414
 31
0.0
  0
LINE
  5
5E4
100
AcDbEntity
  8
M01
100
AcDbLine
 10
732.288006
 20
582.443414
 30
0.0
 11
729.288006
 21
582.443414
 31
0.0
  0
LINE
  5
5E5
100
AcDbEntity
  8
M01
100
AcDbLine
 10
735.788006
 20
557.443414
 30
0.0
 11
725.788006
 21
557.443414
 31
0.0
  0
LINE
  5
5E6
100
AcDbEntity
  8
M01
100
AcDbLine
 10
726.288006
 20
570.243414
 30
0.0
 11
726.288006
 21
569.443414
 31
0.0
  0
LINE
  5
5E7
100
AcDbEntity
  8
M01
100
AcDbLine
 10
735.288006
 20
570.243414
 30
0.0
 11
735.288006
 21
569.443414
 31
0.0
  0
LINE
  5
5E8
100
AcDbEntity
  8
CENTRE
100
AcDbLine
 10
730.788006
 20
588.604303
 30
0.0
 11
730.788006
 21
525.010872
 31
0.0
  0
LINE
  5
5E9
100
AcDbEntity
  8
M04
100
AcDbLine
 10
763.788006
 20
597.443414
 30
0.0
 11
773.788006
 21
607.443414
 31
0.0
  0
LINE
  5
5EA
100
AcDbEntity
  8
M04
100
AcDbLine
 10
773.788006
 20
618.114892
 30
0.0
 11
773.788006
 21
607.443414
 31
0.0
  0
LINE
  5
5EB
100
AcDbEntity
  8
M04
100
AcDbLine
 10
717.788006
 20
597.443414
 30
0.0
 11
791.788006
 21
597.443414
 31
0.0
  0
LINE
  5
5EC
102
{ACAD_REACTORS
330
4F
102
}
100
AcDbEntity
  8
M01
100
AcDbLine
 10
763.788006
 20
381.943414
 30
0.0
 11
774.788006
 21
381.943414
 31
0.0
  0
LINE
  5
5ED
100
AcDbEntity
  8
M01
100
AcDbLine
 10
763.788006
 20
389.943414
 30
0.0
 11
774.788006
 21
389.943414
 31
0.0
  0
LINE
  5
5EE
100
AcDbEntity
  8
M04
100
AcDbLine
 10
702.478605
 20
531.943414
 30
0.0
 11
704.788006
 21
535.943414
 31
0.0
  0
LINE
  5
5EF
100
AcDbEntity
  8
M04
100
AcDbLine
 10
704.788006
 20
527.943414
 30
0.0
 11
702.478605
 21
531.943414
 31
0.0
  0
LINE
  5
5F0
100
AcDbEntity
  8
M04
100
AcDbLine
 10
707.788006
 20
527.943414
 30
0.0
 11
704.788006
 21
527.943414
 31
0.0
  0
LINE
  5
5F1
100
AcDbEntity
  8
M04
100
AcDbLine
 10
704.788006
 20
535.943414
 30
0.0
 11
704.788006
 21
527.943414
 31
0.0
  0
LINE
  5
5F2
100
AcDbEntity
  8
M04
100
AcDbLine
 10
707.788006
 20
535.943414
 30
0.0
 11
704.788006
 21
535.943414
 31
0.0
  0
ARC
  5
5F3
100
AcDbEntity
  8
M05
100
AcDbCircle
 10
717.12571
 20
531.943414
 30
0.0
 40
10.837705
100
AcDbArc
 50
161.372238
 51
198.627762
  0
LINE
  5
5F4
100
AcDbEntity
  8
M05
100
AcDbLine
 10
707.788006
 20
527.943414
 30
0.0
 11
706.855752
 21
528.481651
 31
0.0
  0
LINE
  5
5F5
100
AcDbEntity
  8
M05
100
AcDbLine
 10
706.855752
 20
535.405177
 30
0.0
 11
706.855752
 21
528.481651
 31
0.0
  0
LINE
  5
5F6
100
AcDbEntity
  8
M05
100
AcDbLine
 10
707.788006
 20
535.943414
 30
0.0
 11
706.855752
 21
535.405177
 31
0.0
  0
LINE
  5
5F7
100
AcDbEntity
  8
M05
100
AcDbLine
 10
707.788006
 20
535.943414
 30
0.0
 11
707.788006
 21
527.943414
 31
0.0
  0
LINE
  5
5F8
100
AcDbEntity
  8
M04
100
AcDbLine
 10
717.788006
 20
527.943414
 30
0.0
 11
717.788006
 21
395.443414
 31
0.0
  0
LINE
  5
5F9
100
AcDbEntity
  8
M04
100
AcDbLine
 10
717.288006
 20
527.943414
 30
0.0
 11
717.788006
 21
527.443414
 31
0.0
  0
LINE
  5
5FA
100
AcDbEntity
  8
M04
100
AcDbLine
 10
717.288006
 20
535.943414
 30
0.0
 11
717.788006
 21
536.443414
 31
0.0
  0
ARC
  5
5FB
100
AcDbEntity
  8
M05
100
AcDbCircle
 10
716.654672
 20
531.943414
 30
0.0
 40
13.633333
100
AcDbArc
 50
342.938469
 51
17.061531
  0
LINE
  5
5FC
100
AcDbEntity
  8
M05
100
AcDbLine
 10
729.688006
 20
535.943414
 30
0.0
 11
729.688006
 21
527.943414
 31
0.0
  0
LINE
  5
5FD
100
AcDbEntity
  8
M05
100
AcDbLine
 10
707.788006
 20
527.943414
 30
0.0
 11
729.688006
 21
527.943414
 31
0.0
  0
LINE
  5
5FE
100
AcDbEntity
  8
M05
100
AcDbLine
 10
707.788006
 20
535.943414
 30
0.0
 11
729.688006
 21
535.943414
 31
0.0
  0
LINE
  5
5FF
102
{ACAD_REACTORS
330
4F
102
}
100
AcDbEntity
  8
CENTRE
100
AcDbLine
 10
701.963083
 20
385.943414
 30
0.0
 11
824.680046
 21
385.943414
 31
0.0
  0
LINE
  5
600
100
AcDbEntity
  8
CENTRE
100
AcDbLine
 10
697.441888
 20
531.943414
 30
0.0
 11
735.531587
 21
531.943414
 31
0.0
  0
LINE
  5
601
100
AcDbEntity
  8
M04
100
AcDbLine
 10
791.788006
 20
618.114892
 30
0.0
 11
791.788006
 21
476.443414
 31
0.0
  0
LINE
  5
602
100
AcDbEntity
  8
M04
100
AcDbLine
 10
717.788006
 20
260.443414
 30
0.0
 11
791.788006
 21
260.443414
 31
0.0
  0
LINE
  5
603
100
AcDbEntity
  8
M04
100
AcDbLine
 10
717.788006
 20
597.443414
 30
0.0
 11
717.788006
 21
535.943414
 31
0.0
  0
LINE
  5
604
102
{ACAD_REACTORS
330
4C
102
}
100
AcDbEntity
  8
M02
100
AcDbLine
 10
724.788006
 20
525.443414
 30
0.0
 11
721.788006
 21
525.443414
 31
0.0
  0
LINE
  5
605
100
AcDbEntity
  8
M01
100
AcDbLine
 10
724.788006
 20
525.443414
 30
0.0
 11
730.788006
 21
525.443414
 31
0.0
  0
LINE
  5
606
100
AcDbEntity
  8
M01
100
AcDbLine
 10
730.788006
 20
537.443414
 30
0.0
 11
730.788006
 21
525.443414
 31
0.0
  0
LINE
  5
607
102
{ACAD_REACTORS
330
4C
102
}
100
AcDbEntity
  8
M02
100
AcDbLine
 10
784.788006
 20
535.443414
 30
0.0
 11
787.788006
 21
535.443414
 31
0.0
  0
LINE
  5
608
100
AcDbEntity
  8
M02
100
AcDbLine
 10
724.788006
 20
269.443414
 30
0.0
 11
721.788006
 21
269.443414
 31
0.0
  0
LINE
  5
609
102
{ACAD_REACTORS
330
4C
102
}
100
AcDbEntity
  8
M02
100
AcDbLine
 10
787.788006
 20
535.443414
 30
0.0
 11
787.788006
 21
487.443414
 31
0.0
  0
LINE
  5
60A
102
{ACAD_REACTORS
330
4C
102
}
100
AcDbEntity
  8
M02
100
AcDbLine
 10
721.788006
 20
527.943414
 30
0.0
 11
721.788006
 21
395.443414
 31
0.0
  0
LINE
  5
60B
102
{ACAD_REACTORS
330
4F
102
}
100
AcDbEntity
  8
M01
100
AcDbLine
 10
784.788006
 20
269.443414
 30
0.0
 11
782.788006
 21
267.443414
 31
0.0
  0
LINE
  5
60C
100
AcDbEntity
  8
M01
100
AcDbLine
 10
782.788006
 20
537.443414
 30
0.0
 11
784.788006
 21
535.443414
 31
0.0
  0
LINE
  5
60D
100
AcDbEntity
  8
M01
100
AcDbLine
 10
725.788006
 20
536.443414
 30
0.0
 11
726.788006
 21
537.443414
 31
0.0
  0
LINE
  5
60E
102
{ACAD_REACTORS
330
4F
102
}
100
AcDbEntity
  8
M01
100
AcDbLine
 10
726.788006
 20
267.443414
 30
0.0
 11
724.788006
 21
269.443414
 31
0.0
  0
LINE
  5
60F
102
{ACAD_REACTORS
330
4C
102
}
100
AcDbEntity
  8
M01
100
AcDbLine
 10
784.788006
 20
535.443414
 30
0.0
 11
784.788006
 21
414.943414
 31
0.0
  0
LINE
  5
610
102
{ACAD_REACTORS
330
4F
102
}
100
AcDbEntity
  8
M01
100
AcDbLine
 10
726.788006
 20
267.443414
 30
0.0
 11
782.788006
 21
267.443414
 31
0.0
  0
LINE
  5
611
100
AcDbEntity
  8
M01
100
AcDbLine
 10
726.788006
 20
537.443414
 30
0.0
 11
782.788006
 21
537.443414
 31
0.0
  0
LINE
  5
612
102
{ACAD_REACTORS
330
4C
102
}
100
AcDbEntity
  8
M01
100
AcDbLine
 10
724.788006
 20
527.943414
 30
0.0
 11
724.788006
 21
395.443414
 31
0.0
  0
ENDSEC
  0
SECTION
  2
OBJECTS
  0
DICTIONARY
  5
1C
100
AcDbDictionary
  3
ACAD_GROUP
350
1A
  3
ACAD_MLINESTYLE
350
1B
  0
DICTIONARY
  5
3
100
AcDbDictionary
280
     1
  3
ACAD_SORTENTS
360
4
  0
DICTIONARY
  5
1A
102
{ACAD_REACTORS
330
1C
102
}
100
AcDbDictionary
  0
DICTIONARY
  5
1B
102
{ACAD_REACTORS
330
1C
102
}
100
AcDbDictionary
  3
STANDARD
350
1E
  0
SORTENTSTABLE
  5
4
102
{ACAD_REACTORS
330
3
102
}
100
AcDbSortentsTable
330
2
  0
MLINESTYLE
  5
1E
102
{ACAD_REACTORS
330
1B
102
}
100
AcDbMlineStyle
  2
STANDARD
 70
     0
  3

 62
   256
 51
90.0
 52
90.0
 71
     2
 49
0.5
 62
   256
  6
BYLAYER
 49
-0.5
 62
   256
  6
BYLAYER
  0
ENDSEC
  0
EOF
