  0
SECTION
  2
HEADER
  9
$ACADVER
  1
AC1015
  9
$ACADMAINTVER
 70
    13
  9
$DWGCODEPAGE
  3
ANSI_1252
  9
$INSBASE
 10
0.0
 20
0.0
 30
0.0
  9
$EXTMIN
 10
384.6796754573933
 20
313.2832817417606
 30
-0.00000000031139
  9
$EXTMAX
 10
840.2428765078575
 20
549.2113968820908
 30
0.0000000009863029
  9
$LIMMIN
 10
0.0
 20
0.0
  9
$LIMMAX
 10
1189.0
 20
841.0
  9
$ORTHOMODE
 70
     0
  9
$REGENMODE
 70
     1
  9
$FILLMODE
 70
     1
  9
$QTEXTMODE
 70
     0
  9
$MIRRTEXT
 70
     0
  9
$LTSCALE
 40
8.0
  9
$ATTMODE
 70
     1
  9
$TEXTSIZE
 40
2.0
  9
$TRACEWID
 40
10.0
  9
$TEXTSTYLE
  7
STANDARD
  9
$CLAYER
  8
DIMS
  9
$CELTYPE
  6
BYLAYER
  9
$CECOLOR
 62
   256
  9
$CELTSCALE
 40
1.0
  9
$DISPSILH
 70
     0
  9
$DIMSCALE
 40
1.0
  9
$DIMASZ
 40
3.0
  9
$DIMEXO
 40
1.0
  9
$DIMDLI
 40
10.0
  9
$DIMRND
 40
0.01
  9
$DIMDLE
 40
1.25
  9
$DIMEXE
 40
2.5
  9
$DIMTP
 40
0.05
  9
$DIMTM
 40
0.0
  9
$DIMTXT
 40
3.0
  9
$DIMCEN
 40
-1.7
  9
$DIMTSZ
 40
0.0
  9
$DIMTOL
 70
     0
  9
$DIMLIM
 70
     0
  9
$DIMTIH
 70
     0
  9
$DIMTOH
 70
     0
  9
$DIMSE1
 70
     0
  9
$DIMSE2
 70
     0
  9
$DIMTAD
 70
     3
  9
$DIMZIN
 70
     1
  9
$DIMBLK
  1

  9
$DIMASO
 70
     1
  9
$DIMSHO
 70
     0
  9
$DIMPOST
  1

  9
$DIMAPOST
  1

  9
$DIMALT
 70
     0
  9
$DIMALTD
 70
     2
  9
$DIMALTF
 40
0.039
  9
$DIMLFAC
 40
1.0
  9
$DIMTOFL
 70
     0
  9
$DIMTVP
 40
1.5
  9
$DIMTIX
 70
     0
  9
$DIMSOXD
 70
     0
  9
$DIMSAH
 70
     0
  9
$DIMBLK1
  1

  9
$DIMBLK2
  1

  9
$DIMSTYLE
  2
DIM1
  9
$DIMCLRD
 70
     4
  9
$DIMCLRE
 70
     4
  9
$DIMCLRT
 70
     2
  9
$DIMTFAC
 40
0.7
  9
$DIMGAP
 40
1.5
  9
$DIMJUST
 70
     0
  9
$DIMSD1
 70
     0
  9
$DIMSD2
 70
     0
  9
$DIMTOLJ
 70
     1
  9
$DIMTZIN
 70
     1
  9
$DIMALTZ
 70
     1
  9
$DIMALTTZ
 70
     1
  9
$DIMUPT
 70
     0
  9
$DIMDEC
 70
     2
  9
$DIMTDEC
 70
     2
  9
$DIMALTU
 70
     2
  9
$DIMALTTD
 70
     2
  9
$DIMTXSTY
  7
STANDARD
  9
$DIMAUNIT
 70
     0
  9
$DIMADEC
 70
     0
  9
$DIMALTRND
 40
0.0
  9
$DIMAZIN
 70
     0
  9
$DIMDSEP
 70
    46
  9
$DIMATFIT
 70
     0
  9
$DIMFRAC
 70
     0
  9
$DIMLDRBLK
  1

  9
$DIMLUNIT
 70
     2
  9
$DIMLWD
 70
    -2
  9
$DIMLWE
 70
    -2
  9
$DIMTMOVE
 70
     0
  9
$LUNITS
 70
     2
  9
$LUPREC
 70
     2
  9
$SKETCHINC
 40
1.0
  9
$FILLETRAD
 40
0.0
  9
$AUNITS
 70
     0
  9
$AUPREC
 70
     3
  9
$MENU
  1
ACAD
  9
$ELEVATION
 40
0.0
  9
$PELEVATION
 40
0.0
  9
$THICKNESS
 40
0.0
  9
$LIMCHECK
 70
     0
  9
$CHAMFERA
 40
2.0
  9
$CHAMFERB
 40
2.0
  9
$CHAMFERC
 40
0.0
  9
$CHAMFERD
 40
0.0
  9
$SKPOLY
 70
     1
  9
$TDCREATE
 40
2449993.725698611
  9
$TDUCREATE
 40
2449993.725698611
  9
$TDUPDATE
 40
2455245.575758530
  9
$TDUUPDATE
 40
2455245.575758530
  9
$TDINDWG
 40
1.0753748032
  9
$TDUSRTIMER
 40
1.0753748032
  9
$USRTIMER
 70
     1
  9
$ANGBASE
 50
0.0
  9
$ANGDIR
 70
     0
  9
$PDMODE
 70
     3
  9
$PDSIZE
 40
0.0
  9
$PLINEWID
 40
0.0
  9
$SPLFRAME
 70
     0
  9
$SPLINETYPE
 70
     6
  9
$SPLINESEGS
 70
     6
  9
$HANDSEED
  5
7BA0
  9
$SURFTAB1
 70
    12
  9
$SURFTAB2
 70
    12
  9
$SURFTYPE
 70
     6
  9
$SURFU
 70
    12
  9
$SURFV
 70
    12
  9
$UCSBASE
  2

  9
$UCSNAME
  2

  9
$UCSORG
 10
578.4833765754188
 20
409.2077421121927
 30
0.0
  9
$UCSXDIR
 10
1.0
 20
0.0
 30
0.0
  9
$UCSYDIR
 10
0.0
 20
1.0
 30
0.0
  9
$UCSORTHOREF
  2

  9
$UCSORTHOVIEW
 70
     0
  9
$UCSORGTOP
 10
0.0
 20
0.0
 30
0.0
  9
$UCSORGBOTTOM
 10
0.0
 20
0.0
 30
0.0
  9
$UCSORGLEFT
 10
0.0
 20
0.0
 30
0.0
  9
$UCSORGRIGHT
 10
0.0
 20
0.0
 30
0.0
  9
$UCSORGFRONT
 10
0.0
 20
0.0
 30
0.0
  9
$UCSORGBACK
 10
0.0
 20
0.0
 30
0.0
  9
$PUCSBASE
  2

  9
$PUCSNAME
  2

  9
$PUCSORG
 10
0.0
 20
0.0
 30
0.0
  9
$PUCSXDIR
 10
1.0
 20
0.0
 30
0.0
  9
$PUCSYDIR
 10
0.0
 20
1.0
 30
0.0
  9
$PUCSORTHOREF
  2

  9
$PUCSORTHOVIEW
 70
     0
  9
$PUCSORGTOP
 10
0.0
 20
0.0
 30
0.0
  9
$PUCSORGBOTTOM
 10
0.0
 20
0.0
 30
0.0
  9
$PUCSORGLEFT
 10
0.0
 20
0.0
 30
0.0
  9
$PUCSORGRIGHT
 10
0.0
 20
0.0
 30
0.0
  9
$PUCSORGFRONT
 10
0.0
 20
0.0
 30
0.0
  9
$PUCSORGBACK
 10
0.0
 20
0.0
 30
0.0
  9
$USERI1
 70
     0
  9
$USERI2
 70
     0
  9
$USERI3
 70
     0
  9
$USERI4
 70
     0
  9
$USERI5
 70
     0
  9
$USERR1
 40
0.0
  9
$USERR2
 40
0.0
  9
$USERR3
 40
0.0
  9
$USERR4
 40
0.0
  9
$USERR5
 40
0.0
  9
$WORLDVIEW
 70
     0
  9
$SHADEDGE
 70
     3
  9
$SHADEDIF
 70
    70
  9
$TILEMODE
 70
     1
  9
$MAXACTVP
 70
    16
  9
$PINSBASE
 10
0.0
 20
0.0
 30
0.0
  9
$PLIMCHECK
 70
     0
  9
$PEXTMIN
 10
1.000000000000000E+20
 20
1.000000000000000E+20
 30
1.000000000000000E+20
  9
$PEXTMAX
 10
-1.000000000000000E+20
 20
-1.000000000000000E+20
 30
-1.000000000000000E+20
  9
$PLIMMIN
 10
0.0
 20
0.0
  9
$PLIMMAX
 10
12.0
 20
9.0
  9
$UNITMODE
 70
     0
  9
$VISRETAIN
 70
     0
  9
$PLINEGEN
 70
     0
  9
$PSLTSCALE
 70
     0
  9
$TREEDEPTH
 70
  3020
  9
$CMLSTYLE
  2
STANDARD
  9
$CMLJUST
 70
     0
  9
$CMLSCALE
 40
1.0
  9
$PROXYGRAPHICS
 70
     1
  9
$MEASUREMENT
 70
     0
  9
$CELWEIGHT
370
    -1
  9
$ENDCAPS
280
     0
  9
$JOINSTYLE
280
     0
  9
$LWDISPLAY
290
     0
  9
$INSUNITS
 70
     0
  9
$HYPERLINKBASE
  1

  9
$STYLESHEET
  1

  9
$XEDIT
290
     1
  9
$CEPSNTYPE
380
     0
  9
$PSTYLEMODE
290
     1
  9
$FINGERPRINTGUID
  2
{8EE8C550-4F6D-11DA-A1A5-00055D4BFF93}
  9
$VERSIONGUID
  2
{FCAA245D-A3E1-45FA-A1BD-F6D309396A1D}
  9
$EXTNAMES
290
     1
  9
$PSVPSCALE
 40
0.0
  9
$OLESTARTUP
290
     0
  0
ENDSEC
  0
SECTION
  2
CLASSES
  0
CLASS
  1
DICTIONARYVAR
  2
AcDbDictionaryVar
  3
AutoCAD 2000
 90
        0
280
     0
281
     0
  0
CLASS
  1
LWPOLYLINE
  2
AcDbPolyline
  3
AutoCAD 2000
 90
    32768
280
     0
281
     1
  0
CLASS
  1
HATCH
  2
AcDbHatch
  3
AutoCAD 2000
 90
    32768
280
     0
281
     1
  0
CLASS
  1
SORTENTSTABLE
  2
AcDbSortentsTable
  3
AutoCAD 2000
 90
        0
280
     0
281
     0
  0
CLASS
  1
WIPEOUTVARIABLES
  2
AcDbWipeoutVariables
  3
WIPEOUT
 90
        0
280
     0
281
     0
  0
CLASS
  1
WIPEOUT
  2
AcDbWipeout
  3
WIPEOUT
 90
      127
280
     0
281
     1
  0
CLASS
  1
ACDBDICTIONARYWDFLT
  2
AcDbDictionaryWithDefault
  3
AutoCAD 2000
 90
        0
280
     0
281
     0
  0
CLASS
  1
ACDBPLACEHOLDER
  2
AcDbPlaceHolder
  3
AutoCAD 2000
 90
        0
280
     0
281
     0
  0
CLASS
  1
LAYOUT
  2
AcDbLayout
  3
AutoCAD 2000
 90
        0
280
     0
281
     0
  0
ENDSEC
  0
SECTION
  2
TABLES
  0
TABLE
  2
VPORT
  5
8
330
0
100
AcDbSymbolTable
 70
     4
  0
VPORT
  5
7B9F
330
8
100
AcDbSymbolTableRecord
100
AcDbViewportTableRecord
  2
*Active
 70
     0
 10
0.0
 20
0.0
 11
1.0
 21
1.0
 12
596.1479548147422
 22
418.4682245482195
 13
0.0
 23
0.0
 14
10.0
 24
10.0
 15
0.0
 25
0.0
 16
0.0
 26
0.0
 36
1.0
 17
16.3133211678832
 27
12.7791147637061
 37
0.2229487474867098
 40
237.913484973208
 41
2.301966292134831
 42
50.0
 43
0.0
 44
0.0
 50
0.0
 51
0.0
 71
     0
 72
  2000
 73
     1
 74
     2
 75
     0
 76
     0
 77
     0
 78
     1
281
     0
 65
     1
110
578.4833765754188
120
409.2077421121927
130
0.0
111
1.0
121
0.0
131
0.0
112
0.0
122
1.0
132
0.0
 79
     0
146
0.0
  0
ENDTAB
  0
TABLE
  2
LTYPE
  5
5
330
0
100
AcDbSymbolTable
 70
     3
  0
LTYPE
  5
11
330
5
100
AcDbSymbolTableRecord
100
AcDbLinetypeTableRecord
  2
BYBLOCK
 70
     0
  3

 72
    65
 73
     0
 40
0.0
  0
LTYPE
  5
12
330
5
100
AcDbSymbolTableRecord
100
AcDbLinetypeTableRecord
  2
BYLAYER
 70
     0
  3

 72
    65
 73
     0
 40
0.0
  0
LTYPE
  5
13
330
5
100
AcDbSymbolTableRecord
100
AcDbLinetypeTableRecord
  2
CONTINUOUS
 70
     0
  3
Solid line
 72
    65
 73
     0
 40
0.0
  0
LTYPE
  5
425C
330
5
100
AcDbSymbolTableRecord
100
AcDbLinetypeTableRecord
  2
CENTER
 70
     0
  3
Center ____ _ ____ _ ____ _ ____ _ ____ _ ____
 72
    65
 73
     4
 40
2.0
 49
1.25
 74
     0
 49
-0.25
 74
     0
 49
0.25
 74
     0
 49
-0.25
 74
     0
  0
LTYPE
  5
42A4
330
5
100
AcDbSymbolTableRecord
100
AcDbLinetypeTableRecord
  2
HIDDEN
 70
     0
  3
Hidden __ __ __ __ __ __ __ __ __ __ __ __ __ _
 72
    65
 73
     2
 40
0.375
 49
0.25
 74
     0
 49
-0.125
 74
     0
  0
ENDTAB
  0
TABLE
  2
LAYER
  5
2
330
0
100
AcDbSymbolTable
 70
    10
  0
LAYER
  5
E
330
2
100
AcDbSymbolTableRecord
100
AcDbLayerTableRecord
  2
0
 70
     0
 62
     7
  6
CONTINUOUS
370
    -3
390
7AFB
  0
LAYER
  5
425D
330
2
100
AcDbSymbolTableRecord
100
AcDbLayerTableRecord
  2
CENTRE
 70
     0
 62
     3
  6
CENTER
370
    -3
390
7AFB
  0
LAYER
  5
4261
330
2
100
AcDbSymbolTableRecord
100
AcDbLayerTableRecord
  2
M01
 70
     0
 62
     1
  6
CONTINUOUS
370
    -3
390
7AFB
  0
LAYER
  5
42A5
330
2
100
AcDbSymbolTableRecord
100
AcDbLayerTableRecord
  2
M03
 70
     0
 62
     2
  6
HIDDEN
370
    -3
390
7AFB
  0
LAYER
  5
42B0
330
2
100
AcDbSymbolTableRecord
100
AcDbLayerTableRecord
  2
M04
 70
     0
 62
     7
  6
CONTINUOUS
370
    -3
390
7AFB
  0
LAYER
  5
432E
330
2
100
AcDbSymbolTableRecord
100
AcDbLayerTableRecord
  2
DIMS
 70
     0
 62
     4
  6
CONTINUOUS
370
    -3
390
7AFB
  0
LAYER
  5
432F
330
2
100
AcDbSymbolTableRecord
100
AcDbLayerTableRecord
  2
TEXT
 70
     0
 62
     2
  6
CONTINUOUS
370
    -3
390
7AFB
  0
LAYER
  5
4570
330
2
100
AcDbSymbolTableRecord
100
AcDbLayerTableRecord
  2
DEFPOINTS
 70
     0
 62
     7
  6
CONTINUOUS
290
     0
370
    -3
390
7AFB
  0
LAYER
  5
78B2
330
2
100
AcDbSymbolTableRecord
100
AcDbLayerTableRecord
  2
1
 70
     0
 62
     7
  6
CONTINUOUS
370
    -3
390
7AFB
  0
LAYER
  5
78B3
330
2
100
AcDbSymbolTableRecord
100
AcDbLayerTableRecord
  2
6
 70
     0
 62
     7
  6
CONTINUOUS
370
    -3
390
7AFB
  0
ENDTAB
  0
TABLE
  2
STYLE
  5
3
330
0
100
AcDbSymbolTable
 70
     1
  0
STYLE
  5
F
330
3
100
AcDbSymbolTableRecord
100
AcDbTextStyleTableRecord
  2
STANDARD
 70
     0
 40
0.0
 41
1.0
 50
0.0
 71
     0
 42
2.0
  3
SIMPLEX
  4

  0
ENDTAB
  0
TABLE
  2
VIEW
  5
6
330
0
100
AcDbSymbolTable
 70
     0
  0
ENDTAB
  0
TABLE
  2
UCS
  5
7
330
0
100
AcDbSymbolTable
 70
     0
  0
ENDTAB
  0
TABLE
  2
APPID
  5
9
330
0
100
AcDbSymbolTable
 70
     4
  0
APPID
  5
10
330
9
100
AcDbSymbolTableRecord
100
AcDbRegAppTableRecord
  2
ACAD
 70
     0
  0
APPID
  5
114A
330
9
100
AcDbSymbolTableRecord
100
AcDbRegAppTableRecord
  2
CONTENTTABDATA
 70
     0
  0
APPID
  5
114B
330
9
100
AcDbSymbolTableRecord
100
AcDbRegAppTableRecord
  2
CONTENTCURRENTTAB
 70
     0
  0
APPID
  5
424D
330
9
100
AcDbSymbolTableRecord
100
AcDbRegAppTableRecord
  2
RAK
 70
     0
  0
ENDTAB
  0
TABLE
  2
DIMSTYLE
  5
A
330
0
100
AcDbSymbolTable
 70
     9
100
AcDbDimStyleTable
 71
     0
  0
DIMSTYLE
105
25
330
A
100
AcDbSymbolTableRecord
100
AcDbDimStyleTableRecord
  2
AUDIT_I_100217134745-0
 70
     0
 41
3.0
 42
1.0
 43
10.0
 44
2.5
 45
0.01
 46
1.25
 73
     0
 74
     0
 77
     1
 78
     1
140
3.0
141
-0.07
143
0.039
145
1.5
147
0.0
176
     4
177
     4
178
     2
271
     2
272
     2
279
     2
284
     1
285
     1
286
     1
340
F
  0
DIMSTYLE
105
1011
102
{ACAD_REACTORS
330
7727
330
7733
330
7740
330
774D
330
7785
330
779D
330
79DE
330
79EC
102
}
330
A
100
AcDbSymbolTableRecord
100
AcDbDimStyleTableRecord
  2
DIM1
 70
     0
 41
3.0
 42
1.0
 43
10.0
 44
2.5
 45
0.01
 46
1.25
 47
0.05
 73
     0
 74
     0
 77
     3
 78
     1
140
3.0
141
-1.7
143
0.039
144
0.2
145
1.5
146
0.7
147
1.5
176
     4
177
     4
178
     2
271
     2
272
     2
284
     1
285
     1
286
     1
289
     0
340
F
  0
DIMSTYLE
105
101D
330
A
100
AcDbSymbolTableRecord
100
AcDbDimStyleTableRecord
  2
DIM1$2
 70
     0
 41
3.0
 42
1.0
 43
10.0
 44
2.5
 45
0.01
 46
1.25
 77
     1
 78
     1
140
3.0
141
-1.7
143
0.039
145
1.5
147
0.0
176
     4
177
     4
178
     2
179
     2
271
     2
272
     2
279
     2
284
     1
285
     1
286
     1
340
F
  0
DIMSTYLE
105
1025
330
A
100
AcDbSymbolTableRecord
100
AcDbDimStyleTableRecord
  2
DIM1$3
 70
     0
 41
3.0
 42
1.0
 43
10.0
 44
2.5
 45
0.01
 46
1.25
 78
     1
140
3.0
141
-1.7
143
0.039
147
0.0
172
     1
176
     4
177
     4
178
     2
271
     2
272
     2
284
     1
285
     1
286
     1
288
     1
289
     2
340
F
  0
DIMSTYLE
105
1061
330
A
100
AcDbSymbolTableRecord
100
AcDbDimStyleTableRecord
  2
DIM1$7
 70
     0
 41
3.0
 42
1.0
 43
10.0
 44
2.5
 45
0.01
 46
1.25
 73
     0
 74
     0
 78
     1
140
3.0
141
-1.7
143
0.039
147
1.5
176
     4
177
     4
178
     2
271
     2
272
     2
284
     1
285
     1
286
     1
289
     0
340
F
  0
DIMSTYLE
105
10B4
330
A
100
AcDbSymbolTableRecord
100
AcDbDimStyleTableRecord
  2
DIM1$4
 70
     0
 41
3.0
 42
1.0
 43
10.0
 44
2.5
 45
0.01
 46
1.25
 78
     1
140
3.0
141
-1.7
143
0.039
147
1.5
172
     1
176
     4
177
     4
178
     2
271
     2
272
     2
284
     1
285
     1
286
     1
288
     1
289
     0
340
F
  0
DIMSTYLE
105
10F8
330
A
100
AcDbSymbolTableRecord
100
AcDbDimStyleTableRecord
  2
DIM1$6
 70
     0
 41
3.0
 42
1.0
 43
10.0
 44
2.5
 45
0.01
 46
1.25
 73
     0
 74
     0
 78
     1
140
3.0
141
-1.7
143
0.039
147
1.5
176
     4
177
     4
178
     2
271
     2
272
     2
284
     1
285
     1
286
     1
289
     0
340
F
  0
DIMSTYLE
105
1EEC
330
A
100
AcDbSymbolTableRecord
100
AcDbDimStyleTableRecord
  2
TWOPLACES
 70
     0
 41
5.0
 42
2.5
 43
10.0
 44
2.5
 45
0.01
 73
     0
 74
     0
 77
     1
140
3.5
141
3.0
143
0.039
144
0.5
146
0.75
147
1.5
271
     2
340
F
  0
DIMSTYLE
105
21CF
330
A
100
AcDbSymbolTableRecord
100
AcDbDimStyleTableRecord
  2
STANDARD
 70
     0
340
F
  0
ENDTAB
  0
TABLE
  2
BLOCK_RECORD
  5
1
330
0
100
AcDbSymbolTable
 70
     9
  0
BLOCK_RECORD
  5
17
102
{ACAD_XDICTIONARY
360
20BE
102
}
330
1
100
AcDbSymbolTableRecord
100
AcDbBlockTableRecord
  2
*MODEL_SPACE
340
7AFE
  0
BLOCK_RECORD
  5
14
330
1
100
AcDbSymbolTableRecord
100
AcDbBlockTableRecord
  2
*PAPER_SPACE
340
7AFF
  0
BLOCK_RECORD
  5
771B
330
1
100
AcDbSymbolTableRecord
100
AcDbBlockTableRecord
  2
*D0
340
0
  0
BLOCK_RECORD
  5
7728
330
1
100
AcDbSymbolTableRecord
100
AcDbBlockTableRecord
  2
*D1
340
0
  0
BLOCK_RECORD
  5
7734
330
1
100
AcDbSymbolTableRecord
100
AcDbBlockTableRecord
  2
*D2
340
0
  0
BLOCK_RECORD
  5
7741
330
1
100
AcDbSymbolTableRecord
100
AcDbBlockTableRecord
  2
*D3
340
0
  0
BLOCK_RECORD
  5
7779
330
1
100
AcDbSymbolTableRecord
100
AcDbBlockTableRecord
  2
*D4
340
0
  0
BLOCK_RECORD
  5
7791
330
1
100
AcDbSymbolTableRecord
100
AcDbBlockTableRecord
  2
*D5
340
0
  0
BLOCK_RECORD
  5
78B4
330
1
100
AcDbSymbolTableRecord
100
AcDbBlockTableRecord
  2
A$C078E43EB
340
0
  0
BLOCK_RECORD
  5
79D2
330
1
100
AcDbSymbolTableRecord
100
AcDbBlockTableRecord
  2
*D7
340
0
  0
BLOCK_RECORD
  5
79DF
330
1
100
AcDbSymbolTableRecord
100
AcDbBlockTableRecord
  2
*D8
340
0
  0
ENDTAB
  0
ENDSEC
  0
SECTION
  2
BLOCKS
  0
BLOCK
  5
31
330
17
100
AcDbEntity
  8
0
100
AcDbBlockBegin
  2
*MODEL_SPACE
 70
     0
 10
0.0
 20
0.0
 30
0.0
  3
*MODEL_SPACE
  1

  0
ENDBLK
  5
32
330
17
100
AcDbEntity
  8
0
100
AcDbBlockEnd
  0
BLOCK
  5
2F
330
14
100
AcDbEntity
 67
     1
  8
0
100
AcDbBlockBegin
  2
*PAPER_SPACE
 70
     0
 10
0.0
 20
0.0
 30
0.0
  3
*PAPER_SPACE
  1

  0
ENDBLK
  5
30
330
14
100
AcDbEntity
 67
     1
  8
0
100
AcDbBlockEnd
  0
BLOCK
  5
774E
330
771B
100
AcDbEntity
  8
0
100
AcDbBlockBegin
  2
*D0
 70
     1
 10
0.0
 20
0.0
 30
0.0
  3
*D0
  1

  0
LINE
  5
7B56
330
771B
100
AcDbEntity
  8
DIMS
 62
     4
370
    -2
100
AcDbLine
 10
560.483376575419
 20
387.3650203122227
 30
0.0
 11
560.483376575419
 21
362.7875996547109
 31
0.0
  0
LINE
  5
7B57
330
771B
100
AcDbEntity
  8
DIMS
 62
     4
370
    -2
100
AcDbLine
 10
575.483376575419
 20
396.2077421121927
 30
0.0
 11
575.483376575419
 21
362.7875996547109
 31
0.0
  0
LINE
  5
7B58
330
771B
100
AcDbEntity
  8
DIMS
 62
     4
370
    -2
100
AcDbLine
 10
563.483376575419
 20
365.2875996547109
 30
0.0
 11
572.483376575419
 21
365.2875996547109
 31
0.0
  0
SOLID
  5
7B59
330
771B
100
AcDbEntity
  8
DIMS
 62
     4
100
AcDbTrace
 10
563.483376575419
 20
365.7875996547109
 30
0.0
 11
563.483376575419
 21
364.7875996547109
 31
0.0
 12
560.483376575419
 22
365.2875996547109
 32
0.0
 13
560.483376575419
 23
365.2875996547109
 33
0.0
  0
SOLID
  5
7B5A
330
771B
100
AcDbEntity
  8
DIMS
 62
     4
100
AcDbTrace
 10
572.483376575419
 20
365.7875996547109
 30
0.0
 11
572.483376575419
 21
364.7875996547109
 31
0.0
 12
575.483376575419
 22
365.2875996547109
 32
0.0
 13
575.483376575419
 23
365.2875996547109
 33
0.0
  0
MTEXT
  5
7B5B
330
771B
100
AcDbEntity
  8
DIMS
 62
     2
100
AcDbMText
 10
567.983376575419
 20
368.2875996547109
 30
0.0
 40
3.0
 41
0.0
 71
     5
 72
     1
  1
\A1;15.0
 73
     1
 44
1.0
  0
POINT
  5
7B5C
330
771B
100
AcDbEntity
  8
DEFPOINTS
 62
     0
100
AcDbPoint
 10
560.483376575419
 20
388.3650203122227
 30
0.0
  0
POINT
  5
7B5D
330
771B
100
AcDbEntity
  8
DEFPOINTS
 62
     0
100
AcDbPoint
 10
575.483376575419
 20
397.2077421121927
 30
0.0
  0
POINT
  5
7B5E
330
771B
100
AcDbEntity
  8
DEFPOINTS
 62
     0
100
AcDbPoint
 10
575.483376575419
 20
365.2875996547109
 30
0.0
  0
ENDBLK
  5
7758
330
771B
100
AcDbEntity
  8
0
100
AcDbBlockEnd
  0
BLOCK
  5
7AEA
330
7728
100
AcDbEntity
  8
0
100
AcDbBlockBegin
  2
*D1
 70
     1
 10
0.0
 20
0.0
 30
0.0
  3
*D1
  1

  0
LINE
  5
7B5F
330
7728
100
AcDbEntity
  8
DIMS
 62
     4
370
    -2
100
AcDbLine
 10
756.4833765754189
 20
377.9661072684997
 30
0.0
 11
756.4833765754189
 21
362.7875996547109
 31
0.0
  0
LINE
  5
7B60
330
7728
100
AcDbEntity
  8
DIMS
 62
     4
370
    -2
100
AcDbLine
 10
578.483376575419
 20
365.2875996547109
 30
0.0
 11
753.4833765754188
 21
365.2875996547109
 31
0.0
  0
SOLID
  5
7B61
330
7728
100
AcDbEntity
  8
DIMS
 62
     4
100
AcDbTrace
 10
578.483376575419
 20
365.7875996547109
 30
0.0
 11
578.483376575419
 21
364.7875996547109
 31
0.0
 12
575.483376575419
 22
365.2875996547109
 32
0.0
 13
575.483376575419
 23
365.2875996547109
 33
0.0
  0
SOLID
  5
7B62
330
7728
100
AcDbEntity
  8
DIMS
 62
     4
100
AcDbTrace
 10
753.4833765754188
 20
365.7875996547109
 30
0.0
 11
753.4833765754188
 21
364.7875996547109
 31
0.0
 12
756.4833765754189
 22
365.2875996547109
 32
0.0
 13
756.4833765754189
 23
365.2875996547109
 33
0.0
  0
MTEXT
  5
7B63
330
7728
100
AcDbEntity
  8
DIMS
 62
     2
100
AcDbMText
 10
665.983376575419
 20
368.2875996547109
 30
0.0
 40
3.0
 41
0.0
 71
     5
 72
     1
  1
\A1;N=181.00
 73
     1
 44
1.0
  0
POINT
  5
7B64
330
7728
100
AcDbEntity
  8
DEFPOINTS
 62
     0
100
AcDbPoint
 10
575.483376575419
 20
397.2077421121927
 30
0.0
  0
POINT
  5
7B65
330
7728
100
AcDbEntity
  8
DEFPOINTS
 62
     0
100
AcDbPoint
 10
756.4833765754189
 20
378.9661072684996
 30
0.0
  0
POINT
  5
7B66
330
7728
100
AcDbEntity
  8
DEFPOINTS
 62
     0
100
AcDbPoint
 10
756.4833765754189
 20
365.2875996547109
 30
0.0
  0
ENDBLK
  5
7AF3
330
7728
100
AcDbEntity
  8
0
100
AcDbBlockEnd
  0
BLOCK
  5
7ADF
330
7734
100
AcDbEntity
  8
0
100
AcDbBlockBegin
  2
*D2
 70
     1
 10
0.0
 20
0.0
 30
0.0
  3
*D2
  1

  0
LINE
  5
7B67
330
7734
100
AcDbEntity
  8
DIMS
 62
     4
370
    -2
100
AcDbLine
 10
560.483376575419
 20
387.3650203122227
 30
0.0
 11
560.483376575419
 21
352.8354620034718
 31
0.0
  0
LINE
  5
7B68
330
7734
100
AcDbEntity
  8
DIMS
 62
     4
370
    -2
100
AcDbLine
 10
746.4833765754187
 20
391.2077421121927
 30
0.0
 11
746.4833765754187
 21
352.8354620034718
 31
0.0
  0
LINE
  5
7B69
330
7734
100
AcDbEntity
  8
DIMS
 62
     4
370
    -2
100
AcDbLine
 10
563.483376575419
 20
355.3354620034718
 30
0.0
 11
743.4833765754188
 21
355.3354620034718
 31
0.0
  0
SOLID
  5
7B6A
330
7734
100
AcDbEntity
  8
DIMS
 62
     4
100
AcDbTrace
 10
563.483376575419
 20
355.8354620034718
 30
0.0
 11
563.483376575419
 21
354.8354620034718
 31
0.0
 12
560.483376575419
 22
355.3354620034718
 32
0.0
 13
560.483376575419
 23
355.3354620034718
 33
0.0
  0
SOLID
  5
7B6B
330
7734
100
AcDbEntity
  8
DIMS
 62
     4
100
AcDbTrace
 10
743.4833765754188
 20
355.8354620034718
 30
0.0
 11
743.4833765754188
 21
354.8354620034718
 31
0.0
 12
746.4833765754187
 22
355.3354620034718
 32
0.0
 13
746.4833765754187
 23
355.3354620034718
 33
0.0
  0
MTEXT
  5
7B6C
330
7734
100
AcDbEntity
  8
DIMS
 62
     2
100
AcDbMText
 10
653.4833765754188
 20
358.3354620034718
 30
0.0
 40
3.0
 41
0.0
 71
     5
 72
     1
  1
\A1;L1=186.00
 73
     1
 44
1.0
  0
POINT
  5
7B6D
330
7734
100
AcDbEntity
  8
DEFPOINTS
 62
     0
100
AcDbPoint
 10
560.483376575419
 20
388.3650203122227
 30
0.0
  0
POINT
  5
7B6E
330
7734
100
AcDbEntity
  8
DEFPOINTS
 62
     0
100
AcDbPoint
 10
746.4833765754187
 20
392.2077421121926
 30
0.0
  0
POINT
  5
7B6F
330
7734
100
AcDbEntity
  8
DEFPOINTS
 62
     0
100
AcDbPoint
 10
746.4833765754187
 20
355.3354620034718
 30
0.0
  0
ENDBLK
  5
7AE9
330
7734
100
AcDbEntity
  8
0
100
AcDbBlockEnd
  0
BLOCK
  5
7AD4
330
7741
100
AcDbEntity
  8
0
100
AcDbBlockBegin
  2
*D3
 70
     1
 10
0.0
 20
0.0
 30
0.0
  3
*D3
  1

  0
LINE
  5
7B70
330
7741
100
AcDbEntity
  8
DIMS
 62
     4
370
    -2
100
AcDbLine
 10
560.483376575419
 20
387.3650203122227
 30
0.0
 11
560.483376575419
 21
342.8354620034718
 31
0.0
  0
LINE
  5
7B71
330
7741
100
AcDbEntity
  8
DIMS
 62
     4
370
    -2
100
AcDbLine
 10
756.4833765754189
 20
377.9661072684997
 30
0.0
 11
756.4833765754189
 21
342.8354620034718
 31
0.0
  0
LINE
  5
7B72
330
7741
100
AcDbEntity
  8
DIMS
 62
     4
370
    -2
100
AcDbLine
 10
563.483376575419
 20
345.3354620034718
 30
0.0
 11
753.4833765754188
 21
345.3354620034718
 31
0.0
  0
SOLID
  5
7B73
330
7741
100
AcDbEntity
  8
DIMS
 62
     4
100
AcDbTrace
 10
563.483376575419
 20
345.8354620034718
 30
0.0
 11
563.483376575419
 21
344.8354620034718
 31
0.0
 12
560.483376575419
 22
345.3354620034718
 32
0.0
 13
560.483376575419
 23
345.3354620034718
 33
0.0
  0
SOLID
  5
7B74
330
7741
100
AcDbEntity
  8
DIMS
 62
     4
100
AcDbTrace
 10
753.4833765754188
 20
345.8354620034718
 30
0.0
 11
753.4833765754188
 21
344.8354620034718
 31
0.0
 12
756.4833765754189
 22
345.3354620034718
 32
0.0
 13
756.4833765754189
 23
345.3354620034718
 33
0.0
  0
MTEXT
  5
7B75
330
7741
100
AcDbEntity
  8
DIMS
 62
     2
100
AcDbMText
 10
658.483376575419
 20
348.3354620034718
 30
0.0
 40
3.0
 41
0.0
 71
     5
 72
     1
  1
\A1;L=196.00
 73
     1
 44
1.0
  0
POINT
  5
7B76
330
7741
100
AcDbEntity
  8
DEFPOINTS
 62
     0
100
AcDbPoint
 10
560.483376575419
 20
388.3650203122227
 30
0.0
  0
POINT
  5
7B77
330
7741
100
AcDbEntity
  8
DEFPOINTS
 62
     0
100
AcDbPoint
 10
756.4833765754189
 20
378.9661072684996
 30
0.0
  0
POINT
  5
7B78
330
7741
100
AcDbEntity
  8
DEFPOINTS
 62
     0
100
AcDbPoint
 10
756.4833765754189
 20
345.3354620034718
 30
0.0
  0
ENDBLK
  5
7ADE
330
7741
100
AcDbEntity
  8
0
100
AcDbBlockEnd
  0
BLOCK
  5
7786
330
7779
100
AcDbEntity
  8
0
100
AcDbBlockBegin
  2
*D4
 70
     1
 10
0.0
 20
0.0
 30
0.0
  3
*D4
  1

  0
LINE
  5
7B79
330
7779
100
AcDbEntity
  8
DIMS
 62
     4
370
    -2
100
AcDbLine
 10
570.2044443872842
 20
418.2077421121927
 30
0.0
 11
535.8036342093746
 21
418.2077421121927
 31
0.0
  0
LINE
  5
7B7A
330
7779
100
AcDbEntity
  8
DIMS
 62
     4
370
    -2
100
AcDbLine
 10
570.204444387284
 20
400.2077421121928
 30
0.0
 11
535.8036342093746
 21
400.2077421121928
 31
0.0
  0
LINE
  5
7B7B
330
7779
100
AcDbEntity
  8
DIMS
 62
     4
370
    -2
100
AcDbLine
 10
538.3036342093746
 20
415.2077421121926
 30
0.0
 11
538.3036342093746
 21
403.2077421121928
 31
0.0
  0
SOLID
  5
7B7C
330
7779
100
AcDbEntity
  8
DIMS
 62
     4
100
AcDbTrace
 10
537.8036342093746
 20
415.2077421121926
 30
0.0
 11
538.8036342093746
 21
415.2077421121926
 31
0.0
 12
538.3036342093746
 22
418.2077421121927
 32
0.0
 13
538.3036342093746
 23
418.2077421121927
 33
0.0
  0
SOLID
  5
7B7D
330
7779
100
AcDbEntity
  8
DIMS
 62
     4
100
AcDbTrace
 10
537.8036342093746
 20
403.2077421121928
 30
0.0
 11
538.8036342093746
 21
403.2077421121928
 31
0.0
 12
538.3036342093746
 22
400.2077421121928
 32
0.0
 13
538.3036342093746
 23
400.2077421121928
 33
0.0
  0
MTEXT
  5
7B7E
330
7779
100
AcDbEntity
  8
DIMS
 62
     2
100
AcDbMText
 10
535.3036342093745
 20
409.2077421121928
 30
0.0
 40
3.0
 41
0.0
 71
     5
 72
     1
  1
\A1;%%c18.00
 11
0.0000000000000001
 21
1.0
 31
0.0
 73
     1
 44
1.0
  0
POINT
  5
7B7F
330
7779
100
AcDbEntity
  8
DEFPOINTS
 62
     0
100
AcDbPoint
 10
571.2044443872842
 20
418.2077421121927
 30
0.0
  0
POINT
  5
7B80
330
7779
100
AcDbEntity
  8
DEFPOINTS
 62
     0
100
AcDbPoint
 10
571.204444387284
 20
400.2077421121928
 30
0.0
  0
POINT
  5
7B81
330
7779
100
AcDbEntity
  8
DEFPOINTS
 62
     0
100
AcDbPoint
 10
538.3036342093746
 20
400.2077421121928
 30
0.0
  0
ENDBLK
  5
7790
330
7779
100
AcDbEntity
  8
0
100
AcDbBlockEnd
  0
BLOCK
  5
77C1
330
7791
100
AcDbEntity
  8
0
100
AcDbBlockBegin
  2
*D5
 70
     1
 10
0.0
 20
0.0
 30
0.0
  3
*D5
  1

  0
LINE
  5
7B82
330
7791
100
AcDbEntity
  8
DIMS
 62
     4
370
    -2
100
AcDbLine
 10
749.9833765754189
 20
392.2077421121926
 30
0.0
 11
787.4399971282818
 21
392.2077421121926
 31
0.0
  0
LINE
  5
7B83
330
7791
100
AcDbEntity
  8
DIMS
 62
     4
370
    -2
100
AcDbLine
 10
749.9833765754189
 20
426.2077421121927
 30
0.0
 11
787.4399971282818
 21
426.2077421121927
 31
0.0
  0
LINE
  5
7B84
330
7791
100
AcDbEntity
  8
DIMS
 62
     4
370
    -2
100
AcDbLine
 10
784.9399971282817
 20
395.2077421121927
 30
0.0
 11
784.9399971282817
 21
423.2077421121926
 31
0.0
  0
SOLID
  5
7B85
330
7791
100
AcDbEntity
  8
DIMS
 62
     4
100
AcDbTrace
 10
784.4399971282817
 20
395.2077421121927
 30
0.0
 11
785.4399971282817
 21
395.2077421121927
 31
0.0
 12
784.9399971282817
 22
392.2077421121926
 32
0.0
 13
784.9399971282817
 23
392.2077421121926
 33
0.0
  0
SOLID
  5
7B86
330
7791
100
AcDbEntity
  8
DIMS
 62
     4
100
AcDbTrace
 10
784.4399971282817
 20
423.2077421121926
 30
0.0
 11
785.4399971282817
 21
423.2077421121926
 31
0.0
 12
784.9399971282817
 22
426.2077421121927
 32
0.0
 13
784.9399971282817
 23
426.2077421121927
 33
0.0
  0
MTEXT
  5
7B87
330
7791
100
AcDbEntity
  8
DIMS
 62
     2
100
AcDbMText
 10
781.9399971282816
 20
404.4690727446861
 30
0.0
 40
3.0
 41
0.0
 71
     5
 72
     1
  1
\A1;%%c34.00
 11
0.0000000000000001
 21
1.0
 31
0.0
 73
     1
 44
1.0
  0
POINT
  5
7B88
330
7791
100
AcDbEntity
  8
DEFPOINTS
 62
     0
100
AcDbPoint
 10
748.9833765754188
 20
392.2077421121926
 30
0.0
  0
POINT
  5
7B89
330
7791
100
AcDbEntity
  8
DEFPOINTS
 62
     0
100
AcDbPoint
 10
748.9833765754188
 20
426.2077421121927
 30
0.0
  0
POINT
  5
7B8A
330
7791
100
AcDbEntity
  8
DEFPOINTS
 62
     0
100
AcDbPoint
 10
784.9399971282817
 20
426.2077421121927
 30
0.0
  0
ENDBLK
  5
77CB
330
7791
100
AcDbEntity
  8
0
100
AcDbBlockEnd
  0
BLOCK
  5
791E
330
78B4
100
AcDbEntity
  8
0
100
AcDbBlockBegin
  2
A$C078E43EB
 70
     0
 10
0.0
 20
0.0
 30
0.0
  3
A$C078E43EB
  1

  0
ARC
  5
78B5
330
78B4
100
AcDbEntity
  8
1
  6
Continuous
 62
     1
100
AcDbCircle
 10
33.59344506719168
 20
6.313599078981685
 30
0.0
 40
0.811339
100
AcDbArc
 50
196.179245
 51
344.199615
  0
ARC
  5
78B6
330
78B4
100
AcDbEntity
  8
1
  6
Continuous
 62
     1
100
AcDbCircle
 10
-35.81701706719167
 20
4.805664078981685
 30
0.0
 40
3.221401999999999
210
0.0
220
0.0
230
-1.0
100
AcDbArc
 50
313.580139
 51
358.8319399999999
  0
ARC
  5
78B7
330
78B4
100
AcDbEntity
  8
1
  6
Continuous
 62
     1
100
AcDbCircle
 10
33.59628306719168
 20
5.464355078981685
 30
0.0
 40
1.0
100
AcDbArc
 50
0.0
 51
179.999985
  0
ARC
  5
78B8
330
78B4
100
AcDbEntity
  8
1
  6
Continuous
 62
     1
100
AcDbCircle
 10
33.59628306719168
 20
11.65173407898168
 30
0.0
 40
3.124813
100
AcDbArc
 50
222.840698
 51
317.159271
  0
LINE
  5
78B9
330
78B4
100
AcDbEntity
  8
1
  6
Continuous
 62
     1
100
AcDbLine
 10
33.59628306719168
 20
0.0000000789816852
 30
0.0
 11
28.09628306719167
 21
9.526978078981684
 31
0.0
  0
LINE
  5
78BA
330
78B4
100
AcDbEntity
  8
6
  6
Continuous
 62
     1
100
AcDbLine
 10
24.09678306719168
 20
15.75000107898168
 30
0.0
 11
43.09678306719168
 21
15.75000107898168
 31
0.0
  0
LINE
  5
78BB
330
78B4
100
AcDbEntity
  8
6
  6
Continuous
 62
     1
100
AcDbLine
 10
42.84678306719167
 20
15.50000107898168
 30
0.0
 11
24.34678306719168
 21
15.50000107898168
 31
0.0
  0
LINE
  5
78BC
330
78B4
100
AcDbEntity
  8
6
  6
Continuous
 62
     1
100
AcDbLine
 10
22.23350106719167
 20
16.50000007898168
 30
0.0
 11
44.95909106719167
 21
16.50000007898168
 31
0.0
  0
LINE
  5
78BD
330
78B4
100
AcDbEntity
  8
1
  6
Continuous
 62
     1
100
AcDbLine
 10
21.59628306719167
 20
17.79992707898168
 30
0.0
 11
45.59628306719168
 21
17.79992707898168
 31
0.0
  0
LINE
  5
78BE
330
78B4
100
AcDbEntity
  8
1
  6
Continuous
 62
     1
100
AcDbLine
 10
25.09629406719168
 20
12.50000107898168
 30
0.0
 11
42.09629406719168
 21
12.50000107898168
 31
0.0
  0
LINE
  5
78BF
330
78B4
100
AcDbEntity
  8
6
  6
Continuous
 62
     1
100
AcDbLine
 10
24.59628306719167
 20
13.00000107898168
 30
0.0
 11
42.59628306719167
 21
13.00000107898168
 31
0.0
  0
LINE
  5
78C0
330
78B4
100
AcDbEntity
  8
6
  6
Continuous
 62
     1
100
AcDbLine
 10
45.59628306719168
 20
47.79999907898168
 30
0.0
 11
22.59628306719168
 21
47.79999907898168
 31
0.0
  0
LINE
  5
78C1
330
78B4
100
AcDbEntity
  8
6
  6
Continuous
 62
     1
100
AcDbLine
 10
48.09628306719168
 20
70.83012407898168
 30
0.0
 11
19.09628306719167
 21
70.83012407898168
 31
0.0
  0
LINE
  5
78C2
330
78B4
100
AcDbEntity
  8
6
  6
Continuous
 62
     1
100
AcDbLine
 10
17.09628306719167
 20
72.00000007898168
 30
0.0
 11
33.59628306719168
 21
72.00000007898168
 31
0.0
  0
LINE
  5
78C3
330
78B4
100
AcDbEntity
  8
6
  6
Continuous
 62
     1
100
AcDbLine
 10
50.59628306719168
 20
64.50000007898168
 30
0.0
 11
16.59628306719167
 21
64.50000007898168
 31
0.0
  0
LINE
  5
78C4
330
78B4
100
AcDbEntity
  8
6
  6
Continuous
 62
     1
100
AcDbLine
 10
50.09628306719168
 20
73.50000007898168
 30
0.0
 11
17.09628306719167
 21
73.50000007898168
 31
0.0
  0
LINE
  5
78C5
330
78B4
100
AcDbEntity
  8
6
  6
Continuous
 62
     1
100
AcDbLine
 10
17.59628306719167
 20
74.00000007898168
 30
0.0
 11
49.59628306719167
 21
74.00000007898168
 31
0.0
  0
LINE
  5
78C6
330
78B4
100
AcDbEntity
  8
6
  6
Continuous
 62
     1
100
AcDbLine
 10
16.59628306719167
 20
66.50000007898168
 30
0.0
 11
33.59628306719168
 21
66.50000007898168
 31
0.0
  0
LINE
  5
78C7
330
78B4
100
AcDbEntity
  8
6
  6
Continuous
 62
     1
100
AcDbLine
 10
17.09628306719167
 20
64.00000007898168
 30
0.0
 11
33.59628306719168
 21
64.00000007898168
 31
0.0
  0
LINE
  5
78C8
330
78B4
100
AcDbEntity
  8
6
  6
Continuous
 62
     7
100
AcDbLine
 10
19.59628306719167
 20
45.29999907898168
 30
0.0
 11
19.59628306719167
 21
16.75000007898168
 31
0.0
  0
LINE
  5
78C9
330
78B4
100
AcDbEntity
  8
6
  6
Continuous
 62
     1
100
AcDbLine
 10
21.59628306719167
 20
47.79999907898168
 30
0.0
 11
21.59628306719167
 21
17.79992707898168
 31
0.0
  0
LINE
  5
78CA
330
78B4
100
AcDbEntity
  8
1
  6
Continuous
 62
     1
100
AcDbLine
 10
24.59629406719168
 20
13.00000107898168
 30
0.0
 11
24.59629406719168
 21
15.50000107898168
 31
0.0
  0
LINE
  5
78CB
330
78B4
100
AcDbEntity
  8
6
  6
Continuous
 62
     7
100
AcDbLine
 10
24.59628306719167
 20
15.00000107898168
 30
0.0
 11
24.59628306719167
 21
10.15685607898168
 31
0.0
  0
LINE
  5
78CC
330
78B4
100
AcDbEntity
  8
6
  6
Continuous
 62
     7
100
AcDbLine
 10
31.09369706719167
 20
2.002586078981685
 30
0.0
 11
25.76785706719167
 21
7.328428078981684
 31
0.0
  0
ARC
  5
78CD
330
78B4
100
AcDbEntity
  8
6
  6
Continuous
 62
     7
100
AcDbCircle
 10
-28.59628306719168
 20
10.15685607898168
 30
0.0
 40
4.0
210
0.0
220
0.0
230
-1.0
100
AcDbArc
 50
315.0
 51
0.0
  0
LINE
  5
78CE
330
78B4
100
AcDbEntity
  8
1
  6
Continuous
 62
     1
100
AcDbLine
 10
25.09629406719168
 20
12.50000107898168
 30
0.0
 11
24.59629406719168
 21
13.00000107898168
 31
0.0
  0
LINE
  5
78CF
330
78B4
100
AcDbEntity
  8
1
  6
Continuous
 62
     1
100
AcDbLine
 10
32.59628306719168
 20
5.464355078981685
 30
0.0
 11
32.59628306719168
 21
4.739990078981684
 31
0.0
  0
LINE
  5
78D0
330
78B4
100
AcDbEntity
  8
1
  6
Continuous
 62
     1
100
AcDbLine
 10
30.41171306719167
 20
9.526978078981684
 30
0.0
 11
31.30502306719167
 21
9.526978078981684
 31
0.0
  0
LINE
  5
78D1
330
78B4
100
AcDbEntity
  8
1
  6
Continuous
 62
     1
100
AcDbLine
 10
30.41171306719167
 20
12.50000107898168
 30
0.0
 11
30.41171306719167
 21
9.526978078981684
 31
0.0
  0
LINE
  5
78D2
330
78B4
100
AcDbEntity
  8
1
  6
Continuous
 62
     1
100
AcDbLine
 10
28.09628306719167
 20
12.50000107898168
 30
0.0
 11
28.09628306719167
 21
9.526978078981684
 31
0.0
  0
ARC
  5
78D3
330
78B4
100
AcDbEntity
  8
1
  6
Continuous
 62
     1
100
AcDbCircle
 10
-29.25399806719168
 20
9.655396078981686
 30
0.0
 40
1.164754999999999
210
0.0
220
0.0
230
-1.0
100
AcDbArc
 50
186.32991
 51
306.3421629999999
  0
LINE
  5
78D4
330
78B4
100
AcDbEntity
  8
1
  6
Continuous
 62
     1
100
AcDbLine
 10
31.30502306719167
 20
12.50000107898168
 30
0.0
 11
31.30502306719167
 21
9.526978078981684
 31
0.0
  0
LINE
  5
78D5
330
78B4
100
AcDbEntity
  8
6
  6
Continuous
 62
     7
100
AcDbLine
 10
24.59628306719167
 20
14.75000107898168
 30
0.0
 11
21.59628306719167
 21
14.75000107898168
 31
0.0
  0
ARC
  5
78D6
330
78B4
100
AcDbEntity
  8
6
  6
Continuous
 62
     7
100
AcDbCircle
 10
-21.59628306719167
 20
16.75000007898168
 30
0.0
 40
2.0
210
0.0
220
0.0
230
-1.0
100
AcDbArc
 50
270.0
 51
0.0
  0
LINE
  5
78D7
330
78B4
100
AcDbEntity
  8
1
  6
Continuous
 62
     1
100
AcDbLine
 10
22.23350106719167
 20
17.79992707898168
 30
0.0
 11
22.23350106719167
 21
16.50000007898168
 31
0.0
  0
LINE
  5
78D8
330
78B4
100
AcDbEntity
  8
6
  6
Continuous
 62
     1
100
AcDbLine
 10
24.34678306719168
 20
15.50000107898168
 30
0.0
 11
24.09678306719168
 21
15.75000107898168
 31
0.0
  0
LINE
  5
78D9
330
78B4
100
AcDbEntity
  8
1
  6
Continuous
 62
     1
100
AcDbLine
 10
24.09678306719168
 20
16.50000007898168
 30
0.0
 11
24.09678306719168
 21
15.75000107898168
 31
0.0
  0
LINE
  5
78DA
330
78B4
100
AcDbEntity
  8
6
  6
Continuous
 62
     7
100
AcDbLine
 10
16.88495806719167
 20
67.00000007898168
 30
0.0
 11
6.82811006719168
 21
67.00000007898168
 31
0.0
  0
LINE
  5
78DB
330
78B4
100
AcDbEntity
  8
6
  6
Continuous
 62
     1
100
AcDbLine
 10
21.59628306719167
 20
45.29999907898168
 30
0.0
 11
0.000000067191678
 21
45.29999907898168
 31
0.0
  0
LINE
  5
78DC
330
78B4
100
AcDbEntity
  8
6
  6
Continuous
 62
     1
100
AcDbLine
 10
24.09628306719167
 20
47.79999907898168
 30
0.0
 11
0.000000067191678
 21
47.79999907898168
 31
0.0
  0
LINE
  5
78DD
330
78B4
100
AcDbEntity
  8
6
  6
Continuous
 62
     7
100
AcDbLine
 10
19.59628306719167
 20
63.50000007898168
 30
0.0
 11
19.59628306719167
 21
47.79999907898168
 31
0.0
  0
LINE
  5
78DE
330
78B4
100
AcDbEntity
  8
6
  6
Continuous
 62
     1
100
AcDbLine
 10
24.09628306719167
 20
64.00000007898168
 30
0.0
 11
24.09628306719167
 21
47.79999907898168
 31
0.0
  0
LINE
  5
78DF
330
78B4
100
AcDbEntity
  8
6
  6
Continuous
 62
     1
100
AcDbLine
 10
19.09628306719167
 20
72.00000007898168
 30
0.0
 11
19.09628306719167
 21
70.83012407898168
 31
0.0
  0
LINE
  5
78E0
330
78B4
100
AcDbEntity
  8
6
  6
Continuous
 62
     1
100
AcDbLine
 10
16.59628306719167
 20
66.50000007898168
 30
0.0
 11
19.09628306719167
 21
70.83012407898168
 31
0.0
  0
LINE
  5
78E1
330
78B4
100
AcDbEntity
  8
6
  6
Continuous
 62
     1
100
AcDbLine
 10
16.59628306719167
 20
66.50000007898168
 30
0.0
 11
16.59628306719167
 21
64.50000007898168
 31
0.0
  0
LINE
  5
78E2
330
78B4
100
AcDbEntity
  8
6
  6
Continuous
 62
     7
100
AcDbLine
 10
16.59628306719167
 20
64.50000007898168
 30
0.0
 11
16.59628306719167
 21
64.00000007898168
 31
0.0
  0
LINE
  5
78E3
330
78B4
100
AcDbEntity
  8
6
  6
Continuous
 62
     1
100
AcDbLine
 10
17.09628306719167
 20
64.00000007898168
 30
0.0
 11
16.59628306719167
 21
64.50000007898168
 31
0.0
  0
LINE
  5
78E4
330
78B4
100
AcDbEntity
  8
6
  6
Continuous
 62
     7
100
AcDbLine
 10
17.09628306719167
 20
64.00000007898168
 30
0.0
 11
16.59628306719167
 21
64.00000007898168
 31
0.0
  0
LINE
  5
78E5
330
78B4
100
AcDbEntity
  8
6
  6
Continuous
 62
     7
100
AcDbLine
 10
16.59628306719167
 20
66.00000007898168
 30
0.0
 11
16.59628306719167
 21
67.00000007898168
 31
0.0
  0
LINE
  5
78E6
330
78B4
100
AcDbEntity
  8
6
  6
Continuous
 62
     1
100
AcDbLine
 10
17.09628306719167
 20
73.50000007898168
 30
0.0
 11
17.09628306719167
 21
72.00000007898168
 31
0.0
  0
LINE
  5
78E7
330
78B4
100
AcDbEntity
  8
6
  6
Continuous
 62
     1
100
AcDbLine
 10
17.09628306719167
 20
73.50000007898168
 30
0.0
 11
17.59628306719167
 21
74.00000007898168
 31
0.0
  0
LINE
  5
78E8
330
78B4
100
AcDbEntity
  8
6
  6
Continuous
 62
     7
100
AcDbLine
 10
47.59628306719167
 20
64.00000007898168
 30
0.0
 11
47.59628306719167
 21
16.75000007898168
 31
0.0
  0
LINE
  5
78E9
330
78B4
100
AcDbEntity
  8
6
  6
Continuous
 62
     1
100
AcDbLine
 10
45.59628306719168
 20
47.79999907898168
 30
0.0
 11
45.59628306719168
 21
17.79992707898168
 31
0.0
  0
LINE
  5
78EA
330
78B4
100
AcDbEntity
  8
1
  6
Continuous
 62
     1
100
AcDbLine
 10
42.59629406719168
 20
13.00000107898168
 30
0.0
 11
42.59629406719168
 21
15.50000107898168
 31
0.0
  0
LINE
  5
78EB
330
78B4
100
AcDbEntity
  8
6
  6
Continuous
 62
     7
100
AcDbLine
 10
42.59628306719167
 20
15.00000107898168
 30
0.0
 11
42.59628306719167
 21
10.15685607898168
 31
0.0
  0
LINE
  5
78EC
330
78B4
100
AcDbEntity
  8
1
  6
Continuous
 62
     1
100
AcDbLine
 10
33.59628306719168
 20
0.0000000789816852
 30
0.0
 11
39.09628306719167
 21
9.526978078981684
 31
0.0
  0
LINE
  5
78ED
330
78B4
100
AcDbEntity
  8
6
  6
Continuous
 62
     7
100
AcDbLine
 10
36.09275106719167
 20
1.996468078981685
 30
0.0
 11
41.42470906719167
 21
7.328428078981684
 31
0.0
  0
ARC
  5
78EE
330
78B4
100
AcDbEntity
  8
1
  6
Continuous
 62
     1
100
AcDbCircle
 10
37.93856806719167
 20
9.655396078981686
 30
0.0
 40
1.164754999999999
100
AcDbArc
 50
186.32991
 51
306.3421629999999
  0
LINE
  5
78EF
330
78B4
100
AcDbEntity
  8
1
  6
Continuous
 62
     1
100
AcDbLine
 10
34.59628306719167
 20
5.464355078981685
 30
0.0
 11
34.59628306719167
 21
4.739990078981684
 31
0.0
  0
ARC
  5
78F0
330
78B4
100
AcDbEntity
  8
1
  6
Continuous
 62
     1
100
AcDbCircle
 10
31.37554906719167
 20
4.805664078981685
 30
0.0
 40
3.221401999999999
100
AcDbArc
 50
313.580139
 51
358.8319399999999
  0
LINE
  5
78F1
330
78B4
100
AcDbEntity
  8
1
  6
Continuous
 62
     1
100
AcDbLine
 10
36.78091406719168
 20
9.526978078981684
 30
0.0
 11
36.78091406719168
 21
12.50000107898168
 31
0.0
  0
LINE
  5
78F2
330
78B4
100
AcDbEntity
  8
1
  6
Continuous
 62
     1
100
AcDbLine
 10
35.88754306719168
 20
9.526978078981684
 30
0.0
 11
35.88754306719168
 21
12.50000107898168
 31
0.0
  0
LINE
  5
78F3
330
78B4
100
AcDbEntity
  8
1
  6
Continuous
 62
     1
100
AcDbLine
 10
35.88754306719168
 20
9.526978078981684
 30
0.0
 11
36.78091406719168
 21
9.526978078981684
 31
0.0
  0
ARC
  5
78F4
330
78B4
100
AcDbEntity
  8
6
  6
Continuous
 62
     7
100
AcDbCircle
 10
38.59628306719168
 20
10.15685607898168
 30
0.0
 40
4.0
100
AcDbArc
 50
315.0
 51
0.0
  0
LINE
  5
78F5
330
78B4
100
AcDbEntity
  8
1
  6
Continuous
 62
     1
100
AcDbLine
 10
39.09628306719167
 20
12.50000107898168
 30
0.0
 11
39.09628306719167
 21
9.526978078981684
 31
0.0
  0
LINE
  5
78F6
330
78B4
100
AcDbEntity
  8
1
  6
Continuous
 62
     1
100
AcDbLine
 10
42.09629406719168
 20
12.50000107898168
 30
0.0
 11
42.59629406719168
 21
13.00000107898168
 31
0.0
  0
LINE
  5
78F7
330
78B4
100
AcDbEntity
  8
6
  6
Continuous
 62
     7
100
AcDbLine
 10
42.59628306719167
 20
14.75000107898168
 30
0.0
 11
45.59628306719168
 21
14.75000107898168
 31
0.0
  0
LINE
  5
78F8
330
78B4
100
AcDbEntity
  8
6
  6
Continuous
 62
     1
100
AcDbLine
 10
42.84678306719167
 20
15.50000107898168
 30
0.0
 11
43.09678306719168
 21
15.75000107898168
 31
0.0
  0
LINE
  5
78F9
330
78B4
100
AcDbEntity
  8
1
  6
Continuous
 62
     1
100
AcDbLine
 10
43.09678306719168
 20
15.75000107898168
 30
0.0
 11
43.09678306719168
 21
16.50000007898168
 31
0.0
  0
ARC
  5
78FA
330
78B4
100
AcDbEntity
  8
6
  6
Continuous
 62
     7
100
AcDbCircle
 10
45.59628306719168
 20
16.75000007898168
 30
0.0
 40
2.0
100
AcDbArc
 50
270.0
 51
0.0
  0
LINE
  5
78FB
330
78B4
100
AcDbEntity
  8
1
  6
Continuous
 62
     1
100
AcDbLine
 10
44.95909106719167
 20
17.79992707898168
 30
0.0
 11
44.95909106719167
 21
16.50000007898168
 31
0.0
  0
LINE
  5
78FC
330
78B4
100
AcDbEntity
  8
6
  6
Continuous
 62
     7
100
AcDbLine
 10
55.09628306719168
 20
69.50000007898168
 30
0.0
 11
52.09628306719167
 21
69.50000007898168
 31
0.0
  0
LINE
  5
78FD
330
78B4
100
AcDbEntity
  8
6
  6
Continuous
 62
     7
100
AcDbLine
 10
52.09628306719167
 20
58.50000007898168
 30
0.0
 11
55.09628306719168
 21
58.50000007898168
 31
0.0
  0
LINE
  5
78FE
330
78B4
100
AcDbEntity
  8
6
  6
Continuous
 62
     7
100
AcDbLine
 10
52.59628306719168
 20
58.00000007898169
 30
0.0
 11
54.59628306719167
 21
58.00000007898169
 31
0.0
  0
LINE
  5
78FF
330
78B4
100
AcDbEntity
  8
6
  6
Continuous
 62
     7
100
AcDbLine
 10
52.59628306719168
 20
70.00000007898169
 30
0.0
 11
54.59628306719167
 21
70.00000007898169
 31
0.0
  0
LINE
  5
7900
330
78B4
100
AcDbEntity
  8
6
  6
Continuous
 62
     1
100
AcDbLine
 10
48.28688106719168
 20
70.50000007898169
 30
0.0
 11
56.09628306719168
 21
70.50000007898169
 31
0.0
  0
LINE
  5
7901
330
78B4
100
AcDbEntity
  8
6
  6
Continuous
 62
     7
100
AcDbLine
 10
52.09628306719167
 20
69.50000007898168
 30
0.0
 11
52.09628306719167
 21
58.50000007898168
 31
0.0
  0
LINE
  5
7902
330
78B4
100
AcDbEntity
  8
6
  6
Continuous
 62
     1
100
AcDbLine
 10
43.09628306719168
 20
64.00000007898168
 30
0.0
 11
43.09628306719168
 21
47.79999907898168
 31
0.0
  0
LINE
  5
7903
330
78B4
100
AcDbEntity
  8
6
  6
Continuous
 62
     7
100
AcDbLine
 10
52.09628306719167
 20
58.50000007898168
 30
0.0
 11
52.59628306719168
 21
58.00000007898169
 31
0.0
  0
LINE
  5
7904
330
78B4
100
AcDbEntity
  8
6
  6
Continuous
 62
     1
100
AcDbLine
 10
50.09628306719168
 20
72.00000007898168
 30
0.0
 11
33.59628306719168
 21
72.00000007898168
 31
0.0
  0
LINE
  5
7905
330
78B4
100
AcDbEntity
  8
6
  6
Continuous
 62
     1
100
AcDbLine
 10
50.59628306719168
 20
66.50000007898168
 30
0.0
 11
33.59628306719168
 21
66.50000007898168
 31
0.0
  0
LINE
  5
7906
330
78B4
100
AcDbEntity
  8
6
  6
Continuous
 62
     1
100
AcDbLine
 10
33.59628306719168
 20
64.00000007898168
 30
0.0
 11
50.09628306719168
 21
64.00000007898168
 31
0.0
  0
LINE
  5
7907
330
78B4
100
AcDbEntity
  8
6
  6
Continuous
 62
     1
100
AcDbLine
 10
48.09628306719168
 20
72.00000007898168
 30
0.0
 11
48.09628306719168
 21
70.83012407898168
 31
0.0
  0
ARC
  5
7908
330
78B4
100
AcDbEntity
  8
6
  6
Continuous
 62
     1
100
AcDbCircle
 10
50.02416606719167
 20
69.50302107898167
 30
0.0
 40
2.003029
100
AcDbArc
 50
150.149689
 51
269.8503109999999
  0
LINE
  5
7909
330
78B4
100
AcDbEntity
  8
6
  6
Continuous
 62
     1
100
AcDbLine
 10
48.28688106719168
 20
70.50000007898169
 30
0.0
 11
48.09628306719168
 21
70.83012407898168
 31
0.0
  0
LINE
  5
790A
330
78B4
100
AcDbEntity
  8
6
  6
Continuous
 62
     1
100
AcDbLine
 10
50.59628306719168
 20
66.50000007898168
 30
0.0
 11
50.59628306719168
 21
64.50000007898168
 31
0.0
  0
LINE
  5
790B
330
78B4
100
AcDbEntity
  8
6
  6
Continuous
 62
     7
100
AcDbLine
 10
50.09628306719168
 20
64.00000007898168
 30
0.0
 11
50.59628306719168
 21
64.00000007898168
 31
0.0
  0
LINE
  5
790C
330
78B4
100
AcDbEntity
  8
6
  6
Continuous
 62
     1
100
AcDbLine
 10
50.09628306719168
 20
64.00000007898168
 30
0.0
 11
50.59628306719168
 21
64.50000007898168
 31
0.0
  0
LINE
  5
790D
330
78B4
100
AcDbEntity
  8
6
  6
Continuous
 62
     7
100
AcDbLine
 10
50.59628306719168
 20
64.50000007898168
 30
0.0
 11
50.59628306719168
 21
64.00000007898168
 31
0.0
  0
LINE
  5
790E
330
78B4
100
AcDbEntity
  8
6
  6
Continuous
 62
     1
100
AcDbLine
 10
50.01893206719167
 20
67.50000007898169
 30
0.0
 11
52.09628306719167
 21
67.50000007898169
 31
0.0
  0
LINE
  5
790F
330
78B4
100
AcDbEntity
  8
6
  6
Continuous
 62
     7
100
AcDbLine
 10
50.30760806719168
 20
67.00000007898168
 30
0.0
 11
52.09628306719167
 21
67.00000007898168
 31
0.0
  0
LINE
  5
7910
330
78B4
100
AcDbEntity
  8
6
  6
Continuous
 62
     1
100
AcDbLine
 10
50.59628306719168
 20
66.50000007898168
 30
0.0
 11
50.01893206719167
 21
67.50000007898169
 31
0.0
  0
LINE
  5
7911
330
78B4
100
AcDbEntity
  8
6
  6
Continuous
 62
     7
100
AcDbLine
 10
50.59628306719168
 20
66.50000007898168
 30
0.0
 11
50.59628306719168
 21
67.00000007898168
 31
0.0
  0
LINE
  5
7912
330
78B4
100
AcDbEntity
  8
6
  6
Continuous
 62
     7
100
AcDbLine
 10
52.09628306719167
 20
69.50000007898168
 30
0.0
 11
52.59628306719168
 21
70.00000007898169
 31
0.0
  0
LINE
  5
7913
330
78B4
100
AcDbEntity
  8
6
  6
Continuous
 62
     1
100
AcDbLine
 10
50.09628306719168
 20
73.50000007898168
 30
0.0
 11
50.09628306719168
 21
72.00000007898168
 31
0.0
  0
LINE
  5
7914
330
78B4
100
AcDbEntity
  8
6
  6
Continuous
 62
     1
100
AcDbLine
 10
49.59628306719167
 20
74.00000007898168
 30
0.0
 11
50.09628306719168
 21
73.50000007898168
 31
0.0
  0
LINE
  5
7915
330
78B4
100
AcDbEntity
  8
6
  6
Continuous
 62
     7
100
AcDbLine
 10
55.09628306719168
 20
69.50000007898168
 30
0.0
 11
55.09628306719168
 21
58.50000007898168
 31
0.0
  0
LINE
  5
7916
330
78B4
100
AcDbEntity
  8
6
  6
Continuous
 62
     7
100
AcDbLine
 10
54.59628306719167
 20
58.00000007898169
 30
0.0
 11
55.09628306719168
 21
58.50000007898168
 31
0.0
  0
LINE
  5
7917
330
78B4
100
AcDbEntity
  8
6
  6
Continuous
 62
     7
100
AcDbLine
 10
55.09628306719168
 20
67.00000007898168
 30
0.0
 11
66.53012506719168
 21
67.00000007898168
 31
0.0
  0
LINE
  5
7918
330
78B4
100
AcDbEntity
  8
6
  6
Continuous
 62
     1
100
AcDbLine
 10
56.09628306719168
 20
67.50000007898169
 30
0.0
 11
56.09628306719168
 21
70.50000007898169
 31
0.0
  0
LINE
  5
7919
330
78B4
100
AcDbEntity
  8
6
  6
Continuous
 62
     1
100
AcDbLine
 10
56.59628306719167
 20
70.00000007898169
 30
0.0
 11
56.59628306719167
 21
68.00000007898169
 31
0.0
  0
LINE
  5
791A
330
78B4
100
AcDbEntity
  8
6
  6
Continuous
 62
     1
100
AcDbLine
 10
55.09628306719168
 20
67.50000007898169
 30
0.0
 11
56.09628306719168
 21
67.50000007898169
 31
0.0
  0
LINE
  5
791B
330
78B4
100
AcDbEntity
  8
6
  6
Continuous
 62
     1
100
AcDbLine
 10
56.09628306719168
 20
67.50000007898169
 30
0.0
 11
56.59628306719167
 21
68.00000007898169
 31
0.0
  0
LINE
  5
791C
330
78B4
100
AcDbEntity
  8
6
  6
Continuous
 62
     7
100
AcDbLine
 10
54.59628306719167
 20
70.00000007898169
 30
0.0
 11
55.09628306719168
 21
69.50000007898168
 31
0.0
  0
LINE
  5
791D
330
78B4
100
AcDbEntity
  8
6
  6
Continuous
 62
     1
100
AcDbLine
 10
56.09628306719168
 20
70.50000007898169
 30
0.0
 11
56.59628306719167
 21
70.00000007898169
 31
0.0
  0
ENDBLK
  5
791F
330
78B4
100
AcDbEntity
  8
0
100
AcDbBlockEnd
  0
BLOCK
  5
79D3
330
79D2
100
AcDbEntity
  8
0
100
AcDbBlockBegin
  2
*D7
 70
     1
 10
0.0
 20
0.0
 30
0.0
  3
*D7
  1

  0
LINE
  5
7B8B
330
79D2
100
AcDbEntity
  8
DIMS
 62
     4
370
    -2
100
AcDbLine
 10
447.1058629161023
 20
409.2077421121927
 30
0.0
 11
437.3646017152215
 21
409.2077421121927
 31
0.0
  0
LINE
  5
7B8C
330
79D2
100
AcDbEntity
  8
DIMS
 62
     4
370
    -2
100
AcDbLine
 10
466.1169893391638
 20
389.2077421121927
 30
0.0
 11
437.3646017152215
 21
389.2077421121927
 31
0.0
  0
LINE
  5
7B8D
330
79D2
100
AcDbEntity
  8
DIMS
 62
     4
370
    -2
100
AcDbLine
 10
439.8646017152215
 20
406.2077421121927
 30
0.0
 11
439.8646017152215
 21
392.2077421121927
 31
0.0
  0
SOLID
  5
7B8E
330
79D2
100
AcDbEntity
  8
DIMS
 62
     4
100
AcDbTrace
 10
439.3646017152216
 20
406.2077421121927
 30
0.0
 11
440.3646017152215
 21
406.2077421121927
 31
0.0
 12
439.8646017152215
 22
409.2077421121927
 32
0.0
 13
439.8646017152215
 23
409.2077421121927
 33
0.0
  0
SOLID
  5
7B8F
330
79D2
100
AcDbEntity
  8
DIMS
 62
     4
100
AcDbTrace
 10
439.3646017152216
 20
392.2077421121927
 30
0.0
 11
440.3646017152215
 21
392.2077421121927
 31
0.0
 12
439.8646017152215
 22
389.2077421121927
 32
0.0
 13
439.8646017152215
 23
389.2077421121927
 33
0.0
  0
MTEXT
  5
7B90
330
79D2
100
AcDbEntity
  8
DIMS
 62
     2
100
AcDbMText
 10
436.8646017152214
 20
399.2077421121928
 30
0.0
 40
3.0
 41
0.0
 71
     5
 72
     1
  1
\A1;20.00
 11
0.0000000000000001
 21
1.0
 31
0.0
 73
     1
 44
1.0
  0
POINT
  5
7B91
330
79D2
100
AcDbEntity
  8
DEFPOINTS
 62
     0
100
AcDbPoint
 10
448.1058629161024
 20
409.2077421121927
 30
0.0
  0
POINT
  5
7B92
330
79D2
100
AcDbEntity
  8
DEFPOINTS
 62
     0
100
AcDbPoint
 10
467.1169893391637
 20
389.2077421121927
 30
0.0
  0
POINT
  5
7B93
330
79D2
100
AcDbEntity
  8
DEFPOINTS
 62
     0
100
AcDbPoint
 10
439.8646017152215
 20
389.2077421121927
 30
0.0
  0
ENDBLK
  5
79DD
330
79D2
100
AcDbEntity
  8
0
100
AcDbBlockEnd
  0
BLOCK
  5
79E0
330
79DF
100
AcDbEntity
  8
0
100
AcDbBlockBegin
  2
*D8
 70
     1
 10
0.0
 20
0.0
 30
0.0
  3
*D8
  1

  0
LINE
  5
7B94
330
79DF
100
AcDbEntity
  8
DIMS
 62
     4
370
    -2
100
AcDbLine
 10
469.9223172892079
 20
385.4024141621486
 30
0.0
 11
469.9223172892079
 21
367.8321690606906
 31
0.0
  0
LINE
  5
7B95
330
79DF
100
AcDbEntity
  8
DIMS
 62
     4
370
    -2
100
AcDbLine
 10
475.9223172892078
 20
385.4024141621486
 30
0.0
 11
475.9223172892078
 21
367.8321690606906
 31
0.0
  0
LINE
  5
7B96
330
79DF
100
AcDbEntity
  8
DIMS
 62
     4
370
    -2
100
AcDbLine
 10
466.9223172892078
 20
370.3321690606906
 30
0.0
 11
463.9223172892079
 21
370.3321690606906
 31
0.0
  0
LINE
  5
7B97
330
79DF
100
AcDbEntity
  8
DIMS
 62
     4
370
    -2
100
AcDbLine
 10
478.9223172892079
 20
370.3321690606906
 30
0.0
 11
494.0651744320651
 21
370.3321690606906
 31
0.0
  0
SOLID
  5
7B98
330
79DF
100
AcDbEntity
  8
DIMS
 62
     4
100
AcDbTrace
 10
466.9223172892078
 20
370.8321690606906
 30
0.0
 11
466.9223172892078
 21
369.8321690606906
 31
0.0
 12
469.9223172892079
 22
370.3321690606906
 32
0.0
 13
469.9223172892079
 23
370.3321690606906
 33
0.0
  0
SOLID
  5
7B99
330
79DF
100
AcDbEntity
  8
DIMS
 62
     4
100
AcDbTrace
 10
478.9223172892079
 20
370.8321690606906
 30
0.0
 11
478.9223172892079
 21
369.8321690606906
 31
0.0
 12
475.9223172892078
 22
370.3321690606906
 32
0.0
 13
475.9223172892078
 23
370.3321690606906
 33
0.0
  0
MTEXT
  5
7B9A
330
79DF
100
AcDbEntity
  8
DIMS
 62
     2
100
AcDbMText
 10
487.9937458606364
 20
373.3321690606906
 30
0.0
 40
3.0
 41
0.0
 71
     5
 72
     1
  1
\A1;6.00
 73
     1
 44
1.0
  0
POINT
  5
7B9B
330
79DF
100
AcDbEntity
  8
DEFPOINTS
 62
     0
100
AcDbPoint
 10
469.9223172892079
 20
386.4024141621486
 30
0.0
  0
POINT
  5
7B9C
330
79DF
100
AcDbEntity
  8
DEFPOINTS
 62
     0
100
AcDbPoint
 10
475.9223172892078
 20
386.4024141621486
 30
0.0
  0
POINT
  5
7B9D
330
79DF
100
AcDbEntity
  8
DEFPOINTS
 62
     0
100
AcDbPoint
 10
475.9223172892078
 20
370.3321690606906
 30
0.0
  0
ENDBLK
  5
79EB
330
79DF
100
AcDbEntity
  8
0
100
AcDbBlockEnd
  0
ENDSEC
  0
SECTION
  2
ENTITIES
  0
ACAD_PROXY_ENTITY
  5
6FE3
330
17
100
AcDbEntity
  8
TEXT
100
AcDbProxyEntity
 90
      498
 91
      505
 95
   589845
 70
     0
 92
        8
310
0800000000000000
 93
     1035
310
8A10DE4DA5DB889400F0467D0C67A56900C8DD91A59589CCBF2843BAA8038CD2102A2843BAA8038CD21020000000000000000000000000000000041E64640081209205A7126080F907EF7D5F09FD76BB57FB9FFFFFFFFFFBE7EF7D5F09FD76BB57E000000000001C07FB1FFFFFFFFFFBF7E585C7126080F907E00000000000
310
1C17E1
340
0
360
0
 94
        0
  0
LINE
  5
7634
330
17
100
AcDbEntity
  8
M01
100
AcDbLine
 10
729.1834495754188
 20
397.2077421121925
 30
0.0
 11
578.2833035754189
 21
397.2077421121928
 31
0.0
  0
LINE
  5
7636
330
17
100
AcDbEntity
  8
M01
100
AcDbLine
 10
729.1834495754188
 20
421.2077421121926
 30
0.0
 11
578.2833035754189
 21
421.2077421121927
 31
0.0
  0
LINE
  5
7639
330
17
100
AcDbEntity
  8
M01
100
AcDbLine
 10
572.9833765754189
 20
400.7077311121927
 30
0.0
 11
573.4833765754189
 21
400.2077311121927
 31
0.0
  0
LINE
  5
763A
330
17
100
AcDbEntity
  8
M01
100
AcDbLine
 10
573.4833765754189
 20
418.2077421121928
 30
0.0
 11
573.4833765754189
 21
400.2077421121927
 31
0.0
  0
LINE
  5
763B
330
17
100
AcDbEntity
  8
M01
100
AcDbLine
 10
578.2833035754189
 20
421.2077421121927
 30
0.0
 11
578.2833035754189
 21
397.2077421121927
 31
0.0
  0
LINE
  5
763C
330
17
100
AcDbEntity
  8
M01
100
AcDbLine
 10
576.9833765754189
 20
420.5705241121927
 30
0.0
 11
576.9833765754189
 21
397.8449381121927
 31
0.0
  0
LINE
  5
763D
330
17
100
AcDbEntity
  8
M01
100
AcDbLine
 10
575.9833765754189
 20
399.9572421121927
 30
0.0
 11
575.9833765754189
 21
418.4572421121927
 31
0.0
  0
LINE
  5
763E
330
17
100
AcDbEntity
  8
M01
100
AcDbLine
 10
576.2333765754188
 20
418.7072421121928
 30
0.0
 11
576.2333765754188
 21
399.7072421121927
 31
0.0
  0
LINE
  5
763F
330
17
100
AcDbEntity
  8
M01
100
AcDbLine
 10
576.2333765754188
 20
399.7072421121927
 30
0.0
 11
576.9833765754189
 21
399.7072421121927
 31
0.0
  0
LINE
  5
7642
330
17
100
AcDbEntity
  8
M01
100
AcDbLine
 10
573.4833765754189
 20
400.2077311121927
 30
0.0
 11
575.9833765754189
 21
400.2077311121927
 31
0.0
  0
LINE
  5
7644
330
17
100
AcDbEntity
  8
M01
100
AcDbLine
 10
575.9833765754189
 20
399.9572421121927
 30
0.0
 11
576.2333765754188
 21
399.7072421121927
 31
0.0
  0
LINE
  5
7645
330
17
100
AcDbEntity
  8
M01
100
AcDbLine
 10
578.2833035754189
 20
397.8449381121927
 30
0.0
 11
576.9833765754189
 21
397.8449381121927
 31
0.0
  0
LINE
  5
7647
330
17
100
AcDbEntity
  8
M01
100
AcDbLine
 10
560.4833765754189
 20
409.2077421121927
 30
0.0
 11
570.0103545754188
 21
403.7077421121927
 31
0.0
  0
LINE
  5
7649
330
17
100
AcDbEntity
  8
M01
100
AcDbLine
 10
560.4833765754189
 20
409.2077421121927
 30
0.0
 11
570.0103545754188
 21
414.7077421121927
 31
0.0
  0
ARC
  5
764A
330
17
100
AcDbEntity
  8
M01
100
AcDbCircle
 10
565.9477315754188
 20
409.2077421121927
 30
0.0
 40
1.0
100
AcDbArc
 50
270.0
 51
89.99998500000002
  0
ARC
  5
764B
330
17
100
AcDbEntity
  8
M01
100
AcDbCircle
 10
565.2890405754188
 20
411.4284761121927
 30
0.0
 40
3.221401999999999
100
AcDbArc
 50
223.580139
 51
268.8319399999999
  0
ARC
  5
764C
330
17
100
AcDbEntity
  8
M01
100
AcDbCircle
 10
-565.2890405754188
 20
406.9870081121927
 30
0.0
 40
3.221401999999999
210
0.0
220
0.0
230
-1.0
100
AcDbArc
 50
43.58013900000003
 51
88.83193999999994
  0
ARC
  5
764D
330
17
100
AcDbEntity
  8
M01
100
AcDbCircle
 10
566.7969755754188
 20
409.2105801121928
 30
0.0
 40
0.811339
100
AcDbArc
 50
106.1792449999999
 51
254.199615
  0
LINE
  5
764E
330
17
100
AcDbEntity
  8
M01
100
AcDbLine
 10
565.9477315754188
 20
408.2077421121927
 30
0.0
 11
565.2233665754189
 21
408.2077421121927
 31
0.0
  0
LINE
  5
764F
330
17
100
AcDbEntity
  8
M01
100
AcDbLine
 10
565.9477315754188
 20
410.2077421121927
 30
0.0
 11
565.2233665754189
 21
410.2077421121927
 31
0.0
  0
LINE
  5
7650
330
17
100
AcDbEntity
  8
M01
100
AcDbLine
 10
576.9833765754189
 20
418.7072421121928
 30
0.0
 11
576.2333765754188
 21
418.7072421121928
 31
0.0
  0
LINE
  5
7652
330
17
100
AcDbEntity
  8
M01
100
AcDbLine
 10
570.0103545754188
 20
412.3923121121928
 30
0.0
 11
570.0103545754188
 21
411.4990021121927
 31
0.0
  0
LINE
  5
7653
330
17
100
AcDbEntity
  8
M01
100
AcDbLine
 10
572.9833765754189
 20
417.7077311121927
 30
0.0
 11
572.9833765754189
 21
400.7077311121927
 31
0.0
  0
LINE
  5
7654
330
17
100
AcDbEntity
  8
M01
100
AcDbLine
 10
572.9833765754189
 20
403.7077421121927
 30
0.0
 11
570.0103545754188
 21
403.7077421121927
 31
0.0
  0
LINE
  5
7655
330
17
100
AcDbEntity
  8
M01
100
AcDbLine
 10
570.0103545754188
 20
406.9164821121927
 30
0.0
 11
572.9833765754189
 21
406.9164821121927
 31
0.0
  0
LINE
  5
7656
330
17
100
AcDbEntity
  8
M01
100
AcDbLine
 10
570.0103545754188
 20
406.0231111121927
 30
0.0
 11
572.9833765754189
 21
406.0231111121927
 31
0.0
  0
LINE
  5
7657
330
17
100
AcDbEntity
  8
M01
100
AcDbLine
 10
572.9833765754189
 20
411.4990021121927
 30
0.0
 11
570.0103545754188
 21
411.4990021121927
 31
0.0
  0
LINE
  5
7658
330
17
100
AcDbEntity
  8
M01
100
AcDbLine
 10
570.0103545754188
 20
406.9164821121927
 30
0.0
 11
570.0103545754188
 21
406.0231111121927
 31
0.0
  0
ARC
  5
7659
330
17
100
AcDbEntity
  8
M01
100
AcDbCircle
 10
570.1387725754188
 20
404.8654571121927
 30
0.0
 40
1.164754999999999
100
AcDbArc
 50
96.32991000000004
 51
216.3421629999998
  0
ARC
  5
765A
330
17
100
AcDbEntity
  8
M01
100
AcDbCircle
 10
572.1351095754189
 20
409.2077421121927
 30
0.0
 40
3.124813
100
AcDbArc
 50
132.840698
 51
227.1592709999999
  0
LINE
  5
765B
330
17
100
AcDbEntity
  8
M01
100
AcDbLine
 10
572.9833765754189
 20
412.3923121121928
 30
0.0
 11
570.0103545754188
 21
412.3923121121928
 31
0.0
  0
LINE
  5
765C
330
17
100
AcDbEntity
  8
M01
100
AcDbLine
 10
572.9833765754189
 20
414.7077421121927
 30
0.0
 11
570.0103545754188
 21
414.7077421121927
 31
0.0
  0
ARC
  5
765F
330
17
100
AcDbEntity
  8
M01
100
AcDbCircle
 10
-570.1387725754188
 20
413.5500271121927
 30
0.0
 40
1.164754999999999
210
0.0
220
0.0
230
-1.0
100
AcDbArc
 50
276.32991
 51
36.34216299999993
  0
LINE
  5
7660
330
17
100
AcDbEntity
  8
M01
100
AcDbLine
 10
572.9833765754189
 20
417.7077311121927
 30
0.0
 11
573.4833765754189
 21
418.2077311121927
 31
0.0
  0
LINE
  5
7661
330
17
100
AcDbEntity
  8
M01
100
AcDbLine
 10
573.4833765754189
 20
418.2077311121927
 30
0.0
 11
575.9833765754189
 21
418.2077311121927
 31
0.0
  0
LINE
  5
7663
330
17
100
AcDbEntity
  8
M01
100
AcDbLine
 10
575.9833765754189
 20
418.4572421121927
 30
0.0
 11
576.2333765754188
 21
418.7072421121928
 31
0.0
  0
LINE
  5
7664
330
17
100
AcDbEntity
  8
M01
100
AcDbLine
 10
578.2833035754189
 20
420.5705241121927
 30
0.0
 11
576.9833765754189
 21
420.5705241121927
 31
0.0
  0
LINE
  5
7665
330
17
100
AcDbEntity
  8
M01
100
AcDbLine
 10
746.4833765754189
 20
409.2077421121927
 30
0.0
 11
746.4833765754189
 21
392.7077421121927
 31
0.0
  0
LINE
  5
7666
330
17
100
AcDbEntity
  8
M01
100
AcDbLine
 10
748.9833765754188
 20
392.2077421121926
 30
0.0
 11
748.9833765754188
 21
409.2077421121927
 31
0.0
  0
LINE
  5
7667
330
17
100
AcDbEntity
  8
M01
100
AcDbLine
 10
754.4833765754189
 20
392.7077421121927
 30
0.0
 11
754.4833765754189
 21
409.2077421121927
 31
0.0
  0
LINE
  5
7668
330
17
100
AcDbEntity
  8
M01
100
AcDbLine
 10
756.4833765754189
 20
425.2077421121927
 30
0.0
 11
756.4833765754189
 21
393.2077421121927
 31
0.0
  0
LINE
  5
7669
330
17
100
AcDbEntity
  8
M01
100
AcDbLine
 10
755.9833765754189
 20
392.7077421121927
 30
0.0
 11
755.9833765754189
 21
425.7077421121927
 31
0.0
  0
LINE
  5
766A
330
17
100
AcDbEntity
  8
M01
100
AcDbLine
 10
746.9833765754189
 20
392.2077421121926
 30
0.0
 11
746.9833765754189
 21
426.2077421121927
 31
0.0
  0
LINE
  5
766B
330
17
100
AcDbEntity
  8
M01
100
AcDbLine
 10
753.3135045754189
 20
394.7077421121927
 30
0.0
 11
753.3135045754189
 21
423.7077421121926
 31
0.0
  0
LINE
  5
766D
330
17
100
AcDbEntity
  8
M01
100
AcDbLine
 10
748.9833765754188
 20
392.2077421121926
 30
0.0
 11
746.9833765754189
 21
392.2077421121926
 31
0.0
  0
LINE
  5
7674
330
17
100
AcDbEntity
  8
M01
100
AcDbLine
 10
746.4833765754189
 20
392.7077421121927
 30
0.0
 11
746.9833765754189
 21
392.2077421121926
 31
0.0
  0
LINE
  5
7676
330
17
100
AcDbEntity
  8
M01
100
AcDbLine
 10
752.9833765754188
 20
394.5171441121927
 30
0.0
 11
752.9833765754188
 21
386.7077421121927
 31
0.0
  0
LINE
  5
7679
330
17
100
AcDbEntity
  8
M01
100
AcDbLine
 10
752.9833765754188
 20
386.7077421121927
 30
0.0
 11
752.4833765754189
 21
386.2077421121927
 31
0.0
  0
LINE
  5
767A
330
17
100
AcDbEntity
  8
M01
100
AcDbLine
 10
749.9833765754189
 20
386.7077421121927
 30
0.0
 11
752.9833765754188
 21
386.7077421121927
 31
0.0
  0
LINE
  5
767C
330
17
100
AcDbEntity
  8
M01
100
AcDbLine
 10
749.9833765754189
 20
386.7077421121927
 30
0.0
 11
750.4833765754189
 21
386.2077421121927
 31
0.0
  0
LINE
  5
767E
330
17
100
AcDbEntity
  8
M01
100
AcDbLine
 10
752.4833765754189
 20
386.2077421121927
 30
0.0
 11
750.4833765754189
 21
386.2077421121927
 31
0.0
  0
ARC
  5
7680
330
17
100
AcDbEntity
  8
M01
100
AcDbCircle
 10
751.9863975754189
 20
392.7798591121927
 30
0.0
 40
2.003029
100
AcDbArc
 50
60.14968899999998
 51
179.850311
  0
LINE
  5
7682
330
17
100
AcDbEntity
  8
M01
100
AcDbLine
 10
749.9833765754189
 20
392.7850931121927
 30
0.0
 11
749.9833765754189
 21
386.7077421121927
 31
0.0
  0
LINE
  5
7684
330
17
100
AcDbEntity
  8
M01
100
AcDbLine
 10
748.9833765754188
 20
392.2077421121926
 30
0.0
 11
749.9833765754189
 21
392.7850931121927
 31
0.0
  0
LINE
  5
7686
330
17
100
AcDbEntity
  8
M01
100
AcDbLine
 10
755.9833765754189
 20
392.7077421121927
 30
0.0
 11
754.4833765754189
 21
392.7077421121927
 31
0.0
  0
LINE
  5
7687
330
17
100
AcDbEntity
  8
M01
100
AcDbLine
 10
756.4833765754189
 20
393.2077421121927
 30
0.0
 11
755.9833765754189
 21
392.7077421121927
 31
0.0
  0
LINE
  5
7688
330
17
100
AcDbEntity
  8
M01
100
AcDbLine
 10
754.4833765754189
 20
394.7077421121927
 30
0.0
 11
753.3135045754189
 21
394.7077421121927
 31
0.0
  0
LINE
  5
7689
330
17
100
AcDbEntity
  8
M01
100
AcDbLine
 10
752.9833765754188
 20
394.5171441121927
 30
0.0
 11
753.3135045754189
 21
394.7077421121927
 31
0.0
  0
LINE
  5
768A
330
17
100
AcDbEntity
  8
M01
100
AcDbLine
 10
748.9833765754188
 20
426.2077421121927
 30
0.0
 11
746.9833765754189
 21
426.2077421121927
 31
0.0
  0
LINE
  5
768D
330
17
100
AcDbEntity
  8
M01
100
AcDbLine
 10
746.4833765754189
 20
425.7077421121927
 30
0.0
 11
746.4833765754189
 21
409.2077421121927
 31
0.0
  0
LINE
  5
7691
330
17
100
AcDbEntity
  8
M01
100
AcDbLine
 10
746.4833765754189
 20
425.7077421121927
 30
0.0
 11
746.9833765754189
 21
426.2077421121927
 31
0.0
  0
LINE
  5
7693
330
17
100
AcDbEntity
  8
M01
100
AcDbLine
 10
748.9833765754188
 20
426.2077421121927
 30
0.0
 11
753.3135045754189
 21
423.7077421121926
 31
0.0
  0
LINE
  5
7694
330
17
100
AcDbEntity
  8
M01
100
AcDbLine
 10
748.9833765754188
 20
426.2077421121927
 30
0.0
 11
748.9833765754188
 21
409.2077421121927
 31
0.0
  0
LINE
  5
7695
330
17
100
AcDbEntity
  8
M01
100
AcDbLine
 10
754.4833765754189
 20
425.7077421121927
 30
0.0
 11
754.4833765754189
 21
409.2077421121927
 31
0.0
  0
LINE
  5
7696
330
17
100
AcDbEntity
  8
M01
100
AcDbLine
 10
754.4833765754189
 20
423.7077421121926
 30
0.0
 11
753.3135045754189
 21
423.7077421121926
 31
0.0
  0
LINE
  5
7699
330
17
100
AcDbEntity
  8
M01
100
AcDbLine
 10
755.9833765754189
 20
425.7077421121927
 30
0.0
 11
754.4833765754189
 21
425.7077421121927
 31
0.0
  0
LINE
  5
769A
330
17
100
AcDbEntity
  8
M01
100
AcDbLine
 10
755.9833765754189
 20
425.7077421121927
 30
0.0
 11
756.4833765754189
 21
425.2077421121927
 31
0.0
  0
LINE
  5
769B
330
17
100
AcDbEntity
  8
CENTRE
 48
0.7
100
AcDbLine
 10
550.3156328939748
 20
409.2077421121927
 30
0.0
 11
764.8007494220593
 21
409.2077421121927
 31
0.0
  0
LINE
  5
769E
330
17
100
AcDbEntity
  8
M01
100
AcDbLine
 10
726.9833765754188
 20
421.2077421121926
 30
0.0
 11
726.9833765754189
 21
448.3944672276916
 31
0.0
  0
LINE
  5
769F
330
17
100
AcDbEntity
  8
M01
100
AcDbLine
 10
729.4833765754189
 20
420.5705241121926
 30
0.0
 11
729.4833765754187
 21
448.3944672276915
 31
0.0
  0
LINE
  5
76A3
330
17
100
AcDbEntity
  8
M03
 48
0.7
100
AcDbLine
 10
570.9833765754189
 20
411.7077421121927
 30
0.0
 11
756.4833765754189
 21
411.7077421121927
 31
0.0
  0
LINE
  5
76A5
330
17
100
AcDbEntity
  8
M03
 48
0.7
100
AcDbLine
 10
570.9833765754189
 20
406.7077421121927
 30
0.0
 11
756.4833765754189
 21
406.7077421121927
 31
0.0
  0
LINE
  5
76A8
330
17
100
AcDbEntity
  8
M03
 48
0.7
100
AcDbLine
 10
565.9477318372182
 20
410.2077421121927
 30
0.0
 11
568.6920887279409
 21
410.2077421121927
 31
0.0
  0
LINE
  5
76A9
330
17
100
AcDbEntity
  8
M03
 48
0.7
100
AcDbLine
 10
565.9477315754188
 20
408.2077421121927
 30
0.0
 11
568.6920887279409
 21
408.2077421121927
 31
0.0
  0
LINE
  5
76AA
330
17
100
AcDbEntity
  8
M01
100
AcDbLine
 10
732.4833765754187
 20
491.2077421121927
 30
0.0
 11
729.9833765754189
 21
491.2077421121926
 31
0.0
  0
LINE
  5
76AB
330
17
100
AcDbEntity
  8
M04
100
AcDbLine
 10
575.4833765754189
 20
421.2077421121927
 30
0.0
 11
575.483376575419
 21
418.2077311121927
 31
0.0
  0
LINE
  5
76AC
330
17
100
AcDbEntity
  8
M04
100
AcDbLine
 10
577.4833765754189
 20
423.2077421121927
 30
0.0
 11
726.9833765754188
 21
423.2077421121928
 31
0.0
  0
LINE
  5
76AD
330
17
100
AcDbEntity
  8
M04
100
AcDbLine
 10
577.4833765754189
 20
395.2077421121927
 30
0.0
 11
746.483376575419
 21
395.2077421121927
 31
0.0
  0
ARC
  5
76AE
330
17
100
AcDbEntity
  8
M04
100
AcDbCircle
 10
577.4833765754189
 20
421.2077421121927
 30
0.0
 40
2.0
100
AcDbArc
 50
90.0
 51
180.0
  0
ARC
  5
76AF
330
17
100
AcDbEntity
  8
M04
100
AcDbCircle
 10
577.4833765754189
 20
397.2077421121927
 30
0.0
 40
2.0
100
AcDbArc
 50
180.0
 51
270.0
  0
LINE
  5
76B0
330
17
100
AcDbEntity
  8
M04
100
AcDbLine
 10
560.4833765754188
 20
430.1928457658632
 30
0.0
 11
560.483376575419
 21
388.3650203122227
 31
0.0
  0
LINE
  5
76B1
330
17
100
AcDbEntity
  8
M04
100
AcDbLine
 10
575.483376575419
 20
400.2077311121927
 30
0.0
 11
575.483376575419
 21
397.2077421121927
 31
0.0
  0
LINE
  5
76B5
330
17
100
AcDbEntity
  8
M04
100
AcDbLine
 10
756.4833765754189
 20
393.2077421121927
 30
0.0
 11
756.4833765754189
 21
378.9661072684996
 31
0.0
  0
LINE
  5
76B7
330
17
100
AcDbEntity
  8
M04
100
AcDbLine
 10
746.4833765754189
 20
392.7077421121927
 30
0.0
 11
746.4833765754187
 21
392.2077421121926
 31
0.0
  0
LINE
  5
76B8
330
17
100
AcDbEntity
  8
M04
100
AcDbLine
 10
746.9833765754189
 20
392.2077421121926
 30
0.0
 11
746.4833765754187
 21
392.2077421121926
 31
0.0
  0
LINE
  5
76B9
330
17
100
AcDbEntity
  8
M04
100
AcDbLine
 10
737.4833765754187
 20
423.2077421121927
 30
0.0
 11
737.4833765754187
 21
549.2077421121925
 31
0.0
  0
LINE
  5
76C0
330
17
100
AcDbEntity
  8
M04
100
AcDbLine
 10
560.4833765754189
 20
409.7077421121928
 30
0.0
 11
560.6333765754189
 21
409.7077421121928
 31
0.0
  0
LINE
  5
76C1
330
17
100
AcDbEntity
  8
M04
100
AcDbLine
 10
560.4833765754189
 20
408.7077421121927
 30
0.0
 11
560.6333765754189
 21
408.7077421121927
 31
0.0
  0
LINE
  5
76C2
330
17
100
AcDbEntity
  8
M04
100
AcDbLine
 10
560.6333765754189
 20
409.7077421121928
 30
0.0
 11
560.6333765754189
 21
408.7077421121927
 31
0.0
  0
LINE
  5
76C3
330
17
100
AcDbEntity
  8
M04
100
AcDbLine
 10
560.6333765754189
 20
409.7077421121928
 30
0.0
 11
567.6689104813513
 21
416.7432760181254
 31
0.0
  0
LINE
  5
76C4
330
17
100
AcDbEntity
  8
M04
100
AcDbLine
 10
573.4833765754189
 20
418.2077421121928
 30
0.0
 11
571.2044443872842
 21
418.2077421121927
 31
0.0
  0
LINE
  5
76C5
330
17
100
AcDbEntity
  8
M01
100
AcDbLine
 10
735.233376575419
 20
516.2077421121928
 30
0.0
 11
727.2333765754187
 21
516.2077421121925
 31
0.0
  0
LINE
  5
76C7
330
17
100
AcDbEntity
  8
M01
100
AcDbLine
 10
735.233376575419
 20
509.2077421121928
 30
0.0
 11
735.233376575419
 21
516.2077421121928
 31
0.0
  0
LINE
  5
76C8
330
17
100
AcDbEntity
  8
M01
100
AcDbLine
 10
732.4833765754187
 20
491.2077421121927
 30
0.0
 11
734.2333765754188
 21
501.1324852965247
 31
0.0
  0
LINE
  5
76C9
330
17
100
AcDbEntity
  8
M01
100
AcDbLine
 10
727.2333765754187
 20
509.2077421121925
 30
0.0
 11
727.2333765754187
 21
516.2077421121925
 31
0.0
  0
LINE
  5
76CA
330
17
100
AcDbEntity
  8
M01
100
AcDbLine
 10
729.983376575419
 20
491.2077421121927
 30
0.0
 11
728.2333765754185
 21
501.1324852965254
 31
0.0
  0
LINE
  5
76CB
330
17
100
AcDbEntity
  8
M01
100
AcDbLine
 10
728.2333765754185
 20
501.1324852965254
 30
0.0
 11
728.2333765754186
 21
509.2077421121926
 31
0.0
  0
LINE
  5
76CC
330
17
100
AcDbEntity
  8
M01
100
AcDbLine
 10
734.2333765754188
 20
501.1324852965247
 30
0.0
 11
734.2333765754188
 21
509.2077421121927
 31
0.0
  0
LINE
  5
76CD
330
17
100
AcDbEntity
  8
M01
100
AcDbLine
 10
728.2333765754185
 20
501.1324852965254
 30
0.0
 11
734.2333765754188
 21
501.1324852965247
 31
0.0
  0
LINE
  5
76CE
330
17
100
AcDbEntity
  8
M01
100
AcDbLine
 10
735.233376575419
 20
509.2077421121928
 30
0.0
 11
727.2333765754187
 21
509.2077421121925
 31
0.0
  0
LINE
  5
76CF
330
17
100
AcDbEntity
  8
M01
100
AcDbLine
 10
729.9833765754189
 20
468.9078592275811
 30
0.0
 11
729.9833765754189
 21
491.2077421121926
 31
0.0
  0
LINE
  5
76D0
330
17
100
AcDbEntity
  8
M01
100
AcDbLine
 10
732.4833765754187
 20
468.9078592275812
 30
0.0
 11
732.4833765754187
 21
491.2077421121927
 31
0.0
  0
LINE
  5
76D1
330
17
100
AcDbEntity
  8
CENTRE
 48
0.7
100
AcDbLine
 10
731.2333765754187
 20
484.6990083503515
 30
0.0
 11
731.2333765754189
 21
547.0603851609264
 31
0.0
  0
ARC
  5
76D5
330
17
100
AcDbEntity
  8
M01
100
AcDbCircle
 10
748.233376575419
 20
448.3944672276915
 30
0.0
 40
21.25
100
AcDbArc
 50
170.0
 51
180.0
  0
LINE
  5
76D6
330
17
100
AcDbEntity
  8
M01
100
AcDbLine
 10
727.3062118239096
 20
452.0844910031137
 30
0.0
 11
729.6985219443977
 21
465.6519558963264
 31
0.0
  0
ARC
  5
76D7
330
17
100
AcDbEntity
  8
M01
100
AcDbCircle
 10
711.2333765754187
 20
468.9078592275812
 30
0.0
 40
18.75
100
AcDbArc
 50
350.0000000000003
 51
0.0
  0
ARC
  5
76D8
330
17
100
AcDbEntity
  8
M01
100
AcDbCircle
 10
711.2333765754187
 20
468.9078592275812
 30
0.0
 40
21.25
100
AcDbArc
 50
350.0000000000003
 51
0.0
  0
LINE
  5
76D9
330
17
100
AcDbEntity
  8
M01
100
AcDbLine
 10
729.7682312064401
 20
451.6503705589464
 30
0.0
 11
732.1605413269282
 21
465.217835452159
 31
0.0
  0
ARC
  5
76DA
330
17
100
AcDbEntity
  8
M01
100
AcDbCircle
 10
748.233376575419
 20
448.3944672276915
 30
0.0
 40
18.75
100
AcDbArc
 50
170.0
 51
180.0
  0
LINE
  5
76DB
330
17
100
AcDbEntity
  8
M01
100
AcDbLine
 10
728.2333765754186
 20
516.2077421121925
 30
0.0
 11
728.2333765754186
 21
542.4235718033469
 31
0.0
  0
LINE
  5
76DD
330
17
100
AcDbEntity
  8
M01
100
AcDbLine
 10
734.2333765754187
 20
516.2077421121928
 30
0.0
 11
734.2333765754187
 21
542.4235718033469
 31
0.0
  0
HATCH
  5
76E6
330
17
100
AcDbEntity
  8
M04
100
AcDbHatch
 10
0.0
 20
0.0
 30
0.0
210
0.0
220
0.0
230
1.0
  2
_U
 70
     0
 71
     0
 91
        2
 92
        7
 72
     0
 73
     1
 93
        4
 10
731.2333765754189
 20
542.4235718033469
 10
728.2333765754188
 20
542.4235718033469
 10
728.2333765754188
 20
516.2077421121925
 10
731.2333765754187
 20
516.2077421121925
 97
        0
 92
        7
 72
     0
 73
     1
 93
        4
 10
734.2333765754187
 20
542.4235718033469
 10
731.2333765754187
 20
542.4235718033469
 10
731.2333765754189
 20
516.2077421121925
 10
734.2333765754187
 20
516.2077421121928
 97
        0
 75
     0
 76
     0
 52
45.0
 41
1.0
 77
     1
 78
     2
 53
45.0
 43
-50.81376180814789
 44
75.32883416800581
 45
-0.7071067811865475
 46
0.7071067811865476
 79
     0
 53
135.0
 43
-50.81376180814789
 44
75.32883416800581
 45
-0.7071067811865476
 46
-0.7071067811865475
 79
     0
 47
0.0843056911458626
 98
        2
 10
730.4067951388214
 20
526.574101817677
 10
733.0212994969027
 20
527.2485468012953
  0
ARC
  5
76EA
330
17
100
AcDbEntity
  8
M04
100
AcDbCircle
 10
571.2044443872842
 20
413.2077421121927
 30
0.0
 40
5.0
100
AcDbArc
 50
90.0
 51
135.0
  0
LINE
  5
76EB
330
17
100
AcDbEntity
  8
M04
100
AcDbLine
 10
560.6333765754189
 20
408.7077421121927
 30
0.0
 11
567.6689104813513
 21
401.67220820626
 31
0.0
  0
LINE
  5
76EC
330
17
100
AcDbEntity
  8
M04
100
AcDbLine
 10
573.4833765754189
 20
400.2077421121927
 30
0.0
 11
571.2044443872842
 21
400.2077421121928
 31
0.0
  0
ARC
  5
76ED
330
17
100
AcDbEntity
  8
M04
100
AcDbCircle
 10
571.2044443872842
 20
405.2077421121928
 30
0.0
 40
5.0
100
AcDbArc
 50
225.0
 51
270.0
  0
ARC
  5
76EF
330
17
100
AcDbEntity
  8
M03
100
AcDbCircle
 10
570.9833765754189
 20
409.2077421121927
 30
0.0
 40
2.5
100
AcDbArc
 50
90.0
 51
270.0
  0
LINE
  5
76F0
330
17
100
AcDbEntity
  8
CENTRE
 48
0.7
100
AcDbLine
 10
751.4833765754189
 20
380.966125298301
 30
0.0
 11
751.4833765754189
 21
398.8637378101055
 31
0.0
  0
TEXT
  5
76F1
330
17
100
AcDbEntity
  8
TEXT
100
AcDbText
 10
586.4316093528177
 20
415.3734497655206
 30
0.0
 40
2.0
  1
DG010018
 41
0.9
100
AcDbText
  0
DIMENSION
  5
7727
330
17
100
AcDbEntity
  8
DIMS
100
AcDbDimension
  2
*D0
 10
575.483376575419
 20
365.2875996547109
 30
0.0
 11
567.983376575419
 21
368.2875996547109
 31
0.0
 70
    32
  1
15.0
 71
     5
 42
15.0
  3
DIM1
100
AcDbAlignedDimension
 13
560.483376575419
 23
388.3650203122227
 33
0.0
 14
575.483376575419
 24
397.2077421121927
 34
0.0
100
AcDbRotatedDimension
1001
ACAD
1000
DSTYLE
1002
{
1070
   144
1040
1.0
1002
}
  0
DIMENSION
  5
7733
330
17
100
AcDbEntity
  8
DIMS
100
AcDbDimension
  2
*D1
 10
756.4833765754189
 20
365.2875996547109
 30
0.0
 11
665.983376575419
 21
368.2875996547109
 31
0.0
 70
    32
  1
N=<>
 71
     5
 42
180.9999999999998
  3
DIM1
100
AcDbAlignedDimension
 13
575.483376575419
 23
397.2077421121927
 33
0.0
 14
756.4833765754189
 24
378.9661072684996
 34
0.0
100
AcDbRotatedDimension
1001
ACAD
1000
DSTYLE
1002
{
1070
    75
1070
     1
1070
   144
1040
1.0
1070
   279
1070
     1
1070
   289
1070
     3
1002
}
  0
DIMENSION
  5
7740
330
17
100
AcDbEntity
  8
DIMS
100
AcDbDimension
  2
*D2
 10
746.4833765754187
 20
355.3354620034718
 30
0.0
 11
653.4833765754188
 21
358.3354620034718
 31
0.0
 70
    32
  1
L1=<>
 71
     5
 42
185.9999999999997
  3
DIM1
100
AcDbAlignedDimension
 13
560.483376575419
 23
388.3650203122227
 33
0.0
 14
746.4833765754187
 24
392.2077421121926
 34
0.0
100
AcDbRotatedDimension
1001
ACAD
1000
DSTYLE
1002
{
1070
   144
1040
1.0
1002
}
  0
DIMENSION
  5
774D
330
17
100
AcDbEntity
  8
DIMS
100
AcDbDimension
  2
*D3
 10
756.4833765754189
 20
345.3354620034718
 30
0.0
 11
658.483376575419
 21
348.3354620034718
 31
0.0
 70
    32
  1
L=<>
 71
     5
 42
195.9999999999998
  3
DIM1
100
AcDbAlignedDimension
 13
560.483376575419
 23
388.3650203122227
 33
0.0
 14
756.4833765754189
 24
378.9661072684996
 34
0.0
100
AcDbRotatedDimension
1001
ACAD
1000
DSTYLE
1002
{
1070
   144
1040
1.0
1002
}
  0
DIMENSION
  5
7785
330
17
100
AcDbEntity
  8
DIMS
100
AcDbDimension
  2
*D4
 10
538.3036342093746
 20
400.2077421121928
 30
0.0
 11
535.3036342093745
 21
409.2077421121928
 31
0.0
 70
    32
  1
%%c<>
 71
     5
 42
17.99999999999988
  3
DIM1
100
AcDbAlignedDimension
 13
571.2044443872842
 23
418.2077421121927
 33
0.0
 14
571.204444387284
 24
400.2077421121928
 34
0.0
 50
90.0
100
AcDbRotatedDimension
1001
ACAD
1000
DSTYLE
1002
{
1070
   144
1040
1.0
1002
}
  0
DIMENSION
  5
779D
330
17
100
AcDbEntity
  8
DIMS
100
AcDbDimension
  2
*D5
 10
784.9399971282817
 20
426.2077421121927
 30
0.0
 11
784.9399971282816
 21
404.4690727446861
 31
0.0
 70
   160
  1
%%c<>
 71
     5
 42
34.0
  3
DIM1
100
AcDbAlignedDimension
 13
748.9833765754188
 23
392.2077421121926
 33
0.0
 14
748.9833765754188
 24
426.2077421121927
 34
0.0
 50
90.0
100
AcDbRotatedDimension
1001
ACAD
1000
DSTYLE
1002
{
1070
   144
1040
1.0
1002
}
  0
TEXT
  5
77A9
330
17
100
AcDbEntity
  8
DIMS
 62
     2
100
AcDbText
 10
779.8498778265418
 20
413.720203919692
 30
0.0
 40
2.0
  1
+0.025
 50
90.0
100
AcDbText
  0
TEXT
  5
77AA
330
17
100
AcDbEntity
  8
DIMS
 62
     2
100
AcDbText
 10
782.9347981983626
 20
413.720203919692
 30
0.0
 40
2.0
  1
-0
 50
90.0
100
AcDbText
  0
TEXT
  5
77CC
330
17
100
AcDbEntity
  8
DIMS
 62
     2
100
AcDbText
 10
533.8828379338983
 20
419.7334375453642
 30
0.0
 40
2.0
  1
+0.018
 50
90.0
100
AcDbText
  0
TEXT
  5
77CD
330
17
100
AcDbEntity
  8
DIMS
 62
     2
100
AcDbText
 10
536.9677583057191
 20
419.7334375453642
 30
0.0
 40
2.0
  1
-0
 50
90.0
100
AcDbText
  0
LINE
  5
77CE
330
17
100
AcDbEntity
  8
CENTRE
100
AcDbLine
 10
497.7387716623138
 20
409.2077421121927
 30
0.0
 11
448.1058629161024
 21
409.2077421121927
 31
0.0
  0
CIRCLE
  5
77E3
330
17
100
AcDbEntity
  8
M04
100
AcDbCircle
 10
560.4833765754189
 20
409.2077421121927
 30
0.0
 40
1.25
  0
LINE
  5
77EF
330
17
100
AcDbEntity
  8
0
  6
ByBlock
 62
     4
100
AcDbLine
 10
558.855338059893
 20
413.1335529318787
 30
0.0
 11
547.5196236773771
 21
440.4682073318602
 31
0.0
  0
LINE
  5
77F0
330
17
100
AcDbEntity
  8
0
  6
ByBlock
 62
     4
100
AcDbLine
 10
547.5196236773771
 20
440.4682073318602
 30
0.0
 11
544.5196236773772
 21
440.4682073318602
 31
0.0
  0
SOLID
  5
77F2
330
17
100
AcDbEntity
  8
0
  6
ByBlock
 62
     4
100
AcDbTrace
 10
559.3171981563267
 20
413.3250868748818
 30
0.0
 11
558.3934779634594
 21
412.9420189888758
 31
0.0
 12
560.0045417179112
 22
410.3623923532768
 32
0.0
 13
560.0045417179112
 23
410.3623923532768
 33
0.0
  0
MTEXT
  5
77F3
330
17
100
AcDbEntity
  8
0
  6
ByBlock
 62
     2
100
AcDbMText
 10
517.9164840738153
 20
440.46820733186
 30
0.0
 40
3.0
 41
0.0
 71
     5
 72
     1
  1
GATE INSERTION POINT
 73
     1
 44
1.0
  0
POINT
  5
77F4
330
17
100
AcDbEntity
  8
DEFPOINTS
  6
ByBlock
 62
     0
100
AcDbPoint
 10
560.0045417179112
 20
410.3623923532768
 30
0.0
  0
CIRCLE
  5
77FB
330
17
100
AcDbEntity
  8
M01
100
AcDbCircle
 10
472.9223172892081
 20
409.2077421121927
 30
0.0
 40
8.999999999999943
  0
CIRCLE
  5
77FC
330
17
100
AcDbEntity
  8
M01
100
AcDbCircle
 10
472.9223172892081
 20
409.2077421121927
 30
0.0
 40
11.36278199999998
  0
CIRCLE
  5
77FD
330
17
100
AcDbEntity
  8
M01
100
AcDbCircle
 10
472.9223172892081
 20
409.2077421121927
 30
0.0
 40
12.0
  0
CIRCLE
  5
77FE
330
17
100
AcDbEntity
  8
M04
100
AcDbCircle
 10
472.9223172892081
 20
409.2077421121927
 30
0.0
 40
14.0
  0
CIRCLE
  5
77FF
330
17
100
AcDbEntity
  8
M01
100
AcDbCircle
 10
472.9223172892081
 20
409.2077421121927
 30
0.0
 40
16.99999999999994
  0
ELLIPSE
  5
7806
330
17
100
AcDbEntity
  8
M01
100
AcDbEllipse
 10
472.9223172892081
 20
406.6282144060997
 30
0.0
 11
0.0
 21
-1.152395732798026
 31
0.0
210
0.0
220
0.0
230
1.0
 40
0.8677574651999025
 41
0.0
 42
6.283185307179586
  0
CIRCLE
  5
7808
330
17
100
AcDbEntity
  8
M01
100
AcDbCircle
 10
472.9223172892081
 20
409.2077421121927
 30
0.0
 40
5.5
  0
CIRCLE
  5
780B
330
17
100
AcDbEntity
  8
M01
100
AcDbCircle
 10
472.9223172892081
 20
409.2077421121927
 30
0.0
 40
8.49998899999997
  0
CIRCLE
  5
780C
330
17
100
AcDbEntity
  8
M01
100
AcDbCircle
 10
472.9223172892081
 20
409.2077421121927
 30
0.0
 40
9.499500000000011
  0
ARC
  5
780D
330
17
100
AcDbEntity
  8
M03
100
AcDbCircle
 10
472.9223172892081
 20
409.2077421121927
 30
0.0
 40
2.5
100
AcDbArc
 50
292.8535828289421
 51
67.14641717105536
  0
ELLIPSE
  5
780E
330
17
100
AcDbEntity
  8
M01
100
AcDbEllipse
 10
472.9223172892081
 20
411.7872698182858
 30
0.0
 11
0.0
 21
1.152395732798026
 31
0.0
210
0.0
220
0.0
230
-1.0
 40
0.8677574651999025
 41
0.0
 42
6.283185307179586
  0
ARC
  5
780F
330
17
100
AcDbEntity
  8
M03
100
AcDbCircle
 10
472.9223172892081
 20
409.2077421121927
 30
0.0
 40
2.5
100
AcDbArc
 50
112.8535828289451
 51
247.1464171710583
  0
ARC
  5
7810
330
17
100
AcDbEntity
  8
M01
100
AcDbCircle
 10
472.9223172892081
 20
409.2077421121927
 30
0.0
 40
2.499999999999982
100
AcDbArc
 50
67.14641717084997
 51
112.8535828289421
  0
ARC
  5
7811
330
17
100
AcDbEntity
  8
M01
100
AcDbCircle
 10
472.9223172892081
 20
409.2077421121927
 30
0.0
 40
2.499999999999982
100
AcDbArc
 50
247.1464171710578
 51
292.85358282915
  0
LWPOLYLINE
  5
7815
330
17
100
AcDbEntity
  8
M01
100
AcDbPolyline
 90
        2
 70
     0
 43
0.0
 10
477.4066307725065
 20
412.392225207376
 10
473.4380038059097
 20
414.6835130548539
  0
LWPOLYLINE
  5
7816
330
17
100
AcDbEntity
  8
M01
100
AcDbPolyline
 90
        2
 70
     0
 43
0.0
 10
472.4066307725065
 20
414.6835130548539
 10
468.4380038059097
 20
412.392225207376
  0
LWPOLYLINE
  5
7817
330
17
100
AcDbEntity
  8
M01
100
AcDbPolyline
 90
        2
 70
     0
 43
0.0
 10
467.9223172892081
 20
411.4990299596707
 10
467.9223172892081
 20
406.9164542647148
  0
LWPOLYLINE
  5
7818
330
17
100
AcDbEntity
  8
M01
100
AcDbPolyline
 90
        2
 70
     0
 43
0.0
 10
468.4380038059097
 20
406.0232590170095
 10
472.4066307725065
 20
403.7319711695316
  0
LWPOLYLINE
  5
7819
330
17
100
AcDbEntity
  8
M01
100
AcDbPolyline
 90
        2
 70
     0
 43
0.0
 10
473.4380038059097
 20
403.7319711695316
 10
477.4066307725065
 20
406.0232590170095
  0
LWPOLYLINE
  5
781A
330
17
100
AcDbEntity
  8
M01
100
AcDbPolyline
 90
        2
 70
     0
 43
0.0
 10
477.9223172892081
 20
406.9164542647158
 10
477.9223172892081
 20
411.4990299596716
  0
LINE
  5
7820
330
17
100
AcDbEntity
  8
M04
100
AcDbLine
 10
480.9223172892082
 20
549.2077421121926
 30
0.0
 11
480.9223172892082
 21
424.2077421121926
 31
0.0
  0
LINE
  5
7821
330
17
100
AcDbEntity
  8
M04
100
AcDbLine
 10
464.922317289208
 20
549.2077421121926
 30
0.0
 11
464.9223172892082
 21
424.2077421121926
 31
0.0
  0
LINE
  5
7822
330
17
100
AcDbEntity
  8
M01
100
AcDbLine
 10
474.4223172892081
 20
392.2740478903167
 30
0.0
 11
474.4223172892081
 21
386.7077421121927
 31
0.0
  0
LINE
  5
7823
330
17
100
AcDbEntity
  8
M01
100
AcDbLine
 10
474.4223172892081
 20
386.7077421121927
 30
0.0
 11
473.9223172892081
 21
386.2077421121927
 31
0.0
  0
LINE
  5
7824
330
17
100
AcDbEntity
  8
M01
100
AcDbLine
 10
471.4223172892081
 20
386.7077421121927
 30
0.0
 11
474.4223172892081
 21
386.7077421121927
 31
0.0
  0
LINE
  5
7825
330
17
100
AcDbEntity
  8
M01
100
AcDbLine
 10
471.4223172892081
 20
386.7077421121927
 30
0.0
 11
471.9223172892081
 21
386.2077421121927
 31
0.0
  0
LINE
  5
7826
330
17
100
AcDbEntity
  8
M01
100
AcDbLine
 10
473.9223172892081
 20
386.2077421121927
 30
0.0
 11
471.9223172892081
 21
386.2077421121927
 31
0.0
  0
LINE
  5
7827
330
17
100
AcDbEntity
  8
M01
100
AcDbLine
 10
471.4223172892081
 20
392.2740478903167
 30
0.0
 11
471.4223172892081
 21
386.7077421121927
 31
0.0
  0
LINE
  5
7841
330
17
100
AcDbEntity
  8
M01
100
AcDbLine
 10
470.672317289208
 20
491.2077421121927
 30
0.0
 11
468.1723172892081
 21
491.2077421121927
 31
0.0
  0
LINE
  5
7842
330
17
100
AcDbEntity
  8
M01
100
AcDbLine
 10
473.4223172892082
 20
516.2077421121929
 30
0.0
 11
465.422317289208
 21
516.2077421121925
 31
0.0
  0
LINE
  5
7843
330
17
100
AcDbEntity
  8
M01
100
AcDbLine
 10
473.4223172892082
 20
509.2077421121929
 30
0.0
 11
473.4223172892082
 21
516.2077421121929
 31
0.0
  0
LINE
  5
7844
330
17
100
AcDbEntity
  8
M01
100
AcDbLine
 10
470.672317289208
 20
491.2077421121927
 30
0.0
 11
472.4223172892081
 21
501.1324852965247
 31
0.0
  0
LINE
  5
7845
330
17
100
AcDbEntity
  8
M01
100
AcDbLine
 10
465.422317289208
 20
509.2077421121926
 30
0.0
 11
465.422317289208
 21
516.2077421121925
 31
0.0
  0
LINE
  5
7846
330
17
100
AcDbEntity
  8
M01
100
AcDbLine
 10
468.1723172892082
 20
491.2077421121927
 30
0.0
 11
466.4223172892078
 21
501.1324852965254
 31
0.0
  0
LINE
  5
7847
330
17
100
AcDbEntity
  8
M01
100
AcDbLine
 10
466.4223172892078
 20
501.1324852965254
 30
0.0
 11
466.4223172892079
 21
509.2077421121927
 31
0.0
  0
LINE
  5
7848
330
17
100
AcDbEntity
  8
M01
100
AcDbLine
 10
472.4223172892081
 20
501.1324852965247
 30
0.0
 11
472.422317289208
 21
509.2077421121928
 31
0.0
  0
LINE
  5
7849
330
17
100
AcDbEntity
  8
M01
100
AcDbLine
 10
466.4223172892078
 20
501.1324852965254
 30
0.0
 11
472.4223172892081
 21
501.1324852965247
 31
0.0
  0
LINE
  5
784A
330
17
100
AcDbEntity
  8
M01
100
AcDbLine
 10
473.4223172892082
 20
509.2077421121929
 30
0.0
 11
465.422317289208
 21
509.2077421121926
 31
0.0
  0
LINE
  5
784B
330
17
100
AcDbEntity
  8
M01
100
AcDbLine
 10
468.172317289208
 20
425.5306554550981
 30
0.0
 11
468.1723172892081
 21
491.2077421121927
 31
0.0
  0
LINE
  5
784C
330
17
100
AcDbEntity
  8
M01
100
AcDbLine
 10
470.6723172892081
 20
426.0581872101715
 30
0.0
 11
470.672317289208
 21
491.2077421121927
 31
0.0
  0
LINE
  5
784D
330
17
100
AcDbEntity
  8
CENTRE
 48
0.7
100
AcDbLine
 10
469.4223172892079
 20
484.6069879482461
 30
0.0
 11
469.4223172892081
 21
547.0603851609264
 31
0.0
  0
LINE
  5
784E
330
17
100
AcDbEntity
  8
M01
100
AcDbLine
 10
466.4223172892079
 20
516.2077421121925
 30
0.0
 11
466.4223172892079
 21
542.4235718033469
 31
0.0
  0
LINE
  5
784F
330
17
100
AcDbEntity
  8
M01
100
AcDbLine
 10
472.4223172892079
 20
516.2077421121928
 30
0.0
 11
472.4223172892079
 21
542.4235718033469
 31
0.0
  0
HATCH
  5
7850
330
17
100
AcDbEntity
  8
M04
100
AcDbHatch
 10
0.0
 20
0.0
 30
0.0
210
0.0
220
0.0
230
1.0
  2
_U
 70
     0
 71
     0
 91
        2
 92
        7
 72
     0
 73
     1
 93
        4
 10
469.4223172892081
 20
542.4235718033469
 10
466.4223172892079
 20
542.423571803347
 10
466.4223172892079
 20
516.2077421121925
 10
469.422317289208
 20
516.2077421121927
 97
        0
 92
        7
 72
     0
 73
     1
 93
        4
 10
472.4223172892079
 20
542.4235718033469
 10
469.422317289208
 20
542.4235718033469
 10
469.4223172892081
 20
516.2077421121925
 10
472.4223172892079
 20
516.2077421121928
 97
        0
 75
     0
 76
     0
 52
45.0
 41
1.0
 77
     1
 78
     2
 53
45.0
 43
-312.6248210943586
 44
75.32883416800586
 45
-0.7071067811865475
 46
0.7071067811865476
 79
     0
 53
135.0
 43
-312.6248210943586
 44
75.32883416800586
 45
-0.7071067811865476
 46
-0.7071067811865475
 79
     0
 47
0.0843056911458626
 98
        2
 10
468.5957358526106
 20
526.574101817677
 10
471.2102402106919
 20
527.2485468012953
  0
LINE
  5
7851
330
17
100
AcDbEntity
  8
CENTRE
 48
0.7
100
AcDbLine
 10
472.9223172892079
 20
379.2077421121927
 30
0.0
 11
472.9223172892079
 21
439.2077421121928
 31
0.0
  0
LINE
  5
7854
330
17
100
AcDbEntity
  8
M01
 48
0.7
100
AcDbLine
 10
473.9223172892079
 20
426.1783048606698
 30
0.0
 11
473.9223172892079
 21
437.1062065647089
 31
0.0
  0
LINE
  5
7855
330
17
100
AcDbEntity
  8
M01
 48
0.7
100
AcDbLine
 10
471.9223172892078
 20
426.1783048606698
 30
0.0
 11
471.9223172892078
 21
437.1062065647089
 31
0.0
  0
LINE
  5
7858
330
17
100
AcDbEntity
  8
M01
 48
0.7
100
AcDbLine
 10
478.3989047114205
 20
465.9937419672691
 30
0.0
 11
478.3989047114204
 21
484.2077421121927
 31
0.0
  0
LINE
  5
7859
330
17
100
AcDbEntity
  8
M01
 48
0.7
100
AcDbLine
 10
476.3989047114206
 20
465.9937419672695
 30
0.0
 11
476.3989047114205
 21
484.2077421121928
 31
0.0
  0
LINE
  5
785A
330
17
100
AcDbEntity
  8
CENTRE
100
AcDbLine
 10
477.3989047114205
 20
481.5465999379028
 30
0.0
 11
477.3989047114205
 21
542.7586530885361
 31
0.0
  0
ARC
  5
785D
330
17
100
AcDbEntity
  8
M01
100
AcDbCircle
 10
492.9223172892078
 20
437.1062065647089
 30
0.0
 40
21.0
100
AcDbArc
 50
169.9999999999999
 51
180.0
  0
LINE
  5
785E
330
17
100
AcDbEntity
  8
M01
100
AcDbLine
 10
476.1102520186525
 20
462.6944265915979
 30
0.0
 11
472.2413544759515
 21
440.7528182957144
 31
0.0
  0
ARC
  5
7860
330
17
100
AcDbEntity
  8
M01
100
AcDbCircle
 10
492.9223172892078
 20
437.1062065647089
 30
0.0
 40
19.0
100
AcDbArc
 50
169.9999999999999
 51
180.0
  0
LINE
  5
7861
330
17
100
AcDbEntity
  8
M01
100
AcDbLine
 10
478.0798675246768
 20
462.3471302362633
 30
0.0
 11
474.2109699819759
 21
440.4055219403806
 31
0.0
  0
LINE
  5
7863
330
17
100
AcDbEntity
  8
M01
100
AcDbLine
 10
479.1489047114204
 20
484.2077421121927
 30
0.0
 11
475.6489047114206
 21
484.2077421121929
 31
0.0
  0
LINE
  5
7864
330
17
100
AcDbEntity
  8
M01
100
AcDbLine
 10
479.6489047114205
 20
514.2077421121928
 30
0.0
 11
475.1489047114207
 21
514.2077421121928
 31
0.0
  0
LINE
  5
7865
330
17
100
AcDbEntity
  8
M01
100
AcDbLine
 10
479.6489047114205
 20
489.2077421121927
 30
0.0
 11
475.1489047114206
 21
489.2077421121928
 31
0.0
  0
LINE
  5
7866
330
17
100
AcDbEntity
  8
M01
 48
0.7
100
AcDbLine
 10
475.6489047114206
 20
484.2077421121929
 30
0.0
 11
475.6489047114206
 21
489.2077421121928
 31
0.0
  0
LINE
  5
7867
330
17
100
AcDbEntity
  8
M01
 48
0.7
100
AcDbLine
 10
479.1489047114204
 20
484.2077421121927
 30
0.0
 11
479.1489047114204
 21
489.2077421121927
 31
0.0
  0
LINE
  5
7868
330
17
100
AcDbEntity
  8
M01
100
AcDbLine
 10
479.6489047114204
 20
509.2077421121927
 30
0.0
 11
475.1489047114207
 21
509.2077421121929
 31
0.0
  0
LINE
  5
7869
330
17
100
AcDbEntity
  8
M01
 48
0.7
100
AcDbLine
 10
479.6489047114205
 20
489.2077421121927
 30
0.0
 11
479.6489047114205
 21
514.2077421121928
 31
0.0
  0
LINE
  5
786A
330
17
100
AcDbEntity
  8
M01
 48
0.7
100
AcDbLine
 10
475.1489047114206
 20
489.2077421121928
 30
0.0
 11
475.1489047114207
 21
514.2077421121928
 31
0.0
  0
LINE
  5
786B
330
17
100
AcDbEntity
  8
M01
100
AcDbLine
 10
475.6489047114206
 20
514.2077421121927
 30
0.0
 11
475.6489047114206
 21
538.717277700464
 31
0.0
  0
LINE
  5
786D
330
17
100
AcDbEntity
  8
M01
100
AcDbLine
 10
479.1489047114204
 20
514.2077421121928
 30
0.0
 11
479.1489047114205
 21
538.717277700464
 31
0.0
  0
HATCH
  5
7876
330
17
100
AcDbEntity
  8
M04
100
AcDbHatch
 10
0.0
 20
0.0
 30
0.0
210
0.0
220
0.0
230
1.0
  2
_U
 70
     0
 71
     0
 91
        2
 92
        7
 72
     0
 73
     1
 93
        4
 10
477.3989047114205
 20
538.717277700464
 10
475.6489047114206
 20
538.717277700464
 10
475.6489047114206
 20
514.2077421121928
 10
477.3989047114205
 20
514.2077421121928
 97
        0
 92
        7
 72
     0
 73
     1
 93
        4
 10
479.1489047114205
 20
538.717277700464
 10
477.3989047114205
 20
538.717277700464
 10
477.3989047114205
 20
514.2077421121928
 10
479.1489047114204
 20
514.2077421121928
 97
        0
 75
     0
 76
     0
 52
45.0
 41
0.75
 77
     1
 78
     2
 53
45.0
 43
561.9599639976314
 44
409.2077421121927
 45
-0.5303300858899106
 46
0.5303300858899107
 79
     0
 53
135.0
 43
561.9599639976314
 44
409.2077421121927
 45
-0.5303300858899107
 46
-0.5303300858899106
 79
     0
 47
0.0985701327119849
 98
        2
 10
476.468441639327
 20
517.7218388240937
 10
478.1447912069768
 20
518.2146895953277
  0
ARC
  5
7877
330
17
100
AcDbEntity
  8
M01
 48
0.7
100
AcDbCircle
 10
457.3989047114205
 20
465.9937419672689
 30
0.0
 40
21.0
100
AcDbArc
 50
349.9999999999998
 51
0.0000000000004834
  0
ARC
  5
7878
330
17
100
AcDbEntity
  8
M01
 48
0.7
100
AcDbCircle
 10
457.3989047114205
 20
465.9937419672696
 30
0.0
 40
19.0
100
AcDbArc
 50
349.9999999999998
 51
359.9999999999997
  0
TEXT
  5
78AB
330
17
100
AcDbEntity
  8
TEXT
100
AcDbText
 10
410.2489807322303
 20
334.9396073441235
 30
0.0
 40
4.0
  1
%%UNOTE
100
AcDbText
  0
TEXT
  5
78AC
330
17
100
AcDbEntity
  8
TEXT
100
AcDbText
 10
390.6756789157206
 20
326.4995371040439
 30
0.0
 40
3.0
  1
1. AN ALLOWANCE FOR EXPANSION OF THE BUSHING MUST BE MADE DEPENDENT ON THE
100
AcDbText
  0
TEXT
  5
78AD
330
17
100
AcDbEntity
  8
TEXT
100
AcDbText
 10
390.6756789157206
 20
313.9049399626455
 30
0.0
 40
3.0
  1
2. %%C18.00 MUST BE A GROUND FIT, DO NOT SPARK ERODE.
100
AcDbText
  0
TEXT
  5
78AE
330
17
100
AcDbEntity
  8
TEXT
100
AcDbText
 10
397.1430891541765
 20
321.1891071705723
 30
0.0
 40
3.0
  1
MATERIAL TO BE MOULDED AND THE PROCESS CONDITIONS - SEE CATALOGUE FOR DETAILS
100
AcDbText
  0
LINE
  5
798C
330
17
100
AcDbEntity
  8
M04
100
AcDbLine
 10
749.483376575419
 20
449.2077421121927
 30
0.0
 11
749.483376575419
 21
425.919067043003
 31
0.0
  0
LINE
  5
798D
330
17
100
AcDbEntity
  8
M04
100
AcDbLine
 10
725.4833765754189
 20
549.0595585663685
 30
0.0
 11
725.4833765754189
 21
423.2077421121929
 31
0.0
  0
LINE
  5
798E
330
17
100
AcDbEntity
  8
M01
100
AcDbLine
 10
730.4833765754189
 20
420.5705241121927
 30
0.0
 11
730.4833765754189
 21
397.8449381121927
 31
0.0
  0
LINE
  5
798F
330
17
100
AcDbEntity
  8
M01
100
AcDbLine
 10
729.1834495754188
 20
421.2077421121926
 30
0.0
 11
729.1834495754188
 21
397.2077421121925
 31
0.0
  0
LINE
  5
7990
330
17
100
AcDbEntity
  8
M01
100
AcDbLine
 10
729.1834495754188
 20
397.8449381121927
 30
0.0
 11
730.4833765754189
 21
397.8449381121927
 31
0.0
  0
LINE
  5
7991
330
17
100
AcDbEntity
  8
M01
100
AcDbLine
 10
729.1834495754188
 20
420.5705241121927
 30
0.0
 11
730.4833765754189
 21
420.5705241121927
 31
0.0
  0
LINE
  5
7992
330
17
100
AcDbEntity
  8
M01
 48
0.7
100
AcDbLine
 10
730.4833765754189
 20
418.7077421121927
 30
0.0
 11
746.4833765754189
 21
418.7077421121927
 31
0.0
  0
LINE
  5
7994
330
17
100
AcDbEntity
  8
M01
 48
0.7
100
AcDbLine
 10
730.4833765754189
 20
399.7077421121927
 30
0.0
 11
746.4833765754189
 21
399.7077421121927
 31
0.0
  0
LINE
  5
7995
330
17
100
AcDbEntity
  8
M04
100
AcDbLine
 10
756.4833765754189
 20
425.2077421121927
 30
0.0
 11
756.4833765754189
 21
442.2077421121928
 31
0.0
  0
LINE
  5
7996
330
17
100
AcDbEntity
  8
M04
 48
0.7
100
AcDbLine
 10
758.483376575419
 20
444.2077421121928
 30
0.0
 11
774.8003110954587
 21
444.2077421121927
 31
0.0
  0
LINE
  5
7997
330
17
100
AcDbEntity
  8
M04
 48
0.7
100
AcDbLine
 10
751.483376575419
 20
451.2077421121928
 30
0.0
 11
774.8003110954587
 21
451.2077421121928
 31
0.0
  0
LINE
  5
7998
330
17
100
AcDbEntity
  8
M04
100
AcDbLine
 10
749.4833765754188
 20
392.4964176121927
 30
0.0
 11
749.4833765754188
 21
378.9661072684996
 31
0.0
  0
ARC
  5
7999
330
17
100
AcDbEntity
  8
M04
 48
0.7
100
AcDbCircle
 10
751.483376575419
 20
449.2077421121927
 30
0.0
 40
2.0
100
AcDbArc
 50
89.99999999999987
 51
180.0
  0
LINE
  5
799A
330
17
100
AcDbEntity
  8
M04
 48
0.7
100
AcDbLine
 10
756.4833765754189
 20
442.2077421121928
 30
0.0
 11
758.483376575419
 21
444.2077421121928
 31
0.0
  0
LINE
  5
799B
330
17
100
AcDbEntity
  8
M04
100
AcDbLine
 10
746.4833765754189
 20
425.7077421121928
 30
0.0
 11
746.4833765754187
 21
426.2077421121928
 31
0.0
  0
LINE
  5
799C
330
17
100
AcDbEntity
  8
M04
100
AcDbLine
 10
746.9833765754189
 20
426.2077421121928
 30
0.0
 11
746.4833765754187
 21
426.2077421121928
 31
0.0
  0
LINE
  5
79B5
330
17
100
AcDbEntity
  8
M04
100
AcDbLine
 10
729.483376575419
 20
423.2077421121927
 30
0.0
 11
746.483376575419
 21
423.2077421121928
 31
0.0
  0
LINE
  5
79B6
330
17
100
AcDbEntity
  8
CENTRE
 48
0.7
100
AcDbLine
 10
735.3121697379087
 20
389.2077421121927
 30
0.0
 11
759.8747456215269
 21
389.2077421121927
 31
0.0
  0
LINE
  5
79B8
330
17
100
AcDbEntity
  8
M03
 48
0.7
100
AcDbLine
 10
751.9833765754189
 20
387.7077421121927
 30
0.0
 11
751.9833765754189
 21
390.7077421121927
 31
0.0
  0
LINE
  5
79B9
330
17
100
AcDbEntity
  8
M03
 48
0.7
100
AcDbLine
 10
740.9833765754188
 20
390.7077421121927
 30
0.0
 11
740.9833765754188
 21
387.7077421121927
 31
0.0
  0
LINE
  5
79BA
330
17
100
AcDbEntity
  8
M03
 48
0.7
100
AcDbLine
 10
740.4833765754188
 20
390.2077421121927
 30
0.0
 11
740.4833765754188
 21
388.2077421121927
 31
0.0
  0
LINE
  5
79BB
330
17
100
AcDbEntity
  8
M03
 48
0.7
100
AcDbLine
 10
752.4833765754189
 20
390.2077421121927
 30
0.0
 11
752.4833765754189
 21
388.2077421121927
 31
0.0
  0
LINE
  5
79BC
330
17
100
AcDbEntity
  8
M03
 48
0.7
100
AcDbLine
 10
751.9833765754189
 20
390.7077421121927
 30
0.0
 11
740.3494019792034
 21
390.7077421121927
 31
0.0
  0
LINE
  5
79BD
330
17
100
AcDbEntity
  8
M03
 48
0.7
100
AcDbLine
 10
740.9833765754188
 20
390.7077421121927
 30
0.0
 11
740.4833765754188
 21
390.2077421121927
 31
0.0
  0
LINE
  5
79BE
330
17
100
AcDbEntity
  8
M03
 48
0.7
100
AcDbLine
 10
751.9833765754189
 20
390.7077421121927
 30
0.0
 11
752.4833765754189
 21
390.2077421121927
 31
0.0
  0
LINE
  5
79BF
330
17
100
AcDbEntity
  8
M03
 48
0.7
100
AcDbLine
 10
751.9833765754189
 20
387.7077421121927
 30
0.0
 11
740.3494019792033
 21
387.7077421121928
 31
0.0
  0
LINE
  5
79C0
330
17
100
AcDbEntity
  8
M03
 48
0.7
100
AcDbLine
 10
740.4833765754188
 20
388.2077421121927
 30
0.0
 11
740.9833765754188
 21
387.7077421121927
 31
0.0
  0
LINE
  5
79C1
330
17
100
AcDbEntity
  8
M03
 48
0.7
100
AcDbLine
 10
752.4833765754189
 20
388.2077421121927
 30
0.0
 11
751.9833765754189
 21
387.7077421121927
 31
0.0
  0
LINE
  5
79C2
330
17
100
AcDbEntity
  8
M03
 48
0.7
100
AcDbLine
 10
740.3494019792034
 20
390.7077421121927
 30
0.0
 11
739.4833765754189
 21
389.2077421121928
 31
0.0
  0
LINE
  5
79C3
330
17
100
AcDbEntity
  8
M03
 48
0.7
100
AcDbLine
 10
740.3494019792033
 20
387.7077421121928
 30
0.0
 11
739.4833765754189
 21
389.2077421121928
 31
0.0
  0
LINE
  5
79C5
330
17
100
AcDbEntity
  8
M03
 48
0.7
100
AcDbLine
 10
740.3494019792033
 20
387.7077421121928
 30
0.0
 11
740.3494019792034
 21
390.7077421121927
 31
0.0
  0
CIRCLE
  5
79C8
330
17
100
AcDbEntity
  8
M01
100
AcDbCircle
 10
475.9223172892078
 20
389.2077421121927
 30
0.0
 40
1.499999999999772
  0
LWPOLYLINE
  5
79C9
330
17
100
AcDbEntity
  8
M01
100
AcDbPolyline
 90
        2
 70
     0
 43
1.5
 10
475.9223172892078
 20
388.4577421121927
 42
0.4142135623730951
 10
476.6723172892079
 20
389.2077421121927
  0
LWPOLYLINE
  5
79CA
330
17
100
AcDbEntity
  8
M01
100
AcDbPolyline
 90
        2
 70
     0
 43
1.5
 10
475.9223172892078
 20
389.9577421121927
 42
0.4142135623730951
 10
475.1723172892079
 20
389.2077421121927
  0
LINE
  5
79CB
330
17
100
AcDbEntity
  8
DIMS
 62
     4
100
AcDbLine
 10
473.1169893391638
 20
389.2077421121927
 30
0.0
 11
478.727645239252
 21
389.2077421121927
 31
0.0
  0
LINE
  5
79CC
330
17
100
AcDbEntity
  8
DIMS
 62
     4
100
AcDbLine
 10
475.9223172892078
 20
386.4024141621486
 30
0.0
 11
475.9223172892078
 21
392.0130700622368
 31
0.0
  0
CIRCLE
  5
79CD
330
17
100
AcDbEntity
  8
M01
100
AcDbCircle
 10
469.9223172892079
 20
389.2077421121927
 30
0.0
 40
1.499999999999772
  0
LWPOLYLINE
  5
79CE
330
17
100
AcDbEntity
  8
M01
100
AcDbPolyline
 90
        2
 70
     0
 43
1.5
 10
469.9223172892079
 20
388.4577421121927
 42
0.4142135623730951
 10
470.6723172892079
 20
389.2077421121927
  0
LWPOLYLINE
  5
79CF
330
17
100
AcDbEntity
  8
M01
100
AcDbPolyline
 90
        2
 70
     0
 43
1.5
 10
469.9223172892079
 20
389.9577421121927
 42
0.4142135623730951
 10
469.1723172892078
 20
389.2077421121927
  0
LINE
  5
79D0
330
17
100
AcDbEntity
  8
DIMS
 62
     4
100
AcDbLine
 10
467.1169893391637
 20
389.2077421121927
 30
0.0
 11
472.727645239252
 21
389.2077421121927
 31
0.0
  0
LINE
  5
79D1
330
17
100
AcDbEntity
  8
DIMS
 62
     4
100
AcDbLine
 10
469.9223172892079
 20
386.4024141621486
 30
0.0
 11
469.9223172892079
 21
392.0130700622368
 31
0.0
  0
DIMENSION
  5
79DE
330
17
100
AcDbEntity
  8
DIMS
100
AcDbDimension
  2
*D7
 10
439.8646017152215
 20
389.2077421121927
 30
0.0
 11
436.8646017152214
 21
399.2077421121928
 31
0.0
 70
    32
 71
     5
 42
20.0
  3
DIM1
100
AcDbAlignedDimension
 13
448.1058629161024
 23
409.2077421121927
 33
0.0
 14
467.1169893391637
 24
389.2077421121927
 34
0.0
 50
90.0
100
AcDbRotatedDimension
1001
ACAD
1000
DSTYLE
1002
{
1070
   144
1040
1.0
1002
}
  0
DIMENSION
  5
79EC
330
17
100
AcDbEntity
  8
DIMS
100
AcDbDimension
  2
*D8
 10
475.9223172892078
 20
370.3321690606906
 30
0.0
 11
487.9937458606364
 21
373.3321690606906
 31
0.0
 70
    32
 71
     5
 42
6.0
  3
DIM1
100
AcDbAlignedDimension
 13
469.9223172892079
 23
386.4024141621486
 33
0.0
 14
475.9223172892078
 24
386.4024141621486
 34
0.0
100
AcDbRotatedDimension
1001
ACAD
1000
DSTYLE
1002
{
1070
   144
1040
1.0
1002
}
  0
LINE
  5
79F8
330
17
100
AcDbEntity
  8
0
  6
ByBlock
 62
     4
100
AcDbLine
 10
466.8071422432621
 20
385.9603301529369
 30
0.0
 11
454.8137583226165
 21
373.457835814284
 31
0.0
  0
LINE
  5
79F9
330
17
100
AcDbEntity
  8
0
  6
ByBlock
 62
     4
100
AcDbLine
 10
454.8137583226165
 20
373.457835814284
 30
0.0
 11
451.8137583226164
 21
373.4578358142839
 31
0.0
  0
SOLID
  5
79FB
330
17
100
AcDbEntity
  8
0
  6
ByBlock
 62
     4
100
AcDbTrace
 10
466.4463186922337
 20
386.3064607135976
 30
0.0
 11
467.1679657942905
 21
385.6141995922763
 31
0.0
 12
468.8839256072259
 22
388.1252714591074
 32
0.0
 13
468.8839256072259
 23
388.1252714591074
 33
0.0
  0
MTEXT
  5
79FC
330
17
100
AcDbEntity
  8
0
  6
ByBlock
 62
     2
100
AcDbMText
 10
417.526162084751
 20
373.4578358142842
 30
0.0
 40
3.0
 41
0.0
 71
     5
 72
     1
  1
2 DOWELS %%C3.00 x 3.5 HIGH
 73
     1
 44
1.0
  0
POINT
  5
79FD
330
17
100
AcDbEntity
  8
DEFPOINTS
  6
ByBlock
 62
     0
100
AcDbPoint
 10
468.8839256072259
 20
388.1252714591074
 30
0.0
  0
CIRCLE
  5
79FF
330
17
100
AcDbEntity
  8
M04
100
AcDbCircle
 10
756.4833765754189
 20
409.2077421121927
 30
0.0
 40
1.25
  0
LINE
  5
7A0B
330
17
100
AcDbEntity
  8
0
  6
ByBlock
 62
     4
100
AcDbLine
 10
758.782672744034
 20
412.782058428496
 30
0.0
 11
772.9482026444174
 21
434.802746908362
 31
0.0
  0
LINE
  5
7A0C
330
17
100
AcDbEntity
  8
0
  6
ByBlock
 62
     4
100
AcDbLine
 10
772.9482026444174
 20
434.802746908362
 30
0.0
 11
775.9482026444175
 21
434.802746908362
 31
0.0
  0
SOLID
  5
7A0E
330
17
100
AcDbEntity
  8
0
  6
ByBlock
 62
     4
100
AcDbTrace
 10
758.362164942116
 20
413.0525638600976
 30
0.0
 11
759.2031805459521
 21
412.5115529968941
 31
0.0
 12
757.1596401544233
 22
410.2590116169877
 32
0.0
 13
757.1596401544233
 23
410.2590116169877
 33
0.0
  0
MTEXT
  5
7A0F
330
17
100
AcDbEntity
  8
0
  6
ByBlock
 62
     2
100
AcDbMText
 10
808.8466189864803
 20
434.8027469083623
 30
0.0
 40
3.0
 41
0.0
 71
     5
 72
     1
  1
MANIFOLD INSERTION POINT
 73
     1
 44
1.0
  0
POINT
  5
7A10
330
17
100
AcDbEntity
  8
DEFPOINTS
  6
ByBlock
 62
     0
100
AcDbPoint
 10
757.1596401544233
 20
410.2590116169877
 30
0.0
  0
ENDSEC
  0
SECTION
  2
OBJECTS
  0
DICTIONARY
  5
C
330
0
100
AcDbDictionary
281
     1
  3
ACAD_GROUP
350
D
  3
ACAD_LAYOUT
350
7AFC
  3
ACAD_MLINESTYLE
350
1A
  3
ACAD_PLOTSETTINGS
350
7AFD
  3
ACAD_PLOTSTYLENAME
350
7AFA
  3
ACAD_WIPEOUT_VARS
350
4846
  3
ACDBVARIABLEDICTIONARY
350
33
  3
CONTENTDICTIONARY
350
1149
  0
DICTIONARY
  5
20BE
330
17
100
AcDbDictionary
280
     1
281
     1
  3
ACAD_SORTENTS
360
20BF
  0
DICTIONARY
  5
D
102
{ACAD_REACTORS
330
C
102
}
330
C
100
AcDbDictionary
281
     1
  3
*A1
350
484B
  3
*A2
350
484E
  3
*A3
350
6B86
  0
DICTIONARY
  5
7AFC
102
{ACAD_REACTORS
330
C
102
}
330
C
100
AcDbDictionary
281
     1
  3
Layout1
350
7AFF
  3
Model
350
7AFE
  0
DICTIONARY
  5
1A
102
{ACAD_REACTORS
330
C
102
}
330
C
100
AcDbDictionary
281
     1
  3
STANDARD
350
1B
  0
DICTIONARY
  5
7AFD
102
{ACAD_REACTORS
330
C
102
}
330
C
100
AcDbDictionary
281
     1
  0
ACDBDICTIONARYWDFLT
  5
7AFA
102
{ACAD_REACTORS
330
C
102
}
330
C
100
AcDbDictionary
281
     1
  3
Normal
350
7AFB
100
AcDbDictionaryWithDefault
340
7AFB
  0
ACAD_PROXY_OBJECT
  5
4846
102
{ACAD_REACTORS
330
C
102
}
330
C
100
AcDbProxyObject
 90
      499
 91
      504
 95
   589845
 70
     0
 93
        2
310
8E
 94
        0
  0
DICTIONARY
  5
33
102
{ACAD_REACTORS
330
C
102
}
330
C
100
AcDbDictionary
281
     1
  3
DIMADEC
350
34
  3
DIMASSOC
350
7B02
  3
SORTENTS
350
1D6E
  0
DICTIONARY
  5
1149
102
{ACAD_REACTORS
330
C
102
}
330
C
100
AcDbDictionary
281
     1
  0
SORTENTSTABLE
  5
20BF
102
{ACAD_REACTORS
330
20BE
102
}
330
20BE
100
AcDbSortentsTable
330
17
  0
GROUP
  5
484B
102
{ACAD_REACTORS
330
D
102
}
330
D
100
AcDbGroup
300
In use by TEXTMASK
 70
     1
 71
     1
  0
GROUP
  5
484E
102
{ACAD_REACTORS
330
D
102
}
330
D
100
AcDbGroup
300

 70
     1
 71
     1
  0
GROUP
  5
6B86
102
{ACAD_REACTORS
330
D
102
}
330
D
100
AcDbGroup
300

 70
     1
 71
     1
  0
LAYOUT
  5
7AFF
102
{ACAD_REACTORS
330
7AFC
102
}
330
7AFC
100
AcDbPlotSettings
  1

  2
C:\PROGRAM FILES\AUTOCAD LT 2002\plotters\PublishToWeb DWF.pc3
  4

  6

 40
0.0
 41
0.0
 42
0.0
 43
0.0
 44
0.0
 45
0.0
 46
0.0
 47
0.0
 48
0.0
 49
0.0
140
0.0
141
0.0
142
1.0
143
1.0
 70
   688
 72
     0
 73
     0
 74
     5
  7

 75
    16
147
1.0
148
0.0
149
0.0
100
AcDbLayout
  1
Layout1
 70
     0
 71
     1
 10
0.0
 20
0.0
 11
12.0
 21
9.0
 12
0.0
 22
0.0
 32
0.0
 14
1.000000000000000E+20
 24
1.000000000000000E+20
 34
1.000000000000000E+20
 15
-1.000000000000000E+20
 25
-1.000000000000000E+20
 35
-1.000000000000000E+20
146
0.0
 13
0.0
 23
0.0
 33
0.0
 16
1.0
 26
0.0
 36
0.0
 17
0.0
 27
1.0
 37
0.0
 76
     0
330
14
  0
LAYOUT
  5
7AFE
102
{ACAD_REACTORS
330
7AFC
102
}
330
7AFC
100
AcDbPlotSettings
  1

  2
SHARP AR-C172M PCL5c
  4
A3
  6

 40
5.027083396911621
 41
5.027085304260253
 42
5.027099609375
 43
5.027069091796875
 44
296.9259948730469
 45
419.9466552734374
 46
25.47
 47
-22.84
 48
0.0
 49
0.0
140
0.0
141
0.0
142
1.0
143
1.0
 70
 11956
 72
     1
 73
     1
 74
     1
  7

 75
    16
147
1.0
148
-384.6796754573933
149
-313.2832817417606
100
AcDbLayout
  1
Model
 70
     1
 71
     0
 10
0.0
 20
0.0
 11
12.0
 21
9.0
 12
0.0
 22
0.0
 32
0.0
 14
0.0
 24
0.0
 34
0.0
 15
0.0
 25
0.0
 35
0.0
146
0.0
 13
0.0
 23
0.0
 33
0.0
 16
1.0
 26
0.0
 36
0.0
 17
0.0
 27
1.0
 37
0.0
 76
     0
330
17
  0
MLINESTYLE
  5
1B
102
{ACAD_REACTORS
330
1A
102
}
330
1A
100
AcDbMlineStyle
  2
STANDARD
 70
     0
  3

 62
   256
 51
90.0
 52
90.0
 71
     2
 49
0.5
 62
   256
  6
BYLAYER
 49
-0.5
 62
   256
  6
BYLAYER
  0
ACDBPLACEHOLDER
  5
7AFB
102
{ACAD_REACTORS
330
7AFA
102
}
330
7AFA
  0
DICTIONARYVAR
  5
34
102
{ACAD_REACTORS
330
33
102
}
330
33
100
DictionaryVariables
280
     0
  1
3
  0
DICTIONARYVAR
  5
7B02
102
{ACAD_REACTORS
330
33
102
}
330
33
100
DictionaryVariables
280
     0
  1
1
  0
DICTIONARYVAR
  5
1D6E
102
{ACAD_REACTORS
330
33
102
}
330
33
100
DictionaryVariables
280
     0
  1
127
  0
ENDSEC
  0
EOF
