  0
SECTION
  2
HEADER
  9
$ACADVER
  1
AC1014
  9
$ACADMAINTVER
 70
     9
  9
$DWGCODEPAGE
  3
ANSI_1252
  9
$INSBASE
 10
0.0
 20
0.0
 30
0.0
  9
$EXTMIN
 10
376.47544
 20
152.041051
 30
-0.222949
  9
$EXTMAX
 10
871.444712
 20
549.207742
 30
0.0
  9
$LIMMIN
 10
0.0
 20
0.0
  9
$LIMMAX
 10
1189.0
 20
841.0
  9
$ORTHOMODE
 70
     1
  9
$REGENMODE
 70
     1
  9
$FILLMODE
 70
     1
  9
$QTEXTMODE
 70
     0
  9
$MIRRTEXT
 70
     0
  9
$DRAGMODE
 70
     2
  9
$LTSCALE
 40
8.0
  9
$OSMODE
 70
     0
  9
$ATTMODE
 70
     1
  9
$TEXTSIZE
 40
3.0
  9
$TRACEWID
 40
10.0
  9
$TEXTSTYLE
  7
STANDARD
  9
$CLAYER
  8
M01
  9
$CELTYPE
  6
BYLAYER
  9
$CECOLOR
 62
   256
  9
$CELTSCALE
 40
1.0
  9
$DELOBJ
 70
     1
  9
$DISPSILH
 70
     0
  9
$DIMSCALE
 40
1.0
  9
$DIMASZ
 40
3.0
  9
$DIMEXO
 40
1.0
  9
$DIMDLI
 40
10.0
  9
$DIMRND
 40
0.01
  9
$DIMDLE
 40
1.25
  9
$DIMEXE
 40
2.5
  9
$DIMTP
 40
0.05
  9
$DIMTM
 40
0.0
  9
$DIMTXT
 40
3.0
  9
$DIMCEN
 40
-1.7
  9
$DIMTSZ
 40
0.0
  9
$DIMTOL
 70
     0
  9
$DIMLIM
 70
     0
  9
$DIMTIH
 70
     0
  9
$DIMTOH
 70
     0
  9
$DIMSE1
 70
     0
  9
$DIMSE2
 70
     0
  9
$DIMTAD
 70
     3
  9
$DIMZIN
 70
     1
  9
$DIMBLK
  1

  9
$DIMASO
 70
     1
  9
$DIMSHO
 70
     0
  9
$DIMPOST
  1

  9
$DIMAPOST
  1

  9
$DIMALT
 70
     0
  9
$DIMALTD
 70
     2
  9
$DIMALTF
 40
0.039
  9
$DIMLFAC
 40
1.0
  9
$DIMTOFL
 70
     0
  9
$DIMTVP
 40
1.5
  9
$DIMTIX
 70
     0
  9
$DIMSOXD
 70
     0
  9
$DIMSAH
 70
     0
  9
$DIMBLK1
  1

  9
$DIMBLK2
  1

  9
$DIMSTYLE
  2
DIM1
  9
$DIMCLRD
 70
     4
  9
$DIMCLRE
 70
     4
  9
$DIMCLRT
 70
     2
  9
$DIMTFAC
 40
0.7
  9
$DIMGAP
 40
1.5
  9
$DIMJUST
 70
     0
  9
$DIMSD1
 70
     0
  9
$DIMSD2
 70
     0
  9
$DIMTOLJ
 70
     1
  9
$DIMTZIN
 70
     1
  9
$DIMALTZ
 70
     1
  9
$DIMALTTZ
 70
     1
  9
$DIMFIT
 70
     0
  9
$DIMUPT
 70
     0
  9
$DIMUNIT
 70
     2
  9
$DIMDEC
 70
     2
  9
$DIMTDEC
 70
     2
  9
$DIMALTU
 70
     2
  9
$DIMALTTD
 70
     2
  9
$DIMTXSTY
  7
STANDARD
  9
$DIMAUNIT
 70
     0
  9
$LUNITS
 70
     2
  9
$LUPREC
 70
     2
  9
$SKETCHINC
 40
1.0
  9
$FILLETRAD
 40
0.0
  9
$AUNITS
 70
     0
  9
$AUPREC
 70
     3
  9
$MENU
  1
ACAD
  9
$ELEVATION
 40
0.0
  9
$PELEVATION
 40
0.0
  9
$THICKNESS
 40
0.0
  9
$LIMCHECK
 70
     0
  9
$BLIPMODE
 70
     1
  9
$CHAMFERA
 40
2.0
  9
$CHAMFERB
 40
2.0
  9
$CHAMFERC
 40
0.0
  9
$CHAMFERD
 40
0.0
  9
$SKPOLY
 70
     1
  9
$TDCREATE
 40
2449993.725698611
  9
$TDUPDATE
 40
2452053.660266793
  9
$TDINDWG
 40
1.0835368750
  9
$TDUSRTIMER
 40
1.0835368750
  9
$USRTIMER
 70
     1
  9
$ANGBASE
 50
0.0
  9
$ANGDIR
 70
     0
  9
$PDMODE
 70
     3
  9
$PDSIZE
 40
0.0
  9
$PLINEWID
 40
0.0
  9
$COORDS
 70
     2
  9
$SPLFRAME
 70
     0
  9
$SPLINETYPE
 70
     6
  9
$SPLINESEGS
 70
     6
  9
$ATTDIA
 70
     1
  9
$ATTREQ
 70
     1
  9
$HANDLING
 70
     1
  9
$HANDSEED
  5
16D
  9
$SURFTAB1
 70
    12
  9
$SURFTAB2
 70
    12
  9
$SURFTYPE
 70
     6
  9
$SURFU
 70
    12
  9
$SURFV
 70
    12
  9
$UCSNAME
  2

  9
$UCSORG
 10
0.0
 20
0.0
 30
0.0
  9
$UCSXDIR
 10
1.0
 20
0.0
 30
0.0
  9
$UCSYDIR
 10
0.0
 20
1.0
 30
0.0
  9
$PUCSNAME
  2

  9
$PUCSORG
 10
0.0
 20
0.0
 30
0.0
  9
$PUCSXDIR
 10
1.0
 20
0.0
 30
0.0
  9
$PUCSYDIR
 10
0.0
 20
1.0
 30
0.0
  9
$USERI1
 70
     0
  9
$USERI2
 70
     0
  9
$USERI3
 70
     0
  9
$USERI4
 70
     0
  9
$USERI5
 70
     0
  9
$USERR1
 40
0.0
  9
$USERR2
 40
0.0
  9
$USERR3
 40
0.0
  9
$USERR4
 40
0.0
  9
$USERR5
 40
0.0
  9
$WORLDVIEW
 70
     0
  9
$SHADEDGE
 70
     3
  9
$SHADEDIF
 70
    70
  9
$TILEMODE
 70
     1
  9
$MAXACTVP
 70
    16
  9
$PINSBASE
 10
0.0
 20
0.0
 30
0.0
  9
$PLIMCHECK
 70
     0
  9
$PEXTMIN
 10
1.000000E+20
 20
1.000000E+20
 30
1.000000E+20
  9
$PEXTMAX
 10
-1.000000E+20
 20
-1.000000E+20
 30
-1.000000E+20
  9
$PLIMMIN
 10
0.0
 20
0.0
  9
$PLIMMAX
 10
12.0
 20
9.0
  9
$UNITMODE
 70
     0
  9
$VISRETAIN
 70
     0
  9
$PLINEGEN
 70
     0
  9
$PSLTSCALE
 70
     0
  9
$TREEDEPTH
 70
  3020
  9
$PICKSTYLE
 70
     1
  9
$CMLSTYLE
  2
STANDARD
  9
$CMLJUST
 70
     0
  9
$CMLSCALE
 40
1.0
  9
$PROXYGRAPHICS
 70
     1
  9
$MEASUREMENT
 70
     0
  0
ENDSEC
  0
SECTION
  2
CLASSES
  0
CLASS
  1
DICTIONARYVAR
  2
AcDbDictionaryVar
  3
"AutoCAD"
 90
        0
280
     0
281
     0
  0
CLASS
  1
LWPOLYLINE
  2
AcDbPolyline
  3
"AutoCAD"
 90
        0
280
     0
281
     1
  0
CLASS
  1
HATCH
  2
AcDbHatch
  3
"ACAD_SEDONA"
 90
        0
280
     0
281
     1
  0
CLASS
  1
SORTENTSTABLE
  2
AcDbSortentsTable
  3
"AutoCAD"
 90
        0
280
     0
281
     0
  0
CLASS
  1
WIPEOUTVARIABLES
  2
AcDbWipeoutVariables
  3
WIPEOUT
 90
        0
280
     0
281
     0
  0
CLASS
  1
WIPEOUT
  2
AcDbWipeout
  3
WIPEOUT
 90
      127
280
     0
281
     1
  0
ENDSEC
  0
SECTION
  2
TABLES
  0
TABLE
  2
VPORT
  5
14
100
AcDbSymbolTable
 70
     2
  0
VPORT
  5
16C
100
AcDbSymbolTableRecord
100
AcDbViewportTableRecord
  2
*ACTIVE
 70
     0
 10
0.0
 20
0.0
 11
1.0
 21
1.0
 12
537.340598
 22
417.477805
 13
0.0
 23
0.0
 14
10.0
 24
10.0
 15
0.0
 25
0.0
 16
0.0
 26
0.0
 36
1.0
 17
16.313321
 27
12.779115
 37
0.222949
 40
314.276023
 41
1.470516
 42
50.0
 43
0.0
 44
0.0
 50
0.0
 51
0.0
 71
     0
 72
  2000
 73
     1
 74
     2
 75
     0
 76
     0
 77
     0
 78
     1
  0
ENDTAB
  0
TABLE
  2
LTYPE
  5
F
100
AcDbSymbolTable
 70
     3
  0
LTYPE
  5
10
100
AcDbSymbolTableRecord
100
AcDbLinetypeTableRecord
  2
BYBLOCK
 70
     0
  3

 72
    65
 73
     0
 40
0.0
  0
LTYPE
  5
11
100
AcDbSymbolTableRecord
100
AcDbLinetypeTableRecord
  2
BYLAYER
 70
     0
  3

 72
    65
 73
     0
 40
0.0
  0
LTYPE
  5
7
100
AcDbSymbolTableRecord
100
AcDbLinetypeTableRecord
  2
CONTINUOUS
 70
     0
  3
Solid line
 72
    65
 73
     0
 40
0.0
  0
LTYPE
  5
40
100
AcDbSymbolTableRecord
100
AcDbLinetypeTableRecord
  2
CENTER
 70
     0
  3
Center ____ _ ____ _ ____ _ ____ _ ____ _ ____
 72
    65
 73
     4
 40
2.0
 49
1.25
 74
     0
 49
-0.25
 74
     0
 49
0.25
 74
     0
 49
-0.25
 74
     0
  0
LTYPE
  5
22
100
AcDbSymbolTableRecord
100
AcDbLinetypeTableRecord
  2
HIDDEN
 70
     0
  3
Hidden __ __ __ __ __ __ __ __ __ __ __ __ __ _
 72
    65
 73
     2
 40
0.375
 49
0.25
 74
     0
 49
-0.125
 74
     0
  0
ENDTAB
  0
TABLE
  2
LAYER
  5
C
100
AcDbSymbolTable
 70
     8
  0
LAYER
  5
6
100
AcDbSymbolTableRecord
100
AcDbLayerTableRecord
  2
0
 70
     0
 62
     7
  6
CONTINUOUS
  0
LAYER
  5
3F
100
AcDbSymbolTableRecord
100
AcDbLayerTableRecord
  2
CENTRE
 70
     0
 62
     3
  6
CENTER
  0
LAYER
  5
1D
100
AcDbSymbolTableRecord
100
AcDbLayerTableRecord
  2
M01
 70
     0
 62
     1
  6
CONTINUOUS
  0
LAYER
  5
21
100
AcDbSymbolTableRecord
100
AcDbLayerTableRecord
  2
M03
 70
     0
 62
     2
  6
HIDDEN
  0
LAYER
  5
30
100
AcDbSymbolTableRecord
100
AcDbLayerTableRecord
  2
M04
 70
     0
 62
     7
  6
CONTINUOUS
  0
LAYER
  5
52
100
AcDbSymbolTableRecord
100
AcDbLayerTableRecord
  2
DIMS
 70
     0
 62
     4
  6
CONTINUOUS
  0
LAYER
  5
C7
100
AcDbSymbolTableRecord
100
AcDbLayerTableRecord
  2
TEXT
 70
     0
 62
     2
  6
CONTINUOUS
  0
LAYER
  5
2A
100
AcDbSymbolTableRecord
100
AcDbLayerTableRecord
  2
DEFPOINTS
 70
     0
 62
     7
  6
CONTINUOUS
  0
ENDTAB
  0
TABLE
  2
STYLE
  5
D
100
AcDbSymbolTable
 70
     1
  0
STYLE
  5
E
100
AcDbSymbolTableRecord
100
AcDbTextStyleTableRecord
  2
STANDARD
 70
     0
 40
0.0
 41
1.0
 50
0.0
 71
     0
 42
3.0
  3
SIMPLEX
  4

  0
ENDTAB
  0
TABLE
  2
VIEW
  5
12
100
AcDbSymbolTable
 70
     0
  0
ENDTAB
  0
TABLE
  2
UCS
  5
13
100
AcDbSymbolTable
 70
     0
  0
ENDTAB
  0
TABLE
  2
APPID
  5
16
100
AcDbSymbolTable
 70
     1
  0
APPID
  5
17
100
AcDbSymbolTableRecord
100
AcDbRegAppTableRecord
  2
ACAD
 70
     0
  0
ENDTAB
  0
TABLE
  2
DIMSTYLE
  5
18
100
AcDbSymbolTable
 70
     2
  0
DIMSTYLE
105
1F
102
{ACAD_REACTORS
330
108
330
FA
330
EB
330
DE
330
D1
330
AF
330
A1
330
54
102
}
100
AcDbSymbolTableRecord
100
AcDbDimStyleTableRecord
  2
DIM1
 70
     0
  3

  4

  5

  6

  7

 40
1.0
 41
3.0
 42
1.0
 43
10.0
 44
2.5
 45
0.01
 46
1.25
 47
0.05
 48
0.0
140
3.0
141
-1.7
142
0.0
143
0.039
144
0.2
145
1.5
146
0.7
147
1.5
 71
     0
 72
     0
 73
     0
 74
     0
 75
     0
 76
     0
 77
     3
 78
     1
170
     0
171
     2
172
     0
173
     0
174
     0
175
     0
176
     4
177
     4
178
     2
270
     2
271
     2
272
     2
273
     2
274
     2
340
E
275
     0
280
     0
281
     0
282
     0
283
     1
284
     1
285
     1
286
     1
287
     0
288
     0
  0
DIMSTYLE
105
CF
100
AcDbSymbolTableRecord
100
AcDbDimStyleTableRecord
  2
DIM1$7
 70
     0
  3

  4

  5

  6

  7

 40
1.0
 41
3.0
 42
1.0
 43
10.0
 44
2.5
 45
0.01
 46
1.25
 47
0.0
 48
0.0
140
3.0
141
-1.7
142
0.0
143
0.039
144
1.0
145
0.0
146
1.0
147
1.5
 71
     0
 72
     0
 73
     0
 74
     0
 75
     0
 76
     0
 77
     0
 78
     1
170
     0
171
     2
172
     0
173
     0
174
     0
175
     0
176
     4
177
     4
178
     2
270
     2
271
     2
272
     2
273
     2
274
     2
340
E
275
     0
280
     0
281
     0
282
     0
283
     1
284
     1
285
     1
286
     1
287
     0
288
     0
  0
ENDTAB
  0
TABLE
  2
BLOCK_RECORD
  5
1
100
AcDbSymbolTable
 70
     8
  0
BLOCK_RECORD
  5
2
102
{ACAD_XDICTIONARY
360
3
102
}
100
AcDbSymbolTableRecord
100
AcDbBlockTableRecord
  2
*MODEL_SPACE
  0
BLOCK_RECORD
  5
9
100
AcDbSymbolTableRecord
100
AcDbBlockTableRecord
  2
*PAPER_SPACE
  0
BLOCK_RECORD
  5
109
100
AcDbSymbolTableRecord
100
AcDbBlockTableRecord
  2
*D0
  0
BLOCK_RECORD
  5
FB
100
AcDbSymbolTableRecord
100
AcDbBlockTableRecord
  2
*D1
  0
BLOCK_RECORD
  5
EC
100
AcDbSymbolTableRecord
100
AcDbBlockTableRecord
  2
*D2
  0
BLOCK_RECORD
  5
DF
100
AcDbSymbolTableRecord
100
AcDbBlockTableRecord
  2
*D3
  0
BLOCK_RECORD
  5
D2
100
AcDbSymbolTableRecord
100
AcDbBlockTableRecord
  2
*D4
  0
BLOCK_RECORD
  5
B0
100
AcDbSymbolTableRecord
100
AcDbBlockTableRecord
  2
*D5
  0
BLOCK_RECORD
  5
A2
100
AcDbSymbolTableRecord
100
AcDbBlockTableRecord
  2
*D6
  0
BLOCK_RECORD
  5
55
100
AcDbSymbolTableRecord
100
AcDbBlockTableRecord
  2
*D7
  0
ENDTAB
  0
ENDSEC
  0
SECTION
  2
BLOCKS
  0
BLOCK
  5
5
100
AcDbEntity
  8
0
100
AcDbBlockBegin
  2
*MODEL_SPACE
 70
     0
 10
0.0
 20
0.0
 30
0.0
  3
*MODEL_SPACE
  1

  0
ENDBLK
  5
8
100
AcDbEntity
  8
0
100
AcDbBlockEnd
  0
BLOCK
  5
A
100
AcDbEntity
 67
     1
  8
0
100
AcDbBlockBegin
  2
*PAPER_SPACE
 70
     0
 10
0.0
 20
0.0
 30
0.0
  3
*PAPER_SPACE
  1

  0
ENDBLK
  5
B
100
AcDbEntity
 67
     1
  8
0
100
AcDbBlockEnd
  0
BLOCK
  5
114
100
AcDbEntity
  8
0
100
AcDbBlockBegin
  2
*D0
 70
     1
 10
0.0
 20
0.0
 30
0.0
  3
*D0
  1

  0
LINE
  5
10A
100
AcDbEntity
  8
0
  6
BYBLOCK
 62
     4
100
AcDbLine
 10
578.483377
 20
431.192846
 30
0.0
 11
578.483377
 21
448.553908
 31
0.0
  0
LINE
  5
10B
100
AcDbEntity
  8
0
  6
BYBLOCK
 62
     4
100
AcDbLine
 10
580.483377
 20
415.207742
 30
0.0
 11
580.483377
 21
448.553908
 31
0.0
  0
LINE
  5
10C
100
AcDbEntity
  8
0
  6
BYBLOCK
 62
     4
100
AcDbLine
 10
575.483377
 20
446.053908
 30
0.0
 11
572.483377
 21
446.053908
 31
0.0
  0
LINE
  5
10D
100
AcDbEntity
  8
0
  6
BYBLOCK
 62
     4
100
AcDbLine
 10
583.483377
 20
446.053908
 30
0.0
 11
607.340519
 21
446.053908
 31
0.0
  0
SOLID
  5
10E
100
AcDbEntity
  8
0
  6
BYBLOCK
 62
     4
100
AcDbTrace
 10
575.483377
 20
446.553908
 30
0.0
 11
575.483377
 21
445.553908
 31
0.0
 12
578.483377
 22
446.053908
 32
0.0
 13
578.483377
 23
446.053908
 33
0.0
  0
SOLID
  5
10F
100
AcDbEntity
  8
0
  6
BYBLOCK
 62
     4
100
AcDbTrace
 10
583.483377
 20
446.553908
 30
0.0
 11
583.483377
 21
445.553908
 31
0.0
 12
580.483377
 22
446.053908
 32
0.0
 13
580.483377
 23
446.053908
 33
0.0
  0
MTEXT
  5
110
100
AcDbEntity
  8
0
  6
BYBLOCK
 62
     2
100
AcDbMText
 10
596.911948
 20
449.053908
 30
0.0
 40
3.0
 41
0.0
 71
     5
 72
     1
  1
\A1;2.0 MIN.
  0
POINT
  5
111
100
AcDbEntity
  8
DEFPOINTS
  6
BYBLOCK
 62
     0
100
AcDbPoint
 10
578.483377
 20
430.192846
 30
0.0
  0
POINT
  5
112
100
AcDbEntity
  8
DEFPOINTS
  6
BYBLOCK
 62
     0
100
AcDbPoint
 10
580.483377
 20
414.207742
 30
0.0
  0
POINT
  5
113
100
AcDbEntity
  8
DEFPOINTS
  6
BYBLOCK
 62
     0
100
AcDbPoint
 10
580.483377
 20
446.053908
 30
0.0
  0
ENDBLK
  5
115
100
AcDbEntity
  8
0
100
AcDbBlockEnd
  0
BLOCK
  5
106
100
AcDbEntity
  8
0
100
AcDbBlockBegin
  2
*D1
 70
     1
 10
0.0
 20
0.0
 30
0.0
  3
*D1
  1

  0
LINE
  5
FC
100
AcDbEntity
  8
0
  6
BYBLOCK
 62
     4
100
AcDbLine
 10
577.483377
 20
414.207742
 30
0.0
 11
552.970415
 21
414.207742
 31
0.0
  0
LINE
  5
FD
100
AcDbEntity
  8
0
  6
BYBLOCK
 62
     4
100
AcDbLine
 10
577.483377
 20
404.207742
 30
0.0
 11
552.970415
 21
404.207742
 31
0.0
  0
LINE
  5
FE
100
AcDbEntity
  8
0
  6
BYBLOCK
 62
     4
100
AcDbLine
 10
555.470415
 20
417.207742
 30
0.0
 11
555.470415
 21
420.207742
 31
0.0
  0
LINE
  5
FF
100
AcDbEntity
  8
0
  6
BYBLOCK
 62
     4
100
AcDbLine
 10
555.470415
 20
401.207742
 30
0.0
 11
555.470415
 21
372.97428
 31
0.0
  0
SOLID
  5
100
100
AcDbEntity
  8
0
  6
BYBLOCK
 62
     4
100
AcDbTrace
 10
554.970415
 20
417.207742
 30
0.0
 11
555.970415
 21
417.207742
 31
0.0
 12
555.470415
 22
414.207742
 32
0.0
 13
555.470415
 23
414.207742
 33
0.0
  0
SOLID
  5
101
100
AcDbEntity
  8
0
  6
BYBLOCK
 62
     4
100
AcDbTrace
 10
554.970415
 20
401.207742
 30
0.0
 11
555.970415
 21
401.207742
 31
0.0
 12
555.470415
 22
404.207742
 32
0.0
 13
555.470415
 23
404.207742
 33
0.0
  0
MTEXT
  5
102
100
AcDbEntity
  8
0
  6
BYBLOCK
 62
     2
100
AcDbMText
 10
552.470415
 20
380.188565
 30
0.0
 40
3.0
 41
0.0
 71
     5
 72
     1
  1
\A1;10.00
 11
0.0
 21
1.0
 31
0.0
  0
POINT
  5
103
100
AcDbEntity
  8
DEFPOINTS
  6
BYBLOCK
 62
     0
100
AcDbPoint
 10
578.483377
 20
414.207742
 30
0.0
  0
POINT
  5
104
100
AcDbEntity
  8
DEFPOINTS
  6
BYBLOCK
 62
     0
100
AcDbPoint
 10
578.483377
 20
404.207742
 30
0.0
  0
POINT
  5
105
100
AcDbEntity
  8
DEFPOINTS
  6
BYBLOCK
 62
     0
100
AcDbPoint
 10
555.470415
 20
404.207742
 30
0.0
  0
ENDBLK
  5
107
100
AcDbEntity
  8
0
100
AcDbBlockEnd
  0
BLOCK
  5
F6
100
AcDbEntity
  8
0
100
AcDbBlockBegin
  2
*D2
 70
     1
 10
0.0
 20
0.0
 30
0.0
  3
*D2
  1

  0
LINE
  5
ED
100
AcDbEntity
  8
0
  6
BYBLOCK
 62
     4
100
AcDbLine
 10
578.483377
 20
387.36502
 30
0.0
 11
578.483377
 21
366.821609
 31
0.0
  0
LINE
  5
EE
100
AcDbEntity
  8
0
  6
BYBLOCK
 62
     4
100
AcDbLine
 10
681.483377
 20
391.207742
 30
0.0
 11
681.483377
 21
366.821609
 31
0.0
  0
LINE
  5
EF
100
AcDbEntity
  8
0
  6
BYBLOCK
 62
     4
100
AcDbLine
 10
581.483377
 20
369.321609
 30
0.0
 11
678.483377
 21
369.321609
 31
0.0
  0
SOLID
  5
F0
100
AcDbEntity
  8
0
  6
BYBLOCK
 62
     4
100
AcDbTrace
 10
581.483377
 20
369.821609
 30
0.0
 11
581.483377
 21
368.821609
 31
0.0
 12
578.483377
 22
369.321609
 32
0.0
 13
578.483377
 23
369.321609
 33
0.0
  0
SOLID
  5
F1
100
AcDbEntity
  8
0
  6
BYBLOCK
 62
     4
100
AcDbTrace
 10
678.483377
 20
369.821609
 30
0.0
 11
678.483377
 21
368.821609
 31
0.0
 12
681.483377
 22
369.321609
 32
0.0
 13
681.483377
 23
369.321609
 33
0.0
  0
MTEXT
  5
F2
100
AcDbEntity
  8
0
  6
BYBLOCK
 62
     2
100
AcDbMText
 10
629.983377
 20
372.321609
 30
0.0
 40
3.0
 41
0.0
 71
     5
 72
     1
  1
\A1;L1=103.00
  0
POINT
  5
F3
100
AcDbEntity
  8
DEFPOINTS
  6
BYBLOCK
 62
     0
100
AcDbPoint
 10
578.483377
 20
388.36502
 30
0.0
  0
POINT
  5
F4
100
AcDbEntity
  8
DEFPOINTS
  6
BYBLOCK
 62
     0
100
AcDbPoint
 10
681.483377
 20
392.207742
 30
0.0
  0
POINT
  5
F5
100
AcDbEntity
  8
DEFPOINTS
  6
BYBLOCK
 62
     0
100
AcDbPoint
 10
681.483377
 20
369.321609
 30
0.0
  0
ENDBLK
  5
F7
100
AcDbEntity
  8
0
100
AcDbBlockEnd
  0
BLOCK
  5
E9
100
AcDbEntity
  8
0
100
AcDbBlockBegin
  2
*D3
 70
     1
 10
0.0
 20
0.0
 30
0.0
  3
*D3
  1

  0
LINE
  5
E0
100
AcDbEntity
  8
0
  6
BYBLOCK
 62
     4
100
AcDbLine
 10
578.483377
 20
387.36502
 30
0.0
 11
578.483377
 21
346.821609
 31
0.0
  0
LINE
  5
E1
100
AcDbEntity
  8
0
  6
BYBLOCK
 62
     4
100
AcDbLine
 10
691.483377
 20
377.966107
 30
0.0
 11
691.483377
 21
346.821609
 31
0.0
  0
LINE
  5
E2
100
AcDbEntity
  8
0
  6
BYBLOCK
 62
     4
100
AcDbLine
 10
581.483377
 20
349.321609
 30
0.0
 11
688.483377
 21
349.321609
 31
0.0
  0
SOLID
  5
E3
100
AcDbEntity
  8
0
  6
BYBLOCK
 62
     4
100
AcDbTrace
 10
581.483377
 20
349.821609
 30
0.0
 11
581.483377
 21
348.821609
 31
0.0
 12
578.483377
 22
349.321609
 32
0.0
 13
578.483377
 23
349.321609
 33
0.0
  0
SOLID
  5
E4
100
AcDbEntity
  8
0
  6
BYBLOCK
 62
     4
100
AcDbTrace
 10
688.483377
 20
349.821609
 30
0.0
 11
688.483377
 21
348.821609
 31
0.0
 12
691.483377
 22
349.321609
 32
0.0
 13
691.483377
 23
349.321609
 33
0.0
  0
MTEXT
  5
E5
100
AcDbEntity
  8
0
  6
BYBLOCK
 62
     2
100
AcDbMText
 10
634.983377
 20
352.321609
 30
0.0
 40
3.0
 41
0.0
 71
     5
 72
     1
  1
\A1;L=113.00
  0
POINT
  5
E6
100
AcDbEntity
  8
DEFPOINTS
  6
BYBLOCK
 62
     0
100
AcDbPoint
 10
578.483377
 20
388.36502
 30
0.0
  0
POINT
  5
E7
100
AcDbEntity
  8
DEFPOINTS
  6
BYBLOCK
 62
     0
100
AcDbPoint
 10
691.483377
 20
378.966107
 30
0.0
  0
POINT
  5
E8
100
AcDbEntity
  8
DEFPOINTS
  6
BYBLOCK
 62
     0
100
AcDbPoint
 10
691.483377
 20
349.321609
 30
0.0
  0
ENDBLK
  5
EA
100
AcDbEntity
  8
0
100
AcDbBlockEnd
  0
BLOCK
  5
DC
100
AcDbEntity
  8
0
100
AcDbBlockBegin
  2
*D4
 70
     1
 10
0.0
 20
0.0
 30
0.0
  3
*D4
  1

  0
LINE
  5
D3
100
AcDbEntity
  8
0
  6
BYBLOCK
 62
     4
100
AcDbLine
 10
691.483377
 20
377.966107
 30
0.0
 11
691.483377
 21
356.694866
 31
0.0
  0
LINE
  5
D4
100
AcDbEntity
  8
0
  6
BYBLOCK
 62
     4
100
AcDbLine
 10
582.483377
 20
396.207742
 30
0.0
 11
582.483377
 21
356.694866
 31
0.0
  0
LINE
  5
D5
100
AcDbEntity
  8
0
  6
BYBLOCK
 62
     4
100
AcDbLine
 10
688.483377
 20
359.194866
 30
0.0
 11
585.483377
 21
359.194866
 31
0.0
  0
SOLID
  5
D6
100
AcDbEntity
  8
0
  6
BYBLOCK
 62
     4
100
AcDbTrace
 10
688.483377
 20
359.694866
 30
0.0
 11
688.483377
 21
358.694866
 31
0.0
 12
691.483377
 22
359.194866
 32
0.0
 13
691.483377
 23
359.194866
 33
0.0
  0
SOLID
  5
D7
100
AcDbEntity
  8
0
  6
BYBLOCK
 62
     4
100
AcDbTrace
 10
585.483377
 20
359.694866
 30
0.0
 11
585.483377
 21
358.694866
 31
0.0
 12
582.483377
 22
359.194866
 32
0.0
 13
582.483377
 23
359.194866
 33
0.0
  0
MTEXT
  5
D8
100
AcDbEntity
  8
0
  6
BYBLOCK
 62
     2
100
AcDbMText
 10
636.983377
 20
362.194866
 30
0.0
 40
3.0
 41
0.0
 71
     5
 72
     1
  1
\A1;N=109.00
  0
POINT
  5
D9
100
AcDbEntity
  8
DEFPOINTS
  6
BYBLOCK
 62
     0
100
AcDbPoint
 10
691.483377
 20
378.966107
 30
0.0
  0
POINT
  5
DA
100
AcDbEntity
  8
DEFPOINTS
  6
BYBLOCK
 62
     0
100
AcDbPoint
 10
582.483377
 20
397.207742
 30
0.0
  0
POINT
  5
DB
100
AcDbEntity
  8
DEFPOINTS
  6
BYBLOCK
 62
     0
100
AcDbPoint
 10
582.483377
 20
359.194866
 30
0.0
  0
ENDBLK
  5
DD
100
AcDbEntity
  8
0
100
AcDbBlockEnd
  0
BLOCK
  5
BA
100
AcDbEntity
  8
0
100
AcDbBlockBegin
  2
*D5
 70
     1
 10
0.0
 20
0.0
 30
0.0
  3
*D5
  1

  0
LINE
  5
B1
100
AcDbEntity
  8
0
  6
BYBLOCK
 62
     4
100
AcDbLine
 10
739.563798
 20
581.15042
 30
0.0
 11
729.822537
 21
581.15042
 31
0.0
  0
LINE
  5
B2
100
AcDbEntity
  8
0
  6
BYBLOCK
 62
     4
100
AcDbLine
 10
758.574924
 20
561.15042
 30
0.0
 11
729.822537
 21
561.15042
 31
0.0
  0
LINE
  5
B3
100
AcDbEntity
  8
0
  6
BYBLOCK
 62
     4
100
AcDbLine
 10
732.322537
 20
578.15042
 30
0.0
 11
732.322537
 21
564.15042
 31
0.0
  0
SOLID
  5
B4
100
AcDbEntity
  8
0
  6
BYBLOCK
 62
     4
100
AcDbTrace
 10
731.822537
 20
578.15042
 30
0.0
 11
732.822537
 21
578.15042
 31
0.0
 12
732.322537
 22
581.15042
 32
0.0
 13
732.322537
 23
581.15042
 33
0.0
  0
SOLID
  5
B5
100
AcDbEntity
  8
0
  6
BYBLOCK
 62
     4
100
AcDbTrace
 10
731.822537
 20
564.15042
 30
0.0
 11
732.822537
 21
564.15042
 31
0.0
 12
732.322537
 22
561.15042
 32
0.0
 13
732.322537
 23
561.15042
 33
0.0
  0
MTEXT
  5
B6
100
AcDbEntity
  8
0
  6
BYBLOCK
 62
     2
100
AcDbMText
 10
729.322537
 20
571.15042
 30
0.0
 40
3.0
 41
0.0
 71
     5
 72
     1
  1
\A1;20.00
 11
0.0
 21
1.0
 31
0.0
  0
POINT
  5
B7
100
AcDbEntity
  8
DEFPOINTS
  6
BYBLOCK
 62
     0
100
AcDbPoint
 10
740.563798
 20
581.15042
 30
0.0
  0
POINT
  5
B8
100
AcDbEntity
  8
DEFPOINTS
  6
BYBLOCK
 62
     0
100
AcDbPoint
 10
759.574924
 20
561.15042
 30
0.0
  0
POINT
  5
B9
100
AcDbEntity
  8
DEFPOINTS
  6
BYBLOCK
 62
     0
100
AcDbPoint
 10
732.322537
 20
561.15042
 30
0.0
  0
ENDBLK
  5
BB
100
AcDbEntity
  8
0
100
AcDbBlockEnd
  0
BLOCK
  5
AD
100
AcDbEntity
  8
0
100
AcDbBlockBegin
  2
*D6
 70
     1
 10
0.0
 20
0.0
 30
0.0
  3
*D6
  1

  0
LINE
  5
A3
100
AcDbEntity
  8
0
  6
BYBLOCK
 62
     4
100
AcDbLine
 10
762.380252
 20
557.345092
 30
0.0
 11
762.380252
 21
539.774847
 31
0.0
  0
LINE
  5
A4
100
AcDbEntity
  8
0
  6
BYBLOCK
 62
     4
100
AcDbLine
 10
768.380252
 20
557.345092
 30
0.0
 11
768.380252
 21
539.774847
 31
0.0
  0
LINE
  5
A5
100
AcDbEntity
  8
0
  6
BYBLOCK
 62
     4
100
AcDbLine
 10
759.380252
 20
542.274847
 30
0.0
 11
756.380252
 21
542.274847
 31
0.0
  0
LINE
  5
A6
100
AcDbEntity
  8
0
  6
BYBLOCK
 62
     4
100
AcDbLine
 10
771.380252
 20
542.274847
 30
0.0
 11
786.523109
 21
542.274847
 31
0.0
  0
SOLID
  5
A7
100
AcDbEntity
  8
0
  6
BYBLOCK
 62
     4
100
AcDbTrace
 10
759.380252
 20
542.774847
 30
0.0
 11
759.380252
 21
541.774847
 31
0.0
 12
762.380252
 22
542.274847
 32
0.0
 13
762.380252
 23
542.274847
 33
0.0
  0
SOLID
  5
A8
100
AcDbEntity
  8
0
  6
BYBLOCK
 62
     4
100
AcDbTrace
 10
771.380252
 20
542.774847
 30
0.0
 11
771.380252
 21
541.774847
 31
0.0
 12
768.380252
 22
542.274847
 32
0.0
 13
768.380252
 23
542.274847
 33
0.0
  0
MTEXT
  5
A9
100
AcDbEntity
  8
0
  6
BYBLOCK
 62
     2
100
AcDbMText
 10
780.451681
 20
545.274847
 30
0.0
 40
3.0
 41
0.0
 71
     5
 72
     1
  1
\A1;6.00
  0
POINT
  5
AA
100
AcDbEntity
  8
DEFPOINTS
  6
BYBLOCK
 62
     0
100
AcDbPoint
 10
762.380252
 20
558.345092
 30
0.0
  0
POINT
  5
AB
100
AcDbEntity
  8
DEFPOINTS
  6
BYBLOCK
 62
     0
100
AcDbPoint
 10
768.380252
 20
558.345092
 30
0.0
  0
POINT
  5
AC
100
AcDbEntity
  8
DEFPOINTS
  6
BYBLOCK
 62
     0
100
AcDbPoint
 10
768.380252
 20
542.274847
 30
0.0
  0
ENDBLK
  5
AE
100
AcDbEntity
  8
0
100
AcDbBlockEnd
  0
BLOCK
  5
5F
100
AcDbEntity
  8
0
100
AcDbBlockBegin
  2
*D7
 70
     1
 10
0.0
 20
0.0
 30
0.0
  3
*D7
  1

  0
LINE
  5
56
100
AcDbEntity
  8
0
  6
BYBLOCK
 62
     4
100
AcDbLine
 10
920.441311
 20
564.15042
 30
0.0
 11
957.897932
 21
564.15042
 31
0.0
  0
LINE
  5
57
100
AcDbEntity
  8
0
  6
BYBLOCK
 62
     4
100
AcDbLine
 10
920.441311
 20
598.15042
 30
0.0
 11
957.897932
 21
598.15042
 31
0.0
  0
LINE
  5
58
100
AcDbEntity
  8
0
  6
BYBLOCK
 62
     4
100
AcDbLine
 10
955.397932
 20
567.15042
 30
0.0
 11
955.397932
 21
595.15042
 31
0.0
  0
SOLID
  5
59
100
AcDbEntity
  8
0
  6
BYBLOCK
 62
     4
100
AcDbTrace
 10
954.897932
 20
567.15042
 30
0.0
 11
955.897932
 21
567.15042
 31
0.0
 12
955.397932
 22
564.15042
 32
0.0
 13
955.397932
 23
564.15042
 33
0.0
  0
SOLID
  5
5A
100
AcDbEntity
  8
0
  6
BYBLOCK
 62
     4
100
AcDbTrace
 10
954.897932
 20
595.15042
 30
0.0
 11
955.897932
 21
595.15042
 31
0.0
 12
955.397932
 22
598.15042
 32
0.0
 13
955.397932
 23
598.15042
 33
0.0
  0
MTEXT
  5
5B
100
AcDbEntity
  8
0
  6
BYBLOCK
 62
     2
100
AcDbMText
 10
952.397932
 20
576.411751
 30
0.0
 40
3.0
 41
0.0
 71
     5
 72
     1
  1
\A1;\U+220534.00
 11
0.0
 21
1.0
 31
0.0
  0
POINT
  5
5C
100
AcDbEntity
  8
DEFPOINTS
  6
BYBLOCK
 62
     0
100
AcDbPoint
 10
919.441311
 20
564.15042
 30
0.0
  0
POINT
  5
5D
100
AcDbEntity
  8
DEFPOINTS
  6
BYBLOCK
 62
     0
100
AcDbPoint
 10
919.441311
 20
598.15042
 30
0.0
  0
POINT
  5
5E
100
AcDbEntity
  8
DEFPOINTS
  6
BYBLOCK
 62
     0
100
AcDbPoint
 10
955.397932
 20
598.15042
 30
0.0
  0
ENDBLK
  5
60
100
AcDbEntity
  8
0
100
AcDbBlockEnd
  0
ENDSEC
  0
SECTION
  2
ENTITIES
  0
ARC
  5
20
100
AcDbEntity
  8
M03
100
AcDbCircle
 10
587.774664
 20
409.207742
 30
0.0
 40
2.5
100
AcDbArc
 50
203.578178
 51
270.0
  0
LINE
  5
23
100
AcDbEntity
  8
M03
 48
0.7
100
AcDbLine
 10
578.483377
 20
407.840888
 30
0.0
 11
585.483377
 21
408.207742
 31
0.0
  0
LINE
  5
24
100
AcDbEntity
  8
M03
 48
0.7
100
AcDbLine
 10
578.483377
 20
410.574597
 30
0.0
 11
585.483377
 21
410.207742
 31
0.0
  0
ARC
  5
25
100
AcDbEntity
  8
M03
100
AcDbCircle
 10
587.774664
 20
409.207742
 30
0.0
 40
2.5
100
AcDbArc
 50
90.0
 51
156.421822
  0
LINE
  5
26
100
AcDbEntity
  8
M03
100
AcDbLine
 10
585.483377
 20
410.207742
 30
0.0
 11
585.483377
 21
408.207742
 31
0.0
  0
LINE
  5
27
100
AcDbEntity
  8
M01
100
AcDbLine
 10
584.783304
 20
397.207742
 30
0.0
 11
663.983377
 21
397.207742
 31
0.0
  0
LINE
  5
28
100
AcDbEntity
  8
M01
100
AcDbLine
 10
584.783304
 20
421.207742
 30
0.0
 11
663.983377
 21
421.207742
 31
0.0
  0
POINT
  5
29
100
AcDbEntity
  8
DEFPOINTS
  6
BYBLOCK
 62
     0
100
AcDbPoint
 10
692.15964
 20
410.259012
 30
0.0
  0
MTEXT
  5
2B
100
AcDbEntity
  8
0
  6
BYBLOCK
 62
     2
100
AcDbMText
 10
743.846619
 20
434.802747
 30
0.0
 40
3.0
 41
0.0
 71
     5
 72
     1
  1
MANIFOLD INSERTION POINT
  0
SOLID
  5
2C
100
AcDbEntity
  8
0
  6
BYBLOCK
 62
     4
100
AcDbTrace
 10
693.362165
 20
413.052564
 30
0.0
 11
694.203181
 21
412.511553
 31
0.0
 12
692.15964
 22
410.259012
 32
0.0
 13
692.15964
 23
410.259012
 33
0.0
  0
LINE
  5
2D
100
AcDbEntity
  8
0
  6
BYBLOCK
 62
     4
100
AcDbLine
 10
707.948203
 20
434.802747
 30
0.0
 11
710.948203
 21
434.802747
 31
0.0
  0
LINE
  5
2E
100
AcDbEntity
  8
0
  6
BYBLOCK
 62
     4
100
AcDbLine
 10
693.782673
 20
412.782058
 30
0.0
 11
707.948203
 21
434.802747
 31
0.0
  0
CIRCLE
  5
2F
100
AcDbEntity
  8
M04
100
AcDbCircle
 10
691.483377
 20
409.207742
 30
0.0
 40
1.25
  0
LINE
  5
31
100
AcDbEntity
  8
M03
 48
0.7
100
AcDbLine
 10
675.349402
 20
387.707742
 30
0.0
 11
675.349402
 21
390.707742
 31
0.0
  0
LINE
  5
32
100
AcDbEntity
  8
M03
 48
0.7
100
AcDbLine
 10
675.349402
 20
387.707742
 30
0.0
 11
674.483377
 21
389.207742
 31
0.0
  0
LINE
  5
33
100
AcDbEntity
  8
M03
 48
0.7
100
AcDbLine
 10
675.349402
 20
390.707742
 30
0.0
 11
674.483377
 21
389.207742
 31
0.0
  0
LINE
  5
34
100
AcDbEntity
  8
M03
 48
0.7
100
AcDbLine
 10
687.483377
 20
388.207742
 30
0.0
 11
686.983377
 21
387.707742
 31
0.0
  0
LINE
  5
35
100
AcDbEntity
  8
M03
 48
0.7
100
AcDbLine
 10
675.483377
 20
388.207742
 30
0.0
 11
675.983377
 21
387.707742
 31
0.0
  0
LINE
  5
36
100
AcDbEntity
  8
M03
 48
0.7
100
AcDbLine
 10
686.983377
 20
387.707742
 30
0.0
 11
675.349402
 21
387.707742
 31
0.0
  0
LINE
  5
37
100
AcDbEntity
  8
M03
 48
0.7
100
AcDbLine
 10
686.983377
 20
390.707742
 30
0.0
 11
687.483377
 21
390.207742
 31
0.0
  0
LINE
  5
38
100
AcDbEntity
  8
M03
 48
0.7
100
AcDbLine
 10
675.983377
 20
390.707742
 30
0.0
 11
675.483377
 21
390.207742
 31
0.0
  0
LINE
  5
39
100
AcDbEntity
  8
M03
 48
0.7
100
AcDbLine
 10
686.983377
 20
390.707742
 30
0.0
 11
675.349402
 21
390.707742
 31
0.0
  0
LINE
  5
3A
100
AcDbEntity
  8
M03
 48
0.7
100
AcDbLine
 10
687.483377
 20
390.207742
 30
0.0
 11
687.483377
 21
388.207742
 31
0.0
  0
LINE
  5
3B
100
AcDbEntity
  8
M03
 48
0.7
100
AcDbLine
 10
675.483377
 20
390.207742
 30
0.0
 11
675.483377
 21
388.207742
 31
0.0
  0
LINE
  5
3C
100
AcDbEntity
  8
M03
 48
0.7
100
AcDbLine
 10
675.983377
 20
390.707742
 30
0.0
 11
675.983377
 21
387.707742
 31
0.0
  0
LINE
  5
3D
100
AcDbEntity
  8
M03
 48
0.7
100
AcDbLine
 10
686.983377
 20
387.707742
 30
0.0
 11
686.983377
 21
390.707742
 31
0.0
  0
LINE
  5
3E
100
AcDbEntity
  8
CENTRE
 48
0.7
100
AcDbLine
 10
670.112097
 20
389.207742
 30
0.0
 11
694.674673
 21
389.207742
 31
0.0
  0
LINE
  5
41
100
AcDbEntity
  8
M04
100
AcDbLine
 10
681.983377
 20
426.207742
 30
0.0
 11
681.483377
 21
426.207742
 31
0.0
  0
LINE
  5
42
100
AcDbEntity
  8
M04
100
AcDbLine
 10
681.483377
 20
425.707742
 30
0.0
 11
681.483377
 21
426.207742
 31
0.0
  0
LINE
  5
43
100
AcDbEntity
  8
M04
 48
0.7
100
AcDbLine
 10
691.483377
 20
442.207742
 30
0.0
 11
693.483377
 21
444.207742
 31
0.0
  0
ARC
  5
44
100
AcDbEntity
  8
M04
 48
0.7
100
AcDbCircle
 10
686.483377
 20
449.207742
 30
0.0
 40
2.0
100
AcDbArc
 50
90.0
 51
180.0
  0
LINE
  5
45
100
AcDbEntity
  8
M04
100
AcDbLine
 10
684.483377
 20
392.496418
 30
0.0
 11
684.483377
 21
378.966107
 31
0.0
  0
LINE
  5
46
100
AcDbEntity
  8
M04
 48
0.7
100
AcDbLine
 10
686.483377
 20
451.207742
 30
0.0
 11
709.800311
 21
451.207742
 31
0.0
  0
LINE
  5
47
100
AcDbEntity
  8
M04
 48
0.7
100
AcDbLine
 10
693.483377
 20
444.207742
 30
0.0
 11
709.800311
 21
444.207742
 31
0.0
  0
LINE
  5
48
100
AcDbEntity
  8
M04
100
AcDbLine
 10
691.483377
 20
425.207742
 30
0.0
 11
691.483377
 21
442.207742
 31
0.0
  0
LINE
  5
49
100
AcDbEntity
  8
M01
 48
0.7
100
AcDbLine
 10
665.283304
 20
399.707742
 30
0.0
 11
681.483377
 21
399.707742
 31
0.0
  0
LINE
  5
4A
100
AcDbEntity
  8
M01
 48
0.7
100
AcDbLine
 10
665.283304
 20
418.707742
 30
0.0
 11
681.483377
 21
418.707742
 31
0.0
  0
LINE
  5
4B
100
AcDbEntity
  8
M01
100
AcDbLine
 10
663.983377
 20
420.570524
 30
0.0
 11
665.283304
 21
420.570524
 31
0.0
  0
LINE
  5
4C
100
AcDbEntity
  8
M01
100
AcDbLine
 10
663.983377
 20
397.844938
 30
0.0
 11
665.283304
 21
397.844938
 31
0.0
  0
LINE
  5
4D
100
AcDbEntity
  8
M01
100
AcDbLine
 10
663.983377
 20
421.207742
 30
0.0
 11
663.983377
 21
397.207742
 31
0.0
  0
LINE
  5
4E
100
AcDbEntity
  8
M01
100
AcDbLine
 10
665.283304
 20
420.570524
 30
0.0
 11
665.283304
 21
397.844938
 31
0.0
  0
LINE
  5
4F
100
AcDbEntity
  8
M04
100
AcDbLine
 10
660.483377
 20
549.059559
 30
0.0
 11
660.483377
 21
423.207742
 31
0.0
  0
LINE
  5
50
100
AcDbEntity
  8
M04
100
AcDbLine
 10
684.483377
 20
449.207742
 30
0.0
 11
684.483377
 21
425.919067
 31
0.0
  0
TEXT
  5
51
100
AcDbEntity
  8
DIMS
 62
     2
100
AcDbText
 10
717.934798
 20
413.720204
 30
0.0
 40
2.0
  1
-0
 50
90.0
100
AcDbText
  0
TEXT
  5
53
100
AcDbEntity
  8
DIMS
 62
     2
100
AcDbText
 10
714.849878
 20
413.720204
 30
0.0
 40
2.0
  1
+0.025
 50
90.0
100
AcDbText
  0
DIMENSION
  5
54
100
AcDbEntity
  8
DIMS
100
AcDbDimension
  2
*D7
 10
719.939997
 20
426.207742
 30
0.0
 11
719.939997
 21
404.469073
 31
0.0
 12
-235.457935
 22
-171.942678
 32
0.0
 70
   128
  1
%%c<>
  3
DIM1
100
AcDbAlignedDimension
 13
683.983377
 23
392.207742
 33
0.0
 14
683.983377
 24
426.207742
 34
0.0
 50
90.0
100
AcDbRotatedDimension
1001
ACAD
1000
DSTYLE
1002
{
1070
   144
1040
1.0
1002
}
  0
LINE
  5
61
100
AcDbEntity
  8
CENTRE
 48
0.7
100
AcDbLine
 10
686.483377
 20
380.966125
 30
0.0
 11
686.483377
 21
398.863738
 31
0.0
  0
HATCH
  5
62
100
AcDbEntity
  8
M04
100
AcDbHatch
 10
0.0
 20
0.0
 30
0.0
210
0.0
220
0.0
230
1.0
  2
_U
 70
     0
 71
     0
 91
        2
 92
        7
 72
     0
 73
     1
 93
        4
 10
666.233376575419
 20
542.4235718033469
 10
663.2333765754188
 20
542.4235718033469
 10
663.2333765754188
 20
516.2077421121925
 10
666.2333765754188
 20
516.2077421121925
 97
        0
 92
        7
 72
     0
 73
     1
 93
        4
 10
669.2333765754187
 20
542.4235718033469
 10
666.2333765754188
 20
542.4235718033469
 10
666.233376575419
 20
516.2077421121925
 10
669.2333765754187
 20
516.2077421121928
 97
        0
 75
     0
 76
     0
 52
45.0
 41
1.0
 77
     1
 78
     2
 53
45.0
 43
-115.813762
 44
75.328834
 45
-0.7071067811865475
 46
0.7071067811865476
 79
     0
 53
135.0
 43
-115.813762
 44
75.328834
 45
-0.7071067811865476
 46
-0.7071067811865475
 79
     0
 47
0.084306
 98
        2
 10
665.406795
 20
526.574102
 10
668.021299
 20
527.248547
  0
LINE
  5
63
100
AcDbEntity
  8
M01
100
AcDbLine
 10
669.233377
 20
516.207742
 30
0.0
 11
669.233377
 21
542.423572
 31
0.0
  0
LINE
  5
64
100
AcDbEntity
  8
M01
100
AcDbLine
 10
663.233377
 20
516.207742
 30
0.0
 11
663.233377
 21
542.423572
 31
0.0
  0
ARC
  5
65
100
AcDbEntity
  8
M01
100
AcDbCircle
 10
683.233377
 20
448.394467
 30
0.0
 40
18.75
100
AcDbArc
 50
170.0
 51
180.0
  0
LINE
  5
66
100
AcDbEntity
  8
M01
100
AcDbLine
 10
664.768231
 20
451.650371
 30
0.0
 11
667.160541
 21
465.217835
 31
0.0
  0
ARC
  5
67
100
AcDbEntity
  8
M01
100
AcDbCircle
 10
646.233377
 20
468.907859
 30
0.0
 40
21.25
100
AcDbArc
 50
350.0
 51
0.0
  0
ARC
  5
68
100
AcDbEntity
  8
M01
100
AcDbCircle
 10
646.233377
 20
468.907859
 30
0.0
 40
18.75
100
AcDbArc
 50
350.0
 51
0.0
  0
LINE
  5
69
100
AcDbEntity
  8
M01
100
AcDbLine
 10
662.306212
 20
452.084491
 30
0.0
 11
664.698522
 21
465.651956
 31
0.0
  0
ARC
  5
6A
100
AcDbEntity
  8
M01
100
AcDbCircle
 10
683.233377
 20
448.394467
 30
0.0
 40
21.25
100
AcDbArc
 50
170.0
 51
180.0
  0
LINE
  5
6B
100
AcDbEntity
  8
CENTRE
 48
0.7
100
AcDbLine
 10
666.233377
 20
484.699008
 30
0.0
 11
666.233377
 21
547.060385
 31
0.0
  0
LINE
  5
6C
100
AcDbEntity
  8
M01
100
AcDbLine
 10
667.483377
 20
468.907859
 30
0.0
 11
667.483377
 21
491.207742
 31
0.0
  0
LINE
  5
6D
100
AcDbEntity
  8
M01
100
AcDbLine
 10
664.983377
 20
468.907859
 30
0.0
 11
664.983377
 21
491.207742
 31
0.0
  0
LINE
  5
6E
100
AcDbEntity
  8
M01
100
AcDbLine
 10
670.233377
 20
509.207742
 30
0.0
 11
662.233377
 21
509.207742
 31
0.0
  0
LINE
  5
6F
100
AcDbEntity
  8
M01
100
AcDbLine
 10
663.233377
 20
501.132485
 30
0.0
 11
669.233377
 21
501.132485
 31
0.0
  0
LINE
  5
70
100
AcDbEntity
  8
M01
100
AcDbLine
 10
669.233377
 20
501.132485
 30
0.0
 11
669.233377
 21
509.207742
 31
0.0
  0
LINE
  5
71
100
AcDbEntity
  8
M01
100
AcDbLine
 10
663.233377
 20
501.132485
 30
0.0
 11
663.233377
 21
509.207742
 31
0.0
  0
LINE
  5
72
100
AcDbEntity
  8
M01
100
AcDbLine
 10
664.983377
 20
491.207742
 30
0.0
 11
663.233377
 21
501.132485
 31
0.0
  0
LINE
  5
73
100
AcDbEntity
  8
M01
100
AcDbLine
 10
662.233377
 20
509.207742
 30
0.0
 11
662.233377
 21
516.207742
 31
0.0
  0
LINE
  5
74
100
AcDbEntity
  8
M01
100
AcDbLine
 10
667.483377
 20
491.207742
 30
0.0
 11
669.233377
 21
501.132485
 31
0.0
  0
LINE
  5
75
100
AcDbEntity
  8
M01
100
AcDbLine
 10
670.233377
 20
509.207742
 30
0.0
 11
670.233377
 21
516.207742
 31
0.0
  0
LINE
  5
76
100
AcDbEntity
  8
M01
100
AcDbLine
 10
670.233377
 20
516.207742
 30
0.0
 11
662.233377
 21
516.207742
 31
0.0
  0
LINE
  5
77
100
AcDbEntity
  8
M04
100
AcDbLine
 10
672.483377
 20
423.207742
 30
0.0
 11
672.483377
 21
549.207742
 31
0.0
  0
LINE
  5
78
100
AcDbEntity
  8
M04
100
AcDbLine
 10
681.983377
 20
392.207742
 30
0.0
 11
681.483377
 21
392.207742
 31
0.0
  0
LINE
  5
79
100
AcDbEntity
  8
M04
100
AcDbLine
 10
681.483377
 20
392.707742
 30
0.0
 11
681.483377
 21
392.207742
 31
0.0
  0
LINE
  5
7A
100
AcDbEntity
  8
M04
100
AcDbLine
 10
691.483377
 20
393.207742
 30
0.0
 11
691.483377
 21
378.966107
 31
0.0
  0
LINE
  5
7B
100
AcDbEntity
  8
M01
100
AcDbLine
 10
667.483377
 20
491.207742
 30
0.0
 11
664.983377
 21
491.207742
 31
0.0
  0
LINE
  5
7C
100
AcDbEntity
  8
M01
100
AcDbLine
 10
664.483377
 20
420.570524
 30
0.0
 11
664.483377
 21
448.394467
 31
0.0
  0
LINE
  5
7D
100
AcDbEntity
  8
M01
100
AcDbLine
 10
661.983377
 20
421.207742
 30
0.0
 11
661.983377
 21
448.394467
 31
0.0
  0
LINE
  5
7E
100
AcDbEntity
  8
M01
100
AcDbLine
 10
690.983377
 20
425.707742
 30
0.0
 11
691.483377
 21
425.207742
 31
0.0
  0
LINE
  5
7F
100
AcDbEntity
  8
M01
100
AcDbLine
 10
690.983377
 20
425.707742
 30
0.0
 11
689.483377
 21
425.707742
 31
0.0
  0
LINE
  5
80
100
AcDbEntity
  8
M01
100
AcDbLine
 10
689.483377
 20
423.707742
 30
0.0
 11
688.313505
 21
423.707742
 31
0.0
  0
LINE
  5
81
100
AcDbEntity
  8
M01
100
AcDbLine
 10
689.483377
 20
425.707742
 30
0.0
 11
689.483377
 21
409.207742
 31
0.0
  0
LINE
  5
82
100
AcDbEntity
  8
M01
100
AcDbLine
 10
683.983377
 20
426.207742
 30
0.0
 11
683.983377
 21
409.207742
 31
0.0
  0
LINE
  5
83
100
AcDbEntity
  8
M01
100
AcDbLine
 10
683.983377
 20
426.207742
 30
0.0
 11
688.313505
 21
423.707742
 31
0.0
  0
LINE
  5
84
100
AcDbEntity
  8
M01
100
AcDbLine
 10
681.483377
 20
425.707742
 30
0.0
 11
681.983377
 21
426.207742
 31
0.0
  0
LINE
  5
85
100
AcDbEntity
  8
M01
100
AcDbLine
 10
681.483377
 20
425.707742
 30
0.0
 11
681.483377
 21
409.207742
 31
0.0
  0
LINE
  5
86
100
AcDbEntity
  8
M01
100
AcDbLine
 10
683.983377
 20
426.207742
 30
0.0
 11
681.983377
 21
426.207742
 31
0.0
  0
LINE
  5
87
100
AcDbEntity
  8
M01
100
AcDbLine
 10
687.983377
 20
394.517144
 30
0.0
 11
688.313505
 21
394.707742
 31
0.0
  0
LINE
  5
88
100
AcDbEntity
  8
M01
100
AcDbLine
 10
689.483377
 20
394.707742
 30
0.0
 11
688.313505
 21
394.707742
 31
0.0
  0
LINE
  5
89
100
AcDbEntity
  8
M01
100
AcDbLine
 10
691.483377
 20
393.207742
 30
0.0
 11
690.983377
 21
392.707742
 31
0.0
  0
LINE
  5
8A
100
AcDbEntity
  8
M01
100
AcDbLine
 10
690.983377
 20
392.707742
 30
0.0
 11
689.483377
 21
392.707742
 31
0.0
  0
LINE
  5
8B
100
AcDbEntity
  8
M01
100
AcDbLine
 10
683.983377
 20
392.207742
 30
0.0
 11
684.983377
 21
392.785093
 31
0.0
  0
LINE
  5
8C
100
AcDbEntity
  8
M01
100
AcDbLine
 10
684.983377
 20
392.785093
 30
0.0
 11
684.983377
 21
386.707742
 31
0.0
  0
ARC
  5
8D
100
AcDbEntity
  8
M01
100
AcDbCircle
 10
686.986398
 20
392.779859
 30
0.0
 40
2.003029
100
AcDbArc
 50
60.149689
 51
179.850311
  0
LINE
  5
8E
100
AcDbEntity
  8
M01
100
AcDbLine
 10
687.483377
 20
386.207742
 30
0.0
 11
685.483377
 21
386.207742
 31
0.0
  0
LINE
  5
8F
100
AcDbEntity
  8
M01
100
AcDbLine
 10
684.983377
 20
386.707742
 30
0.0
 11
685.483377
 21
386.207742
 31
0.0
  0
LINE
  5
90
100
AcDbEntity
  8
M01
100
AcDbLine
 10
684.983377
 20
386.707742
 30
0.0
 11
687.983377
 21
386.707742
 31
0.0
  0
LINE
  5
91
100
AcDbEntity
  8
M01
100
AcDbLine
 10
687.983377
 20
386.707742
 30
0.0
 11
687.483377
 21
386.207742
 31
0.0
  0
LINE
  5
92
100
AcDbEntity
  8
M01
100
AcDbLine
 10
687.983377
 20
394.517144
 30
0.0
 11
687.983377
 21
386.707742
 31
0.0
  0
LINE
  5
93
100
AcDbEntity
  8
M01
100
AcDbLine
 10
681.483377
 20
392.707742
 30
0.0
 11
681.983377
 21
392.207742
 31
0.0
  0
LINE
  5
94
100
AcDbEntity
  8
M01
100
AcDbLine
 10
683.983377
 20
392.207742
 30
0.0
 11
681.983377
 21
392.207742
 31
0.0
  0
LINE
  5
95
100
AcDbEntity
  8
M01
100
AcDbLine
 10
688.313505
 20
394.707742
 30
0.0
 11
688.313505
 21
423.707742
 31
0.0
  0
LINE
  5
96
100
AcDbEntity
  8
M01
100
AcDbLine
 10
681.983377
 20
392.207742
 30
0.0
 11
681.983377
 21
426.207742
 31
0.0
  0
LINE
  5
97
100
AcDbEntity
  8
M01
100
AcDbLine
 10
690.983377
 20
392.707742
 30
0.0
 11
690.983377
 21
425.707742
 31
0.0
  0
LINE
  5
98
100
AcDbEntity
  8
M01
100
AcDbLine
 10
691.483377
 20
425.207742
 30
0.0
 11
691.483377
 21
393.207742
 31
0.0
  0
LINE
  5
99
100
AcDbEntity
  8
M01
100
AcDbLine
 10
689.483377
 20
392.707742
 30
0.0
 11
689.483377
 21
409.207742
 31
0.0
  0
LINE
  5
9A
100
AcDbEntity
  8
M01
100
AcDbLine
 10
683.983377
 20
392.207742
 30
0.0
 11
683.983377
 21
409.207742
 31
0.0
  0
LINE
  5
9B
100
AcDbEntity
  8
M01
100
AcDbLine
 10
681.483377
 20
409.207742
 30
0.0
 11
681.483377
 21
392.707742
 31
0.0
  0
POINT
  5
9C
100
AcDbEntity
  8
DEFPOINTS
  6
BYBLOCK
 62
     0
100
AcDbPoint
 10
486.883926
 20
388.125271
 30
0.0
  0
MTEXT
  5
9D
100
AcDbEntity
  8
0
  6
BYBLOCK
 62
     2
100
AcDbMText
 10
435.526162
 20
373.457836
 30
0.0
 40
3.0
 41
0.0
 71
     5
 72
     1
  1
2 DOWELS %%C3.00 x 3.5 HIGH
  0
SOLID
  5
9E
100
AcDbEntity
  8
0
  6
BYBLOCK
 62
     4
100
AcDbTrace
 10
484.446319
 20
386.306461
 30
0.0
 11
485.167966
 21
385.6142
 31
0.0
 12
486.883926
 22
388.125271
 32
0.0
 13
486.883926
 23
388.125271
 33
0.0
  0
LINE
  5
9F
100
AcDbEntity
  8
0
  6
BYBLOCK
 62
     4
100
AcDbLine
 10
472.813758
 20
373.457836
 30
0.0
 11
469.813758
 21
373.457836
 31
0.0
  0
LINE
  5
A0
100
AcDbEntity
  8
0
  6
BYBLOCK
 62
     4
100
AcDbLine
 10
484.807142
 20
385.96033
 30
0.0
 11
472.813758
 21
373.457836
 31
0.0
  0
DIMENSION
  5
A1
100
AcDbEntity
  8
DIMS
100
AcDbDimension
  2
*D6
 10
493.922317
 20
370.332169
 30
0.0
 11
505.993746
 21
373.332169
 31
0.0
 12
-274.457935
 22
-171.942678
 32
0.0
  3
DIM1
100
AcDbAlignedDimension
 13
487.922317
 23
386.402414
 33
0.0
 14
493.922317
 24
386.402414
 34
0.0
100
AcDbRotatedDimension
1001
ACAD
1000
DSTYLE
1002
{
1070
   144
1040
1.0
1002
}
  0
DIMENSION
  5
AF
100
AcDbEntity
  8
DIMS
100
AcDbDimension
  2
*D5
 10
457.864602
 20
389.207742
 30
0.0
 11
454.864602
 21
399.207742
 31
0.0
 12
-274.457935
 22
-171.942678
 32
0.0
  3
DIM1
100
AcDbAlignedDimension
 13
466.105863
 23
409.207742
 33
0.0
 14
485.116989
 24
389.207742
 34
0.0
 50
90.0
100
AcDbRotatedDimension
1001
ACAD
1000
DSTYLE
1002
{
1070
   144
1040
1.0
1002
}
  0
LINE
  5
BC
100
AcDbEntity
  8
DIMS
 62
     4
100
AcDbLine
 10
487.922317
 20
386.402414
 30
0.0
 11
487.922317
 21
392.01307
 31
0.0
  0
LINE
  5
BD
100
AcDbEntity
  8
DIMS
 62
     4
100
AcDbLine
 10
485.116989
 20
389.207742
 30
0.0
 11
490.727645
 21
389.207742
 31
0.0
  0
LWPOLYLINE
  5
BE
100
AcDbEntity
  8
M01
100
AcDbPolyline
 90
        2
 70
     0
 43
1.5
 10
487.922317
 20
389.957742
 42
0.414214
 10
487.172317
 20
389.207742
  0
LWPOLYLINE
  5
BF
100
AcDbEntity
  8
M01
100
AcDbPolyline
 90
        2
 70
     0
 43
1.5
 10
487.922317
 20
388.457742
 42
0.414214
 10
488.672317
 20
389.207742
  0
CIRCLE
  5
C0
100
AcDbEntity
  8
M01
100
AcDbCircle
 10
487.922317
 20
389.207742
 30
0.0
 40
1.5
  0
LINE
  5
C1
100
AcDbEntity
  8
DIMS
 62
     4
100
AcDbLine
 10
493.922317
 20
386.402414
 30
0.0
 11
493.922317
 21
392.01307
 31
0.0
  0
LINE
  5
C2
100
AcDbEntity
  8
DIMS
 62
     4
100
AcDbLine
 10
491.116989
 20
389.207742
 30
0.0
 11
496.727645
 21
389.207742
 31
0.0
  0
LWPOLYLINE
  5
C3
100
AcDbEntity
  8
M01
100
AcDbPolyline
 90
        2
 70
     0
 43
1.5
 10
493.922317
 20
389.957742
 42
0.414214
 10
493.172317
 20
389.207742
  0
LWPOLYLINE
  5
C4
100
AcDbEntity
  8
M01
100
AcDbPolyline
 90
        2
 70
     0
 43
1.5
 10
493.922317
 20
388.457742
 42
0.414214
 10
494.672317
 20
389.207742
  0
CIRCLE
  5
C5
100
AcDbEntity
  8
M01
100
AcDbCircle
 10
493.922317
 20
389.207742
 30
0.0
 40
1.5
  0
TEXT
  5
C6
100
AcDbEntity
  8
TEXT
100
AcDbText
 10
383.269642
 20
301.819755
 30
0.0
 40
3.0
  1
WHEN FEEDING ONTO A SUB-RUNNER
100
AcDbText
  0
CIRCLE
  5
C8
100
AcDbEntity
  8
M03
100
AcDbCircle
 10
490.922317
 20
409.207742
 30
0.0
 40
2.5
  0
CIRCLE
  5
C9
100
AcDbEntity
  8
M01
100
AcDbCircle
 10
490.922317
 20
409.207742
 30
0.0
 40
5.0
  0
CIRCLE
  5
CA
100
AcDbEntity
  8
M01
100
AcDbCircle
 10
490.922317
 20
409.207742
 30
0.0
 40
1.0
  0
CIRCLE
  5
CB
100
AcDbEntity
  8
M01
100
AcDbCircle
 10
490.922317
 20
409.207742
 30
0.0
 40
1.366854
  0
CIRCLE
  5
CC
100
AcDbEntity
  8
M04
100
AcDbCircle
 10
490.922317
 20
409.207742
 30
0.0
 40
7.0
  0
MTEXT
  5
CD
102
{ACAD_REACTORS
330
CE
102
}
100
AcDbEntity
  8
DIMS
 62
     2
100
AcDbMText
 10
556.991396
 20
362.397706
 30
0.0
 40
3.0
 41
0.0
 71
     9
 72
     5
  1
SEE NOTE 2
  0
LEADER
  5
CE
100
AcDbEntity
  8
DIMS
 62
     4
100
AcDbLeader
  3
DIM1$7
 73
     0
 75
     1
 40
3.0
 41
27.285714
 76
     3
 10
577.983377
 20
403.707742
 30
0.0
 10
561.491396
 20
363.897706
 30
0.0
 10
558.491396
 20
363.897706
 30
0.0
 77
   256
340
CD
213
0.0
223
1.5
233
0.0
1001
ACAD
1000
DSTYLE
1002
{
1070
   144
1040
1.0
1002
}
  0
TEXT
  5
D0
100
AcDbEntity
  8
TEXT
100
AcDbText
 10
376.47544
 20
306.715978
 30
0.0
 40
3.0
  1
2. A MATERIAL WELL APPROX. %%C11.0 x 0.5 dp.. SHOULD BE PROVIDED TO ELIMINATE CONTACT WITH THE MOVING HALF
100
AcDbText
  0
DIMENSION
  5
D1
100
AcDbEntity
  8
DIMS
100
AcDbDimension
  2
*D4
 10
582.483377
 20
359.194866
 30
0.0
 11
636.983377
 21
362.194866
 31
0.0
  1
N=<>
  3
DIM1
100
AcDbAlignedDimension
 13
691.483377
 23
378.966107
 33
0.0
 14
582.483377
 24
397.207742
 34
0.0
100
AcDbRotatedDimension
1001
ACAD
1000
DSTYLE
1002
{
1070
   144
1040
1.0
1002
}
  0
DIMENSION
  5
DE
100
AcDbEntity
  8
DIMS
100
AcDbDimension
  2
*D3
 10
691.483377
 20
349.321609
 30
0.0
 11
634.983377
 21
352.321609
 31
0.0
  1
L=<>
  3
DIM1
100
AcDbAlignedDimension
 13
578.483377
 23
388.36502
 33
0.0
 14
691.483377
 24
378.966107
 34
0.0
100
AcDbRotatedDimension
1001
ACAD
1000
DSTYLE
1002
{
1070
   144
1040
1.0
1002
}
  0
DIMENSION
  5
EB
100
AcDbEntity
  8
DIMS
100
AcDbDimension
  2
*D2
 10
681.483377
 20
369.321609
 30
0.0
 11
629.983377
 21
372.321609
 31
0.0
  1
L1=<>
  3
DIM1
100
AcDbAlignedDimension
 13
578.483377
 23
388.36502
 33
0.0
 14
681.483377
 24
392.207742
 34
0.0
100
AcDbRotatedDimension
1001
ACAD
1000
DSTYLE
1002
{
1070
   144
1040
1.0
1002
}
  0
TEXT
  5
F8
100
AcDbEntity
  8
DIMS
 62
     2
100
AcDbText
 10
553.414943
 20
388.554673
 30
0.0
 40
2.0
  1
-0
 50
90.0
100
AcDbText
  0
TEXT
  5
F9
100
AcDbEntity
  8
DIMS
 62
     2
100
AcDbText
 10
550.330022
 20
388.554673
 30
0.0
 40
2.0
  1
+0.015
 50
90.0
100
AcDbText
  0
DIMENSION
  5
FA
100
AcDbEntity
  8
DIMS
100
AcDbDimension
  2
*D1
 10
555.470415
 20
404.207742
 30
0.0
 11
555.470415
 21
380.188565
 31
0.0
 70
   128
  3
DIM1
100
AcDbAlignedDimension
 13
578.483377
 23
414.207742
 33
0.0
 14
578.483377
 24
404.207742
 34
0.0
 50
90.0
100
AcDbRotatedDimension
1001
ACAD
1000
DSTYLE
1002
{
1070
   144
1040
1.0
1002
}
  0
DIMENSION
  5
108
100
AcDbEntity
  8
DIMS
100
AcDbDimension
  2
*D0
 10
580.483377
 20
446.053908
 30
0.0
 11
596.911948
 21
449.053908
 31
0.0
  1
2.0 MIN.
  3
DIM1
100
AcDbAlignedDimension
 13
578.483377
 23
430.192846
 33
0.0
 14
580.483377
 24
414.207742
 34
0.0
100
AcDbRotatedDimension
1001
ACAD
1000
DSTYLE
1002
{
1070
   144
1040
1.0
1002
}
  0
LINE
  5
116
100
AcDbEntity
  8
M03
100
AcDbLine
 10
577.983377
 20
414.707742
 30
0.0
 11
577.983377
 21
403.707742
 31
0.0
  0
LINE
  5
117
100
AcDbEntity
  8
M03
 48
0.7
100
AcDbLine
 10
577.983377
 20
403.707742
 30
0.0
 11
578.483377
 21
403.707742
 31
0.0
  0
LINE
  5
118
100
AcDbEntity
  8
M03
 48
0.7
100
AcDbLine
 10
577.983377
 20
414.707742
 30
0.0
 11
578.483377
 21
414.707742
 31
0.0
  0
LINE
  5
119
100
AcDbEntity
  8
M04
100
AcDbLine
 10
582.483377
 20
402.207742
 30
0.0
 11
580.483377
 21
404.207742
 31
0.0
  0
LINE
  5
11A
100
AcDbEntity
  8
M04
100
AcDbLine
 10
582.483377
 20
416.207742
 30
0.0
 11
580.483377
 21
414.207742
 31
0.0
  0
LINE
  5
11B
100
AcDbEntity
  8
M01
 48
0.7
100
AcDbLine
 10
578.483377
 20
404.207742
 30
0.0
 11
583.483377
 21
404.207742
 31
0.0
  0
LINE
  5
11C
100
AcDbEntity
  8
M01
 48
0.7
100
AcDbLine
 10
578.483377
 20
414.207742
 30
0.0
 11
583.483377
 21
414.207742
 31
0.0
  0
TEXT
  5
11D
100
AcDbEntity
  8
TEXT
100
AcDbText
 10
588.337669
 20
401.527087
 30
0.0
 40
2.0
  1
TYPE 3
 41
0.9
100
AcDbText
  0
TEXT
  5
11E
100
AcDbEntity
  8
TEXT
100
AcDbText
 10
382.94285
 20
315.572435
 30
0.0
 40
3.0
  1
MATERIAL TO BE MOULDED AND THE PROCESS CONDITIONS - SEE CATALOGUE FOR DETAILS
100
AcDbText
  0
TEXT
  5
11F
100
AcDbEntity
  8
TEXT
100
AcDbText
 10
376.47544
 20
320.882864
 30
0.0
 40
3.0
  1
1. AN ALLOWANCE FOR EXPANSION OF THE BUSHING MUST BE MADE DEPENDENT ON THE
100
AcDbText
  0
TEXT
  5
120
100
AcDbEntity
  8
TEXT
100
AcDbText
 10
396.048742
 20
329.322935
 30
0.0
 40
4.0
  1
%%UNOTE
100
AcDbText
  0
ARC
  5
121
100
AcDbEntity
  8
M01
 48
0.7
100
AcDbCircle
 10
475.398905
 20
465.993742
 30
0.0
 40
19.0
100
AcDbArc
 50
350.0
 51
360.0
  0
ARC
  5
122
100
AcDbEntity
  8
M01
 48
0.7
100
AcDbCircle
 10
475.398905
 20
465.993742
 30
0.0
 40
21.0
100
AcDbArc
 50
350.0
 51
0.0
  0
HATCH
  5
123
100
AcDbEntity
  8
M04
100
AcDbHatch
 10
0.0
 20
0.0
 30
0.0
210
0.0
220
0.0
230
1.0
  2
_U
 70
     0
 71
     0
 91
        2
 92
        7
 72
     0
 73
     1
 93
        4
 10
495.3989047114204
 20
538.717277700464
 10
493.6489047114206
 20
538.717277700464
 10
493.6489047114206
 20
514.2077421121928
 10
495.3989047114204
 20
514.2077421121928
 97
        0
 92
        7
 72
     0
 73
     1
 93
        4
 10
497.1489047114205
 20
538.717277700464
 10
495.3989047114204
 20
538.717277700464
 10
495.3989047114204
 20
514.2077421121928
 10
497.1489047114205
 20
514.2077421121928
 97
        0
 75
     0
 76
     0
 52
45.0
 41
0.75
 77
     1
 78
     2
 53
45.0
 43
579.959964
 44
409.207742
 45
-0.5303300858899106
 46
0.5303300858899107
 79
     0
 53
135.0
 43
579.959964
 44
409.207742
 45
-0.5303300858899107
 46
-0.5303300858899106
 79
     0
 47
0.09857
 98
        2
 10
494.468442
 20
517.721839
 10
496.144791
 20
518.21469
  0
LINE
  5
124
100
AcDbEntity
  8
M01
100
AcDbLine
 10
497.148905
 20
514.207742
 30
0.0
 11
497.148905
 21
538.717278
 31
0.0
  0
LINE
  5
125
100
AcDbEntity
  8
M01
100
AcDbLine
 10
493.648905
 20
514.207742
 30
0.0
 11
493.648905
 21
538.717278
 31
0.0
  0
LINE
  5
126
100
AcDbEntity
  8
M01
 48
0.7
100
AcDbLine
 10
493.148905
 20
489.207742
 30
0.0
 11
493.148905
 21
514.207742
 31
0.0
  0
LINE
  5
127
100
AcDbEntity
  8
M01
 48
0.7
100
AcDbLine
 10
497.648905
 20
489.207742
 30
0.0
 11
497.648905
 21
514.207742
 31
0.0
  0
LINE
  5
128
100
AcDbEntity
  8
M01
100
AcDbLine
 10
497.648905
 20
509.207742
 30
0.0
 11
493.148905
 21
509.207742
 31
0.0
  0
LINE
  5
129
100
AcDbEntity
  8
M01
 48
0.7
100
AcDbLine
 10
497.148905
 20
484.207742
 30
0.0
 11
497.148905
 21
489.207742
 31
0.0
  0
LINE
  5
12A
100
AcDbEntity
  8
M01
 48
0.7
100
AcDbLine
 10
493.648905
 20
484.207742
 30
0.0
 11
493.648905
 21
489.207742
 31
0.0
  0
LINE
  5
12B
100
AcDbEntity
  8
M01
100
AcDbLine
 10
497.648905
 20
489.207742
 30
0.0
 11
493.148905
 21
489.207742
 31
0.0
  0
LINE
  5
12C
100
AcDbEntity
  8
M01
100
AcDbLine
 10
497.648905
 20
514.207742
 30
0.0
 11
493.148905
 21
514.207742
 31
0.0
  0
LINE
  5
12D
100
AcDbEntity
  8
M01
100
AcDbLine
 10
497.148905
 20
484.207742
 30
0.0
 11
493.648905
 21
484.207742
 31
0.0
  0
LINE
  5
12E
100
AcDbEntity
  8
M01
100
AcDbLine
 10
496.079868
 20
462.34713
 30
0.0
 11
492.21097
 21
440.405522
 31
0.0
  0
ARC
  5
12F
100
AcDbEntity
  8
M01
100
AcDbCircle
 10
510.922317
 20
437.106207
 30
0.0
 40
19.0
100
AcDbArc
 50
170.0
 51
180.0
  0
LINE
  5
130
100
AcDbEntity
  8
M01
100
AcDbLine
 10
494.110252
 20
462.694427
 30
0.0
 11
490.241354
 21
440.752818
 31
0.0
  0
ARC
  5
131
100
AcDbEntity
  8
M01
100
AcDbCircle
 10
510.922317
 20
437.106207
 30
0.0
 40
21.0
100
AcDbArc
 50
170.0
 51
180.0
  0
LINE
  5
132
100
AcDbEntity
  8
CENTRE
100
AcDbLine
 10
495.398905
 20
481.5466
 30
0.0
 11
495.398905
 21
542.758653
 31
0.0
  0
LINE
  5
133
100
AcDbEntity
  8
M01
 48
0.7
100
AcDbLine
 10
494.398905
 20
465.993742
 30
0.0
 11
494.398905
 21
484.207742
 31
0.0
  0
LINE
  5
134
100
AcDbEntity
  8
M01
 48
0.7
100
AcDbLine
 10
496.398905
 20
465.993742
 30
0.0
 11
496.398905
 21
484.207742
 31
0.0
  0
LINE
  5
135
100
AcDbEntity
  8
M01
 48
0.7
100
AcDbLine
 10
489.922317
 20
426.178305
 30
0.0
 11
489.922317
 21
437.106207
 31
0.0
  0
LINE
  5
136
100
AcDbEntity
  8
M01
 48
0.7
100
AcDbLine
 10
491.922317
 20
426.178305
 30
0.0
 11
491.922317
 21
437.106207
 31
0.0
  0
LINE
  5
137
100
AcDbEntity
  8
CENTRE
 48
0.7
100
AcDbLine
 10
490.922317
 20
379.207742
 30
0.0
 11
490.922317
 21
439.207742
 31
0.0
  0
HATCH
  5
138
100
AcDbEntity
  8
M04
100
AcDbHatch
 10
0.0
 20
0.0
 30
0.0
210
0.0
220
0.0
230
1.0
  2
_U
 70
     0
 71
     0
 91
        2
 92
        7
 72
     0
 73
     1
 93
        4
 10
487.4223172892081
 20
542.4235718033469
 10
484.422317289208
 20
542.423571803347
 10
484.422317289208
 20
516.2077421121925
 10
487.4223172892079
 20
516.2077421121927
 97
        0
 92
        7
 72
     0
 73
     1
 93
        4
 10
490.4223172892079
 20
542.4235718033469
 10
487.4223172892079
 20
542.4235718033469
 10
487.4223172892081
 20
516.2077421121925
 10
490.4223172892079
 20
516.2077421121928
 97
        0
 75
     0
 76
     0
 52
45.0
 41
1.0
 77
     1
 78
     2
 53
45.0
 43
-294.624821
 44
75.328834
 45
-0.7071067811865475
 46
0.7071067811865476
 79
     0
 53
135.0
 43
-294.624821
 44
75.328834
 45
-0.7071067811865476
 46
-0.7071067811865475
 79
     0
 47
0.084306
 98
        2
 10
486.595736
 20
526.574102
 10
489.21024
 20
527.248547
  0
LINE
  5
139
100
AcDbEntity
  8
M01
100
AcDbLine
 10
490.422317
 20
516.207742
 30
0.0
 11
490.422317
 21
542.423572
 31
0.0
  0
LINE
  5
13A
100
AcDbEntity
  8
M01
100
AcDbLine
 10
484.422317
 20
516.207742
 30
0.0
 11
484.422317
 21
542.423572
 31
0.0
  0
LINE
  5
13B
100
AcDbEntity
  8
CENTRE
 48
0.7
100
AcDbLine
 10
487.422317
 20
484.606988
 30
0.0
 11
487.422317
 21
547.060385
 31
0.0
  0
LINE
  5
13C
100
AcDbEntity
  8
M01
100
AcDbLine
 10
488.672317
 20
426.058187
 30
0.0
 11
488.672317
 21
491.207742
 31
0.0
  0
LINE
  5
13D
100
AcDbEntity
  8
M01
100
AcDbLine
 10
486.172317
 20
425.530655
 30
0.0
 11
486.172317
 21
491.207742
 31
0.0
  0
LINE
  5
13E
100
AcDbEntity
  8
M01
100
AcDbLine
 10
491.422317
 20
509.207742
 30
0.0
 11
483.422317
 21
509.207742
 31
0.0
  0
LINE
  5
13F
100
AcDbEntity
  8
M01
100
AcDbLine
 10
484.422317
 20
501.132485
 30
0.0
 11
490.422317
 21
501.132485
 31
0.0
  0
LINE
  5
140
100
AcDbEntity
  8
M01
100
AcDbLine
 10
490.422317
 20
501.132485
 30
0.0
 11
490.422317
 21
509.207742
 31
0.0
  0
LINE
  5
141
100
AcDbEntity
  8
M01
100
AcDbLine
 10
484.422317
 20
501.132485
 30
0.0
 11
484.422317
 21
509.207742
 31
0.0
  0
LINE
  5
142
100
AcDbEntity
  8
M01
100
AcDbLine
 10
486.172317
 20
491.207742
 30
0.0
 11
484.422317
 21
501.132485
 31
0.0
  0
LINE
  5
143
100
AcDbEntity
  8
M01
100
AcDbLine
 10
483.422317
 20
509.207742
 30
0.0
 11
483.422317
 21
516.207742
 31
0.0
  0
LINE
  5
144
100
AcDbEntity
  8
M01
100
AcDbLine
 10
488.672317
 20
491.207742
 30
0.0
 11
490.422317
 21
501.132485
 31
0.0
  0
LINE
  5
145
100
AcDbEntity
  8
M01
100
AcDbLine
 10
491.422317
 20
509.207742
 30
0.0
 11
491.422317
 21
516.207742
 31
0.0
  0
LINE
  5
146
100
AcDbEntity
  8
M01
100
AcDbLine
 10
491.422317
 20
516.207742
 30
0.0
 11
483.422317
 21
516.207742
 31
0.0
  0
LINE
  5
147
100
AcDbEntity
  8
M01
100
AcDbLine
 10
488.672317
 20
491.207742
 30
0.0
 11
486.172317
 21
491.207742
 31
0.0
  0
LINE
  5
148
100
AcDbEntity
  8
M04
100
AcDbLine
 10
492.422317
 20
386.707742
 30
0.0
 11
492.422317
 21
385.707742
 31
0.0
  0
LINE
  5
149
100
AcDbEntity
  8
M04
100
AcDbLine
 10
489.422317
 20
386.707742
 30
0.0
 11
489.422317
 21
385.707742
 31
0.0
  0
LINE
  5
14A
100
AcDbEntity
  8
M01
100
AcDbLine
 10
489.422317
 20
392.274048
 30
0.0
 11
489.422317
 21
386.707742
 31
0.0
  0
LINE
  5
14B
100
AcDbEntity
  8
M01
100
AcDbLine
 10
491.922317
 20
386.207742
 30
0.0
 11
489.922317
 21
386.207742
 31
0.0
  0
LINE
  5
14C
100
AcDbEntity
  8
M01
100
AcDbLine
 10
489.422317
 20
386.707742
 30
0.0
 11
489.922317
 21
386.207742
 31
0.0
  0
LINE
  5
14D
100
AcDbEntity
  8
M01
100
AcDbLine
 10
489.422317
 20
386.707742
 30
0.0
 11
492.422317
 21
386.707742
 31
0.0
  0
LINE
  5
14E
100
AcDbEntity
  8
M01
100
AcDbLine
 10
492.422317
 20
386.707742
 30
0.0
 11
491.922317
 21
386.207742
 31
0.0
  0
LINE
  5
14F
100
AcDbEntity
  8
M01
100
AcDbLine
 10
492.422317
 20
392.274048
 30
0.0
 11
492.422317
 21
386.707742
 31
0.0
  0
LINE
  5
150
100
AcDbEntity
  8
M04
100
AcDbLine
 10
482.922317
 20
549.207742
 30
0.0
 11
482.922317
 21
424.207742
 31
0.0
  0
LINE
  5
151
100
AcDbEntity
  8
M04
100
AcDbLine
 10
498.922317
 20
549.207742
 30
0.0
 11
498.922317
 21
424.207742
 31
0.0
  0
CIRCLE
  5
152
100
AcDbEntity
  8
M01
100
AcDbCircle
 10
490.922317
 20
409.207742
 30
0.0
 40
17.0
  0
CIRCLE
  5
153
100
AcDbEntity
  8
M04
100
AcDbCircle
 10
490.922317
 20
409.207742
 30
0.0
 40
14.0
  0
CIRCLE
  5
154
100
AcDbEntity
  8
M01
100
AcDbCircle
 10
490.922317
 20
409.207742
 30
0.0
 40
12.0
  0
CIRCLE
  5
155
100
AcDbEntity
  8
M01
100
AcDbCircle
 10
490.922317
 20
409.207742
 30
0.0
 40
11.362782
  0
POINT
  5
156
100
AcDbEntity
  8
DEFPOINTS
  6
BYBLOCK
 62
     0
100
AcDbPoint
 10
578.004542
 20
410.362392
 30
0.0
  0
MTEXT
  5
157
100
AcDbEntity
  8
0
  6
BYBLOCK
 62
     2
100
AcDbMText
 10
534.811017
 20
440.468207
 30
0.0
 40
3.0
 41
0.0
 71
     5
 72
     1
  1
GATE INSERTION POINT
  0
SOLID
  5
158
100
AcDbEntity
  8
0
  6
BYBLOCK
 62
     4
100
AcDbTrace
 10
577.317198
 20
413.325087
 30
0.0
 11
576.393478
 21
412.942019
 31
0.0
 12
578.004542
 22
410.362392
 32
0.0
 13
578.004542
 23
410.362392
 33
0.0
  0
LINE
  5
159
100
AcDbEntity
  8
0
  6
BYBLOCK
 62
     4
100
AcDbLine
 10
565.519624
 20
440.468207
 30
0.0
 11
562.519624
 21
440.468207
 31
0.0
  0
LINE
  5
15A
100
AcDbEntity
  8
0
  6
BYBLOCK
 62
     4
100
AcDbLine
 10
576.855338
 20
413.133553
 30
0.0
 11
565.519624
 21
440.468207
 31
0.0
  0
CIRCLE
  5
15B
100
AcDbEntity
  8
M04
100
AcDbCircle
 10
578.483377
 20
409.207742
 30
0.0
 40
1.25
  0
LINE
  5
15C
100
AcDbEntity
  8
CENTRE
100
AcDbLine
 10
515.738772
 20
409.207742
 30
0.0
 11
466.105863
 21
409.207742
 31
0.0
  0
TEXT
  5
15D
100
AcDbEntity
  8
TEXT
100
AcDbText
 10
587.359894
 20
415.37345
 30
0.0
 40
2.0
  1
DS020014
 41
0.9
100
AcDbText
  0
LINE
  5
15E
100
AcDbEntity
  8
M04
100
AcDbLine
 10
582.483377
 20
404.207742
 30
0.0
 11
582.483377
 21
397.207742
 31
0.0
  0
LINE
  5
15F
100
AcDbEntity
  8
M04
100
AcDbLine
 10
578.483377
 20
430.192846
 30
0.0
 11
578.483377
 21
388.36502
 31
0.0
  0
ARC
  5
160
100
AcDbEntity
  8
M04
100
AcDbCircle
 10
584.483377
 20
397.207742
 30
0.0
 40
2.0
100
AcDbArc
 50
180.0
 51
270.0
  0
ARC
  5
161
100
AcDbEntity
  8
M04
100
AcDbCircle
 10
584.483377
 20
421.207742
 30
0.0
 40
2.0
100
AcDbArc
 50
90.0
 51
180.0
  0
LINE
  5
162
100
AcDbEntity
  8
M04
100
AcDbLine
 10
584.483377
 20
395.207742
 30
0.0
 11
681.483377
 21
395.207742
 31
0.0
  0
LINE
  5
163
100
AcDbEntity
  8
M04
100
AcDbLine
 10
584.483377
 20
423.207742
 30
0.0
 11
681.483377
 21
423.207742
 31
0.0
  0
LINE
  5
164
100
AcDbEntity
  8
M04
100
AcDbLine
 10
582.483377
 20
421.207742
 30
0.0
 11
582.483377
 21
414.207742
 31
0.0
  0
LINE
  5
165
100
AcDbEntity
  8
M03
 48
0.7
100
AcDbLine
 10
587.774664
 20
406.707742
 30
0.0
 11
691.483377
 21
406.707742
 31
0.0
  0
LINE
  5
166
100
AcDbEntity
  8
M03
 48
0.7
100
AcDbLine
 10
587.774664
 20
411.707742
 30
0.0
 11
691.483377
 21
411.707742
 31
0.0
  0
LINE
  5
167
100
AcDbEntity
  8
CENTRE
 48
0.7
100
AcDbLine
 10
568.315633
 20
409.207742
 30
0.0
 11
709.800311
 21
409.207742
 31
0.0
  0
LINE
  5
168
100
AcDbEntity
  8
M01
100
AcDbLine
 10
584.783304
 20
420.570524
 30
0.0
 11
583.483377
 21
420.570524
 31
0.0
  0
LINE
  5
169
100
AcDbEntity
  8
M01
100
AcDbLine
 10
584.783304
 20
397.844938
 30
0.0
 11
583.483377
 21
397.844938
 31
0.0
  0
LINE
  5
16A
100
AcDbEntity
  8
M01
100
AcDbLine
 10
583.483377
 20
420.570524
 30
0.0
 11
583.483377
 21
397.844938
 31
0.0
  0
LINE
  5
16B
100
AcDbEntity
  8
M01
100
AcDbLine
 10
584.783304
 20
421.207742
 30
0.0
 11
584.783304
 21
397.207742
 31
0.0
  0
ENDSEC
  0
SECTION
  2
OBJECTS
  0
DICTIONARY
  5
1C
100
AcDbDictionary
  3
ACAD_GROUP
350
1A
  3
ACAD_MLINESTYLE
350
1B
  0
DICTIONARY
  5
3
100
AcDbDictionary
280
     1
  3
ACAD_SORTENTS
360
4
  0
DICTIONARY
  5
1A
102
{ACAD_REACTORS
330
1C
102
}
100
AcDbDictionary
  0
DICTIONARY
  5
1B
102
{ACAD_REACTORS
330
1C
102
}
100
AcDbDictionary
  3
STANDARD
350
1E
  0
SORTENTSTABLE
  5
4
102
{ACAD_REACTORS
330
3
102
}
100
AcDbSortentsTable
330
2
  0
MLINESTYLE
  5
1E
102
{ACAD_REACTORS
330
1B
102
}
100
AcDbMlineStyle
  2
STANDARD
 70
     0
  3

 62
   256
 51
90.0
 52
90.0
 71
     2
 49
0.5
 62
   256
  6
BYLAYER
 49
-0.5
 62
   256
  6
BYLAYER
  0
ENDSEC
  0
EOF
