  0
SECTION
  2
HEADER
  9
$ACADVER
  1
AC1015
  9
$ACADMAINTVER
 70
    13
  9
$DWGCODEPAGE
  3
ANSI_1252
  9
$INSBASE
 10
0.0
 20
0.0
 30
0.0
  9
$EXTMIN
 10
449.0817683074205
 20
260.6652094982383
 30
0.0
  9
$EXTMAX
 10
728.2514762132477
 20
616.082497621531
 30
0.0
  9
$LIMMIN
 10
0.0
 20
0.0
  9
$LIMMAX
 10
1189.0
 20
841.0
  9
$ORTHOMODE
 70
     0
  9
$REGENMODE
 70
     1
  9
$FILLMODE
 70
     1
  9
$QTEXTMODE
 70
     0
  9
$MIRRTEXT
 70
     0
  9
$LTSCALE
 40
8.0
  9
$ATTMODE
 70
     1
  9
$TEXTSIZE
 40
3.0
  9
$TRACEWID
 40
10.0
  9
$TEXTSTYLE
  7
STANDARD
  9
$CLAYER
  8
M01
  9
$CELTYPE
  6
BYLAYER
  9
$CECOLOR
 62
     0
  9
$CELTSCALE
 40
1.0
  9
$DISPSILH
 70
     0
  9
$DIMSCALE
 40
1.0
  9
$DIMASZ
 40
3.0
  9
$DIMEXO
 40
1.0
  9
$DIMDLI
 40
10.0
  9
$DIMRND
 40
0.01
  9
$DIMDLE
 40
1.25
  9
$DIMEXE
 40
2.5
  9
$DIMTP
 40
0.05
  9
$DIMTM
 40
0.0
  9
$DIMTXT
 40
3.0
  9
$DIMCEN
 40
-1.7
  9
$DIMTSZ
 40
0.0
  9
$DIMTOL
 70
     0
  9
$DIMLIM
 70
     0
  9
$DIMTIH
 70
     0
  9
$DIMTOH
 70
     0
  9
$DIMSE1
 70
     0
  9
$DIMSE2
 70
     0
  9
$DIMTAD
 70
     3
  9
$DIMZIN
 70
     1
  9
$DIMBLK
  1

  9
$DIMASO
 70
     1
  9
$DIMSHO
 70
     0
  9
$DIMPOST
  1

  9
$DIMAPOST
  1

  9
$DIMALT
 70
     0
  9
$DIMALTD
 70
     2
  9
$DIMALTF
 40
0.039
  9
$DIMLFAC
 40
1.0
  9
$DIMTOFL
 70
     0
  9
$DIMTVP
 40
1.5
  9
$DIMTIX
 70
     0
  9
$DIMSOXD
 70
     0
  9
$DIMSAH
 70
     0
  9
$DIMBLK1
  1

  9
$DIMBLK2
  1

  9
$DIMSTYLE
  2
DIM1
  9
$DIMCLRD
 70
     4
  9
$DIMCLRE
 70
     4
  9
$DIMCLRT
 70
     2
  9
$DIMTFAC
 40
0.7
  9
$DIMGAP
 40
1.5
  9
$DIMJUST
 70
     0
  9
$DIMSD1
 70
     0
  9
$DIMSD2
 70
     0
  9
$DIMTOLJ
 70
     1
  9
$DIMTZIN
 70
     1
  9
$DIMALTZ
 70
     1
  9
$DIMALTTZ
 70
     1
  9
$DIMUPT
 70
     0
  9
$DIMDEC
 70
     2
  9
$DIMTDEC
 70
     2
  9
$DIMALTU
 70
     2
  9
$DIMALTTD
 70
     2
  9
$DIMTXSTY
  7
STANDARD
  9
$DIMAUNIT
 70
     0
  9
$DIMADEC
 70
     0
  9
$DIMALTRND
 40
0.0
  9
$DIMAZIN
 70
     0
  9
$DIMDSEP
 70
    46
  9
$DIMATFIT
 70
     0
  9
$DIMFRAC
 70
     0
  9
$DIMLDRBLK
  1

  9
$DIMLUNIT
 70
     2
  9
$DIMLWD
 70
    -2
  9
$DIMLWE
 70
    -2
  9
$DIMTMOVE
 70
     0
  9
$LUNITS
 70
     2
  9
$LUPREC
 70
     2
  9
$SKETCHINC
 40
1.0
  9
$FILLETRAD
 40
0.0
  9
$AUNITS
 70
     0
  9
$AUPREC
 70
     3
  9
$MENU
  1
ACAD
  9
$ELEVATION
 40
0.0
  9
$PELEVATION
 40
0.0
  9
$THICKNESS
 40
0.0
  9
$LIMCHECK
 70
     0
  9
$CHAMFERA
 40
2.0
  9
$CHAMFERB
 40
2.0
  9
$CHAMFERC
 40
0.0
  9
$CHAMFERD
 40
0.0
  9
$SKPOLY
 70
     1
  9
$TDCREATE
 40
2449993.725698611
  9
$TDUCREATE
 40
2449993.725698611
  9
$TDUPDATE
 40
2455247.552265023
  9
$TDUUPDATE
 40
2455247.552265023
  9
$TDINDWG
 40
1.4153996991
  9
$TDUSRTIMER
 40
1.4153996991
  9
$USRTIMER
 70
     1
  9
$ANGBASE
 50
0.0
  9
$ANGDIR
 70
     0
  9
$PDMODE
 70
     3
  9
$PDSIZE
 40
0.0
  9
$PLINEWID
 40
0.0
  9
$SPLFRAME
 70
     0
  9
$SPLINETYPE
 70
     6
  9
$SPLINESEGS
 70
     6
  9
$HANDSEED
  5
8640
  9
$SURFTAB1
 70
    12
  9
$SURFTAB2
 70
    12
  9
$SURFTYPE
 70
     6
  9
$SURFU
 70
    12
  9
$SURFV
 70
    12
  9
$UCSBASE
  2

  9
$UCSNAME
  2

  9
$UCSORG
 10
578.4833765754188
 20
409.2077421121927
 30
0.0
  9
$UCSXDIR
 10
1.0
 20
0.0
 30
0.0
  9
$UCSYDIR
 10
0.0
 20
1.0
 30
0.0
  9
$UCSORTHOREF
  2

  9
$UCSORTHOVIEW
 70
     0
  9
$UCSORGTOP
 10
0.0
 20
0.0
 30
0.0
  9
$UCSORGBOTTOM
 10
0.0
 20
0.0
 30
0.0
  9
$UCSORGLEFT
 10
0.0
 20
0.0
 30
0.0
  9
$UCSORGRIGHT
 10
0.0
 20
0.0
 30
0.0
  9
$UCSORGFRONT
 10
0.0
 20
0.0
 30
0.0
  9
$UCSORGBACK
 10
0.0
 20
0.0
 30
0.0
  9
$PUCSBASE
  2

  9
$PUCSNAME
  2

  9
$PUCSORG
 10
0.0
 20
0.0
 30
0.0
  9
$PUCSXDIR
 10
1.0
 20
0.0
 30
0.0
  9
$PUCSYDIR
 10
0.0
 20
1.0
 30
0.0
  9
$PUCSORTHOREF
  2

  9
$PUCSORTHOVIEW
 70
     0
  9
$PUCSORGTOP
 10
0.0
 20
0.0
 30
0.0
  9
$PUCSORGBOTTOM
 10
0.0
 20
0.0
 30
0.0
  9
$PUCSORGLEFT
 10
0.0
 20
0.0
 30
0.0
  9
$PUCSORGRIGHT
 10
0.0
 20
0.0
 30
0.0
  9
$PUCSORGFRONT
 10
0.0
 20
0.0
 30
0.0
  9
$PUCSORGBACK
 10
0.0
 20
0.0
 30
0.0
  9
$USERI1
 70
     0
  9
$USERI2
 70
     0
  9
$USERI3
 70
     0
  9
$USERI4
 70
     0
  9
$USERI5
 70
     0
  9
$USERR1
 40
0.0
  9
$USERR2
 40
0.0
  9
$USERR3
 40
0.0
  9
$USERR4
 40
0.0
  9
$USERR5
 40
0.0
  9
$WORLDVIEW
 70
     0
  9
$SHADEDGE
 70
     3
  9
$SHADEDIF
 70
    70
  9
$TILEMODE
 70
     1
  9
$MAXACTVP
 70
    16
  9
$PINSBASE
 10
0.0
 20
0.0
 30
0.0
  9
$PLIMCHECK
 70
     0
  9
$PEXTMIN
 10
1.000000000000000E+20
 20
1.000000000000000E+20
 30
1.000000000000000E+20
  9
$PEXTMAX
 10
-1.000000000000000E+20
 20
-1.000000000000000E+20
 30
-1.000000000000000E+20
  9
$PLIMMIN
 10
0.0
 20
0.0
  9
$PLIMMAX
 10
12.0
 20
9.0
  9
$UNITMODE
 70
     0
  9
$VISRETAIN
 70
     0
  9
$PLINEGEN
 70
     0
  9
$PSLTSCALE
 70
     0
  9
$TREEDEPTH
 70
  3020
  9
$CMLSTYLE
  2
STANDARD
  9
$CMLJUST
 70
     0
  9
$CMLSCALE
 40
1.0
  9
$PROXYGRAPHICS
 70
     1
  9
$MEASUREMENT
 70
     0
  9
$CELWEIGHT
370
    -1
  9
$ENDCAPS
280
     0
  9
$JOINSTYLE
280
     0
  9
$LWDISPLAY
290
     0
  9
$INSUNITS
 70
     0
  9
$HYPERLINKBASE
  1

  9
$STYLESHEET
  1

  9
$XEDIT
290
     1
  9
$CEPSNTYPE
380
     0
  9
$PSTYLEMODE
290
     1
  9
$FINGERPRINTGUID
  2
{ECA6E4DA-FC20-4A6C-8585-945AC1108CBF}
  9
$VERSIONGUID
  2
{A0274258-FFAA-412F-8FED-AEF72AE89215}
  9
$EXTNAMES
290
     1
  9
$PSVPSCALE
 40
0.0
  9
$OLESTARTUP
290
     0
  0
ENDSEC
  0
SECTION
  2
CLASSES
  0
CLASS
  1
DICTIONARYVAR
  2
AcDbDictionaryVar
  3
AutoCAD 2000
 90
        0
280
     0
281
     0
  0
CLASS
  1
LWPOLYLINE
  2
AcDbPolyline
  3
AutoCAD 2000
 90
    32768
280
     0
281
     1
  0
CLASS
  1
HATCH
  2
AcDbHatch
  3
AutoCAD 2000
 90
    32768
280
     0
281
     1
  0
CLASS
  1
SORTENTSTABLE
  2
AcDbSortentsTable
  3
AutoCAD 2000
 90
        0
280
     0
281
     0
  0
CLASS
  1
WIPEOUTVARIABLES
  2
AcDbWipeoutVariables
  3
WIPEOUT
 90
        0
280
     0
281
     0
  0
CLASS
  1
WIPEOUT
  2
AcDbWipeout
  3
WIPEOUT
 90
      127
280
     0
281
     1
  0
CLASS
  1
ACDBDICTIONARYWDFLT
  2
AcDbDictionaryWithDefault
  3
AutoCAD 2000
 90
        0
280
     0
281
     0
  0
CLASS
  1
ACDBPLACEHOLDER
  2
AcDbPlaceHolder
  3
AutoCAD 2000
 90
        0
280
     0
281
     0
  0
CLASS
  1
LAYOUT
  2
AcDbLayout
  3
AutoCAD 2000
 90
        0
280
     0
281
     0
  0
ENDSEC
  0
SECTION
  2
TABLES
  0
TABLE
  2
VPORT
  5
8
330
0
100
AcDbSymbolTable
 70
     3
  0
VPORT
  5
863F
330
8
100
AcDbSymbolTableRecord
100
AcDbViewportTableRecord
  2
*Active
 70
     0
 10
0.0
 20
0.0
 11
1.0
 21
1.0
 12
717.3141241057391
 22
411.9705010690351
 13
0.0
 23
0.0
 14
10.0
 24
10.0
 15
0.0
 25
0.0
 16
0.0
 26
0.0
 36
1.0
 17
16.3133211678832
 27
12.7791147637061
 37
0.2229487474867098
 40
420.499999804191
 41
2.324324324324324
 42
50.0
 43
0.0
 44
0.0
 50
0.0
 51
0.0
 71
     0
 72
  2000
 73
     1
 74
     2
 75
     0
 76
     0
 77
     0
 78
     1
281
     0
 65
     1
110
578.4833765754188
120
409.2077421121927
130
0.0
111
1.0
121
0.0
131
0.0
112
0.0
122
1.0
132
0.0
 79
     0
146
0.0
  0
ENDTAB
  0
TABLE
  2
LTYPE
  5
5
330
0
100
AcDbSymbolTable
 70
     3
  0
LTYPE
  5
11
330
5
100
AcDbSymbolTableRecord
100
AcDbLinetypeTableRecord
  2
BYBLOCK
 70
     0
  3

 72
    65
 73
     0
 40
0.0
  0
LTYPE
  5
12
330
5
100
AcDbSymbolTableRecord
100
AcDbLinetypeTableRecord
  2
BYLAYER
 70
     0
  3

 72
    65
 73
     0
 40
0.0
  0
LTYPE
  5
13
330
5
100
AcDbSymbolTableRecord
100
AcDbLinetypeTableRecord
  2
CONTINUOUS
 70
     0
  3
Solid line
 72
    65
 73
     0
 40
0.0
  0
LTYPE
  5
425C
330
5
100
AcDbSymbolTableRecord
100
AcDbLinetypeTableRecord
  2
CENTER
 70
     0
  3
Center ____ _ ____ _ ____ _ ____ _ ____ _ ____
 72
    65
 73
     4
 40
2.0
 49
1.25
 74
     0
 49
-0.25
 74
     0
 49
0.25
 74
     0
 49
-0.25
 74
     0
  0
LTYPE
  5
42A4
330
5
100
AcDbSymbolTableRecord
100
AcDbLinetypeTableRecord
  2
HIDDEN
 70
     0
  3
Hidden __ __ __ __ __ __ __ __ __ __ __ __ __ _
 72
    65
 73
     2
 40
0.375
 49
0.25
 74
     0
 49
-0.125
 74
     0
  0
ENDTAB
  0
TABLE
  2
LAYER
  5
2
330
0
100
AcDbSymbolTable
 70
     8
  0
LAYER
  5
E
330
2
100
AcDbSymbolTableRecord
100
AcDbLayerTableRecord
  2
0
 70
     0
 62
     7
  6
CONTINUOUS
370
    -3
390
79CC
  0
LAYER
  5
425D
330
2
100
AcDbSymbolTableRecord
100
AcDbLayerTableRecord
  2
CENTRE
 70
     0
 62
     3
  6
CENTER
370
    -3
390
79CC
  0
LAYER
  5
4261
330
2
100
AcDbSymbolTableRecord
100
AcDbLayerTableRecord
  2
M01
 70
     0
 62
     1
  6
CONTINUOUS
370
    -3
390
79CC
  0
LAYER
  5
42A5
330
2
100
AcDbSymbolTableRecord
100
AcDbLayerTableRecord
  2
M03
 70
     0
 62
     2
  6
HIDDEN
370
    -3
390
79CC
  0
LAYER
  5
42B0
330
2
100
AcDbSymbolTableRecord
100
AcDbLayerTableRecord
  2
M04
 70
     0
 62
     7
  6
CONTINUOUS
370
    -3
390
79CC
  0
LAYER
  5
432E
330
2
100
AcDbSymbolTableRecord
100
AcDbLayerTableRecord
  2
DIMS
 70
     0
 62
     4
  6
CONTINUOUS
370
    -3
390
79CC
  0
LAYER
  5
432F
330
2
100
AcDbSymbolTableRecord
100
AcDbLayerTableRecord
  2
TEXT
 70
     0
 62
     2
  6
CONTINUOUS
370
    -3
390
79CC
  0
LAYER
  5
4570
330
2
100
AcDbSymbolTableRecord
100
AcDbLayerTableRecord
  2
DEFPOINTS
 70
     0
 62
     7
  6
CONTINUOUS
290
     0
370
    -3
390
79CC
  0
ENDTAB
  0
TABLE
  2
STYLE
  5
3
330
0
100
AcDbSymbolTable
 70
     1
  0
STYLE
  5
F
330
3
100
AcDbSymbolTableRecord
100
AcDbTextStyleTableRecord
  2
STANDARD
 70
     0
 40
0.0
 41
1.0
 50
0.0
 71
     0
 42
3.0
  3
SIMPLEX
  4

  0
ENDTAB
  0
TABLE
  2
VIEW
  5
6
330
0
100
AcDbSymbolTable
 70
     0
  0
ENDTAB
  0
TABLE
  2
UCS
  5
7
330
0
100
AcDbSymbolTable
 70
     0
  0
ENDTAB
  0
TABLE
  2
APPID
  5
9
330
0
100
AcDbSymbolTable
 70
     4
  0
APPID
  5
10
330
9
100
AcDbSymbolTableRecord
100
AcDbRegAppTableRecord
  2
ACAD
 70
     0
  0
APPID
  5
114A
330
9
100
AcDbSymbolTableRecord
100
AcDbRegAppTableRecord
  2
CONTENTTABDATA
 70
     0
  0
APPID
  5
114B
330
9
100
AcDbSymbolTableRecord
100
AcDbRegAppTableRecord
  2
CONTENTCURRENTTAB
 70
     0
  0
APPID
  5
424D
330
9
100
AcDbSymbolTableRecord
100
AcDbRegAppTableRecord
  2
RAK
 70
     0
  0
ENDTAB
  0
TABLE
  2
DIMSTYLE
  5
A
330
0
100
AcDbSymbolTable
 70
     9
100
AcDbDimStyleTable
 71
     1
340
1011
  0
DIMSTYLE
105
25
330
A
100
AcDbSymbolTableRecord
100
AcDbDimStyleTableRecord
  2
AUDIT_I_100219131447-1
 70
     0
 41
3.0
 42
1.0
 43
10.0
 44
2.5
 45
0.01
 46
1.25
 73
     0
 74
     0
 77
     1
 78
     1
140
3.0
141
-0.07
143
0.039
145
1.5
147
0.0
176
     4
177
     4
178
     2
271
     2
272
     2
279
     2
284
     1
285
     1
286
     1
340
F
  0
DIMSTYLE
105
1011
102
{ACAD_REACTORS
330
779D
330
78E5
330
78FF
330
7927
330
7934
330
797A
330
7FB9
330
801F
330
802D
330
803B
330
837B
330
83EF
102
}
330
A
100
AcDbSymbolTableRecord
100
AcDbDimStyleTableRecord
  2
DIM1
 70
     0
 41
3.0
 42
1.0
 43
10.0
 44
2.5
 45
0.01
 46
1.25
 47
0.05
 73
     0
 74
     0
 77
     3
 78
     1
140
3.0
141
-1.7
143
0.039
144
0.2
145
1.5
146
0.7
147
1.5
176
     4
177
     4
178
     2
271
     2
272
     2
284
     1
285
     1
286
     1
289
     0
340
F
  0
DIMSTYLE
105
101D
102
{ACAD_REACTORS
330
800F
102
}
330
A
100
AcDbSymbolTableRecord
100
AcDbDimStyleTableRecord
  2
DIM1$2
 70
     0
 41
3.0
 42
1.0
 43
10.0
 44
2.5
 45
0.01
 46
1.25
 77
     1
 78
     1
140
3.0
141
-1.7
143
0.039
145
1.5
147
0.0
176
     4
177
     4
178
     2
179
     2
271
     2
272
     2
279
     2
284
     1
285
     1
286
     1
340
F
  0
DIMSTYLE
105
1025
330
A
100
AcDbSymbolTableRecord
100
AcDbDimStyleTableRecord
  2
DIM1$3
 70
     0
 41
3.0
 42
1.0
 43
10.0
 44
2.5
 45
0.01
 46
1.25
 78
     1
140
3.0
141
-1.7
143
0.039
147
0.0
172
     1
176
     4
177
     4
178
     2
271
     2
272
     2
284
     1
285
     1
286
     1
288
     1
289
     2
340
F
  0
DIMSTYLE
105
1061
330
A
100
AcDbSymbolTableRecord
100
AcDbDimStyleTableRecord
  2
DIM1$7
 70
     0
 41
3.0
 42
1.0
 43
10.0
 44
2.5
 45
0.01
 46
1.25
 73
     0
 74
     0
 78
     1
140
3.0
141
-1.7
143
0.039
147
1.5
176
     4
177
     4
178
     2
271
     2
272
     2
284
     1
285
     1
286
     1
289
     0
340
F
  0
DIMSTYLE
105
10B4
102
{ACAD_REACTORS
330
83BA
330
8407
102
}
330
A
100
AcDbSymbolTableRecord
100
AcDbDimStyleTableRecord
  2
DIM1$4
 70
     0
 41
3.0
 42
1.0
 43
10.0
 44
2.5
 45
0.01
 46
1.25
 78
     1
140
3.0
141
-1.7
143
0.039
147
1.5
172
     1
176
     4
177
     4
178
     2
271
     2
272
     2
284
     1
285
     1
286
     1
288
     1
289
     0
340
F
  0
DIMSTYLE
105
10F8
330
A
100
AcDbSymbolTableRecord
100
AcDbDimStyleTableRecord
  2
DIM1$6
 70
     0
 41
3.0
 42
1.0
 43
10.0
 44
2.5
 45
0.01
 46
1.25
 73
     0
 74
     0
 78
     1
140
3.0
141
-1.7
143
0.039
147
1.5
176
     4
177
     4
178
     2
271
     2
272
     2
284
     1
285
     1
286
     1
289
     0
340
F
  0
DIMSTYLE
105
1EEC
330
A
100
AcDbSymbolTableRecord
100
AcDbDimStyleTableRecord
  2
TWOPLACES
 70
     0
 41
5.0
 42
2.5
 43
10.0
 44
2.5
 45
0.01
 73
     0
 74
     0
 77
     1
140
3.5
141
3.0
143
0.039
144
0.5
146
0.75
147
1.5
271
     2
340
F
  0
DIMSTYLE
105
21CF
330
A
100
AcDbSymbolTableRecord
100
AcDbDimStyleTableRecord
  2
STANDARD
 70
     0
340
F
  0
ENDTAB
  0
TABLE
  2
BLOCK_RECORD
  5
1
330
0
100
AcDbSymbolTable
 70
    37
  0
BLOCK_RECORD
  5
17
102
{ACAD_XDICTIONARY
360
20BE
102
}
330
1
100
AcDbSymbolTableRecord
100
AcDbBlockTableRecord
  2
*MODEL_SPACE
340
79CF
  0
BLOCK_RECORD
  5
14
330
1
100
AcDbSymbolTableRecord
100
AcDbBlockTableRecord
  2
*PAPER_SPACE
340
79D0
  0
BLOCK_RECORD
  5
7791
330
1
100
AcDbSymbolTableRecord
100
AcDbBlockTableRecord
  2
*D0
340
0
  0
BLOCK_RECORD
  5
78D8
330
1
100
AcDbSymbolTableRecord
100
AcDbBlockTableRecord
  2
*D1
340
0
  0
BLOCK_RECORD
  5
78F2
330
1
100
AcDbSymbolTableRecord
100
AcDbBlockTableRecord
  2
*D2
340
0
  0
BLOCK_RECORD
  5
791B
330
1
100
AcDbSymbolTableRecord
100
AcDbBlockTableRecord
  2
*D3
340
0
  0
BLOCK_RECORD
  5
7928
330
1
100
AcDbSymbolTableRecord
100
AcDbBlockTableRecord
  2
*D4
340
0
  0
BLOCK_RECORD
  5
796E
330
1
100
AcDbSymbolTableRecord
100
AcDbBlockTableRecord
  2
*D5
340
0
  0
BLOCK_RECORD
  5
7A0D
330
1
100
AcDbSymbolTableRecord
100
AcDbBlockTableRecord
  2
*D6
340
0
  0
BLOCK_RECORD
  5
7A19
330
1
100
AcDbSymbolTableRecord
100
AcDbBlockTableRecord
  2
*D7
340
0
  0
BLOCK_RECORD
  5
7A24
330
1
100
AcDbSymbolTableRecord
100
AcDbBlockTableRecord
  2
*D8
340
0
  0
BLOCK_RECORD
  5
7A30
330
1
100
AcDbSymbolTableRecord
100
AcDbBlockTableRecord
  2
*D9
340
0
  0
BLOCK_RECORD
  5
7A3C
330
1
100
AcDbSymbolTableRecord
100
AcDbBlockTableRecord
  2
*D10
340
0
  0
BLOCK_RECORD
  5
7A48
330
1
100
AcDbSymbolTableRecord
100
AcDbBlockTableRecord
  2
*D11
340
0
  0
BLOCK_RECORD
  5
7A57
330
1
100
AcDbSymbolTableRecord
100
AcDbBlockTableRecord
  2
DG010001
340
0
  0
BLOCK_RECORD
  5
7B36
330
1
100
AcDbSymbolTableRecord
100
AcDbBlockTableRecord
  2
*D13
340
0
  0
BLOCK_RECORD
  5
7B42
330
1
100
AcDbSymbolTableRecord
100
AcDbBlockTableRecord
  2
*D14
340
0
  0
BLOCK_RECORD
  5
7B4D
330
1
100
AcDbSymbolTableRecord
100
AcDbBlockTableRecord
  2
*D15
340
0
  0
BLOCK_RECORD
  5
7B59
330
1
100
AcDbSymbolTableRecord
100
AcDbBlockTableRecord
  2
*D16
340
0
  0
BLOCK_RECORD
  5
7B65
330
1
100
AcDbSymbolTableRecord
100
AcDbBlockTableRecord
  2
*D17
340
0
  0
BLOCK_RECORD
  5
7B71
330
1
100
AcDbSymbolTableRecord
100
AcDbBlockTableRecord
  2
*D18
340
0
  0
BLOCK_RECORD
  5
7B7D
330
1
100
AcDbSymbolTableRecord
100
AcDbBlockTableRecord
  2
*D19
340
0
  0
BLOCK_RECORD
  5
7B8C
330
1
100
AcDbSymbolTableRecord
100
AcDbBlockTableRecord
  2
DG010001 with Tips
340
0
  0
BLOCK_RECORD
  5
7FBA
330
1
100
AcDbSymbolTableRecord
100
AcDbBlockTableRecord
  2
*D21
340
0
  0
BLOCK_RECORD
  5
8010
330
1
100
AcDbSymbolTableRecord
100
AcDbBlockTableRecord
  2
*D22
340
0
  0
BLOCK_RECORD
  5
8020
330
1
100
AcDbSymbolTableRecord
100
AcDbBlockTableRecord
  2
*D23
340
0
  0
BLOCK_RECORD
  5
802E
330
1
100
AcDbSymbolTableRecord
100
AcDbBlockTableRecord
  2
*D24
340
0
  0
BLOCK_RECORD
  5
803C
330
1
100
AcDbSymbolTableRecord
100
AcDbBlockTableRecord
  2
*D25
340
0
  0
BLOCK_RECORD
  5
811C
330
1
100
AcDbSymbolTableRecord
100
AcDbBlockTableRecord
  2
*D26
340
0
  0
BLOCK_RECORD
  5
8128
330
1
100
AcDbSymbolTableRecord
100
AcDbBlockTableRecord
  2
*D27
340
0
  0
BLOCK_RECORD
  5
8135
330
1
100
AcDbSymbolTableRecord
100
AcDbBlockTableRecord
  2
*D28
340
0
  0
BLOCK_RECORD
  5
8142
330
1
100
AcDbSymbolTableRecord
100
AcDbBlockTableRecord
  2
*D29
340
0
  0
BLOCK_RECORD
  5
814E
330
1
100
AcDbSymbolTableRecord
100
AcDbBlockTableRecord
  2
*D30
340
0
  0
BLOCK_RECORD
  5
815A
330
1
100
AcDbSymbolTableRecord
100
AcDbBlockTableRecord
  2
*D31
340
0
  0
BLOCK_RECORD
  5
8169
330
1
100
AcDbSymbolTableRecord
100
AcDbBlockTableRecord
  2
DS020001TYPE2
340
0
  0
BLOCK_RECORD
  5
837C
330
1
100
AcDbSymbolTableRecord
100
AcDbBlockTableRecord
  2
*D33
340
0
  0
BLOCK_RECORD
  5
83BB
330
1
100
AcDbSymbolTableRecord
100
AcDbBlockTableRecord
  2
*D34
340
0
  0
BLOCK_RECORD
  5
83F0
330
1
100
AcDbSymbolTableRecord
100
AcDbBlockTableRecord
  2
*D35
340
0
  0
BLOCK_RECORD
  5
8408
330
1
100
AcDbSymbolTableRecord
100
AcDbBlockTableRecord
  2
*D36
340
0
  0
ENDTAB
  0
ENDSEC
  0
SECTION
  2
BLOCKS
  0
BLOCK
  5
31
330
17
100
AcDbEntity
  8
0
100
AcDbBlockBegin
  2
*MODEL_SPACE
 70
     0
 10
0.0
 20
0.0
 30
0.0
  3
*MODEL_SPACE
  1

  0
ENDBLK
  5
32
330
17
100
AcDbEntity
  8
0
100
AcDbBlockEnd
  0
BLOCK
  5
2F
330
14
100
AcDbEntity
 67
     1
  8
0
100
AcDbBlockBegin
  2
*PAPER_SPACE
 70
     0
 10
0.0
 20
0.0
 30
0.0
  3
*PAPER_SPACE
  1

  0
ENDBLK
  5
30
330
14
100
AcDbEntity
 67
     1
  8
0
100
AcDbBlockEnd
  0
BLOCK
  5
77C1
330
7791
100
AcDbEntity
  8
0
100
AcDbBlockBegin
  2
*D0
 70
     1
 10
0.0
 20
0.0
 30
0.0
  3
*D0
  1

  0
LINE
  5
85C7
330
7791
100
AcDbEntity
  8
DIMS
 62
     4
370
    -2
100
AcDbLine
 10
648.9833765754188
 20
392.2077421121926
 30
0.0
 11
686.4399971282818
 21
392.2077421121926
 31
0.0
  0
LINE
  5
85C8
330
7791
100
AcDbEntity
  8
DIMS
 62
     4
370
    -2
100
AcDbLine
 10
648.9833765754188
 20
426.2077421121927
 30
0.0
 11
686.4399971282818
 21
426.2077421121927
 31
0.0
  0
LINE
  5
85C9
330
7791
100
AcDbEntity
  8
DIMS
 62
     4
370
    -2
100
AcDbLine
 10
683.9399971282817
 20
395.2077421121927
 30
0.0
 11
683.9399971282817
 21
423.2077421121926
 31
0.0
  0
SOLID
  5
85CA
330
7791
100
AcDbEntity
  8
DIMS
 62
     4
100
AcDbTrace
 10
683.4399971282818
 20
395.2077421121927
 30
0.0
 11
684.4399971282817
 21
395.2077421121927
 31
0.0
 12
683.9399971282817
 22
392.2077421121926
 32
0.0
 13
683.9399971282817
 23
392.2077421121926
 33
0.0
  0
SOLID
  5
85CB
330
7791
100
AcDbEntity
  8
DIMS
 62
     4
100
AcDbTrace
 10
683.4399971282818
 20
423.2077421121926
 30
0.0
 11
684.4399971282817
 21
423.2077421121926
 31
0.0
 12
683.9399971282817
 22
426.2077421121927
 32
0.0
 13
683.9399971282817
 23
426.2077421121927
 33
0.0
  0
MTEXT
  5
85CC
330
7791
100
AcDbEntity
  8
DIMS
 62
     2
100
AcDbMText
 10
680.9399971282816
 20
404.4690727446861
 30
0.0
 40
3.0
 41
0.0
 71
     5
 72
     1
  1
\A1;{\C5;%%c34.00}
 11
0.0000000000000001
 21
1.0
 31
0.0
 73
     1
 44
1.0
  0
POINT
  5
85CD
330
7791
100
AcDbEntity
  8
DEFPOINTS
 62
     0
100
AcDbPoint
 10
647.9833765754189
 20
392.2077421121926
 30
0.0
  0
POINT
  5
85CE
330
7791
100
AcDbEntity
  8
DEFPOINTS
 62
     0
100
AcDbPoint
 10
647.9833765754189
 20
426.2077421121927
 30
0.0
  0
POINT
  5
85CF
330
7791
100
AcDbEntity
  8
DEFPOINTS
 62
     0
100
AcDbPoint
 10
683.9399971282817
 20
426.2077421121927
 30
0.0
  0
ENDBLK
  5
77CB
330
7791
100
AcDbEntity
  8
0
100
AcDbBlockEnd
  0
BLOCK
  5
78E6
330
78D8
100
AcDbEntity
  8
0
100
AcDbBlockBegin
  2
*D1
 70
     1
 10
0.0
 20
0.0
 30
0.0
  3
*D1
  1

  0
LINE
  5
85D0
330
78D8
100
AcDbEntity
  8
DIMS
 62
     4
370
    -2
100
AcDbLine
 10
578.4833765754187
 20
431.1928457658632
 30
0.0
 11
578.4833765754187
 21
448.5539078986677
 31
0.0
  0
LINE
  5
85D1
330
78D8
100
AcDbEntity
  8
DIMS
 62
     4
370
    -2
100
AcDbLine
 10
580.4833765754189
 20
415.2077421121928
 30
0.0
 11
580.4833765754189
 21
448.5539078986677
 31
0.0
  0
LINE
  5
85D2
330
78D8
100
AcDbEntity
  8
DIMS
 62
     4
370
    -2
100
AcDbLine
 10
575.4833765754187
 20
446.0539078986677
 30
0.0
 11
572.4833765754188
 21
446.0539078986677
 31
0.0
  0
LINE
  5
85D3
330
78D8
100
AcDbEntity
  8
DIMS
 62
     4
370
    -2
100
AcDbLine
 10
583.4833765754189
 20
446.0539078986677
 30
0.0
 11
607.3405194325617
 21
446.0539078986677
 31
0.0
  0
SOLID
  5
85D4
330
78D8
100
AcDbEntity
  8
DIMS
 62
     4
100
AcDbTrace
 10
575.4833765754187
 20
446.5539078986678
 30
0.0
 11
575.4833765754187
 21
445.5539078986677
 31
0.0
 12
578.4833765754187
 22
446.0539078986677
 32
0.0
 13
578.4833765754187
 23
446.0539078986677
 33
0.0
  0
SOLID
  5
85D5
330
78D8
100
AcDbEntity
  8
DIMS
 62
     4
100
AcDbTrace
 10
583.4833765754189
 20
446.5539078986678
 30
0.0
 11
583.4833765754189
 21
445.5539078986677
 31
0.0
 12
580.4833765754189
 22
446.0539078986677
 32
0.0
 13
580.4833765754189
 23
446.0539078986677
 33
0.0
  0
MTEXT
  5
85D6
330
78D8
100
AcDbEntity
  8
DIMS
 62
     2
100
AcDbMText
 10
596.9119480039903
 20
449.0539078986677
 30
0.0
 40
3.0
 41
0.0
 71
     5
 72
     1
  1
\A1;{\C5;2.0 MIN.}
 73
     1
 44
1.0
  0
POINT
  5
85D7
330
78D8
100
AcDbEntity
  8
DEFPOINTS
 62
     0
100
AcDbPoint
 10
578.4833765754187
 20
430.1928457658632
 30
0.0
  0
POINT
  5
85D8
330
78D8
100
AcDbEntity
  8
DEFPOINTS
 62
     0
100
AcDbPoint
 10
580.4833765754189
 20
414.2077421121928
 30
0.0
  0
POINT
  5
85D9
330
78D8
100
AcDbEntity
  8
DEFPOINTS
 62
     0
100
AcDbPoint
 10
580.4833765754189
 20
446.0539078986677
 30
0.0
  0
ENDBLK
  5
78F1
330
78D8
100
AcDbEntity
  8
0
100
AcDbBlockEnd
  0
BLOCK
  5
79A0
330
78F2
100
AcDbEntity
  8
0
100
AcDbBlockBegin
  2
*D2
 70
     1
 10
0.0
 20
0.0
 30
0.0
  3
*D2
  1

  0
LINE
  5
85DA
330
78F2
100
AcDbEntity
  8
DIMS
 62
     4
370
    -2
100
AcDbLine
 10
577.4833765754189
 20
414.2077421121927
 30
0.0
 11
552.9704151972031
 21
414.2077421121927
 31
0.0
  0
LINE
  5
85DB
330
78F2
100
AcDbEntity
  8
DIMS
 62
     4
370
    -2
100
AcDbLine
 10
577.4833765754189
 20
404.2077421121927
 30
0.0
 11
552.9704151972031
 21
404.2077421121927
 31
0.0
  0
LINE
  5
85DC
330
78F2
100
AcDbEntity
  8
DIMS
 62
     4
370
    -2
100
AcDbLine
 10
555.4704151972031
 20
417.2077421121927
 30
0.0
 11
555.4704151972031
 21
420.2077421121926
 31
0.0
  0
LINE
  5
85DD
330
78F2
100
AcDbEntity
  8
DIMS
 62
     4
370
    -2
100
AcDbLine
 10
555.4704151972031
 20
401.2077421121928
 30
0.0
 11
555.4704151972031
 21
372.9742796019458
 31
0.0
  0
SOLID
  5
85DE
330
78F2
100
AcDbEntity
  8
DIMS
 62
     4
100
AcDbTrace
 10
554.9704151972031
 20
417.2077421121927
 30
0.0
 11
555.9704151972031
 21
417.2077421121927
 31
0.0
 12
555.4704151972031
 22
414.2077421121927
 32
0.0
 13
555.4704151972031
 23
414.2077421121927
 33
0.0
  0
SOLID
  5
85DF
330
78F2
100
AcDbEntity
  8
DIMS
 62
     4
100
AcDbTrace
 10
554.9704151972031
 20
401.2077421121928
 30
0.0
 11
555.9704151972031
 21
401.2077421121928
 31
0.0
 12
555.4704151972031
 22
404.2077421121927
 32
0.0
 13
555.4704151972031
 23
404.2077421121927
 33
0.0
  0
MTEXT
  5
85E0
330
78F2
100
AcDbEntity
  8
DIMS
 62
     2
100
AcDbMText
 10
552.470415197203
 20
380.1885653162316
 30
0.0
 40
3.0
 41
0.0
 71
     5
 72
     1
  1
\A1;{\C5;10.00}
 11
0.0000000000000001
 21
1.0
 31
0.0
 73
     1
 44
1.0
  0
POINT
  5
85E1
330
78F2
100
AcDbEntity
  8
DEFPOINTS
 62
     0
100
AcDbPoint
 10
578.4833765754188
 20
414.2077421121927
 30
0.0
  0
POINT
  5
85E2
330
78F2
100
AcDbEntity
  8
DEFPOINTS
 62
     0
100
AcDbPoint
 10
578.4833765754188
 20
404.2077421121927
 30
0.0
  0
POINT
  5
85E3
330
78F2
100
AcDbEntity
  8
DEFPOINTS
 62
     0
100
AcDbPoint
 10
555.4704151972031
 20
404.2077421121927
 30
0.0
  0
ENDBLK
  5
79AB
330
78F2
100
AcDbEntity
  8
0
100
AcDbBlockEnd
  0
BLOCK
  5
797B
330
791B
100
AcDbEntity
  8
0
100
AcDbBlockBegin
  2
*D3
 70
     1
 10
0.0
 20
0.0
 30
0.0
  3
*D3
  1

  0
LINE
  5
85E4
330
791B
100
AcDbEntity
  8
DIMS
 62
     4
370
    -2
100
AcDbLine
 10
578.483376575419
 20
387.3650203122227
 30
0.0
 11
578.483376575419
 21
366.821609180589
 31
0.0
  0
LINE
  5
85E5
330
791B
100
AcDbEntity
  8
DIMS
 62
     4
370
    -2
100
AcDbLine
 10
645.4833765754187
 20
391.2077421121927
 30
0.0
 11
645.4833765754187
 21
366.821609180589
 31
0.0
  0
LINE
  5
85E6
330
791B
100
AcDbEntity
  8
DIMS
 62
     4
370
    -2
100
AcDbLine
 10
581.4833765754189
 20
369.321609180589
 30
0.0
 11
642.4833765754187
 21
369.321609180589
 31
0.0
  0
SOLID
  5
85E7
330
791B
100
AcDbEntity
  8
DIMS
 62
     4
100
AcDbTrace
 10
581.4833765754189
 20
369.821609180589
 30
0.0
 11
581.4833765754189
 21
368.821609180589
 31
0.0
 12
578.483376575419
 22
369.321609180589
 32
0.0
 13
578.483376575419
 23
369.321609180589
 33
0.0
  0
SOLID
  5
85E8
330
791B
100
AcDbEntity
  8
DIMS
 62
     4
100
AcDbTrace
 10
642.4833765754187
 20
369.821609180589
 30
0.0
 11
642.4833765754187
 21
368.821609180589
 31
0.0
 12
645.4833765754187
 22
369.321609180589
 32
0.0
 13
645.4833765754187
 23
369.321609180589
 33
0.0
  0
MTEXT
  5
85E9
330
791B
100
AcDbEntity
  8
DIMS
 62
     2
100
AcDbMText
 10
611.9833765754188
 20
372.321609180589
 30
0.0
 40
3.0
 41
0.0
 71
     5
 72
     1
  1
\A1;{\C5;L1=67.00}
 73
     1
 44
1.0
  0
POINT
  5
85EA
330
791B
100
AcDbEntity
  8
DEFPOINTS
 62
     0
100
AcDbPoint
 10
578.483376575419
 20
388.3650203122227
 30
0.0
  0
POINT
  5
85EB
330
791B
100
AcDbEntity
  8
DEFPOINTS
 62
     0
100
AcDbPoint
 10
645.4833765754187
 20
392.2077421121926
 30
0.0
  0
POINT
  5
85EC
330
791B
100
AcDbEntity
  8
DEFPOINTS
 62
     0
100
AcDbPoint
 10
645.4833765754187
 20
369.321609180589
 30
0.0
  0
ENDBLK
  5
7985
330
791B
100
AcDbEntity
  8
0
100
AcDbBlockEnd
  0
BLOCK
  5
7986
330
7928
100
AcDbEntity
  8
0
100
AcDbBlockBegin
  2
*D4
 70
     1
 10
0.0
 20
0.0
 30
0.0
  3
*D4
  1

  0
LINE
  5
85ED
330
7928
100
AcDbEntity
  8
DIMS
 62
     4
370
    -2
100
AcDbLine
 10
578.483376575419
 20
387.3650203122227
 30
0.0
 11
578.483376575419
 21
346.821609180589
 31
0.0
  0
LINE
  5
85EE
330
7928
100
AcDbEntity
  8
DIMS
 62
     4
370
    -2
100
AcDbLine
 10
655.4833765754189
 20
377.9661072684997
 30
0.0
 11
655.4833765754189
 21
346.821609180589
 31
0.0
  0
LINE
  5
85EF
330
7928
100
AcDbEntity
  8
DIMS
 62
     4
370
    -2
100
AcDbLine
 10
581.4833765754189
 20
349.321609180589
 30
0.0
 11
652.4833765754189
 21
349.321609180589
 31
0.0
  0
SOLID
  5
85F0
330
7928
100
AcDbEntity
  8
DIMS
 62
     4
100
AcDbTrace
 10
581.4833765754189
 20
349.821609180589
 30
0.0
 11
581.4833765754189
 21
348.821609180589
 31
0.0
 12
578.483376575419
 22
349.321609180589
 32
0.0
 13
578.483376575419
 23
349.321609180589
 33
0.0
  0
SOLID
  5
85F1
330
7928
100
AcDbEntity
  8
DIMS
 62
     4
100
AcDbTrace
 10
652.4833765754189
 20
349.821609180589
 30
0.0
 11
652.4833765754189
 21
348.821609180589
 31
0.0
 12
655.4833765754189
 22
349.321609180589
 32
0.0
 13
655.4833765754189
 23
349.321609180589
 33
0.0
  0
MTEXT
  5
85F2
330
7928
100
AcDbEntity
  8
DIMS
 62
     2
100
AcDbMText
 10
616.983376575419
 20
352.321609180589
 30
0.0
 40
3.0
 41
0.0
 71
     5
 72
     1
  1
\A1;{\C5;L=77.00}
 73
     1
 44
1.0
  0
POINT
  5
85F3
330
7928
100
AcDbEntity
  8
DEFPOINTS
 62
     0
100
AcDbPoint
 10
578.483376575419
 20
388.3650203122227
 30
0.0
  0
POINT
  5
85F4
330
7928
100
AcDbEntity
  8
DEFPOINTS
 62
     0
100
AcDbPoint
 10
655.4833765754189
 20
378.9661072684996
 30
0.0
  0
POINT
  5
85F5
330
7928
100
AcDbEntity
  8
DEFPOINTS
 62
     0
100
AcDbPoint
 10
655.4833765754189
 20
349.321609180589
 30
0.0
  0
ENDBLK
  5
7990
330
7928
100
AcDbEntity
  8
0
100
AcDbBlockEnd
  0
BLOCK
  5
7991
330
796E
100
AcDbEntity
  8
0
100
AcDbBlockBegin
  2
*D5
 70
     1
 10
0.0
 20
0.0
 30
0.0
  3
*D5
  1

  0
LINE
  5
85F6
330
796E
100
AcDbEntity
  8
DIMS
 62
     4
370
    -2
100
AcDbLine
 10
655.4833765754189
 20
377.9661072684997
 30
0.0
 11
655.4833765754189
 21
356.694865771649
 31
0.0
  0
LINE
  5
85F7
330
796E
100
AcDbEntity
  8
DIMS
 62
     4
370
    -2
100
AcDbLine
 10
582.4833765754191
 20
396.2077421121927
 30
0.0
 11
582.4833765754191
 21
356.694865771649
 31
0.0
  0
LINE
  5
85F8
330
796E
100
AcDbEntity
  8
DIMS
 62
     4
370
    -2
100
AcDbLine
 10
652.4833765754189
 20
359.194865771649
 30
0.0
 11
585.4833765754191
 21
359.194865771649
 31
0.0
  0
SOLID
  5
85F9
330
796E
100
AcDbEntity
  8
DIMS
 62
     4
100
AcDbTrace
 10
652.4833765754189
 20
359.694865771649
 30
0.0
 11
652.4833765754189
 21
358.694865771649
 31
0.0
 12
655.4833765754189
 22
359.194865771649
 32
0.0
 13
655.4833765754189
 23
359.194865771649
 33
0.0
  0
SOLID
  5
85FA
330
796E
100
AcDbEntity
  8
DIMS
 62
     4
100
AcDbTrace
 10
585.4833765754191
 20
359.694865771649
 30
0.0
 11
585.4833765754191
 21
358.694865771649
 31
0.0
 12
582.4833765754191
 22
359.194865771649
 32
0.0
 13
582.4833765754191
 23
359.194865771649
 33
0.0
  0
MTEXT
  5
85FB
330
796E
100
AcDbEntity
  8
DIMS
 62
     2
100
AcDbMText
 10
618.9833765754189
 20
362.194865771649
 30
0.0
 40
3.0
 41
0.0
 71
     5
 72
     1
  1
\A1;{\C5;N=73.00}
 73
     1
 44
1.0
  0
POINT
  5
85FC
330
796E
100
AcDbEntity
  8
DEFPOINTS
 62
     0
100
AcDbPoint
 10
655.4833765754189
 20
378.9661072684996
 30
0.0
  0
POINT
  5
85FD
330
796E
100
AcDbEntity
  8
DEFPOINTS
 62
     0
100
AcDbPoint
 10
582.4833765754191
 20
397.2077421121927
 30
0.0
  0
POINT
  5
85FE
330
796E
100
AcDbEntity
  8
DEFPOINTS
 62
     0
100
AcDbPoint
 10
582.4833765754191
 20
359.194865771649
 30
0.0
  0
ENDBLK
  5
799B
330
796E
100
AcDbEntity
  8
0
100
AcDbBlockEnd
  0
BLOCK
  5
7A17
330
7A0D
100
AcDbEntity
  8
0
100
AcDbBlockBegin
  2
*D6
 70
     1
 10
0.0
 20
0.0
 30
0.0
  3
*D6
  1

  0
LINE
  5
7A0E
330
7A0D
100
AcDbEntity
  8
0
  6
ByBlock
 62
     4
100
AcDbLine
 10
732.2971383835668
 20
312.0361861442168
 30
0.0
 11
732.2971383835668
 21
287.458765486705
 31
0.0
  0
LINE
  5
7A0F
330
7A0D
100
AcDbEntity
  8
0
  6
ByBlock
 62
     4
100
AcDbLine
 10
747.2971383835668
 20
320.8789079441868
 30
0.0
 11
747.2971383835668
 21
287.458765486705
 31
0.0
  0
LINE
  5
7A10
330
7A0D
100
AcDbEntity
  8
0
  6
ByBlock
 62
     4
100
AcDbLine
 10
735.2971383835668
 20
289.9587654867051
 30
0.0
 11
744.2971383835668
 21
289.9587654867051
 31
0.0
  0
SOLID
  5
7A11
330
7A0D
100
AcDbEntity
  8
0
  6
ByBlock
 62
     4
100
AcDbTrace
 10
735.2971383835668
 20
290.458765486705
 30
0.0
 11
735.2971383835668
 21
289.458765486705
 31
0.0
 12
732.2971383835668
 22
289.9587654867051
 32
0.0
 13
732.2971383835668
 23
289.9587654867051
 33
0.0
  0
SOLID
  5
7A12
330
7A0D
100
AcDbEntity
  8
0
  6
ByBlock
 62
     4
100
AcDbTrace
 10
744.2971383835668
 20
290.458765486705
 30
0.0
 11
744.2971383835668
 21
289.458765486705
 31
0.0
 12
747.2971383835668
 22
289.9587654867051
 32
0.0
 13
747.2971383835668
 23
289.9587654867051
 33
0.0
  0
MTEXT
  5
7A13
330
7A0D
100
AcDbEntity
  8
0
  6
ByBlock
 62
     2
100
AcDbMText
 10
739.7971383835668
 20
292.958765486705
 30
0.0
 40
3.0
 41
0.0
 71
     5
 72
     1
  1
\A1;15.0
 73
     1
 44
1.0
  0
POINT
  5
7A14
330
7A0D
100
AcDbEntity
  8
DEFPOINTS
  6
ByBlock
 62
     0
100
AcDbPoint
 10
732.2971383835668
 20
313.0361861442168
 30
0.0
  0
POINT
  5
7A15
330
7A0D
100
AcDbEntity
  8
DEFPOINTS
  6
ByBlock
 62
     0
100
AcDbPoint
 10
747.2971383835668
 20
321.8789079441869
 30
0.0
  0
POINT
  5
7A16
330
7A0D
100
AcDbEntity
  8
DEFPOINTS
  6
ByBlock
 62
     0
100
AcDbPoint
 10
747.2971383835668
 20
289.9587654867051
 30
0.0
  0
ENDBLK
  5
7A18
330
7A0D
100
AcDbEntity
  8
0
100
AcDbBlockEnd
  0
BLOCK
  5
7A22
330
7A19
100
AcDbEntity
  8
0
100
AcDbBlockBegin
  2
*D7
 70
     1
 10
0.0
 20
0.0
 30
0.0
  3
*D7
  1

  0
LINE
  5
7A1A
330
7A19
100
AcDbEntity
  8
0
  6
ByBlock
 62
     4
100
AcDbLine
 10
788.2971383835666
 20
302.6372731004938
 30
0.0
 11
788.2971383835666
 21
287.458765486705
 31
0.0
  0
LINE
  5
7A1B
330
7A19
100
AcDbEntity
  8
0
  6
ByBlock
 62
     4
100
AcDbLine
 10
750.2971383835667
 20
289.9587654867051
 30
0.0
 11
785.2971383835666
 21
289.9587654867051
 31
0.0
  0
SOLID
  5
7A1C
330
7A19
100
AcDbEntity
  8
0
  6
ByBlock
 62
     4
100
AcDbTrace
 10
750.2971383835667
 20
290.458765486705
 30
0.0
 11
750.2971383835667
 21
289.458765486705
 31
0.0
 12
747.2971383835668
 22
289.9587654867051
 32
0.0
 13
747.2971383835668
 23
289.9587654867051
 33
0.0
  0
SOLID
  5
7A1D
330
7A19
100
AcDbEntity
  8
0
  6
ByBlock
 62
     4
100
AcDbTrace
 10
785.2971383835666
 20
290.458765486705
 30
0.0
 11
785.2971383835666
 21
289.458765486705
 31
0.0
 12
788.2971383835666
 22
289.9587654867051
 32
0.0
 13
788.2971383835666
 23
289.9587654867051
 33
0.0
  0
MTEXT
  5
7A1E
330
7A19
100
AcDbEntity
  8
0
  6
ByBlock
 62
     2
100
AcDbMText
 10
767.7971383835668
 20
292.958765486705
 30
0.0
 40
3.0
 41
0.0
 71
     5
 72
     1
  1
\A1;N=41.00
 73
     1
 44
1.0
  0
POINT
  5
7A1F
330
7A19
100
AcDbEntity
  8
DEFPOINTS
  6
ByBlock
 62
     0
100
AcDbPoint
 10
747.2971383835668
 20
321.8789079441869
 30
0.0
  0
POINT
  5
7A20
330
7A19
100
AcDbEntity
  8
DEFPOINTS
  6
ByBlock
 62
     0
100
AcDbPoint
 10
788.2971383835666
 20
303.6372731004938
 30
0.0
  0
POINT
  5
7A21
330
7A19
100
AcDbEntity
  8
DEFPOINTS
  6
ByBlock
 62
     0
100
AcDbPoint
 10
788.2971383835666
 20
289.9587654867051
 30
0.0
  0
ENDBLK
  5
7A23
330
7A19
100
AcDbEntity
  8
0
100
AcDbBlockEnd
  0
BLOCK
  5
7A2E
330
7A24
100
AcDbEntity
  8
0
100
AcDbBlockBegin
  2
*D8
 70
     1
 10
0.0
 20
0.0
 30
0.0
  3
*D8
  1

  0
LINE
  5
7A25
330
7A24
100
AcDbEntity
  8
0
  6
ByBlock
 62
     4
100
AcDbLine
 10
732.2971383835668
 20
312.0361861442168
 30
0.0
 11
732.2971383835668
 21
277.5066278354659
 31
0.0
  0
LINE
  5
7A26
330
7A24
100
AcDbEntity
  8
0
  6
ByBlock
 62
     4
100
AcDbLine
 10
778.2971383835666
 20
315.8789079441868
 30
0.0
 11
778.2971383835666
 21
277.5066278354659
 31
0.0
  0
LINE
  5
7A27
330
7A24
100
AcDbEntity
  8
0
  6
ByBlock
 62
     4
100
AcDbLine
 10
735.2971383835668
 20
280.0066278354659
 30
0.0
 11
775.2971383835665
 21
280.0066278354659
 31
0.0
  0
SOLID
  5
7A28
330
7A24
100
AcDbEntity
  8
0
  6
ByBlock
 62
     4
100
AcDbTrace
 10
735.2971383835668
 20
280.5066278354659
 30
0.0
 11
735.2971383835668
 21
279.5066278354659
 31
0.0
 12
732.2971383835668
 22
280.0066278354659
 32
0.0
 13
732.2971383835668
 23
280.0066278354659
 33
0.0
  0
SOLID
  5
7A29
330
7A24
100
AcDbEntity
  8
0
  6
ByBlock
 62
     4
100
AcDbTrace
 10
775.2971383835665
 20
280.5066278354659
 30
0.0
 11
775.2971383835665
 21
279.5066278354659
 31
0.0
 12
778.2971383835666
 22
280.0066278354659
 32
0.0
 13
778.2971383835666
 23
280.0066278354659
 33
0.0
  0
MTEXT
  5
7A2A
330
7A24
100
AcDbEntity
  8
0
  6
ByBlock
 62
     2
100
AcDbMText
 10
755.2971383835666
 20
283.0066278354659
 30
0.0
 40
3.0
 41
0.0
 71
     5
 72
     1
  1
\A1;L1=46.00
 73
     1
 44
1.0
  0
POINT
  5
7A2B
330
7A24
100
AcDbEntity
  8
DEFPOINTS
  6
ByBlock
 62
     0
100
AcDbPoint
 10
732.2971383835668
 20
313.0361861442168
 30
0.0
  0
POINT
  5
7A2C
330
7A24
100
AcDbEntity
  8
DEFPOINTS
  6
ByBlock
 62
     0
100
AcDbPoint
 10
778.2971383835666
 20
316.8789079441868
 30
0.0
  0
POINT
  5
7A2D
330
7A24
100
AcDbEntity
  8
DEFPOINTS
  6
ByBlock
 62
     0
100
AcDbPoint
 10
778.2971383835666
 20
280.0066278354659
 30
0.0
  0
ENDBLK
  5
7A2F
330
7A24
100
AcDbEntity
  8
0
100
AcDbBlockEnd
  0
BLOCK
  5
7A3A
330
7A30
100
AcDbEntity
  8
0
100
AcDbBlockBegin
  2
*D9
 70
     1
 10
0.0
 20
0.0
 30
0.0
  3
*D9
  1

  0
LINE
  5
7A31
330
7A30
100
AcDbEntity
  8
0
  6
ByBlock
 62
     4
100
AcDbLine
 10
732.2971383835668
 20
312.0361861442168
 30
0.0
 11
732.2971383835668
 21
267.5066278354659
 31
0.0
  0
LINE
  5
7A32
330
7A30
100
AcDbEntity
  8
0
  6
ByBlock
 62
     4
100
AcDbLine
 10
788.2971383835666
 20
302.6372731004938
 30
0.0
 11
788.2971383835666
 21
267.5066278354659
 31
0.0
  0
LINE
  5
7A33
330
7A30
100
AcDbEntity
  8
0
  6
ByBlock
 62
     4
100
AcDbLine
 10
735.2971383835668
 20
270.0066278354659
 30
0.0
 11
785.2971383835666
 21
270.0066278354659
 31
0.0
  0
SOLID
  5
7A34
330
7A30
100
AcDbEntity
  8
0
  6
ByBlock
 62
     4
100
AcDbTrace
 10
735.2971383835668
 20
270.5066278354659
 30
0.0
 11
735.2971383835668
 21
269.5066278354659
 31
0.0
 12
732.2971383835668
 22
270.0066278354659
 32
0.0
 13
732.2971383835668
 23
270.0066278354659
 33
0.0
  0
SOLID
  5
7A35
330
7A30
100
AcDbEntity
  8
0
  6
ByBlock
 62
     4
100
AcDbTrace
 10
785.2971383835666
 20
270.5066278354659
 30
0.0
 11
785.2971383835666
 21
269.5066278354659
 31
0.0
 12
788.2971383835666
 22
270.0066278354659
 32
0.0
 13
788.2971383835666
 23
270.0066278354659
 33
0.0
  0
MTEXT
  5
7A36
330
7A30
100
AcDbEntity
  8
0
  6
ByBlock
 62
     2
100
AcDbMText
 10
760.2971383835668
 20
273.0066278354659
 30
0.0
 40
3.0
 41
0.0
 71
     5
 72
     1
  1
\A1;L=56.00
 73
     1
 44
1.0
  0
POINT
  5
7A37
330
7A30
100
AcDbEntity
  8
DEFPOINTS
  6
ByBlock
 62
     0
100
AcDbPoint
 10
732.2971383835668
 20
313.0361861442168
 30
0.0
  0
POINT
  5
7A38
330
7A30
100
AcDbEntity
  8
DEFPOINTS
  6
ByBlock
 62
     0
100
AcDbPoint
 10
788.2971383835666
 20
303.6372731004938
 30
0.0
  0
POINT
  5
7A39
330
7A30
100
AcDbEntity
  8
DEFPOINTS
  6
ByBlock
 62
     0
100
AcDbPoint
 10
788.2971383835666
 20
270.0066278354659
 30
0.0
  0
ENDBLK
  5
7A3B
330
7A30
100
AcDbEntity
  8
0
100
AcDbBlockEnd
  0
BLOCK
  5
7A46
330
7A3C
100
AcDbEntity
  8
0
100
AcDbBlockBegin
  2
*D10
 70
     1
 10
0.0
 20
0.0
 30
0.0
  3
*D10
  1

  0
LINE
  5
7A3D
330
7A3C
100
AcDbEntity
  8
0
  6
ByBlock
 62
     4
100
AcDbLine
 10
742.0182061954319
 20
342.8789079441868
 30
0.0
 11
707.6173960175224
 21
342.8789079441868
 31
0.0
  0
LINE
  5
7A3E
330
7A3C
100
AcDbEntity
  8
0
  6
ByBlock
 62
     4
100
AcDbLine
 10
742.0182061954318
 20
324.8789079441869
 30
0.0
 11
707.6173960175224
 21
324.8789079441869
 31
0.0
  0
LINE
  5
7A3F
330
7A3C
100
AcDbEntity
  8
0
  6
ByBlock
 62
     4
100
AcDbLine
 10
710.1173960175223
 20
339.8789079441868
 30
0.0
 11
710.1173960175223
 21
327.8789079441869
 31
0.0
  0
SOLID
  5
7A40
330
7A3C
100
AcDbEntity
  8
0
  6
ByBlock
 62
     4
100
AcDbTrace
 10
709.6173960175224
 20
339.8789079441868
 30
0.0
 11
710.6173960175224
 21
339.8789079441868
 31
0.0
 12
710.1173960175223
 22
342.8789079441868
 32
0.0
 13
710.1173960175223
 23
342.8789079441868
 33
0.0
  0
SOLID
  5
7A41
330
7A3C
100
AcDbEntity
  8
0
  6
ByBlock
 62
     4
100
AcDbTrace
 10
709.6173960175224
 20
327.8789079441869
 30
0.0
 11
710.6173960175224
 21
327.8789079441869
 31
0.0
 12
710.1173960175223
 22
324.8789079441869
 32
0.0
 13
710.1173960175223
 23
324.8789079441869
 33
0.0
  0
MTEXT
  5
7A42
330
7A3C
100
AcDbEntity
  8
0
  6
ByBlock
 62
     2
100
AcDbMText
 10
707.1173960175224
 20
333.8789079441868
 30
0.0
 40
3.0
 41
0.0
 71
     5
 72
     1
  1
\A1;\U+220518.00
 11
0.0000000000000001
 21
1.0
 31
0.0
 73
     1
 44
1.0
  0
POINT
  5
7A43
330
7A3C
100
AcDbEntity
  8
DEFPOINTS
  6
ByBlock
 62
     0
100
AcDbPoint
 10
743.0182061954319
 20
342.8789079441868
 30
0.0
  0
POINT
  5
7A44
330
7A3C
100
AcDbEntity
  8
DEFPOINTS
  6
ByBlock
 62
     0
100
AcDbPoint
 10
743.0182061954318
 20
324.8789079441869
 30
0.0
  0
POINT
  5
7A45
330
7A3C
100
AcDbEntity
  8
DEFPOINTS
  6
ByBlock
 62
     0
100
AcDbPoint
 10
710.1173960175223
 20
324.8789079441869
 30
0.0
  0
ENDBLK
  5
7A47
330
7A3C
100
AcDbEntity
  8
0
100
AcDbBlockEnd
  0
BLOCK
  5
7A52
330
7A48
100
AcDbEntity
  8
0
100
AcDbBlockBegin
  2
*D11
 70
     1
 10
0.0
 20
0.0
 30
0.0
  3
*D11
  1

  0
LINE
  5
7A49
330
7A48
100
AcDbEntity
  8
0
  6
ByBlock
 62
     4
100
AcDbLine
 10
627.9833765754188
 20
392.2077421121926
 30
0.0
 11
665.4399971282816
 21
392.2077421121926
 31
0.0
  0
LINE
  5
7A4A
330
7A48
100
AcDbEntity
  8
0
  6
ByBlock
 62
     4
100
AcDbLine
 10
627.9833765754188
 20
426.2077421121927
 30
0.0
 11
665.4399971282816
 21
426.2077421121927
 31
0.0
  0
LINE
  5
7A4B
330
7A48
100
AcDbEntity
  8
0
  6
ByBlock
 62
     4
100
AcDbLine
 10
662.9399971282817
 20
395.2077421121927
 30
0.0
 11
662.9399971282817
 21
423.2077421121926
 31
0.0
  0
SOLID
  5
7A4C
330
7A48
100
AcDbEntity
  8
0
  6
ByBlock
 62
     4
100
AcDbTrace
 10
662.4399971282817
 20
395.2077421121927
 30
0.0
 11
663.4399971282816
 21
395.2077421121927
 31
0.0
 12
662.9399971282817
 22
392.2077421121926
 32
0.0
 13
662.9399971282817
 23
392.2077421121926
 33
0.0
  0
SOLID
  5
7A4D
330
7A48
100
AcDbEntity
  8
0
  6
ByBlock
 62
     4
100
AcDbTrace
 10
662.4399971282817
 20
423.2077421121926
 30
0.0
 11
663.4399971282816
 21
423.2077421121926
 31
0.0
 12
662.9399971282817
 22
426.2077421121927
 32
0.0
 13
662.9399971282817
 23
426.2077421121927
 33
0.0
  0
MTEXT
  5
7A4E
330
7A48
100
AcDbEntity
  8
0
  6
ByBlock
 62
     2
100
AcDbMText
 10
659.9399971282816
 20
404.4690727446861
 30
0.0
 40
3.0
 41
0.0
 71
     5
 72
     1
  1
\A1;\U+220534.00
 11
0.0000000000000001
 21
1.0
 31
0.0
 73
     1
 44
1.0
  0
POINT
  5
7A4F
330
7A48
100
AcDbEntity
  8
DEFPOINTS
  6
ByBlock
 62
     0
100
AcDbPoint
 10
626.9833765754189
 20
392.2077421121926
 30
0.0
  0
POINT
  5
7A50
330
7A48
100
AcDbEntity
  8
DEFPOINTS
  6
ByBlock
 62
     0
100
AcDbPoint
 10
626.9833765754189
 20
426.2077421121927
 30
0.0
  0
POINT
  5
7A51
330
7A48
100
AcDbEntity
  8
DEFPOINTS
  6
ByBlock
 62
     0
100
AcDbPoint
 10
662.9399971282817
 20
426.2077421121927
 30
0.0
  0
ENDBLK
  5
7A53
330
7A48
100
AcDbEntity
  8
0
100
AcDbBlockEnd
  0
BLOCK
  5
7B34
330
7A57
100
AcDbEntity
  8
0
100
AcDbBlockBegin
  2
DG010001
 70
     0
 10
0.0
 20
0.0
 30
0.0
  3
DG010001
  1

  0
LINE
  5
7A58
330
7A57
100
AcDbEntity
  8
M01
100
AcDbLine
 10
624.4833765754188
 20
397.2077421121927
 30
0.0
 11
596.2833035754189
 21
397.2077421121927
 31
0.0
  0
LINE
  5
7A59
330
7A57
100
AcDbEntity
  8
M01
100
AcDbLine
 10
624.4833765754188
 20
421.2077421121927
 30
0.0
 11
596.2833035754189
 21
421.2077421121927
 31
0.0
  0
LINE
  5
7A5A
330
7A57
100
AcDbEntity
  8
M01
100
AcDbLine
 10
590.9833765754188
 20
400.7077311121927
 30
0.0
 11
591.4833765754188
 21
400.2077311121927
 31
0.0
  0
LINE
  5
7A5B
330
7A57
100
AcDbEntity
  8
M01
100
AcDbLine
 10
591.4833765754188
 20
418.2077421121928
 30
0.0
 11
591.4833765754188
 21
400.2077421121927
 31
0.0
  0
LINE
  5
7A5C
330
7A57
100
AcDbEntity
  8
M01
100
AcDbLine
 10
596.2833035754189
 20
421.2077421121927
 30
0.0
 11
596.2833035754189
 21
397.2077421121927
 31
0.0
  0
LINE
  5
7A5D
330
7A57
100
AcDbEntity
  8
M01
100
AcDbLine
 10
594.9833765754188
 20
420.5705241121927
 30
0.0
 11
594.9833765754188
 21
397.8449381121927
 31
0.0
  0
LINE
  5
7A5E
330
7A57
100
AcDbEntity
  8
M01
100
AcDbLine
 10
593.9833765754189
 20
399.9572421121927
 30
0.0
 11
593.9833765754189
 21
418.4572421121927
 31
0.0
  0
LINE
  5
7A5F
330
7A57
100
AcDbEntity
  8
M01
100
AcDbLine
 10
594.2333765754189
 20
418.7072421121928
 30
0.0
 11
594.2333765754189
 21
399.7072421121927
 31
0.0
  0
LINE
  5
7A60
330
7A57
100
AcDbEntity
  8
M01
100
AcDbLine
 10
594.2333765754189
 20
399.7072421121927
 30
0.0
 11
594.9833765754188
 21
399.7072421121927
 31
0.0
  0
LINE
  5
7A61
330
7A57
100
AcDbEntity
  8
M01
100
AcDbLine
 10
591.4833765754188
 20
400.2077311121927
 30
0.0
 11
593.9833765754189
 21
400.2077311121927
 31
0.0
  0
LINE
  5
7A62
330
7A57
100
AcDbEntity
  8
M01
100
AcDbLine
 10
593.9833765754189
 20
399.9572421121927
 30
0.0
 11
594.2333765754189
 21
399.7072421121927
 31
0.0
  0
LINE
  5
7A63
330
7A57
100
AcDbEntity
  8
M01
100
AcDbLine
 10
596.2833035754189
 20
397.8449381121927
 30
0.0
 11
594.9833765754188
 21
397.8449381121927
 31
0.0
  0
LINE
  5
7A64
330
7A57
100
AcDbEntity
  8
M01
100
AcDbLine
 10
578.4833765754188
 20
409.2077421121927
 30
0.0
 11
588.0103545754188
 21
403.7077421121927
 31
0.0
  0
LINE
  5
7A65
330
7A57
100
AcDbEntity
  8
M01
100
AcDbLine
 10
578.4833765754188
 20
409.2077421121927
 30
0.0
 11
588.0103545754188
 21
414.7077421121927
 31
0.0
  0
ARC
  5
7A66
330
7A57
100
AcDbEntity
  8
M01
100
AcDbCircle
 10
583.9477315754188
 20
409.2077421121927
 30
0.0
 40
1.0
100
AcDbArc
 50
270.0
 51
89.99998500000002
  0
ARC
  5
7A67
330
7A57
100
AcDbEntity
  8
M01
100
AcDbCircle
 10
583.2890405754189
 20
411.4284761121927
 30
0.0
 40
3.221401999999999
100
AcDbArc
 50
223.580139
 51
268.8319399999999
  0
ARC
  5
7A68
330
7A57
100
AcDbEntity
  8
M01
100
AcDbCircle
 10
-583.2890405754189
 20
406.9870081121927
 30
0.0
 40
3.221401999999999
210
0.0
220
0.0
230
-1.0
100
AcDbArc
 50
43.58013900000003
 51
88.83193999999994
  0
ARC
  5
7A69
330
7A57
100
AcDbEntity
  8
M01
100
AcDbCircle
 10
584.7969755754188
 20
409.2105801121928
 30
0.0
 40
0.811339
100
AcDbArc
 50
106.1792449999999
 51
254.199615
  0
LINE
  5
7A6A
330
7A57
100
AcDbEntity
  8
M01
100
AcDbLine
 10
583.9477315754188
 20
408.2077421121927
 30
0.0
 11
583.2233665754189
 21
408.2077421121927
 31
0.0
  0
LINE
  5
7A6B
330
7A57
100
AcDbEntity
  8
M01
100
AcDbLine
 10
583.9477315754188
 20
410.2077421121927
 30
0.0
 11
583.2233665754189
 21
410.2077421121927
 31
0.0
  0
LINE
  5
7A6C
330
7A57
100
AcDbEntity
  8
M01
100
AcDbLine
 10
594.9833765754188
 20
418.7072421121928
 30
0.0
 11
594.2333765754189
 21
418.7072421121928
 31
0.0
  0
LINE
  5
7A6D
330
7A57
100
AcDbEntity
  8
M01
100
AcDbLine
 10
588.0103545754188
 20
412.3923121121928
 30
0.0
 11
588.0103545754188
 21
411.4990021121927
 31
0.0
  0
LINE
  5
7A6E
330
7A57
100
AcDbEntity
  8
M01
100
AcDbLine
 10
590.9833765754188
 20
417.7077311121927
 30
0.0
 11
590.9833765754188
 21
400.7077311121927
 31
0.0
  0
LINE
  5
7A6F
330
7A57
100
AcDbEntity
  8
M01
100
AcDbLine
 10
590.9833765754188
 20
403.7077421121927
 30
0.0
 11
588.0103545754188
 21
403.7077421121927
 31
0.0
  0
LINE
  5
7A70
330
7A57
100
AcDbEntity
  8
M01
100
AcDbLine
 10
588.0103545754188
 20
406.9164821121927
 30
0.0
 11
590.9833765754188
 21
406.9164821121927
 31
0.0
  0
LINE
  5
7A71
330
7A57
100
AcDbEntity
  8
M01
100
AcDbLine
 10
588.0103545754188
 20
406.0231111121927
 30
0.0
 11
590.9833765754188
 21
406.0231111121927
 31
0.0
  0
LINE
  5
7A72
330
7A57
100
AcDbEntity
  8
M01
100
AcDbLine
 10
590.9833765754188
 20
411.4990021121927
 30
0.0
 11
588.0103545754188
 21
411.4990021121927
 31
0.0
  0
LINE
  5
7A73
330
7A57
100
AcDbEntity
  8
M01
100
AcDbLine
 10
588.0103545754188
 20
406.9164821121927
 30
0.0
 11
588.0103545754188
 21
406.0231111121927
 31
0.0
  0
ARC
  5
7A74
330
7A57
100
AcDbEntity
  8
M01
100
AcDbCircle
 10
588.1387725754189
 20
404.8654571121927
 30
0.0
 40
1.164754999999999
100
AcDbArc
 50
96.32991000000004
 51
216.3421629999998
  0
ARC
  5
7A75
330
7A57
100
AcDbEntity
  8
M01
100
AcDbCircle
 10
590.1351095754189
 20
409.2077421121927
 30
0.0
 40
3.124813
100
AcDbArc
 50
132.840698
 51
227.1592709999999
  0
LINE
  5
7A76
330
7A57
100
AcDbEntity
  8
M01
100
AcDbLine
 10
590.9833765754188
 20
412.3923121121928
 30
0.0
 11
588.0103545754188
 21
412.3923121121928
 31
0.0
  0
LINE
  5
7A77
330
7A57
100
AcDbEntity
  8
M01
100
AcDbLine
 10
590.9833765754188
 20
414.7077421121927
 30
0.0
 11
588.0103545754188
 21
414.7077421121927
 31
0.0
  0
ARC
  5
7A78
330
7A57
100
AcDbEntity
  8
M01
100
AcDbCircle
 10
-588.1387725754189
 20
413.5500271121927
 30
0.0
 40
1.164754999999999
210
0.0
220
0.0
230
-1.0
100
AcDbArc
 50
276.32991
 51
36.34216299999993
  0
LINE
  5
7A79
330
7A57
100
AcDbEntity
  8
M01
100
AcDbLine
 10
590.9833765754188
 20
417.7077311121927
 30
0.0
 11
591.4833765754188
 21
418.2077311121927
 31
0.0
  0
LINE
  5
7A7A
330
7A57
100
AcDbEntity
  8
M01
100
AcDbLine
 10
591.4833765754188
 20
418.2077311121927
 30
0.0
 11
593.9833765754189
 21
418.2077311121927
 31
0.0
  0
LINE
  5
7A7B
330
7A57
100
AcDbEntity
  8
M01
100
AcDbLine
 10
593.9833765754189
 20
418.4572421121927
 30
0.0
 11
594.2333765754189
 21
418.7072421121928
 31
0.0
  0
LINE
  5
7A7C
330
7A57
100
AcDbEntity
  8
M01
100
AcDbLine
 10
596.2833035754189
 20
420.5705241121927
 30
0.0
 11
594.9833765754188
 21
420.5705241121927
 31
0.0
  0
LINE
  5
7A7D
330
7A57
100
AcDbEntity
  8
M01
100
AcDbLine
 10
624.4833765754188
 20
409.2077421121927
 30
0.0
 11
624.4833765754188
 21
392.7077421121927
 31
0.0
  0
LINE
  5
7A7E
330
7A57
100
AcDbEntity
  8
M01
100
AcDbLine
 10
626.9833765754189
 20
392.2077421121926
 30
0.0
 11
626.9833765754189
 21
409.2077421121927
 31
0.0
  0
LINE
  5
7A7F
330
7A57
100
AcDbEntity
  8
M01
100
AcDbLine
 10
632.4833765754188
 20
392.7077421121927
 30
0.0
 11
632.4833765754188
 21
409.2077421121927
 31
0.0
  0
LINE
  5
7A80
330
7A57
100
AcDbEntity
  8
M01
100
AcDbLine
 10
634.4833765754189
 20
425.2077421121927
 30
0.0
 11
634.4833765754189
 21
393.2077421121927
 31
0.0
  0
LINE
  5
7A81
330
7A57
100
AcDbEntity
  8
M01
100
AcDbLine
 10
633.9833765754189
 20
392.7077421121927
 30
0.0
 11
633.9833765754189
 21
425.7077421121927
 31
0.0
  0
LINE
  5
7A82
330
7A57
100
AcDbEntity
  8
M01
100
AcDbLine
 10
624.9833765754189
 20
392.2077421121926
 30
0.0
 11
624.9833765754189
 21
426.2077421121927
 31
0.0
  0
LINE
  5
7A83
330
7A57
100
AcDbEntity
  8
M01
100
AcDbLine
 10
631.3135045754189
 20
394.7077421121927
 30
0.0
 11
631.3135045754189
 21
423.7077421121926
 31
0.0
  0
LINE
  5
7A84
330
7A57
100
AcDbEntity
  8
M01
100
AcDbLine
 10
626.9833765754189
 20
392.2077421121926
 30
0.0
 11
624.9833765754189
 21
392.2077421121926
 31
0.0
  0
LINE
  5
7A85
330
7A57
100
AcDbEntity
  8
M01
100
AcDbLine
 10
624.4833765754188
 20
392.7077421121927
 30
0.0
 11
624.9833765754189
 21
392.2077421121926
 31
0.0
  0
LINE
  5
7A86
330
7A57
100
AcDbEntity
  8
M01
100
AcDbLine
 10
630.9833765754189
 20
394.5171441121927
 30
0.0
 11
630.9833765754189
 21
386.7077421121927
 31
0.0
  0
LINE
  5
7A87
330
7A57
100
AcDbEntity
  8
M01
100
AcDbLine
 10
630.9833765754189
 20
386.7077421121927
 30
0.0
 11
630.4833765754189
 21
386.2077421121927
 31
0.0
  0
LINE
  5
7A88
330
7A57
100
AcDbEntity
  8
M01
100
AcDbLine
 10
627.9833765754188
 20
386.7077421121927
 30
0.0
 11
630.9833765754189
 21
386.7077421121927
 31
0.0
  0
LINE
  5
7A89
330
7A57
100
AcDbEntity
  8
M01
100
AcDbLine
 10
627.9833765754188
 20
386.7077421121927
 30
0.0
 11
628.4833765754188
 21
386.2077421121927
 31
0.0
  0
LINE
  5
7A8A
330
7A57
100
AcDbEntity
  8
M01
100
AcDbLine
 10
630.4833765754189
 20
386.2077421121927
 30
0.0
 11
628.4833765754188
 21
386.2077421121927
 31
0.0
  0
ARC
  5
7A8B
330
7A57
100
AcDbEntity
  8
M01
100
AcDbCircle
 10
629.9863975754188
 20
392.7798591121927
 30
0.0
 40
2.003029
100
AcDbArc
 50
60.14968899999998
 51
179.850311
  0
LINE
  5
7A8C
330
7A57
100
AcDbEntity
  8
M01
100
AcDbLine
 10
627.9833765754188
 20
392.7850931121927
 30
0.0
 11
627.9833765754188
 21
386.7077421121927
 31
0.0
  0
LINE
  5
7A8D
330
7A57
100
AcDbEntity
  8
M01
100
AcDbLine
 10
626.9833765754189
 20
392.2077421121926
 30
0.0
 11
627.9833765754188
 21
392.7850931121927
 31
0.0
  0
LINE
  5
7A8E
330
7A57
100
AcDbEntity
  8
M01
100
AcDbLine
 10
633.9833765754189
 20
392.7077421121927
 30
0.0
 11
632.4833765754188
 21
392.7077421121927
 31
0.0
  0
LINE
  5
7A8F
330
7A57
100
AcDbEntity
  8
M01
100
AcDbLine
 10
634.4833765754189
 20
393.2077421121927
 30
0.0
 11
633.9833765754189
 21
392.7077421121927
 31
0.0
  0
LINE
  5
7A90
330
7A57
100
AcDbEntity
  8
M01
100
AcDbLine
 10
632.4833765754188
 20
394.7077421121927
 30
0.0
 11
631.3135045754189
 21
394.7077421121927
 31
0.0
  0
LINE
  5
7A91
330
7A57
100
AcDbEntity
  8
M01
100
AcDbLine
 10
630.9833765754189
 20
394.5171441121927
 30
0.0
 11
631.3135045754189
 21
394.7077421121927
 31
0.0
  0
LINE
  5
7A92
330
7A57
100
AcDbEntity
  8
M01
100
AcDbLine
 10
626.9833765754189
 20
426.2077421121927
 30
0.0
 11
624.9833765754189
 21
426.2077421121927
 31
0.0
  0
LINE
  5
7A93
330
7A57
100
AcDbEntity
  8
M01
100
AcDbLine
 10
624.4833765754188
 20
425.7077421121927
 30
0.0
 11
624.4833765754188
 21
409.2077421121927
 31
0.0
  0
LINE
  5
7A94
330
7A57
100
AcDbEntity
  8
M01
100
AcDbLine
 10
624.4833765754188
 20
425.7077421121927
 30
0.0
 11
624.9833765754189
 21
426.2077421121927
 31
0.0
  0
LINE
  5
7A95
330
7A57
100
AcDbEntity
  8
M01
100
AcDbLine
 10
626.9833765754189
 20
426.2077421121927
 30
0.0
 11
631.3135045754189
 21
423.7077421121926
 31
0.0
  0
LINE
  5
7A96
330
7A57
100
AcDbEntity
  8
M01
100
AcDbLine
 10
626.9833765754189
 20
426.2077421121927
 30
0.0
 11
626.9833765754189
 21
409.2077421121927
 31
0.0
  0
LINE
  5
7A97
330
7A57
100
AcDbEntity
  8
M01
100
AcDbLine
 10
632.4833765754188
 20
425.7077421121927
 30
0.0
 11
632.4833765754188
 21
409.2077421121927
 31
0.0
  0
LINE
  5
7A98
330
7A57
100
AcDbEntity
  8
M01
100
AcDbLine
 10
632.4833765754188
 20
423.7077421121926
 30
0.0
 11
631.3135045754189
 21
423.7077421121926
 31
0.0
  0
LINE
  5
7A99
330
7A57
100
AcDbEntity
  8
M01
100
AcDbLine
 10
633.9833765754189
 20
425.7077421121927
 30
0.0
 11
632.4833765754188
 21
425.7077421121927
 31
0.0
  0
LINE
  5
7A9A
330
7A57
100
AcDbEntity
  8
M01
100
AcDbLine
 10
633.9833765754189
 20
425.7077421121927
 30
0.0
 11
634.4833765754189
 21
425.2077421121927
 31
0.0
  0
LINE
  5
7A9B
330
7A57
100
AcDbEntity
  8
CENTRE
 48
0.7
100
AcDbLine
 10
568.3156328939749
 20
409.2077421121927
 30
0.0
 11
652.8003110954586
 21
409.2077421121927
 31
0.0
  0
LINE
  5
7A9C
330
7A57
100
AcDbEntity
  8
M04
100
AcDbLine
 10
622.4833765754188
 20
549.2077421121925
 30
0.0
 11
622.483376575419
 21
421.2077421121926
 31
0.0
  0
LINE
  5
7A9D
330
7A57
100
AcDbEntity
  8
M01
100
AcDbLine
 10
623.9833765754188
 20
421.2077421121927
 30
0.0
 11
623.983376575419
 21
448.3944672276916
 31
0.0
  0
LINE
  5
7A9E
330
7A57
100
AcDbEntity
  8
M01
100
AcDbLine
 10
626.4833765754189
 20
426.2077421121927
 30
0.0
 11
626.4833765754189
 21
448.3944672276916
 31
0.0
  0
ARC
  5
7A9F
330
7A57
100
AcDbEntity
  8
M03
 48
0.7
100
AcDbCircle
 10
647.4833765754189
 20
409.2077421121927
 30
0.0
 40
15.0
100
AcDbArc
 50
150.0735651333857
 51
209.9264348666141
  0
LINE
  5
7AA0
330
7A57
100
AcDbEntity
  8
M03
 48
0.7
100
AcDbLine
 10
588.9833765754189
 20
411.7077421121927
 30
0.0
 11
632.6931771176698
 21
411.7077421121927
 31
0.0
  0
LINE
  5
7AA1
330
7A57
100
AcDbEntity
  8
M03
 48
0.7
100
AcDbLine
 10
588.9833765754189
 20
406.7077421121927
 30
0.0
 11
632.6931771176698
 21
406.7077421121927
 31
0.0
  0
LINE
  5
7AA2
330
7A57
100
AcDbEntity
  8
M03
 48
0.7
100
AcDbLine
 10
583.9477318372182
 20
410.2077421121927
 30
0.0
 11
586.6920887279409
 21
410.2077421121927
 31
0.0
  0
LINE
  5
7AA3
330
7A57
100
AcDbEntity
  8
M03
 48
0.7
100
AcDbLine
 10
583.9477315754188
 20
408.2077421121927
 30
0.0
 11
586.6920887279409
 21
408.2077421121927
 31
0.0
  0
LINE
  5
7AA4
330
7A57
100
AcDbEntity
  8
M01
100
AcDbLine
 10
629.4833765754189
 20
491.2077421121927
 30
0.0
 11
626.983376575419
 21
491.2077421121927
 31
0.0
  0
LINE
  5
7AA5
330
7A57
100
AcDbEntity
  8
M04
100
AcDbLine
 10
593.4833765754189
 20
421.2077421121927
 30
0.0
 11
593.483376575419
 21
418.2077311121927
 31
0.0
  0
LINE
  5
7AA6
330
7A57
100
AcDbEntity
  8
M04
100
AcDbLine
 10
595.4833765754188
 20
423.2077421121927
 30
0.0
 11
622.483376575419
 21
423.2077421121928
 31
0.0
  0
LINE
  5
7AA7
330
7A57
100
AcDbEntity
  8
M04
100
AcDbLine
 10
595.483376575419
 20
395.2077421121927
 30
0.0
 11
624.483376575419
 21
395.2077421121927
 31
0.0
  0
ARC
  5
7AA8
330
7A57
100
AcDbEntity
  8
M04
100
AcDbCircle
 10
595.4833765754188
 20
421.2077421121927
 30
0.0
 40
2.0
100
AcDbArc
 50
90.0
 51
180.0
  0
ARC
  5
7AA9
330
7A57
100
AcDbEntity
  8
M04
100
AcDbCircle
 10
595.483376575419
 20
397.2077421121927
 30
0.0
 40
2.0
100
AcDbArc
 50
180.0
 51
270.0
  0
LINE
  5
7AAA
330
7A57
100
AcDbEntity
  8
M04
100
AcDbLine
 10
578.4833765754187
 20
430.1928457658632
 30
0.0
 11
578.483376575419
 21
388.3650203122227
 31
0.0
  0
LINE
  5
7AAB
330
7A57
100
AcDbEntity
  8
M04
100
AcDbLine
 10
593.483376575419
 20
400.2077311121927
 30
0.0
 11
593.483376575419
 21
397.2077421121927
 31
0.0
  0
LINE
  5
7AAC
330
7A57
100
AcDbEntity
  8
M04
100
AcDbLine
 10
626.9833765754189
 20
392.2077421121926
 30
0.0
 11
626.983376575419
 21
384.2077421121927
 31
0.0
  0
LINE
  5
7AAD
330
7A57
100
AcDbEntity
  8
M04
100
AcDbLine
 10
626.983376575419
 20
384.2077421121927
 30
0.0
 11
634.4833765754188
 21
384.2077421121927
 31
0.0
  0
LINE
  5
7AAE
330
7A57
100
AcDbEntity
  8
M04
100
AcDbLine
 10
634.4833765754189
 20
393.2077421121927
 30
0.0
 11
634.4833765754189
 21
378.9661072684996
 31
0.0
  0
LINE
  5
7AAF
330
7A57
100
AcDbEntity
  8
M04
100
AcDbLine
 10
624.4833765754188
 20
392.7077421121927
 30
0.0
 11
624.4833765754187
 21
392.2077421121926
 31
0.0
  0
LINE
  5
7AB0
330
7A57
100
AcDbEntity
  8
M04
100
AcDbLine
 10
624.9833765754189
 20
392.2077421121926
 30
0.0
 11
624.4833765754187
 21
392.2077421121926
 31
0.0
  0
LINE
  5
7AB1
330
7A57
100
AcDbEntity
  8
M04
100
AcDbLine
 10
634.4833765754189
 20
425.2077421121927
 30
0.0
 11
634.4833765754189
 21
549.2077421121925
 31
0.0
  0
LINE
  5
7AB2
330
7A57
100
AcDbEntity
  8
M04
100
AcDbLine
 10
634.4833765754189
 20
423.2077421121927
 30
0.0
 11
641.4833765754188
 21
423.2077421121927
 31
0.0
  0
LINE
  5
7AB3
330
7A57
100
AcDbEntity
  8
M04
100
AcDbLine
 10
634.4833765754189
 20
395.2077421121927
 30
0.0
 11
641.4833765754188
 21
395.2077421121927
 31
0.0
  0
LINE
  5
7AB4
330
7A57
100
AcDbEntity
  8
M04
100
AcDbLine
 10
641.4833765754188
 20
423.2077421121927
 30
0.0
 11
641.4833765754188
 21
395.2077421121927
 31
0.0
  0
LINE
  5
7AB5
330
7A57
100
AcDbEntity
  8
M04
100
AcDbLine
 10
641.4833765754188
 20
423.2077421121927
 30
0.0
 11
649.483376575419
 21
427.8265442657097
 31
0.0
  0
LINE
  5
7AB6
330
7A57
100
AcDbEntity
  8
M04
100
AcDbLine
 10
641.4833765754188
 20
395.2077421121927
 30
0.0
 11
649.483376575419
 21
390.5889399586758
 31
0.0
  0
LINE
  5
7AB7
330
7A57
100
AcDbEntity
  8
M04
100
AcDbLine
 10
578.4833765754188
 20
409.7077421121928
 30
0.0
 11
578.6333765754188
 21
409.7077421121928
 31
0.0
  0
LINE
  5
7AB8
330
7A57
100
AcDbEntity
  8
M04
100
AcDbLine
 10
578.4833765754188
 20
408.7077421121927
 30
0.0
 11
578.6333765754188
 21
408.7077421121927
 31
0.0
  0
LINE
  5
7AB9
330
7A57
100
AcDbEntity
  8
M04
100
AcDbLine
 10
578.6333765754188
 20
409.7077421121928
 30
0.0
 11
578.6333765754188
 21
408.7077421121927
 31
0.0
  0
LINE
  5
7ABA
330
7A57
100
AcDbEntity
  8
M04
100
AcDbLine
 10
578.6333765754188
 20
409.7077421121928
 30
0.0
 11
585.6689104813514
 21
416.7432760181254
 31
0.0
  0
LINE
  5
7ABB
330
7A57
100
AcDbEntity
  8
M04
100
AcDbLine
 10
591.4833765754188
 20
418.2077421121928
 30
0.0
 11
589.2044443872841
 21
418.2077421121927
 31
0.0
  0
LINE
  5
7ABC
330
7A57
100
AcDbEntity
  8
M01
100
AcDbLine
 10
632.2333765754191
 20
516.2077421121929
 30
0.0
 11
624.2333765754189
 21
516.2077421121925
 31
0.0
  0
LINE
  5
7ABD
330
7A57
100
AcDbEntity
  8
M01
100
AcDbLine
 10
632.2333765754191
 20
509.2077421121929
 30
0.0
 11
632.2333765754191
 21
516.2077421121929
 31
0.0
  0
LINE
  5
7ABE
330
7A57
100
AcDbEntity
  8
M01
100
AcDbLine
 10
629.4833765754189
 20
491.2077421121927
 30
0.0
 11
631.233376575419
 21
501.1324852965247
 31
0.0
  0
LINE
  5
7ABF
330
7A57
100
AcDbEntity
  8
M01
100
AcDbLine
 10
624.2333765754189
 20
509.2077421121926
 30
0.0
 11
624.2333765754189
 21
516.2077421121925
 31
0.0
  0
LINE
  5
7AC0
330
7A57
100
AcDbEntity
  8
M01
100
AcDbLine
 10
626.9833765754191
 20
491.2077421121927
 30
0.0
 11
625.2333765754187
 21
501.1324852965254
 31
0.0
  0
LINE
  5
7AC1
330
7A57
100
AcDbEntity
  8
M01
100
AcDbLine
 10
625.2333765754187
 20
501.1324852965254
 30
0.0
 11
625.2333765754188
 21
509.2077421121927
 31
0.0
  0
LINE
  5
7AC2
330
7A57
100
AcDbEntity
  8
M01
100
AcDbLine
 10
631.233376575419
 20
501.1324852965247
 30
0.0
 11
631.2333765754189
 21
509.2077421121928
 31
0.0
  0
LINE
  5
7AC3
330
7A57
100
AcDbEntity
  8
M01
100
AcDbLine
 10
625.2333765754187
 20
501.1324852965254
 30
0.0
 11
631.233376575419
 21
501.1324852965247
 31
0.0
  0
LINE
  5
7AC4
330
7A57
100
AcDbEntity
  8
M01
100
AcDbLine
 10
632.2333765754191
 20
509.2077421121929
 30
0.0
 11
624.2333765754189
 21
509.2077421121926
 31
0.0
  0
LINE
  5
7AC5
330
7A57
100
AcDbEntity
  8
M01
100
AcDbLine
 10
626.983376575419
 20
468.9078592275812
 30
0.0
 11
626.983376575419
 21
491.2077421121927
 31
0.0
  0
LINE
  5
7AC6
330
7A57
100
AcDbEntity
  8
M01
100
AcDbLine
 10
629.4833765754189
 20
468.9078592275812
 30
0.0
 11
629.4833765754189
 21
491.2077421121927
 31
0.0
  0
LINE
  5
7AC7
330
7A57
100
AcDbEntity
  8
CENTRE
 48
0.7
100
AcDbLine
 10
628.2333765754189
 20
484.6990083503516
 30
0.0
 11
628.233376575419
 21
547.0603851609264
 31
0.0
  0
ARC
  5
7AC8
330
7A57
100
AcDbEntity
  8
M01
100
AcDbCircle
 10
645.2333765754191
 20
448.3944672276916
 30
0.0
 40
21.25
100
AcDbArc
 50
170.0
 51
180.0
  0
LINE
  5
7AC9
330
7A57
100
AcDbEntity
  8
M01
100
AcDbLine
 10
624.3062118239097
 20
452.0844910031138
 30
0.0
 11
626.6985219443978
 21
465.6519558963264
 31
0.0
  0
ARC
  5
7ACA
330
7A57
100
AcDbEntity
  8
M01
100
AcDbCircle
 10
608.2333765754189
 20
468.9078592275812
 30
0.0
 40
18.75
100
AcDbArc
 50
350.0000000000003
 51
0.0
  0
ARC
  5
7ACB
330
7A57
100
AcDbEntity
  8
M01
100
AcDbCircle
 10
608.2333765754189
 20
468.9078592275812
 30
0.0
 40
21.25
100
AcDbArc
 50
350.0000000000003
 51
0.0
  0
LINE
  5
7ACC
330
7A57
100
AcDbEntity
  8
M01
100
AcDbLine
 10
626.7682312064403
 20
451.6503705589465
 30
0.0
 11
629.1605413269284
 21
465.2178354521591
 31
0.0
  0
ARC
  5
7ACD
330
7A57
100
AcDbEntity
  8
M01
100
AcDbCircle
 10
645.2333765754191
 20
448.3944672276916
 30
0.0
 40
18.75
100
AcDbArc
 50
170.0
 51
180.0
  0
LINE
  5
7ACE
330
7A57
100
AcDbEntity
  8
M01
100
AcDbLine
 10
625.2333765754188
 20
516.2077421121925
 30
0.0
 11
625.2333765754188
 21
542.4235718033469
 31
0.0
  0
LINE
  5
7ACF
330
7A57
100
AcDbEntity
  8
M01
100
AcDbLine
 10
631.2333765754187
 20
516.2077421121928
 30
0.0
 11
631.2333765754187
 21
542.4235718033469
 31
0.0
  0
HATCH
  5
7AD0
330
7A57
100
AcDbEntity
  8
M04
100
AcDbHatch
 10
0.0
 20
0.0
 30
0.0
210
0.0
220
0.0
230
1.0
  2
_U
 70
     0
 71
     0
 91
        2
 92
        7
 72
     0
 73
     1
 93
        4
 10
628.233376575419
 20
542.4235718033469
 10
625.2333765754189
 20
542.423571803347
 10
625.2333765754189
 20
516.2077421121925
 10
628.2333765754189
 20
516.2077421121927
 97
        0
 92
        7
 72
     0
 73
     1
 93
        4
 10
631.2333765754187
 20
542.4235718033469
 10
628.2333765754189
 20
542.4235718033469
 10
628.233376575419
 20
516.2077421121925
 10
631.2333765754187
 20
516.2077421121928
 97
        0
 75
     0
 76
     0
 52
45.0
 41
1.0
 77
     1
 78
     2
 53
45.0
 43
-153.8137618081477
 44
75.32883416800586
 45
-0.7071067811865475
 46
0.7071067811865476
 79
     0
 53
135.0
 43
-153.8137618081477
 44
75.32883416800586
 45
-0.7071067811865476
 46
-0.7071067811865475
 79
     0
 47
0.0843056911458626
 98
        2
 10
627.4067951388214
 20
526.574101817677
 10
630.0212994969029
 20
527.2485468012953
  0
ARC
  5
7AD1
330
7A57
100
AcDbEntity
  8
M04
100
AcDbCircle
 10
589.2044443872841
 20
413.2077421121927
 30
0.0
 40
5.0
100
AcDbArc
 50
90.0
 51
135.0
  0
LINE
  5
7AD2
330
7A57
100
AcDbEntity
  8
M04
100
AcDbLine
 10
578.6333765754188
 20
408.7077421121927
 30
0.0
 11
585.6689104813514
 21
401.67220820626
 31
0.0
  0
LINE
  5
7AD3
330
7A57
100
AcDbEntity
  8
M04
100
AcDbLine
 10
591.4833765754188
 20
400.2077421121927
 30
0.0
 11
589.2044443872841
 21
400.2077421121928
 31
0.0
  0
ARC
  5
7AD4
330
7A57
100
AcDbEntity
  8
M04
100
AcDbCircle
 10
589.2044443872841
 20
405.2077421121928
 30
0.0
 40
5.0
100
AcDbArc
 50
225.0
 51
270.0
  0
ARC
  5
7AD5
330
7A57
100
AcDbEntity
  8
M03
100
AcDbCircle
 10
588.9833765754189
 20
409.2077421121927
 30
0.0
 40
2.5
100
AcDbArc
 50
90.0
 51
270.0
  0
LINE
  5
7AD6
330
7A57
100
AcDbEntity
  8
CENTRE
 48
0.7
100
AcDbLine
 10
629.4833765754189
 20
380.966125298301
 30
0.0
 11
629.4833765754189
 21
398.8637378101055
 31
0.0
  0
TEXT
  5
7AD7
330
7A57
100
AcDbEntity
  8
TEXT
100
AcDbText
 10
604.4316093528177
 20
415.3734497655206
 30
0.0
 40
2.0
  1
DG010001
 41
0.9
100
AcDbText
  0
DIMENSION
  5
7AD8
330
7A57
100
AcDbEntity
  8
DIMS
100
AcDbDimension
  2
*D6
 10
593.483376575419
 20
365.2875996547109
 30
0.0
 11
585.9833765754189
 21
368.2875996547109
 31
0.0
 12
-153.8137618081477
 22
75.32883416800586
 32
0.0
 70
    32
  1
15.0
 71
     5
 42
-1.0
  3
DIM1
100
AcDbAlignedDimension
 13
578.483376575419
 23
388.3650203122227
 33
0.0
 14
593.483376575419
 24
397.2077421121927
 34
0.0
100
AcDbRotatedDimension
1001
ACAD
1000
DSTYLE
1002
{
1070
   144
1040
1.0
1002
}
  0
DIMENSION
  5
7AD9
330
7A57
100
AcDbEntity
  8
DIMS
100
AcDbDimension
  2
*D7
 10
634.4833765754189
 20
365.2875996547109
 30
0.0
 11
613.983376575419
 21
368.2875996547109
 31
0.0
 12
-153.8137618081477
 22
75.32883416800586
 32
0.0
 70
    32
  1
N=<>
 71
     5
 42
-1.0
  3
DIM1
100
AcDbAlignedDimension
 13
593.483376575419
 23
397.2077421121927
 33
0.0
 14
634.4833765754189
 24
378.9661072684996
 34
0.0
100
AcDbRotatedDimension
1001
ACAD
1000
DSTYLE
1002
{
1070
    75
1070
     1
1070
   144
1040
1.0
1070
   279
1070
     1
1070
   289
1070
     3
1002
}
  0
DIMENSION
  5
7ADA
330
7A57
100
AcDbEntity
  8
DIMS
100
AcDbDimension
  2
*D8
 10
624.4833765754187
 20
355.3354620034718
 30
0.0
 11
601.4833765754189
 21
358.3354620034718
 31
0.0
 12
-153.8137618081477
 22
75.32883416800586
 32
0.0
 70
    32
  1
L1=<>
 71
     5
 42
-1.0
  3
DIM1
100
AcDbAlignedDimension
 13
578.483376575419
 23
388.3650203122227
 33
0.0
 14
624.4833765754187
 24
392.2077421121926
 34
0.0
100
AcDbRotatedDimension
1001
ACAD
1000
DSTYLE
1002
{
1070
   144
1040
1.0
1002
}
  0
DIMENSION
  5
7ADB
330
7A57
100
AcDbEntity
  8
DIMS
100
AcDbDimension
  2
*D9
 10
634.4833765754189
 20
345.3354620034718
 30
0.0
 11
606.4833765754189
 21
348.3354620034718
 31
0.0
 12
-153.8137618081477
 22
75.32883416800586
 32
0.0
 70
    32
  1
L=<>
 71
     5
 42
-1.0
  3
DIM1
100
AcDbAlignedDimension
 13
578.483376575419
 23
388.3650203122227
 33
0.0
 14
634.4833765754189
 24
378.9661072684996
 34
0.0
100
AcDbRotatedDimension
1001
ACAD
1000
DSTYLE
1002
{
1070
   144
1040
1.0
1002
}
  0
DIMENSION
  5
7ADC
330
7A57
100
AcDbEntity
  8
DIMS
100
AcDbDimension
  2
*D10
 10
556.3036342093746
 20
400.2077421121928
 30
0.0
 11
553.3036342093746
 21
409.2077421121927
 31
0.0
 12
-153.8137618081477
 22
75.32883416800586
 32
0.0
 70
    32
  1
%%c<>
 71
     5
 42
-1.0
  3
DIM1
100
AcDbAlignedDimension
 13
589.2044443872841
 23
418.2077421121927
 33
0.0
 14
589.204444387284
 24
400.2077421121928
 34
0.0
 50
90.0
100
AcDbRotatedDimension
1001
ACAD
1000
DSTYLE
1002
{
1070
   144
1040
1.0
1002
}
  0
DIMENSION
  5
7ADD
330
7A57
100
AcDbEntity
  8
DIMS
100
AcDbDimension
  2
*D11
 10
662.9399971282817
 20
426.2077421121927
 30
0.0
 11
662.9399971282817
 21
404.4690727446861
 31
0.0
 70
   160
  1
%%c<>
 71
     5
 42
-1.0
  3
DIM1
100
AcDbAlignedDimension
 13
626.9833765754189
 23
392.2077421121926
 33
0.0
 14
626.9833765754189
 24
426.2077421121927
 34
0.0
 50
90.0
100
AcDbRotatedDimension
1001
ACAD
1000
DSTYLE
1002
{
1070
   144
1040
1.0
1002
}
  0
TEXT
  5
7ADE
330
7A57
100
AcDbEntity
  8
DIMS
 62
     2
100
AcDbText
 10
657.8498778265418
 20
413.720203919692
 30
0.0
 40
2.0
  1
+0.025
 50
90.0
100
AcDbText
  0
TEXT
  5
7ADF
330
7A57
100
AcDbEntity
  8
DIMS
 62
     2
100
AcDbText
 10
660.9347981983626
 20
413.720203919692
 30
0.0
 40
2.0
  1
-0
 50
90.0
100
AcDbText
  0
TEXT
  5
7AE0
330
7A57
100
AcDbEntity
  8
DIMS
 62
     2
100
AcDbText
 10
551.8828379338983
 20
419.7334375453642
 30
0.0
 40
2.0
  1
+0.018
 50
90.0
100
AcDbText
  0
TEXT
  5
7AE1
330
7A57
100
AcDbEntity
  8
DIMS
 62
     2
100
AcDbText
 10
554.9677583057191
 20
419.7334375453642
 30
0.0
 40
2.0
  1
-0
 50
90.0
100
AcDbText
  0
LINE
  5
7AE2
330
7A57
100
AcDbEntity
  8
CENTRE
100
AcDbLine
 10
515.7387716623138
 20
409.2077421121927
 30
0.0
 11
466.1058629161024
 21
409.2077421121927
 31
0.0
  0
POINT
  5
7AE3
330
7A57
100
AcDbEntity
  8
DEFPOINTS
  6
ByBlock
 62
     0
100
AcDbPoint
 10
635.1214228467802
 20
410.2826360397976
 30
0.0
  0
CIRCLE
  5
7AE4
330
7A57
100
AcDbEntity
  8
M04
100
AcDbCircle
 10
578.4833765754188
 20
409.2077421121927
 30
0.0
 40
1.25
  0
LINE
  5
7AE5
330
7A57
100
AcDbEntity
  8
0
  6
ByBlock
 62
     4
100
AcDbLine
 10
576.8553380598929
 20
413.1335529318787
 30
0.0
 11
565.5196236773771
 21
440.4682073318602
 31
0.0
  0
LINE
  5
7AE6
330
7A57
100
AcDbEntity
  8
0
  6
ByBlock
 62
     4
100
AcDbLine
 10
565.5196236773771
 20
440.4682073318602
 30
0.0
 11
562.5196236773772
 21
440.4682073318602
 31
0.0
  0
SOLID
  5
7AE7
330
7A57
100
AcDbEntity
  8
0
  6
ByBlock
 62
     4
100
AcDbTrace
 10
577.3171981563267
 20
413.3250868748818
 30
0.0
 11
576.3934779634594
 21
412.9420189888758
 31
0.0
 12
578.0045417179112
 22
410.3623923532768
 32
0.0
 13
578.0045417179112
 23
410.3623923532768
 33
0.0
  0
MTEXT
  5
7AE8
330
7A57
100
AcDbEntity
  8
0
  6
ByBlock
 62
     2
100
AcDbMText
 10
545.5386705173482
 20
440.46820733186
 30
0.0
 40
3.0
 41
0.0
 71
     5
 72
     1
  1
INSERT POINT
 73
     1
 44
1.0
  0
POINT
  5
7AE9
330
7A57
100
AcDbEntity
  8
DEFPOINTS
  6
ByBlock
 62
     0
100
AcDbPoint
 10
578.0045417179112
 20
410.3623923532768
 30
0.0
  0
CIRCLE
  5
7AEA
330
7A57
100
AcDbEntity
  8
M01
100
AcDbCircle
 10
490.9223172892081
 20
409.2077421121927
 30
0.0
 40
8.999999999999943
  0
CIRCLE
  5
7AEB
330
7A57
100
AcDbEntity
  8
M01
100
AcDbCircle
 10
490.9223172892081
 20
409.2077421121927
 30
0.0
 40
11.36278199999998
  0
CIRCLE
  5
7AEC
330
7A57
100
AcDbEntity
  8
M01
100
AcDbCircle
 10
490.9223172892081
 20
409.2077421121927
 30
0.0
 40
12.0
  0
CIRCLE
  5
7AED
330
7A57
100
AcDbEntity
  8
M04
100
AcDbCircle
 10
490.9223172892081
 20
409.2077421121927
 30
0.0
 40
14.0
  0
CIRCLE
  5
7AEE
330
7A57
100
AcDbEntity
  8
M01
100
AcDbCircle
 10
490.9223172892081
 20
409.2077421121927
 30
0.0
 40
16.99999999999994
  0
ELLIPSE
  5
7AEF
330
7A57
100
AcDbEntity
  8
M01
100
AcDbEllipse
 10
490.9223172892081
 20
406.6282144060997
 30
0.0
 11
0.0
 21
-1.152395732798026
 31
0.0
210
0.0
220
0.0
230
1.0
 40
0.8677574651999025
 41
0.0
 42
6.283185307179586
  0
CIRCLE
  5
7AF0
330
7A57
100
AcDbEntity
  8
M01
100
AcDbCircle
 10
490.9223172892081
 20
409.2077421121927
 30
0.0
 40
5.5
  0
CIRCLE
  5
7AF1
330
7A57
100
AcDbEntity
  8
M01
100
AcDbCircle
 10
490.9223172892081
 20
409.2077421121927
 30
0.0
 40
8.49998899999997
  0
CIRCLE
  5
7AF2
330
7A57
100
AcDbEntity
  8
M01
100
AcDbCircle
 10
490.9223172892081
 20
409.2077421121927
 30
0.0
 40
9.499500000000011
  0
ARC
  5
7AF3
330
7A57
100
AcDbEntity
  8
M03
100
AcDbCircle
 10
490.9223172892081
 20
409.2077421121927
 30
0.0
 40
2.5
100
AcDbArc
 50
292.8535828289421
 51
67.14641717105536
  0
ELLIPSE
  5
7AF4
330
7A57
100
AcDbEntity
  8
M01
100
AcDbEllipse
 10
490.9223172892081
 20
411.7872698182858
 30
0.0
 11
0.0
 21
1.152395732798026
 31
0.0
210
0.0
220
0.0
230
-1.0
 40
0.8677574651999025
 41
0.0
 42
6.283185307179586
  0
ARC
  5
7AF5
330
7A57
100
AcDbEntity
  8
M03
100
AcDbCircle
 10
490.9223172892081
 20
409.2077421121927
 30
0.0
 40
2.5
100
AcDbArc
 50
112.8535828289451
 51
247.1464171710583
  0
ARC
  5
7AF6
330
7A57
100
AcDbEntity
  8
M01
100
AcDbCircle
 10
490.9223172892081
 20
409.2077421121927
 30
0.0
 40
2.499999999999982
100
AcDbArc
 50
67.14641717084997
 51
112.8535828289421
  0
ARC
  5
7AF7
330
7A57
100
AcDbEntity
  8
M01
100
AcDbCircle
 10
490.9223172892081
 20
409.2077421121927
 30
0.0
 40
2.499999999999982
100
AcDbArc
 50
247.1464171710578
 51
292.85358282915
  0
LWPOLYLINE
  5
7AF8
330
7A57
100
AcDbEntity
  8
M01
100
AcDbPolyline
 90
        2
 70
     0
 43
0.0
 10
495.4066307725065
 20
412.392225207376
 10
491.4380038059097
 20
414.6835130548539
  0
LWPOLYLINE
  5
7AF9
330
7A57
100
AcDbEntity
  8
M01
100
AcDbPolyline
 90
        2
 70
     0
 43
0.0
 10
490.4066307725065
 20
414.6835130548539
 10
486.4380038059096
 20
412.392225207376
  0
LWPOLYLINE
  5
7AFA
330
7A57
100
AcDbEntity
  8
M01
100
AcDbPolyline
 90
        2
 70
     0
 43
0.0
 10
485.9223172892081
 20
411.4990299596707
 10
485.9223172892081
 20
406.9164542647148
  0
LWPOLYLINE
  5
7AFB
330
7A57
100
AcDbEntity
  8
M01
100
AcDbPolyline
 90
        2
 70
     0
 43
0.0
 10
486.4380038059096
 20
406.0232590170095
 10
490.4066307725065
 20
403.7319711695316
  0
LWPOLYLINE
  5
7AFC
330
7A57
100
AcDbEntity
  8
M01
100
AcDbPolyline
 90
        2
 70
     0
 43
0.0
 10
491.4380038059097
 20
403.7319711695316
 10
495.4066307725065
 20
406.0232590170095
  0
LWPOLYLINE
  5
7AFD
330
7A57
100
AcDbEntity
  8
M01
100
AcDbPolyline
 90
        2
 70
     0
 43
0.0
 10
495.9223172892081
 20
406.9164542647158
 10
495.9223172892081
 20
411.4990299596716
  0
LINE
  5
7AFE
330
7A57
100
AcDbEntity
  8
M04
100
AcDbLine
 10
498.9223172892081
 20
549.2077421121926
 30
0.0
 11
498.9223172892081
 21
424.2077421121926
 31
0.0
  0
LINE
  5
7AFF
330
7A57
100
AcDbEntity
  8
M04
100
AcDbLine
 10
482.922317289208
 20
549.2077421121926
 30
0.0
 11
482.9223172892081
 21
424.2077421121926
 31
0.0
  0
LINE
  5
7B00
330
7A57
100
AcDbEntity
  8
M01
100
AcDbLine
 10
492.4223172892081
 20
392.2740478903167
 30
0.0
 11
492.4223172892081
 21
386.7077421121927
 31
0.0
  0
LINE
  5
7B01
330
7A57
100
AcDbEntity
  8
M01
100
AcDbLine
 10
492.4223172892081
 20
386.7077421121927
 30
0.0
 11
491.9223172892081
 21
386.2077421121927
 31
0.0
  0
LINE
  5
7B02
330
7A57
100
AcDbEntity
  8
M01
100
AcDbLine
 10
489.4223172892081
 20
386.7077421121927
 30
0.0
 11
492.4223172892081
 21
386.7077421121927
 31
0.0
  0
LINE
  5
7B03
330
7A57
100
AcDbEntity
  8
M01
100
AcDbLine
 10
489.4223172892081
 20
386.7077421121927
 30
0.0
 11
489.9223172892081
 21
386.2077421121927
 31
0.0
  0
LINE
  5
7B04
330
7A57
100
AcDbEntity
  8
M01
100
AcDbLine
 10
491.9223172892081
 20
386.2077421121927
 30
0.0
 11
489.9223172892081
 21
386.2077421121927
 31
0.0
  0
LINE
  5
7B05
330
7A57
100
AcDbEntity
  8
M01
100
AcDbLine
 10
489.4223172892081
 20
392.2740478903167
 30
0.0
 11
489.4223172892081
 21
386.7077421121927
 31
0.0
  0
LINE
  5
7B06
330
7A57
100
AcDbEntity
  8
M04
100
AcDbLine
 10
489.4223172892081
 20
386.7077421121927
 30
0.0
 11
489.4223172892082
 21
385.7077421121927
 31
0.0
  0
LINE
  5
7B07
330
7A57
100
AcDbEntity
  8
M04
100
AcDbLine
 10
492.4223172892081
 20
386.7077421121927
 30
0.0
 11
492.4223172892081
 21
385.7077421121927
 31
0.0
  0
ARC
  5
7B08
330
7A57
100
AcDbEntity
  8
M04
100
AcDbCircle
 10
490.9223172892081
 20
385.7077421121927
 30
0.0
 40
1.5
100
AcDbArc
 50
180.0
 51
0.0
  0
LINE
  5
7B09
330
7A57
100
AcDbEntity
  8
M01
100
AcDbLine
 10
488.672317289208
 20
491.2077421121927
 30
0.0
 11
486.1723172892081
 21
491.2077421121927
 31
0.0
  0
LINE
  5
7B0A
330
7A57
100
AcDbEntity
  8
M01
100
AcDbLine
 10
491.4223172892082
 20
516.2077421121929
 30
0.0
 11
483.4223172892079
 21
516.2077421121925
 31
0.0
  0
LINE
  5
7B0B
330
7A57
100
AcDbEntity
  8
M01
100
AcDbLine
 10
491.4223172892082
 20
509.2077421121929
 30
0.0
 11
491.4223172892082
 21
516.2077421121929
 31
0.0
  0
LINE
  5
7B0C
330
7A57
100
AcDbEntity
  8
M01
100
AcDbLine
 10
488.672317289208
 20
491.2077421121927
 30
0.0
 11
490.4223172892081
 21
501.1324852965247
 31
0.0
  0
LINE
  5
7B0D
330
7A57
100
AcDbEntity
  8
M01
100
AcDbLine
 10
483.4223172892079
 20
509.2077421121926
 30
0.0
 11
483.4223172892079
 21
516.2077421121925
 31
0.0
  0
LINE
  5
7B0E
330
7A57
100
AcDbEntity
  8
M01
100
AcDbLine
 10
486.1723172892082
 20
491.2077421121927
 30
0.0
 11
484.4223172892077
 21
501.1324852965254
 31
0.0
  0
LINE
  5
7B0F
330
7A57
100
AcDbEntity
  8
M01
100
AcDbLine
 10
484.4223172892077
 20
501.1324852965254
 30
0.0
 11
484.4223172892078
 21
509.2077421121927
 31
0.0
  0
LINE
  5
7B10
330
7A57
100
AcDbEntity
  8
M01
100
AcDbLine
 10
490.4223172892081
 20
501.1324852965247
 30
0.0
 11
490.422317289208
 21
509.2077421121928
 31
0.0
  0
LINE
  5
7B11
330
7A57
100
AcDbEntity
  8
M01
100
AcDbLine
 10
484.4223172892077
 20
501.1324852965254
 30
0.0
 11
490.4223172892081
 21
501.1324852965247
 31
0.0
  0
LINE
  5
7B12
330
7A57
100
AcDbEntity
  8
M01
100
AcDbLine
 10
491.4223172892082
 20
509.2077421121929
 30
0.0
 11
483.4223172892079
 21
509.2077421121926
 31
0.0
  0
LINE
  5
7B13
330
7A57
100
AcDbEntity
  8
M01
100
AcDbLine
 10
486.172317289208
 20
425.5306554550981
 30
0.0
 11
486.1723172892081
 21
491.2077421121927
 31
0.0
  0
LINE
  5
7B14
330
7A57
100
AcDbEntity
  8
M01
100
AcDbLine
 10
488.6723172892081
 20
426.0581872101715
 30
0.0
 11
488.672317289208
 21
491.2077421121927
 31
0.0
  0
LINE
  5
7B15
330
7A57
100
AcDbEntity
  8
CENTRE
 48
0.7
100
AcDbLine
 10
487.4223172892079
 20
484.6069879482461
 30
0.0
 11
487.4223172892081
 21
547.0603851609264
 31
0.0
  0
LINE
  5
7B16
330
7A57
100
AcDbEntity
  8
M01
100
AcDbLine
 10
484.4223172892078
 20
516.2077421121925
 30
0.0
 11
484.4223172892078
 21
542.4235718033469
 31
0.0
  0
LINE
  5
7B17
330
7A57
100
AcDbEntity
  8
M01
100
AcDbLine
 10
490.4223172892079
 20
516.2077421121928
 30
0.0
 11
490.4223172892079
 21
542.4235718033469
 31
0.0
  0
HATCH
  5
7B18
330
7A57
100
AcDbEntity
  8
M04
100
AcDbHatch
 10
0.0
 20
0.0
 30
0.0
210
0.0
220
0.0
230
1.0
  2
_U
 70
     0
 71
     0
 91
        2
 92
        7
 72
     0
 73
     1
 93
        4
 10
487.4223172892081
 20
542.4235718033469
 10
484.422317289208
 20
542.423571803347
 10
484.422317289208
 20
516.2077421121925
 10
487.4223172892079
 20
516.2077421121927
 97
        0
 92
        7
 72
     0
 73
     1
 93
        4
 10
490.4223172892079
 20
542.4235718033469
 10
487.4223172892079
 20
542.4235718033469
 10
487.4223172892081
 20
516.2077421121925
 10
490.4223172892079
 20
516.2077421121928
 97
        0
 75
     0
 76
     0
 52
45.0
 41
1.0
 77
     1
 78
     2
 53
45.0
 43
-294.6248210943586
 44
75.32883416800586
 45
-0.7071067811865475
 46
0.7071067811865476
 79
     0
 53
135.0
 43
-294.6248210943586
 44
75.32883416800586
 45
-0.7071067811865476
 46
-0.7071067811865475
 79
     0
 47
0.0843056911458626
 98
        2
 10
486.5957358526106
 20
526.574101817677
 10
489.210240210692
 20
527.2485468012953
  0
LINE
  5
7B19
330
7A57
100
AcDbEntity
  8
CENTRE
 48
0.7
100
AcDbLine
 10
490.9223172892079
 20
379.2077421121927
 30
0.0
 11
490.9223172892079
 21
439.2077421121928
 31
0.0
  0
LINE
  5
7B1A
330
7A57
100
AcDbEntity
  8
M01
 48
0.7
100
AcDbLine
 10
491.9223172892078
 20
426.1783048606698
 30
0.0
 11
491.9223172892078
 21
437.1062065647089
 31
0.0
  0
LINE
  5
7B1B
330
7A57
100
AcDbEntity
  8
M01
 48
0.7
100
AcDbLine
 10
489.9223172892079
 20
426.1783048606698
 30
0.0
 11
489.9223172892079
 21
437.1062065647089
 31
0.0
  0
LINE
  5
7B1C
330
7A57
100
AcDbEntity
  8
M01
 48
0.7
100
AcDbLine
 10
496.3989047114204
 20
465.9937419672691
 30
0.0
 11
496.3989047114203
 21
484.2077421121927
 31
0.0
  0
LINE
  5
7B1D
330
7A57
100
AcDbEntity
  8
M01
 48
0.7
100
AcDbLine
 10
494.3989047114206
 20
465.9937419672695
 30
0.0
 11
494.3989047114205
 21
484.2077421121928
 31
0.0
  0
LINE
  5
7B1E
330
7A57
100
AcDbEntity
  8
CENTRE
100
AcDbLine
 10
495.3989047114204
 20
481.5465999379028
 30
0.0
 11
495.3989047114204
 21
542.7586530885361
 31
0.0
  0
ARC
  5
7B1F
330
7A57
100
AcDbEntity
  8
M01
100
AcDbCircle
 10
510.9223172892079
 20
437.1062065647089
 30
0.0
 40
21.0
100
AcDbArc
 50
169.9999999999999
 51
180.0
  0
LINE
  5
7B20
330
7A57
100
AcDbEntity
  8
M01
100
AcDbLine
 10
494.1102520186525
 20
462.6944265915979
 30
0.0
 11
490.2413544759515
 21
440.7528182957144
 31
0.0
  0
ARC
  5
7B21
330
7A57
100
AcDbEntity
  8
M01
100
AcDbCircle
 10
510.9223172892079
 20
437.1062065647089
 30
0.0
 40
19.0
100
AcDbArc
 50
169.9999999999999
 51
180.0
  0
LINE
  5
7B22
330
7A57
100
AcDbEntity
  8
M01
100
AcDbLine
 10
496.0798675246768
 20
462.3471302362633
 30
0.0
 11
492.2109699819759
 21
440.4055219403806
 31
0.0
  0
LINE
  5
7B23
330
7A57
100
AcDbEntity
  8
M01
100
AcDbLine
 10
497.1489047114205
 20
484.2077421121927
 30
0.0
 11
493.6489047114206
 21
484.2077421121929
 31
0.0
  0
LINE
  5
7B24
330
7A57
100
AcDbEntity
  8
M01
100
AcDbLine
 10
497.6489047114204
 20
514.2077421121928
 30
0.0
 11
493.1489047114207
 21
514.2077421121928
 31
0.0
  0
LINE
  5
7B25
330
7A57
100
AcDbEntity
  8
M01
100
AcDbLine
 10
497.6489047114205
 20
489.2077421121927
 30
0.0
 11
493.1489047114206
 21
489.2077421121928
 31
0.0
  0
LINE
  5
7B26
330
7A57
100
AcDbEntity
  8
M01
 48
0.7
100
AcDbLine
 10
493.6489047114206
 20
484.2077421121929
 30
0.0
 11
493.6489047114206
 21
489.2077421121928
 31
0.0
  0
LINE
  5
7B27
330
7A57
100
AcDbEntity
  8
M01
 48
0.7
100
AcDbLine
 10
497.1489047114205
 20
484.2077421121927
 30
0.0
 11
497.1489047114205
 21
489.2077421121927
 31
0.0
  0
LINE
  5
7B28
330
7A57
100
AcDbEntity
  8
M01
100
AcDbLine
 10
497.6489047114204
 20
509.2077421121927
 30
0.0
 11
493.1489047114206
 21
509.2077421121929
 31
0.0
  0
LINE
  5
7B29
330
7A57
100
AcDbEntity
  8
M01
 48
0.7
100
AcDbLine
 10
497.6489047114205
 20
489.2077421121927
 30
0.0
 11
497.6489047114204
 21
514.2077421121928
 31
0.0
  0
LINE
  5
7B2A
330
7A57
100
AcDbEntity
  8
M01
 48
0.7
100
AcDbLine
 10
493.1489047114206
 20
489.2077421121928
 30
0.0
 11
493.1489047114207
 21
514.2077421121928
 31
0.0
  0
LINE
  5
7B2B
330
7A57
100
AcDbEntity
  8
M01
100
AcDbLine
 10
493.6489047114206
 20
514.2077421121927
 30
0.0
 11
493.6489047114206
 21
538.717277700464
 31
0.0
  0
LINE
  5
7B2C
330
7A57
100
AcDbEntity
  8
M01
100
AcDbLine
 10
497.1489047114205
 20
514.2077421121928
 30
0.0
 11
497.1489047114205
 21
538.717277700464
 31
0.0
  0
HATCH
  5
7B2D
330
7A57
100
AcDbEntity
  8
M04
100
AcDbHatch
 10
0.0
 20
0.0
 30
0.0
210
0.0
220
0.0
230
1.0
  2
_U
 70
     0
 71
     0
 91
        2
 92
        7
 72
     0
 73
     1
 93
        4
 10
495.3989047114204
 20
538.717277700464
 10
493.6489047114206
 20
538.717277700464
 10
493.6489047114206
 20
514.2077421121928
 10
495.3989047114204
 20
514.2077421121928
 97
        0
 92
        7
 72
     0
 73
     1
 93
        4
 10
497.1489047114205
 20
538.717277700464
 10
495.3989047114204
 20
538.717277700464
 10
495.3989047114204
 20
514.2077421121928
 10
497.1489047114205
 20
514.2077421121928
 97
        0
 75
     0
 76
     0
 52
45.0
 41
0.75
 77
     1
 78
     2
 53
45.0
 43
579.9599639976314
 44
409.2077421121927
 45
-0.5303300858899106
 46
0.5303300858899107
 79
     0
 53
135.0
 43
579.9599639976314
 44
409.2077421121927
 45
-0.5303300858899107
 46
-0.5303300858899106
 79
     0
 47
0.0985701327119849
 98
        2
 10
494.4684416393269
 20
517.7218388240937
 10
496.1447912069767
 20
518.2146895953277
  0
ARC
  5
7B2E
330
7A57
100
AcDbEntity
  8
M01
 48
0.7
100
AcDbCircle
 10
475.3989047114204
 20
465.9937419672689
 30
0.0
 40
21.0
100
AcDbArc
 50
349.9999999999998
 51
0.0000000000004834
  0
ARC
  5
7B2F
330
7A57
100
AcDbEntity
  8
M01
 48
0.7
100
AcDbCircle
 10
475.3989047114205
 20
465.9937419672696
 30
0.0
 40
19.0
100
AcDbArc
 50
349.9999999999998
 51
359.9999999999997
  0
TEXT
  5
7B30
330
7A57
100
AcDbEntity
  8
TEXT
100
AcDbText
 10
396.0487417630144
 20
337.5028045834072
 30
0.0
 40
4.0
  1
%%UNOTE
100
AcDbText
  0
TEXT
  5
7B31
330
7A57
100
AcDbEntity
  8
TEXT
100
AcDbText
 10
376.4754399465047
 20
329.0627343433275
 30
0.0
 40
3.0
  1
1. AN ALLOWANCE FOR EXPANSION OF THE BUSHING MUST BE MADE DEPENDENT ON THE
100
AcDbText
  0
TEXT
  5
7B32
330
7A57
100
AcDbEntity
  8
TEXT
100
AcDbText
 10
376.4754399465047
 20
316.4681372019292
 30
0.0
 40
3.0
  1
2. %%C18.00 MUST BE A GROUND FIT, DO NOT SPARK ERODE.
100
AcDbText
  0
TEXT
  5
7B33
330
7A57
100
AcDbEntity
  8
TEXT
100
AcDbText
 10
382.9428501849605
 20
323.7523044098559
 30
0.0
 40
3.0
  1
MATERIAL TO BE MOULDED AND THE PROCESS CONDITIONS - SEE CATALOGUE FOR DETAILS
100
AcDbText
  0
ENDBLK
  5
7B35
330
7A57
100
AcDbEntity
  8
0
100
AcDbBlockEnd
  0
BLOCK
  5
7B40
330
7B36
100
AcDbEntity
  8
0
100
AcDbBlockBegin
  2
*D13
 70
     1
 10
0.0
 20
0.0
 30
0.0
  3
*D13
  1

  0
LINE
  5
7B37
330
7B36
100
AcDbEntity
  8
DIMS
 62
     4
370
    -2
100
AcDbLine
 10
578.4833765754191
 20
393.2077421121927
 30
0.0
 11
578.4833765754191
 21
362.7875996547109
 31
0.0
  0
LINE
  5
7B38
330
7B36
100
AcDbEntity
  8
DIMS
 62
     4
370
    -2
100
AcDbLine
 10
593.483376575419
 20
396.2077421121927
 30
0.0
 11
593.483376575419
 21
362.7875996547109
 31
0.0
  0
LINE
  5
7B39
330
7B36
100
AcDbEntity
  8
DIMS
 62
     4
370
    -2
100
AcDbLine
 10
581.4833765754191
 20
365.2875996547109
 30
0.0
 11
590.4833765754189
 21
365.2875996547109
 31
0.0
  0
SOLID
  5
7B3A
330
7B36
100
AcDbEntity
  8
DIMS
 62
     4
100
AcDbTrace
 10
581.4833765754191
 20
365.7875996547109
 30
0.0
 11
581.4833765754191
 21
364.7875996547109
 31
0.0
 12
578.4833765754191
 22
365.2875996547109
 32
0.0
 13
578.4833765754191
 23
365.2875996547109
 33
0.0
  0
SOLID
  5
7B3B
330
7B36
100
AcDbEntity
  8
DIMS
 62
     4
100
AcDbTrace
 10
590.4833765754189
 20
365.7875996547109
 30
0.0
 11
590.4833765754189
 21
364.7875996547109
 31
0.0
 12
593.483376575419
 22
365.2875996547109
 32
0.0
 13
593.483376575419
 23
365.2875996547109
 33
0.0
  0
MTEXT
  5
7B3C
330
7B36
100
AcDbEntity
  8
DIMS
 62
     2
100
AcDbMText
 10
585.9833765754189
 20
368.2875996547109
 30
0.0
 40
3.0
 41
0.0
 71
     5
 72
     1
  1
\A1;{\C5;15.0}
 73
     1
 44
1.0
  0
POINT
  5
7B3D
330
7B36
100
AcDbEntity
  8
DEFPOINTS
 62
     0
100
AcDbPoint
 10
578.4833765754191
 20
394.2077421121927
 30
0.0
  0
POINT
  5
7B3E
330
7B36
100
AcDbEntity
  8
DEFPOINTS
 62
     0
100
AcDbPoint
 10
593.483376575419
 20
397.2077421121927
 30
0.0
  0
POINT
  5
7B3F
330
7B36
100
AcDbEntity
  8
DEFPOINTS
 62
     0
100
AcDbPoint
 10
593.483376575419
 20
365.2875996547109
 30
0.0
  0
ENDBLK
  5
7B41
330
7B36
100
AcDbEntity
  8
0
100
AcDbBlockEnd
  0
BLOCK
  5
7B4B
330
7B42
100
AcDbEntity
  8
0
100
AcDbBlockBegin
  2
*D14
 70
     1
 10
0.0
 20
0.0
 30
0.0
  3
*D14
  1

  0
LINE
  5
7B43
330
7B42
100
AcDbEntity
  8
DIMS
 62
     4
370
    -2
100
AcDbLine
 10
634.4833765754189
 20
377.9661072684997
 30
0.0
 11
634.4833765754189
 21
362.7875996547109
 31
0.0
  0
LINE
  5
7B44
330
7B42
100
AcDbEntity
  8
DIMS
 62
     4
370
    -2
100
AcDbLine
 10
596.483376575419
 20
365.2875996547109
 30
0.0
 11
631.4833765754189
 21
365.2875996547109
 31
0.0
  0
SOLID
  5
7B45
330
7B42
100
AcDbEntity
  8
DIMS
 62
     4
100
AcDbTrace
 10
596.483376575419
 20
365.7875996547109
 30
0.0
 11
596.483376575419
 21
364.7875996547109
 31
0.0
 12
593.483376575419
 22
365.2875996547109
 32
0.0
 13
593.483376575419
 23
365.2875996547109
 33
0.0
  0
SOLID
  5
7B46
330
7B42
100
AcDbEntity
  8
DIMS
 62
     4
100
AcDbTrace
 10
631.4833765754189
 20
365.7875996547109
 30
0.0
 11
631.4833765754189
 21
364.7875996547109
 31
0.0
 12
634.4833765754189
 22
365.2875996547109
 32
0.0
 13
634.4833765754189
 23
365.2875996547109
 33
0.0
  0
MTEXT
  5
7B47
330
7B42
100
AcDbEntity
  8
DIMS
 62
     2
100
AcDbMText
 10
613.983376575419
 20
368.2875996547109
 30
0.0
 40
3.0
 41
0.0
 71
     5
 72
     1
  1
\A1;{\C5;N=41.00}
 73
     1
 44
1.0
  0
POINT
  5
7B48
330
7B42
100
AcDbEntity
  8
DEFPOINTS
 62
     0
100
AcDbPoint
 10
593.483376575419
 20
397.2077421121927
 30
0.0
  0
POINT
  5
7B49
330
7B42
100
AcDbEntity
  8
DEFPOINTS
 62
     0
100
AcDbPoint
 10
634.4833765754189
 20
378.9661072684996
 30
0.0
  0
POINT
  5
7B4A
330
7B42
100
AcDbEntity
  8
DEFPOINTS
 62
     0
100
AcDbPoint
 10
634.4833765754189
 20
365.2875996547109
 30
0.0
  0
ENDBLK
  5
7B4C
330
7B42
100
AcDbEntity
  8
0
100
AcDbBlockEnd
  0
BLOCK
  5
7B57
330
7B4D
100
AcDbEntity
  8
0
100
AcDbBlockBegin
  2
*D15
 70
     1
 10
0.0
 20
0.0
 30
0.0
  3
*D15
  1

  0
LINE
  5
7B4E
330
7B4D
100
AcDbEntity
  8
DIMS
 62
     4
370
    -2
100
AcDbLine
 10
578.4833765754191
 20
393.2077421121927
 30
0.0
 11
578.4833765754191
 21
352.8354620034718
 31
0.0
  0
LINE
  5
7B4F
330
7B4D
100
AcDbEntity
  8
DIMS
 62
     4
370
    -2
100
AcDbLine
 10
624.4833765754187
 20
391.2077421121927
 30
0.0
 11
624.4833765754187
 21
352.8354620034718
 31
0.0
  0
LINE
  5
7B50
330
7B4D
100
AcDbEntity
  8
DIMS
 62
     4
370
    -2
100
AcDbLine
 10
581.4833765754191
 20
355.3354620034718
 30
0.0
 11
621.4833765754187
 21
355.3354620034718
 31
0.0
  0
SOLID
  5
7B51
330
7B4D
100
AcDbEntity
  8
DIMS
 62
     4
100
AcDbTrace
 10
581.4833765754191
 20
355.8354620034718
 30
0.0
 11
581.4833765754191
 21
354.8354620034718
 31
0.0
 12
578.4833765754191
 22
355.3354620034718
 32
0.0
 13
578.4833765754191
 23
355.3354620034718
 33
0.0
  0
SOLID
  5
7B52
330
7B4D
100
AcDbEntity
  8
DIMS
 62
     4
100
AcDbTrace
 10
621.4833765754187
 20
355.8354620034718
 30
0.0
 11
621.4833765754187
 21
354.8354620034718
 31
0.0
 12
624.4833765754187
 22
355.3354620034718
 32
0.0
 13
624.4833765754187
 23
355.3354620034718
 33
0.0
  0
MTEXT
  5
7B53
330
7B4D
100
AcDbEntity
  8
DIMS
 62
     2
100
AcDbMText
 10
601.483376575419
 20
358.3354620034718
 30
0.0
 40
3.0
 41
0.0
 71
     5
 72
     1
  1
\A1;{\C5;L1=46.00}
 73
     1
 44
1.0
  0
POINT
  5
7B54
330
7B4D
100
AcDbEntity
  8
DEFPOINTS
 62
     0
100
AcDbPoint
 10
578.4833765754191
 20
394.2077421121927
 30
0.0
  0
POINT
  5
7B55
330
7B4D
100
AcDbEntity
  8
DEFPOINTS
 62
     0
100
AcDbPoint
 10
624.4833765754187
 20
392.2077421121926
 30
0.0
  0
POINT
  5
7B56
330
7B4D
100
AcDbEntity
  8
DEFPOINTS
 62
     0
100
AcDbPoint
 10
624.4833765754187
 20
355.3354620034718
 30
0.0
  0
ENDBLK
  5
7B58
330
7B4D
100
AcDbEntity
  8
0
100
AcDbBlockEnd
  0
BLOCK
  5
7B63
330
7B59
100
AcDbEntity
  8
0
100
AcDbBlockBegin
  2
*D16
 70
     1
 10
0.0
 20
0.0
 30
0.0
  3
*D16
  1

  0
LINE
  5
7B5A
330
7B59
100
AcDbEntity
  8
DIMS
 62
     4
370
    -2
100
AcDbLine
 10
578.4833765754191
 20
393.2077421121927
 30
0.0
 11
578.4833765754191
 21
342.8354620034718
 31
0.0
  0
LINE
  5
7B5B
330
7B59
100
AcDbEntity
  8
DIMS
 62
     4
370
    -2
100
AcDbLine
 10
634.4833765754189
 20
377.9661072684997
 30
0.0
 11
634.4833765754189
 21
342.8354620034718
 31
0.0
  0
LINE
  5
7B5C
330
7B59
100
AcDbEntity
  8
DIMS
 62
     4
370
    -2
100
AcDbLine
 10
581.4833765754191
 20
345.3354620034718
 30
0.0
 11
631.4833765754189
 21
345.3354620034718
 31
0.0
  0
SOLID
  5
7B5D
330
7B59
100
AcDbEntity
  8
DIMS
 62
     4
100
AcDbTrace
 10
581.4833765754191
 20
345.8354620034718
 30
0.0
 11
581.4833765754191
 21
344.8354620034718
 31
0.0
 12
578.4833765754191
 22
345.3354620034718
 32
0.0
 13
578.4833765754191
 23
345.3354620034718
 33
0.0
  0
SOLID
  5
7B5E
330
7B59
100
AcDbEntity
  8
DIMS
 62
     4
100
AcDbTrace
 10
631.4833765754189
 20
345.8354620034718
 30
0.0
 11
631.4833765754189
 21
344.8354620034718
 31
0.0
 12
634.4833765754189
 22
345.3354620034718
 32
0.0
 13
634.4833765754189
 23
345.3354620034718
 33
0.0
  0
MTEXT
  5
7B5F
330
7B59
100
AcDbEntity
  8
DIMS
 62
     2
100
AcDbMText
 10
606.4833765754189
 20
348.3354620034718
 30
0.0
 40
3.0
 41
0.0
 71
     5
 72
     1
  1
\A1;{\C5;L=56.00}
 73
     1
 44
1.0
  0
POINT
  5
7B60
330
7B59
100
AcDbEntity
  8
DEFPOINTS
 62
     0
100
AcDbPoint
 10
578.4833765754191
 20
394.2077421121927
 30
0.0
  0
POINT
  5
7B61
330
7B59
100
AcDbEntity
  8
DEFPOINTS
 62
     0
100
AcDbPoint
 10
634.4833765754189
 20
378.9661072684996
 30
0.0
  0
POINT
  5
7B62
330
7B59
100
AcDbEntity
  8
DEFPOINTS
 62
     0
100
AcDbPoint
 10
634.4833765754189
 20
345.3354620034718
 30
0.0
  0
ENDBLK
  5
7B64
330
7B59
100
AcDbEntity
  8
0
100
AcDbBlockEnd
  0
BLOCK
  5
7B6F
330
7B65
100
AcDbEntity
  8
0
100
AcDbBlockBegin
  2
*D17
 70
     1
 10
0.0
 20
0.0
 30
0.0
  3
*D17
  1

  0
LINE
  5
7B66
330
7B65
100
AcDbEntity
  8
DIMS
 62
     4
370
    -2
100
AcDbLine
 10
590.4833765754188
 20
418.2077421121928
 30
0.0
 11
543.8036342093746
 21
418.2077421121928
 31
0.0
  0
LINE
  5
7B67
330
7B65
100
AcDbEntity
  8
DIMS
 62
     4
370
    -2
100
AcDbLine
 10
590.4833765754188
 20
400.2077311121927
 30
0.0
 11
543.8036342093746
 21
400.2077311121927
 31
0.0
  0
LINE
  5
7B68
330
7B65
100
AcDbEntity
  8
DIMS
 62
     4
370
    -2
100
AcDbLine
 10
546.3036342093746
 20
415.2077421121927
 30
0.0
 11
546.3036342093746
 21
403.2077311121927
 31
0.0
  0
SOLID
  5
7B69
330
7B65
100
AcDbEntity
  8
DIMS
 62
     4
100
AcDbTrace
 10
545.8036342093746
 20
415.2077421121927
 30
0.0
 11
546.8036342093746
 21
415.2077421121927
 31
0.0
 12
546.3036342093746
 22
418.2077421121928
 32
0.0
 13
546.3036342093746
 23
418.2077421121928
 33
0.0
  0
SOLID
  5
7B6A
330
7B65
100
AcDbEntity
  8
DIMS
 62
     4
100
AcDbTrace
 10
545.8036342093746
 20
403.2077311121927
 30
0.0
 11
546.8036342093746
 21
403.2077311121927
 31
0.0
 12
546.3036342093746
 22
400.2077311121927
 32
0.0
 13
546.3036342093746
 23
400.2077311121927
 33
0.0
  0
MTEXT
  5
7B6B
330
7B65
100
AcDbEntity
  8
DIMS
 62
     2
100
AcDbMText
 10
543.3036342093745
 20
409.2077366121928
 30
0.0
 40
3.0
 41
0.0
 71
     5
 72
     1
  1
\A1;{\C5;%%c18.00}
 11
0.0000000000000001
 21
1.0
 31
0.0
 73
     1
 44
1.0
  0
POINT
  5
7B6C
330
7B65
100
AcDbEntity
  8
DEFPOINTS
 62
     0
100
AcDbPoint
 10
591.4833765754188
 20
418.2077421121928
 30
0.0
  0
POINT
  5
7B6D
330
7B65
100
AcDbEntity
  8
DEFPOINTS
 62
     0
100
AcDbPoint
 10
591.4833765754188
 20
400.2077311121927
 30
0.0
  0
POINT
  5
7B6E
330
7B65
100
AcDbEntity
  8
DEFPOINTS
 62
     0
100
AcDbPoint
 10
546.3036342093746
 20
400.2077311121927
 30
0.0
  0
ENDBLK
  5
7B70
330
7B65
100
AcDbEntity
  8
0
100
AcDbBlockEnd
  0
BLOCK
  5
7B7B
330
7B71
100
AcDbEntity
  8
0
100
AcDbBlockBegin
  2
*D18
 70
     1
 10
0.0
 20
0.0
 30
0.0
  3
*D18
  1

  0
LINE
  5
7B72
330
7B71
100
AcDbEntity
  8
DIMS
 62
     4
370
    -2
100
AcDbLine
 10
627.9833765754188
 20
392.2077421121926
 30
0.0
 11
665.4399971282818
 21
392.2077421121926
 31
0.0
  0
LINE
  5
7B73
330
7B71
100
AcDbEntity
  8
DIMS
 62
     4
370
    -2
100
AcDbLine
 10
627.9833765754188
 20
426.2077421121927
 30
0.0
 11
665.4399971282818
 21
426.2077421121926
 31
0.0
  0
LINE
  5
7B74
330
7B71
100
AcDbEntity
  8
DIMS
 62
     4
370
    -2
100
AcDbLine
 10
662.9399971282817
 20
395.2077421121926
 30
0.0
 11
662.9399971282817
 21
423.2077421121926
 31
0.0
  0
SOLID
  5
7B75
330
7B71
100
AcDbEntity
  8
DIMS
 62
     4
100
AcDbTrace
 10
662.4399971282818
 20
395.2077421121926
 30
0.0
 11
663.4399971282817
 21
395.2077421121926
 31
0.0
 12
662.9399971282817
 22
392.2077421121926
 32
0.0
 13
662.9399971282817
 23
392.2077421121926
 33
0.0
  0
SOLID
  5
7B76
330
7B71
100
AcDbEntity
  8
DIMS
 62
     4
100
AcDbTrace
 10
662.4399971282818
 20
423.2077421121926
 30
0.0
 11
663.4399971282817
 21
423.2077421121926
 31
0.0
 12
662.9399971282817
 22
426.2077421121926
 32
0.0
 13
662.9399971282817
 23
426.2077421121926
 33
0.0
  0
MTEXT
  5
7B77
330
7B71
100
AcDbEntity
  8
DIMS
 62
     2
100
AcDbMText
 10
659.9399971282816
 20
404.4690727446861
 30
0.0
 40
3.0
 41
0.0
 71
     5
 72
     1
  1
\A1;{\C5;%%c34.00}
 11
0.0000000000000001
 21
1.0
 31
0.0
 73
     1
 44
1.0
  0
POINT
  5
7B78
330
7B71
100
AcDbEntity
  8
DEFPOINTS
 62
     0
100
AcDbPoint
 10
626.9833765754189
 20
392.2077421121926
 30
0.0
  0
POINT
  5
7B79
330
7B71
100
AcDbEntity
  8
DEFPOINTS
 62
     0
100
AcDbPoint
 10
626.9833765754189
 20
426.2077421121927
 30
0.0
  0
POINT
  5
7B7A
330
7B71
100
AcDbEntity
  8
DEFPOINTS
 62
     0
100
AcDbPoint
 10
662.9399971282817
 20
426.2077421121926
 30
0.0
  0
ENDBLK
  5
7B7C
330
7B71
100
AcDbEntity
  8
0
100
AcDbBlockEnd
  0
BLOCK
  5
7B87
330
7B7D
100
AcDbEntity
  8
0
100
AcDbBlockBegin
  2
*D19
 70
     1
 10
0.0
 20
0.0
 30
0.0
  3
*D19
  1

  0
LINE
  5
7B7E
330
7B7D
100
AcDbEntity
  8
M01
 62
     4
370
    -2
100
AcDbLine
 10
612.9521569989767
 20
611.3240959444401
 30
0.0
 11
612.9521569989767
 21
612.8240959444402
 31
0.0
  0
LINE
  5
7B7F
330
7B7D
100
AcDbEntity
  8
M01
 62
     4
370
    -2
100
AcDbLine
 10
622.9521569989767
 20
611.3240959444401
 30
0.0
 11
622.9521569989767
 21
612.8240959444402
 31
0.0
  0
LINE
  5
7B80
330
7B7D
100
AcDbEntity
  8
M01
 62
     4
370
    -2
100
AcDbLine
 10
615.9521569989768
 20
610.3240959444402
 30
0.0
 11
619.9521569989768
 21
610.3240959444402
 31
0.0
  0
SOLID
  5
7B81
330
7B7D
100
AcDbEntity
  8
M01
 62
     4
100
AcDbTrace
 10
615.9521569989768
 20
610.8240959444402
 30
0.0
 11
615.9521569989768
 21
609.8240959444402
 31
0.0
 12
612.9521569989767
 22
610.3240959444402
 32
0.0
 13
612.9521569989767
 23
610.3240959444402
 33
0.0
  0
SOLID
  5
7B82
330
7B7D
100
AcDbEntity
  8
M01
 62
     4
100
AcDbTrace
 10
619.9521569989768
 20
610.8240959444402
 30
0.0
 11
619.9521569989768
 21
609.8240959444402
 31
0.0
 12
622.9521569989767
 22
610.3240959444402
 32
0.0
 13
622.9521569989767
 23
610.3240959444402
 33
0.0
  0
MTEXT
  5
7B83
330
7B7D
100
AcDbEntity
  8
M01
 62
     2
100
AcDbMText
 10
617.9521569989767
 20
613.3240959444402
 30
0.0
 40
3.0
 41
0.0
 71
     5
 72
     1
  1
\A1;{\C5;10}
 73
     1
 44
1.0
  0
POINT
  5
7B84
330
7B7D
100
AcDbEntity
  8
DEFPOINTS
 62
     0
100
AcDbPoint
 10
612.9521569989767
 20
610.3240959444401
 30
0.0
  0
POINT
  5
7B85
330
7B7D
100
AcDbEntity
  8
DEFPOINTS
 62
     0
100
AcDbPoint
 10
622.9521569989767
 20
610.3240959444401
 30
0.0
  0
POINT
  5
7B86
330
7B7D
100
AcDbEntity
  8
DEFPOINTS
 62
     0
100
AcDbPoint
 10
622.9521569989767
 20
610.3240959444402
 30
0.0
  0
ENDBLK
  5
7B88
330
7B7D
100
AcDbEntity
  8
0
100
AcDbBlockEnd
  0
BLOCK
  5
7D56
330
7B8C
100
AcDbEntity
  8
0
100
AcDbBlockBegin
  2
DG010001 with Tips
 70
     0
 10
0.0
 20
0.0
 30
0.0
  3
DG010001 with Tips
  1

  0
LINE
  5
7B8D
330
7B8C
100
AcDbEntity
  8
M01
100
AcDbLine
 10
624.4833765754188
 20
397.2077421121927
 30
0.0
 11
596.2833035754189
 21
397.2077421121927
 31
0.0
  0
LINE
  5
7B8E
330
7B8C
100
AcDbEntity
  8
M01
100
AcDbLine
 10
624.4833765754188
 20
421.2077421121927
 30
0.0
 11
596.2833035754189
 21
421.2077421121927
 31
0.0
  0
LINE
  5
7B8F
330
7B8C
100
AcDbEntity
  8
M01
100
AcDbLine
 10
590.9833765754188
 20
400.7077311121927
 30
0.0
 11
591.4833765754188
 21
400.2077311121927
 31
0.0
  0
LINE
  5
7B90
330
7B8C
100
AcDbEntity
  8
M01
100
AcDbLine
 10
591.4833765754188
 20
418.2077421121928
 30
0.0
 11
591.4833765754188
 21
410.3533750359317
 31
0.0
  0
LINE
  5
7B91
330
7B8C
100
AcDbEntity
  8
M01
100
AcDbLine
 10
596.2833035754189
 20
421.2077421121927
 30
0.0
 11
596.2833035754189
 21
397.2077421121927
 31
0.0
  0
LINE
  5
7B92
330
7B8C
100
AcDbEntity
  8
M01
100
AcDbLine
 10
594.9833765754188
 20
420.5705241121927
 30
0.0
 11
594.9833765754188
 21
397.8449381121927
 31
0.0
  0
LINE
  5
7B93
330
7B8C
100
AcDbEntity
  8
M01
100
AcDbLine
 10
593.9833765754189
 20
399.9572421121927
 30
0.0
 11
593.9833765754189
 21
418.4572421121927
 31
0.0
  0
LINE
  5
7B94
330
7B8C
100
AcDbEntity
  8
M01
100
AcDbLine
 10
594.2333765754189
 20
418.7072421121928
 30
0.0
 11
594.2333765754189
 21
399.7072421121927
 31
0.0
  0
LINE
  5
7B95
330
7B8C
100
AcDbEntity
  8
M01
100
AcDbLine
 10
594.2333765754189
 20
399.7072421121927
 30
0.0
 11
594.9833765754188
 21
399.7072421121927
 31
0.0
  0
LINE
  5
7B96
330
7B8C
100
AcDbEntity
  8
M01
100
AcDbLine
 10
591.4833765754188
 20
400.2077311121927
 30
0.0
 11
593.9833765754189
 21
400.2077311121927
 31
0.0
  0
LINE
  5
7B97
330
7B8C
100
AcDbEntity
  8
M01
100
AcDbLine
 10
593.9833765754189
 20
399.9572421121927
 30
0.0
 11
594.2333765754189
 21
399.7072421121927
 31
0.0
  0
LINE
  5
7B98
330
7B8C
100
AcDbEntity
  8
M01
100
AcDbLine
 10
596.2833035754189
 20
397.8449381121927
 30
0.0
 11
594.9833765754188
 21
397.8449381121927
 31
0.0
  0
LINE
  5
7B99
330
7B8C
100
AcDbEntity
  8
M01
100
AcDbLine
 10
594.9833765754188
 20
418.7072421121928
 30
0.0
 11
594.2333765754189
 21
418.7072421121928
 31
0.0
  0
LINE
  5
7B9A
330
7B8C
100
AcDbEntity
  8
M01
100
AcDbLine
 10
590.9833765754188
 20
417.7077311121927
 30
0.0
 11
590.9833765754188
 21
400.7077311121927
 31
0.0
  0
LINE
  5
7B9B
330
7B8C
100
AcDbEntity
  8
M01
100
AcDbLine
 10
590.9833765754188
 20
417.7077311121927
 30
0.0
 11
591.4833765754188
 21
418.2077311121927
 31
0.0
  0
LINE
  5
7B9C
330
7B8C
100
AcDbEntity
  8
M01
100
AcDbLine
 10
591.4833765754188
 20
418.2077311121927
 30
0.0
 11
593.9833765754189
 21
418.2077311121927
 31
0.0
  0
LINE
  5
7B9D
330
7B8C
100
AcDbEntity
  8
M01
100
AcDbLine
 10
593.9833765754189
 20
418.4572421121927
 30
0.0
 11
594.2333765754189
 21
418.7072421121928
 31
0.0
  0
LINE
  5
7B9E
330
7B8C
100
AcDbEntity
  8
M01
100
AcDbLine
 10
596.2833035754189
 20
420.5705241121927
 30
0.0
 11
594.9833765754188
 21
420.5705241121927
 31
0.0
  0
LINE
  5
7B9F
330
7B8C
100
AcDbEntity
  8
M01
100
AcDbLine
 10
624.4833765754188
 20
409.2077421121927
 30
0.0
 11
624.4833765754188
 21
392.7077421121927
 31
0.0
  0
LINE
  5
7BA0
330
7B8C
100
AcDbEntity
  8
M01
100
AcDbLine
 10
626.9833765754189
 20
392.2077421121926
 30
0.0
 11
626.9833765754189
 21
409.2077421121927
 31
0.0
  0
LINE
  5
7BA1
330
7B8C
100
AcDbEntity
  8
M01
100
AcDbLine
 10
632.4833765754188
 20
392.7077421121927
 30
0.0
 11
632.4833765754188
 21
409.2077421121927
 31
0.0
  0
LINE
  5
7BA2
102
{ACAD_REACTORS
330
7D39
102
}
330
7B8C
100
AcDbEntity
  8
M01
100
AcDbLine
 10
634.4833765754189
 20
425.2077421121927
 30
0.0
 11
634.4833765754189
 21
393.2077421121927
 31
0.0
  0
LINE
  5
7BA3
330
7B8C
100
AcDbEntity
  8
M01
100
AcDbLine
 10
633.9833765754189
 20
392.7077421121927
 30
0.0
 11
633.9833765754189
 21
425.7077421121927
 31
0.0
  0
LINE
  5
7BA4
330
7B8C
100
AcDbEntity
  8
M01
100
AcDbLine
 10
624.9833765754189
 20
392.2077421121926
 30
0.0
 11
624.9833765754189
 21
426.2077421121927
 31
0.0
  0
LINE
  5
7BA5
330
7B8C
100
AcDbEntity
  8
M01
100
AcDbLine
 10
631.3135045754189
 20
394.7077421121927
 30
0.0
 11
631.3135045754189
 21
423.7077421121926
 31
0.0
  0
LINE
  5
7BA6
330
7B8C
100
AcDbEntity
  8
M01
100
AcDbLine
 10
626.9833765754189
 20
392.2077421121926
 30
0.0
 11
624.9833765754189
 21
392.2077421121926
 31
0.0
  0
LINE
  5
7BA7
330
7B8C
100
AcDbEntity
  8
M01
100
AcDbLine
 10
624.4833765754188
 20
392.7077421121927
 30
0.0
 11
624.9833765754189
 21
392.2077421121926
 31
0.0
  0
LINE
  5
7BA8
330
7B8C
100
AcDbEntity
  8
M01
100
AcDbLine
 10
626.9833765754189
 20
392.2077421121926
 30
0.0
 11
631.3135045754188
 21
394.7077458431207
 31
0.0
  0
LINE
  5
7BA9
330
7B8C
100
AcDbEntity
  8
M01
100
AcDbLine
 10
633.9833765754189
 20
392.7077421121927
 30
0.0
 11
632.4833765754188
 21
392.7077421121927
 31
0.0
  0
LINE
  5
7BAA
330
7B8C
100
AcDbEntity
  8
M01
100
AcDbLine
 10
634.4833765754189
 20
393.2077421121927
 30
0.0
 11
633.9833765754189
 21
392.7077421121927
 31
0.0
  0
LINE
  5
7BAB
330
7B8C
100
AcDbEntity
  8
M01
100
AcDbLine
 10
632.4833765754188
 20
394.7077421121927
 30
0.0
 11
631.3135045754189
 21
394.7077421121927
 31
0.0
  0
LINE
  5
7BAC
330
7B8C
100
AcDbEntity
  8
M01
100
AcDbLine
 10
626.9833765754189
 20
426.2077421121927
 30
0.0
 11
624.9833765754189
 21
426.2077421121927
 31
0.0
  0
LINE
  5
7BAD
330
7B8C
100
AcDbEntity
  8
M01
100
AcDbLine
 10
624.4833765754188
 20
425.7077421121927
 30
0.0
 11
624.4833765754188
 21
409.2077421121927
 31
0.0
  0
LINE
  5
7BAE
330
7B8C
100
AcDbEntity
  8
M01
100
AcDbLine
 10
624.4833765754188
 20
425.7077421121927
 30
0.0
 11
624.9833765754189
 21
426.2077421121927
 31
0.0
  0
LINE
  5
7BAF
330
7B8C
100
AcDbEntity
  8
M01
100
AcDbLine
 10
626.9833765754189
 20
426.2077421121927
 30
0.0
 11
631.3135045754189
 21
423.7077421121926
 31
0.0
  0
LINE
  5
7BB0
330
7B8C
100
AcDbEntity
  8
M01
100
AcDbLine
 10
626.9833765754189
 20
426.2077421121927
 30
0.0
 11
626.9833765754189
 21
409.2077421121927
 31
0.0
  0
LINE
  5
7BB1
330
7B8C
100
AcDbEntity
  8
M01
100
AcDbLine
 10
632.4833765754188
 20
425.7077421121927
 30
0.0
 11
632.4833765754188
 21
409.2077421121927
 31
0.0
  0
LINE
  5
7BB2
330
7B8C
100
AcDbEntity
  8
M01
100
AcDbLine
 10
632.4833765754188
 20
423.7077421121926
 30
0.0
 11
631.3135045754189
 21
423.7077421121926
 31
0.0
  0
LINE
  5
7BB3
330
7B8C
100
AcDbEntity
  8
M01
100
AcDbLine
 10
633.9833765754189
 20
425.7077421121927
 30
0.0
 11
632.4833765754188
 21
425.7077421121927
 31
0.0
  0
LINE
  5
7BB4
330
7B8C
100
AcDbEntity
  8
M01
100
AcDbLine
 10
633.9833765754189
 20
425.7077421121927
 30
0.0
 11
634.4833765754189
 21
425.2077421121927
 31
0.0
  0
LINE
  5
7BB5
330
7B8C
100
AcDbEntity
  8
CENTRE
 48
0.7
100
AcDbLine
 10
568.3156328939749
 20
409.2077421121927
 30
0.0
 11
652.8003110954586
 21
409.2077421121927
 31
0.0
  0
LINE
  5
7BB6
330
7B8C
100
AcDbEntity
  8
M04
100
AcDbLine
 10
622.4833765754188
 20
549.2077421121925
 30
0.0
 11
622.483376575419
 21
421.2077421121926
 31
0.0
  0
LINE
  5
7BB7
330
7B8C
100
AcDbEntity
  8
M01
100
AcDbLine
 10
623.9833765754188
 20
421.2077421121927
 30
0.0
 11
623.983376575419
 21
448.3944672276916
 31
0.0
  0
LINE
  5
7BB8
330
7B8C
100
AcDbEntity
  8
M01
100
AcDbLine
 10
626.4833765754189
 20
426.2077421121927
 30
0.0
 11
626.4833765754189
 21
448.3944672276916
 31
0.0
  0
ARC
  5
7BB9
330
7B8C
100
AcDbEntity
  8
M03
 62
     6
 48
0.7
100
AcDbCircle
 10
647.4833765754189
 20
409.2077421121927
 30
0.0
 40
15.0
100
AcDbArc
 50
150.0735651333857
 51
209.9264348666141
  0
LINE
  5
7BBA
330
7B8C
100
AcDbEntity
  8
M03
 62
     6
 48
0.7
100
AcDbLine
 10
590.9833765754188
 20
411.7077421121927
 30
0.0
 11
632.6931771176698
 21
411.7077421121927
 31
0.0
  0
LINE
  5
7BBB
330
7B8C
100
AcDbEntity
  8
M03
 62
     6
 48
0.7
100
AcDbLine
 10
590.9833765754188
 20
406.7077421121927
 30
0.0
 11
632.6931771176698
 21
406.7077421121927
 31
0.0
  0
LINE
  5
7BBC
330
7B8C
100
AcDbEntity
  8
M01
100
AcDbLine
 10
629.4833765754189
 20
491.2077421121927
 30
0.0
 11
626.983376575419
 21
491.2077421121927
 31
0.0
  0
LINE
  5
7BBD
330
7B8C
100
AcDbEntity
  8
M04
100
AcDbLine
 10
593.4833765754189
 20
421.2077421121927
 30
0.0
 11
593.483376575419
 21
418.2077311121927
 31
0.0
  0
LINE
  5
7BBE
330
7B8C
100
AcDbEntity
  8
M04
100
AcDbLine
 10
595.4833765754188
 20
423.2077421121927
 30
0.0
 11
622.483376575419
 21
423.2077421121928
 31
0.0
  0
LINE
  5
7BBF
330
7B8C
100
AcDbEntity
  8
M04
100
AcDbLine
 10
595.483376575419
 20
395.2077421121927
 30
0.0
 11
624.483376575419
 21
395.2077421121927
 31
0.0
  0
ARC
  5
7BC0
330
7B8C
100
AcDbEntity
  8
M04
100
AcDbCircle
 10
595.4833765754188
 20
421.2077421121927
 30
0.0
 40
2.0
100
AcDbArc
 50
90.0
 51
180.0
  0
ARC
  5
7BC1
330
7B8C
100
AcDbEntity
  8
M04
100
AcDbCircle
 10
595.483376575419
 20
397.2077421121927
 30
0.0
 40
2.0
100
AcDbArc
 50
180.0
 51
270.0
  0
LINE
  5
7BC2
330
7B8C
100
AcDbEntity
  8
M04
100
AcDbLine
 10
593.483376575419
 20
400.2077311121927
 30
0.0
 11
593.483376575419
 21
397.2077421121927
 31
0.0
  0
LINE
  5
7BC3
102
{ACAD_REACTORS
330
7D39
102
}
330
7B8C
100
AcDbEntity
  8
M04
100
AcDbLine
 10
634.4833765754189
 20
393.2077421121927
 30
0.0
 11
634.4833765754189
 21
378.9661072684996
 31
0.0
  0
LINE
  5
7BC4
330
7B8C
100
AcDbEntity
  8
M04
100
AcDbLine
 10
624.4833765754188
 20
392.7077421121927
 30
0.0
 11
624.4833765754187
 21
392.2077421121926
 31
0.0
  0
LINE
  5
7BC5
330
7B8C
100
AcDbEntity
  8
M04
100
AcDbLine
 10
624.9833765754189
 20
392.2077421121926
 30
0.0
 11
624.4833765754187
 21
392.2077421121926
 31
0.0
  0
LINE
  5
7BC6
102
{ACAD_REACTORS
330
7D39
102
}
330
7B8C
100
AcDbEntity
  8
M04
100
AcDbLine
 10
634.4833765754189
 20
425.2077421121927
 30
0.0
 11
634.4833765754189
 21
549.2077421121925
 31
0.0
  0
LINE
  5
7BC7
330
7B8C
100
AcDbEntity
  8
M04
100
AcDbLine
 10
637.9833765754189
 20
423.2077421121927
 30
0.0
 11
641.4833765754188
 21
423.2077421121927
 31
0.0
  0
LINE
  5
7BC8
330
7B8C
100
AcDbEntity
  8
M04
100
AcDbLine
 10
637.9833765754189
 20
395.2077421121927
 30
0.0
 11
641.4833765754188
 21
395.2077421121927
 31
0.0
  0
LINE
  5
7BC9
330
7B8C
100
AcDbEntity
  8
M04
100
AcDbLine
 10
641.4833765754188
 20
423.2077421121927
 30
0.0
 11
641.4833765754188
 21
395.2077421121927
 31
0.0
  0
LINE
  5
7BCA
330
7B8C
100
AcDbEntity
  8
M04
100
AcDbLine
 10
641.4833765754188
 20
423.2077421121927
 30
0.0
 11
649.483376575419
 21
427.8265442657097
 31
0.0
  0
LINE
  5
7BCB
330
7B8C
100
AcDbEntity
  8
M04
100
AcDbLine
 10
641.4833765754188
 20
395.2077421121927
 30
0.0
 11
649.483376575419
 21
390.5889399586758
 31
0.0
  0
LINE
  5
7BCC
330
7B8C
100
AcDbEntity
  8
M01
100
AcDbLine
 10
632.2333765754191
 20
516.2077421121929
 30
0.0
 11
624.2333765754189
 21
516.2077421121925
 31
0.0
  0
LINE
  5
7BCD
330
7B8C
100
AcDbEntity
  8
M01
100
AcDbLine
 10
632.2333765754191
 20
509.2077421121929
 30
0.0
 11
632.2333765754191
 21
516.2077421121929
 31
0.0
  0
LINE
  5
7BCE
330
7B8C
100
AcDbEntity
  8
M01
100
AcDbLine
 10
629.4833765754189
 20
491.2077421121927
 30
0.0
 11
631.233376575419
 21
501.1324852965247
 31
0.0
  0
LINE
  5
7BCF
330
7B8C
100
AcDbEntity
  8
M01
100
AcDbLine
 10
624.2333765754189
 20
509.2077421121926
 30
0.0
 11
624.2333765754189
 21
516.2077421121925
 31
0.0
  0
LINE
  5
7BD0
330
7B8C
100
AcDbEntity
  8
M01
100
AcDbLine
 10
626.9833765754191
 20
491.2077421121927
 30
0.0
 11
625.2333765754187
 21
501.1324852965254
 31
0.0
  0
LINE
  5
7BD1
330
7B8C
100
AcDbEntity
  8
M01
100
AcDbLine
 10
625.2333765754187
 20
501.1324852965254
 30
0.0
 11
625.2333765754188
 21
509.2077421121927
 31
0.0
  0
LINE
  5
7BD2
330
7B8C
100
AcDbEntity
  8
M01
100
AcDbLine
 10
631.233376575419
 20
501.1324852965247
 30
0.0
 11
631.2333765754189
 21
509.2077421121928
 31
0.0
  0
LINE
  5
7BD3
330
7B8C
100
AcDbEntity
  8
M01
100
AcDbLine
 10
625.2333765754187
 20
501.1324852965254
 30
0.0
 11
631.233376575419
 21
501.1324852965247
 31
0.0
  0
LINE
  5
7BD4
330
7B8C
100
AcDbEntity
  8
M01
100
AcDbLine
 10
632.2333765754191
 20
509.2077421121929
 30
0.0
 11
624.2333765754189
 21
509.2077421121926
 31
0.0
  0
LINE
  5
7BD5
330
7B8C
100
AcDbEntity
  8
M01
100
AcDbLine
 10
626.983376575419
 20
468.9078592275812
 30
0.0
 11
626.983376575419
 21
491.2077421121927
 31
0.0
  0
LINE
  5
7BD6
330
7B8C
100
AcDbEntity
  8
M01
100
AcDbLine
 10
629.4833765754189
 20
468.9078592275812
 30
0.0
 11
629.4833765754189
 21
491.2077421121927
 31
0.0
  0
LINE
  5
7BD7
330
7B8C
100
AcDbEntity
  8
CENTRE
 48
0.7
100
AcDbLine
 10
628.2333765754189
 20
484.6990083503516
 30
0.0
 11
628.233376575419
 21
547.0603851609264
 31
0.0
  0
ARC
  5
7BD8
330
7B8C
100
AcDbEntity
  8
M01
100
AcDbCircle
 10
645.2333765754191
 20
448.3944672276916
 30
0.0
 40
21.25
100
AcDbArc
 50
170.0
 51
180.0
  0
LINE
  5
7BD9
330
7B8C
100
AcDbEntity
  8
M01
100
AcDbLine
 10
624.3062118239097
 20
452.0844910031138
 30
0.0
 11
626.6985219443978
 21
465.6519558963264
 31
0.0
  0
ARC
  5
7BDA
330
7B8C
100
AcDbEntity
  8
M01
100
AcDbCircle
 10
608.2333765754189
 20
468.9078592275812
 30
0.0
 40
18.75
100
AcDbArc
 50
350.0000000000003
 51
0.0
  0
ARC
  5
7BDB
330
7B8C
100
AcDbEntity
  8
M01
100
AcDbCircle
 10
608.2333765754189
 20
468.9078592275812
 30
0.0
 40
21.25
100
AcDbArc
 50
350.0000000000003
 51
0.0
  0
LINE
  5
7BDC
330
7B8C
100
AcDbEntity
  8
M01
100
AcDbLine
 10
626.7682312064403
 20
451.6503705589465
 30
0.0
 11
629.1605413269284
 21
465.2178354521591
 31
0.0
  0
ARC
  5
7BDD
330
7B8C
100
AcDbEntity
  8
M01
100
AcDbCircle
 10
645.2333765754191
 20
448.3944672276916
 30
0.0
 40
18.75
100
AcDbArc
 50
170.0
 51
180.0
  0
LINE
  5
7BDE
330
7B8C
100
AcDbEntity
  8
M01
100
AcDbLine
 10
625.2333765754188
 20
516.2077421121925
 30
0.0
 11
625.2333765754188
 21
542.4235718033469
 31
0.0
  0
LINE
  5
7BDF
330
7B8C
100
AcDbEntity
  8
M01
100
AcDbLine
 10
631.2333765754187
 20
516.2077421121928
 30
0.0
 11
631.2333765754187
 21
542.4235718033469
 31
0.0
  0
HATCH
  5
7BE0
330
7B8C
100
AcDbEntity
  8
M04
100
AcDbHatch
 10
0.0
 20
0.0
 30
0.0
210
0.0
220
0.0
230
1.0
  2
_U
 70
     0
 71
     0
 91
        2
 92
        7
 72
     0
 73
     1
 93
        4
 10
628.233376575419
 20
542.4235718033469
 10
625.2333765754189
 20
542.423571803347
 10
625.2333765754189
 20
516.2077421121925
 10
628.2333765754189
 20
516.2077421121927
 97
        0
 92
        7
 72
     0
 73
     1
 93
        4
 10
631.2333765754187
 20
542.4235718033469
 10
628.2333765754189
 20
542.4235718033469
 10
628.233376575419
 20
516.2077421121925
 10
631.2333765754187
 20
516.2077421121928
 97
        0
 75
     0
 76
     0
 52
45.0
 41
1.0
 77
     1
 78
     2
 53
45.0
 43
-153.8137618081477
 44
75.32883416800586
 45
-0.7071067811865475
 46
0.7071067811865476
 79
     0
 53
135.0
 43
-153.8137618081477
 44
75.32883416800586
 45
-0.7071067811865476
 46
-0.7071067811865475
 79
     0
 47
0.0843056911458626
 98
        2
 10
627.4067951388214
 20
526.574101817677
 10
630.0212994969029
 20
527.2485468012953
  0
TEXT
  5
7BE1
330
7B8C
100
AcDbEntity
  8
TEXT
 62
     1
100
AcDbText
 10
604.4316093528177
 20
415.3734497655206
 30
0.0
 40
2.0
  1
DG010001
 41
0.9
100
AcDbText
  0
DIMENSION
  5
7BE2
330
7B8C
100
AcDbEntity
  8
DIMS
100
AcDbDimension
  2
*D13
 10
593.483376575419
 20
365.2875996547109
 30
0.0
 11
585.9833765754189
 21
368.2875996547109
 31
0.0
 70
    32
  1
{\C5;15.0}
 71
     5
 42
14.99999999999988
  3
DIM1
100
AcDbAlignedDimension
 13
578.4833765754191
 23
394.2077421121927
 33
0.0
 14
593.483376575419
 24
397.2077421121927
 34
0.0
100
AcDbRotatedDimension
1001
ACAD
1000
DSTYLE
1002
{
1070
   144
1040
1.0
1002
}
  0
DIMENSION
  5
7BE3
330
7B8C
100
AcDbEntity
  8
DIMS
100
AcDbDimension
  2
*D14
 10
634.4833765754189
 20
365.2875996547109
 30
0.0
 11
613.983376575419
 21
368.2875996547109
 31
0.0
 70
    32
  1
{\C5;N=<>}
 71
     5
 42
40.99999999999988
  3
DIM1
100
AcDbAlignedDimension
 13
593.483376575419
 23
397.2077421121927
 33
0.0
 14
634.4833765754189
 24
378.9661072684996
 34
0.0
100
AcDbRotatedDimension
1001
ACAD
1000
DSTYLE
1002
{
1070
    75
1070
     1
1070
   144
1040
1.0
1070
   279
1070
     1
1070
   289
1070
     3
1002
}
  0
DIMENSION
  5
7BE4
330
7B8C
100
AcDbEntity
  8
DIMS
100
AcDbDimension
  2
*D15
 10
624.4833765754187
 20
355.3354620034718
 30
0.0
 11
601.483376575419
 21
358.3354620034718
 31
0.0
 70
    32
  1
{\C5;L1=<>}
 71
     5
 42
45.99999999999965
  3
DIM1
100
AcDbAlignedDimension
 13
578.4833765754191
 23
394.2077421121927
 33
0.0
 14
624.4833765754187
 24
392.2077421121926
 34
0.0
100
AcDbRotatedDimension
1001
ACAD
1000
DSTYLE
1002
{
1070
   144
1040
1.0
1002
}
  0
DIMENSION
  5
7BE5
330
7B8C
100
AcDbEntity
  8
DIMS
100
AcDbDimension
  2
*D16
 10
634.4833765754189
 20
345.3354620034718
 30
0.0
 11
606.4833765754189
 21
348.3354620034718
 31
0.0
 70
    32
  1
{\C5;L=<>}
 71
     5
 42
55.99999999999977
  3
DIM1
100
AcDbAlignedDimension
 13
578.4833765754191
 23
394.2077421121927
 33
0.0
 14
634.4833765754189
 24
378.9661072684996
 34
0.0
100
AcDbRotatedDimension
1001
ACAD
1000
DSTYLE
1002
{
1070
   144
1040
1.0
1002
}
  0
DIMENSION
  5
7BE6
330
7B8C
100
AcDbEntity
  8
DIMS
 62
     4
100
AcDbDimension
  2
*D17
 10
546.3036342093746
 20
400.2077311121927
 30
0.0
 11
543.3036342093745
 21
409.2077366121928
 31
0.0
 70
    32
  1
{\C5;%%c<>}
 71
     5
 42
18.00001100000002
  3
DIM1
100
AcDbAlignedDimension
 13
591.4833765754188
 23
418.2077421121928
 33
0.0
 14
591.4833765754188
 24
400.2077311121927
 34
0.0
 50
90.0
100
AcDbRotatedDimension
1001
ACAD
1000
DSTYLE
1002
{
1070
   144
1040
1.0
1002
}
  0
DIMENSION
  5
7BE7
330
7B8C
100
AcDbEntity
  8
DIMS
100
AcDbDimension
  2
*D18
 10
662.9399971282817
 20
426.2077421121926
 30
0.0
 11
662.9399971282817
 21
404.4690727446861
 31
0.0
 70
   160
  1
{\C5;%%c<>}
 71
     5
 42
34.0
  3
DIM1
100
AcDbAlignedDimension
 13
626.9833765754189
 23
392.2077421121926
 33
0.0
 14
626.9833765754189
 24
426.2077421121927
 34
0.0
 50
90.0
100
AcDbRotatedDimension
1001
ACAD
1000
DSTYLE
1002
{
1070
   144
1040
1.0
1002
}
  0
TEXT
  5
7BE8
330
7B8C
100
AcDbEntity
  8
DIMS
 62
     5
100
AcDbText
 10
657.8498778265418
 20
413.720203919692
 30
0.0
 40
2.0
  1
+0.025
 50
90.0
100
AcDbText
  0
TEXT
  5
7BE9
330
7B8C
100
AcDbEntity
  8
DIMS
 62
     5
100
AcDbText
 10
660.9347981983626
 20
413.720203919692
 30
0.0
 40
2.0
  1
-0
 50
90.0
100
AcDbText
  0
TEXT
  5
7BEA
330
7B8C
100
AcDbEntity
  8
DIMS
 62
     5
100
AcDbText
 10
541.8828379338983
 20
419.7334375453642
 30
0.0
 40
2.0
  1
+0.018
 50
90.0
100
AcDbText
  0
TEXT
  5
7BEB
330
7B8C
100
AcDbEntity
  8
DIMS
 62
     5
100
AcDbText
 10
544.9677583057191
 20
419.7334375453642
 30
0.0
 40
2.0
  1
-0
 50
90.0
100
AcDbText
  0
LINE
  5
7BEC
330
7B8C
100
AcDbEntity
  8
CENTRE
100
AcDbLine
 10
515.7387716623138
 20
409.2077421121927
 30
0.0
 11
466.1058629161024
 21
409.2077421121927
 31
0.0
  0
POINT
  5
7BED
330
7B8C
100
AcDbEntity
  8
DEFPOINTS
  6
ByBlock
 62
     0
100
AcDbPoint
 10
635.1214228467802
 20
410.2826360397976
 30
0.0
  0
LINE
  5
7BEE
330
7B8C
100
AcDbEntity
  8
0
  6
ByBlock
 62
     5
100
AcDbLine
 10
589.3553380598929
 20
413.1335419318786
 30
0.0
 11
578.0196236773771
 21
440.4681963318602
 31
0.0
  0
LINE
  5
7BEF
330
7B8C
100
AcDbEntity
  8
0
  6
ByBlock
 62
     5
100
AcDbLine
 10
578.0196236773771
 20
440.4681963318602
 30
0.0
 11
575.0196236773772
 21
440.4681963318602
 31
0.0
  0
SOLID
  5
7BF0
330
7B8C
100
AcDbEntity
  8
0
  6
ByBlock
 62
     5
100
AcDbTrace
 10
589.8171981563267
 20
413.3250758748818
 30
0.0
 11
588.8934779634594
 21
412.9420079888758
 31
0.0
 12
590.5045417179112
 22
410.3623813532768
 32
0.0
 13
590.5045417179112
 23
410.3623813532768
 33
0.0
  0
MTEXT
  5
7BF1
330
7B8C
100
AcDbEntity
  8
0
  6
ByBlock
 62
     5
100
AcDbMText
 10
553.0386705173482
 20
440.46819633186
 30
0.0
 40
3.0
 41
0.0
 71
     5
 72
     1
  1
TIP INSERT POINT
 73
     1
 44
1.0
  0
CIRCLE
  5
7BF2
330
7B8C
100
AcDbEntity
  8
M01
100
AcDbCircle
 10
490.9223172892081
 20
409.2077421121927
 30
0.0
 40
8.999999999999943
  0
CIRCLE
  5
7BF3
330
7B8C
100
AcDbEntity
  8
M01
100
AcDbCircle
 10
490.9223172892081
 20
409.2077421121927
 30
0.0
 40
11.36278199999998
  0
CIRCLE
  5
7BF4
330
7B8C
100
AcDbEntity
  8
M01
100
AcDbCircle
 10
490.9223172892081
 20
409.2077421121927
 30
0.0
 40
12.0
  0
CIRCLE
  5
7BF5
330
7B8C
100
AcDbEntity
  8
M04
100
AcDbCircle
 10
490.9223172892081
 20
409.2077421121927
 30
0.0
 40
14.0
  0
ARC
  5
7BF6
330
7B8C
100
AcDbEntity
  8
M01
100
AcDbCircle
 10
490.9223172892081
 20
409.2077421121927
 30
0.0
 40
16.99999999999994
100
AcDbArc
 50
279.2742999592267
 51
260.7257000407732
  0
ELLIPSE
  5
7BF7
330
7B8C
100
AcDbEntity
  8
M01
100
AcDbEllipse
 10
490.9223172892081
 20
406.6282144060997
 30
0.0
 11
0.0
 21
-1.152395732798026
 31
0.0
210
0.0
220
0.0
230
1.0
 40
0.8677574651999025
 41
0.0
 42
6.283185307179586
  0
CIRCLE
  5
7BF8
330
7B8C
100
AcDbEntity
  8
M01
100
AcDbCircle
 10
490.9223172892081
 20
409.2077421121927
 30
0.0
 40
5.5
  0
CIRCLE
  5
7BF9
330
7B8C
100
AcDbEntity
  8
M01
100
AcDbCircle
 10
490.9223172892081
 20
409.2077421121927
 30
0.0
 40
8.49998899999997
  0
CIRCLE
  5
7BFA
330
7B8C
100
AcDbEntity
  8
M01
100
AcDbCircle
 10
490.9223172892081
 20
409.2077421121927
 30
0.0
 40
9.499500000000011
  0
ARC
  5
7BFB
330
7B8C
100
AcDbEntity
  8
M03
100
AcDbCircle
 10
490.9223172892081
 20
409.2077421121927
 30
0.0
 40
2.5
100
AcDbArc
 50
292.8535828289421
 51
67.14641717105536
  0
ELLIPSE
  5
7BFC
330
7B8C
100
AcDbEntity
  8
M01
100
AcDbEllipse
 10
490.9223172892081
 20
411.7872698182858
 30
0.0
 11
0.0
 21
1.152395732798026
 31
0.0
210
0.0
220
0.0
230
-1.0
 40
0.8677574651999025
 41
0.0
 42
6.283185307179586
  0
ARC
  5
7BFD
330
7B8C
100
AcDbEntity
  8
M03
100
AcDbCircle
 10
490.9223172892081
 20
409.2077421121927
 30
0.0
 40
2.5
100
AcDbArc
 50
112.8535828289451
 51
247.1464171710583
  0
ARC
  5
7BFE
330
7B8C
100
AcDbEntity
  8
M01
100
AcDbCircle
 10
490.9223172892081
 20
409.2077421121927
 30
0.0
 40
2.499999999999982
100
AcDbArc
 50
67.14641717084997
 51
112.8535828289421
  0
ARC
  5
7BFF
330
7B8C
100
AcDbEntity
  8
M01
100
AcDbCircle
 10
490.9223172892081
 20
409.2077421121927
 30
0.0
 40
2.499999999999982
100
AcDbArc
 50
247.1464171710578
 51
292.85358282915
  0
LWPOLYLINE
  5
7C00
330
7B8C
100
AcDbEntity
  8
M01
100
AcDbPolyline
 90
        2
 70
     0
 43
0.0
 10
495.4066307725065
 20
412.392225207376
 10
491.4380038059097
 20
414.6835130548539
  0
LWPOLYLINE
  5
7C01
330
7B8C
100
AcDbEntity
  8
M01
100
AcDbPolyline
 90
        2
 70
     0
 43
0.0
 10
490.4066307725065
 20
414.6835130548539
 10
486.4380038059096
 20
412.392225207376
  0
LWPOLYLINE
  5
7C02
330
7B8C
100
AcDbEntity
  8
M01
100
AcDbPolyline
 90
        2
 70
     0
 43
0.0
 10
485.9223172892081
 20
411.4990299596707
 10
485.9223172892081
 20
406.9164542647148
  0
LWPOLYLINE
  5
7C03
330
7B8C
100
AcDbEntity
  8
M01
100
AcDbPolyline
 90
        2
 70
     0
 43
0.0
 10
486.4380038059096
 20
406.0232590170095
 10
490.4066307725065
 20
403.7319711695316
  0
LWPOLYLINE
  5
7C04
330
7B8C
100
AcDbEntity
  8
M01
100
AcDbPolyline
 90
        2
 70
     0
 43
0.0
 10
491.4380038059097
 20
403.7319711695316
 10
495.4066307725065
 20
406.0232590170095
  0
LWPOLYLINE
  5
7C05
330
7B8C
100
AcDbEntity
  8
M01
100
AcDbPolyline
 90
        2
 70
     0
 43
0.0
 10
495.9223172892081
 20
406.9164542647158
 10
495.9223172892081
 20
411.4990299596716
  0
LINE
  5
7C06
330
7B8C
100
AcDbEntity
  8
M04
100
AcDbLine
 10
498.9223172892081
 20
549.2077421121926
 30
0.0
 11
498.9223172892081
 21
424.2077421121926
 31
0.0
  0
LINE
  5
7C07
330
7B8C
100
AcDbEntity
  8
M04
100
AcDbLine
 10
482.922317289208
 20
549.2077421121926
 30
0.0
 11
482.9223172892081
 21
424.2077421121926
 31
0.0
  0
LINE
  5
7C08
330
7B8C
100
AcDbEntity
  8
M01
100
AcDbLine
 10
488.672317289208
 20
491.2077421121927
 30
0.0
 11
486.1723172892081
 21
491.2077421121927
 31
0.0
  0
LINE
  5
7C09
330
7B8C
100
AcDbEntity
  8
M01
100
AcDbLine
 10
491.4223172892082
 20
516.2077421121929
 30
0.0
 11
483.4223172892079
 21
516.2077421121925
 31
0.0
  0
LINE
  5
7C0A
330
7B8C
100
AcDbEntity
  8
M01
100
AcDbLine
 10
491.4223172892082
 20
509.2077421121929
 30
0.0
 11
491.4223172892082
 21
516.2077421121929
 31
0.0
  0
LINE
  5
7C0B
330
7B8C
100
AcDbEntity
  8
M01
100
AcDbLine
 10
488.672317289208
 20
491.2077421121927
 30
0.0
 11
490.4223172892081
 21
501.1324852965247
 31
0.0
  0
LINE
  5
7C0C
330
7B8C
100
AcDbEntity
  8
M01
100
AcDbLine
 10
483.4223172892079
 20
509.2077421121926
 30
0.0
 11
483.4223172892079
 21
516.2077421121925
 31
0.0
  0
LINE
  5
7C0D
330
7B8C
100
AcDbEntity
  8
M01
100
AcDbLine
 10
486.1723172892082
 20
491.2077421121927
 30
0.0
 11
484.4223172892077
 21
501.1324852965254
 31
0.0
  0
LINE
  5
7C0E
330
7B8C
100
AcDbEntity
  8
M01
100
AcDbLine
 10
484.4223172892077
 20
501.1324852965254
 30
0.0
 11
484.4223172892078
 21
509.2077421121927
 31
0.0
  0
LINE
  5
7C0F
330
7B8C
100
AcDbEntity
  8
M01
100
AcDbLine
 10
490.4223172892081
 20
501.1324852965247
 30
0.0
 11
490.422317289208
 21
509.2077421121928
 31
0.0
  0
LINE
  5
7C10
330
7B8C
100
AcDbEntity
  8
M01
100
AcDbLine
 10
484.4223172892077
 20
501.1324852965254
 30
0.0
 11
490.4223172892081
 21
501.1324852965247
 31
0.0
  0
LINE
  5
7C11
330
7B8C
100
AcDbEntity
  8
M01
100
AcDbLine
 10
491.4223172892082
 20
509.2077421121929
 30
0.0
 11
483.4223172892079
 21
509.2077421121926
 31
0.0
  0
LINE
  5
7C12
330
7B8C
100
AcDbEntity
  8
M01
100
AcDbLine
 10
486.172317289208
 20
425.5306554550981
 30
0.0
 11
486.1723172892081
 21
491.2077421121927
 31
0.0
  0
LINE
  5
7C13
330
7B8C
100
AcDbEntity
  8
M01
100
AcDbLine
 10
488.6723172892081
 20
426.0581872101715
 30
0.0
 11
488.672317289208
 21
491.2077421121927
 31
0.0
  0
LINE
  5
7C14
330
7B8C
100
AcDbEntity
  8
CENTRE
 48
0.7
100
AcDbLine
 10
487.4223172892079
 20
484.6069879482461
 30
0.0
 11
487.4223172892081
 21
547.0603851609264
 31
0.0
  0
LINE
  5
7C15
330
7B8C
100
AcDbEntity
  8
M01
100
AcDbLine
 10
484.4223172892078
 20
516.2077421121925
 30
0.0
 11
484.4223172892078
 21
542.4235718033469
 31
0.0
  0
LINE
  5
7C16
330
7B8C
100
AcDbEntity
  8
M01
100
AcDbLine
 10
490.4223172892079
 20
516.2077421121928
 30
0.0
 11
490.4223172892079
 21
542.4235718033469
 31
0.0
  0
HATCH
  5
7C17
330
7B8C
100
AcDbEntity
  8
M04
100
AcDbHatch
 10
0.0
 20
0.0
 30
0.0
210
0.0
220
0.0
230
1.0
  2
_U
 70
     0
 71
     0
 91
        2
 92
        7
 72
     0
 73
     1
 93
        4
 10
487.4223172892081
 20
542.4235718033469
 10
484.422317289208
 20
542.423571803347
 10
484.422317289208
 20
516.2077421121925
 10
487.4223172892079
 20
516.2077421121927
 97
        0
 92
        7
 72
     0
 73
     1
 93
        4
 10
490.4223172892079
 20
542.4235718033469
 10
487.4223172892079
 20
542.4235718033469
 10
487.4223172892081
 20
516.2077421121925
 10
490.4223172892079
 20
516.2077421121928
 97
        0
 75
     0
 76
     0
 52
45.0
 41
1.0
 77
     1
 78
     2
 53
45.0
 43
-294.6248210943586
 44
75.32883416800586
 45
-0.7071067811865475
 46
0.7071067811865476
 79
     0
 53
135.0
 43
-294.6248210943586
 44
75.32883416800586
 45
-0.7071067811865476
 46
-0.7071067811865475
 79
     0
 47
0.0843056911458626
 98
        2
 10
486.5957358526106
 20
526.574101817677
 10
489.210240210692
 20
527.2485468012953
  0
LINE
  5
7C18
102
{ACAD_REACTORS
330
7D4C
102
}
330
7B8C
100
AcDbEntity
  8
CENTRE
 48
0.7
100
AcDbLine
 10
490.9223172892079
 20
383.2077421121927
 30
0.0
 11
490.9223172892079
 21
439.2077421121928
 31
0.0
  0
LINE
  5
7C19
330
7B8C
100
AcDbEntity
  8
M01
 48
0.7
100
AcDbLine
 10
491.9223172892078
 20
426.1783048606698
 30
0.0
 11
491.9223172892078
 21
437.1062065647089
 31
0.0
  0
LINE
  5
7C1A
330
7B8C
100
AcDbEntity
  8
M01
 48
0.7
100
AcDbLine
 10
489.9223172892079
 20
426.1783048606698
 30
0.0
 11
489.9223172892079
 21
437.1062065647089
 31
0.0
  0
LINE
  5
7C1B
330
7B8C
100
AcDbEntity
  8
M01
 48
0.7
100
AcDbLine
 10
496.3989047114204
 20
465.9937419672691
 30
0.0
 11
496.3989047114203
 21
484.2077421121927
 31
0.0
  0
LINE
  5
7C1C
330
7B8C
100
AcDbEntity
  8
M01
 48
0.7
100
AcDbLine
 10
494.3989047114206
 20
465.9937419672695
 30
0.0
 11
494.3989047114205
 21
484.2077421121928
 31
0.0
  0
LINE
  5
7C1D
330
7B8C
100
AcDbEntity
  8
CENTRE
100
AcDbLine
 10
495.3989047114204
 20
481.5465999379028
 30
0.0
 11
495.3989047114204
 21
542.7586530885361
 31
0.0
  0
ARC
  5
7C1E
330
7B8C
100
AcDbEntity
  8
M01
100
AcDbCircle
 10
510.9223172892079
 20
437.1062065647089
 30
0.0
 40
21.0
100
AcDbArc
 50
169.9999999999999
 51
180.0
  0
LINE
  5
7C1F
330
7B8C
100
AcDbEntity
  8
M01
100
AcDbLine
 10
494.1102520186525
 20
462.6944265915979
 30
0.0
 11
490.2413544759515
 21
440.7528182957144
 31
0.0
  0
ARC
  5
7C20
330
7B8C
100
AcDbEntity
  8
M01
100
AcDbCircle
 10
510.9223172892079
 20
437.1062065647089
 30
0.0
 40
19.0
100
AcDbArc
 50
169.9999999999999
 51
180.0
  0
LINE
  5
7C21
330
7B8C
100
AcDbEntity
  8
M01
100
AcDbLine
 10
496.0798675246768
 20
462.3471302362633
 30
0.0
 11
492.2109699819759
 21
440.4055219403806
 31
0.0
  0
LINE
  5
7C22
330
7B8C
100
AcDbEntity
  8
M01
100
AcDbLine
 10
497.1489047114205
 20
484.2077421121927
 30
0.0
 11
493.6489047114206
 21
484.2077421121929
 31
0.0
  0
LINE
  5
7C23
330
7B8C
100
AcDbEntity
  8
M01
100
AcDbLine
 10
497.6489047114204
 20
514.2077421121928
 30
0.0
 11
493.1489047114207
 21
514.2077421121928
 31
0.0
  0
LINE
  5
7C24
330
7B8C
100
AcDbEntity
  8
M01
100
AcDbLine
 10
497.6489047114205
 20
489.2077421121927
 30
0.0
 11
493.1489047114206
 21
489.2077421121928
 31
0.0
  0
LINE
  5
7C25
330
7B8C
100
AcDbEntity
  8
M01
 48
0.7
100
AcDbLine
 10
493.6489047114206
 20
484.2077421121929
 30
0.0
 11
493.6489047114206
 21
489.2077421121928
 31
0.0
  0
LINE
  5
7C26
330
7B8C
100
AcDbEntity
  8
M01
 48
0.7
100
AcDbLine
 10
497.1489047114205
 20
484.2077421121927
 30
0.0
 11
497.1489047114205
 21
489.2077421121927
 31
0.0
  0
LINE
  5
7C27
330
7B8C
100
AcDbEntity
  8
M01
100
AcDbLine
 10
497.6489047114204
 20
509.2077421121927
 30
0.0
 11
493.1489047114206
 21
509.2077421121929
 31
0.0
  0
LINE
  5
7C28
330
7B8C
100
AcDbEntity
  8
M01
 48
0.7
100
AcDbLine
 10
497.6489047114205
 20
489.2077421121927
 30
0.0
 11
497.6489047114204
 21
514.2077421121928
 31
0.0
  0
LINE
  5
7C29
330
7B8C
100
AcDbEntity
  8
M01
 48
0.7
100
AcDbLine
 10
493.1489047114206
 20
489.2077421121928
 30
0.0
 11
493.1489047114207
 21
514.2077421121928
 31
0.0
  0
LINE
  5
7C2A
330
7B8C
100
AcDbEntity
  8
M01
100
AcDbLine
 10
493.6489047114206
 20
514.2077421121927
 30
0.0
 11
493.6489047114206
 21
538.717277700464
 31
0.0
  0
LINE
  5
7C2B
330
7B8C
100
AcDbEntity
  8
M01
100
AcDbLine
 10
497.1489047114205
 20
514.2077421121928
 30
0.0
 11
497.1489047114205
 21
538.717277700464
 31
0.0
  0
HATCH
  5
7C2C
330
7B8C
100
AcDbEntity
  8
M04
100
AcDbHatch
 10
0.0
 20
0.0
 30
0.0
210
0.0
220
0.0
230
1.0
  2
_U
 70
     0
 71
     0
 91
        2
 92
        7
 72
     0
 73
     1
 93
        4
 10
495.3989047114204
 20
538.717277700464
 10
493.6489047114206
 20
538.717277700464
 10
493.6489047114206
 20
514.2077421121928
 10
495.3989047114204
 20
514.2077421121928
 97
        0
 92
        7
 72
     0
 73
     1
 93
        4
 10
497.1489047114205
 20
538.717277700464
 10
495.3989047114204
 20
538.717277700464
 10
495.3989047114204
 20
514.2077421121928
 10
497.1489047114205
 20
514.2077421121928
 97
        0
 75
     0
 76
     0
 52
45.0
 41
0.75
 77
     1
 78
     2
 53
45.0
 43
579.9599639976314
 44
409.2077421121927
 45
-0.5303300858899106
 46
0.5303300858899107
 79
     0
 53
135.0
 43
579.9599639976314
 44
409.2077421121927
 45
-0.5303300858899107
 46
-0.5303300858899106
 79
     0
 47
0.0985701327119849
 98
        2
 10
494.4684416393269
 20
517.7218388240937
 10
496.1447912069767
 20
518.2146895953277
  0
ARC
  5
7C2D
330
7B8C
100
AcDbEntity
  8
M01
 48
0.7
100
AcDbCircle
 10
475.3989047114204
 20
465.9937419672689
 30
0.0
 40
21.0
100
AcDbArc
 50
349.9999999999998
 51
0.0000000000004834
  0
ARC
  5
7C2E
330
7B8C
100
AcDbEntity
  8
M01
 48
0.7
100
AcDbCircle
 10
475.3989047114205
 20
465.9937419672696
 30
0.0
 40
19.0
100
AcDbArc
 50
349.9999999999998
 51
359.9999999999997
  0
TEXT
  5
7C2F
330
7B8C
100
AcDbEntity
  8
TEXT
 62
     1
100
AcDbText
 10
464.225702291624
 20
331.5380934234994
 30
0.0
 40
4.0
  1
%%UNOTE
100
AcDbText
  0
TEXT
  5
7C30
330
7B8C
100
AcDbEntity
  8
TEXT
 62
     1
100
AcDbText
 10
444.6524004751143
 20
323.0980231834198
 30
0.0
 40
3.0
  1
1. AN ALLOWANCE FOR EXPANSION OF THE BUSHING MUST BE MADE DEPENDENT ON THE
100
AcDbText
  0
TEXT
  5
7C31
330
7B8C
100
AcDbEntity
  8
TEXT
 62
     1
100
AcDbText
 10
444.6524004751143
 20
310.5034260420215
 30
0.0
 40
3.0
  1
2. %%C18.00 MUST BE A GROUND FIT, DO NOT SPARK ERODE. (DOES NOT APPLY TO SPRUE & RING-GATE TIPS).
100
AcDbText
  0
TEXT
  5
7C32
330
7B8C
100
AcDbEntity
  8
TEXT
 62
     1
100
AcDbText
 10
451.1198107135702
 20
317.7875932499482
 30
0.0
 40
3.0
  1
MATERIAL TO BE MOULDED AND THE PROCESS CONDITIONS - SEE CATALOGUE FOR DETAILS
100
AcDbText
  0
LINE
  5
7C33
330
7B8C
100
AcDbEntity
  8
M01
100
AcDbLine
 10
472.9521569989769
 20
595.3240959444404
 30
0.0
 11
482.4791349989768
 21
589.8240959444404
 31
0.0
  0
LINE
  5
7C34
330
7B8C
100
AcDbEntity
  8
M01
100
AcDbLine
 10
472.9521569989769
 20
595.3240959444404
 30
0.0
 11
482.4791349989768
 21
600.8240959444403
 31
0.0
  0
ARC
  5
7C35
330
7B8C
100
AcDbEntity
  8
M01
100
AcDbCircle
 10
478.4165119989768
 20
595.3240959444404
 30
0.0
 40
1.0
100
AcDbArc
 50
270.0
 51
89.99998500000002
  0
ARC
  5
7C36
330
7B8C
100
AcDbEntity
  8
M01
100
AcDbCircle
 10
477.7578209989768
 20
597.5448299444403
 30
0.0
 40
3.221401999999999
100
AcDbArc
 50
223.580139
 51
268.8319399999999
  0
ARC
  5
7C37
330
7B8C
100
AcDbEntity
  8
M01
100
AcDbCircle
 10
-477.7578209989768
 20
593.1033619444404
 30
0.0
 40
3.221401999999999
210
0.0
220
0.0
230
-1.0
100
AcDbArc
 50
43.58013900000003
 51
88.83193999999994
  0
ARC
  5
7C38
330
7B8C
100
AcDbEntity
  8
M01
100
AcDbCircle
 10
479.2657559989768
 20
595.3269339444402
 30
0.0
 40
0.811339
100
AcDbArc
 50
106.1792449999999
 51
254.199615
  0
LINE
  5
7C39
330
7B8C
100
AcDbEntity
  8
M01
100
AcDbLine
 10
478.4165119989768
 20
594.3240959444404
 30
0.0
 11
477.6921469989769
 21
594.3240959444404
 31
0.0
  0
LINE
  5
7C3A
330
7B8C
100
AcDbEntity
  8
M01
100
AcDbLine
 10
478.4165119989768
 20
596.3240959444403
 30
0.0
 11
477.6921469989769
 21
596.3240959444403
 31
0.0
  0
LINE
  5
7C3B
330
7B8C
100
AcDbEntity
  8
M01
100
AcDbLine
 10
482.4791349989768
 20
598.5086659444402
 30
0.0
 11
482.4791349989768
 21
597.6153559444403
 31
0.0
  0
LINE
  5
7C3C
330
7B8C
100
AcDbEntity
  8
M01
100
AcDbLine
 10
485.4521569989769
 20
589.8240959444404
 30
0.0
 11
482.4791349989768
 21
589.8240959444404
 31
0.0
  0
LINE
  5
7C3D
330
7B8C
100
AcDbEntity
  8
M01
100
AcDbLine
 10
482.4791349989768
 20
593.0328359444401
 30
0.0
 11
485.4521569989769
 21
593.0328359444401
 31
0.0
  0
LINE
  5
7C3E
330
7B8C
100
AcDbEntity
  8
M01
100
AcDbLine
 10
482.4791349989768
 20
592.1394649444403
 30
0.0
 11
485.4521569989769
 21
592.1394649444403
 31
0.0
  0
LINE
  5
7C3F
330
7B8C
100
AcDbEntity
  8
M01
100
AcDbLine
 10
485.4521569989769
 20
597.6153559444403
 30
0.0
 11
482.4791349989768
 21
597.6153559444403
 31
0.0
  0
LINE
  5
7C40
330
7B8C
100
AcDbEntity
  8
M01
100
AcDbLine
 10
482.4791349989768
 20
593.0328359444401
 30
0.0
 11
482.4791349989768
 21
592.1394649444403
 31
0.0
  0
ARC
  5
7C41
330
7B8C
100
AcDbEntity
  8
M01
100
AcDbCircle
 10
482.6075529989768
 20
590.9818109444402
 30
0.0
 40
1.164754999999999
100
AcDbArc
 50
96.32991000000004
 51
216.3421629999998
  0
ARC
  5
7C42
330
7B8C
100
AcDbEntity
  8
M01
100
AcDbCircle
 10
484.6038899989768
 20
595.3240959444404
 30
0.0
 40
3.124813
100
AcDbArc
 50
132.840698
 51
227.1592709999999
  0
LINE
  5
7C43
330
7B8C
100
AcDbEntity
  8
M01
100
AcDbLine
 10
485.4521569989769
 20
598.5086659444402
 30
0.0
 11
482.4791349989768
 21
598.5086659444402
 31
0.0
  0
LINE
  5
7C44
330
7B8C
100
AcDbEntity
  8
M01
100
AcDbLine
 10
485.4521569989769
 20
600.8240959444403
 30
0.0
 11
482.4791349989768
 21
600.8240959444403
 31
0.0
  0
ARC
  5
7C45
330
7B8C
100
AcDbEntity
  8
M01
100
AcDbCircle
 10
-482.6075529989768
 20
599.6663809444403
 30
0.0
 40
1.164754999999999
210
0.0
220
0.0
230
-1.0
100
AcDbArc
 50
276.32991
 51
36.34216299999993
  0
LINE
  5
7C46
330
7B8C
100
AcDbEntity
  8
CENTRE
 48
0.7
100
AcDbLine
 10
467.9521569989768
 20
595.3240959444401
 30
0.0
 11
490.4521569989769
 21
595.3240959444401
 31
0.0
  0
LINE
  5
7C47
330
7B8C
100
AcDbEntity
  8
M03
 62
     6
 48
0.7
100
AcDbLine
 10
478.4165122607762
 20
596.3240959444402
 30
0.0
 11
481.1608691514988
 21
596.3240959444402
 31
0.0
  0
LINE
  5
7C48
330
7B8C
100
AcDbEntity
  8
M03
 62
     6
 48
0.7
100
AcDbLine
 10
478.4165119989768
 20
594.3240959444404
 30
0.0
 11
481.1608691514988
 21
594.3240959444404
 31
0.0
  0
LINE
  5
7C49
330
7B8C
100
AcDbEntity
  8
M04
100
AcDbLine
 10
472.9521569989767
 20
610.3240959444401
 30
0.0
 11
472.952156998977
 21
580.3240959444402
 31
0.0
  0
LINE
  5
7C4A
330
7B8C
100
AcDbEntity
  8
M04
100
AcDbLine
 10
472.9521569989769
 20
595.8240959444403
 30
0.0
 11
473.1021569989768
 21
595.8240959444403
 31
0.0
  0
LINE
  5
7C4B
330
7B8C
100
AcDbEntity
  8
M04
100
AcDbLine
 10
472.9521569989769
 20
594.8240959444404
 30
0.0
 11
473.1021569989768
 21
594.8240959444404
 31
0.0
  0
LINE
  5
7C4C
330
7B8C
100
AcDbEntity
  8
M04
100
AcDbLine
 10
473.1021569989768
 20
595.8240959444403
 30
0.0
 11
473.1021569989768
 21
594.8240959444404
 31
0.0
  0
LINE
  5
7C4D
330
7B8C
100
AcDbEntity
  8
M04
100
AcDbLine
 10
473.1021569989768
 20
595.8240959444403
 30
0.0
 11
480.1376909049094
 21
602.859629850373
 31
0.0
  0
ARC
  5
7C4E
330
7B8C
100
AcDbEntity
  8
M04
100
AcDbCircle
 10
483.6732248108421
 20
599.3240959444401
 30
0.0
 40
5.0
100
AcDbArc
 50
90.0
 51
135.0
  0
LINE
  5
7C4F
330
7B8C
100
AcDbEntity
  8
M04
100
AcDbLine
 10
473.1021569989768
 20
594.8240959444404
 30
0.0
 11
480.1376909049094
 21
587.7885620385074
 31
0.0
  0
ARC
  5
7C50
330
7B8C
100
AcDbEntity
  8
M04
100
AcDbCircle
 10
483.6732248108421
 20
591.3240959444403
 30
0.0
 40
5.0
100
AcDbArc
 50
225.0
 51
270.0
  0
ARC
  5
7C51
330
7B8C
100
AcDbEntity
  8
M03
 62
     6
100
AcDbCircle
 10
483.4521569989768
 20
595.3240959444404
 30
0.0
 40
2.5
100
AcDbArc
 50
90.0
 51
270.0
  0
CIRCLE
  5
7C52
330
7B8C
100
AcDbEntity
  8
M04
100
AcDbCircle
 10
472.9521569989769
 20
595.3240959444404
 30
0.0
 40
1.25
  0
POINT
  5
7C53
330
7B8C
100
AcDbEntity
  8
DEFPOINTS
  6
ByBlock
 62
     0
100
AcDbPoint
 10
472.4733221414692
 20
596.4787461855244
 30
0.0
  0
LINE
  5
7C54
330
7B8C
100
AcDbEntity
  8
M03
 62
     6
100
AcDbLine
 10
483.4521569989768
 20
597.8240959444404
 30
0.0
 11
485.4521569989769
 21
597.8240959444404
 31
0.0
  0
LINE
  5
7C55
330
7B8C
100
AcDbEntity
  8
M03
 62
     6
100
AcDbLine
 10
483.4521569989768
 20
592.8240959444403
 30
0.0
 11
485.4521569989769
 21
592.8240959444403
 31
0.0
  0
LINE
  5
7C56
330
7B8C
100
AcDbEntity
  8
M01
100
AcDbLine
 10
505.4521569989768
 20
595.3240959444404
 30
0.0
 11
514.9791349989768
 21
589.8240959444404
 31
0.0
  0
LINE
  5
7C57
330
7B8C
100
AcDbEntity
  8
M01
100
AcDbLine
 10
505.4521569989768
 20
595.3240959444404
 30
0.0
 11
514.9791349989768
 21
600.8240959444403
 31
0.0
  0
ARC
  5
7C58
330
7B8C
100
AcDbEntity
  8
M01
100
AcDbCircle
 10
510.9165119989768
 20
595.3240959444404
 30
0.0
 40
1.0
100
AcDbArc
 50
270.0
 51
89.99998500000002
  0
ARC
  5
7C59
330
7B8C
100
AcDbEntity
  8
M01
100
AcDbCircle
 10
510.2578209989768
 20
597.5448299444403
 30
0.0
 40
3.221401999999999
100
AcDbArc
 50
223.580139
 51
268.8319399999999
  0
ARC
  5
7C5A
330
7B8C
100
AcDbEntity
  8
M01
100
AcDbCircle
 10
-510.2578209989768
 20
593.1033619444404
 30
0.0
 40
3.221401999999999
210
0.0
220
0.0
230
-1.0
100
AcDbArc
 50
43.58013900000003
 51
88.83193999999994
  0
ARC
  5
7C5B
330
7B8C
100
AcDbEntity
  8
M01
100
AcDbCircle
 10
511.7657559989768
 20
595.3269339444402
 30
0.0
 40
0.811339
100
AcDbArc
 50
106.1792449999999
 51
254.199615
  0
LINE
  5
7C5C
330
7B8C
100
AcDbEntity
  8
M01
100
AcDbLine
 10
510.9165119989768
 20
594.3240959444404
 30
0.0
 11
510.1921469989768
 21
594.3240959444404
 31
0.0
  0
LINE
  5
7C5D
330
7B8C
100
AcDbEntity
  8
M01
100
AcDbLine
 10
510.9165119989768
 20
596.3240959444403
 30
0.0
 11
510.1921469989768
 21
596.3240959444403
 31
0.0
  0
LINE
  5
7C5E
330
7B8C
100
AcDbEntity
  8
M01
100
AcDbLine
 10
514.9791349989768
 20
598.5086659444402
 30
0.0
 11
514.9791349989768
 21
597.6153559444403
 31
0.0
  0
LINE
  5
7C5F
330
7B8C
100
AcDbEntity
  8
M01
100
AcDbLine
 10
527.9521569989769
 20
589.8240959444404
 30
0.0
 11
514.9791349989768
 21
589.8240959444404
 31
0.0
  0
LINE
  5
7C60
330
7B8C
100
AcDbEntity
  8
M01
100
AcDbLine
 10
514.9791349989768
 20
593.0328359444401
 30
0.0
 11
517.9521569989768
 21
593.0328359444401
 31
0.0
  0
LINE
  5
7C61
330
7B8C
100
AcDbEntity
  8
M01
100
AcDbLine
 10
514.9791349989768
 20
592.1394649444403
 30
0.0
 11
517.9521569989768
 21
592.1394649444403
 31
0.0
  0
LINE
  5
7C62
330
7B8C
100
AcDbEntity
  8
M01
100
AcDbLine
 10
517.9521569989768
 20
597.6153559444403
 30
0.0
 11
514.9791349989768
 21
597.6153559444403
 31
0.0
  0
LINE
  5
7C63
330
7B8C
100
AcDbEntity
  8
M01
100
AcDbLine
 10
514.9791349989768
 20
593.0328359444401
 30
0.0
 11
514.9791349989768
 21
592.1394649444403
 31
0.0
  0
ARC
  5
7C64
330
7B8C
100
AcDbEntity
  8
M01
100
AcDbCircle
 10
515.1075529989769
 20
590.9818109444402
 30
0.0
 40
1.164754999999999
100
AcDbArc
 50
96.32991000000004
 51
216.3421629999998
  0
ARC
  5
7C65
330
7B8C
100
AcDbEntity
  8
M01
100
AcDbCircle
 10
517.1038899989769
 20
595.3240959444404
 30
0.0
 40
3.124813
100
AcDbArc
 50
132.840698
 51
227.1592709999999
  0
LINE
  5
7C66
330
7B8C
100
AcDbEntity
  8
M01
100
AcDbLine
 10
517.9521569989768
 20
598.5086659444402
 30
0.0
 11
514.9791349989768
 21
598.5086659444402
 31
0.0
  0
LINE
  5
7C67
330
7B8C
100
AcDbEntity
  8
M01
100
AcDbLine
 10
527.9521569989769
 20
600.8240959444403
 30
0.0
 11
514.9791349989768
 21
600.8240959444403
 31
0.0
  0
ARC
  5
7C68
330
7B8C
100
AcDbEntity
  8
M01
100
AcDbCircle
 10
-515.1075529989769
 20
599.6663809444403
 30
0.0
 40
1.164754999999999
210
0.0
220
0.0
230
-1.0
100
AcDbArc
 50
276.32991
 51
36.34216299999993
  0
LINE
  5
7C69
330
7B8C
100
AcDbEntity
  8
CENTRE
 48
0.7
100
AcDbLine
 10
500.4521569989768
 20
595.3240959444401
 30
0.0
 11
532.9521569989768
 21
595.3240959444401
 31
0.0
  0
LINE
  5
7C6A
330
7B8C
100
AcDbEntity
  8
M03
 62
     6
 48
0.7
100
AcDbLine
 10
510.9165122607762
 20
596.3240959444402
 30
0.0
 11
513.6608691514989
 21
596.3240959444402
 31
0.0
  0
LINE
  5
7C6B
330
7B8C
100
AcDbEntity
  8
M03
 62
     6
 48
0.7
100
AcDbLine
 10
510.9165119989768
 20
594.3240959444404
 30
0.0
 11
513.6608691514989
 21
594.3240959444404
 31
0.0
  0
LINE
  5
7C6C
330
7B8C
100
AcDbEntity
  8
M04
100
AcDbLine
 10
505.4521569989767
 20
610.3240959444401
 30
0.0
 11
505.452156998977
 21
580.3240959444402
 31
0.0
  0
LINE
  5
7C6D
330
7B8C
100
AcDbEntity
  8
M04
100
AcDbLine
 10
505.4521569989768
 20
595.8240959444403
 30
0.0
 11
505.6021569989768
 21
595.8240959444403
 31
0.0
  0
LINE
  5
7C6E
330
7B8C
100
AcDbEntity
  8
M04
100
AcDbLine
 10
505.4521569989768
 20
594.8240959444404
 30
0.0
 11
505.6021569989768
 21
594.8240959444404
 31
0.0
  0
LINE
  5
7C6F
330
7B8C
100
AcDbEntity
  8
M04
100
AcDbLine
 10
505.6021569989768
 20
595.8240959444403
 30
0.0
 11
505.6021569989768
 21
594.8240959444404
 31
0.0
  0
LINE
  5
7C70
330
7B8C
100
AcDbEntity
  8
M04
100
AcDbLine
 10
505.6021569989768
 20
595.8240959444403
 30
0.0
 11
512.6376909049094
 21
602.859629850373
 31
0.0
  0
ARC
  5
7C71
330
7B8C
100
AcDbEntity
  8
M04
100
AcDbCircle
 10
516.1732248108421
 20
599.3240959444401
 30
0.0
 40
5.0
100
AcDbArc
 50
90.0
 51
135.0
  0
LINE
  5
7C72
330
7B8C
100
AcDbEntity
  8
M04
100
AcDbLine
 10
505.6021569989768
 20
594.8240959444404
 30
0.0
 11
512.6376909049094
 21
587.7885620385074
 31
0.0
  0
ARC
  5
7C73
330
7B8C
100
AcDbEntity
  8
M04
100
AcDbCircle
 10
516.1732248108421
 20
591.3240959444403
 30
0.0
 40
5.0
100
AcDbArc
 50
225.0
 51
270.0
  0
ARC
  5
7C74
330
7B8C
100
AcDbEntity
  8
M03
 62
     6
100
AcDbCircle
 10
515.9521569989768
 20
595.3240959444404
 30
0.0
 40
2.5
100
AcDbArc
 50
90.0
 51
270.0
  0
CIRCLE
  5
7C75
330
7B8C
100
AcDbEntity
  8
M04
100
AcDbCircle
 10
505.4521569989768
 20
595.3240959444404
 30
0.0
 40
1.25
  0
POINT
  5
7C76
330
7B8C
100
AcDbEntity
  8
DEFPOINTS
  6
ByBlock
 62
     0
100
AcDbPoint
 10
504.9733221414692
 20
596.4787461855244
 30
0.0
  0
LINE
  5
7C77
330
7B8C
100
AcDbEntity
  8
M03
 62
     6
100
AcDbLine
 10
515.9521569989768
 20
597.8240959444404
 30
0.0
 11
527.9521569989769
 21
597.8240959444404
 31
0.0
  0
LINE
  5
7C78
330
7B8C
100
AcDbEntity
  8
M03
 62
     6
100
AcDbLine
 10
515.9521569989768
 20
592.8240959444403
 30
0.0
 11
527.9521569989769
 21
592.8240959444403
 31
0.0
  0
LINE
  5
7C79
330
7B8C
100
AcDbEntity
  8
M01
100
AcDbLine
 10
554.0147793626134
 20
591.8240959444402
 30
0.0
 11
557.4791349989768
 21
589.8240959444404
 31
0.0
  0
LINE
  5
7C7A
330
7B8C
100
AcDbEntity
  8
M01
100
AcDbLine
 10
554.0147793626127
 20
598.8240959444401
 30
0.0
 11
557.4791349989768
 21
600.8240959444403
 31
0.0
  0
LINE
  5
7C7B
330
7B8C
100
AcDbEntity
  8
M01
100
AcDbLine
 10
557.4791349989768
 20
598.5086659444402
 30
0.0
 11
557.4791349989768
 21
597.6153559444403
 31
0.0
  0
LINE
  5
7C7C
330
7B8C
100
AcDbEntity
  8
M01
100
AcDbLine
 10
560.4521569989767
 20
589.8240959444404
 30
0.0
 11
557.4791349989768
 21
589.8240959444404
 31
0.0
  0
LINE
  5
7C7D
330
7B8C
100
AcDbEntity
  8
M01
100
AcDbLine
 10
557.4791349989768
 20
593.0328359444401
 30
0.0
 11
560.4521569989767
 21
593.0328359444401
 31
0.0
  0
LINE
  5
7C7E
330
7B8C
100
AcDbEntity
  8
M01
100
AcDbLine
 10
557.4791349989768
 20
592.1394649444403
 30
0.0
 11
560.4521569989767
 21
592.1394649444403
 31
0.0
  0
LINE
  5
7C7F
330
7B8C
100
AcDbEntity
  8
M01
100
AcDbLine
 10
560.4521569989767
 20
597.6153559444403
 30
0.0
 11
557.4791349989768
 21
597.6153559444403
 31
0.0
  0
LINE
  5
7C80
330
7B8C
100
AcDbEntity
  8
M01
100
AcDbLine
 10
557.4791349989768
 20
593.0328359444401
 30
0.0
 11
557.4791349989768
 21
592.1394649444403
 31
0.0
  0
ARC
  5
7C81
330
7B8C
100
AcDbEntity
  8
M01
100
AcDbCircle
 10
557.6075529989768
 20
590.9818109444402
 30
0.0
 40
1.164754999999999
100
AcDbArc
 50
96.32991000000004
 51
216.3421629999998
  0
ARC
  5
7C82
330
7B8C
100
AcDbEntity
  8
M01
100
AcDbCircle
 10
559.6038899989768
 20
595.3240959444404
 30
0.0
 40
3.124813
100
AcDbArc
 50
132.840698
 51
227.1592709999999
  0
LINE
  5
7C83
330
7B8C
100
AcDbEntity
  8
M01
100
AcDbLine
 10
560.4521569989767
 20
598.5086659444402
 30
0.0
 11
557.4791349989768
 21
598.5086659444402
 31
0.0
  0
LINE
  5
7C84
330
7B8C
100
AcDbEntity
  8
M01
100
AcDbLine
 10
560.4521569989767
 20
600.8240959444403
 30
0.0
 11
557.4791349989768
 21
600.8240959444403
 31
0.0
  0
ARC
  5
7C85
330
7B8C
100
AcDbEntity
  8
M01
100
AcDbCircle
 10
-557.6075529989768
 20
599.6663809444403
 30
0.0
 40
1.164754999999999
210
0.0
220
0.0
230
-1.0
100
AcDbArc
 50
276.32991
 51
36.34216299999993
  0
LINE
  5
7C86
330
7B8C
100
AcDbEntity
  8
CENTRE
 48
0.7
100
AcDbLine
 10
542.9521569989767
 20
595.3240959444401
 30
0.0
 11
565.4521569989767
 21
595.3240959444401
 31
0.0
  0
LINE
  5
7C87
330
7B8C
100
AcDbEntity
  8
M04
100
AcDbLine
 10
547.9521569989767
 20
610.3240959444401
 30
0.0
 11
547.952156998977
 21
580.3240959444402
 31
0.0
  0
LINE
  5
7C88
330
7B8C
100
AcDbEntity
  8
M04
100
AcDbLine
 10
548.1021569989768
 20
596.0740959444401
 30
0.0
 11
548.1021569989768
 21
594.5740959444401
 31
0.0
  0
LINE
  5
7C89
330
7B8C
100
AcDbEntity
  8
M04
100
AcDbLine
 10
548.1021569989768
 20
596.0740959444401
 30
0.0
 11
554.8876909049092
 21
602.8596298503728
 31
0.0
  0
LINE
  5
7C8A
330
7B8C
100
AcDbEntity
  8
M04
100
AcDbLine
 10
548.1021569989768
 20
594.5740959444401
 30
0.0
 11
554.8876909049087
 21
587.7885620385077
 31
0.0
  0
CIRCLE
  5
7C8B
330
7B8C
100
AcDbEntity
  8
M04
100
AcDbCircle
 10
547.9521569989767
 20
595.3240959444404
 30
0.0
 40
1.25
  0
POINT
  5
7C8C
330
7B8C
100
AcDbEntity
  8
DEFPOINTS
  6
ByBlock
 62
     0
100
AcDbPoint
 10
547.4733221414692
 20
596.4787461855244
 30
0.0
  0
LINE
  5
7C8D
330
7B8C
100
AcDbEntity
  8
M03
 62
     6
100
AcDbLine
 10
558.4521569989767
 20
597.8240959444404
 30
0.0
 11
560.4521569989767
 21
597.8240959444404
 31
0.0
  0
LINE
  5
7C8E
330
7B8C
100
AcDbEntity
  8
M03
 62
     6
100
AcDbLine
 10
558.4521569989767
 20
592.8240959444403
 30
0.0
 11
560.4521569989767
 21
592.8240959444403
 31
0.0
  0
LINE
  5
7C8F
330
7B8C
100
AcDbEntity
  8
CENTRE
 48
0.7
100
AcDbLine
 10
575.4521569989767
 20
595.3240959444401
 30
0.0
 11
597.9521569989767
 21
595.3240959444401
 31
0.0
  0
LINE
  5
7C90
330
7B8C
100
AcDbEntity
  8
M04
100
AcDbLine
 10
580.4521569989767
 20
610.3240959444401
 30
0.0
 11
580.452156998977
 21
580.3240959444402
 31
0.0
  0
CIRCLE
  5
7C91
330
7B8C
100
AcDbEntity
  8
M04
100
AcDbCircle
 10
580.4521569989767
 20
595.3240959444404
 30
0.0
 40
1.25
  0
POINT
  5
7C92
330
7B8C
100
AcDbEntity
  8
DEFPOINTS
  6
ByBlock
 62
     0
100
AcDbPoint
 10
579.9733221414692
 20
596.4787461855244
 30
0.0
  0
LINE
  5
7C93
330
7B8C
100
AcDbEntity
  8
CENTRE
 48
0.7
100
AcDbLine
 10
607.9521569989768
 20
595.3240959444401
 30
0.0
 11
630.4521569989767
 21
595.3240959444401
 31
0.0
  0
LINE
  5
7C94
330
7B8C
100
AcDbEntity
  8
M04
100
AcDbLine
 10
612.9521569989767
 20
610.3240959444401
 30
0.0
 11
612.9521569989769
 21
580.3240959444402
 31
0.0
  0
CIRCLE
  5
7C95
330
7B8C
100
AcDbEntity
  8
M04
100
AcDbCircle
 10
655.4521569989767
 20
595.3240959444404
 30
0.0
 40
1.25
  0
POINT
  5
7C96
330
7B8C
100
AcDbEntity
  8
DEFPOINTS
  6
ByBlock
 62
     0
100
AcDbPoint
 10
654.9733221414692
 20
596.4787461855244
 30
0.0
  0
MTEXT
  5
7C97
330
7B8C
100
AcDbEntity
  8
M01
100
AcDbMText
 10
468.1194278880648
 20
575.7550736453198
 30
0.0
 40
3.0
 41
23.64
 71
     1
 72
     5
  1
Standard\PPinpoint\PDG010020
 73
     1
 44
1.0
  0
MTEXT
  5
7C98
330
7B8C
100
AcDbEntity
  8
M01
100
AcDbMText
 10
500.6194278880649
 20
575.7550736453198
 30
0.0
 40
3.0
 41
23.64
 71
     1
 72
     5
  1
Extended\PPinpoint\PDG010032
 73
     1
 44
1.0
  0
MTEXT
  5
7C99
330
7B8C
100
AcDbEntity
  8
M01
100
AcDbMText
 10
543.1194278880647
 20
575.7550736453198
 30
0.0
 40
3.0
 41
23.64
 71
     1
 72
     5
  1
Thru'flow\PPinpoint\PDG010031
 73
     1
 44
1.0
  0
MTEXT
  5
7C9A
330
7B8C
100
AcDbEntity
  8
M01
100
AcDbMText
 10
575.6194278880648
 20
575.7550736453198
 30
0.0
 40
3.0
 41
23.64
 71
     1
 72
     5
  1
Standard \PSprue\PDG030020
 73
     1
 44
1.0
  0
MTEXT
  5
7C9B
330
7B8C
100
AcDbEntity
  8
M01
100
AcDbMText
 10
608.1194278880648
 20
575.7550736453198
 30
0.0
 40
3.0
 41
36.15
 71
     1
 72
     5
  1
Extended \PSprue\PDG030020SP1
 73
     1
 44
1.0
  0
CIRCLE
  5
7C9C
330
7B8C
100
AcDbEntity
  8
M04
100
AcDbCircle
 10
590.9833765754188
 20
409.2077311121927
 30
0.0
 40
1.25
  0
LINE
  5
7C9D
330
7B8C
100
AcDbEntity
  8
M01
100
AcDbLine
 10
591.4833765754188
 20
408.0620871884537
 30
0.0
 11
591.4833765754188
 21
400.2077421121927
 31
0.0
  0
LINE
  5
7C9E
330
7B8C
100
AcDbEntity
  8
M01
100
AcDbLine
 10
485.4521569989769
 20
596.5740959444401
 30
0.0
 11
485.4521569989769
 21
594.0740959444402
 31
0.0
  0
CIRCLE
  5
7C9F
330
7B8C
100
AcDbEntity
  8
M04
100
AcDbCircle
 10
485.4521569989769
 20
595.3240959444401
 30
0.0
 40
1.25
  0
LINE
  5
7CA0
330
7B8C
100
AcDbEntity
  8
M01
100
AcDbLine
 10
517.9521569989768
 20
600.8240959444403
 30
0.0
 11
517.9521569989768
 21
589.8240959444404
 31
0.0
  0
LINE
  5
7CA1
330
7B8C
100
AcDbEntity
  8
M01
100
AcDbLine
 10
527.9521569989769
 20
596.5740959444401
 30
0.0
 11
527.9521569989769
 21
594.0740959444402
 31
0.0
  0
CIRCLE
  5
7CA2
330
7B8C
100
AcDbEntity
  8
M04
100
AcDbCircle
 10
527.9521569989769
 20
595.3240959444401
 30
0.0
 40
1.25
  0
LINE
  5
7CA3
330
7B8C
100
AcDbEntity
  8
M01
100
AcDbLine
 10
592.9521569989767
 20
596.5740959444401
 30
0.0
 11
592.9521569989767
 21
594.0740959444402
 31
0.0
  0
CIRCLE
  5
7CA4
330
7B8C
100
AcDbEntity
  8
M04
100
AcDbCircle
 10
592.9521569989767
 20
595.3240959444401
 30
0.0
 40
1.25
  0
LINE
  5
7CA5
330
7B8C
100
AcDbEntity
  8
M04
100
AcDbLine
 10
589.4521569989767
 20
601.82409594444
 30
0.0
 11
589.4521569989769
 21
588.8240959444405
 31
0.0
  0
LINE
  5
7CA6
330
7B8C
100
AcDbEntity
  8
M01
100
AcDbLine
 10
580.4521569989768
 20
590.3240959444401
 30
0.0
 11
589.4521569989769
 21
590.3240959444401
 31
0.0
  0
LINE
  5
7CA7
330
7B8C
100
AcDbEntity
  8
M01
100
AcDbLine
 10
580.4521569989768
 20
600.3240959444402
 30
0.0
 11
589.4521569989769
 21
600.3240959444402
 31
0.0
  0
LINE
  5
7CA8
330
7B8C
100
AcDbEntity
  8
M03
 62
     6
100
AcDbLine
 10
592.9521569989767
 20
596.1395873588028
 30
0.0
 11
580.4521569989768
 21
596.6853491451593
 31
0.0
  0
LINE
  5
7CA9
330
7B8C
100
AcDbEntity
  8
M03
 62
     6
100
AcDbLine
 10
592.9521569989767
 20
594.5086045300773
 30
0.0
 11
580.4521569989768
 21
593.9628427437209
 31
0.0
  0
LINE
  5
7CAA
330
7B8C
100
AcDbEntity
  8
M04
100
AcDbLine
 10
588.4521569989767
 20
603.3240959444401
 30
0.0
 11
588.4521569989768
 21
600.3240959444402
 31
0.0
  0
LINE
  5
7CAB
330
7B8C
100
AcDbEntity
  8
M01
 62
     0
100
AcDbLine
 10
582.4521569989768
 20
600.3240959444402
 30
0.0
 11
582.9521569989768
 21
600.8240959444401
 31
0.0
  0
LINE
  5
7CAC
330
7B8C
100
AcDbEntity
  8
M01
 62
     0
100
AcDbLine
 10
582.9521569989768
 20
600.8240959444401
 30
0.0
 11
588.4521569989768
 21
600.8240959444401
 31
0.0
  0
LINE
  5
7CAD
330
7B8C
100
AcDbEntity
  8
M01
 62
     0
100
AcDbLine
 10
582.4521569989757
 20
590.3240959444402
 30
0.0
 11
582.9521569989755
 21
589.8240959444401
 31
0.0
  0
LINE
  5
7CAE
330
7B8C
100
AcDbEntity
  8
M01
 62
     0
100
AcDbLine
 10
582.9521569989755
 20
589.8240959444401
 30
0.0
 11
588.4521569989756
 21
589.8240959444389
 31
0.0
  0
LINE
  5
7CAF
330
7B8C
100
AcDbEntity
  8
M04
100
AcDbLine
 10
595.4521569989768
 20
607.3240959444401
 30
0.0
 11
595.4521569989768
 21
604.3240959444402
 31
0.0
  0
LINE
  5
7CB0
330
7B8C
100
AcDbEntity
  8
M01
 62
     0
100
AcDbLine
 10
590.4521569989767
 20
605.3240959444401
 30
0.0
 11
595.4521569989768
 21
605.3240959444401
 31
0.0
  0
LINE
  5
7CB1
330
7B8C
100
AcDbEntity
  8
M01
 62
     0
100
AcDbLine
 10
590.4521569989769
 20
585.3240959444401
 30
0.0
 11
595.4521569989769
 21
585.3240959444401
 31
0.0
  0
ARC
  5
7CB2
330
7B8C
100
AcDbEntity
  8
M01
 62
     0
100
AcDbCircle
 10
590.4521569989767
 20
603.3240959444401
 30
0.0
 40
2.0
100
AcDbArc
 50
90.0
 51
180.0000000000004
  0
ARC
  5
7CB3
330
7B8C
100
AcDbEntity
  8
M01
 62
     0
100
AcDbCircle
 10
590.4521569989769
 20
587.3240959444401
 30
0.0
 40
2.0
100
AcDbArc
 50
180.0000000000005
 51
270.0
  0
ARC
  5
7CB4
330
7B8C
100
AcDbEntity
  8
M01
 62
     0
100
AcDbCircle
 10
597.4521569989767
 20
607.3240959444401
 30
0.0
 40
2.0
100
AcDbArc
 50
90.0
 51
180.0000000000004
  0
ARC
  5
7CB5
330
7B8C
100
AcDbEntity
  8
M01
 62
     0
100
AcDbCircle
 10
597.4521569989771
 20
583.3240959444402
 30
0.0
 40
2.0
100
AcDbArc
 50
180.0000000000004
 51
270.0
  0
LINE
  5
7CB6
330
7B8C
100
AcDbEntity
  8
M04
100
AcDbLine
 10
588.452156998977
 20
590.3240959444401
 30
0.0
 11
588.452156998977
 21
587.3240959444401
 31
0.0
  0
LINE
  5
7CB7
330
7B8C
100
AcDbEntity
  8
M04
100
AcDbLine
 10
592.7521569989766
 20
602.8240959444401
 30
0.0
 11
592.7521569989768
 21
596.5579922123654
 31
0.0
  0
LINE
  5
7CB8
330
7B8C
100
AcDbEntity
  8
M01
 62
     0
100
AcDbLine
 10
590.0295072681664
 20
602.8240959444401
 30
0.0
 11
592.7521569989768
 21
602.8240959444401
 31
0.0
  0
LINE
  5
7CB9
330
7B8C
100
AcDbEntity
  8
M01
 62
     0
100
AcDbLine
 10
590.0295072681666
 20
587.8240959444402
 30
0.0
 11
592.7521569989769
 21
587.8240959444402
 31
0.0
  0
LINE
  5
7CBA
330
7B8C
100
AcDbEntity
  8
M04
100
AcDbLine
 10
595.4521569989771
 20
586.3240959444403
 30
0.0
 11
595.4521569989771
 21
583.3240959444402
 31
0.0
  0
LINE
  5
7CBB
330
7B8C
100
AcDbEntity
  8
M01
 62
     0
100
AcDbLine
 10
590.0295072681666
 20
599.3240959444401
 30
0.0
 11
592.7521569989766
 21
599.3240959444401
 31
0.0
  0
LINE
  5
7CBC
330
7B8C
100
AcDbEntity
  8
M01
 62
     0
100
AcDbLine
 10
590.0295072681664
 20
591.3240959444401
 30
0.0
 11
592.7521569989768
 21
591.3240959444401
 31
0.0
  0
LINE
  5
7CBD
330
7B8C
100
AcDbEntity
  8
M01
 62
     0
100
AcDbLine
 10
589.452156998977
 20
588.8240959444401
 30
0.0
 11
590.0295072681666
 21
587.8240959444403
 31
0.0
  0
LINE
  5
7CBE
330
7B8C
100
AcDbEntity
  8
M01
 62
     0
100
AcDbLine
 10
589.4521569989767
 20
601.8240959444401
 30
0.0
 11
590.0295072681664
 21
602.82409594444
 31
0.0
  0
ARC
  5
7CBF
330
7B8C
100
AcDbEntity
  8
M01
 62
     0
100
AcDbCircle
 10
603.5972385941196
 20
595.3240959444401
 30
0.0
 40
14.14508159514285
100
AcDbArc
 50
163.57357859652
 51
196.4264214034798
  0
ARC
  5
7CC0
330
7B8C
100
AcDbEntity
  8
M01
 62
     0
100
AcDbCircle
 10
603.5972385941196
 20
603.3240959444401
 30
0.0
 40
14.14508159514285
100
AcDbArc
 50
185.6095777321843
 51
196.4264214034798
  0
ARC
  5
7CC1
330
7B8C
100
AcDbEntity
  8
M01
 62
     0
100
AcDbCircle
 10
603.5972385941196
 20
587.3240959444401
 30
0.0
 40
14.14508159514285
100
AcDbArc
 50
163.57357859652
 51
174.3904222678147
  0
LINE
  5
7CC2
330
7B8C
100
AcDbEntity
  8
M04
100
AcDbLine
 10
592.7521569989769
 20
594.0901996765148
 30
0.0
 11
592.7521569989768
 21
587.8240959444402
 31
0.0
  0
LINE
  5
7CC3
330
7B8C
100
AcDbEntity
  8
M04
100
AcDbLine
 10
622.9521569989767
 20
610.3240959444402
 30
0.0
 11
622.952156998977
 21
580.3240959444403
 31
0.0
  0
LINE
  5
7CC4
330
7B8C
100
AcDbEntity
  8
CENTRE
 48
0.7
100
AcDbLine
 10
617.9521569989768
 20
595.3240959444399
 30
0.0
 11
640.4521569989769
 21
595.3240959444399
 31
0.0
  0
LINE
  5
7CC5
330
7B8C
100
AcDbEntity
  8
M04
100
AcDbLine
 10
622.9521569989769
 20
610.3240959444399
 30
0.0
 11
622.9521569989771
 21
580.32409594444
 31
0.0
  0
CIRCLE
  5
7CC6
330
7B8C
100
AcDbEntity
  8
M04
100
AcDbCircle
 10
622.9521569989769
 20
595.3240959444401
 30
0.0
 40
1.25
  0
POINT
  5
7CC7
330
7B8C
100
AcDbEntity
  8
DEFPOINTS
  6
ByBlock
 62
     0
100
AcDbPoint
 10
622.4733221414693
 20
596.4787461855242
 30
0.0
  0
LINE
  5
7CC8
330
7B8C
100
AcDbEntity
  8
M01
100
AcDbLine
 10
635.4521569989769
 20
596.5740959444399
 30
0.0
 11
635.4521569989769
 21
594.0740959444399
 31
0.0
  0
CIRCLE
  5
7CC9
330
7B8C
100
AcDbEntity
  8
M04
100
AcDbCircle
 10
635.4521569989769
 20
595.3240959444399
 30
0.0
 40
1.25
  0
LINE
  5
7CCA
330
7B8C
100
AcDbEntity
  8
M04
100
AcDbLine
 10
631.9521569989769
 20
601.8240959444398
 30
0.0
 11
631.9521569989769
 21
588.8240959444402
 31
0.0
  0
LINE
  5
7CCB
330
7B8C
100
AcDbEntity
  8
M01
100
AcDbLine
 10
612.9521569989768
 20
590.32409594444
 30
0.0
 11
631.9521569989769
 21
590.3240959444399
 31
0.0
  0
LINE
  5
7CCC
330
7B8C
100
AcDbEntity
  8
M01
100
AcDbLine
 10
612.9521569989768
 20
600.3240959444399
 30
0.0
 11
631.9521569989769
 21
600.3240959444399
 31
0.0
  0
LINE
  5
7CCD
330
7B8C
100
AcDbEntity
  8
M03
 62
     6
100
AcDbLine
 10
635.4521569989769
 20
596.1395873588026
 30
0.0
 11
612.9521569989767
 21
597.1219585742442
 31
0.0
  0
LINE
  5
7CCE
330
7B8C
100
AcDbEntity
  8
M03
 62
     6
100
AcDbLine
 10
635.4521569989769
 20
594.5086045300771
 30
0.0
 11
612.9521569989768
 21
593.5262333146357
 31
0.0
  0
LINE
  5
7CCF
330
7B8C
100
AcDbEntity
  8
M04
100
AcDbLine
 10
630.9521569989769
 20
603.3240959444399
 30
0.0
 11
630.952156998977
 21
600.3240959444399
 31
0.0
  0
LINE
  5
7CD0
330
7B8C
100
AcDbEntity
  8
M01
 62
     0
100
AcDbLine
 10
624.9521569989769
 20
600.3240959444399
 30
0.0
 11
625.4521569989768
 21
600.8240959444399
 31
0.0
  0
LINE
  5
7CD1
330
7B8C
100
AcDbEntity
  8
M01
 62
     0
100
AcDbLine
 10
625.4521569989768
 20
600.8240959444399
 30
0.0
 11
630.952156998977
 21
600.8240959444399
 31
0.0
  0
LINE
  5
7CD2
330
7B8C
100
AcDbEntity
  8
M01
 62
     0
100
AcDbLine
 10
624.9521569989759
 20
590.32409594444
 30
0.0
 11
625.4521569989756
 21
589.8240959444399
 31
0.0
  0
LINE
  5
7CD3
330
7B8C
100
AcDbEntity
  8
M01
 62
     0
100
AcDbLine
 10
625.4521569989756
 20
589.8240959444399
 30
0.0
 11
630.9521569989757
 21
589.8240959444386
 31
0.0
  0
LINE
  5
7CD4
330
7B8C
100
AcDbEntity
  8
M04
100
AcDbLine
 10
637.9521569989768
 20
607.3240959444399
 30
0.0
 11
637.9521569989769
 21
604.32409594444
 31
0.0
  0
LINE
  5
7CD5
330
7B8C
100
AcDbEntity
  8
M01
 62
     0
100
AcDbLine
 10
632.9521569989768
 20
605.3240959444399
 30
0.0
 11
637.9521569989768
 21
605.3240959444399
 31
0.0
  0
LINE
  5
7CD6
330
7B8C
100
AcDbEntity
  8
M01
 62
     0
100
AcDbLine
 10
632.9521569989771
 20
585.3240959444399
 30
0.0
 11
637.9521569989771
 21
585.3240959444399
 31
0.0
  0
ARC
  5
7CD7
330
7B8C
100
AcDbEntity
  8
M01
 62
     0
100
AcDbCircle
 10
632.9521569989768
 20
603.3240959444399
 30
0.0
 40
2.0
100
AcDbArc
 50
90.0
 51
180.0000000000004
  0
ARC
  5
7CD8
330
7B8C
100
AcDbEntity
  8
M01
 62
     0
100
AcDbCircle
 10
632.9521569989771
 20
587.3240959444399
 30
0.0
 40
2.0
100
AcDbArc
 50
180.0000000000005
 51
270.0
  0
ARC
  5
7CD9
330
7B8C
100
AcDbEntity
  8
M01
 62
     0
100
AcDbCircle
 10
639.9521569989769
 20
607.3240959444399
 30
0.0
 40
2.0
100
AcDbArc
 50
90.0
 51
180.0000000000004
  0
ARC
  5
7CDA
330
7B8C
100
AcDbEntity
  8
M01
 62
     0
100
AcDbCircle
 10
639.9521569989772
 20
583.3240959444399
 30
0.0
 40
2.0
100
AcDbArc
 50
180.0000000000004
 51
270.0
  0
LINE
  5
7CDB
330
7B8C
100
AcDbEntity
  8
M04
100
AcDbLine
 10
630.9521569989771
 20
590.3240959444399
 30
0.0
 11
630.9521569989771
 21
587.3240959444399
 31
0.0
  0
LINE
  5
7CDC
330
7B8C
100
AcDbEntity
  8
M04
100
AcDbLine
 10
635.2521569989768
 20
602.8240959444399
 30
0.0
 11
635.2521569989769
 21
596.5579922123652
 31
0.0
  0
LINE
  5
7CDD
330
7B8C
100
AcDbEntity
  8
M01
 62
     0
100
AcDbLine
 10
632.5295072681665
 20
602.8240959444399
 30
0.0
 11
635.2521569989769
 21
602.8240959444399
 31
0.0
  0
LINE
  5
7CDE
330
7B8C
100
AcDbEntity
  8
M01
 62
     0
100
AcDbLine
 10
632.5295072681667
 20
587.82409594444
 30
0.0
 11
635.252156998977
 21
587.8240959444399
 31
0.0
  0
LINE
  5
7CDF
330
7B8C
100
AcDbEntity
  8
M04
100
AcDbLine
 10
637.9521569989772
 20
586.32409594444
 30
0.0
 11
637.9521569989772
 21
583.3240959444399
 31
0.0
  0
LINE
  5
7CE0
330
7B8C
100
AcDbEntity
  8
M01
 62
     0
100
AcDbLine
 10
632.5295072681667
 20
599.3240959444399
 30
0.0
 11
635.2521569989768
 21
599.3240959444399
 31
0.0
  0
LINE
  5
7CE1
330
7B8C
100
AcDbEntity
  8
M01
 62
     0
100
AcDbLine
 10
632.5295072681666
 20
591.3240959444399
 30
0.0
 11
635.2521569989769
 21
591.3240959444399
 31
0.0
  0
LINE
  5
7CE2
330
7B8C
100
AcDbEntity
  8
M01
 62
     0
100
AcDbLine
 10
631.952156998977
 20
588.8240959444399
 30
0.0
 11
632.5295072681667
 21
587.8240959444402
 31
0.0
  0
LINE
  5
7CE3
330
7B8C
100
AcDbEntity
  8
M01
 62
     0
100
AcDbLine
 10
631.9521569989769
 20
601.8240959444399
 30
0.0
 11
632.5295072681665
 21
602.8240959444397
 31
0.0
  0
ARC
  5
7CE4
330
7B8C
100
AcDbEntity
  8
M01
 62
     0
100
AcDbCircle
 10
646.0972385941197
 20
595.3240959444399
 30
0.0
 40
14.14508159514285
100
AcDbArc
 50
163.57357859652
 51
196.4264214034798
  0
ARC
  5
7CE5
330
7B8C
100
AcDbEntity
  8
M01
 62
     0
100
AcDbCircle
 10
646.0972385941197
 20
603.3240959444399
 30
0.0
 40
14.14508159514285
100
AcDbArc
 50
185.6095777321843
 51
196.4264214034798
  0
ARC
  5
7CE6
330
7B8C
100
AcDbEntity
  8
M01
 62
     0
100
AcDbCircle
 10
646.0972385941197
 20
587.3240959444399
 30
0.0
 40
14.14508159514285
100
AcDbArc
 50
163.57357859652
 51
174.3904222678147
  0
LINE
  5
7CE7
330
7B8C
100
AcDbEntity
  8
M04
100
AcDbLine
 10
635.252156998977
 20
594.0901996765147
 30
0.0
 11
635.2521569989769
 21
587.8240959444399
 31
0.0
  0
LINE
  5
7CE8
330
7B8C
100
AcDbEntity
  8
CENTRE
 48
0.7
100
AcDbLine
 10
650.4521569989767
 20
595.3240959444401
 30
0.0
 11
672.9521569989767
 21
595.3240959444401
 31
0.0
  0
LINE
  5
7CE9
330
7B8C
100
AcDbEntity
  8
M04
100
AcDbLine
 10
655.4521569989767
 20
610.3240959444401
 30
0.0
 11
655.452156998977
 21
580.3240959444402
 31
0.0
  0
POINT
  5
7CEA
330
7B8C
100
AcDbEntity
  8
DEFPOINTS
  6
ByBlock
 62
     0
100
AcDbPoint
 10
654.9733221414692
 20
596.4787461855244
 30
0.0
  0
LINE
  5
7CEB
330
7B8C
100
AcDbEntity
  8
M01
100
AcDbLine
 10
667.9521569989767
 20
596.5740959444401
 30
0.0
 11
667.9521569989767
 21
594.0740959444402
 31
0.0
  0
CIRCLE
  5
7CEC
330
7B8C
100
AcDbEntity
  8
M04
100
AcDbCircle
 10
667.9521569989767
 20
595.3240959444401
 30
0.0
 40
1.25
  0
LINE
  5
7CED
330
7B8C
100
AcDbEntity
  8
M04
100
AcDbLine
 10
664.4521569989767
 20
601.82409594444
 30
0.0
 11
664.4521569989769
 21
588.8240959444405
 31
0.0
  0
LINE
  5
7CEE
330
7B8C
100
AcDbEntity
  8
M01
100
AcDbLine
 10
655.4521569989768
 20
590.3240959444401
 30
0.0
 11
664.4521569989769
 21
590.3240959444401
 31
0.0
  0
LINE
  5
7CEF
330
7B8C
100
AcDbEntity
  8
M01
100
AcDbLine
 10
655.4521569989768
 20
600.3240959444402
 30
0.0
 11
664.4521569989769
 21
600.3240959444402
 31
0.0
  0
LINE
  5
7CF0
330
7B8C
100
AcDbEntity
  8
M04
100
AcDbLine
 10
663.4521569989767
 20
603.3240959444401
 30
0.0
 11
663.4521569989768
 21
600.3240959444402
 31
0.0
  0
LINE
  5
7CF1
330
7B8C
100
AcDbEntity
  8
M01
 62
     0
100
AcDbLine
 10
657.4521569989768
 20
600.3240959444402
 30
0.0
 11
657.9521569989768
 21
600.8240959444401
 31
0.0
  0
LINE
  5
7CF2
330
7B8C
100
AcDbEntity
  8
M01
 62
     0
100
AcDbLine
 10
657.9521569989768
 20
600.8240959444401
 30
0.0
 11
663.4521569989768
 21
600.8240959444401
 31
0.0
  0
LINE
  5
7CF3
330
7B8C
100
AcDbEntity
  8
M01
 62
     0
100
AcDbLine
 10
657.4521569989757
 20
590.3240959444402
 30
0.0
 11
657.9521569989755
 21
589.8240959444401
 31
0.0
  0
LINE
  5
7CF4
330
7B8C
100
AcDbEntity
  8
M01
 62
     0
100
AcDbLine
 10
657.9521569989755
 20
589.8240959444401
 30
0.0
 11
663.4521569989756
 21
589.8240959444389
 31
0.0
  0
LINE
  5
7CF5
330
7B8C
100
AcDbEntity
  8
M04
100
AcDbLine
 10
670.4521569989768
 20
607.3240959444401
 30
0.0
 11
670.4521569989768
 21
604.3240959444402
 31
0.0
  0
LINE
  5
7CF6
330
7B8C
100
AcDbEntity
  8
M01
 62
     0
100
AcDbLine
 10
665.4521569989768
 20
605.3240959444401
 30
0.0
 11
670.4521569989768
 21
605.3240959444401
 31
0.0
  0
LINE
  5
7CF7
330
7B8C
100
AcDbEntity
  8
M01
 62
     0
100
AcDbLine
 10
665.4521569989769
 20
585.3240959444401
 30
0.0
 11
670.4521569989769
 21
585.3240959444401
 31
0.0
  0
ARC
  5
7CF8
330
7B8C
100
AcDbEntity
  8
M01
 62
     0
100
AcDbCircle
 10
665.4521569989768
 20
603.3240959444401
 30
0.0
 40
2.0
100
AcDbArc
 50
90.0
 51
180.0000000000004
  0
ARC
  5
7CF9
330
7B8C
100
AcDbEntity
  8
M01
 62
     0
100
AcDbCircle
 10
665.4521569989769
 20
587.3240959444401
 30
0.0
 40
2.0
100
AcDbArc
 50
180.0000000000005
 51
270.0
  0
ARC
  5
7CFA
330
7B8C
100
AcDbEntity
  8
M01
 62
     0
100
AcDbCircle
 10
672.4521569989767
 20
607.3240959444401
 30
0.0
 40
2.0
100
AcDbArc
 50
90.0
 51
180.0000000000004
  0
ARC
  5
7CFB
330
7B8C
100
AcDbEntity
  8
M01
 62
     0
100
AcDbCircle
 10
672.4521569989771
 20
583.3240959444402
 30
0.0
 40
2.0
100
AcDbArc
 50
180.0000000000004
 51
270.0
  0
LINE
  5
7CFC
330
7B8C
100
AcDbEntity
  8
M04
100
AcDbLine
 10
663.452156998977
 20
590.3240959444401
 30
0.0
 11
663.452156998977
 21
587.3240959444401
 31
0.0
  0
LINE
  5
7CFD
330
7B8C
100
AcDbEntity
  8
M04
100
AcDbLine
 10
667.7521569989766
 20
602.8240959444401
 30
0.0
 11
667.7521569989768
 21
596.5579922123654
 31
0.0
  0
LINE
  5
7CFE
330
7B8C
100
AcDbEntity
  8
M01
 62
     0
100
AcDbLine
 10
665.0295072681664
 20
602.8240959444401
 30
0.0
 11
667.7521569989768
 21
602.8240959444401
 31
0.0
  0
LINE
  5
7CFF
330
7B8C
100
AcDbEntity
  8
M01
 62
     0
100
AcDbLine
 10
665.0295072681666
 20
587.8240959444402
 30
0.0
 11
667.7521569989769
 21
587.8240959444402
 31
0.0
  0
LINE
  5
7D00
330
7B8C
100
AcDbEntity
  8
M04
100
AcDbLine
 10
670.4521569989771
 20
586.3240959444403
 30
0.0
 11
670.4521569989771
 21
583.3240959444402
 31
0.0
  0
LINE
  5
7D01
330
7B8C
100
AcDbEntity
  8
M01
 62
     0
100
AcDbLine
 10
665.0295072681666
 20
599.3240959444401
 30
0.0
 11
667.7521569989766
 21
599.3240959444401
 31
0.0
  0
LINE
  5
7D02
330
7B8C
100
AcDbEntity
  8
M01
 62
     0
100
AcDbLine
 10
665.0295072681664
 20
591.3240959444401
 30
0.0
 11
667.7521569989768
 21
591.3240959444401
 31
0.0
  0
LINE
  5
7D03
330
7B8C
100
AcDbEntity
  8
M01
 62
     0
100
AcDbLine
 10
664.452156998977
 20
588.8240959444401
 30
0.0
 11
665.0295072681666
 21
587.8240959444403
 31
0.0
  0
LINE
  5
7D04
330
7B8C
100
AcDbEntity
  8
M01
 62
     0
100
AcDbLine
 10
664.4521569989767
 20
601.8240959444401
 30
0.0
 11
665.0295072681664
 21
602.82409594444
 31
0.0
  0
ARC
  5
7D05
330
7B8C
100
AcDbEntity
  8
M01
 62
     0
100
AcDbCircle
 10
678.5972385941196
 20
595.3240959444401
 30
0.0
 40
14.14508159514285
100
AcDbArc
 50
163.57357859652
 51
196.4264214034798
  0
ARC
  5
7D06
330
7B8C
100
AcDbEntity
  8
M01
 62
     0
100
AcDbCircle
 10
678.5972385941196
 20
603.3240959444401
 30
0.0
 40
14.14508159514285
100
AcDbArc
 50
185.6095777321843
 51
196.4264214034798
  0
ARC
  5
7D07
330
7B8C
100
AcDbEntity
  8
M01
 62
     0
100
AcDbCircle
 10
678.5972385941196
 20
587.3240959444401
 30
0.0
 40
14.14508159514285
100
AcDbArc
 50
163.57357859652
 51
174.3904222678147
  0
LINE
  5
7D08
330
7B8C
100
AcDbEntity
  8
M04
100
AcDbLine
 10
667.7521569989769
 20
594.0901996765148
 30
0.0
 11
667.7521569989768
 21
587.8240959444402
 31
0.0
  0
MTEXT
  5
7D09
330
7B8C
100
AcDbEntity
  8
M01
100
AcDbMText
 10
650.6194278880648
 20
575.7550736453198
 30
0.0
 40
3.0
 41
23.64
 71
     1
 72
     5
  1
Ring-Gate\PPinpoint\PDG040020
 73
     1
 44
1.0
  0
LINE
  5
7D0A
330
7B8C
100
AcDbEntity
  8
M04
 62
     6
100
AcDbLine
 10
655.5821569989766
 20
595.8240959444402
 30
0.0
 11
655.5821569989767
 21
594.8240959444401
 31
0.0
  0
LINE
  5
7D0B
330
7B8C
100
AcDbEntity
  8
M01
 62
     6
100
AcDbLine
 10
655.5821569989769
 20
595.8240959444402
 30
0.0
 11
655.4521569989768
 21
595.8240959444402
 31
0.0
  0
LINE
  5
7D0C
330
7B8C
100
AcDbEntity
  8
M01
 62
     6
100
AcDbLine
 10
655.5821569989769
 20
594.8240959444401
 30
0.0
 11
655.4521569989768
 21
594.8240959444401
 31
0.0
  0
LINE
  5
7D0D
330
7B8C
100
AcDbEntity
  8
M03
 62
     6
100
AcDbLine
 10
655.5821569989769
 20
595.8240959444402
 30
0.0
 11
658.3209656504983
 21
598.122229273797
 31
0.0
  0
LINE
  5
7D0E
330
7B8C
100
AcDbEntity
  8
M03
 62
     6
100
AcDbLine
 10
655.5821569989769
 20
594.8240959444401
 30
0.0
 11
658.3209656504987
 21
592.5259626150831
 31
0.0
  0
LINE
  5
7D0F
330
7B8C
100
AcDbEntity
  8
M03
 62
     6
100
AcDbLine
 10
660.2493284795579
 20
598.8240959444401
 30
0.0
 11
667.7521569989768
 21
598.8240959444401
 31
0.0
  0
LINE
  5
7D10
330
7B8C
100
AcDbEntity
  8
M03
 62
     6
100
AcDbLine
 10
660.2493284795582
 20
591.8240959444402
 30
0.0
 11
667.7521569989769
 21
591.8240959444402
 31
0.0
  0
ARC
  5
7D11
330
7B8C
100
AcDbEntity
  8
M03
 62
     6
100
AcDbCircle
 10
660.2493284795579
 20
595.8240959444402
 30
0.0
 40
3.0
100
AcDbArc
 50
90.0
 51
130.0000000000006
  0
ARC
  5
7D12
330
7B8C
100
AcDbEntity
  8
M03
 62
     6
100
AcDbCircle
 10
660.2493284795582
 20
594.8240959444401
 30
0.0
 40
3.0
100
AcDbArc
 50
230.000000000002
 51
270.0
  0
LINE
  5
7D13
330
7B8C
100
AcDbEntity
  8
M03
 62
     6
100
AcDbLine
 10
655.4521569989768
 20
595.3240959444401
 30
0.0
 11
658.8597471120627
 21
597.2914690135182
 31
0.0
  0
LINE
  5
7D14
330
7B8C
100
AcDbEntity
  8
M03
 62
     6
100
AcDbLine
 10
655.4521569989768
 20
595.3240959444401
 30
0.0
 11
658.8597471120627
 21
593.356722875362
 31
0.0
  0
LINE
  5
7D15
330
7B8C
100
AcDbEntity
  8
M03
 62
     6
100
AcDbLine
 10
667.2693680309606
 20
597.3157254765498
 30
0.0
 11
661.6400528081576
 21
598.8240959444401
 31
0.0
  0
LINE
  5
7D16
330
7B8C
100
AcDbEntity
  8
M03
 62
     6
100
AcDbLine
 10
665.4620121496195
 20
595.5223974284887
 30
0.0
 11
658.8597471120627
 21
597.2914690135182
 31
0.0
  0
LINE
  5
7D17
330
7B8C
100
AcDbEntity
  8
M03
 62
     6
100
AcDbLine
 10
665.4620121496196
 20
595.1257944603915
 30
0.0
 11
658.8597471120628
 21
593.356722875362
 31
0.0
  0
LINE
  5
7D18
330
7B8C
100
AcDbEntity
  8
M03
 62
     6
100
AcDbLine
 10
667.2693680309618
 20
593.3324664123307
 30
0.0
 11
661.6400528081576
 21
591.8240959444402
 31
0.0
  0
ARC
  5
7D19
330
7B8C
100
AcDbEntity
  8
M03
 62
     6
100
AcDbCircle
 10
667.4521569989768
 20
595.3240959444404
 30
0.0
 40
1.999999999999772
100
AcDbArc
 50
90.0
 51
270.0
  0
LINE
  5
7D1A
330
7B8C
100
AcDbEntity
  8
M03
 62
     6
100
AcDbLine
 10
667.752156998977
 20
593.3240959444402
 30
0.0
 11
667.452156998977
 21
593.3240959444401
 31
0.0
  0
LINE
  5
7D1B
330
7B8C
100
AcDbEntity
  8
M03
 62
     6
100
AcDbLine
 10
667.7521569989766
 20
597.3240959444401
 30
0.0
 11
667.4521569989768
 21
597.3240959444401
 31
0.0
  0
ARC
  5
7D1C
330
7B8C
100
AcDbEntity
  8
M03
 62
     6
100
AcDbCircle
 10
659.2743369916648
 20
599.6386321395878
 30
0.0
 40
2.383497327174804
100
AcDbArc
 50
259.9829151357845
 51
340.0170848642092
  0
ARC
  5
7D1D
330
7B8C
100
AcDbEntity
  8
M03
 62
     6
100
AcDbCircle
 10
659.2743369916647
 20
591.0095597492929
 30
0.0
 40
2.383497327174317
100
AcDbArc
 50
19.98291513578392
 51
100.0170848642119
  0
DIMENSION
  5
7D1E
330
7B8C
100
AcDbEntity
  8
M01
100
AcDbDimension
  2
*D19
 10
622.9521569989767
 20
610.3240959444402
 30
0.0
 11
617.9521569989767
 21
613.3240959444402
 31
0.0
 70
    32
  1
{\C5;10}
 71
     5
 42
10.0
  3
DIM1
100
AcDbAlignedDimension
 13
612.9521569989767
 23
610.3240959444401
 33
0.0
 14
622.9521569989767
 24
610.3240959444401
 34
0.0
100
AcDbRotatedDimension
1001
ACAD
1000
DSTYLE
1002
{
1070
   144
1040
1.0
1002
}
  0
LINE
  5
7D1F
330
7B8C
100
AcDbEntity
  8
M01
100
AcDbLine
 10
554.2021569989767
 20
591.8240959444402
 30
0.0
 11
552.9121878284671
 21
591.8240959444402
 31
0.0
  0
LINE
  5
7D20
330
7B8C
100
AcDbEntity
  8
M01
100
AcDbLine
 10
554.0147793626127
 20
598.8240959444401
 30
0.0
 11
552.9121878284671
 21
598.8240959444401
 31
0.0
  0
LINE
  5
7D21
330
7B8C
100
AcDbEntity
  8
M01
100
AcDbLine
 10
554.0147793626127
 20
598.8240959444401
 30
0.0
 11
554.0147793626135
 21
591.8240959444402
 31
0.0
  0
LINE
  5
7D22
330
7B8C
100
AcDbEntity
  8
M01
 62
     0
100
AcDbLine
 10
547.9521569989769
 20
596.0740959444401
 30
0.0
 11
548.1021569989768
 21
596.0740959444401
 31
0.0
  0
LINE
  5
7D23
330
7B8C
100
AcDbEntity
  8
M01
 62
     0
100
AcDbLine
 10
547.9521569989769
 20
594.5740959444401
 30
0.0
 11
548.1021569989768
 21
594.5740959444401
 31
0.0
  0
LINE
  5
7D24
330
7B8C
100
AcDbEntity
  8
M01
100
AcDbLine
 10
548.4521569989769
 20
596.2490959444401
 30
0.0
 11
552.912187828467
 21
598.82409594444
 31
0.0
  0
LINE
  5
7D25
330
7B8C
100
AcDbEntity
  8
M01
100
AcDbLine
 10
548.4521569989769
 20
594.3990959444402
 30
0.0
 11
552.912187828467
 21
591.8240959444402
 31
0.0
  0
LINE
  5
7D26
330
7B8C
100
AcDbEntity
  8
M01
100
AcDbLine
 10
548.4521569989769
 20
596.2490959444401
 30
0.0
 11
548.4521569989769
 21
594.3990959444402
 31
0.0
  0
LINE
  5
7D27
330
7B8C
100
AcDbEntity
  8
M01
100
AcDbLine
 10
552.912187828467
 20
598.82409594444
 30
0.0
 11
552.912187828467
 21
591.8240959444402
 31
0.0
  0
LINE
  5
7D28
330
7B8C
100
AcDbEntity
  8
M01
100
AcDbLine
 10
560.4521569989767
 20
594.0740959444402
 30
0.0
 11
560.4521569989767
 21
596.5740959444401
 31
0.0
  0
ARC
  5
7D29
330
7B8C
100
AcDbEntity
  8
M01
 62
     0
100
AcDbCircle
 10
558.423224810842
 20
599.3240959444401
 30
0.0
 40
5.0
100
AcDbArc
 50
90.0
 51
135.0000000000009
  0
ARC
  5
7D2A
330
7B8C
100
AcDbEntity
  8
M01
 62
     0
100
AcDbCircle
 10
558.4232248108415
 20
591.3240959444403
 30
0.0
 40
5.0
100
AcDbArc
 50
224.9999999999981
 51
270.0
  0
CIRCLE
  5
7D2B
330
7B8C
100
AcDbEntity
  8
M04
100
AcDbCircle
 10
560.4521569989767
 20
595.3240959444401
 30
0.0
 40
1.25
  0
LINE
  5
7D2C
330
7B8C
100
AcDbEntity
  8
M03
 62
     6
100
AcDbLine
 10
549.4521569989768
 20
596.2490959444401
 30
0.0
 11
548.4521569989769
 21
596.2490959444401
 31
0.0
  0
LINE
  5
7D2D
330
7B8C
100
AcDbEntity
  8
M03
 62
     6
100
AcDbLine
 10
549.4521569989768
 20
594.3990959444402
 30
0.0
 11
548.4521569989769
 21
594.3990959444402
 31
0.0
  0
LINE
  5
7D2E
330
7B8C
100
AcDbEntity
  8
M03
 62
     6
100
AcDbLine
 10
549.4521569989768
 20
596.2490959444401
 30
0.0
 11
549.4521569989768
 21
594.3990959444402
 31
0.0
  0
LINE
  5
7D2F
330
7B8C
100
AcDbEntity
  8
M03
 62
     6
100
AcDbLine
 10
549.4521569989768
 20
596.2490959444401
 30
0.0
 11
555.3301370208981
 21
597.8240959444401
 31
0.0
  0
LINE
  5
7D30
330
7B8C
100
AcDbEntity
  8
M03
 62
     6
100
AcDbLine
 10
549.4521569989768
 20
594.3990959444402
 30
0.0
 11
555.3301370208978
 21
592.8240959444401
 31
0.0
  0
LINE
  5
7D31
330
7B8C
100
AcDbEntity
  8
M03
 62
     6
100
AcDbLine
 10
555.3301370208981
 20
597.8240959444401
 30
0.0
 11
555.3301370208978
 21
592.8240959444401
 31
0.0
  0
LINE
  5
7D32
330
7B8C
100
AcDbEntity
  8
M03
 62
     6
100
AcDbLine
 10
555.3301370208978
 20
592.8240959444401
 30
0.0
 11
560.4521569989767
 21
592.8240959444401
 31
0.0
  0
LINE
  5
7D33
330
7B8C
100
AcDbEntity
  8
M03
 62
     6
100
AcDbLine
 10
555.3301370208981
 20
597.8240959444401
 30
0.0
 11
560.4521569989769
 21
597.8240959444402
 31
0.0
  0
LINE
  5
7D34
102
{ACAD_REACTORS
330
7D39
102
}
330
7B8C
100
AcDbEntity
  8
M01
100
AcDbLine
 10
637.9833765754189
 20
426.2077421121926
 30
0.0
 11
637.9833765754189
 21
392.2077421121926
 31
0.0
  0
LINE
  5
7D35
102
{ACAD_REACTORS
330
7D39
102
}
330
7B8C
100
AcDbEntity
  8
M01
100
AcDbLine
 10
637.9833765754189
 20
423.2077421121927
 30
0.0
 11
634.4833765754189
 21
423.2077421121927
 31
0.0
  0
LINE
  5
7D36
102
{ACAD_REACTORS
330
7D39
102
}
330
7B8C
100
AcDbEntity
  8
M01
100
AcDbLine
 10
637.9833765754189
 20
395.2077421121927
 30
0.0
 11
634.4833765754189
 21
395.2077421121927
 31
0.0
  0
LINE
  5
7D37
102
{ACAD_REACTORS
330
7D39
102
}
330
7B8C
100
AcDbEntity
  8
M01
100
AcDbLine
 10
634.4833765754189
 20
426.2077421121927
 30
0.0
 11
637.9833765754189
 21
426.2077421121926
 31
0.0
  0
LINE
  5
7D38
102
{ACAD_REACTORS
330
7D39
102
}
330
7B8C
100
AcDbEntity
  8
M01
100
AcDbLine
 10
634.4833765754189
 20
392.2077421121926
 30
0.0
 11
637.9833765754189
 21
392.2077421121926
 31
0.0
  0
HATCH
  5
7D39
330
7B8C
100
AcDbEntity
  8
M01
100
AcDbHatch
 10
0.0
 20
0.0
 30
0.0
210
0.0
220
0.0
230
1.0
  2
ANSI31
 70
     0
 71
     1
 91
        2
 92
        7
 72
     0
 73
     1
 93
        5
 10
637.9833765754189
 20
426.2077421121926
 10
634.4833765754189
 20
426.2077421121927
 10
634.4833765754189
 20
425.2077421121927
 10
634.4833765754189
 20
423.2077421121927
 10
637.9833765754189
 20
423.2077421121927
 97
        5
330
7D37
330
7BC6
330
7BA2
330
7D35
330
7D34
 92
        7
 72
     0
 73
     1
 93
        5
 10
637.9833765754189
 20
395.2077421121927
 10
634.4833765754189
 20
395.2077421121927
 10
634.4833765754189
 20
393.2077421121927
 10
634.4833765754189
 20
392.2077421121926
 10
637.9833765754189
 20
392.2077421121926
 97
        5
330
7D36
330
7BA2
330
7BC3
330
7D38
330
7D34
 75
     0
 76
     1
 52
0.0
 41
5.0
 77
     0
 78
     1
 53
45.0
 43
578.4833765754188
 44
409.2077421121927
 45
-0.4419417382415922
 46
0.4419417382415923
 79
     0
 47
0.1092775467775468
 98
        2
 10
635.8091302104369
 20
424.6414509411415
 10
636.2465649284281
 20
394.3715705133769
  0
LINE
  5
7D3A
330
7B8C
100
AcDbEntity
  8
CENTRE
 48
0.7
100
AcDbLine
 10
607.9152729062248
 20
391.2077421121927
 30
0.0
 11
631.3135045754189
 21
391.2077421121927
 31
0.0
  0
LINE
  5
7D3B
330
7B8C
100
AcDbEntity
  8
M01
100
AcDbLine
 10
629.4833765754187
 20
393.6511196121926
 30
0.0
 11
629.4833765754187
 21
388.9577421121925
 31
0.0
  0
LINE
  5
7D3C
330
7B8C
100
AcDbEntity
  8
M01
100
AcDbLine
 10
613.4833765754186
 20
393.4577421121924
 30
0.0
 11
613.4833765754187
 21
388.9577421121925
 31
0.0
  0
LINE
  5
7D3D
330
7B8C
100
AcDbEntity
  8
M01
 62
     0
100
AcDbLine
 10
612.4833765754186
 20
394.2077421121924
 30
0.0
 11
612.4833765754187
 21
388.2077421121925
 31
0.0
  0
LINE
  5
7D3E
330
7B8C
100
AcDbEntity
  8
M01
 62
     0
100
AcDbLine
 10
612.4833765754186
 20
394.2077421121924
 30
0.0
 11
610.7513257678498
 21
391.2077421121927
 31
0.0
  0
LINE
  5
7D3F
330
7B8C
100
AcDbEntity
  8
M01
 62
     0
100
AcDbLine
 10
612.4833765754187
 20
388.2077421121925
 30
0.0
 11
610.7513257678499
 21
391.2077421121927
 31
0.0
  0
LINE
  5
7D40
330
7B8C
100
AcDbEntity
  8
M01
100
AcDbLine
 10
614.2333765754186
 20
394.2077421121924
 30
0.0
 11
624.4833765754188
 21
394.2077421121927
 31
0.0
  0
LINE
  5
7D41
330
7B8C
100
AcDbEntity
  8
M01
100
AcDbLine
 10
614.2333765754187
 20
388.2077421121925
 30
0.0
 11
628.7333765754188
 21
388.2077421121925
 31
0.0
  0
LINE
  5
7D42
330
7B8C
100
AcDbEntity
  8
M01
 62
     0
100
AcDbLine
 10
614.2333765754186
 20
394.2077421121924
 30
0.0
 11
612.4833765754186
 21
394.2077421121924
 31
0.0
  0
LINE
  5
7D43
330
7B8C
100
AcDbEntity
  8
M01
 62
     0
100
AcDbLine
 10
614.2333765754187
 20
388.2077421121925
 30
0.0
 11
612.4833765754187
 21
388.2077421121925
 31
0.0
  0
LINE
  5
7D44
330
7B8C
100
AcDbEntity
  8
M01
100
AcDbLine
 10
614.2333765754186
 20
394.2077421121924
 30
0.0
 11
614.2333765754187
 21
388.2077421121925
 31
0.0
  0
LINE
  5
7D45
330
7B8C
100
AcDbEntity
  8
M01
100
AcDbLine
 10
628.7333765754188
 20
393.2181063621926
 30
0.0
 11
628.7333765754188
 21
388.2077421121928
 31
0.0
  0
LINE
  5
7D46
330
7B8C
100
AcDbEntity
  8
M01
100
AcDbLine
 10
613.4833765754187
 20
388.9577421121925
 30
0.0
 11
614.2333765754187
 21
388.2077421121925
 31
0.0
  0
LINE
  5
7D47
330
7B8C
100
AcDbEntity
  8
M01
100
AcDbLine
 10
613.4833765754186
 20
393.4577421121924
 30
0.0
 11
614.2333765754186
 21
394.2077421121924
 31
0.0
  0
LINE
  5
7D48
330
7B8C
100
AcDbEntity
  8
M01
100
AcDbLine
 10
629.4833765754187
 20
388.9577421121925
 30
0.0
 11
628.7333765754188
 21
388.2077421121925
 31
0.0
  0
LINE
  5
7D49
330
7B8C
100
AcDbEntity
  8
M01
 62
     0
100
AcDbLine
 10
628.7333765754188
 20
388.2077421121925
 30
0.0
 11
634.4833765754189
 21
388.2077421121925
 31
0.0
  0
LINE
  5
7D4A
102
{ACAD_REACTORS
330
7D4C
102
}
330
7B8C
100
AcDbEntity
  8
CENTRE
100
AcDbLine
 10
498.9223172892081
 20
391.2077421121927
 30
0.0
 11
482.9223172892081
 21
391.2077421121927
 31
0.0
  0
CIRCLE
  5
7D4B
102
{ACAD_REACTORS
330
7D4C
102
}
330
7B8C
100
AcDbEntity
  8
M01
 62
     1
100
AcDbCircle
 10
490.9223172892081
 20
391.2077421121927
 30
0.0
 40
3.0
  0
HATCH
  5
7D4C
330
7B8C
100
AcDbEntity
  8
M01
 62
     1
100
AcDbHatch
 10
0.0
 20
0.0
 30
0.0
210
0.0
220
0.0
230
1.0
  2
ANSI31
 70
     0
 71
     1
 91
        2
 92
        7
 72
     1
 73
     1
 93
        3
 10
490.9223172892079
 20
394.2077421121927
 42
0.0
 10
490.9223172892079
 20
391.2077421121927
 42
0.0
 10
493.9223172892081
 20
391.2077421121927
 42
0.4142135623731173
 97
        3
330
7C18
330
7D4A
330
7D4B
 92
        7
 72
     1
 73
     1
 93
        3
 10
490.9223172892079
 20
391.2077421121927
 42
0.0
 10
487.9223172892081
 20
391.2077421121927
 42
0.4142135623730728
 10
490.9223172892079
 20
388.2077421121927
 42
0.0
 97
        3
330
7D4A
330
7D4B
330
7C18
 75
     0
 76
     1
 52
0.0
 41
5.0
 77
     0
 78
     1
 53
45.0
 43
578.4833765754188
 44
409.2077421121927
 45
-0.4419417382415922
 46
0.4419417382415923
 79
     0
 47
0.1092775485852022
 98
        2
 10
492.6224178195977
 20
392.2675075984317
 10
490.1071665828617
 20
389.8634012076257
  0
LEADER
  5
7D4D
330
7B8C
100
AcDbEntity
  8
DIMS
 62
     5
100
AcDbLeader
  3
DIM1$7
 73
     0
 74
     0
 75
     1
 40
8.000000000000003
 41
56.42857142857139
 76
     3
 10
637.9097834466116
 20
426.2077421121926
 30
0.0
 10
646.3229047846757
 20
441.0816114232731
 30
0.0
 10
649.3229047846758
 20
441.0816114232731
 30
0.0
340
7D4E
  0
MTEXT
  5
7D4E
102
{ACAD_REACTORS
330
7D4D
102
}
330
7B8C
100
AcDbEntity
  8
DIMS
 62
     5
100
AcDbMText
 10
650.8229047846757
 20
441.0816114232731
 30
0.0
 40
3.0
 41
0.0
 71
     4
 72
     1
  1
Rear Insulation Washer\PMA010024 recommended
 73
     1
 44
1.0
  0
LINE
  5
7D4F
330
7B8C
100
AcDbEntity
  8
M01
 62
     0
100
AcDbLine
 10
483.6732248108421
 20
604.3240959444402
 30
0.0
 11
485.9521569989768
 21
604.32409594444
 31
0.0
  0
LINE
  5
7D50
330
7B8C
100
AcDbEntity
  8
M01
 62
     0
100
AcDbLine
 10
483.6732248108421
 20
586.3240959444404
 30
0.0
 11
485.9521569989769
 21
586.3240959444404
 31
0.0
  0
LINE
  5
7D51
330
7B8C
100
AcDbEntity
  8
M01
 62
     0
100
AcDbLine
 10
516.1732248108424
 20
604.3240959444406
 30
0.0
 11
528.4521569989768
 21
604.32409594444
 31
0.0
  0
LINE
  5
7D52
330
7B8C
100
AcDbEntity
  8
M01
 62
     0
100
AcDbLine
 10
516.1732248108421
 20
586.3240959444404
 30
0.0
 11
528.4521569989769
 21
586.3240959444404
 31
0.0
  0
LINE
  5
7D53
330
7B8C
100
AcDbEntity
  8
M01
 62
     0
100
AcDbLine
 10
558.4232248108422
 20
604.3240959444402
 30
0.0
 11
560.9521569989767
 21
604.32409594444
 31
0.0
  0
LINE
  5
7D54
330
7B8C
100
AcDbEntity
  8
M01
 62
     0
100
AcDbLine
 10
558.4232248108415
 20
586.3240959444404
 30
0.0
 11
560.9521569989767
 21
586.3240959444404
 31
0.0
  0
MTEXT
  5
7D55
330
7B8C
100
AcDbEntity
  8
M01
 62
     0
100
AcDbMText
 10
523.7855718236495
 20
551.1262579872695
 30
0.0
 40
3.0
 41
82.66
 71
     1
 72
     5
  3
{\L\C1;POLYMER / TIP COMPATIBILITY\PNot all polymers will run on all tip styles - check in catalogue\Por on website under Technical Support->Bush Selection Guide\P\PSINGLE BUSH APPLICATIONS\PRefer to website under Systems\P->Precision D->Direct Feed 
  1
Applications for recommended options for most polymers.\PAlternatively go to\P\H0.75x;www.fastheatuk.com/directfeedparts.html}
 73
     1
 44
1.0
  0
ENDBLK
  5
7D57
330
7B8C
100
AcDbEntity
  8
0
100
AcDbBlockEnd
  0
BLOCK
  5
7FC4
330
7FBA
100
AcDbEntity
  8
0
100
AcDbBlockBegin
  2
*D21
 70
     1
 10
0.0
 20
0.0
 30
0.0
  3
*D21
  1

  0
LINE
  5
85FF
330
7FBA
100
AcDbEntity
  8
M01
 62
     4
370
    -2
100
AcDbLine
 10
465.1058629161024
 20
409.2077421121927
 30
0.0
 11
458.677824871993
 21
409.2077421121927
 31
0.0
  0
LINE
  5
8600
330
7FBA
100
AcDbEntity
  8
M01
 62
     4
370
    -2
100
AcDbLine
 10
481.9223172892079
 20
391.2077421121927
 30
0.0
 11
458.677824871993
 21
391.2077421121927
 31
0.0
  0
LINE
  5
8601
330
7FBA
100
AcDbEntity
  8
M01
 62
     4
370
    -2
100
AcDbLine
 10
461.1778248719931
 20
406.2077421121927
 30
0.0
 11
461.1778248719931
 21
394.2077421121927
 31
0.0
  0
SOLID
  5
8602
330
7FBA
100
AcDbEntity
  8
M01
 62
     4
100
AcDbTrace
 10
460.6778248719931
 20
406.2077421121927
 30
0.0
 11
461.677824871993
 21
406.2077421121927
 31
0.0
 12
461.1778248719931
 22
409.2077421121927
 32
0.0
 13
461.1778248719931
 23
409.2077421121927
 33
0.0
  0
SOLID
  5
8603
330
7FBA
100
AcDbEntity
  8
M01
 62
     4
100
AcDbTrace
 10
460.6778248719931
 20
394.2077421121927
 30
0.0
 11
461.677824871993
 21
394.2077421121927
 31
0.0
 12
461.1778248719931
 22
391.2077421121927
 32
0.0
 13
461.1778248719931
 23
391.2077421121927
 33
0.0
  0
MTEXT
  5
8604
330
7FBA
100
AcDbEntity
  8
M01
 62
     2
100
AcDbMText
 10
458.1778248719929
 20
400.2077421121929
 30
0.0
 40
3.0
 41
0.0
 71
     5
 72
     1
  1
\A1;{\C5;18.00}
 11
0.0000000000000001
 21
1.0
 31
0.0
 73
     1
 44
1.0
  0
POINT
  5
8605
330
7FBA
100
AcDbEntity
  8
DEFPOINTS
 62
     0
100
AcDbPoint
 10
466.1058629161024
 20
409.2077421121927
 30
0.0
  0
POINT
  5
8606
330
7FBA
100
AcDbEntity
  8
DEFPOINTS
 62
     0
100
AcDbPoint
 10
482.9223172892079
 20
391.2077421121927
 30
0.0
  0
POINT
  5
8607
330
7FBA
100
AcDbEntity
  8
DEFPOINTS
 62
     0
100
AcDbPoint
 10
461.1778248719931
 20
391.2077421121927
 30
0.0
  0
ENDBLK
  5
7FC5
330
7FBA
100
AcDbEntity
  8
0
100
AcDbBlockEnd
  0
BLOCK
  5
801D
330
8010
100
AcDbEntity
  8
0
100
AcDbBlockBegin
  2
*D22
 70
     1
 10
0.0
 20
0.0
 30
0.0
  3
*D22
  1

  0
LINE
  5
8570
330
8010
100
AcDbEntity
  8
M01
 62
     4
370
    -2
100
AcDbLine
 10
566.5215024981485
 20
590.0940868124922
 30
0.0
 11
557.9995081849599
 21
595.0142625232436
 31
0.0
  0
LINE
  5
8571
330
8010
100
AcDbEntity
  8
M01
 62
     4
370
    -2
100
AcDbLine
 10
566.5215024981486
 20
584.9620360049231
 30
0.0
 11
557.9995081849602
 21
580.041860294171
 31
0.0
  0
ARC
  5
8572
330
8010
100
AcDbEntity
  8
M01
 62
     4
370
    -2
100
AcDbCircle
 10
570.9659888710158
 20
587.5280614087078
 30
0.0
 40
12.4724022290727
100
AcDbArc
 50
163.8148540274495
 51
173.0925729862775
  0
ARC
  5
8573
330
8010
100
AcDbEntity
  8
M01
 62
     4
370
    -2
100
AcDbCircle
 10
570.9659888710158
 20
587.5280614087078
 30
0.0
 40
12.4724022290727
100
AcDbArc
 50
186.9074270137255
 51
196.1851459725538
  0
SOLID
  5
8574
330
8010
100
AcDbEntity
  8
M01
 62
     4
100
AcDbTrace
 10
558.5279818790975
 20
591.2007544237091
 30
0.0
 11
559.4478542257209
 21
590.8085365430386
 31
0.0
 12
560.1645716944211
 22
593.7642625232438
 32
0.0
 13
560.1645716944211
 23
593.7642625232438
 33
0.0
  0
SOLID
  5
8575
330
8010
100
AcDbEntity
  8
M01
 62
     4
100
AcDbTrace
 10
559.447854225721
 20
584.2475862743762
 30
0.0
 11
558.5279818790978
 21
583.8553683937056
 31
0.0
 12
560.1645716944213
 22
581.2918602941711
 32
0.0
 13
560.1645716944213
 23
581.2918602941711
 33
0.0
  0
MTEXT
  5
8576
330
8010
100
AcDbEntity
  8
M01
 62
     2
100
AcDbMText
 10
558.493586641943
 20
587.5280614087075
 30
0.0
 40
3.0
 41
0.0
 71
     5
 72
     1
  1
\A1;{\C5;60.00°}
 73
     1
 44
1.0
  0
POINT
  5
8577
330
8010
100
AcDbEntity
  8
DEFPOINTS
 62
     0
100
AcDbPoint
 10
558.6830704571382
 20
589.6938713269149
 30
0.0
  0
POINT
  5
8578
330
8010
100
AcDbEntity
  8
DEFPOINTS
 62
     0
100
AcDbPoint
 10
567.3875279019329
 20
589.5940868124922
 30
0.0
  0
POINT
  5
8579
330
8010
100
AcDbEntity
  8
DEFPOINTS
 62
     0
100
AcDbPoint
 10
567.387527901933
 20
585.4620360049231
 30
0.0
  0
POINT
  5
857A
330
8010
100
AcDbEntity
  8
DEFPOINTS
 62
     0
100
AcDbPoint
 10
569.015933862239
 20
586.4021966244559
 30
0.0
  0
POINT
  5
857B
330
8010
100
AcDbEntity
  8
DEFPOINTS
 62
     0
100
AcDbPoint
 10
569.015933862239
 20
588.6539261929596
 30
0.0
  0
ENDBLK
  5
801E
330
8010
100
AcDbEntity
  8
0
100
AcDbBlockEnd
  0
BLOCK
  5
802B
330
8020
100
AcDbEntity
  8
0
100
AcDbBlockBegin
  2
*D23
 70
     1
 10
0.0
 20
0.0
 30
0.0
  3
*D23
  1

  0
LINE
  5
8608
330
8020
100
AcDbEntity
  8
M01
 62
     4
370
    -2
100
AcDbLine
 10
568.887527901933
 20
588.5280614087077
 30
0.0
 11
568.887527901933
 21
608.4167702242813
 31
0.0
  0
LINE
  5
8609
330
8020
100
AcDbEntity
  8
M01
 62
     4
370
    -2
100
AcDbLine
 10
567.3875279019329
 20
588.5280614087077
 30
0.0
 11
567.3875279019329
 21
608.4167702242813
 31
0.0
  0
LINE
  5
860A
330
8020
100
AcDbEntity
  8
M01
 62
     4
370
    -2
100
AcDbLine
 10
571.887527901933
 20
605.9167702242813
 30
0.0
 11
574.887527901933
 21
605.9167702242813
 31
0.0
  0
LINE
  5
860B
330
8020
100
AcDbEntity
  8
M01
 62
     4
370
    -2
100
AcDbLine
 10
564.3875279019328
 20
605.9167702242813
 30
0.0
 11
549.2446707590757
 21
605.9167702242813
 31
0.0
  0
SOLID
  5
860C
330
8020
100
AcDbEntity
  8
M01
 62
     4
100
AcDbTrace
 10
571.887527901933
 20
606.4167702242813
 30
0.0
 11
571.887527901933
 21
605.4167702242813
 31
0.0
 12
568.887527901933
 22
605.9167702242813
 32
0.0
 13
568.887527901933
 23
605.9167702242813
 33
0.0
  0
SOLID
  5
860D
330
8020
100
AcDbEntity
  8
M01
 62
     4
100
AcDbTrace
 10
564.3875279019328
 20
606.4167702242813
 30
0.0
 11
564.3875279019328
 21
605.4167702242813
 31
0.0
 12
567.3875279019329
 22
605.9167702242813
 32
0.0
 13
567.3875279019329
 23
605.9167702242813
 33
0.0
  0
MTEXT
  5
860E
330
8020
100
AcDbEntity
  8
M01
 62
     2
100
AcDbMText
 10
555.3160993305043
 20
608.9167702242813
 30
0.0
 40
3.0
 41
0.0
 71
     5
 72
     1
  1
\A1;{\C5;0.75}
 73
     1
 44
1.0
  0
POINT
  5
860F
330
8020
100
AcDbEntity
  8
DEFPOINTS
 62
     0
100
AcDbPoint
 10
568.887527901933
 20
587.5280614087077
 30
0.0
  0
POINT
  5
8610
330
8020
100
AcDbEntity
  8
DEFPOINTS
 62
     0
100
AcDbPoint
 10
567.3875279019329
 20
587.5280614087078
 30
0.0
  0
POINT
  5
8611
330
8020
100
AcDbEntity
  8
DEFPOINTS
 62
     0
100
AcDbPoint
 10
567.3875279019329
 20
605.9167702242813
 30
0.0
  0
ENDBLK
  5
802C
330
8020
100
AcDbEntity
  8
0
100
AcDbBlockEnd
  0
BLOCK
  5
8039
330
802E
100
AcDbEntity
  8
0
100
AcDbBlockBegin
  2
*D24
 70
     1
 10
0.0
 20
0.0
 30
0.0
  3
*D24
  1

  0
LINE
  5
8612
330
802E
100
AcDbEntity
  8
M01
 62
     4
370
    -2
100
AcDbLine
 10
579.387527901933
 20
573.4958076802956
 30
0.0
 11
579.387527901933
 21
562.2386008406583
 31
0.0
  0
LINE
  5
8613
330
802E
100
AcDbEntity
  8
M01
 62
     4
370
    -2
100
AcDbLine
 10
569.387527901933
 20
576.5280614087076
 30
0.0
 11
569.387527901933
 21
562.2386008406583
 31
0.0
  0
LINE
  5
8614
330
802E
100
AcDbEntity
  8
M01
 62
     4
370
    -2
100
AcDbLine
 10
576.3875279019329
 20
564.7386008406583
 30
0.0
 11
572.387527901933
 21
564.7386008406583
 31
0.0
  0
SOLID
  5
8615
330
802E
100
AcDbEntity
  8
M01
 62
     4
100
AcDbTrace
 10
576.3875279019329
 20
565.2386008406583
 30
0.0
 11
576.3875279019329
 21
564.2386008406583
 31
0.0
 12
579.387527901933
 22
564.7386008406583
 32
0.0
 13
579.387527901933
 23
564.7386008406583
 33
0.0
  0
SOLID
  5
8616
330
802E
100
AcDbEntity
  8
M01
 62
     4
100
AcDbTrace
 10
572.387527901933
 20
565.2386008406583
 30
0.0
 11
572.387527901933
 21
564.2386008406583
 31
0.0
 12
569.387527901933
 22
564.7386008406583
 32
0.0
 13
569.387527901933
 23
564.7386008406583
 33
0.0
  0
MTEXT
  5
8617
330
802E
100
AcDbEntity
  8
M01
 62
     2
100
AcDbMText
 10
574.387527901933
 20
567.7386008406584
 30
0.0
 40
3.0
 41
0.0
 71
     5
 72
     1
  1
\A1;{\C5;5.0}
 73
     1
 44
1.0
  0
POINT
  5
8618
330
802E
100
AcDbEntity
  8
DEFPOINTS
 62
     0
100
AcDbPoint
 10
579.387527901933
 20
574.4958076802957
 30
0.0
  0
POINT
  5
8619
330
802E
100
AcDbEntity
  8
DEFPOINTS
 62
     0
100
AcDbPoint
 10
569.387527901933
 20
577.5280614087076
 30
0.0
  0
POINT
  5
861A
330
802E
100
AcDbEntity
  8
DEFPOINTS
 62
     0
100
AcDbPoint
 10
569.387527901933
 20
564.7386008406583
 30
0.0
  0
ENDBLK
  5
803A
330
802E
100
AcDbEntity
  8
0
100
AcDbBlockEnd
  0
BLOCK
  5
8047
330
803C
100
AcDbEntity
  8
0
100
AcDbBlockBegin
  2
*D25
 70
     1
 10
0.0
 20
0.0
 30
0.0
  3
*D25
  1

  0
LINE
  5
861B
330
803C
100
AcDbEntity
  8
M01
 62
     4
370
    -2
100
AcDbLine
 10
570.015933862239
 20
586.4021966244559
 30
0.0
 11
595.5958408154879
 21
586.4021966244559
 31
0.0
  0
LINE
  5
861C
330
803C
100
AcDbEntity
  8
M01
 62
     4
370
    -2
100
AcDbLine
 10
570.015933862239
 20
588.6539261929596
 30
0.0
 11
595.5958408154879
 21
588.6539261929596
 31
0.0
  0
LINE
  5
861D
330
803C
100
AcDbEntity
  8
M01
 62
     4
370
    -2
100
AcDbLine
 10
593.0958408154879
 20
583.4021966244558
 30
0.0
 11
593.0958408154879
 21
580.4021966244558
 31
0.0
  0
LINE
  5
861E
330
803C
100
AcDbEntity
  8
M01
 62
     4
370
    -2
100
AcDbLine
 10
593.0958408154879
 20
591.6539261929596
 30
0.0
 11
593.0958408154879
 21
616.082497621531
 31
0.0
  0
SOLID
  5
861F
330
803C
100
AcDbEntity
  8
M01
 62
     4
100
AcDbTrace
 10
592.5958408154879
 20
583.4021966244558
 30
0.0
 11
593.5958408154879
 21
583.4021966244558
 31
0.0
 12
593.0958408154879
 22
586.4021966244559
 32
0.0
 13
593.0958408154879
 23
586.4021966244559
 33
0.0
  0
SOLID
  5
8620
330
803C
100
AcDbEntity
  8
M01
 62
     4
100
AcDbTrace
 10
592.5958408154879
 20
591.6539261929596
 30
0.0
 11
593.5958408154879
 21
591.6539261929596
 31
0.0
 12
593.0958408154879
 22
588.6539261929596
 32
0.0
 13
593.0958408154879
 23
588.6539261929596
 33
0.0
  0
MTEXT
  5
8621
330
803C
100
AcDbEntity
  8
M01
 62
     2
100
AcDbMText
 10
590.0958408154878
 20
605.3682119072454
 30
0.0
 40
3.0
 41
0.0
 71
     5
 72
     1
  1
\A1;{\C5;Gate ØA}
 11
0.0000000000000001
 21
1.0
 31
0.0
 73
     1
 44
1.0
  0
POINT
  5
8622
330
803C
100
AcDbEntity
  8
DEFPOINTS
 62
     0
100
AcDbPoint
 10
569.015933862239
 20
586.4021966244559
 30
0.0
  0
POINT
  5
8623
330
803C
100
AcDbEntity
  8
DEFPOINTS
 62
     0
100
AcDbPoint
 10
569.015933862239
 20
588.6539261929596
 30
0.0
  0
POINT
  5
8624
330
803C
100
AcDbEntity
  8
DEFPOINTS
 62
     0
100
AcDbPoint
 10
593.0958408154879
 20
588.6539261929596
 30
0.0
  0
ENDBLK
  5
8048
330
803C
100
AcDbEntity
  8
0
100
AcDbBlockEnd
  0
BLOCK
  5
8126
330
811C
100
AcDbEntity
  8
0
100
AcDbBlockBegin
  2
*D26
 70
     1
 10
0.0
 20
0.0
 30
0.0
  3
*D26
  1

  0
LINE
  5
811D
330
811C
100
AcDbEntity
  8
0
  6
ByBlock
 62
     4
100
AcDbLine
 10
627.9833765754188
 20
392.2077421121926
 30
0.0
 11
665.4399971282816
 21
392.2077421121926
 31
0.0
  0
LINE
  5
811E
330
811C
100
AcDbEntity
  8
0
  6
ByBlock
 62
     4
100
AcDbLine
 10
627.9833765754188
 20
426.2077421121927
 30
0.0
 11
665.4399971282816
 21
426.2077421121927
 31
0.0
  0
LINE
  5
811F
330
811C
100
AcDbEntity
  8
0
  6
ByBlock
 62
     4
100
AcDbLine
 10
662.9399971282817
 20
395.2077421121927
 30
0.0
 11
662.9399971282817
 21
423.2077421121926
 31
0.0
  0
SOLID
  5
8120
330
811C
100
AcDbEntity
  8
0
  6
ByBlock
 62
     4
100
AcDbTrace
 10
662.4399971282817
 20
395.2077421121927
 30
0.0
 11
663.4399971282816
 21
395.2077421121927
 31
0.0
 12
662.9399971282817
 22
392.2077421121926
 32
0.0
 13
662.9399971282817
 23
392.2077421121926
 33
0.0
  0
SOLID
  5
8121
330
811C
100
AcDbEntity
  8
0
  6
ByBlock
 62
     4
100
AcDbTrace
 10
662.4399971282817
 20
423.2077421121926
 30
0.0
 11
663.4399971282816
 21
423.2077421121926
 31
0.0
 12
662.9399971282817
 22
426.2077421121927
 32
0.0
 13
662.9399971282817
 23
426.2077421121927
 33
0.0
  0
MTEXT
  5
8122
330
811C
100
AcDbEntity
  8
0
  6
ByBlock
 62
     2
100
AcDbMText
 10
659.9399971282816
 20
404.4690727446861
 30
0.0
 40
3.0
 41
0.0
 71
     5
 72
     1
  1
\A1;\U+220534.00
 11
0.0000000000000001
 21
1.0
 31
0.0
 73
     1
 44
1.0
  0
POINT
  5
8123
330
811C
100
AcDbEntity
  8
DEFPOINTS
  6
ByBlock
 62
     0
100
AcDbPoint
 10
626.9833765754189
 20
392.2077421121926
 30
0.0
  0
POINT
  5
8124
330
811C
100
AcDbEntity
  8
DEFPOINTS
  6
ByBlock
 62
     0
100
AcDbPoint
 10
626.9833765754189
 20
426.2077421121927
 30
0.0
  0
POINT
  5
8125
330
811C
100
AcDbEntity
  8
DEFPOINTS
  6
ByBlock
 62
     0
100
AcDbPoint
 10
662.9399971282817
 20
426.2077421121927
 30
0.0
  0
ENDBLK
  5
8127
330
811C
100
AcDbEntity
  8
0
100
AcDbBlockEnd
  0
BLOCK
  5
8133
330
8128
100
AcDbEntity
  8
0
100
AcDbBlockBegin
  2
*D27
 70
     1
 10
0.0
 20
0.0
 30
0.0
  3
*D27
  1

  0
LINE
  5
8129
330
8128
100
AcDbEntity
  8
0
  6
ByBlock
 62
     4
100
AcDbLine
 10
578.4833765754187
 20
431.1928457658632
 30
0.0
 11
578.4833765754187
 21
448.5539078986677
 31
0.0
  0
LINE
  5
812A
330
8128
100
AcDbEntity
  8
0
  6
ByBlock
 62
     4
100
AcDbLine
 10
580.4833765754189
 20
415.2077421121928
 30
0.0
 11
580.4833765754189
 21
448.5539078986677
 31
0.0
  0
LINE
  5
812B
330
8128
100
AcDbEntity
  8
0
  6
ByBlock
 62
     4
100
AcDbLine
 10
575.4833765754187
 20
446.0539078986677
 30
0.0
 11
572.4833765754188
 21
446.0539078986677
 31
0.0
  0
LINE
  5
812C
330
8128
100
AcDbEntity
  8
0
  6
ByBlock
 62
     4
100
AcDbLine
 10
583.4833765754189
 20
446.0539078986677
 30
0.0
 11
607.3405194325617
 21
446.0539078986677
 31
0.0
  0
SOLID
  5
812D
330
8128
100
AcDbEntity
  8
0
  6
ByBlock
 62
     4
100
AcDbTrace
 10
575.4833765754187
 20
446.5539078986678
 30
0.0
 11
575.4833765754187
 21
445.5539078986677
 31
0.0
 12
578.4833765754187
 22
446.0539078986677
 32
0.0
 13
578.4833765754187
 23
446.0539078986677
 33
0.0
  0
SOLID
  5
812E
330
8128
100
AcDbEntity
  8
0
  6
ByBlock
 62
     4
100
AcDbTrace
 10
583.4833765754189
 20
446.5539078986678
 30
0.0
 11
583.4833765754189
 21
445.5539078986677
 31
0.0
 12
580.4833765754189
 22
446.0539078986677
 32
0.0
 13
580.4833765754189
 23
446.0539078986677
 33
0.0
  0
MTEXT
  5
812F
330
8128
100
AcDbEntity
  8
0
  6
ByBlock
 62
     2
100
AcDbMText
 10
596.9119480039903
 20
449.0539078986677
 30
0.0
 40
3.0
 41
0.0
 71
     5
 72
     1
  1
\A1;2.0 MIN.
 73
     1
 44
1.0
  0
POINT
  5
8130
330
8128
100
AcDbEntity
  8
DEFPOINTS
  6
ByBlock
 62
     0
100
AcDbPoint
 10
578.4833765754187
 20
430.1928457658632
 30
0.0
  0
POINT
  5
8131
330
8128
100
AcDbEntity
  8
DEFPOINTS
  6
ByBlock
 62
     0
100
AcDbPoint
 10
580.4833765754189
 20
414.2077421121928
 30
0.0
  0
POINT
  5
8132
330
8128
100
AcDbEntity
  8
DEFPOINTS
  6
ByBlock
 62
     0
100
AcDbPoint
 10
580.4833765754189
 20
446.0539078986677
 30
0.0
  0
ENDBLK
  5
8134
330
8128
100
AcDbEntity
  8
0
100
AcDbBlockEnd
  0
BLOCK
  5
8140
330
8135
100
AcDbEntity
  8
0
100
AcDbBlockBegin
  2
*D28
 70
     1
 10
0.0
 20
0.0
 30
0.0
  3
*D28
  1

  0
LINE
  5
8136
330
8135
100
AcDbEntity
  8
0
  6
ByBlock
 62
     4
100
AcDbLine
 10
577.4833765754189
 20
414.2077421121927
 30
0.0
 11
552.970415197203
 21
414.2077421121927
 31
0.0
  0
LINE
  5
8137
330
8135
100
AcDbEntity
  8
0
  6
ByBlock
 62
     4
100
AcDbLine
 10
577.4833765754189
 20
404.2077421121927
 30
0.0
 11
552.970415197203
 21
404.2077421121927
 31
0.0
  0
LINE
  5
8138
330
8135
100
AcDbEntity
  8
0
  6
ByBlock
 62
     4
100
AcDbLine
 10
555.470415197203
 20
417.2077421121927
 30
0.0
 11
555.470415197203
 21
420.2077421121926
 31
0.0
  0
LINE
  5
8139
330
8135
100
AcDbEntity
  8
0
  6
ByBlock
 62
     4
100
AcDbLine
 10
555.470415197203
 20
401.2077421121928
 30
0.0
 11
555.470415197203
 21
372.9742796019459
 31
0.0
  0
SOLID
  5
813A
330
8135
100
AcDbEntity
  8
0
  6
ByBlock
 62
     4
100
AcDbTrace
 10
554.9704151972029
 20
417.2077421121927
 30
0.0
 11
555.970415197203
 21
417.2077421121927
 31
0.0
 12
555.470415197203
 22
414.2077421121927
 32
0.0
 13
555.470415197203
 23
414.2077421121927
 33
0.0
  0
SOLID
  5
813B
330
8135
100
AcDbEntity
  8
0
  6
ByBlock
 62
     4
100
AcDbTrace
 10
554.9704151972029
 20
401.2077421121928
 30
0.0
 11
555.970415197203
 21
401.2077421121928
 31
0.0
 12
555.470415197203
 22
404.2077421121927
 32
0.0
 13
555.470415197203
 23
404.2077421121927
 33
0.0
  0
MTEXT
  5
813C
330
8135
100
AcDbEntity
  8
0
  6
ByBlock
 62
     2
100
AcDbMText
 10
552.470415197203
 20
380.1885653162316
 30
0.0
 40
3.0
 41
0.0
 71
     5
 72
     1
  1
\A1;10.00
 11
0.0000000000000001
 21
1.0
 31
0.0
 73
     1
 44
1.0
  0
POINT
  5
813D
330
8135
100
AcDbEntity
  8
DEFPOINTS
  6
ByBlock
 62
     0
100
AcDbPoint
 10
578.4833765754188
 20
414.2077421121927
 30
0.0
  0
POINT
  5
813E
330
8135
100
AcDbEntity
  8
DEFPOINTS
  6
ByBlock
 62
     0
100
AcDbPoint
 10
578.4833765754188
 20
404.2077421121927
 30
0.0
  0
POINT
  5
813F
330
8135
100
AcDbEntity
  8
DEFPOINTS
  6
ByBlock
 62
     0
100
AcDbPoint
 10
555.470415197203
 20
404.2077421121927
 30
0.0
  0
ENDBLK
  5
8141
330
8135
100
AcDbEntity
  8
0
100
AcDbBlockEnd
  0
BLOCK
  5
814C
330
8142
100
AcDbEntity
  8
0
100
AcDbBlockBegin
  2
*D29
 70
     1
 10
0.0
 20
0.0
 30
0.0
  3
*D29
  1

  0
LINE
  5
8143
330
8142
100
AcDbEntity
  8
0
  6
ByBlock
 62
     4
100
AcDbLine
 10
578.483376575419
 20
387.3650203122227
 30
0.0
 11
578.483376575419
 21
366.821609180589
 31
0.0
  0
LINE
  5
8144
330
8142
100
AcDbEntity
  8
0
  6
ByBlock
 62
     4
100
AcDbLine
 10
613.4833765754187
 20
391.2077421121927
 30
0.0
 11
613.4833765754187
 21
366.821609180589
 31
0.0
  0
LINE
  5
8145
330
8142
100
AcDbEntity
  8
0
  6
ByBlock
 62
     4
100
AcDbLine
 10
581.4833765754189
 20
369.321609180589
 30
0.0
 11
610.4833765754188
 21
369.321609180589
 31
0.0
  0
SOLID
  5
8146
330
8142
100
AcDbEntity
  8
0
  6
ByBlock
 62
     4
100
AcDbTrace
 10
581.4833765754189
 20
369.821609180589
 30
0.0
 11
581.4833765754189
 21
368.821609180589
 31
0.0
 12
578.483376575419
 22
369.321609180589
 32
0.0
 13
578.483376575419
 23
369.321609180589
 33
0.0
  0
SOLID
  5
8147
330
8142
100
AcDbEntity
  8
0
  6
ByBlock
 62
     4
100
AcDbTrace
 10
610.4833765754188
 20
369.821609180589
 30
0.0
 11
610.4833765754188
 21
368.821609180589
 31
0.0
 12
613.4833765754187
 22
369.321609180589
 32
0.0
 13
613.4833765754187
 23
369.321609180589
 33
0.0
  0
MTEXT
  5
8148
330
8142
100
AcDbEntity
  8
0
  6
ByBlock
 62
     2
100
AcDbMText
 10
595.9833765754189
 20
372.321609180589
 30
0.0
 40
3.0
 41
0.0
 71
     5
 72
     1
  1
\A1;L1=35.00
 73
     1
 44
1.0
  0
POINT
  5
8149
330
8142
100
AcDbEntity
  8
DEFPOINTS
  6
ByBlock
 62
     0
100
AcDbPoint
 10
578.483376575419
 20
388.3650203122227
 30
0.0
  0
POINT
  5
814A
330
8142
100
AcDbEntity
  8
DEFPOINTS
  6
ByBlock
 62
     0
100
AcDbPoint
 10
613.4833765754187
 20
392.2077421121926
 30
0.0
  0
POINT
  5
814B
330
8142
100
AcDbEntity
  8
DEFPOINTS
  6
ByBlock
 62
     0
100
AcDbPoint
 10
613.4833765754187
 20
369.321609180589
 30
0.0
  0
ENDBLK
  5
814D
330
8142
100
AcDbEntity
  8
0
100
AcDbBlockEnd
  0
BLOCK
  5
8158
330
814E
100
AcDbEntity
  8
0
100
AcDbBlockBegin
  2
*D30
 70
     1
 10
0.0
 20
0.0
 30
0.0
  3
*D30
  1

  0
LINE
  5
814F
330
814E
100
AcDbEntity
  8
0
  6
ByBlock
 62
     4
100
AcDbLine
 10
578.483376575419
 20
387.3650203122227
 30
0.0
 11
578.483376575419
 21
346.821609180589
 31
0.0
  0
LINE
  5
8150
330
814E
100
AcDbEntity
  8
0
  6
ByBlock
 62
     4
100
AcDbLine
 10
623.4833765754189
 20
377.9661072684997
 30
0.0
 11
623.4833765754189
 21
346.821609180589
 31
0.0
  0
LINE
  5
8151
330
814E
100
AcDbEntity
  8
0
  6
ByBlock
 62
     4
100
AcDbLine
 10
581.4833765754189
 20
349.321609180589
 30
0.0
 11
620.4833765754188
 21
349.321609180589
 31
0.0
  0
SOLID
  5
8152
330
814E
100
AcDbEntity
  8
0
  6
ByBlock
 62
     4
100
AcDbTrace
 10
581.4833765754189
 20
349.821609180589
 30
0.0
 11
581.4833765754189
 21
348.821609180589
 31
0.0
 12
578.483376575419
 22
349.321609180589
 32
0.0
 13
578.483376575419
 23
349.321609180589
 33
0.0
  0
SOLID
  5
8153
330
814E
100
AcDbEntity
  8
0
  6
ByBlock
 62
     4
100
AcDbTrace
 10
620.4833765754188
 20
349.821609180589
 30
0.0
 11
620.4833765754188
 21
348.821609180589
 31
0.0
 12
623.4833765754189
 22
349.321609180589
 32
0.0
 13
623.4833765754189
 23
349.321609180589
 33
0.0
  0
MTEXT
  5
8154
330
814E
100
AcDbEntity
  8
0
  6
ByBlock
 62
     2
100
AcDbMText
 10
600.983376575419
 20
352.321609180589
 30
0.0
 40
3.0
 41
0.0
 71
     5
 72
     1
  1
\A1;L=45.00
 73
     1
 44
1.0
  0
POINT
  5
8155
330
814E
100
AcDbEntity
  8
DEFPOINTS
  6
ByBlock
 62
     0
100
AcDbPoint
 10
578.483376575419
 20
388.3650203122227
 30
0.0
  0
POINT
  5
8156
330
814E
100
AcDbEntity
  8
DEFPOINTS
  6
ByBlock
 62
     0
100
AcDbPoint
 10
623.4833765754189
 20
378.9661072684996
 30
0.0
  0
POINT
  5
8157
330
814E
100
AcDbEntity
  8
DEFPOINTS
  6
ByBlock
 62
     0
100
AcDbPoint
 10
623.4833765754189
 20
349.321609180589
 30
0.0
  0
ENDBLK
  5
8159
330
814E
100
AcDbEntity
  8
0
100
AcDbBlockEnd
  0
BLOCK
  5
8164
330
815A
100
AcDbEntity
  8
0
100
AcDbBlockBegin
  2
*D31
 70
     1
 10
0.0
 20
0.0
 30
0.0
  3
*D31
  1

  0
LINE
  5
815B
330
815A
100
AcDbEntity
  8
0
  6
ByBlock
 62
     4
100
AcDbLine
 10
623.4833765754189
 20
377.9661072684997
 30
0.0
 11
623.4833765754189
 21
356.694865771649
 31
0.0
  0
LINE
  5
815C
330
815A
100
AcDbEntity
  8
0
  6
ByBlock
 62
     4
100
AcDbLine
 10
582.483376575419
 20
396.2077421121927
 30
0.0
 11
582.483376575419
 21
356.694865771649
 31
0.0
  0
LINE
  5
815D
330
815A
100
AcDbEntity
  8
0
  6
ByBlock
 62
     4
100
AcDbLine
 10
620.4833765754188
 20
359.194865771649
 30
0.0
 11
585.483376575419
 21
359.194865771649
 31
0.0
  0
SOLID
  5
815E
330
815A
100
AcDbEntity
  8
0
  6
ByBlock
 62
     4
100
AcDbTrace
 10
620.4833765754188
 20
359.694865771649
 30
0.0
 11
620.4833765754188
 21
358.694865771649
 31
0.0
 12
623.4833765754189
 22
359.194865771649
 32
0.0
 13
623.4833765754189
 23
359.194865771649
 33
0.0
  0
SOLID
  5
815F
330
815A
100
AcDbEntity
  8
0
  6
ByBlock
 62
     4
100
AcDbTrace
 10
585.483376575419
 20
359.694865771649
 30
0.0
 11
585.483376575419
 21
358.694865771649
 31
0.0
 12
582.483376575419
 22
359.194865771649
 32
0.0
 13
582.483376575419
 23
359.194865771649
 33
0.0
  0
MTEXT
  5
8160
330
815A
100
AcDbEntity
  8
0
  6
ByBlock
 62
     2
100
AcDbMText
 10
602.983376575419
 20
362.194865771649
 30
0.0
 40
3.0
 41
0.0
 71
     5
 72
     1
  1
\A1;N=41.00
 73
     1
 44
1.0
  0
POINT
  5
8161
330
815A
100
AcDbEntity
  8
DEFPOINTS
  6
ByBlock
 62
     0
100
AcDbPoint
 10
623.4833765754189
 20
378.9661072684996
 30
0.0
  0
POINT
  5
8162
330
815A
100
AcDbEntity
  8
DEFPOINTS
  6
ByBlock
 62
     0
100
AcDbPoint
 10
582.483376575419
 20
397.2077421121927
 30
0.0
  0
POINT
  5
8163
330
815A
100
AcDbEntity
  8
DEFPOINTS
  6
ByBlock
 62
     0
100
AcDbPoint
 10
582.483376575419
 20
359.194865771649
 30
0.0
  0
ENDBLK
  5
8165
330
815A
100
AcDbEntity
  8
0
100
AcDbBlockEnd
  0
BLOCK
  5
821A
330
8169
100
AcDbEntity
  8
0
100
AcDbBlockBegin
  2
DS020001TYPE2
 70
     0
 10
0.0
 20
0.0
 30
0.0
  3
DS020001TYPE2
  1

  0
LINE
  5
816A
330
8169
100
AcDbEntity
  8
M01
100
AcDbLine
 10
613.4833765754189
 20
397.2077421121927
 30
0.0
 11
584.7833035754189
 21
397.2077421121927
 31
0.0
  0
LINE
  5
816B
330
8169
100
AcDbEntity
  8
M01
100
AcDbLine
 10
613.4833765754189
 20
421.2077421121927
 30
0.0
 11
584.7833035754189
 21
421.2077421121927
 31
0.0
  0
LINE
  5
816C
330
8169
100
AcDbEntity
  8
M01
100
AcDbLine
 10
584.7833035754189
 20
421.2077421121927
 30
0.0
 11
584.7833035754189
 21
397.2077421121927
 31
0.0
  0
LINE
  5
816D
330
8169
100
AcDbEntity
  8
M01
100
AcDbLine
 10
583.4833765754189
 20
420.5705241121927
 30
0.0
 11
583.4833765754189
 21
397.8449381121927
 31
0.0
  0
LINE
  5
816E
330
8169
100
AcDbEntity
  8
M01
100
AcDbLine
 10
584.7833035754189
 20
397.8449381121927
 30
0.0
 11
583.4833765754189
 21
397.8449381121927
 31
0.0
  0
LINE
  5
816F
330
8169
100
AcDbEntity
  8
M01
100
AcDbLine
 10
584.7833035754189
 20
420.5705241121927
 30
0.0
 11
583.4833765754189
 21
420.5705241121927
 31
0.0
  0
LINE
  5
8170
330
8169
100
AcDbEntity
  8
M01
100
AcDbLine
 10
613.4833765754189
 20
409.2077421121927
 30
0.0
 11
613.4833765754189
 21
392.7077421121927
 31
0.0
  0
LINE
  5
8171
330
8169
100
AcDbEntity
  8
M01
100
AcDbLine
 10
615.9833765754188
 20
392.2077421121926
 30
0.0
 11
615.9833765754188
 21
409.2077421121927
 31
0.0
  0
LINE
  5
8172
330
8169
100
AcDbEntity
  8
M01
100
AcDbLine
 10
621.4833765754189
 20
392.7077421121927
 30
0.0
 11
621.4833765754189
 21
409.2077421121927
 31
0.0
  0
LINE
  5
8173
330
8169
100
AcDbEntity
  8
M01
100
AcDbLine
 10
623.4833765754189
 20
425.2077421121927
 30
0.0
 11
623.4833765754189
 21
393.2077421121927
 31
0.0
  0
LINE
  5
8174
330
8169
100
AcDbEntity
  8
M01
100
AcDbLine
 10
622.9833765754189
 20
392.7077421121927
 30
0.0
 11
622.9833765754189
 21
425.7077421121927
 31
0.0
  0
LINE
  5
8175
330
8169
100
AcDbEntity
  8
M01
100
AcDbLine
 10
613.9833765754189
 20
392.2077421121926
 30
0.0
 11
613.9833765754189
 21
426.2077421121927
 31
0.0
  0
LINE
  5
8176
330
8169
100
AcDbEntity
  8
M01
100
AcDbLine
 10
620.3135045754189
 20
394.7077421121927
 30
0.0
 11
620.3135045754189
 21
423.7077421121926
 31
0.0
  0
LINE
  5
8177
330
8169
100
AcDbEntity
  8
M01
100
AcDbLine
 10
615.9833765754188
 20
392.2077421121926
 30
0.0
 11
613.9833765754189
 21
392.2077421121926
 31
0.0
  0
LINE
  5
8178
330
8169
100
AcDbEntity
  8
M01
100
AcDbLine
 10
613.4833765754189
 20
392.7077421121927
 30
0.0
 11
613.9833765754189
 21
392.2077421121926
 31
0.0
  0
LINE
  5
8179
330
8169
100
AcDbEntity
  8
M01
100
AcDbLine
 10
619.9833765754188
 20
394.5171441121927
 30
0.0
 11
619.9833765754188
 21
386.7077421121927
 31
0.0
  0
LINE
  5
817A
330
8169
100
AcDbEntity
  8
M01
100
AcDbLine
 10
619.9833765754188
 20
386.7077421121927
 30
0.0
 11
619.4833765754188
 21
386.2077421121927
 31
0.0
  0
LINE
  5
817B
330
8169
100
AcDbEntity
  8
M01
100
AcDbLine
 10
616.9833765754189
 20
386.7077421121927
 30
0.0
 11
619.9833765754188
 21
386.7077421121927
 31
0.0
  0
LINE
  5
817C
330
8169
100
AcDbEntity
  8
M01
100
AcDbLine
 10
616.9833765754189
 20
386.7077421121927
 30
0.0
 11
617.4833765754189
 21
386.2077421121927
 31
0.0
  0
LINE
  5
817D
330
8169
100
AcDbEntity
  8
M01
100
AcDbLine
 10
619.4833765754188
 20
386.2077421121927
 30
0.0
 11
617.4833765754189
 21
386.2077421121927
 31
0.0
  0
ARC
  5
817E
330
8169
100
AcDbEntity
  8
M01
100
AcDbCircle
 10
618.9863975754189
 20
392.7798591121927
 30
0.0
 40
2.003029
100
AcDbArc
 50
60.14968899999998
 51
179.850311
  0
LINE
  5
817F
330
8169
100
AcDbEntity
  8
M01
100
AcDbLine
 10
616.9833765754189
 20
392.7850931121927
 30
0.0
 11
616.9833765754189
 21
386.7077421121927
 31
0.0
  0
LINE
  5
8180
330
8169
100
AcDbEntity
  8
M01
100
AcDbLine
 10
615.9833765754188
 20
392.2077421121926
 30
0.0
 11
616.9833765754189
 21
392.7850931121927
 31
0.0
  0
LINE
  5
8181
330
8169
100
AcDbEntity
  8
M01
100
AcDbLine
 10
622.9833765754189
 20
392.7077421121927
 30
0.0
 11
621.4833765754189
 21
392.7077421121927
 31
0.0
  0
LINE
  5
8182
330
8169
100
AcDbEntity
  8
M01
100
AcDbLine
 10
623.4833765754189
 20
393.2077421121927
 30
0.0
 11
622.9833765754189
 21
392.7077421121927
 31
0.0
  0
LINE
  5
8183
330
8169
100
AcDbEntity
  8
M01
100
AcDbLine
 10
621.4833765754189
 20
394.7077421121927
 30
0.0
 11
620.3135045754189
 21
394.7077421121927
 31
0.0
  0
LINE
  5
8184
330
8169
100
AcDbEntity
  8
M01
100
AcDbLine
 10
619.9833765754188
 20
394.5171441121927
 30
0.0
 11
620.3135045754189
 21
394.7077421121927
 31
0.0
  0
LINE
  5
8185
330
8169
100
AcDbEntity
  8
M01
100
AcDbLine
 10
615.9833765754188
 20
426.2077421121927
 30
0.0
 11
613.9833765754189
 21
426.2077421121927
 31
0.0
  0
LINE
  5
8186
330
8169
100
AcDbEntity
  8
M01
100
AcDbLine
 10
613.4833765754189
 20
425.7077421121927
 30
0.0
 11
613.4833765754189
 21
409.2077421121927
 31
0.0
  0
LINE
  5
8187
330
8169
100
AcDbEntity
  8
M01
100
AcDbLine
 10
613.4833765754189
 20
425.7077421121927
 30
0.0
 11
613.9833765754189
 21
426.2077421121927
 31
0.0
  0
LINE
  5
8188
330
8169
100
AcDbEntity
  8
M01
100
AcDbLine
 10
615.9833765754188
 20
426.2077421121927
 30
0.0
 11
620.3135045754189
 21
423.7077421121926
 31
0.0
  0
LINE
  5
8189
330
8169
100
AcDbEntity
  8
M01
100
AcDbLine
 10
615.9833765754188
 20
426.2077421121927
 30
0.0
 11
615.9833765754188
 21
409.2077421121927
 31
0.0
  0
LINE
  5
818A
330
8169
100
AcDbEntity
  8
M01
100
AcDbLine
 10
621.4833765754189
 20
425.7077421121927
 30
0.0
 11
621.4833765754189
 21
409.2077421121927
 31
0.0
  0
LINE
  5
818B
330
8169
100
AcDbEntity
  8
M01
100
AcDbLine
 10
621.4833765754189
 20
423.7077421121926
 30
0.0
 11
620.3135045754189
 21
423.7077421121926
 31
0.0
  0
LINE
  5
818C
330
8169
100
AcDbEntity
  8
M01
100
AcDbLine
 10
622.9833765754189
 20
425.7077421121927
 30
0.0
 11
621.4833765754189
 21
425.7077421121927
 31
0.0
  0
LINE
  5
818D
330
8169
100
AcDbEntity
  8
M01
100
AcDbLine
 10
622.9833765754189
 20
425.7077421121927
 30
0.0
 11
623.4833765754189
 21
425.2077421121927
 31
0.0
  0
LINE
  5
818E
330
8169
100
AcDbEntity
  8
CENTRE
 48
0.7
100
AcDbLine
 10
568.3156328939749
 20
409.2077421121927
 30
0.0
 11
641.8003110954587
 21
409.2077421121927
 31
0.0
  0
LINE
  5
818F
330
8169
100
AcDbEntity
  8
M04
100
AcDbLine
 10
611.4833765754188
 20
549.2077421121925
 30
0.0
 11
611.483376575419
 21
421.2077421121926
 31
0.0
  0
LINE
  5
8190
330
8169
100
AcDbEntity
  8
M01
100
AcDbLine
 10
612.9833765754189
 20
421.2077421121927
 30
0.0
 11
612.983376575419
 21
448.3944672276916
 31
0.0
  0
LINE
  5
8191
330
8169
100
AcDbEntity
  8
M01
100
AcDbLine
 10
615.4833765754188
 20
426.2077421121927
 30
0.0
 11
615.4833765754188
 21
448.3944672276916
 31
0.0
  0
ARC
  5
8192
330
8169
100
AcDbEntity
  8
M03
 48
0.7
100
AcDbCircle
 10
636.4833765754188
 20
409.2077421121927
 30
0.0
 40
15.0
100
AcDbArc
 50
150.0735651333857
 51
209.9264348666141
  0
LINE
  5
8193
330
8169
100
AcDbEntity
  8
M03
 48
0.7
100
AcDbLine
 10
580.7733765754188
 20
411.7077421121927
 30
0.0
 11
621.6931771176698
 21
411.7077421121927
 31
0.0
  0
LINE
  5
8194
330
8169
100
AcDbEntity
  8
M03
 48
0.7
100
AcDbLine
 10
580.7733765754188
 20
406.7077421121927
 30
0.0
 11
621.6931771176698
 21
406.7077421121927
 31
0.0
  0
LINE
  5
8195
330
8169
100
AcDbEntity
  8
M01
100
AcDbLine
 10
618.4833765754189
 20
491.2077421121927
 30
0.0
 11
615.983376575419
 21
491.2077421121927
 31
0.0
  0
LINE
  5
8196
330
8169
100
AcDbEntity
  8
M04
100
AcDbLine
 10
582.4833765754188
 20
421.2077421121927
 30
0.0
 11
582.4833765754192
 21
414.2077421121928
 31
0.0
  0
LINE
  5
8197
330
8169
100
AcDbEntity
  8
M04
100
AcDbLine
 10
584.4833765754189
 20
423.2077421121927
 30
0.0
 11
611.483376575419
 21
423.2077421121928
 31
0.0
  0
LINE
  5
8198
330
8169
100
AcDbEntity
  8
M04
100
AcDbLine
 10
584.483376575419
 20
395.2077421121927
 30
0.0
 11
613.483376575419
 21
395.2077421121927
 31
0.0
  0
ARC
  5
8199
330
8169
100
AcDbEntity
  8
M04
100
AcDbCircle
 10
584.4833765754189
 20
421.2077421121927
 30
0.0
 40
2.0
100
AcDbArc
 50
90.0
 51
180.0
  0
ARC
  5
819A
330
8169
100
AcDbEntity
  8
M04
100
AcDbCircle
 10
584.483376575419
 20
397.2077421121927
 30
0.0
 40
2.0
100
AcDbArc
 50
180.0
 51
270.0
  0
LINE
  5
819B
330
8169
100
AcDbEntity
  8
M04
100
AcDbLine
 10
578.4833765754187
 20
430.1928457658632
 30
0.0
 11
578.4833765754188
 21
414.2077421121927
 31
0.0
  0
LINE
  5
819C
330
8169
100
AcDbEntity
  8
M04
100
AcDbLine
 10
582.4833765754188
 20
404.2077421121927
 30
0.0
 11
582.483376575419
 21
397.2077421121927
 31
0.0
  0
LINE
  5
819D
330
8169
100
AcDbEntity
  8
M04
100
AcDbLine
 10
615.9833765754188
 20
392.2077421121926
 30
0.0
 11
615.983376575419
 21
384.2077421121927
 31
0.0
  0
LINE
  5
819E
330
8169
100
AcDbEntity
  8
M04
100
AcDbLine
 10
615.983376575419
 20
384.2077421121927
 30
0.0
 11
623.4833765754188
 21
384.2077421121927
 31
0.0
  0
LINE
  5
819F
330
8169
100
AcDbEntity
  8
M04
100
AcDbLine
 10
623.4833765754189
 20
393.2077421121927
 30
0.0
 11
623.4833765754189
 21
378.9661072684996
 31
0.0
  0
LINE
  5
81A0
330
8169
100
AcDbEntity
  8
M04
100
AcDbLine
 10
613.4833765754189
 20
392.7077421121927
 30
0.0
 11
613.4833765754187
 21
392.2077421121926
 31
0.0
  0
LINE
  5
81A1
330
8169
100
AcDbEntity
  8
M04
100
AcDbLine
 10
613.9833765754189
 20
392.2077421121926
 30
0.0
 11
613.4833765754187
 21
392.2077421121926
 31
0.0
  0
LINE
  5
81A2
330
8169
100
AcDbEntity
  8
M04
100
AcDbLine
 10
623.4833765754189
 20
425.2077421121927
 30
0.0
 11
623.4833765754189
 21
549.2077421121925
 31
0.0
  0
LINE
  5
81A3
330
8169
100
AcDbEntity
  8
M04
100
AcDbLine
 10
623.4833765754189
 20
423.2077421121927
 30
0.0
 11
630.4833765754189
 21
423.2077421121927
 31
0.0
  0
LINE
  5
81A4
330
8169
100
AcDbEntity
  8
M04
100
AcDbLine
 10
623.4833765754189
 20
395.2077421121927
 30
0.0
 11
630.4833765754189
 21
395.2077421121927
 31
0.0
  0
LINE
  5
81A5
330
8169
100
AcDbEntity
  8
M04
100
AcDbLine
 10
630.4833765754189
 20
423.2077421121927
 30
0.0
 11
630.4833765754189
 21
395.2077421121927
 31
0.0
  0
LINE
  5
81A6
330
8169
100
AcDbEntity
  8
M04
100
AcDbLine
 10
630.4833765754189
 20
423.2077421121927
 30
0.0
 11
638.483376575419
 21
427.8265442657097
 31
0.0
  0
LINE
  5
81A7
330
8169
100
AcDbEntity
  8
M04
100
AcDbLine
 10
630.4833765754189
 20
395.2077421121927
 30
0.0
 11
638.483376575419
 21
390.5889399586758
 31
0.0
  0
LINE
  5
81A8
330
8169
100
AcDbEntity
  8
M01
100
AcDbLine
 10
621.2333765754191
 20
516.2077421121929
 30
0.0
 11
613.2333765754188
 21
516.2077421121925
 31
0.0
  0
LINE
  5
81A9
330
8169
100
AcDbEntity
  8
M01
100
AcDbLine
 10
621.2333765754191
 20
509.2077421121929
 30
0.0
 11
621.2333765754191
 21
516.2077421121929
 31
0.0
  0
LINE
  5
81AA
330
8169
100
AcDbEntity
  8
M01
100
AcDbLine
 10
618.4833765754189
 20
491.2077421121927
 30
0.0
 11
620.233376575419
 21
501.1324852965247
 31
0.0
  0
LINE
  5
81AB
330
8169
100
AcDbEntity
  8
M01
100
AcDbLine
 10
613.2333765754188
 20
509.2077421121926
 30
0.0
 11
613.2333765754188
 21
516.2077421121925
 31
0.0
  0
LINE
  5
81AC
330
8169
100
AcDbEntity
  8
M01
100
AcDbLine
 10
615.9833765754191
 20
491.2077421121927
 30
0.0
 11
614.2333765754186
 21
501.1324852965254
 31
0.0
  0
LINE
  5
81AD
330
8169
100
AcDbEntity
  8
M01
100
AcDbLine
 10
614.2333765754186
 20
501.1324852965254
 30
0.0
 11
614.2333765754187
 21
509.2077421121927
 31
0.0
  0
LINE
  5
81AE
330
8169
100
AcDbEntity
  8
M01
100
AcDbLine
 10
620.233376575419
 20
501.1324852965247
 30
0.0
 11
620.2333765754189
 21
509.2077421121928
 31
0.0
  0
LINE
  5
81AF
330
8169
100
AcDbEntity
  8
M01
100
AcDbLine
 10
614.2333765754186
 20
501.1324852965254
 30
0.0
 11
620.233376575419
 21
501.1324852965247
 31
0.0
  0
LINE
  5
81B0
330
8169
100
AcDbEntity
  8
M01
100
AcDbLine
 10
621.2333765754191
 20
509.2077421121929
 30
0.0
 11
613.2333765754188
 21
509.2077421121926
 31
0.0
  0
LINE
  5
81B1
330
8169
100
AcDbEntity
  8
M01
100
AcDbLine
 10
615.983376575419
 20
468.9078592275812
 30
0.0
 11
615.983376575419
 21
491.2077421121927
 31
0.0
  0
LINE
  5
81B2
330
8169
100
AcDbEntity
  8
M01
100
AcDbLine
 10
618.4833765754189
 20
468.9078592275812
 30
0.0
 11
618.4833765754189
 21
491.2077421121927
 31
0.0
  0
LINE
  5
81B3
330
8169
100
AcDbEntity
  8
CENTRE
 48
0.7
100
AcDbLine
 10
617.2333765754189
 20
484.6990083503516
 30
0.0
 11
617.2333765754189
 21
547.0603851609264
 31
0.0
  0
ARC
  5
81B4
330
8169
100
AcDbEntity
  8
M01
100
AcDbCircle
 10
634.2333765754191
 20
448.3944672276916
 30
0.0
 40
21.25
100
AcDbArc
 50
170.0
 51
180.0
  0
LINE
  5
81B5
330
8169
100
AcDbEntity
  8
M01
100
AcDbLine
 10
613.3062118239097
 20
452.0844910031138
 30
0.0
 11
615.6985219443978
 21
465.6519558963264
 31
0.0
  0
ARC
  5
81B6
330
8169
100
AcDbEntity
  8
M01
100
AcDbCircle
 10
597.2333765754188
 20
468.9078592275812
 30
0.0
 40
18.75
100
AcDbArc
 50
350.0000000000003
 51
0.0
  0
ARC
  5
81B7
330
8169
100
AcDbEntity
  8
M01
100
AcDbCircle
 10
597.2333765754188
 20
468.9078592275812
 30
0.0
 40
21.25
100
AcDbArc
 50
350.0000000000003
 51
0.0
  0
LINE
  5
81B8
330
8169
100
AcDbEntity
  8
M01
100
AcDbLine
 10
615.7682312064403
 20
451.6503705589465
 30
0.0
 11
618.1605413269283
 21
465.2178354521591
 31
0.0
  0
ARC
  5
81B9
330
8169
100
AcDbEntity
  8
M01
100
AcDbCircle
 10
634.2333765754191
 20
448.3944672276916
 30
0.0
 40
18.75
100
AcDbArc
 50
170.0
 51
180.0
  0
LINE
  5
81BA
330
8169
100
AcDbEntity
  8
M01
100
AcDbLine
 10
614.2333765754187
 20
516.2077421121925
 30
0.0
 11
614.2333765754187
 21
542.4235718033469
 31
0.0
  0
LINE
  5
81BB
330
8169
100
AcDbEntity
  8
M01
100
AcDbLine
 10
620.2333765754188
 20
516.2077421121928
 30
0.0
 11
620.2333765754188
 21
542.4235718033469
 31
0.0
  0
HATCH
  5
81BC
330
8169
100
AcDbEntity
  8
M04
100
AcDbHatch
 10
0.0
 20
0.0
 30
0.0
210
0.0
220
0.0
230
1.0
  2
_U
 70
     0
 71
     0
 91
        2
 92
        7
 72
     0
 73
     1
 93
        4
 10
617.2333765754189
 20
542.4235718033469
 10
614.2333765754188
 20
542.423571803347
 10
614.2333765754188
 20
516.2077421121925
 10
617.2333765754189
 20
516.2077421121927
 97
        0
 92
        7
 72
     0
 73
     1
 93
        4
 10
620.2333765754188
 20
542.4235718033469
 10
617.2333765754189
 20
542.4235718033469
 10
617.2333765754189
 20
516.2077421121925
 10
620.2333765754188
 20
516.2077421121928
 97
        0
 75
     0
 76
     0
 52
45.0
 41
1.0
 77
     1
 78
     2
 53
45.0
 43
-164.8137618081477
 44
75.32883416800586
 45
-0.7071067811865475
 46
0.7071067811865476
 79
     0
 53
135.0
 43
-164.8137618081477
 44
75.32883416800586
 45
-0.7071067811865476
 46
-0.7071067811865475
 79
     0
 47
0.0843056911458626
 98
        2
 10
616.4067951388215
 20
526.574101817677
 10
619.0212994969028
 20
527.2485468012953
  0
ARC
  5
81BD
330
8169
100
AcDbEntity
  8
M03
100
AcDbCircle
 10
580.7733765754188
 20
409.2077421121927
 30
0.0
 40
2.5
100
AcDbArc
 50
90.0
 51
168.4630409671856
  0
LINE
  5
81BE
330
8169
100
AcDbEntity
  8
CENTRE
 48
0.7
100
AcDbLine
 10
618.4833765754189
 20
380.966125298301
 30
0.0
 11
618.4833765754189
 21
398.8637378101055
 31
0.0
  0
TEXT
  5
81BF
330
8169
100
AcDbEntity
  8
TEXT
100
AcDbText
 10
587.3598941640189
 20
415.3734497655206
 30
0.0
 40
2.0
  1
DS020001
 41
0.9
100
AcDbText
  0
DIMENSION
  5
81C0
330
8169
100
AcDbEntity
  8
DIMS
100
AcDbDimension
  2
*D26
 10
651.9399971282816
 20
426.2077421121927
 30
0.0
 11
651.9399971282816
 21
404.4690727446861
 31
0.0
 12
-11.0
 22
0.0
 32
0.0
 70
   160
  1
%%c<>
 71
     5
 42
-1.0
  3
DIM1
100
AcDbAlignedDimension
 13
615.9833765754188
 23
392.2077421121926
 33
0.0
 14
615.9833765754188
 24
426.2077421121927
 34
0.0
 50
90.0
100
AcDbRotatedDimension
1001
ACAD
1000
DSTYLE
1002
{
1070
   144
1040
1.0
1002
}
  0
TEXT
  5
81C1
330
8169
100
AcDbEntity
  8
DIMS
 62
     2
100
AcDbText
 10
646.8498778265418
 20
413.720203919692
 30
0.0
 40
2.0
  1
+0.025
 50
90.0
100
AcDbText
  0
TEXT
  5
81C2
330
8169
100
AcDbEntity
  8
DIMS
 62
     2
100
AcDbText
 10
649.9347981983626
 20
413.720203919692
 30
0.0
 40
2.0
  1
-0
 50
90.0
100
AcDbText
  0
LINE
  5
81C3
330
8169
100
AcDbEntity
  8
CENTRE
100
AcDbLine
 10
515.7387716623138
 20
409.2077421121927
 30
0.0
 11
466.1058629161024
 21
409.2077421121927
 31
0.0
  0
CIRCLE
  5
81C4
330
8169
100
AcDbEntity
  8
M04
100
AcDbCircle
 10
578.4833765754188
 20
409.2077421121927
 30
0.0
 40
1.25
  0
LINE
  5
81C5
330
8169
100
AcDbEntity
  8
0
  6
ByBlock
 62
     4
100
AcDbLine
 10
576.8553380598929
 20
413.1335529318787
 30
0.0
 11
565.5196236773771
 21
440.4682073318602
 31
0.0
  0
LINE
  5
81C6
330
8169
100
AcDbEntity
  8
0
  6
ByBlock
 62
     4
100
AcDbLine
 10
565.5196236773771
 20
440.4682073318602
 30
0.0
 11
562.5196236773772
 21
440.4682073318602
 31
0.0
  0
SOLID
  5
81C7
330
8169
100
AcDbEntity
  8
0
  6
ByBlock
 62
     4
100
AcDbTrace
 10
577.3171981563267
 20
413.3250868748818
 30
0.0
 11
576.3934779634594
 21
412.9420189888758
 31
0.0
 12
578.0045417179112
 22
410.3623923532768
 32
0.0
 13
578.0045417179112
 23
410.3623923532768
 33
0.0
  0
MTEXT
  5
81C8
330
8169
100
AcDbEntity
  8
0
  6
ByBlock
 62
     2
100
AcDbMText
 10
545.5386705173482
 20
440.46820733186
 30
0.0
 40
3.0
 41
0.0
 71
     5
 72
     1
  1
INSERT POINT
 73
     1
 44
1.0
  0
POINT
  5
81C9
330
8169
100
AcDbEntity
  8
DEFPOINTS
  6
ByBlock
 62
     0
100
AcDbPoint
 10
578.0045417179112
 20
410.3623923532768
 30
0.0
  0
CIRCLE
  5
81CA
330
8169
100
AcDbEntity
  8
M01
100
AcDbCircle
 10
490.9223172892081
 20
409.2077421121927
 30
0.0
 40
11.36278199999998
  0
CIRCLE
  5
81CB
330
8169
100
AcDbEntity
  8
M01
100
AcDbCircle
 10
490.9223172892081
 20
409.2077421121927
 30
0.0
 40
12.0
  0
CIRCLE
  5
81CC
330
8169
100
AcDbEntity
  8
M04
100
AcDbCircle
 10
490.9223172892081
 20
409.2077421121927
 30
0.0
 40
14.0
  0
CIRCLE
  5
81CD
330
8169
100
AcDbEntity
  8
M01
100
AcDbCircle
 10
490.9223172892081
 20
409.2077421121927
 30
0.0
 40
16.99999999999994
  0
LINE
  5
81CE
330
8169
100
AcDbEntity
  8
M04
100
AcDbLine
 10
498.9223172892081
 20
549.2077421121926
 30
0.0
 11
498.9223172892081
 21
424.2077421121926
 31
0.0
  0
LINE
  5
81CF
330
8169
100
AcDbEntity
  8
M04
100
AcDbLine
 10
482.922317289208
 20
549.2077421121926
 30
0.0
 11
482.9223172892081
 21
424.2077421121926
 31
0.0
  0
LINE
  5
81D0
330
8169
100
AcDbEntity
  8
M01
100
AcDbLine
 10
492.4223172892081
 20
392.2740478903167
 30
0.0
 11
492.4223172892081
 21
386.7077421121927
 31
0.0
  0
LINE
  5
81D1
330
8169
100
AcDbEntity
  8
M01
100
AcDbLine
 10
492.4223172892081
 20
386.7077421121927
 30
0.0
 11
491.9223172892081
 21
386.2077421121927
 31
0.0
  0
LINE
  5
81D2
330
8169
100
AcDbEntity
  8
M01
100
AcDbLine
 10
489.4223172892081
 20
386.7077421121927
 30
0.0
 11
492.4223172892081
 21
386.7077421121927
 31
0.0
  0
LINE
  5
81D3
330
8169
100
AcDbEntity
  8
M01
100
AcDbLine
 10
489.4223172892081
 20
386.7077421121927
 30
0.0
 11
489.9223172892081
 21
386.2077421121927
 31
0.0
  0
LINE
  5
81D4
330
8169
100
AcDbEntity
  8
M01
100
AcDbLine
 10
491.9223172892081
 20
386.2077421121927
 30
0.0
 11
489.9223172892081
 21
386.2077421121927
 31
0.0
  0
LINE
  5
81D5
330
8169
100
AcDbEntity
  8
M01
100
AcDbLine
 10
489.4223172892081
 20
392.2740478903167
 30
0.0
 11
489.4223172892081
 21
386.7077421121927
 31
0.0
  0
LINE
  5
81D6
330
8169
100
AcDbEntity
  8
M04
100
AcDbLine
 10
489.4223172892081
 20
386.7077421121927
 30
0.0
 11
489.4223172892082
 21
385.7077421121927
 31
0.0
  0
LINE
  5
81D7
330
8169
100
AcDbEntity
  8
M04
100
AcDbLine
 10
492.4223172892081
 20
386.7077421121927
 30
0.0
 11
492.4223172892081
 21
385.7077421121927
 31
0.0
  0
ARC
  5
81D8
330
8169
100
AcDbEntity
  8
M04
100
AcDbCircle
 10
490.9223172892081
 20
385.7077421121927
 30
0.0
 40
1.5
100
AcDbArc
 50
180.0
 51
0.0
  0
LINE
  5
81D9
330
8169
100
AcDbEntity
  8
M01
100
AcDbLine
 10
488.672317289208
 20
491.2077421121927
 30
0.0
 11
486.1723172892081
 21
491.2077421121927
 31
0.0
  0
LINE
  5
81DA
330
8169
100
AcDbEntity
  8
M01
100
AcDbLine
 10
491.4223172892082
 20
516.2077421121929
 30
0.0
 11
483.4223172892079
 21
516.2077421121925
 31
0.0
  0
LINE
  5
81DB
330
8169
100
AcDbEntity
  8
M01
100
AcDbLine
 10
491.4223172892082
 20
509.2077421121929
 30
0.0
 11
491.4223172892082
 21
516.2077421121929
 31
0.0
  0
LINE
  5
81DC
330
8169
100
AcDbEntity
  8
M01
100
AcDbLine
 10
488.672317289208
 20
491.2077421121927
 30
0.0
 11
490.4223172892081
 21
501.1324852965247
 31
0.0
  0
LINE
  5
81DD
330
8169
100
AcDbEntity
  8
M01
100
AcDbLine
 10
483.4223172892079
 20
509.2077421121926
 30
0.0
 11
483.4223172892079
 21
516.2077421121925
 31
0.0
  0
LINE
  5
81DE
330
8169
100
AcDbEntity
  8
M01
100
AcDbLine
 10
486.1723172892082
 20
491.2077421121927
 30
0.0
 11
484.4223172892077
 21
501.1324852965254
 31
0.0
  0
LINE
  5
81DF
330
8169
100
AcDbEntity
  8
M01
100
AcDbLine
 10
484.4223172892077
 20
501.1324852965254
 30
0.0
 11
484.4223172892078
 21
509.2077421121927
 31
0.0
  0
LINE
  5
81E0
330
8169
100
AcDbEntity
  8
M01
100
AcDbLine
 10
490.4223172892081
 20
501.1324852965247
 30
0.0
 11
490.422317289208
 21
509.2077421121928
 31
0.0
  0
LINE
  5
81E1
330
8169
100
AcDbEntity
  8
M01
100
AcDbLine
 10
484.4223172892077
 20
501.1324852965254
 30
0.0
 11
490.4223172892081
 21
501.1324852965247
 31
0.0
  0
LINE
  5
81E2
330
8169
100
AcDbEntity
  8
M01
100
AcDbLine
 10
491.4223172892082
 20
509.2077421121929
 30
0.0
 11
483.4223172892079
 21
509.2077421121926
 31
0.0
  0
LINE
  5
81E3
330
8169
100
AcDbEntity
  8
M01
100
AcDbLine
 10
486.172317289208
 20
425.5306554550981
 30
0.0
 11
486.1723172892081
 21
491.2077421121927
 31
0.0
  0
LINE
  5
81E4
330
8169
100
AcDbEntity
  8
M01
100
AcDbLine
 10
488.6723172892081
 20
426.0581872101715
 30
0.0
 11
488.672317289208
 21
491.2077421121927
 31
0.0
  0
LINE
  5
81E5
330
8169
100
AcDbEntity
  8
CENTRE
 48
0.7
100
AcDbLine
 10
487.4223172892079
 20
484.6069879482461
 30
0.0
 11
487.4223172892081
 21
547.0603851609264
 31
0.0
  0
LINE
  5
81E6
330
8169
100
AcDbEntity
  8
M01
100
AcDbLine
 10
484.4223172892078
 20
516.2077421121925
 30
0.0
 11
484.4223172892078
 21
542.4235718033469
 31
0.0
  0
LINE
  5
81E7
330
8169
100
AcDbEntity
  8
M01
100
AcDbLine
 10
490.4223172892079
 20
516.2077421121928
 30
0.0
 11
490.4223172892079
 21
542.4235718033469
 31
0.0
  0
HATCH
  5
81E8
330
8169
100
AcDbEntity
  8
M04
100
AcDbHatch
 10
0.0
 20
0.0
 30
0.0
210
0.0
220
0.0
230
1.0
  2
_U
 70
     0
 71
     0
 91
        2
 92
        7
 72
     0
 73
     1
 93
        4
 10
487.4223172892081
 20
542.4235718033469
 10
484.422317289208
 20
542.423571803347
 10
484.422317289208
 20
516.2077421121925
 10
487.4223172892079
 20
516.2077421121927
 97
        0
 92
        7
 72
     0
 73
     1
 93
        4
 10
490.4223172892079
 20
542.4235718033469
 10
487.4223172892079
 20
542.4235718033469
 10
487.4223172892081
 20
516.2077421121925
 10
490.4223172892079
 20
516.2077421121928
 97
        0
 75
     0
 76
     0
 52
45.0
 41
1.0
 77
     1
 78
     2
 53
45.0
 43
-294.6248210943586
 44
75.32883416800586
 45
-0.7071067811865475
 46
0.7071067811865476
 79
     0
 53
135.0
 43
-294.6248210943586
 44
75.32883416800586
 45
-0.7071067811865476
 46
-0.7071067811865475
 79
     0
 47
0.0843056911458626
 98
        2
 10
486.5957358526106
 20
526.574101817677
 10
489.210240210692
 20
527.2485468012953
  0
LINE
  5
81E9
330
8169
100
AcDbEntity
  8
CENTRE
 48
0.7
100
AcDbLine
 10
490.9223172892079
 20
379.2077421121927
 30
0.0
 11
490.9223172892079
 21
439.2077421121928
 31
0.0
  0
LINE
  5
81EA
330
8169
100
AcDbEntity
  8
M01
 48
0.7
100
AcDbLine
 10
491.9223172892078
 20
426.1783048606698
 30
0.0
 11
491.9223172892078
 21
437.1062065647089
 31
0.0
  0
LINE
  5
81EB
330
8169
100
AcDbEntity
  8
M01
 48
0.7
100
AcDbLine
 10
489.9223172892079
 20
426.1783048606698
 30
0.0
 11
489.9223172892079
 21
437.1062065647089
 31
0.0
  0
LINE
  5
81EC
330
8169
100
AcDbEntity
  8
M01
 48
0.7
100
AcDbLine
 10
496.3989047114204
 20
465.9937419672691
 30
0.0
 11
496.3989047114203
 21
484.2077421121927
 31
0.0
  0
LINE
  5
81ED
330
8169
100
AcDbEntity
  8
M01
 48
0.7
100
AcDbLine
 10
494.3989047114206
 20
465.9937419672695
 30
0.0
 11
494.3989047114205
 21
484.2077421121928
 31
0.0
  0
LINE
  5
81EE
330
8169
100
AcDbEntity
  8
CENTRE
100
AcDbLine
 10
495.3989047114204
 20
481.5465999379028
 30
0.0
 11
495.3989047114204
 21
542.7586530885361
 31
0.0
  0
ARC
  5
81EF
330
8169
100
AcDbEntity
  8
M01
100
AcDbCircle
 10
510.9223172892079
 20
437.1062065647089
 30
0.0
 40
21.0
100
AcDbArc
 50
169.9999999999999
 51
180.0
  0
LINE
  5
81F0
330
8169
100
AcDbEntity
  8
M01
100
AcDbLine
 10
494.1102520186525
 20
462.6944265915979
 30
0.0
 11
490.2413544759515
 21
440.7528182957144
 31
0.0
  0
ARC
  5
81F1
330
8169
100
AcDbEntity
  8
M01
100
AcDbCircle
 10
510.9223172892079
 20
437.1062065647089
 30
0.0
 40
19.0
100
AcDbArc
 50
169.9999999999999
 51
180.0
  0
LINE
  5
81F2
330
8169
100
AcDbEntity
  8
M01
100
AcDbLine
 10
496.0798675246768
 20
462.3471302362633
 30
0.0
 11
492.2109699819759
 21
440.4055219403806
 31
0.0
  0
LINE
  5
81F3
330
8169
100
AcDbEntity
  8
M01
100
AcDbLine
 10
497.1489047114205
 20
484.2077421121927
 30
0.0
 11
493.6489047114206
 21
484.2077421121929
 31
0.0
  0
LINE
  5
81F4
330
8169
100
AcDbEntity
  8
M01
100
AcDbLine
 10
497.6489047114204
 20
514.2077421121928
 30
0.0
 11
493.1489047114207
 21
514.2077421121928
 31
0.0
  0
LINE
  5
81F5
330
8169
100
AcDbEntity
  8
M01
100
AcDbLine
 10
497.6489047114205
 20
489.2077421121927
 30
0.0
 11
493.1489047114206
 21
489.2077421121928
 31
0.0
  0
LINE
  5
81F6
330
8169
100
AcDbEntity
  8
M01
 48
0.7
100
AcDbLine
 10
493.6489047114206
 20
484.2077421121929
 30
0.0
 11
493.6489047114206
 21
489.2077421121928
 31
0.0
  0
LINE
  5
81F7
330
8169
100
AcDbEntity
  8
M01
 48
0.7
100
AcDbLine
 10
497.1489047114205
 20
484.2077421121927
 30
0.0
 11
497.1489047114205
 21
489.2077421121927
 31
0.0
  0
LINE
  5
81F8
330
8169
100
AcDbEntity
  8
M01
100
AcDbLine
 10
497.6489047114204
 20
509.2077421121927
 30
0.0
 11
493.1489047114206
 21
509.2077421121929
 31
0.0
  0
LINE
  5
81F9
330
8169
100
AcDbEntity
  8
M01
 48
0.7
100
AcDbLine
 10
497.6489047114205
 20
489.2077421121927
 30
0.0
 11
497.6489047114204
 21
514.2077421121928
 31
0.0
  0
LINE
  5
81FA
330
8169
100
AcDbEntity
  8
M01
 48
0.7
100
AcDbLine
 10
493.1489047114206
 20
489.2077421121928
 30
0.0
 11
493.1489047114207
 21
514.2077421121928
 31
0.0
  0
LINE
  5
81FB
330
8169
100
AcDbEntity
  8
M01
100
AcDbLine
 10
493.6489047114206
 20
514.2077421121927
 30
0.0
 11
493.6489047114206
 21
538.717277700464
 31
0.0
  0
LINE
  5
81FC
330
8169
100
AcDbEntity
  8
M01
100
AcDbLine
 10
497.1489047114205
 20
514.2077421121928
 30
0.0
 11
497.1489047114205
 21
538.717277700464
 31
0.0
  0
HATCH
  5
81FD
330
8169
100
AcDbEntity
  8
M04
100
AcDbHatch
 10
0.0
 20
0.0
 30
0.0
210
0.0
220
0.0
230
1.0
  2
_U
 70
     0
 71
     0
 91
        2
 92
        7
 72
     0
 73
     1
 93
        4
 10
495.3989047114204
 20
538.717277700464
 10
493.6489047114206
 20
538.717277700464
 10
493.6489047114206
 20
514.2077421121928
 10
495.3989047114204
 20
514.2077421121928
 97
        0
 92
        7
 72
     0
 73
     1
 93
        4
 10
497.1489047114205
 20
538.717277700464
 10
495.3989047114204
 20
538.717277700464
 10
495.3989047114204
 20
514.2077421121928
 10
497.1489047114205
 20
514.2077421121928
 97
        0
 75
     0
 76
     0
 52
45.0
 41
0.75
 77
     1
 78
     2
 53
45.0
 43
579.9599639976314
 44
409.2077421121927
 45
-0.5303300858899106
 46
0.5303300858899107
 79
     0
 53
135.0
 43
579.9599639976314
 44
409.2077421121927
 45
-0.5303300858899107
 46
-0.5303300858899106
 79
     0
 47
0.0985701327119849
 98
        2
 10
494.4684416393269
 20
517.7218388240937
 10
496.1447912069767
 20
518.2146895953277
  0
ARC
  5
81FE
330
8169
100
AcDbEntity
  8
M01
 48
0.7
100
AcDbCircle
 10
475.3989047114204
 20
465.9937419672689
 30
0.0
 40
21.0
100
AcDbArc
 50
349.9999999999998
 51
0.0000000000004834
  0
ARC
  5
81FF
330
8169
100
AcDbEntity
  8
M01
 48
0.7
100
AcDbCircle
 10
475.3989047114205
 20
465.9937419672696
 30
0.0
 40
19.0
100
AcDbArc
 50
349.9999999999998
 51
359.9999999999997
  0
TEXT
  5
8200
330
8169
100
AcDbEntity
  8
TEXT
100
AcDbText
 10
396.0487417630144
 20
329.3229346827877
 30
0.0
 40
4.0
  1
%%UNOTE
100
AcDbText
  0
TEXT
  5
8201
330
8169
100
AcDbEntity
  8
TEXT
100
AcDbText
 10
376.4754399465047
 20
320.8828644427081
 30
0.0
 40
3.0
  1
1. AN ALLOWANCE FOR EXPANSION OF THE BUSHING MUST BE MADE DEPENDENT ON THE
100
AcDbText
  0
TEXT
  5
8202
330
8169
100
AcDbEntity
  8
TEXT
100
AcDbText
 10
382.9428501849605
 20
315.5724345092365
 30
0.0
 40
3.0
  1
MATERIAL TO BE MOULDED AND THE PROCESS CONDITIONS - SEE CATALOGUE FOR DETAILS
100
AcDbText
  0
TEXT
  5
8203
330
8169
100
AcDbEntity
  8
TEXT
100
AcDbText
 10
588.3376687042179
 20
401.5270873395308
 30
0.0
 40
2.0
  1
TYPE 2
 41
0.9
100
AcDbText
  0
LINE
  5
8204
330
8169
100
AcDbEntity
  8
M01
 48
0.7
100
AcDbLine
 10
578.4833765754187
 20
414.2077421121927
 30
0.0
 11
583.4833765754189
 21
414.2077421121928
 31
0.0
  0
LINE
  5
8205
330
8169
100
AcDbEntity
  8
M01
 48
0.7
100
AcDbLine
 10
578.4833765754188
 20
404.2077421121927
 30
0.0
 11
583.4833765754189
 21
404.2077421121927
 31
0.0
  0
LINE
  5
8206
330
8169
100
AcDbEntity
  8
M04
100
AcDbLine
 10
582.4833765754191
 20
416.207742112193
 30
0.0
 11
580.4833765754189
 21
414.2077421121928
 31
0.0
  0
LINE
  5
8207
330
8169
100
AcDbEntity
  8
M04
100
AcDbLine
 10
582.4833765754191
 20
402.2077421121925
 30
0.0
 11
580.4833765754189
 21
404.2077421121927
 31
0.0
  0
LINE
  5
8208
330
8169
100
AcDbEntity
  8
M03
 48
0.7
100
AcDbLine
 10
577.5192111210704
 20
410.1723218508754
 30
0.0
 11
578.3238868326357
 21
409.7077421121927
 31
0.0
  0
LINE
  5
8209
330
8169
100
AcDbEntity
  8
M03
 48
0.7
100
AcDbLine
 10
577.5192111210704
 20
408.24316237351
 30
0.0
 11
578.3238868326357
 21
408.7077421121928
 31
0.0
  0
ARC
  5
820A
330
8169
100
AcDbEntity
  8
M03
100
AcDbCircle
 10
580.7733765754188
 20
409.2077421121927
 30
0.0
 40
2.5
100
AcDbArc
 50
191.5369590328142
 51
270.0
  0
LINE
  5
820B
330
8169
100
AcDbEntity
  8
M03
100
AcDbLine
 10
578.3238868326357
 20
408.7077421121928
 30
0.0
 11
578.3238868326357
 21
409.7077421121927
 31
0.0
  0
DIMENSION
  5
820C
330
8169
100
AcDbEntity
  8
DIMS
100
AcDbDimension
  2
*D27
 10
580.4833765754189
 20
446.0539078986677
 30
0.0
 11
596.9119480039903
 21
449.0539078986677
 31
0.0
 70
    32
  1
2.0 MIN.
 71
     5
 42
-1.0
  3
DIM1
100
AcDbAlignedDimension
 13
578.4833765754187
 23
430.1928457658632
 33
0.0
 14
580.4833765754189
 24
414.2077421121928
 34
0.0
100
AcDbRotatedDimension
1001
ACAD
1000
DSTYLE
1002
{
1070
   144
1040
1.0
1002
}
  0
DIMENSION
  5
820D
330
8169
100
AcDbEntity
  8
DIMS
100
AcDbDimension
  2
*D28
 10
555.470415197203
 20
404.2077421121927
 30
0.0
 11
555.470415197203
 21
380.1885653162316
 31
0.0
 70
   160
 71
     5
 42
-1.0
  3
DIM1
100
AcDbAlignedDimension
 13
578.4833765754188
 23
414.2077421121927
 33
0.0
 14
578.4833765754188
 24
404.2077421121927
 34
0.0
 50
90.0
100
AcDbRotatedDimension
1001
ACAD
1000
DSTYLE
1002
{
1070
   144
1040
1.0
1002
}
  0
TEXT
  5
820E
330
8169
100
AcDbEntity
  8
DIMS
 62
     2
100
AcDbText
 10
550.3300221741321
 20
388.5546729067801
 30
0.0
 40
2.0
  1
+0.015
 50
90.0
100
AcDbText
  0
TEXT
  5
820F
330
8169
100
AcDbEntity
  8
DIMS
 62
     2
100
AcDbText
 10
553.414942545953
 20
388.5546729067801
 30
0.0
 40
2.0
  1
-0
 50
90.0
100
AcDbText
  0
DIMENSION
  5
8210
330
8169
100
AcDbEntity
  8
DIMS
100
AcDbDimension
  2
*D29
 10
613.4833765754187
 20
369.321609180589
 30
0.0
 11
595.9833765754189
 21
372.321609180589
 31
0.0
 70
    32
  1
L1=<>
 71
     5
 42
-1.0
  3
DIM1
100
AcDbAlignedDimension
 13
578.483376575419
 23
388.3650203122227
 33
0.0
 14
613.4833765754187
 24
392.2077421121926
 34
0.0
100
AcDbRotatedDimension
1001
ACAD
1000
DSTYLE
1002
{
1070
   144
1040
1.0
1002
}
  0
DIMENSION
  5
8211
330
8169
100
AcDbEntity
  8
DIMS
100
AcDbDimension
  2
*D30
 10
623.4833765754189
 20
349.321609180589
 30
0.0
 11
600.983376575419
 21
352.321609180589
 31
0.0
 70
    32
  1
L=<>
 71
     5
 42
-1.0
  3
DIM1
100
AcDbAlignedDimension
 13
578.483376575419
 23
388.3650203122227
 33
0.0
 14
623.4833765754189
 24
378.9661072684996
 34
0.0
100
AcDbRotatedDimension
1001
ACAD
1000
DSTYLE
1002
{
1070
   144
1040
1.0
1002
}
  0
DIMENSION
  5
8212
330
8169
100
AcDbEntity
  8
DIMS
100
AcDbDimension
  2
*D31
 10
582.483376575419
 20
359.194865771649
 30
0.0
 11
602.983376575419
 21
362.194865771649
 31
0.0
 70
    32
  1
N=<>
 71
     5
 42
-1.0
  3
DIM1
100
AcDbAlignedDimension
 13
623.4833765754189
 23
378.9661072684996
 33
0.0
 14
582.483376575419
 24
397.2077421121927
 34
0.0
100
AcDbRotatedDimension
1001
ACAD
1000
DSTYLE
1002
{
1070
   144
1040
1.0
1002
}
  0
ARC
  5
8213
330
8169
100
AcDbEntity
  8
M01
100
AcDbCircle
 10
590.4833765754188
 20
409.2077421121927
 30
0.0
 40
13.0
100
AcDbArc
 50
157.3801350519595
 51
202.6198649480408
  0
LINE
  5
8214
330
8169
100
AcDbEntity
  8
M04
100
AcDbLine
 10
578.4833765754188
 20
404.2077421121925
 30
0.0
 11
578.483376575419
 21
388.3650203122227
 31
0.0
  0
CIRCLE
  5
8215
330
8169
100
AcDbEntity
  8
M01
100
AcDbCircle
 10
490.9223172892081
 20
409.2077421121927
 30
0.0
 40
5.0
  0
CIRCLE
  5
8216
330
8169
100
AcDbEntity
  8
M01
100
AcDbCircle
 10
490.9223172892081
 20
409.2077421121927
 30
0.0
 40
0.5000000000003979
  0
CIRCLE
  5
8217
330
8169
100
AcDbEntity
  8
M01
100
AcDbCircle
 10
490.9223172892081
 20
409.2077421121927
 30
0.0
 40
0.9645797386827439
  0
CIRCLE
  5
8218
330
8169
100
AcDbEntity
  8
M04
100
AcDbCircle
 10
490.9223172892081
 20
409.2077421121927
 30
0.0
 40
7.000000000000284
  0
CIRCLE
  5
8219
330
8169
100
AcDbEntity
  8
M03
100
AcDbCircle
 10
490.9223172892081
 20
409.2077421121927
 30
0.0
 40
2.499999999999943
  0
ENDBLK
  5
821B
330
8169
100
AcDbEntity
  8
0
100
AcDbBlockEnd
  0
BLOCK
  5
8387
330
837C
100
AcDbEntity
  8
0
100
AcDbBlockBegin
  2
*D33
 70
     1
 10
0.0
 20
0.0
 30
0.0
  3
*D33
  1

  0
LINE
  5
8625
330
837C
100
AcDbEntity
  8
M01
 62
     4
370
    -2
100
AcDbLine
 10
569.387527901933
 20
576.5280614087076
 30
0.0
 11
569.387527901933
 21
562.2479335972624
 31
0.0
  0
LINE
  5
8626
330
837C
100
AcDbEntity
  8
M01
 62
     4
370
    -2
100
AcDbLine
 10
567.387527901933
 20
586.5280614087076
 30
0.0
 11
567.387527901933
 21
562.2479335972624
 31
0.0
  0
LINE
  5
8627
330
837C
100
AcDbEntity
  8
M01
 62
     4
370
    -2
100
AcDbLine
 10
572.387527901933
 20
564.7479335972624
 30
0.0
 11
575.387527901933
 21
564.7479335972624
 31
0.0
  0
LINE
  5
8628
330
837C
100
AcDbEntity
  8
M01
 62
     4
370
    -2
100
AcDbLine
 10
564.387527901933
 20
564.7479335972624
 30
0.0
 11
553.9589564733615
 21
564.7479335972624
 31
0.0
  0
SOLID
  5
8629
330
837C
100
AcDbEntity
  8
M01
 62
     4
100
AcDbTrace
 10
572.387527901933
 20
565.2479335972624
 30
0.0
 11
572.387527901933
 21
564.2479335972624
 31
0.0
 12
569.387527901933
 22
564.7479335972624
 32
0.0
 13
569.387527901933
 23
564.7479335972624
 33
0.0
  0
SOLID
  5
862A
330
837C
100
AcDbEntity
  8
M01
 62
     4
100
AcDbTrace
 10
564.387527901933
 20
565.2479335972624
 30
0.0
 11
564.387527901933
 21
564.2479335972624
 31
0.0
 12
567.387527901933
 22
564.7479335972624
 32
0.0
 13
567.387527901933
 23
564.7479335972624
 33
0.0
  0
MTEXT
  5
862B
330
837C
100
AcDbEntity
  8
M01
 62
     2
100
AcDbMText
 10
557.6732421876473
 20
568.0336478829767
 30
0.0
 40
3.0
 41
0.0
 71
     5
 72
     1
  1
\A1;{\C5;'S'}
 73
     1
 44
1.0
  0
POINT
  5
862C
330
837C
100
AcDbEntity
  8
DEFPOINTS
 62
     0
100
AcDbPoint
 10
569.387527901933
 20
577.5280614087076
 30
0.0
  0
POINT
  5
862D
330
837C
100
AcDbEntity
  8
DEFPOINTS
 62
     0
100
AcDbPoint
 10
567.387527901933
 20
587.5280614087077
 30
0.0
  0
POINT
  5
862E
330
837C
100
AcDbEntity
  8
DEFPOINTS
 62
     0
100
AcDbPoint
 10
567.387527901933
 20
564.7479335972624
 30
0.0
  0
ENDBLK
  5
8388
330
837C
100
AcDbEntity
  8
0
100
AcDbBlockEnd
  0
BLOCK
  5
83C2
330
83BB
100
AcDbEntity
  8
0
100
AcDbBlockBegin
  2
*D34
 70
     1
 10
0.0
 20
0.0
 30
0.0
  3
*D34
  1

  0
LINE
  5
862F
330
83BB
100
AcDbEntity
  8
M01
 62
     4
370
    -2
100
AcDbLine
 10
604.5406142104629
 20
590.3165416006133
 30
0.0
 11
601.5406142104628
 21
590.3165416006133
 31
0.0
  0
LINE
  5
8630
330
83BB
100
AcDbEntity
  8
M01
 62
     4
370
    -2
100
AcDbLine
 10
601.5406142104628
 20
590.3165416006133
 30
0.0
 11
571.6251566605754
 21
580.0849976609404
 31
0.0
  0
MTEXT
  5
8631
330
83BB
100
AcDbEntity
  8
M01
 62
     2
100
AcDbMText
 10
608.3263284961771
 20
590.3165416006133
 30
0.0
 40
3.0
 41
0.0
 71
     5
 72
     1
  1
\A1;{\C5;'R'}
 73
     1
 44
1.0
  0
SOLID
  5
8632
330
83BB
100
AcDbEntity
  8
M01
 62
     4
100
AcDbTrace
 10
571.4633509269283
 20
580.5580926879265
 30
0.0
 11
571.7869623942225
 21
579.6119026339545
 31
0.0
 12
568.7865864986592
 22
579.1141632590578
 32
0.0
 13
568.7865864986592
 23
579.1141632590578
 33
0.0
  0
POINT
  5
8633
330
83BB
100
AcDbEntity
  8
DEFPOINTS
 62
     0
100
AcDbPoint
 10
568.7865864986592
 20
579.1141632590578
 30
0.0
  0
POINT
  5
8634
330
83BB
100
AcDbEntity
  8
DEFPOINTS
 62
     0
100
AcDbPoint
 10
593.3875279019336
 20
587.5280614087074
 30
0.0
  0
ENDBLK
  5
83C3
330
83BB
100
AcDbEntity
  8
0
100
AcDbBlockEnd
  0
BLOCK
  5
83FB
330
83F0
100
AcDbEntity
  8
0
 62
     0
100
AcDbBlockBegin
  2
*D35
 70
     1
 10
0.0
 20
0.0
 30
0.0
  3
*D35
  1

  0
LINE
  5
8635
330
83F0
100
AcDbEntity
  8
M01
 62
     4
370
    -2
100
AcDbLine
 10
577.4833765754189
 20
410.2077421121928
 30
0.0
 11
577.4833765754189
 21
440.1183179211016
 31
0.0
  0
LINE
  5
8636
330
83F0
100
AcDbEntity
  8
M01
 62
     4
370
    -2
100
AcDbLine
 10
578.4833765754187
 20
431.1928457658632
 30
0.0
 11
578.4833765754187
 21
440.1183179211016
 31
0.0
  0
LINE
  5
8637
330
83F0
100
AcDbEntity
  8
M01
 62
     4
370
    -2
100
AcDbLine
 10
574.4833765754188
 20
437.6183179211016
 30
0.0
 11
571.4833765754189
 21
437.6183179211016
 31
0.0
  0
LINE
  5
8638
330
83F0
100
AcDbEntity
  8
M01
 62
     4
370
    -2
100
AcDbLine
 10
581.4833765754188
 20
437.6183179211016
 30
0.0
 11
607.7690908611331
 21
437.6183179211016
 31
0.0
  0
SOLID
  5
8639
330
83F0
100
AcDbEntity
  8
M01
 62
     4
100
AcDbTrace
 10
574.4833765754188
 20
438.1183179211016
 30
0.0
 11
574.4833765754188
 21
437.1183179211016
 31
0.0
 12
577.4833765754189
 22
437.6183179211016
 32
0.0
 13
577.4833765754189
 23
437.6183179211016
 33
0.0
  0
SOLID
  5
863A
330
83F0
100
AcDbEntity
  8
M01
 62
     4
100
AcDbTrace
 10
581.4833765754188
 20
438.1183179211016
 30
0.0
 11
581.4833765754188
 21
437.1183179211016
 31
0.0
 12
578.4833765754187
 22
437.6183179211016
 32
0.0
 13
578.4833765754187
 23
437.6183179211016
 33
0.0
  0
MTEXT
  5
863B
330
83F0
100
AcDbEntity
  8
M01
 62
     2
100
AcDbMText
 10
596.1262337182758
 20
440.9040322068159
 30
0.0
 40
3.0
 41
0.0
 71
     5
 72
     1
  1
\A1;{\C5;'S' = 1.0}
 73
     1
 44
1.0
  0
POINT
  5
863C
330
83F0
100
AcDbEntity
  8
DEFPOINTS
 62
     0
100
AcDbPoint
 10
577.4833765754189
 20
409.2077421121929
 30
0.0
  0
POINT
  5
863D
330
83F0
100
AcDbEntity
  8
DEFPOINTS
 62
     0
100
AcDbPoint
 10
578.4833765754187
 20
430.1928457658632
 30
0.0
  0
POINT
  5
863E
330
83F0
100
AcDbEntity
  8
DEFPOINTS
 62
     0
100
AcDbPoint
 10
578.4833765754187
 20
437.6183179211016
 30
0.0
  0
ENDBLK
  5
83FC
330
83F0
100
AcDbEntity
  8
0
 62
     0
100
AcDbBlockEnd
  0
BLOCK
  5
840F
330
8408
100
AcDbEntity
  8
0
 62
     0
100
AcDbBlockBegin
  2
*D36
 70
     1
 10
0.0
 20
0.0
 30
0.0
  3
*D36
  1

  0
LINE
  5
8588
330
8408
100
AcDbEntity
  8
M01
 62
     4
370
    -2
100
AcDbLine
 10
574.6512084881109
 20
406.896367271279
 30
0.0
 11
571.6593408660307
 21
406.4595775965555
 31
0.0
  0
LINE
  5
8589
330
8408
100
AcDbEntity
  8
M01
 62
     4
370
    -2
100
AcDbLine
 10
590.48337657542
 20
409.2077421121938
 30
0.0
 11
577.6197400044813
 21
407.3297500539505
 31
0.0
  0
SOLID
  5
858A
330
8408
100
AcDbEntity
  8
M01
 62
     4
100
AcDbTrace
 10
574.5789780243322
 20
407.3911225240074
 30
0.0
 11
574.7234389518894
 21
406.4016120185506
 31
0.0
 12
577.6197400044813
 22
407.3297500539505
 32
0.0
 13
577.6197400044813
 23
407.3297500539505
 33
0.0
  0
MTEXT
  5
858B
330
8408
100
AcDbEntity
  8
M01
 62
     2
100
AcDbMText
 10
558.5164837231737
 20
406.4595775965555
 30
0.0
 40
3.0
 41
0.0
 71
     5
 72
     1
  1
\A1;{\C5;'R' = 13.0}
 73
     1
 44
1.0
  0
POINT
  5
858C
330
8408
100
AcDbEntity
  8
DEFPOINTS
 62
     0
100
AcDbPoint
 10
577.6197400044813
 20
407.3297500539505
 30
0.0
  0
POINT
  5
858D
330
8408
100
AcDbEntity
  8
DEFPOINTS
 62
     0
100
AcDbPoint
 10
590.48337657542
 20
409.2077421121938
 30
0.0
  0
ENDBLK
  5
8410
330
8408
100
AcDbEntity
  8
0
 62
     0
100
AcDbBlockEnd
  0
ENDSEC
  0
SECTION
  2
ENTITIES
  0
ACAD_PROXY_ENTITY
  5
6FE3
330
17
100
AcDbEntity
  8
TEXT
100
AcDbProxyEntity
 90
      498
 91
      505
 95
   589845
 70
     0
 92
        8
310
0800000000000000
 93
     1035
310
8A10DE4DA5DB889400F0467D0C67A56900C8DD91A59589CCBF2843BAA8038CD2102A2843BAA8038CD21020000000000000000000000000000000041E64640081209205A7126080F907EF7D5F09FD76BB57FB9FFFFFFFFFFBE7EF7D5F09FD76BB57E000000000001C07FB1FFFFFFFFFFBF7E585C7126080F907E00000000000
310
1C17E8
340
0
360
0
 94
        0
  0
LINE
  5
7634
330
17
100
AcDbEntity
  8
M01
100
AcDbLine
 10
645.4833765754188
 20
397.2077421121927
 30
0.0
 11
584.7833035754189
 21
397.2077421121928
 31
0.0
  0
LINE
  5
7636
330
17
100
AcDbEntity
  8
M01
100
AcDbLine
 10
645.4833765754188
 20
421.2077421121927
 30
0.0
 11
584.7833035754189
 21
421.2077421121929
 31
0.0
  0
LINE
  5
763B
330
17
100
AcDbEntity
  8
M01
100
AcDbLine
 10
584.7833035754189
 20
421.2077421121927
 30
0.0
 11
584.7833035754189
 21
397.2077421121927
 31
0.0
  0
LINE
  5
763C
330
17
100
AcDbEntity
  8
M01
100
AcDbLine
 10
583.4833765754189
 20
420.5705241121927
 30
0.0
 11
583.4833765754189
 21
397.8449381121927
 31
0.0
  0
LINE
  5
7645
330
17
100
AcDbEntity
  8
M01
100
AcDbLine
 10
584.7833035754189
 20
397.8449381121927
 30
0.0
 11
583.4833765754189
 21
397.8449381121927
 31
0.0
  0
LINE
  5
7664
330
17
100
AcDbEntity
  8
M01
100
AcDbLine
 10
584.7833035754189
 20
420.5705241121927
 30
0.0
 11
583.4833765754189
 21
420.5705241121927
 31
0.0
  0
LINE
  5
7665
330
17
100
AcDbEntity
  8
M01
100
AcDbLine
 10
645.4833765754188
 20
409.2077421121927
 30
0.0
 11
645.4833765754188
 21
392.7077421121927
 31
0.0
  0
LINE
  5
7666
330
17
100
AcDbEntity
  8
M01
100
AcDbLine
 10
647.9833765754189
 20
392.2077421121926
 30
0.0
 11
647.9833765754189
 21
409.2077421121927
 31
0.0
  0
LINE
  5
7667
330
17
100
AcDbEntity
  8
M01
100
AcDbLine
 10
653.4833765754188
 20
392.7077421121927
 30
0.0
 11
653.4833765754188
 21
409.2077421121927
 31
0.0
  0
LINE
  5
7668
330
17
100
AcDbEntity
  8
M01
100
AcDbLine
 10
655.4833765754189
 20
425.2077421121927
 30
0.0
 11
655.4833765754189
 21
393.2077421121927
 31
0.0
  0
LINE
  5
7669
330
17
100
AcDbEntity
  8
M01
100
AcDbLine
 10
654.9833765754189
 20
392.7077421121927
 30
0.0
 11
654.9833765754189
 21
425.7077421121927
 31
0.0
  0
LINE
  5
766A
330
17
100
AcDbEntity
  8
M01
100
AcDbLine
 10
645.9833765754189
 20
392.2077421121926
 30
0.0
 11
645.9833765754189
 21
426.2077421121927
 31
0.0
  0
LINE
  5
766B
330
17
100
AcDbEntity
  8
M01
100
AcDbLine
 10
652.3135045754189
 20
394.7077421121927
 30
0.0
 11
652.3135045754189
 21
423.7077421121926
 31
0.0
  0
LINE
  5
766D
330
17
100
AcDbEntity
  8
M01
100
AcDbLine
 10
647.9833765754189
 20
392.2077421121926
 30
0.0
 11
645.9833765754189
 21
392.2077421121926
 31
0.0
  0
LINE
  5
7674
330
17
100
AcDbEntity
  8
M01
100
AcDbLine
 10
645.4833765754188
 20
392.7077421121927
 30
0.0
 11
645.9833765754189
 21
392.2077421121926
 31
0.0
  0
LINE
  5
7684
330
17
100
AcDbEntity
  8
M01
100
AcDbLine
 10
647.9833765754189
 20
392.2077421121926
 30
0.0
 11
652.3135045754189
 21
394.7077458431207
 31
0.0
  0
LINE
  5
7686
330
17
100
AcDbEntity
  8
M01
100
AcDbLine
 10
654.9833765754189
 20
392.7077421121927
 30
0.0
 11
653.4833765754188
 21
392.7077421121927
 31
0.0
  0
LINE
  5
7687
330
17
100
AcDbEntity
  8
M01
100
AcDbLine
 10
655.4833765754189
 20
393.2077421121927
 30
0.0
 11
654.9833765754189
 21
392.7077421121927
 31
0.0
  0
LINE
  5
7688
330
17
100
AcDbEntity
  8
M01
100
AcDbLine
 10
653.4833765754188
 20
394.7077421121927
 30
0.0
 11
652.3135045754189
 21
394.7077421121927
 31
0.0
  0
LINE
  5
768A
330
17
100
AcDbEntity
  8
M01
100
AcDbLine
 10
647.9833765754189
 20
426.2077421121927
 30
0.0
 11
645.9833765754189
 21
426.2077421121927
 31
0.0
  0
LINE
  5
768D
330
17
100
AcDbEntity
  8
M01
100
AcDbLine
 10
645.4833765754188
 20
425.7077421121927
 30
0.0
 11
645.4833765754188
 21
409.2077421121927
 31
0.0
  0
LINE
  5
7691
330
17
100
AcDbEntity
  8
M01
100
AcDbLine
 10
645.4833765754188
 20
425.7077421121927
 30
0.0
 11
645.9833765754189
 21
426.2077421121927
 31
0.0
  0
LINE
  5
7693
330
17
100
AcDbEntity
  8
M01
100
AcDbLine
 10
647.9833765754189
 20
426.2077421121927
 30
0.0
 11
652.3135045754189
 21
423.7077421121926
 31
0.0
  0
LINE
  5
7694
330
17
100
AcDbEntity
  8
M01
100
AcDbLine
 10
647.9833765754189
 20
426.2077421121927
 30
0.0
 11
647.9833765754189
 21
409.2077421121927
 31
0.0
  0
LINE
  5
7695
330
17
100
AcDbEntity
  8
M01
100
AcDbLine
 10
653.4833765754188
 20
425.7077421121927
 30
0.0
 11
653.4833765754188
 21
409.2077421121927
 31
0.0
  0
LINE
  5
7696
330
17
100
AcDbEntity
  8
M01
100
AcDbLine
 10
653.4833765754188
 20
423.7077421121926
 30
0.0
 11
652.3135045754189
 21
423.7077421121926
 31
0.0
  0
LINE
  5
7699
330
17
100
AcDbEntity
  8
M01
100
AcDbLine
 10
654.9833765754189
 20
425.7077421121927
 30
0.0
 11
653.4833765754188
 21
425.7077421121927
 31
0.0
  0
LINE
  5
769A
330
17
100
AcDbEntity
  8
M01
100
AcDbLine
 10
654.9833765754189
 20
425.7077421121927
 30
0.0
 11
655.4833765754189
 21
425.2077421121927
 31
0.0
  0
LINE
  5
769B
330
17
100
AcDbEntity
  8
CENTRE
 48
0.7
100
AcDbLine
 10
568.3156328939749
 20
409.2077421121926
 30
0.0
 11
673.8003110954586
 21
409.2077421121927
 31
0.0
  0
LINE
  5
769D
330
17
100
AcDbEntity
  8
M04
100
AcDbLine
 10
643.4833765754188
 20
549.2077421121925
 30
0.0
 11
643.483376575419
 21
421.2077421121926
 31
0.0
  0
LINE
  5
769E
330
17
100
AcDbEntity
  8
M01
100
AcDbLine
 10
644.9833765754188
 20
421.2077421121927
 30
0.0
 11
644.983376575419
 21
448.3944672276916
 31
0.0
  0
LINE
  5
769F
330
17
100
AcDbEntity
  8
M01
100
AcDbLine
 10
647.4833765754189
 20
426.2077421121927
 30
0.0
 11
647.4833765754189
 21
448.3944672276916
 31
0.0
  0
ARC
  5
76A1
330
17
100
AcDbEntity
  8
M03
 62
     6
 48
0.7
100
AcDbCircle
 10
668.4833765754189
 20
409.2077421121927
 30
0.0
 40
15.0
100
AcDbArc
 50
150.0735651333857
 51
209.9264348666141
  0
LINE
  5
76A3
330
17
100
AcDbEntity
  8
M03
 62
     6
 48
0.7
100
AcDbLine
 10
580.7733765754188
 20
411.7077421121927
 30
0.0
 11
653.6931771176698
 21
411.7077421121927
 31
0.0
  0
LINE
  5
76A5
330
17
100
AcDbEntity
  8
M03
 62
     6
 48
0.7
100
AcDbLine
 10
580.7733765754188
 20
406.7077421121926
 30
0.0
 11
653.6931771176698
 21
406.7077421121927
 31
0.0
  0
LINE
  5
76AA
330
17
100
AcDbEntity
  8
M01
100
AcDbLine
 10
650.4833765754189
 20
491.2077421121927
 30
0.0
 11
647.983376575419
 21
491.2077421121927
 31
0.0
  0
LINE
  5
76AB
330
17
100
AcDbEntity
  8
M04
100
AcDbLine
 10
582.4833765754188
 20
421.2077421121927
 30
0.0
 11
582.4833765754192
 21
414.2077421121928
 31
0.0
  0
LINE
  5
76AC
330
17
100
AcDbEntity
  8
M04
100
AcDbLine
 10
584.4833765754189
 20
423.2077421121926
 30
0.0
 11
643.483376575419
 21
423.2077421121928
 31
0.0
  0
LINE
  5
76AD
330
17
100
AcDbEntity
  8
M04
100
AcDbLine
 10
584.483376575419
 20
395.2077421121927
 30
0.0
 11
645.483376575419
 21
395.2077421121927
 31
0.0
  0
ARC
  5
76AE
330
17
100
AcDbEntity
  8
M04
100
AcDbCircle
 10
584.4833765754189
 20
421.2077421121927
 30
0.0
 40
2.0
100
AcDbArc
 50
90.0
 51
180.0
  0
ARC
  5
76AF
330
17
100
AcDbEntity
  8
M04
100
AcDbCircle
 10
584.483376575419
 20
397.2077421121927
 30
0.0
 40
2.0
100
AcDbArc
 50
180.0
 51
270.0
  0
LINE
  5
76B0
330
17
100
AcDbEntity
  8
M04
100
AcDbLine
 10
578.4833765754187
 20
430.1928457658632
 30
0.0
 11
578.483376575419
 21
388.3650203122227
 31
0.0
  0
LINE
  5
76B1
330
17
100
AcDbEntity
  8
M04
100
AcDbLine
 10
582.4833765754188
 20
404.2077421121927
 30
0.0
 11
582.483376575419
 21
397.2077421121927
 31
0.0
  0
LINE
  5
76B5
330
17
100
AcDbEntity
  8
M04
100
AcDbLine
 10
655.4833765754189
 20
393.2077421121927
 30
0.0
 11
655.4833765754189
 21
378.9661072684996
 31
0.0
  0
LINE
  5
76B7
330
17
100
AcDbEntity
  8
M04
100
AcDbLine
 10
645.4833765754188
 20
392.7077421121927
 30
0.0
 11
645.4833765754187
 21
392.2077421121926
 31
0.0
  0
LINE
  5
76B8
330
17
100
AcDbEntity
  8
M04
100
AcDbLine
 10
645.9833765754189
 20
392.2077421121926
 30
0.0
 11
645.4833765754187
 21
392.2077421121926
 31
0.0
  0
LINE
  5
76B9
330
17
100
AcDbEntity
  8
M04
100
AcDbLine
 10
655.4833765754189
 20
425.2077421121927
 30
0.0
 11
655.4833765754189
 21
549.2077421121925
 31
0.0
  0
LINE
  5
76BA
330
17
100
AcDbEntity
  8
M04
100
AcDbLine
 10
658.9833765754189
 20
423.2077421121927
 30
0.0
 11
662.4833765754189
 21
423.2077421121927
 31
0.0
  0
LINE
  5
76BB
330
17
100
AcDbEntity
  8
M04
100
AcDbLine
 10
658.9833765754189
 20
395.2077421121927
 30
0.0
 11
662.4833765754189
 21
395.2077421121927
 31
0.0
  0
LINE
  5
76BC
330
17
100
AcDbEntity
  8
M04
100
AcDbLine
 10
662.4833765754189
 20
423.2077421121927
 30
0.0
 11
662.4833765754189
 21
395.2077421121927
 31
0.0
  0
LINE
  5
76BD
330
17
100
AcDbEntity
  8
M04
100
AcDbLine
 10
662.4833765754189
 20
423.2077421121927
 30
0.0
 11
670.483376575419
 21
427.8265442657097
 31
0.0
  0
LINE
  5
76BF
330
17
100
AcDbEntity
  8
M04
100
AcDbLine
 10
662.4833765754189
 20
395.2077421121927
 30
0.0
 11
670.483376575419
 21
390.5889399586758
 31
0.0
  0
LINE
  5
76C5
330
17
100
AcDbEntity
  8
M01
100
AcDbLine
 10
653.2333765754191
 20
516.2077421121929
 30
0.0
 11
645.2333765754189
 21
516.2077421121925
 31
0.0
  0
LINE
  5
76C7
330
17
100
AcDbEntity
  8
M01
100
AcDbLine
 10
653.2333765754191
 20
509.2077421121929
 30
0.0
 11
653.2333765754191
 21
516.2077421121929
 31
0.0
  0
LINE
  5
76C8
330
17
100
AcDbEntity
  8
M01
100
AcDbLine
 10
650.4833765754189
 20
491.2077421121927
 30
0.0
 11
652.233376575419
 21
501.1324852965247
 31
0.0
  0
LINE
  5
76C9
330
17
100
AcDbEntity
  8
M01
100
AcDbLine
 10
645.2333765754189
 20
509.2077421121926
 30
0.0
 11
645.2333765754189
 21
516.2077421121925
 31
0.0
  0
LINE
  5
76CA
330
17
100
AcDbEntity
  8
M01
100
AcDbLine
 10
647.9833765754191
 20
491.2077421121927
 30
0.0
 11
646.2333765754187
 21
501.1324852965254
 31
0.0
  0
LINE
  5
76CB
330
17
100
AcDbEntity
  8
M01
100
AcDbLine
 10
646.2333765754187
 20
501.1324852965254
 30
0.0
 11
646.2333765754188
 21
509.2077421121927
 31
0.0
  0
LINE
  5
76CC
330
17
100
AcDbEntity
  8
M01
100
AcDbLine
 10
652.233376575419
 20
501.1324852965247
 30
0.0
 11
652.2333765754189
 21
509.2077421121928
 31
0.0
  0
LINE
  5
76CD
330
17
100
AcDbEntity
  8
M01
100
AcDbLine
 10
646.2333765754187
 20
501.1324852965254
 30
0.0
 11
652.233376575419
 21
501.1324852965247
 31
0.0
  0
LINE
  5
76CE
330
17
100
AcDbEntity
  8
M01
100
AcDbLine
 10
653.2333765754191
 20
509.2077421121929
 30
0.0
 11
645.2333765754189
 21
509.2077421121926
 31
0.0
  0
LINE
  5
76CF
330
17
100
AcDbEntity
  8
M01
100
AcDbLine
 10
647.983376575419
 20
468.9078592275812
 30
0.0
 11
647.983376575419
 21
491.2077421121927
 31
0.0
  0
LINE
  5
76D0
330
17
100
AcDbEntity
  8
M01
100
AcDbLine
 10
650.4833765754189
 20
468.9078592275812
 30
0.0
 11
650.4833765754189
 21
491.2077421121927
 31
0.0
  0
LINE
  5
76D1
330
17
100
AcDbEntity
  8
CENTRE
 48
0.7
100
AcDbLine
 10
649.2333765754189
 20
484.6990083503516
 30
0.0
 11
649.233376575419
 21
547.0603851609264
 31
0.0
  0
ARC
  5
76D5
330
17
100
AcDbEntity
  8
M01
100
AcDbCircle
 10
666.2333765754191
 20
448.3944672276916
 30
0.0
 40
21.25
100
AcDbArc
 50
170.0
 51
180.0
  0
LINE
  5
76D6
330
17
100
AcDbEntity
  8
M01
100
AcDbLine
 10
645.3062118239097
 20
452.0844910031138
 30
0.0
 11
647.6985219443978
 21
465.6519558963264
 31
0.0
  0
ARC
  5
76D7
330
17
100
AcDbEntity
  8
M01
100
AcDbCircle
 10
629.2333765754189
 20
468.9078592275812
 30
0.0
 40
18.75
100
AcDbArc
 50
350.0000000000003
 51
0.0
  0
ARC
  5
76D8
330
17
100
AcDbEntity
  8
M01
100
AcDbCircle
 10
629.2333765754189
 20
468.9078592275812
 30
0.0
 40
21.25
100
AcDbArc
 50
350.0000000000003
 51
0.0
  0
LINE
  5
76D9
330
17
100
AcDbEntity
  8
M01
100
AcDbLine
 10
647.7682312064403
 20
451.6503705589465
 30
0.0
 11
650.1605413269284
 21
465.2178354521591
 31
0.0
  0
ARC
  5
76DA
330
17
100
AcDbEntity
  8
M01
100
AcDbCircle
 10
666.2333765754191
 20
448.3944672276916
 30
0.0
 40
18.75
100
AcDbArc
 50
170.0
 51
180.0
  0
LINE
  5
76DB
330
17
100
AcDbEntity
  8
M01
100
AcDbLine
 10
646.2333765754188
 20
516.2077421121925
 30
0.0
 11
646.2333765754188
 21
542.4235718033469
 31
0.0
  0
LINE
  5
76DD
330
17
100
AcDbEntity
  8
M01
100
AcDbLine
 10
652.2333765754187
 20
516.2077421121928
 30
0.0
 11
652.2333765754187
 21
542.4235718033469
 31
0.0
  0
HATCH
  5
76E6
330
17
100
AcDbEntity
  8
M04
100
AcDbHatch
 10
0.0
 20
0.0
 30
0.0
210
0.0
220
0.0
230
1.0
  2
_U
 70
     0
 71
     0
 91
        2
 92
        7
 72
     0
 73
     1
 93
        4
 10
649.233376575419
 20
542.4235718033469
 10
646.2333765754189
 20
542.423571803347
 10
646.2333765754189
 20
516.2077421121925
 10
649.2333765754189
 20
516.2077421121927
 97
        0
 92
        7
 72
     0
 73
     1
 93
        4
 10
652.2333765754187
 20
542.4235718033469
 10
649.2333765754189
 20
542.4235718033469
 10
649.233376575419
 20
516.2077421121925
 10
652.2333765754187
 20
516.2077421121928
 97
        0
 75
     0
 76
     0
 52
45.0
 41
1.0
 77
     1
 78
     2
 53
45.0
 43
-132.8137618081477
 44
75.32883416800586
 45
-0.7071067811865475
 46
0.7071067811865476
 79
     0
 53
135.0
 43
-132.8137618081477
 44
75.32883416800586
 45
-0.7071067811865476
 46
-0.7071067811865475
 79
     0
 47
0.0843056911458626
 98
        2
 10
648.4067951388214
 20
526.574101817677
 10
651.0212994969029
 20
527.2485468012953
  0
TEXT
  5
76F1
330
17
100
AcDbEntity
  8
TEXT
 62
     1
100
AcDbText
 10
587.3598941640189
 20
415.3734497655206
 30
0.0
 40
2.0
  1
DS020003
 41
0.9
100
AcDbText
  0
DIMENSION
  5
779D
330
17
100
AcDbEntity
  8
DIMS
100
AcDbDimension
  2
*D0
 10
683.9399971282817
 20
426.2077421121927
 30
0.0
 11
683.9399971282817
 21
404.4690727446861
 31
0.0
 70
   160
  1
{\C5;%%c<>}
 71
     5
 42
34.0
  3
DIM1
100
AcDbAlignedDimension
 13
647.9833765754189
 23
392.2077421121926
 33
0.0
 14
647.9833765754189
 24
426.2077421121927
 34
0.0
 50
90.0
100
AcDbRotatedDimension
1001
ACAD
1000
DSTYLE
1002
{
1070
   144
1040
1.0
1002
}
  0
TEXT
  5
77A9
330
17
100
AcDbEntity
  8
DIMS
 62
     5
100
AcDbText
 10
678.8498778265418
 20
413.720203919692
 30
0.0
 40
2.0
  1
+0.025
 50
90.0
100
AcDbText
  0
TEXT
  5
77AA
330
17
100
AcDbEntity
  8
DIMS
 62
     5
100
AcDbText
 10
681.9347981983626
 20
413.720203919692
 30
0.0
 40
2.0
  1
-0
 50
90.0
100
AcDbText
  0
LINE
  5
77CE
330
17
100
AcDbEntity
  8
CENTRE
100
AcDbLine
 10
515.7387716623138
 20
409.2077421121927
 30
0.0
 11
466.1058629161024
 21
409.2077421121927
 31
0.0
  0
LINE
  5
77F0
330
17
100
AcDbEntity
  8
0
  6
ByBlock
 62
     4
100
AcDbLine
 10
565.5196236773771
 20
440.4682073318602
 30
0.0
 11
562.5196236773772
 21
440.4682073318602
 31
0.0
  0
SOLID
  5
77F2
330
17
100
AcDbEntity
  8
0
  6
ByBlock
 62
     4
100
AcDbTrace
 10
577.3171981563267
 20
413.3250868748818
 30
0.0
 11
576.3934779634594
 21
412.9420189888758
 31
0.0
 12
578.0045417179112
 22
410.3623923532768
 32
0.0
 13
578.0045417179112
 23
410.3623923532768
 33
0.0
  0
MTEXT
  5
77F3
330
17
100
AcDbEntity
  8
0
  6
ByBlock
 62
     5
100
AcDbMText
 10
545.5386705173482
 20
440.46820733186
 30
0.0
 40
3.0
 41
0.0
 71
     5
 72
     1
  1
INSERT POINT
 73
     1
 44
1.0
  0
POINT
  5
77F4
330
17
100
AcDbEntity
  8
DEFPOINTS
  6
ByBlock
 62
     0
100
AcDbPoint
 10
578.0045417179112
 20
410.3623923532768
 30
0.0
  0
CIRCLE
  5
77FC
330
17
100
AcDbEntity
  8
M01
100
AcDbCircle
 10
490.9223172892081
 20
409.2077421121927
 30
0.0
 40
11.36278199999998
  0
CIRCLE
  5
77FD
330
17
100
AcDbEntity
  8
M01
100
AcDbCircle
 10
490.9223172892081
 20
409.2077421121927
 30
0.0
 40
12.0
  0
CIRCLE
  5
77FE
330
17
100
AcDbEntity
  8
M04
100
AcDbCircle
 10
490.9223172892081
 20
409.2077421121927
 30
0.0
 40
14.0
  0
ARC
  5
77FF
330
17
100
AcDbEntity
  8
M01
100
AcDbCircle
 10
490.9223172892081
 20
409.2077421121927
 30
0.0
 40
16.99999999999994
100
AcDbArc
 50
279.2742999592259
 51
260.7257000407725
  0
LINE
  5
7820
330
17
100
AcDbEntity
  8
M04
100
AcDbLine
 10
498.9223172892081
 20
549.2077421121926
 30
0.0
 11
498.9223172892081
 21
424.2077421121926
 31
0.0
  0
LINE
  5
7821
330
17
100
AcDbEntity
  8
M04
100
AcDbLine
 10
482.922317289208
 20
549.2077421121926
 30
0.0
 11
482.9223172892081
 21
424.2077421121926
 31
0.0
  0
LINE
  5
7841
330
17
100
AcDbEntity
  8
M01
100
AcDbLine
 10
488.672317289208
 20
491.2077421121927
 30
0.0
 11
486.1723172892081
 21
491.2077421121927
 31
0.0
  0
LINE
  5
7842
330
17
100
AcDbEntity
  8
M01
100
AcDbLine
 10
491.4223172892082
 20
516.2077421121929
 30
0.0
 11
483.4223172892079
 21
516.2077421121925
 31
0.0
  0
LINE
  5
7843
330
17
100
AcDbEntity
  8
M01
100
AcDbLine
 10
491.4223172892082
 20
509.2077421121929
 30
0.0
 11
491.4223172892082
 21
516.2077421121929
 31
0.0
  0
LINE
  5
7844
330
17
100
AcDbEntity
  8
M01
100
AcDbLine
 10
488.672317289208
 20
491.2077421121927
 30
0.0
 11
490.4223172892081
 21
501.1324852965247
 31
0.0
  0
LINE
  5
7845
330
17
100
AcDbEntity
  8
M01
100
AcDbLine
 10
483.4223172892079
 20
509.2077421121926
 30
0.0
 11
483.4223172892079
 21
516.2077421121925
 31
0.0
  0
LINE
  5
7846
330
17
100
AcDbEntity
  8
M01
100
AcDbLine
 10
486.1723172892082
 20
491.2077421121927
 30
0.0
 11
484.4223172892077
 21
501.1324852965254
 31
0.0
  0
LINE
  5
7847
330
17
100
AcDbEntity
  8
M01
100
AcDbLine
 10
484.4223172892077
 20
501.1324852965254
 30
0.0
 11
484.4223172892078
 21
509.2077421121927
 31
0.0
  0
LINE
  5
7848
330
17
100
AcDbEntity
  8
M01
100
AcDbLine
 10
490.4223172892081
 20
501.1324852965247
 30
0.0
 11
490.422317289208
 21
509.2077421121928
 31
0.0
  0
LINE
  5
7849
330
17
100
AcDbEntity
  8
M01
100
AcDbLine
 10
484.4223172892077
 20
501.1324852965254
 30
0.0
 11
490.4223172892081
 21
501.1324852965247
 31
0.0
  0
LINE
  5
784A
330
17
100
AcDbEntity
  8
M01
100
AcDbLine
 10
491.4223172892082
 20
509.2077421121929
 30
0.0
 11
483.4223172892079
 21
509.2077421121926
 31
0.0
  0
LINE
  5
784B
330
17
100
AcDbEntity
  8
M01
100
AcDbLine
 10
486.172317289208
 20
425.5306554550981
 30
0.0
 11
486.1723172892081
 21
491.2077421121927
 31
0.0
  0
LINE
  5
784C
330
17
100
AcDbEntity
  8
M01
100
AcDbLine
 10
488.6723172892081
 20
426.0581872101715
 30
0.0
 11
488.672317289208
 21
491.2077421121927
 31
0.0
  0
LINE
  5
784D
330
17
100
AcDbEntity
  8
CENTRE
 48
0.7
100
AcDbLine
 10
487.4223172892079
 20
484.6069879482461
 30
0.0
 11
487.4223172892081
 21
547.0603851609264
 31
0.0
  0
LINE
  5
784E
330
17
100
AcDbEntity
  8
M01
100
AcDbLine
 10
484.4223172892078
 20
516.2077421121925
 30
0.0
 11
484.4223172892078
 21
542.4235718033469
 31
0.0
  0
LINE
  5
784F
330
17
100
AcDbEntity
  8
M01
100
AcDbLine
 10
490.4223172892079
 20
516.2077421121928
 30
0.0
 11
490.4223172892079
 21
542.4235718033469
 31
0.0
  0
HATCH
  5
7850
330
17
100
AcDbEntity
  8
M04
100
AcDbHatch
 10
0.0
 20
0.0
 30
0.0
210
0.0
220
0.0
230
1.0
  2
_U
 70
     0
 71
     0
 91
        2
 92
        7
 72
     0
 73
     1
 93
        4
 10
487.4223172892081
 20
542.4235718033469
 10
484.422317289208
 20
542.423571803347
 10
484.422317289208
 20
516.2077421121925
 10
487.4223172892079
 20
516.2077421121927
 97
        0
 92
        7
 72
     0
 73
     1
 93
        4
 10
490.4223172892079
 20
542.4235718033469
 10
487.4223172892079
 20
542.4235718033469
 10
487.4223172892081
 20
516.2077421121925
 10
490.4223172892079
 20
516.2077421121928
 97
        0
 75
     0
 76
     0
 52
45.0
 41
1.0
 77
     1
 78
     2
 53
45.0
 43
-294.6248210943586
 44
75.32883416800586
 45
-0.7071067811865475
 46
0.7071067811865476
 79
     0
 53
135.0
 43
-294.6248210943586
 44
75.32883416800586
 45
-0.7071067811865476
 46
-0.7071067811865475
 79
     0
 47
0.0843056911458626
 98
        2
 10
486.5957358526106
 20
526.574101817677
 10
489.210240210692
 20
527.2485468012953
  0
LINE
  5
7851
330
17
100
AcDbEntity
  8
CENTRE
 48
0.7
100
AcDbLine
 10
490.9223172892079
 20
383.2077421121927
 30
0.0
 11
490.9223172892079
 21
439.2077421121928
 31
0.0
  0
LINE
  5
7854
330
17
100
AcDbEntity
  8
M01
 48
0.7
100
AcDbLine
 10
491.9223172892078
 20
426.1783048606698
 30
0.0
 11
491.9223172892078
 21
437.1062065647089
 31
0.0
  0
LINE
  5
7855
330
17
100
AcDbEntity
  8
M01
 48
0.7
100
AcDbLine
 10
489.9223172892079
 20
426.1783048606698
 30
0.0
 11
489.9223172892079
 21
437.1062065647089
 31
0.0
  0
LINE
  5
7858
330
17
100
AcDbEntity
  8
M01
 48
0.7
100
AcDbLine
 10
496.3989047114204
 20
465.9937419672691
 30
0.0
 11
496.3989047114203
 21
484.2077421121927
 31
0.0
  0
LINE
  5
7859
330
17
100
AcDbEntity
  8
M01
 48
0.7
100
AcDbLine
 10
494.3989047114206
 20
465.9937419672695
 30
0.0
 11
494.3989047114205
 21
484.2077421121928
 31
0.0
  0
LINE
  5
785A
330
17
100
AcDbEntity
  8
CENTRE
100
AcDbLine
 10
495.3989047114204
 20
481.5465999379028
 30
0.0
 11
495.3989047114204
 21
542.7586530885361
 31
0.0
  0
ARC
  5
785D
330
17
100
AcDbEntity
  8
M01
100
AcDbCircle
 10
510.9223172892079
 20
437.1062065647089
 30
0.0
 40
21.0
100
AcDbArc
 50
169.9999999999999
 51
180.0
  0
LINE
  5
785E
330
17
100
AcDbEntity
  8
M01
100
AcDbLine
 10
494.1102520186525
 20
462.6944265915979
 30
0.0
 11
490.2413544759515
 21
440.7528182957144
 31
0.0
  0
ARC
  5
7860
330
17
100
AcDbEntity
  8
M01
100
AcDbCircle
 10
510.9223172892079
 20
437.1062065647089
 30
0.0
 40
19.0
100
AcDbArc
 50
169.9999999999999
 51
180.0
  0
LINE
  5
7861
330
17
100
AcDbEntity
  8
M01
100
AcDbLine
 10
496.0798675246768
 20
462.3471302362633
 30
0.0
 11
492.2109699819759
 21
440.4055219403806
 31
0.0
  0
LINE
  5
7863
330
17
100
AcDbEntity
  8
M01
100
AcDbLine
 10
497.1489047114205
 20
484.2077421121927
 30
0.0
 11
493.6489047114206
 21
484.2077421121929
 31
0.0
  0
LINE
  5
7864
330
17
100
AcDbEntity
  8
M01
100
AcDbLine
 10
497.6489047114204
 20
514.2077421121928
 30
0.0
 11
493.1489047114207
 21
514.2077421121928
 31
0.0
  0
LINE
  5
7865
330
17
100
AcDbEntity
  8
M01
100
AcDbLine
 10
497.6489047114205
 20
489.2077421121927
 30
0.0
 11
493.1489047114206
 21
489.2077421121928
 31
0.0
  0
LINE
  5
7866
330
17
100
AcDbEntity
  8
M01
 48
0.7
100
AcDbLine
 10
493.6489047114206
 20
484.2077421121929
 30
0.0
 11
493.6489047114206
 21
489.2077421121928
 31
0.0
  0
LINE
  5
7867
330
17
100
AcDbEntity
  8
M01
 48
0.7
100
AcDbLine
 10
497.1489047114205
 20
484.2077421121927
 30
0.0
 11
497.1489047114205
 21
489.2077421121927
 31
0.0
  0
LINE
  5
7868
330
17
100
AcDbEntity
  8
M01
100
AcDbLine
 10
497.6489047114204
 20
509.2077421121927
 30
0.0
 11
493.1489047114206
 21
509.2077421121929
 31
0.0
  0
LINE
  5
7869
330
17
100
AcDbEntity
  8
M01
 48
0.7
100
AcDbLine
 10
497.6489047114205
 20
489.2077421121927
 30
0.0
 11
497.6489047114204
 21
514.2077421121928
 31
0.0
  0
LINE
  5
786A
330
17
100
AcDbEntity
  8
M01
 48
0.7
100
AcDbLine
 10
493.1489047114206
 20
489.2077421121928
 30
0.0
 11
493.1489047114207
 21
514.2077421121928
 31
0.0
  0
LINE
  5
786B
330
17
100
AcDbEntity
  8
M01
100
AcDbLine
 10
493.6489047114206
 20
514.2077421121927
 30
0.0
 11
493.6489047114206
 21
538.717277700464
 31
0.0
  0
LINE
  5
786D
330
17
100
AcDbEntity
  8
M01
100
AcDbLine
 10
497.1489047114205
 20
514.2077421121928
 30
0.0
 11
497.1489047114205
 21
538.717277700464
 31
0.0
  0
HATCH
  5
7876
330
17
100
AcDbEntity
  8
M04
100
AcDbHatch
 10
0.0
 20
0.0
 30
0.0
210
0.0
220
0.0
230
1.0
  2
_U
 70
     0
 71
     0
 91
        2
 92
        7
 72
     0
 73
     1
 93
        4
 10
495.3989047114204
 20
538.717277700464
 10
493.6489047114206
 20
538.717277700464
 10
493.6489047114206
 20
514.2077421121928
 10
495.3989047114204
 20
514.2077421121928
 97
        0
 92
        7
 72
     0
 73
     1
 93
        4
 10
497.1489047114205
 20
538.717277700464
 10
495.3989047114204
 20
538.717277700464
 10
495.3989047114204
 20
514.2077421121928
 10
497.1489047114205
 20
514.2077421121928
 97
        0
 75
     0
 76
     0
 52
45.0
 41
0.75
 77
     1
 78
     2
 53
45.0
 43
579.9599639976314
 44
409.2077421121927
 45
-0.5303300858899106
 46
0.5303300858899107
 79
     0
 53
135.0
 43
579.9599639976314
 44
409.2077421121927
 45
-0.5303300858899107
 46
-0.5303300858899106
 79
     0
 47
0.0985701327119849
 98
        2
 10
494.4684416393269
 20
517.7218388240937
 10
496.1447912069767
 20
518.2146895953277
  0
ARC
  5
7877
330
17
100
AcDbEntity
  8
M01
 48
0.7
100
AcDbCircle
 10
475.3989047114204
 20
465.9937419672689
 30
0.0
 40
21.0
100
AcDbArc
 50
349.9999999999998
 51
0.0000000000004834
  0
ARC
  5
7878
330
17
100
AcDbEntity
  8
M01
 48
0.7
100
AcDbCircle
 10
475.3989047114205
 20
465.9937419672696
 30
0.0
 40
19.0
100
AcDbArc
 50
349.9999999999998
 51
359.9999999999997
  0
TEXT
  5
78CA
330
17
100
AcDbEntity
  8
TEXT
 62
     1
100
AcDbText
 10
588.3376687042179
 20
401.5270873395308
 30
0.0
 40
2.0
  1
TYPE 2
 41
0.9
100
AcDbText
  0
LINE
  5
78CB
330
17
100
AcDbEntity
  8
M01
 48
0.7
100
AcDbLine
 10
578.4833765754187
 20
414.2077421121927
 30
0.0
 11
583.4833765754189
 21
414.2077421121928
 31
0.0
  0
LINE
  5
78CD
330
17
100
AcDbEntity
  8
M01
 48
0.7
100
AcDbLine
 10
578.4833765754188
 20
404.2077421121927
 30
0.0
 11
583.4833765754189
 21
404.2077421121927
 31
0.0
  0
LINE
  5
78CE
330
17
100
AcDbEntity
  8
M04
100
AcDbLine
 10
582.4833765754191
 20
416.207742112193
 30
0.0
 11
580.4833765754189
 21
414.2077421121928
 31
0.0
  0
LINE
  5
78CF
330
17
100
AcDbEntity
  8
M04
100
AcDbLine
 10
582.4833765754191
 20
402.2077421121925
 30
0.0
 11
580.4833765754189
 21
404.2077421121927
 31
0.0
  0
LINE
  5
78D1
330
17
100
AcDbEntity
  8
M03
 62
     6
 48
0.7
100
AcDbLine
 10
577.5233765754189
 20
410.169916924686
 30
0.0
 11
578.3238868326357
 21
409.7077421121928
 31
0.0
  0
LINE
  5
78D2
330
17
100
AcDbEntity
  8
M03
 62
     6
 48
0.7
100
AcDbLine
 10
577.5233765754189
 20
408.2455672996998
 30
0.0
 11
578.3238868326357
 21
408.707742112193
 31
0.0
  0
LINE
  5
78D4
330
17
100
AcDbEntity
  8
M03
 62
     6
100
AcDbLine
 10
578.3238868326357
 20
408.707742112193
 30
0.0
 11
578.3238868326357
 21
409.7077421121928
 31
0.0
  0
DIMENSION
  5
78E5
330
17
100
AcDbEntity
  8
DIMS
100
AcDbDimension
  2
*D1
 10
580.4833765754189
 20
446.0539078986677
 30
0.0
 11
596.9119480039903
 21
449.0539078986677
 31
0.0
 70
    32
  1
{\C5;2.0 MIN.}
 71
     5
 42
2.000000000000113
  3
DIM1
100
AcDbAlignedDimension
 13
578.4833765754187
 23
430.1928457658632
 33
0.0
 14
580.4833765754189
 24
414.2077421121928
 34
0.0
100
AcDbRotatedDimension
1001
ACAD
1000
DSTYLE
1002
{
1070
   144
1040
1.0
1002
}
  0
DIMENSION
  5
78FF
330
17
100
AcDbEntity
  8
DIMS
100
AcDbDimension
  2
*D2
 10
555.4704151972031
 20
404.2077421121927
 30
0.0
 11
555.470415197203
 21
380.1885653162316
 31
0.0
 70
   160
  1
{\C5;<>}
 71
     5
 42
9.999999999999943
  3
DIM1
100
AcDbAlignedDimension
 13
578.4833765754188
 23
414.2077421121927
 33
0.0
 14
578.4833765754188
 24
404.2077421121927
 34
0.0
 50
90.0
100
AcDbRotatedDimension
1001
ACAD
1000
DSTYLE
1002
{
1070
   144
1040
1.0
1002
}
  0
TEXT
  5
790C
330
17
100
AcDbEntity
  8
DIMS
 62
     5
100
AcDbText
 10
550.3300221741321
 20
388.5546729067801
 30
0.0
 40
2.0
  1
+0.015
 50
90.0
100
AcDbText
  0
TEXT
  5
790D
330
17
100
AcDbEntity
  8
DIMS
 62
     5
100
AcDbText
 10
553.414942545953
 20
388.5546729067801
 30
0.0
 40
2.0
  1
-0
 50
90.0
100
AcDbText
  0
DIMENSION
  5
7927
330
17
100
AcDbEntity
  8
DIMS
100
AcDbDimension
  2
*D3
 10
645.4833765754187
 20
369.321609180589
 30
0.0
 11
611.9833765754188
 21
372.321609180589
 31
0.0
 70
    32
  1
{\C5;L1=<>}
 71
     5
 42
66.99999999999977
  3
DIM1
100
AcDbAlignedDimension
 13
578.483376575419
 23
388.3650203122227
 33
0.0
 14
645.4833765754187
 24
392.2077421121926
 34
0.0
100
AcDbRotatedDimension
1001
ACAD
1000
DSTYLE
1002
{
1070
   144
1040
1.0
1002
}
  0
DIMENSION
  5
7934
330
17
100
AcDbEntity
  8
DIMS
100
AcDbDimension
  2
*D4
 10
655.4833765754189
 20
349.321609180589
 30
0.0
 11
616.983376575419
 21
352.321609180589
 31
0.0
 70
    32
  1
{\C5;L=<>}
 71
     5
 42
76.99999999999988
  3
DIM1
100
AcDbAlignedDimension
 13
578.483376575419
 23
388.3650203122227
 33
0.0
 14
655.4833765754189
 24
378.9661072684996
 34
0.0
100
AcDbRotatedDimension
1001
ACAD
1000
DSTYLE
1002
{
1070
   144
1040
1.0
1002
}
  0
DIMENSION
  5
797A
330
17
100
AcDbEntity
  8
DIMS
100
AcDbDimension
  2
*D5
 10
582.4833765754191
 20
359.194865771649
 30
0.0
 11
618.9833765754189
 21
362.194865771649
 31
0.0
 70
    32
  1
{\C5;N=<>}
 71
     5
 42
72.99999999999977
  3
DIM1
100
AcDbAlignedDimension
 13
655.4833765754189
 23
378.9661072684996
 33
0.0
 14
582.4833765754191
 24
397.2077421121927
 34
0.0
100
AcDbRotatedDimension
1001
ACAD
1000
DSTYLE
1002
{
1070
   144
1040
1.0
1002
}
  0
LEADER
  5
79AC
330
17
100
AcDbEntity
  8
DIMS
 62
     4
100
AcDbLeader
  3
DIM1$7
 73
     0
 75
     1
 40
3.0
 41
27.28571428571427
 76
     3
 10
577.7167094703437
 20
406.7557610706284
 30
0.0
 10
561.4913955837066
 20
363.8977058509321
 30
0.0
 10
558.4913955837066
 20
363.8977058509321
 30
0.0
340
79AD
213
0.0
223
1.5
233
0.0
1001
ACAD
1000
DSTYLE
1002
{
1070
   144
1040
1.0
1002
}
  0
MTEXT
  5
79AD
102
{ACAD_REACTORS
330
79AC
102
}
330
17
100
AcDbEntity
  8
DIMS
 62
     5
100
AcDbMText
 10
556.9913955837066
 20
362.3977058509321
 30
0.0
 40
3.0
 41
0.0
 71
     9
 72
     5
  1
SEE NOTE 2
 73
     1
 44
1.0
  0
CIRCLE
  5
79B2
330
17
100
AcDbEntity
  8
M04
100
AcDbCircle
 10
490.9223172892081
 20
409.2077421121927
 30
0.0
 40
7.000000000000284
  0
CIRCLE
  5
79B5
330
17
100
AcDbEntity
  8
M01
100
AcDbCircle
 10
490.9223172892081
 20
409.2077421121927
 30
0.0
 40
0.962174812493231
  0
CIRCLE
  5
79B6
330
17
100
AcDbEntity
  8
M01
100
AcDbCircle
 10
490.9223172892081
 20
409.2077421121927
 30
0.0
 40
0.5
  0
CIRCLE
  5
79B7
330
17
100
AcDbEntity
  8
M01
100
AcDbCircle
 10
490.9223172892081
 20
409.2077421121927
 30
0.0
 40
5.0
  0
CIRCLE
  5
79BB
330
17
100
AcDbEntity
  8
M03
100
AcDbCircle
 10
490.9223172892081
 20
409.2077421121927
 30
0.0
 40
2.5
  0
MTEXT
  5
7FB3
330
17
100
AcDbEntity
  8
M01
 62
     0
100
AcDbMText
 10
527.9847096321659
 20
532.7834981169259
 30
0.0
 40
3.0
 41
82.66
 71
     1
 72
     5
  3
{\L\C1;POLYMER / TIP COMPATIBILITY\PNot all polymers will run on all tip styles - check in catalogue\Por on website under Technical Support->Bush Selection Guide\P\PSINGLE BUSH APPLICATIONS\PRefer to website under Systems\P->Precision D->Direct Feed 
  1
Applications for recommended options for most polymers.\PAlternatively go to :\P\H0.75x;www.fastheatuk.com/directfeedparts.html}
 73
     1
 44
1.0
  0
LINE
  5
7FB4
330
17
100
AcDbEntity
  8
CENTRE
100
AcDbLine
 10
498.9223172892079
 20
391.2077421121927
 30
0.0
 11
482.9223172892079
 21
391.2077421121927
 31
0.0
  0
CIRCLE
  5
7FB5
330
17
100
AcDbEntity
  8
M01
 62
     1
100
AcDbCircle
 10
490.9223172892079
 20
391.2077421121927
 30
0.0
 40
3.0
  0
HATCH
  5
7FB6
330
17
100
AcDbEntity
  8
M01
 62
     1
100
AcDbHatch
 10
0.0
 20
0.0
 30
0.0
210
0.0
220
0.0
230
1.0
  2
ANSI31
 70
     0
 71
     0
 91
        2
 92
        7
 72
     1
 73
     1
 93
        3
 10
490.9223172892076
 20
394.2077421121927
 42
0.0
 10
490.9223172892076
 20
391.2077421121927
 42
0.0
 10
493.9223172892079
 20
391.2077421121927
 42
0.4142135623731173
 97
        0
 92
        7
 72
     1
 73
     1
 93
        3
 10
490.9223172892076
 20
391.2077421121927
 42
0.0
 10
487.9223172892078
 20
391.2077421121927
 42
0.4142135623730728
 10
490.9223172892076
 20
388.2077421121927
 42
0.0
 97
        0
 75
     0
 76
     1
 52
0.0
 41
5.0
 77
     0
 78
     1
 53
45.0
 43
578.4833765754185
 44
409.2077421121927
 45
-0.4419417382415922
 46
0.4419417382415923
 79
     0
 47
0.1092775485852022
 98
        2
 10
492.6224178195974
 20
392.2675075984317
 10
490.1071665828614
 20
389.8634012076257
  0
DIMENSION
  5
7FB9
330
17
100
AcDbEntity
  8
M01
100
AcDbDimension
  2
*D21
 10
461.1778248719931
 20
391.2077421121927
 30
0.0
 11
458.1778248719929
 21
400.2077421121929
 31
0.0
 70
    32
  1
{\C5;<>}
 71
     5
 42
18.0
  3
DIM1
100
AcDbAlignedDimension
 13
466.1058629161024
 23
409.2077421121927
 33
0.0
 14
482.9223172892079
 24
391.2077421121927
 34
0.0
 50
90.0
100
AcDbRotatedDimension
1001
ACAD
1000
DSTYLE
1002
{
1070
   144
1040
1.0
1002
}
  0
LEADER
  5
7FCF
330
17
100
AcDbEntity
  8
M01
100
AcDbLeader
  3
DIM1$7
 73
     0
 40
3.0
 41
40.42857142857143
 76
     3
 10
488.6722944019553
 20
389.223454580901
 30
0.0
 10
462.113837586171
 20
362.9070559008468
 30
0.0
 10
465.9957985563787
 20
362.9070559008468
 30
0.0
340
7FD0
213
-0.618039029792385
223
0.0
233
0.0
  0
MTEXT
  5
7FD0
102
{ACAD_REACTORS
330
7FCF
102
}
330
17
100
AcDbEntity
  8
M01
 62
     2
100
AcDbMText
 10
468.1138375861711
 20
362.9070559008468
 30
0.0
 40
3.0
 41
0.0
 71
     4
 72
     1
  1
{\C5;Dowel Ø6.00 x 16}
 73
     1
 44
1.0
  0
LINE
  5
7FD2
330
17
100
AcDbEntity
  8
CENTRE
 48
0.7
100
AcDbLine
 10
628.9152729062249
 20
391.2077421121927
 30
0.0
 11
652.3135045754189
 21
391.2077421121927
 31
0.0
  0
LINE
  5
7FD3
330
17
100
AcDbEntity
  8
M01
100
AcDbLine
 10
650.4833765754189
 20
393.6511196121926
 30
0.0
 11
650.4833765754189
 21
388.9577421121925
 31
0.0
  0
LINE
  5
7FD4
330
17
100
AcDbEntity
  8
M01
100
AcDbLine
 10
634.4833765754186
 20
393.4577421121924
 30
0.0
 11
634.4833765754189
 21
388.9577421121925
 31
0.0
  0
LINE
  5
7FD5
330
17
100
AcDbEntity
  8
M01
 62
     0
100
AcDbLine
 10
633.4833765754186
 20
394.2077421121924
 30
0.0
 11
633.4833765754189
 21
388.2077421121925
 31
0.0
  0
LINE
  5
7FD6
330
17
100
AcDbEntity
  8
M01
 62
     0
100
AcDbLine
 10
633.4833765754186
 20
394.2077421121924
 30
0.0
 11
631.7513257678498
 21
391.2077421121927
 31
0.0
  0
LINE
  5
7FD7
330
17
100
AcDbEntity
  8
M01
 62
     0
100
AcDbLine
 10
633.4833765754189
 20
388.2077421121925
 30
0.0
 11
631.75132576785
 21
391.2077421121927
 31
0.0
  0
LINE
  5
7FD8
330
17
100
AcDbEntity
  8
M01
100
AcDbLine
 10
635.2333765754186
 20
394.2077421121924
 30
0.0
 11
645.4833765754188
 21
394.2077421121927
 31
0.0
  0
LINE
  5
7FD9
330
17
100
AcDbEntity
  8
M01
100
AcDbLine
 10
635.2333765754188
 20
388.2077421121925
 30
0.0
 11
649.7333765754189
 21
388.2077421121925
 31
0.0
  0
LINE
  5
7FDA
330
17
100
AcDbEntity
  8
M01
 62
     0
100
AcDbLine
 10
635.2333765754186
 20
394.2077421121924
 30
0.0
 11
633.4833765754186
 21
394.2077421121924
 31
0.0
  0
LINE
  5
7FDB
330
17
100
AcDbEntity
  8
M01
 62
     0
100
AcDbLine
 10
635.2333765754188
 20
388.2077421121925
 30
0.0
 11
633.4833765754189
 21
388.2077421121925
 31
0.0
  0
LINE
  5
7FDC
330
17
100
AcDbEntity
  8
M01
100
AcDbLine
 10
635.2333765754186
 20
394.2077421121924
 30
0.0
 11
635.2333765754188
 21
388.2077421121925
 31
0.0
  0
LINE
  5
7FDD
330
17
100
AcDbEntity
  8
M01
100
AcDbLine
 10
649.7333765754189
 20
393.2181063621926
 30
0.0
 11
649.7333765754189
 21
388.2077421121928
 31
0.0
  0
LINE
  5
7FDE
330
17
100
AcDbEntity
  8
M01
100
AcDbLine
 10
634.4833765754189
 20
388.9577421121925
 30
0.0
 11
635.2333765754188
 21
388.2077421121925
 31
0.0
  0
LINE
  5
7FDF
330
17
100
AcDbEntity
  8
M01
100
AcDbLine
 10
634.4833765754186
 20
393.4577421121924
 30
0.0
 11
635.2333765754186
 21
394.2077421121924
 31
0.0
  0
LINE
  5
7FE0
330
17
100
AcDbEntity
  8
M01
100
AcDbLine
 10
650.4833765754189
 20
388.9577421121925
 30
0.0
 11
649.7333765754189
 21
388.2077421121925
 31
0.0
  0
LINE
  5
7FE1
330
17
100
AcDbEntity
  8
M01
 62
     0
100
AcDbLine
 10
649.7333765754189
 20
388.2077421121925
 30
0.0
 11
655.4833765754189
 21
388.2077421121925
 31
0.0
  0
LINE
  5
7FE2
330
17
100
AcDbEntity
  8
M01
100
AcDbLine
 10
658.9833765754189
 20
426.2077421121926
 30
0.0
 11
658.9833765754189
 21
392.2077421121926
 31
0.0
  0
HATCH
  5
7FE3
330
17
100
AcDbEntity
  8
M01
100
AcDbHatch
 10
0.0
 20
0.0
 30
0.0
210
0.0
220
0.0
230
1.0
  2
ANSI31
 70
     0
 71
     0
 91
        2
 92
        7
 72
     0
 73
     1
 93
        5
 10
658.9833765754189
 20
426.2077421121926
 10
655.4833765754189
 20
426.2077421121927
 10
655.4833765754189
 20
425.2077421121927
 10
655.4833765754189
 20
423.2077421121927
 10
658.9833765754189
 20
423.2077421121927
 97
        0
 92
        7
 72
     0
 73
     1
 93
        5
 10
658.9833765754189
 20
395.2077421121927
 10
655.4833765754189
 20
395.2077421121927
 10
655.4833765754189
 20
393.2077421121927
 10
655.4833765754189
 20
392.2077421121926
 10
658.9833765754189
 20
392.2077421121926
 97
        0
 75
     0
 76
     1
 52
0.0
 41
5.0
 77
     0
 78
     1
 53
45.0
 43
599.4833765754188
 44
409.2077421121927
 45
-0.4419417382415922
 46
0.4419417382415923
 79
     0
 47
0.1092775467775468
 98
        2
 10
656.809130210437
 20
424.6414509411415
 10
657.2465649284282
 20
394.3715705133769
  0
LEADER
  5
7FE4
330
17
100
AcDbEntity
  8
DIMS
 62
     5
100
AcDbLeader
  3
DIM1$7
 73
     0
 74
     0
 75
     1
 40
8.000000000000003
 41
56.42857142857139
 76
     3
 10
658.9097834466116
 20
426.2077421121926
 30
0.0
 10
667.3229047846758
 20
441.0816114232731
 30
0.0
 10
670.3229047846758
 20
441.0816114232731
 30
0.0
340
7FE5
  0
MTEXT
  5
7FE5
102
{ACAD_REACTORS
330
7FE4
102
}
330
17
100
AcDbEntity
  8
DIMS
 62
     5
100
AcDbMText
 10
671.8229047846758
 20
441.0816114232731
 30
0.0
 40
3.0
 41
0.0
 71
     4
 72
     1
  1
Rear Insulation Washer\PMA010024 recommended
 73
     1
 44
1.0
  0
LINE
  5
7FE6
330
17
100
AcDbEntity
  8
M01
100
AcDbLine
 10
658.9833765754189
 20
423.2077421121927
 30
0.0
 11
655.4833765754189
 21
423.2077421121927
 31
0.0
  0
LINE
  5
7FE7
330
17
100
AcDbEntity
  8
M01
100
AcDbLine
 10
658.9833765754189
 20
395.2077421121927
 30
0.0
 11
655.4833765754189
 21
395.2077421121927
 31
0.0
  0
LINE
  5
7FE8
330
17
100
AcDbEntity
  8
M01
100
AcDbLine
 10
655.4833765754189
 20
426.2077421121927
 30
0.0
 11
658.9833765754189
 21
426.2077421121926
 31
0.0
  0
LINE
  5
7FE9
330
17
100
AcDbEntity
  8
M01
100
AcDbLine
 10
655.4833765754189
 20
392.2077421121926
 30
0.0
 11
658.9833765754189
 21
392.2077421121926
 31
0.0
  0
LINE
  5
7FEE
330
17
100
AcDbEntity
  8
CENTRE
100
AcDbLine
 10
566.387527901933
 20
587.5280614087077
 30
0.0
 11
585.8143242189787
 21
587.5280614087077
 31
0.0
  0
LINE
  5
7FF7
330
17
100
AcDbEntity
  8
M01
100
AcDbLine
 10
579.387527901933
 20
600.5603151371197
 30
0.0
 11
579.387527901933
 21
597.5280614087076
 31
0.0
  0
LINE
  5
7FF8
330
17
100
AcDbEntity
  8
M01
100
AcDbLine
 10
569.387527901933
 20
597.5280614087076
 30
0.0
 11
579.387527901933
 21
597.5280614087076
 31
0.0
  0
LINE
  5
7FF9
330
17
100
AcDbEntity
  8
M01
100
AcDbLine
 10
569.387527901933
 20
577.5280614087076
 30
0.0
 11
579.387527901933
 21
577.5280614087076
 31
0.0
  0
ARC
  5
8000
330
17
100
AcDbEntity
  8
M01
100
AcDbCircle
 10
569.387527901933
 20
587.5280614087077
 30
0.0
 40
16.42679631704577
100
AcDbArc
 50
269.3733586542288
 51
90.62664134577069
  0
LINE
  5
8003
330
17
100
AcDbEntity
  8
M01
100
AcDbLine
 10
579.387527901933
 20
577.5280614087076
 30
0.0
 11
579.387527901933
 21
574.4958076802957
 31
0.0
  0
LINE
  5
8006
330
17
100
AcDbEntity
  8
M01
100
AcDbLine
 10
567.387527901933
 20
585.4620360049231
 30
0.0
 11
569.015933862239
 21
586.4021966244559
 31
0.0
  0
LINE
  5
8007
330
17
100
AcDbEntity
  8
M01
100
AcDbLine
 10
567.3875279019329
 20
589.5940868124922
 30
0.0
 11
569.015933862239
 21
588.6539261929596
 31
0.0
  0
ARC
  5
800B
330
17
100
AcDbEntity
  8
M01
100
AcDbCircle
 10
573.887527901933
 20
587.5280614087077
 30
0.0
 40
5.0
100
AcDbArc
 50
90.0
 51
270.0
  0
LINE
  5
800C
330
17
100
AcDbEntity
  8
M01
100
AcDbLine
 10
573.887527901933
 20
592.5280614087077
 30
0.0
 11
585.0348803055094
 21
592.5280614087077
 31
0.0
  0
LINE
  5
800D
330
17
100
AcDbEntity
  8
M01
100
AcDbLine
 10
573.887527901933
 20
582.5280614087076
 30
0.0
 11
585.0348803055094
 21
582.5280614087076
 31
0.0
  0
DIMENSION
  5
800F
330
17
100
AcDbEntity
  8
M01
100
AcDbDimension
  2
*D22
 10
569.015933862239
 20
588.6539261929596
 30
0.0
 11
558.4935866419431
 21
587.5280614087074
 31
0.0
 70
    34
  1
{\C5;<>}
 71
     5
 42
1.047197551196603
  3
DIM1$2
100
AcDb2LineAngularDimension
 13
567.387527901933
 23
585.4620360049231
 33
0.0
 14
569.015933862239
 24
586.4021966244559
 34
0.0
 15
567.3875279019329
 25
589.5940868124922
 35
0.0
 16
558.6830704571382
 26
589.6938713269149
 36
0.0
  0
DIMENSION
  5
801F
330
17
100
AcDbEntity
  8
M01
100
AcDbDimension
  2
*D23
 10
567.3875279019329
 20
605.9167702242813
 30
0.0
 11
555.3160993305043
 21
608.9167702242813
 31
0.0
 70
    32
  1
{\C5;0.75}
 71
     5
 42
1.500000000000113
  3
DIM1
100
AcDbAlignedDimension
 13
568.887527901933
 23
587.5280614087077
 33
0.0
 14
567.3875279019329
 24
587.5280614087078
 34
0.0
100
AcDbRotatedDimension
1001
ACAD
1000
DSTYLE
1002
{
1070
   144
1040
1.0
1002
}
  0
DIMENSION
  5
802D
330
17
100
AcDbEntity
  8
M01
100
AcDbDimension
  2
*D24
 10
569.387527901933
 20
564.7386008406583
 30
0.0
 11
574.387527901933
 21
567.7386008406584
 31
0.0
 70
    32
  1
{\C5;5.0}
 71
     5
 42
10.0
  3
DIM1
100
AcDbAlignedDimension
 13
579.387527901933
 23
574.4958076802957
 33
0.0
 14
569.387527901933
 24
577.5280614087076
 34
0.0
100
AcDbRotatedDimension
1001
ACAD
1000
DSTYLE
1002
{
1070
   144
1040
1.0
1002
}
  0
DIMENSION
  5
803B
330
17
100
AcDbEntity
  8
M01
100
AcDbDimension
  2
*D25
 10
593.0958408154879
 20
588.6539261929596
 30
0.0
 11
590.0958408154878
 21
605.3682119072454
 31
0.0
 70
    32
  1
{\C5;Gate ØA}
 71
     5
 42
2.251729568503719
  3
DIM1
100
AcDbAlignedDimension
 13
569.015933862239
 23
586.4021966244559
 33
0.0
 14
569.015933862239
 24
588.6539261929596
 34
0.0
 50
90.0
100
AcDbRotatedDimension
1001
ACAD
1000
DSTYLE
1002
{
1070
   144
1040
1.0
1002
}
  0
MTEXT
  5
80E3
330
17
100
AcDbEntity
  8
M01
100
AcDbMText
 10
571.3572596860148
 20
558.8992041607488
 30
0.0
 40
3.0
 41
54.25
 71
     2
 72
     5
  1
Gate ØA = 1.20 unless\Pspecified otherwise.\PDefault 'R' = 13 Sph.\PDefault 'S' = 1.0
 73
     1
 44
1.0
  0
ARC
  5
8354
330
17
100
AcDbEntity
  8
M01
100
AcDbCircle
 10
567.387527901933
 20
587.5280614087077
 30
0.0
 40
16.42679631704577
100
AcDbArc
 50
90.62664134577069
 51
269.3733586542288
  0
LINE
  5
8357
330
17
100
AcDbEntity
  8
M01
100
AcDbLine
 10
567.2078723562289
 20
603.9538752736766
 30
0.0
 11
569.2078723562288
 21
603.9538752736766
 31
0.0
  0
LINE
  5
8358
330
17
100
AcDbEntity
  8
M01
100
AcDbLine
 10
567.2078723562288
 20
571.1022475437387
 30
0.0
 11
569.2078723562287
 21
571.1022475437387
 31
0.0
  0
ARC
  5
8370
330
17
100
AcDbEntity
  8
M01
100
AcDbCircle
 10
593.387527901933
 20
587.5280614087078
 30
0.0
 40
26.0
100
AcDbArc
 50
157.3801350519598
 51
202.6198649480406
  0
DIMENSION
  5
837B
330
17
100
AcDbEntity
  8
M01
100
AcDbDimension
  2
*D33
 10
567.387527901933
 20
564.7479335972624
 30
0.0
 11
557.6732421876473
 21
568.0336478829767
 31
0.0
 70
    32
  1
{\C5;'S'}
 71
     5
 42
2.0
  3
DIM1
100
AcDbAlignedDimension
 13
569.387527901933
 23
577.5280614087076
 33
0.0
 14
567.387527901933
 24
587.5280614087077
 34
0.0
100
AcDbRotatedDimension
1001
ACAD
1000
DSTYLE
1002
{
1070
   144
1040
1.0
1002
}
  0
DIMENSION
  5
83BA
330
17
100
AcDbEntity
  8
M01
100
AcDbDimension
  2
*D34
 10
593.3875279019336
 20
587.5280614087074
 30
0.0
 11
601.5406142104628
 21
590.3165416006133
 31
0.0
 70
   164
  1
{\C5;'R'}
 71
     5
 42
26.00000000000034
  3
DIM1$4
100
AcDbRadialDimension
 15
568.7865864986592
 25
579.1141632590578
 35
0.0
 40
0.0
1001
ACAD
1000
DSTYLE
1002
{
1070
   279
1070
     1
1002
}
  0
HATCH
  5
83DE
330
17
100
AcDbEntity
  8
M01
100
AcDbHatch
 10
0.0
 20
0.0
 30
0.0
210
0.0
220
0.0
230
1.0
  2
DOTS
 70
     0
 71
     0
 91
        2
 92
        7
 72
     1
 73
     1
 93
        7
 10
579.387527901933
 20
600.5603151371197
 42
0.0
 10
579.387527901933
 20
597.5280614087076
 42
0.0
 10
569.387527901933
 20
597.5280614087076
 42
0.0794154104460787
 10
567.4661645767448
 20
589.5486859071213
 42
0.0
 10
569.015933862239
 20
588.6539261929596
 42
-0.3491517548528105
 10
573.887527901933
 20
592.5280614087077
 42
0.0
 10
585.0348803055094
 20
592.5280614087077
 42
0.1529281303986099
 97
        0
 92
        7
 72
     1
 73
     1
 93
        7
 10
585.0348803055094
 20
582.5280614087076
 42
0.0
 10
573.887527901933
 20
582.5280614087076
 42
-0.3491517548528171
 10
569.015933862239
 20
586.4021966244559
 42
0.0
 10
567.4661645767448
 20
585.5074369102939
 42
0.0794154104460781
 10
569.387527901933
 20
577.5280614087076
 42
0.0
 10
579.387527901933
 20
577.5280614087076
 42
0.0
 10
579.387527901933
 20
574.4958076802957
 42
0.1529281303986099
 97
        0
 75
     0
 76
     1
 52
45.0
 41
10.0
 77
     0
 78
     1
 53
45.0
 43
594.4833765754188
 44
409.2077421121927
 45
-0.2209708691207961
 46
0.6629126073623884
 79
     2
 49
0.0
 49
-0.625
 47
0.2185550935550935
 98
        2
 10
578.793982580888
 20
594.9061984547455
 10
577.7003942580654
 20
580.0444521711605
  0
MTEXT
  5
83DF
330
17
100
AcDbEntity
  8
M01
100
AcDbMText
 10
449.0817683074205
 20
332.8079466410957
 30
0.0
 40
4.0
 41
267.2699999999999
 71
     1
 72
     5
  3
   {\LNOTE\P\P\H0.75x;\l1.  AN ALLOWANCE FOR EXPANSION OF THE BUSHING MUST BE MADE DEPENDENT ON THE\P   MATERIAL TO BE MOULDED AND THE PROCESS CONDITIONS - SEE CATALOGUE FOR DETAILS\P\P2.  DIMENSIONS 'R' & 'S' CAN BE SPECIFIED AS FOLLOWS :\P\P       
  1
 'R'      'S'\P       25.0     0.50\P       17.0     0.75\P       13.0     1.00   DEFAULT DIMENSIONS\P\H0.8333x;      \H1.2x;  10.5     1.25\P        9.0     1.50}
 73
     1
 44
1.0
  0
ARC
  5
83E6
330
17
100
AcDbEntity
  8
M03
 62
     6
100
AcDbCircle
 10
580.7733765754188
 20
409.2077421121929
 30
0.0
 40
2.5
100
AcDbArc
 50
90.0
 51
168.4630409671858
  0
LINE
  5
83E8
330
17
100
AcDbEntity
  8
0
  6
ByBlock
 62
     4
100
AcDbLine
 10
576.8553380598931
 20
413.1335529318788
 30
0.0
 11
565.5196236773771
 21
440.4682073318605
 31
0.0
  0
SOLID
  5
83E9
330
17
100
AcDbEntity
  8
0
  6
ByBlock
 62
     4
100
AcDbTrace
 10
577.3171981563267
 20
413.3250868748819
 30
0.0
 11
576.3934779634594
 21
412.942018988876
 31
0.0
 12
578.0045417179113
 22
410.362392353277
 32
0.0
 13
578.0045417179113
 23
410.362392353277
 33
0.0
  0
ARC
  5
83EA
330
17
100
AcDbEntity
  8
M03
 62
     6
100
AcDbCircle
 10
580.7733765754188
 20
409.2077421121929
 30
0.0
 40
2.5
100
AcDbArc
 50
191.5369590328141
 51
270.0
  0
ARC
  5
83EB
330
17
100
AcDbEntity
  8
M01
100
AcDbCircle
 10
590.4833765754188
 20
409.2077421121929
 30
0.0
 40
13.0
100
AcDbArc
 50
157.380135051959
 51
202.6198649480408
  0
LINE
  5
83EC
330
17
100
AcDbEntity
  8
M01
100
AcDbLine
 10
578.4833765754187
 20
414.2077421121927
 30
0.0
 11
578.4833765754187
 21
404.2077421121931
 31
0.0
  0
CIRCLE
  5
83ED
330
17
100
AcDbEntity
  8
M01
 62
     0
100
AcDbCircle
 10
578.4833765754187
 20
409.2077421121929
 30
0.0
 40
1.25
  0
DIMENSION
  5
83EF
330
17
100
AcDbEntity
  8
M01
 62
     0
100
AcDbDimension
  2
*D35
 10
578.4833765754187
 20
437.6183179211016
 30
0.0
 11
596.1262337182758
 21
440.9040322068159
 31
0.0
 70
    32
  1
{\C5;'S' = 1.0}
 71
     5
 42
0.9999999999998863
  3
DIM1
100
AcDbAlignedDimension
 13
577.4833765754189
 23
409.2077421121929
 33
0.0
 14
578.4833765754187
 24
430.1928457658632
 34
0.0
100
AcDbRotatedDimension
1001
ACAD
1000
DSTYLE
1002
{
1070
   144
1040
1.0
1002
}
  0
DIMENSION
  5
8407
330
17
100
AcDbEntity
  8
M01
 62
     0
100
AcDbDimension
  2
*D36
 10
590.48337657542
 20
409.2077421121938
 30
0.0
 11
558.5164837231737
 21
406.4595775965555
 31
0.0
 70
   164
  1
{\C5;'R' = 13.0}
 71
     5
 42
13.00000000000068
  3
DIM1$4
100
AcDbRadialDimension
 15
577.6197400044813
 25
407.3297500539505
 35
0.0
 40
0.0
  0
ENDSEC
  0
SECTION
  2
OBJECTS
  0
DICTIONARY
  5
C
330
0
100
AcDbDictionary
281
     1
  3
ACAD_GROUP
350
D
  3
ACAD_LAYOUT
350
79CD
  3
ACAD_MLINESTYLE
350
1A
  3
ACAD_PLOTSETTINGS
350
79CE
  3
ACAD_PLOTSTYLENAME
350
79CB
  3
ACAD_WIPEOUT_VARS
350
4846
  3
ACDBVARIABLEDICTIONARY
350
33
  3
CONTENTDICTIONARY
350
1149
  0
DICTIONARY
  5
20BE
330
17
100
AcDbDictionary
280
     1
281
     1
  3
ACAD_SORTENTS
360
20BF
  0
DICTIONARY
  5
D
102
{ACAD_REACTORS
330
C
102
}
330
C
100
AcDbDictionary
281
     1
  3
*A1
350
484B
  3
*A10
350
7B8B
  3
*A11
350
8166
  3
*A12
350
8167
  3
*A2
350
8168
  3
*A3
350
484E
  3
*A4
350
6B86
  3
*A5
350
7A54
  3
*A6
350
7A55
  3
*A7
350
7A56
  3
*A8
350
7B89
  3
*A9
350
7B8A
  0
DICTIONARY
  5
79CD
102
{ACAD_REACTORS
330
C
102
}
330
C
100
AcDbDictionary
281
     1
  3
Layout1
350
79D0
  3
Model
350
79CF
  0
DICTIONARY
  5
1A
102
{ACAD_REACTORS
330
C
102
}
330
C
100
AcDbDictionary
281
     1
  3
STANDARD
350
1B
  0
DICTIONARY
  5
79CE
102
{ACAD_REACTORS
330
C
102
}
330
C
100
AcDbDictionary
281
     1
  0
ACDBDICTIONARYWDFLT
  5
79CB
102
{ACAD_REACTORS
330
C
102
}
330
C
100
AcDbDictionary
281
     1
  3
Normal
350
79CC
100
AcDbDictionaryWithDefault
340
79CC
  0
ACAD_PROXY_OBJECT
  5
4846
102
{ACAD_REACTORS
330
C
102
}
330
C
100
AcDbProxyObject
 90
      499
 91
      504
 95
   589845
 70
     0
 93
        2
310
85
 94
        0
  0
DICTIONARY
  5
33
102
{ACAD_REACTORS
330
C
102
}
330
C
100
AcDbDictionary
281
     1
  3
DIMADEC
350
34
  3
DIMASSOC
350
79D3
  3
SORTENTS
350
1D6E
  0
DICTIONARY
  5
1149
102
{ACAD_REACTORS
330
C
102
}
330
C
100
AcDbDictionary
281
     1
  0
SORTENTSTABLE
  5
20BF
102
{ACAD_REACTORS
330
20BE
102
}
330
20BE
100
AcDbSortentsTable
330
17
  0
GROUP
  5
484B
102
{ACAD_REACTORS
330
D
102
}
330
D
100
AcDbGroup
300
In use by TEXTMASK
 70
     1
 71
     1
  0
GROUP
  5
7B8B
102
{ACAD_REACTORS
330
D
102
}
330
D
100
AcDbGroup
300

 70
     1
 71
     1
  0
GROUP
  5
8166
102
{ACAD_REACTORS
330
D
102
}
330
D
100
AcDbGroup
300
In use by TEXTMASK
 70
     1
 71
     1
  0
GROUP
  5
8167
102
{ACAD_REACTORS
330
D
102
}
330
D
100
AcDbGroup
300

 70
     1
 71
     1
  0
GROUP
  5
8168
102
{ACAD_REACTORS
330
D
102
}
330
D
100
AcDbGroup
300

 70
     1
 71
     1
  0
GROUP
  5
484E
102
{ACAD_REACTORS
330
D
102
}
330
D
100
AcDbGroup
300

 70
     1
 71
     1
  0
GROUP
  5
6B86
102
{ACAD_REACTORS
330
D
102
}
330
D
100
AcDbGroup
300

 70
     1
 71
     1
  0
GROUP
  5
7A54
102
{ACAD_REACTORS
330
D
102
}
330
D
100
AcDbGroup
300
In use by TEXTMASK
 70
     1
 71
     1
  0
GROUP
  5
7A55
102
{ACAD_REACTORS
330
D
102
}
330
D
100
AcDbGroup
300

 70
     1
 71
     1
  0
GROUP
  5
7A56
102
{ACAD_REACTORS
330
D
102
}
330
D
100
AcDbGroup
300

 70
     1
 71
     1
  0
GROUP
  5
7B89
102
{ACAD_REACTORS
330
D
102
}
330
D
100
AcDbGroup
300
In use by TEXTMASK
 70
     1
 71
     1
  0
GROUP
  5
7B8A
102
{ACAD_REACTORS
330
D
102
}
330
D
100
AcDbGroup
300

 70
     1
 71
     1
  0
LAYOUT
  5
79D0
102
{ACAD_REACTORS
330
79CD
102
}
330
79CD
100
AcDbPlotSettings
  1

  2
C:\PROGRAM FILES\AUTOCAD LT 2002\plotters\PublishToWeb DWF.pc3
  4

  6

 40
0.0
 41
0.0
 42
0.0
 43
0.0
 44
0.0
 45
0.0
 46
0.0
 47
0.0
 48
0.0
 49
0.0
140
0.0
141
0.0
142
1.0
143
1.0
 70
   688
 72
     0
 73
     0
 74
     5
  7

 75
    16
147
1.0
148
0.0
149
0.0
100
AcDbLayout
  1
Layout1
 70
     0
 71
     1
 10
0.0
 20
0.0
 11
12.0
 21
9.0
 12
0.0
 22
0.0
 32
0.0
 14
1.000000000000000E+20
 24
1.000000000000000E+20
 34
1.000000000000000E+20
 15
-1.000000000000000E+20
 25
-1.000000000000000E+20
 35
-1.000000000000000E+20
146
0.0
 13
0.0
 23
0.0
 33
0.0
 16
1.0
 26
0.0
 36
0.0
 17
0.0
 27
1.0
 37
0.0
 76
     0
330
14
  0
LAYOUT
  5
79CF
102
{ACAD_REACTORS
330
79CD
102
}
330
79CD
100
AcDbPlotSettings
  1

  2
SHARP AR-C172M PCL5c
  4
A3
  6

 40
5.027083396911621
 41
5.027085304260253
 42
5.027099609375
 43
5.027069091796875
 44
296.9259948730469
 45
419.9466552734374
 46
0.0
 47
92.26
 48
0.0
 49
0.0
140
0.0
141
0.0
142
1.0
143
1.239328230587024
 70
 11956
 72
     1
 73
     1
 74
     1
  7

 75
     0
147
0.8068887444985715
148
-448.9955477246494
149
-260.6052879060214
100
AcDbLayout
  1
Model
 70
     1
 71
     0
 10
0.0
 20
0.0
 11
12.0
 21
9.0
 12
0.0
 22
0.0
 32
0.0
 14
0.0
 24
0.0
 34
0.0
 15
0.0
 25
0.0
 35
0.0
146
0.0
 13
0.0
 23
0.0
 33
0.0
 16
1.0
 26
0.0
 36
0.0
 17
0.0
 27
1.0
 37
0.0
 76
     0
330
17
  0
MLINESTYLE
  5
1B
102
{ACAD_REACTORS
330
1A
102
}
330
1A
100
AcDbMlineStyle
  2
STANDARD
 70
     0
  3

 62
   256
 51
90.0
 52
90.0
 71
     2
 49
0.5
 62
   256
  6
BYLAYER
 49
-0.5
 62
   256
  6
BYLAYER
  0
ACDBPLACEHOLDER
  5
79CC
102
{ACAD_REACTORS
330
79CB
102
}
330
79CB
  0
DICTIONARYVAR
  5
34
102
{ACAD_REACTORS
330
33
102
}
330
33
100
DictionaryVariables
280
     0
  1
3
  0
DICTIONARYVAR
  5
79D3
102
{ACAD_REACTORS
330
33
102
}
330
33
100
DictionaryVariables
280
     0
  1
1
  0
DICTIONARYVAR
  5
1D6E
102
{ACAD_REACTORS
330
33
102
}
330
33
100
DictionaryVariables
280
     0
  1
127
  0
ENDSEC
  0
EOF
