  0
SECTION
  2
HEADER
  9
$ACADVER
  1
AC1015
  9
$ACADMAINTVER
 70
    13
  9
$DWGCODEPAGE
  3
ANSI_1252
  9
$INSBASE
 10
0.0
 20
0.0
 30
0.0
  9
$EXTMIN
 10
376.4754399465047
 20
152.0410509296654
 30
-0.2229487474867098
  9
$EXTMAX
 10
871.4447115859524
 20
549.2077421121926
 30
0.0
  9
$LIMMIN
 10
0.0
 20
0.0
  9
$LIMMAX
 10
1189.0
 20
841.0
  9
$ORTHOMODE
 70
     1
  9
$REGENMODE
 70
     1
  9
$FILLMODE
 70
     1
  9
$QTEXTMODE
 70
     0
  9
$MIRRTEXT
 70
     0
  9
$LTSCALE
 40
8.0
  9
$ATTMODE
 70
     1
  9
$TEXTSIZE
 40
3.0
  9
$TRACEWID
 40
10.0
  9
$TEXTSTYLE
  7
STANDARD
  9
$CLAYER
  8
M01
  9
$CELTYPE
  6
BYLAYER
  9
$CECOLOR
 62
   256
  9
$CELTSCALE
 40
1.0
  9
$DISPSILH
 70
     0
  9
$DIMSCALE
 40
1.0
  9
$DIMASZ
 40
3.0
  9
$DIMEXO
 40
1.0
  9
$DIMDLI
 40
10.0
  9
$DIMRND
 40
0.01
  9
$DIMDLE
 40
1.25
  9
$DIMEXE
 40
2.5
  9
$DIMTP
 40
0.05
  9
$DIMTM
 40
0.0
  9
$DIMTXT
 40
3.0
  9
$DIMCEN
 40
-1.7
  9
$DIMTSZ
 40
0.0
  9
$DIMTOL
 70
     0
  9
$DIMLIM
 70
     0
  9
$DIMTIH
 70
     0
  9
$DIMTOH
 70
     0
  9
$DIMSE1
 70
     0
  9
$DIMSE2
 70
     0
  9
$DIMTAD
 70
     3
  9
$DIMZIN
 70
     1
  9
$DIMBLK
  1

  9
$DIMASO
 70
     1
  9
$DIMSHO
 70
     0
  9
$DIMPOST
  1

  9
$DIMAPOST
  1

  9
$DIMALT
 70
     0
  9
$DIMALTD
 70
     2
  9
$DIMALTF
 40
0.039
  9
$DIMLFAC
 40
1.0
  9
$DIMTOFL
 70
     0
  9
$DIMTVP
 40
1.5
  9
$DIMTIX
 70
     0
  9
$DIMSOXD
 70
     0
  9
$DIMSAH
 70
     0
  9
$DIMBLK1
  1

  9
$DIMBLK2
  1

  9
$DIMSTYLE
  2
DIM1
  9
$DIMCLRD
 70
     4
  9
$DIMCLRE
 70
     4
  9
$DIMCLRT
 70
     2
  9
$DIMTFAC
 40
0.7
  9
$DIMGAP
 40
1.5
  9
$DIMJUST
 70
     0
  9
$DIMSD1
 70
     0
  9
$DIMSD2
 70
     0
  9
$DIMTOLJ
 70
     1
  9
$DIMTZIN
 70
     1
  9
$DIMALTZ
 70
     1
  9
$DIMALTTZ
 70
     1
  9
$DIMUPT
 70
     0
  9
$DIMDEC
 70
     2
  9
$DIMTDEC
 70
     2
  9
$DIMALTU
 70
     2
  9
$DIMALTTD
 70
     2
  9
$DIMTXSTY
  7
STANDARD
  9
$DIMAUNIT
 70
     0
  9
$DIMADEC
 70
     0
  9
$DIMALTRND
 40
0.0
  9
$DIMAZIN
 70
     0
  9
$DIMDSEP
 70
    46
  9
$DIMATFIT
 70
     0
  9
$DIMFRAC
 70
     0
  9
$DIMLDRBLK
  1

  9
$DIMLUNIT
 70
     2
  9
$DIMLWD
 70
    -2
  9
$DIMLWE
 70
    -2
  9
$DIMTMOVE
 70
     0
  9
$LUNITS
 70
     2
  9
$LUPREC
 70
     2
  9
$SKETCHINC
 40
1.0
  9
$FILLETRAD
 40
0.0
  9
$AUNITS
 70
     0
  9
$AUPREC
 70
     3
  9
$MENU
  1
ACAD
  9
$ELEVATION
 40
0.0
  9
$PELEVATION
 40
0.0
  9
$THICKNESS
 40
0.0
  9
$LIMCHECK
 70
     0
  9
$CHAMFERA
 40
2.0
  9
$CHAMFERB
 40
2.0
  9
$CHAMFERC
 40
0.0
  9
$CHAMFERD
 40
0.0
  9
$SKPOLY
 70
     1
  9
$TDCREATE
 40
2449993.725698611
  9
$TDUCREATE
 40
2449993.725698611
  9
$TDUPDATE
 40
2455247.548519930
  9
$TDUUPDATE
 40
2455247.548519930
  9
$TDINDWG
 40
1.0720469213
  9
$TDUSRTIMER
 40
1.0720469213
  9
$USRTIMER
 70
     1
  9
$ANGBASE
 50
0.0
  9
$ANGDIR
 70
     0
  9
$PDMODE
 70
     3
  9
$PDSIZE
 40
0.0
  9
$PLINEWID
 40
0.0
  9
$SPLFRAME
 70
     0
  9
$SPLINETYPE
 70
     6
  9
$SPLINESEGS
 70
     6
  9
$HANDSEED
  5
7A33
  9
$SURFTAB1
 70
    12
  9
$SURFTAB2
 70
    12
  9
$SURFTYPE
 70
     6
  9
$SURFU
 70
    12
  9
$SURFV
 70
    12
  9
$UCSBASE
  2

  9
$UCSNAME
  2

  9
$UCSORG
 10
578.4833765754188
 20
409.2077421121927
 30
0.0
  9
$UCSXDIR
 10
1.0
 20
0.0
 30
0.0
  9
$UCSYDIR
 10
0.0
 20
1.0
 30
0.0
  9
$UCSORTHOREF
  2

  9
$UCSORTHOVIEW
 70
     0
  9
$UCSORGTOP
 10
0.0
 20
0.0
 30
0.0
  9
$UCSORGBOTTOM
 10
0.0
 20
0.0
 30
0.0
  9
$UCSORGLEFT
 10
0.0
 20
0.0
 30
0.0
  9
$UCSORGRIGHT
 10
0.0
 20
0.0
 30
0.0
  9
$UCSORGFRONT
 10
0.0
 20
0.0
 30
0.0
  9
$UCSORGBACK
 10
0.0
 20
0.0
 30
0.0
  9
$PUCSBASE
  2

  9
$PUCSNAME
  2

  9
$PUCSORG
 10
0.0
 20
0.0
 30
0.0
  9
$PUCSXDIR
 10
1.0
 20
0.0
 30
0.0
  9
$PUCSYDIR
 10
0.0
 20
1.0
 30
0.0
  9
$PUCSORTHOREF
  2

  9
$PUCSORTHOVIEW
 70
     0
  9
$PUCSORGTOP
 10
0.0
 20
0.0
 30
0.0
  9
$PUCSORGBOTTOM
 10
0.0
 20
0.0
 30
0.0
  9
$PUCSORGLEFT
 10
0.0
 20
0.0
 30
0.0
  9
$PUCSORGRIGHT
 10
0.0
 20
0.0
 30
0.0
  9
$PUCSORGFRONT
 10
0.0
 20
0.0
 30
0.0
  9
$PUCSORGBACK
 10
0.0
 20
0.0
 30
0.0
  9
$USERI1
 70
     0
  9
$USERI2
 70
     0
  9
$USERI3
 70
     0
  9
$USERI4
 70
     0
  9
$USERI5
 70
     0
  9
$USERR1
 40
0.0
  9
$USERR2
 40
0.0
  9
$USERR3
 40
0.0
  9
$USERR4
 40
0.0
  9
$USERR5
 40
0.0
  9
$WORLDVIEW
 70
     0
  9
$SHADEDGE
 70
     3
  9
$SHADEDIF
 70
    70
  9
$TILEMODE
 70
     1
  9
$MAXACTVP
 70
    16
  9
$PINSBASE
 10
0.0
 20
0.0
 30
0.0
  9
$PLIMCHECK
 70
     0
  9
$PEXTMIN
 10
1.000000000000000E+20
 20
1.000000000000000E+20
 30
1.000000000000000E+20
  9
$PEXTMAX
 10
-1.000000000000000E+20
 20
-1.000000000000000E+20
 30
-1.000000000000000E+20
  9
$PLIMMIN
 10
0.0
 20
0.0
  9
$PLIMMAX
 10
12.0
 20
9.0
  9
$UNITMODE
 70
     0
  9
$VISRETAIN
 70
     0
  9
$PLINEGEN
 70
     0
  9
$PSLTSCALE
 70
     0
  9
$TREEDEPTH
 70
  3020
  9
$CMLSTYLE
  2
STANDARD
  9
$CMLJUST
 70
     0
  9
$CMLSCALE
 40
1.0
  9
$PROXYGRAPHICS
 70
     1
  9
$MEASUREMENT
 70
     0
  9
$CELWEIGHT
370
    -1
  9
$ENDCAPS
280
     0
  9
$JOINSTYLE
280
     0
  9
$LWDISPLAY
290
     0
  9
$INSUNITS
 70
     0
  9
$HYPERLINKBASE
  1

  9
$STYLESHEET
  1

  9
$XEDIT
290
     1
  9
$CEPSNTYPE
380
     0
  9
$PSTYLEMODE
290
     1
  9
$FINGERPRINTGUID
  2
{3394C0E0-ED32-4E36-A323-21E7622F5703}
  9
$VERSIONGUID
  2
{C5FDDE08-5999-4FC0-9FC8-500BF5E4C402}
  9
$EXTNAMES
290
     1
  9
$PSVPSCALE
 40
0.0
  9
$OLESTARTUP
290
     0
  0
ENDSEC
  0
SECTION
  2
CLASSES
  0
CLASS
  1
DICTIONARYVAR
  2
AcDbDictionaryVar
  3
AutoCAD 2000
 90
        0
280
     0
281
     0
  0
CLASS
  1
LWPOLYLINE
  2
AcDbPolyline
  3
AutoCAD 2000
 90
    32768
280
     0
281
     1
  0
CLASS
  1
HATCH
  2
AcDbHatch
  3
AutoCAD 2000
 90
    32768
280
     0
281
     1
  0
CLASS
  1
SORTENTSTABLE
  2
AcDbSortentsTable
  3
AutoCAD 2000
 90
        0
280
     0
281
     0
  0
CLASS
  1
WIPEOUTVARIABLES
  2
AcDbWipeoutVariables
  3
WIPEOUT
 90
        0
280
     0
281
     0
  0
CLASS
  1
WIPEOUT
  2
AcDbWipeout
  3
WIPEOUT
 90
      127
280
     0
281
     1
  0
CLASS
  1
ACDBDICTIONARYWDFLT
  2
AcDbDictionaryWithDefault
  3
AutoCAD 2000
 90
        0
280
     0
281
     0
  0
CLASS
  1
ACDBPLACEHOLDER
  2
AcDbPlaceHolder
  3
AutoCAD 2000
 90
        0
280
     0
281
     0
  0
CLASS
  1
LAYOUT
  2
AcDbLayout
  3
AutoCAD 2000
 90
        0
280
     0
281
     0
  0
ENDSEC
  0
SECTION
  2
TABLES
  0
TABLE
  2
VPORT
  5
8
330
0
100
AcDbSymbolTable
 70
     3
  0
VPORT
  5
7A32
330
8
100
AcDbSymbolTableRecord
100
AcDbViewportTableRecord
  2
*Active
 70
     0
 10
0.0
 20
0.0
 11
1.0
 21
1.0
 12
636.7650922794873
 22
418.6819949439188
 13
0.0
 23
0.0
 14
10.0
 24
10.0
 15
0.0
 25
0.0
 16
0.0
 26
0.0
 36
1.0
 17
16.3133211678832
 27
12.7791147637061
 37
0.2229487474867098
 40
317.305511031484
 41
2.247685185185185
 42
50.0
 43
0.0
 44
0.0
 50
0.0
 51
0.0
 71
     0
 72
  2000
 73
     1
 74
     2
 75
     0
 76
     0
 77
     0
 78
     1
281
     0
 65
     1
110
578.4833765754188
120
409.2077421121927
130
0.0
111
1.0
121
0.0
131
0.0
112
0.0
122
1.0
132
0.0
 79
     0
146
0.0
  0
ENDTAB
  0
TABLE
  2
LTYPE
  5
5
330
0
100
AcDbSymbolTable
 70
     3
  0
LTYPE
  5
11
330
5
100
AcDbSymbolTableRecord
100
AcDbLinetypeTableRecord
  2
BYBLOCK
 70
     0
  3

 72
    65
 73
     0
 40
0.0
  0
LTYPE
  5
12
330
5
100
AcDbSymbolTableRecord
100
AcDbLinetypeTableRecord
  2
BYLAYER
 70
     0
  3

 72
    65
 73
     0
 40
0.0
  0
LTYPE
  5
13
330
5
100
AcDbSymbolTableRecord
100
AcDbLinetypeTableRecord
  2
CONTINUOUS
 70
     0
  3
Solid line
 72
    65
 73
     0
 40
0.0
  0
LTYPE
  5
425C
330
5
100
AcDbSymbolTableRecord
100
AcDbLinetypeTableRecord
  2
CENTER
 70
     0
  3
Center ____ _ ____ _ ____ _ ____ _ ____ _ ____
 72
    65
 73
     4
 40
2.0
 49
1.25
 74
     0
 49
-0.25
 74
     0
 49
0.25
 74
     0
 49
-0.25
 74
     0
  0
LTYPE
  5
42A4
330
5
100
AcDbSymbolTableRecord
100
AcDbLinetypeTableRecord
  2
HIDDEN
 70
     0
  3
Hidden __ __ __ __ __ __ __ __ __ __ __ __ __ _
 72
    65
 73
     2
 40
0.375
 49
0.25
 74
     0
 49
-0.125
 74
     0
  0
ENDTAB
  0
TABLE
  2
LAYER
  5
2
330
0
100
AcDbSymbolTable
 70
     8
  0
LAYER
  5
E
330
2
100
AcDbSymbolTableRecord
100
AcDbLayerTableRecord
  2
0
 70
     0
 62
     7
  6
CONTINUOUS
370
    -3
390
79F2
  0
LAYER
  5
425D
330
2
100
AcDbSymbolTableRecord
100
AcDbLayerTableRecord
  2
CENTRE
 70
     0
 62
     3
  6
CENTER
370
    -3
390
79F2
  0
LAYER
  5
4261
330
2
100
AcDbSymbolTableRecord
100
AcDbLayerTableRecord
  2
M01
 70
     0
 62
     1
  6
CONTINUOUS
370
    -3
390
79F2
  0
LAYER
  5
42A5
330
2
100
AcDbSymbolTableRecord
100
AcDbLayerTableRecord
  2
M03
 70
     0
 62
     2
  6
HIDDEN
370
    -3
390
79F2
  0
LAYER
  5
42B0
330
2
100
AcDbSymbolTableRecord
100
AcDbLayerTableRecord
  2
M04
 70
     0
 62
     7
  6
CONTINUOUS
370
    -3
390
79F2
  0
LAYER
  5
432E
330
2
100
AcDbSymbolTableRecord
100
AcDbLayerTableRecord
  2
DIMS
 70
     0
 62
     4
  6
CONTINUOUS
370
    -3
390
79F2
  0
LAYER
  5
432F
330
2
100
AcDbSymbolTableRecord
100
AcDbLayerTableRecord
  2
TEXT
 70
     0
 62
     2
  6
CONTINUOUS
370
    -3
390
79F2
  0
LAYER
  5
4570
330
2
100
AcDbSymbolTableRecord
100
AcDbLayerTableRecord
  2
DEFPOINTS
 70
     0
 62
     7
  6
CONTINUOUS
290
     0
370
    -3
390
79F2
  0
ENDTAB
  0
TABLE
  2
STYLE
  5
3
330
0
100
AcDbSymbolTable
 70
     1
  0
STYLE
  5
F
330
3
100
AcDbSymbolTableRecord
100
AcDbTextStyleTableRecord
  2
STANDARD
 70
     0
 40
0.0
 41
1.0
 50
0.0
 71
     0
 42
3.0
  3
SIMPLEX
  4

  0
ENDTAB
  0
TABLE
  2
VIEW
  5
6
330
0
100
AcDbSymbolTable
 70
     0
  0
ENDTAB
  0
TABLE
  2
UCS
  5
7
330
0
100
AcDbSymbolTable
 70
     0
  0
ENDTAB
  0
TABLE
  2
APPID
  5
9
330
0
100
AcDbSymbolTable
 70
     4
  0
APPID
  5
10
330
9
100
AcDbSymbolTableRecord
100
AcDbRegAppTableRecord
  2
ACAD
 70
     0
  0
APPID
  5
114A
330
9
100
AcDbSymbolTableRecord
100
AcDbRegAppTableRecord
  2
CONTENTTABDATA
 70
     0
  0
APPID
  5
114B
330
9
100
AcDbSymbolTableRecord
100
AcDbRegAppTableRecord
  2
CONTENTCURRENTTAB
 70
     0
  0
APPID
  5
424D
330
9
100
AcDbSymbolTableRecord
100
AcDbRegAppTableRecord
  2
RAK
 70
     0
  0
ENDTAB
  0
TABLE
  2
DIMSTYLE
  5
A
330
0
100
AcDbSymbolTable
 70
     9
100
AcDbDimStyleTable
 71
     0
  0
DIMSTYLE
105
25
330
A
100
AcDbSymbolTableRecord
100
AcDbDimStyleTableRecord
  2
AUDIT_I_100219130943-0
 70
     0
 41
3.0
 42
1.0
 43
10.0
 44
2.5
 45
0.01
 46
1.25
 73
     0
 74
     0
 77
     1
 78
     1
140
3.0
141
-0.07
143
0.039
145
1.5
147
0.0
176
     4
177
     4
178
     2
271
     2
272
     2
279
     2
284
     1
285
     1
286
     1
340
F
  0
DIMSTYLE
105
1011
102
{ACAD_REACTORS
330
779D
330
78E5
330
78FF
330
7927
330
7934
330
797A
102
}
330
A
100
AcDbSymbolTableRecord
100
AcDbDimStyleTableRecord
  2
DIM1
 70
     0
 41
3.0
 42
1.0
 43
10.0
 44
2.5
 45
0.01
 46
1.25
 47
0.05
 73
     0
 74
     0
 77
     3
 78
     1
140
3.0
141
-1.7
143
0.039
144
0.2
145
1.5
146
0.7
147
1.5
176
     4
177
     4
178
     2
271
     2
272
     2
284
     1
285
     1
286
     1
289
     0
340
F
  0
DIMSTYLE
105
101D
330
A
100
AcDbSymbolTableRecord
100
AcDbDimStyleTableRecord
  2
DIM1$2
 70
     0
 41
3.0
 42
1.0
 43
10.0
 44
2.5
 45
0.01
 46
1.25
 77
     1
 78
     1
140
3.0
141
-1.7
143
0.039
145
1.5
147
0.0
176
     4
177
     4
178
     2
179
     2
271
     2
272
     2
279
     2
284
     1
285
     1
286
     1
340
F
  0
DIMSTYLE
105
1025
330
A
100
AcDbSymbolTableRecord
100
AcDbDimStyleTableRecord
  2
DIM1$3
 70
     0
 41
3.0
 42
1.0
 43
10.0
 44
2.5
 45
0.01
 46
1.25
 78
     1
140
3.0
141
-1.7
143
0.039
147
0.0
172
     1
176
     4
177
     4
178
     2
271
     2
272
     2
284
     1
285
     1
286
     1
288
     1
289
     2
340
F
  0
DIMSTYLE
105
1061
330
A
100
AcDbSymbolTableRecord
100
AcDbDimStyleTableRecord
  2
DIM1$7
 70
     0
 41
3.0
 42
1.0
 43
10.0
 44
2.5
 45
0.01
 46
1.25
 73
     0
 74
     0
 78
     1
140
3.0
141
-1.7
143
0.039
147
1.5
176
     4
177
     4
178
     2
271
     2
272
     2
284
     1
285
     1
286
     1
289
     0
340
F
  0
DIMSTYLE
105
10B4
330
A
100
AcDbSymbolTableRecord
100
AcDbDimStyleTableRecord
  2
DIM1$4
 70
     0
 41
3.0
 42
1.0
 43
10.0
 44
2.5
 45
0.01
 46
1.25
 78
     1
140
3.0
141
-1.7
143
0.039
147
1.5
172
     1
176
     4
177
     4
178
     2
271
     2
272
     2
284
     1
285
     1
286
     1
288
     1
289
     0
340
F
  0
DIMSTYLE
105
10F8
330
A
100
AcDbSymbolTableRecord
100
AcDbDimStyleTableRecord
  2
DIM1$6
 70
     0
 41
3.0
 42
1.0
 43
10.0
 44
2.5
 45
0.01
 46
1.25
 73
     0
 74
     0
 78
     1
140
3.0
141
-1.7
143
0.039
147
1.5
176
     4
177
     4
178
     2
271
     2
272
     2
284
     1
285
     1
286
     1
289
     0
340
F
  0
DIMSTYLE
105
1EEC
330
A
100
AcDbSymbolTableRecord
100
AcDbDimStyleTableRecord
  2
TWOPLACES
 70
     0
 41
5.0
 42
2.5
 43
10.0
 44
2.5
 45
0.01
 73
     0
 74
     0
 77
     1
140
3.5
141
3.0
143
0.039
144
0.5
146
0.75
147
1.5
271
     2
340
F
  0
DIMSTYLE
105
21CF
330
A
100
AcDbSymbolTableRecord
100
AcDbDimStyleTableRecord
  2
STANDARD
 70
     0
340
F
  0
ENDTAB
  0
TABLE
  2
BLOCK_RECORD
  5
1
330
0
100
AcDbSymbolTable
 70
     6
  0
BLOCK_RECORD
  5
17
102
{ACAD_XDICTIONARY
360
20BE
102
}
330
1
100
AcDbSymbolTableRecord
100
AcDbBlockTableRecord
  2
*MODEL_SPACE
340
79F5
  0
BLOCK_RECORD
  5
14
330
1
100
AcDbSymbolTableRecord
100
AcDbBlockTableRecord
  2
*PAPER_SPACE
340
79F6
  0
BLOCK_RECORD
  5
7791
330
1
100
AcDbSymbolTableRecord
100
AcDbBlockTableRecord
  2
*D0
340
0
  0
BLOCK_RECORD
  5
78D8
330
1
100
AcDbSymbolTableRecord
100
AcDbBlockTableRecord
  2
*D1
340
0
  0
BLOCK_RECORD
  5
78F2
330
1
100
AcDbSymbolTableRecord
100
AcDbBlockTableRecord
  2
*D2
340
0
  0
BLOCK_RECORD
  5
791B
330
1
100
AcDbSymbolTableRecord
100
AcDbBlockTableRecord
  2
*D3
340
0
  0
BLOCK_RECORD
  5
7928
330
1
100
AcDbSymbolTableRecord
100
AcDbBlockTableRecord
  2
*D4
340
0
  0
BLOCK_RECORD
  5
796E
330
1
100
AcDbSymbolTableRecord
100
AcDbBlockTableRecord
  2
*D5
340
0
  0
ENDTAB
  0
ENDSEC
  0
SECTION
  2
BLOCKS
  0
BLOCK
  5
31
330
17
100
AcDbEntity
  8
0
100
AcDbBlockBegin
  2
*MODEL_SPACE
 70
     0
 10
0.0
 20
0.0
 30
0.0
  3
*MODEL_SPACE
  1

  0
ENDBLK
  5
32
330
17
100
AcDbEntity
  8
0
100
AcDbBlockEnd
  0
BLOCK
  5
2F
330
14
100
AcDbEntity
 67
     1
  8
0
100
AcDbBlockBegin
  2
*PAPER_SPACE
 70
     0
 10
0.0
 20
0.0
 30
0.0
  3
*PAPER_SPACE
  1

  0
ENDBLK
  5
30
330
14
100
AcDbEntity
 67
     1
  8
0
100
AcDbBlockEnd
  0
BLOCK
  5
77C1
330
7791
100
AcDbEntity
  8
0
100
AcDbBlockBegin
  2
*D0
 70
     1
 10
0.0
 20
0.0
 30
0.0
  3
*D0
  1

  0
LINE
  5
79F9
330
7791
100
AcDbEntity
  8
DIMS
 62
     4
370
    -2
100
AcDbLine
 10
634.9833765754189
 20
392.2077421121926
 30
0.0
 11
672.4399971282817
 21
392.2077421121926
 31
0.0
  0
LINE
  5
79FA
330
7791
100
AcDbEntity
  8
DIMS
 62
     4
370
    -2
100
AcDbLine
 10
634.9833765754189
 20
426.2077421121927
 30
0.0
 11
672.4399971282817
 21
426.2077421121926
 31
0.0
  0
LINE
  5
79FB
330
7791
100
AcDbEntity
  8
DIMS
 62
     4
370
    -2
100
AcDbLine
 10
669.9399971282818
 20
395.2077421121926
 30
0.0
 11
669.9399971282818
 21
423.2077421121926
 31
0.0
  0
SOLID
  5
79FC
330
7791
100
AcDbEntity
  8
DIMS
 62
     4
100
AcDbTrace
 10
669.4399971282818
 20
395.2077421121926
 30
0.0
 11
670.4399971282818
 21
395.2077421121926
 31
0.0
 12
669.9399971282818
 22
392.2077421121926
 32
0.0
 13
669.9399971282818
 23
392.2077421121926
 33
0.0
  0
SOLID
  5
79FD
330
7791
100
AcDbEntity
  8
DIMS
 62
     4
100
AcDbTrace
 10
669.4399971282818
 20
423.2077421121926
 30
0.0
 11
670.4399971282818
 21
423.2077421121926
 31
0.0
 12
669.9399971282818
 22
426.2077421121926
 32
0.0
 13
669.9399971282818
 23
426.2077421121926
 33
0.0
  0
MTEXT
  5
79FE
330
7791
100
AcDbEntity
  8
DIMS
 62
     2
100
AcDbMText
 10
666.9399971282817
 20
404.4690727446861
 30
0.0
 40
3.0
 41
0.0
 71
     5
 72
     1
  1
\A1;%%c34.00
 11
0.0000000000000001
 21
1.0
 31
0.0
 73
     1
 44
1.0
  0
POINT
  5
79FF
330
7791
100
AcDbEntity
  8
DEFPOINTS
 62
     0
100
AcDbPoint
 10
633.9833765754189
 20
392.2077421121926
 30
0.0
  0
POINT
  5
7A00
330
7791
100
AcDbEntity
  8
DEFPOINTS
 62
     0
100
AcDbPoint
 10
633.9833765754189
 20
426.2077421121927
 30
0.0
  0
POINT
  5
7A01
330
7791
100
AcDbEntity
  8
DEFPOINTS
 62
     0
100
AcDbPoint
 10
669.9399971282818
 20
426.2077421121926
 30
0.0
  0
ENDBLK
  5
77CB
330
7791
100
AcDbEntity
  8
0
100
AcDbBlockEnd
  0
BLOCK
  5
78E6
330
78D8
100
AcDbEntity
  8
0
100
AcDbBlockBegin
  2
*D1
 70
     1
 10
0.0
 20
0.0
 30
0.0
  3
*D1
  1

  0
LINE
  5
7A02
330
78D8
100
AcDbEntity
  8
DIMS
 62
     4
370
    -2
100
AcDbLine
 10
578.4833765754187
 20
431.1928457658632
 30
0.0
 11
578.4833765754187
 21
448.5539078986677
 31
0.0
  0
LINE
  5
7A03
330
78D8
100
AcDbEntity
  8
DIMS
 62
     4
370
    -2
100
AcDbLine
 10
580.4833765754189
 20
415.2077421121928
 30
0.0
 11
580.4833765754189
 21
448.5539078986677
 31
0.0
  0
LINE
  5
7A04
330
78D8
100
AcDbEntity
  8
DIMS
 62
     4
370
    -2
100
AcDbLine
 10
575.4833765754187
 20
446.0539078986677
 30
0.0
 11
572.4833765754188
 21
446.0539078986677
 31
0.0
  0
LINE
  5
7A05
330
78D8
100
AcDbEntity
  8
DIMS
 62
     4
370
    -2
100
AcDbLine
 10
583.4833765754189
 20
446.0539078986677
 30
0.0
 11
607.3405194325617
 21
446.0539078986677
 31
0.0
  0
SOLID
  5
7A06
330
78D8
100
AcDbEntity
  8
DIMS
 62
     4
100
AcDbTrace
 10
575.4833765754187
 20
446.5539078986678
 30
0.0
 11
575.4833765754187
 21
445.5539078986677
 31
0.0
 12
578.4833765754187
 22
446.0539078986677
 32
0.0
 13
578.4833765754187
 23
446.0539078986677
 33
0.0
  0
SOLID
  5
7A07
330
78D8
100
AcDbEntity
  8
DIMS
 62
     4
100
AcDbTrace
 10
583.4833765754189
 20
446.5539078986678
 30
0.0
 11
583.4833765754189
 21
445.5539078986677
 31
0.0
 12
580.4833765754189
 22
446.0539078986677
 32
0.0
 13
580.4833765754189
 23
446.0539078986677
 33
0.0
  0
MTEXT
  5
7A08
330
78D8
100
AcDbEntity
  8
DIMS
 62
     2
100
AcDbMText
 10
596.9119480039903
 20
449.0539078986677
 30
0.0
 40
3.0
 41
0.0
 71
     5
 72
     1
  1
\A1;2.0 MIN.
 73
     1
 44
1.0
  0
POINT
  5
7A09
330
78D8
100
AcDbEntity
  8
DEFPOINTS
 62
     0
100
AcDbPoint
 10
578.4833765754187
 20
430.1928457658632
 30
0.0
  0
POINT
  5
7A0A
330
78D8
100
AcDbEntity
  8
DEFPOINTS
 62
     0
100
AcDbPoint
 10
580.4833765754189
 20
414.2077421121928
 30
0.0
  0
POINT
  5
7A0B
330
78D8
100
AcDbEntity
  8
DEFPOINTS
 62
     0
100
AcDbPoint
 10
580.4833765754189
 20
446.0539078986677
 30
0.0
  0
ENDBLK
  5
78F1
330
78D8
100
AcDbEntity
  8
0
100
AcDbBlockEnd
  0
BLOCK
  5
79A0
330
78F2
100
AcDbEntity
  8
0
100
AcDbBlockBegin
  2
*D2
 70
     1
 10
0.0
 20
0.0
 30
0.0
  3
*D2
  1

  0
LINE
  5
7A0C
330
78F2
100
AcDbEntity
  8
DIMS
 62
     4
370
    -2
100
AcDbLine
 10
577.4833765754189
 20
414.2077421121927
 30
0.0
 11
552.9704151972031
 21
414.2077421121927
 31
0.0
  0
LINE
  5
7A0D
330
78F2
100
AcDbEntity
  8
DIMS
 62
     4
370
    -2
100
AcDbLine
 10
577.4833765754189
 20
404.2077421121927
 30
0.0
 11
552.9704151972031
 21
404.2077421121927
 31
0.0
  0
LINE
  5
7A0E
330
78F2
100
AcDbEntity
  8
DIMS
 62
     4
370
    -2
100
AcDbLine
 10
555.4704151972031
 20
417.2077421121927
 30
0.0
 11
555.4704151972031
 21
420.2077421121926
 31
0.0
  0
LINE
  5
7A0F
330
78F2
100
AcDbEntity
  8
DIMS
 62
     4
370
    -2
100
AcDbLine
 10
555.4704151972031
 20
401.2077421121928
 30
0.0
 11
555.4704151972031
 21
372.9742796019458
 31
0.0
  0
SOLID
  5
7A10
330
78F2
100
AcDbEntity
  8
DIMS
 62
     4
100
AcDbTrace
 10
554.9704151972031
 20
417.2077421121927
 30
0.0
 11
555.9704151972031
 21
417.2077421121927
 31
0.0
 12
555.4704151972031
 22
414.2077421121927
 32
0.0
 13
555.4704151972031
 23
414.2077421121927
 33
0.0
  0
SOLID
  5
7A11
330
78F2
100
AcDbEntity
  8
DIMS
 62
     4
100
AcDbTrace
 10
554.9704151972031
 20
401.2077421121928
 30
0.0
 11
555.9704151972031
 21
401.2077421121928
 31
0.0
 12
555.4704151972031
 22
404.2077421121927
 32
0.0
 13
555.4704151972031
 23
404.2077421121927
 33
0.0
  0
MTEXT
  5
7A12
330
78F2
100
AcDbEntity
  8
DIMS
 62
     2
100
AcDbMText
 10
552.470415197203
 20
380.1885653162316
 30
0.0
 40
3.0
 41
0.0
 71
     5
 72
     1
  1
\A1;10.00
 11
0.0000000000000001
 21
1.0
 31
0.0
 73
     1
 44
1.0
  0
POINT
  5
7A13
330
78F2
100
AcDbEntity
  8
DEFPOINTS
 62
     0
100
AcDbPoint
 10
578.4833765754188
 20
414.2077421121927
 30
0.0
  0
POINT
  5
7A14
330
78F2
100
AcDbEntity
  8
DEFPOINTS
 62
     0
100
AcDbPoint
 10
578.4833765754188
 20
404.2077421121927
 30
0.0
  0
POINT
  5
7A15
330
78F2
100
AcDbEntity
  8
DEFPOINTS
 62
     0
100
AcDbPoint
 10
555.4704151972031
 20
404.2077421121927
 30
0.0
  0
ENDBLK
  5
79AB
330
78F2
100
AcDbEntity
  8
0
100
AcDbBlockEnd
  0
BLOCK
  5
79DD
330
791B
100
AcDbEntity
  8
0
100
AcDbBlockBegin
  2
*D3
 70
     1
 10
0.0
 20
0.0
 30
0.0
  3
*D3
  1

  0
LINE
  5
7A16
330
791B
100
AcDbEntity
  8
DIMS
 62
     4
370
    -2
100
AcDbLine
 10
578.483376575419
 20
387.3650203122227
 30
0.0
 11
578.483376575419
 21
366.821609180589
 31
0.0
  0
LINE
  5
7A17
330
791B
100
AcDbEntity
  8
DIMS
 62
     4
370
    -2
100
AcDbLine
 10
631.4833765754188
 20
391.2077421121927
 30
0.0
 11
631.4833765754188
 21
366.821609180589
 31
0.0
  0
LINE
  5
7A18
330
791B
100
AcDbEntity
  8
DIMS
 62
     4
370
    -2
100
AcDbLine
 10
581.4833765754189
 20
369.321609180589
 30
0.0
 11
628.4833765754187
 21
369.321609180589
 31
0.0
  0
SOLID
  5
7A19
330
791B
100
AcDbEntity
  8
DIMS
 62
     4
100
AcDbTrace
 10
581.4833765754189
 20
369.821609180589
 30
0.0
 11
581.4833765754189
 21
368.821609180589
 31
0.0
 12
578.483376575419
 22
369.321609180589
 32
0.0
 13
578.483376575419
 23
369.321609180589
 33
0.0
  0
SOLID
  5
7A1A
330
791B
100
AcDbEntity
  8
DIMS
 62
     4
100
AcDbTrace
 10
628.4833765754187
 20
369.821609180589
 30
0.0
 11
628.4833765754187
 21
368.821609180589
 31
0.0
 12
631.4833765754188
 22
369.321609180589
 32
0.0
 13
631.4833765754188
 23
369.321609180589
 33
0.0
  0
MTEXT
  5
7A1B
330
791B
100
AcDbEntity
  8
DIMS
 62
     2
100
AcDbMText
 10
604.9833765754189
 20
372.321609180589
 30
0.0
 40
3.0
 41
0.0
 71
     5
 72
     1
  1
\A1;L1=53.00
 73
     1
 44
1.0
  0
POINT
  5
7A1C
330
791B
100
AcDbEntity
  8
DEFPOINTS
 62
     0
100
AcDbPoint
 10
578.483376575419
 20
388.3650203122227
 30
0.0
  0
POINT
  5
7A1D
330
791B
100
AcDbEntity
  8
DEFPOINTS
 62
     0
100
AcDbPoint
 10
631.4833765754188
 20
392.2077421121926
 30
0.0
  0
POINT
  5
7A1E
330
791B
100
AcDbEntity
  8
DEFPOINTS
 62
     0
100
AcDbPoint
 10
631.4833765754188
 20
369.321609180589
 30
0.0
  0
ENDBLK
  5
79E7
330
791B
100
AcDbEntity
  8
0
100
AcDbBlockEnd
  0
BLOCK
  5
79D2
330
7928
100
AcDbEntity
  8
0
100
AcDbBlockBegin
  2
*D4
 70
     1
 10
0.0
 20
0.0
 30
0.0
  3
*D4
  1

  0
LINE
  5
7A1F
330
7928
100
AcDbEntity
  8
DIMS
 62
     4
370
    -2
100
AcDbLine
 10
578.483376575419
 20
387.3650203122227
 30
0.0
 11
578.483376575419
 21
346.821609180589
 31
0.0
  0
LINE
  5
7A20
330
7928
100
AcDbEntity
  8
DIMS
 62
     4
370
    -2
100
AcDbLine
 10
641.4833765754188
 20
377.9661072684997
 30
0.0
 11
641.4833765754188
 21
346.821609180589
 31
0.0
  0
LINE
  5
7A21
330
7928
100
AcDbEntity
  8
DIMS
 62
     4
370
    -2
100
AcDbLine
 10
581.4833765754189
 20
349.321609180589
 30
0.0
 11
638.4833765754189
 21
349.321609180589
 31
0.0
  0
SOLID
  5
7A22
330
7928
100
AcDbEntity
  8
DIMS
 62
     4
100
AcDbTrace
 10
581.4833765754189
 20
349.821609180589
 30
0.0
 11
581.4833765754189
 21
348.821609180589
 31
0.0
 12
578.483376575419
 22
349.321609180589
 32
0.0
 13
578.483376575419
 23
349.321609180589
 33
0.0
  0
SOLID
  5
7A23
330
7928
100
AcDbEntity
  8
DIMS
 62
     4
100
AcDbTrace
 10
638.4833765754189
 20
349.821609180589
 30
0.0
 11
638.4833765754189
 21
348.821609180589
 31
0.0
 12
641.4833765754188
 22
349.321609180589
 32
0.0
 13
641.4833765754188
 23
349.321609180589
 33
0.0
  0
MTEXT
  5
7A24
330
7928
100
AcDbEntity
  8
DIMS
 62
     2
100
AcDbMText
 10
609.983376575419
 20
352.321609180589
 30
0.0
 40
3.0
 41
0.0
 71
     5
 72
     1
  1
\A1;L=63.00
 73
     1
 44
1.0
  0
POINT
  5
7A25
330
7928
100
AcDbEntity
  8
DEFPOINTS
 62
     0
100
AcDbPoint
 10
578.483376575419
 20
388.3650203122227
 30
0.0
  0
POINT
  5
7A26
330
7928
100
AcDbEntity
  8
DEFPOINTS
 62
     0
100
AcDbPoint
 10
641.4833765754188
 20
378.9661072684996
 30
0.0
  0
POINT
  5
7A27
330
7928
100
AcDbEntity
  8
DEFPOINTS
 62
     0
100
AcDbPoint
 10
641.4833765754188
 20
349.321609180589
 30
0.0
  0
ENDBLK
  5
79DC
330
7928
100
AcDbEntity
  8
0
100
AcDbBlockEnd
  0
BLOCK
  5
79C7
330
796E
100
AcDbEntity
  8
0
100
AcDbBlockBegin
  2
*D5
 70
     1
 10
0.0
 20
0.0
 30
0.0
  3
*D5
  1

  0
LINE
  5
7A28
330
796E
100
AcDbEntity
  8
DIMS
 62
     4
370
    -2
100
AcDbLine
 10
641.4833765754188
 20
377.9661072684997
 30
0.0
 11
641.4833765754188
 21
356.694865771649
 31
0.0
  0
LINE
  5
7A29
330
796E
100
AcDbEntity
  8
DIMS
 62
     4
370
    -2
100
AcDbLine
 10
582.483376575419
 20
396.2077421121927
 30
0.0
 11
582.483376575419
 21
356.694865771649
 31
0.0
  0
LINE
  5
7A2A
330
796E
100
AcDbEntity
  8
DIMS
 62
     4
370
    -2
100
AcDbLine
 10
638.4833765754189
 20
359.194865771649
 30
0.0
 11
585.483376575419
 21
359.194865771649
 31
0.0
  0
SOLID
  5
7A2B
330
796E
100
AcDbEntity
  8
DIMS
 62
     4
100
AcDbTrace
 10
638.4833765754189
 20
359.694865771649
 30
0.0
 11
638.4833765754189
 21
358.694865771649
 31
0.0
 12
641.4833765754188
 22
359.194865771649
 32
0.0
 13
641.4833765754188
 23
359.194865771649
 33
0.0
  0
SOLID
  5
7A2C
330
796E
100
AcDbEntity
  8
DIMS
 62
     4
100
AcDbTrace
 10
585.483376575419
 20
359.694865771649
 30
0.0
 11
585.483376575419
 21
358.694865771649
 31
0.0
 12
582.483376575419
 22
359.194865771649
 32
0.0
 13
582.483376575419
 23
359.194865771649
 33
0.0
  0
MTEXT
  5
7A2D
330
796E
100
AcDbEntity
  8
DIMS
 62
     2
100
AcDbMText
 10
611.983376575419
 20
362.194865771649
 30
0.0
 40
3.0
 41
0.0
 71
     5
 72
     1
  1
\A1;N=59.00
 73
     1
 44
1.0
  0
POINT
  5
7A2E
330
796E
100
AcDbEntity
  8
DEFPOINTS
 62
     0
100
AcDbPoint
 10
641.4833765754188
 20
378.9661072684996
 30
0.0
  0
POINT
  5
7A2F
330
796E
100
AcDbEntity
  8
DEFPOINTS
 62
     0
100
AcDbPoint
 10
582.483376575419
 20
397.2077421121927
 30
0.0
  0
POINT
  5
7A30
330
796E
100
AcDbEntity
  8
DEFPOINTS
 62
     0
100
AcDbPoint
 10
582.483376575419
 20
359.194865771649
 30
0.0
  0
ENDBLK
  5
79D1
330
796E
100
AcDbEntity
  8
0
100
AcDbBlockEnd
  0
ENDSEC
  0
SECTION
  2
ENTITIES
  0
ACAD_PROXY_ENTITY
  5
6FE3
330
17
100
AcDbEntity
  8
TEXT
100
AcDbProxyEntity
 90
      498
 91
      505
 95
   589845
 70
     0
 92
      140
310
8C000000010000008400000006000000050000007BC451B6A4C28A40460C0A4A50016340C8DD91A59589CCBF8AAEF2C48E3B8B40460C0A4A50016340C8DD91A59589CCBF8BAEF2C48E3B8B40420C0A4A50816340C8DD91A59589CCBF7DC451B6A4C28A40460C0A4A50816340C8DD91A59589CCBF7BC451B6A4C28A40460C0A
310
4A50016340C8DD91A59589CCBF
 93
     1035
310
8A10DE4DA5DB889400F0467D0C67A56900C8DD91A59589CCBF2843BAA8038CD2102A2843BAA8038CD21020000000000000000000000000000000041E64640081209205A7126080F907EF7D5F09FD76BB57FB9FFFFFFFFFFBE7EF7D5F09FD76BB57E000000000001C07FB1FFFFFFFFFFBF7E585C7126080F907E00000000000
310
1C17E2
340
0
360
0
 94
        0
  0
LINE
  5
7634
330
17
100
AcDbEntity
  8
M01
100
AcDbLine
 10
631.4833765754189
 20
397.2077421121927
 30
0.0
 11
584.7833035754189
 21
397.2077421121927
 31
0.0
  0
LINE
  5
7636
330
17
100
AcDbEntity
  8
M01
100
AcDbLine
 10
631.4833765754189
 20
421.2077421121927
 30
0.0
 11
584.7833035754189
 21
421.2077421121927
 31
0.0
  0
LINE
  5
763B
330
17
100
AcDbEntity
  8
M01
100
AcDbLine
 10
584.7833035754189
 20
421.2077421121927
 30
0.0
 11
584.7833035754189
 21
397.2077421121927
 31
0.0
  0
LINE
  5
763C
330
17
100
AcDbEntity
  8
M01
100
AcDbLine
 10
583.4833765754189
 20
420.5705241121927
 30
0.0
 11
583.4833765754189
 21
397.8449381121927
 31
0.0
  0
LINE
  5
7645
330
17
100
AcDbEntity
  8
M01
100
AcDbLine
 10
584.7833035754189
 20
397.8449381121927
 30
0.0
 11
583.4833765754189
 21
397.8449381121927
 31
0.0
  0
LINE
  5
7664
330
17
100
AcDbEntity
  8
M01
100
AcDbLine
 10
584.7833035754189
 20
420.5705241121927
 30
0.0
 11
583.4833765754189
 21
420.5705241121927
 31
0.0
  0
LINE
  5
7665
330
17
100
AcDbEntity
  8
M01
100
AcDbLine
 10
631.4833765754189
 20
409.2077421121927
 30
0.0
 11
631.4833765754189
 21
392.7077421121927
 31
0.0
  0
LINE
  5
7666
330
17
100
AcDbEntity
  8
M01
100
AcDbLine
 10
633.9833765754189
 20
392.2077421121926
 30
0.0
 11
633.9833765754189
 21
409.2077421121927
 31
0.0
  0
LINE
  5
7667
330
17
100
AcDbEntity
  8
M01
100
AcDbLine
 10
639.4833765754189
 20
392.7077421121927
 30
0.0
 11
639.4833765754189
 21
409.2077421121927
 31
0.0
  0
LINE
  5
7668
330
17
100
AcDbEntity
  8
M01
100
AcDbLine
 10
641.4833765754188
 20
425.2077421121927
 30
0.0
 11
641.4833765754188
 21
393.2077421121927
 31
0.0
  0
LINE
  5
7669
330
17
100
AcDbEntity
  8
M01
100
AcDbLine
 10
640.9833765754188
 20
392.7077421121927
 30
0.0
 11
640.9833765754188
 21
425.7077421121927
 31
0.0
  0
LINE
  5
766A
330
17
100
AcDbEntity
  8
M01
100
AcDbLine
 10
631.9833765754188
 20
392.2077421121926
 30
0.0
 11
631.9833765754188
 21
426.2077421121927
 31
0.0
  0
LINE
  5
766B
330
17
100
AcDbEntity
  8
M01
100
AcDbLine
 10
638.3135045754189
 20
394.7077421121927
 30
0.0
 11
638.3135045754189
 21
423.7077421121926
 31
0.0
  0
LINE
  5
766D
330
17
100
AcDbEntity
  8
M01
100
AcDbLine
 10
633.9833765754189
 20
392.2077421121926
 30
0.0
 11
631.9833765754188
 21
392.2077421121926
 31
0.0
  0
LINE
  5
7674
330
17
100
AcDbEntity
  8
M01
100
AcDbLine
 10
631.4833765754189
 20
392.7077421121927
 30
0.0
 11
631.9833765754188
 21
392.2077421121926
 31
0.0
  0
LINE
  5
7676
330
17
100
AcDbEntity
  8
M01
100
AcDbLine
 10
637.9833765754189
 20
394.5171441121927
 30
0.0
 11
637.9833765754189
 21
386.7077421121927
 31
0.0
  0
LINE
  5
7679
330
17
100
AcDbEntity
  8
M01
100
AcDbLine
 10
637.9833765754189
 20
386.7077421121927
 30
0.0
 11
637.4833765754189
 21
386.2077421121927
 31
0.0
  0
LINE
  5
767A
330
17
100
AcDbEntity
  8
M01
100
AcDbLine
 10
634.9833765754189
 20
386.7077421121927
 30
0.0
 11
637.9833765754189
 21
386.7077421121927
 31
0.0
  0
LINE
  5
767C
330
17
100
AcDbEntity
  8
M01
100
AcDbLine
 10
634.9833765754189
 20
386.7077421121927
 30
0.0
 11
635.4833765754189
 21
386.2077421121927
 31
0.0
  0
LINE
  5
767E
330
17
100
AcDbEntity
  8
M01
100
AcDbLine
 10
637.4833765754189
 20
386.2077421121927
 30
0.0
 11
635.4833765754189
 21
386.2077421121927
 31
0.0
  0
ARC
  5
7680
330
17
100
AcDbEntity
  8
M01
100
AcDbCircle
 10
636.9863975754189
 20
392.7798591121927
 30
0.0
 40
2.003029
100
AcDbArc
 50
60.14968899999998
 51
179.850311
  0
LINE
  5
7682
330
17
100
AcDbEntity
  8
M01
100
AcDbLine
 10
634.9833765754189
 20
392.7850931121927
 30
0.0
 11
634.9833765754189
 21
386.7077421121927
 31
0.0
  0
LINE
  5
7684
330
17
100
AcDbEntity
  8
M01
100
AcDbLine
 10
633.9833765754189
 20
392.2077421121926
 30
0.0
 11
634.9833765754189
 21
392.7850931121927
 31
0.0
  0
LINE
  5
7686
330
17
100
AcDbEntity
  8
M01
100
AcDbLine
 10
640.9833765754188
 20
392.7077421121927
 30
0.0
 11
639.4833765754189
 21
392.7077421121927
 31
0.0
  0
LINE
  5
7687
330
17
100
AcDbEntity
  8
M01
100
AcDbLine
 10
641.4833765754188
 20
393.2077421121927
 30
0.0
 11
640.9833765754188
 21
392.7077421121927
 31
0.0
  0
LINE
  5
7688
330
17
100
AcDbEntity
  8
M01
100
AcDbLine
 10
639.4833765754189
 20
394.7077421121927
 30
0.0
 11
638.3135045754189
 21
394.7077421121927
 31
0.0
  0
LINE
  5
7689
330
17
100
AcDbEntity
  8
M01
100
AcDbLine
 10
637.9833765754189
 20
394.5171441121927
 30
0.0
 11
638.3135045754189
 21
394.7077421121927
 31
0.0
  0
LINE
  5
768A
330
17
100
AcDbEntity
  8
M01
100
AcDbLine
 10
633.9833765754189
 20
426.2077421121927
 30
0.0
 11
631.9833765754188
 21
426.2077421121927
 31
0.0
  0
LINE
  5
768D
330
17
100
AcDbEntity
  8
M01
100
AcDbLine
 10
631.4833765754189
 20
425.7077421121927
 30
0.0
 11
631.4833765754189
 21
409.2077421121927
 31
0.0
  0
LINE
  5
7691
330
17
100
AcDbEntity
  8
M01
100
AcDbLine
 10
631.4833765754189
 20
425.7077421121927
 30
0.0
 11
631.9833765754188
 21
426.2077421121927
 31
0.0
  0
LINE
  5
7693
330
17
100
AcDbEntity
  8
M01
100
AcDbLine
 10
633.9833765754189
 20
426.2077421121927
 30
0.0
 11
638.3135045754189
 21
423.7077421121926
 31
0.0
  0
LINE
  5
7694
330
17
100
AcDbEntity
  8
M01
100
AcDbLine
 10
633.9833765754189
 20
426.2077421121927
 30
0.0
 11
633.9833765754189
 21
409.2077421121927
 31
0.0
  0
LINE
  5
7695
330
17
100
AcDbEntity
  8
M01
100
AcDbLine
 10
639.4833765754189
 20
425.7077421121927
 30
0.0
 11
639.4833765754189
 21
409.2077421121927
 31
0.0
  0
LINE
  5
7696
330
17
100
AcDbEntity
  8
M01
100
AcDbLine
 10
639.4833765754189
 20
423.7077421121926
 30
0.0
 11
638.3135045754189
 21
423.7077421121926
 31
0.0
  0
LINE
  5
7699
330
17
100
AcDbEntity
  8
M01
100
AcDbLine
 10
640.9833765754188
 20
425.7077421121927
 30
0.0
 11
639.4833765754189
 21
425.7077421121927
 31
0.0
  0
LINE
  5
769A
330
17
100
AcDbEntity
  8
M01
100
AcDbLine
 10
640.9833765754188
 20
425.7077421121927
 30
0.0
 11
641.4833765754188
 21
425.2077421121927
 31
0.0
  0
LINE
  5
769B
330
17
100
AcDbEntity
  8
CENTRE
 48
0.7
100
AcDbLine
 10
568.3156328939749
 20
409.2077421121927
 30
0.0
 11
659.8003110954587
 21
409.2077421121927
 31
0.0
  0
LINE
  5
769D
330
17
100
AcDbEntity
  8
M04
100
AcDbLine
 10
629.4833765754187
 20
549.2077421121925
 30
0.0
 11
629.483376575419
 21
421.2077421121926
 31
0.0
  0
LINE
  5
769E
330
17
100
AcDbEntity
  8
M01
100
AcDbLine
 10
630.9833765754189
 20
421.2077421121927
 30
0.0
 11
630.983376575419
 21
448.3944672276916
 31
0.0
  0
LINE
  5
769F
330
17
100
AcDbEntity
  8
M01
100
AcDbLine
 10
633.4833765754189
 20
426.2077421121927
 30
0.0
 11
633.4833765754189
 21
448.3944672276916
 31
0.0
  0
ARC
  5
76A1
330
17
100
AcDbEntity
  8
M03
 48
0.7
100
AcDbCircle
 10
654.4833765754189
 20
409.2077421121927
 30
0.0
 40
15.0
100
AcDbArc
 50
150.0735651333857
 51
209.9264348666141
  0
LINE
  5
76A3
330
17
100
AcDbEntity
  8
M03
 48
0.7
100
AcDbLine
 10
581.7333765754189
 20
411.7077421121927
 30
0.0
 11
639.6931771176698
 21
411.7077421121927
 31
0.0
  0
LINE
  5
76A5
330
17
100
AcDbEntity
  8
M03
 48
0.7
100
AcDbLine
 10
581.7333765754189
 20
406.7077421121927
 30
0.0
 11
639.6931771176698
 21
406.7077421121927
 31
0.0
  0
LINE
  5
76AA
330
17
100
AcDbEntity
  8
M01
100
AcDbLine
 10
636.4833765754188
 20
491.2077421121927
 30
0.0
 11
633.983376575419
 21
491.2077421121927
 31
0.0
  0
LINE
  5
76AB
330
17
100
AcDbEntity
  8
M04
100
AcDbLine
 10
582.4833765754188
 20
421.2077421121927
 30
0.0
 11
582.4833765754192
 21
414.2077421121928
 31
0.0
  0
LINE
  5
76AC
330
17
100
AcDbEntity
  8
M04
100
AcDbLine
 10
584.4833765754189
 20
423.2077421121927
 30
0.0
 11
629.483376575419
 21
423.2077421121928
 31
0.0
  0
LINE
  5
76AD
330
17
100
AcDbEntity
  8
M04
100
AcDbLine
 10
584.483376575419
 20
395.2077421121927
 30
0.0
 11
631.4833765754189
 21
395.2077421121927
 31
0.0
  0
ARC
  5
76AE
330
17
100
AcDbEntity
  8
M04
100
AcDbCircle
 10
584.4833765754189
 20
421.2077421121927
 30
0.0
 40
2.0
100
AcDbArc
 50
90.0
 51
180.0
  0
ARC
  5
76AF
330
17
100
AcDbEntity
  8
M04
100
AcDbCircle
 10
584.483376575419
 20
397.2077421121927
 30
0.0
 40
2.0
100
AcDbArc
 50
180.0
 51
270.0
  0
LINE
  5
76B0
330
17
100
AcDbEntity
  8
M04
100
AcDbLine
 10
578.4833765754187
 20
430.1928457658632
 30
0.0
 11
578.483376575419
 21
388.3650203122227
 31
0.0
  0
LINE
  5
76B1
330
17
100
AcDbEntity
  8
M04
100
AcDbLine
 10
582.4833765754188
 20
404.2077421121927
 30
0.0
 11
582.483376575419
 21
397.2077421121927
 31
0.0
  0
LINE
  5
76B3
330
17
100
AcDbEntity
  8
M04
100
AcDbLine
 10
633.9833765754189
 20
392.2077421121926
 30
0.0
 11
633.983376575419
 21
384.2077421121927
 31
0.0
  0
LINE
  5
76B4
330
17
100
AcDbEntity
  8
M04
100
AcDbLine
 10
633.983376575419
 20
384.2077421121927
 30
0.0
 11
641.4833765754187
 21
384.2077421121927
 31
0.0
  0
LINE
  5
76B5
330
17
100
AcDbEntity
  8
M04
100
AcDbLine
 10
641.4833765754188
 20
393.2077421121927
 30
0.0
 11
641.4833765754188
 21
378.9661072684996
 31
0.0
  0
LINE
  5
76B7
330
17
100
AcDbEntity
  8
M04
100
AcDbLine
 10
631.4833765754189
 20
392.7077421121927
 30
0.0
 11
631.4833765754188
 21
392.2077421121926
 31
0.0
  0
LINE
  5
76B8
330
17
100
AcDbEntity
  8
M04
100
AcDbLine
 10
631.9833765754188
 20
392.2077421121926
 30
0.0
 11
631.4833765754188
 21
392.2077421121926
 31
0.0
  0
LINE
  5
76B9
330
17
100
AcDbEntity
  8
M04
100
AcDbLine
 10
641.4833765754188
 20
425.2077421121927
 30
0.0
 11
641.4833765754188
 21
549.2077421121925
 31
0.0
  0
LINE
  5
76BA
330
17
100
AcDbEntity
  8
M04
100
AcDbLine
 10
641.4833765754188
 20
423.2077421121927
 30
0.0
 11
648.4833765754189
 21
423.2077421121927
 31
0.0
  0
LINE
  5
76BB
330
17
100
AcDbEntity
  8
M04
100
AcDbLine
 10
641.4833765754188
 20
395.2077421121927
 30
0.0
 11
648.4833765754189
 21
395.2077421121927
 31
0.0
  0
LINE
  5
76BC
330
17
100
AcDbEntity
  8
M04
100
AcDbLine
 10
648.4833765754189
 20
423.2077421121927
 30
0.0
 11
648.4833765754189
 21
395.2077421121927
 31
0.0
  0
LINE
  5
76BD
330
17
100
AcDbEntity
  8
M04
100
AcDbLine
 10
648.4833765754189
 20
423.2077421121927
 30
0.0
 11
656.4833765754189
 21
427.8265442657097
 31
0.0
  0
LINE
  5
76BF
330
17
100
AcDbEntity
  8
M04
100
AcDbLine
 10
648.4833765754189
 20
395.2077421121927
 30
0.0
 11
656.4833765754189
 21
390.5889399586758
 31
0.0
  0
LINE
  5
76C5
330
17
100
AcDbEntity
  8
M01
100
AcDbLine
 10
639.2333765754191
 20
516.2077421121929
 30
0.0
 11
631.2333765754189
 21
516.2077421121925
 31
0.0
  0
LINE
  5
76C7
330
17
100
AcDbEntity
  8
M01
100
AcDbLine
 10
639.2333765754191
 20
509.2077421121929
 30
0.0
 11
639.2333765754191
 21
516.2077421121929
 31
0.0
  0
LINE
  5
76C8
330
17
100
AcDbEntity
  8
M01
100
AcDbLine
 10
636.4833765754188
 20
491.2077421121927
 30
0.0
 11
638.2333765754189
 21
501.1324852965247
 31
0.0
  0
LINE
  5
76C9
330
17
100
AcDbEntity
  8
M01
100
AcDbLine
 10
631.2333765754189
 20
509.2077421121926
 30
0.0
 11
631.2333765754189
 21
516.2077421121925
 31
0.0
  0
LINE
  5
76CA
330
17
100
AcDbEntity
  8
M01
100
AcDbLine
 10
633.9833765754191
 20
491.2077421121927
 30
0.0
 11
632.2333765754186
 21
501.1324852965254
 31
0.0
  0
LINE
  5
76CB
330
17
100
AcDbEntity
  8
M01
100
AcDbLine
 10
632.2333765754186
 20
501.1324852965254
 30
0.0
 11
632.2333765754187
 21
509.2077421121927
 31
0.0
  0
LINE
  5
76CC
330
17
100
AcDbEntity
  8
M01
100
AcDbLine
 10
638.2333765754189
 20
501.1324852965247
 30
0.0
 11
638.2333765754188
 21
509.2077421121928
 31
0.0
  0
LINE
  5
76CD
330
17
100
AcDbEntity
  8
M01
100
AcDbLine
 10
632.2333765754186
 20
501.1324852965254
 30
0.0
 11
638.2333765754189
 21
501.1324852965247
 31
0.0
  0
LINE
  5
76CE
330
17
100
AcDbEntity
  8
M01
100
AcDbLine
 10
639.2333765754191
 20
509.2077421121929
 30
0.0
 11
631.2333765754189
 21
509.2077421121926
 31
0.0
  0
LINE
  5
76CF
330
17
100
AcDbEntity
  8
M01
100
AcDbLine
 10
633.983376575419
 20
468.9078592275812
 30
0.0
 11
633.983376575419
 21
491.2077421121927
 31
0.0
  0
LINE
  5
76D0
330
17
100
AcDbEntity
  8
M01
100
AcDbLine
 10
636.4833765754188
 20
468.9078592275812
 30
0.0
 11
636.4833765754188
 21
491.2077421121927
 31
0.0
  0
LINE
  5
76D1
330
17
100
AcDbEntity
  8
CENTRE
 48
0.7
100
AcDbLine
 10
635.2333765754188
 20
484.6990083503516
 30
0.0
 11
635.233376575419
 21
547.0603851609264
 31
0.0
  0
ARC
  5
76D5
330
17
100
AcDbEntity
  8
M01
100
AcDbCircle
 10
652.2333765754191
 20
448.3944672276916
 30
0.0
 40
21.25
100
AcDbArc
 50
170.0
 51
180.0
  0
LINE
  5
76D6
330
17
100
AcDbEntity
  8
M01
100
AcDbLine
 10
631.3062118239097
 20
452.0844910031138
 30
0.0
 11
633.6985219443978
 21
465.6519558963264
 31
0.0
  0
ARC
  5
76D7
330
17
100
AcDbEntity
  8
M01
100
AcDbCircle
 10
615.2333765754189
 20
468.9078592275812
 30
0.0
 40
18.75
100
AcDbArc
 50
350.0000000000003
 51
0.0
  0
ARC
  5
76D8
330
17
100
AcDbEntity
  8
M01
100
AcDbCircle
 10
615.2333765754189
 20
468.9078592275812
 30
0.0
 40
21.25
100
AcDbArc
 50
350.0000000000003
 51
0.0
  0
LINE
  5
76D9
330
17
100
AcDbEntity
  8
M01
100
AcDbLine
 10
633.7682312064402
 20
451.6503705589465
 30
0.0
 11
636.1605413269284
 21
465.2178354521591
 31
0.0
  0
ARC
  5
76DA
330
17
100
AcDbEntity
  8
M01
100
AcDbCircle
 10
652.2333765754191
 20
448.3944672276916
 30
0.0
 40
18.75
100
AcDbArc
 50
170.0
 51
180.0
  0
LINE
  5
76DB
330
17
100
AcDbEntity
  8
M01
100
AcDbLine
 10
632.2333765754187
 20
516.2077421121925
 30
0.0
 11
632.2333765754187
 21
542.4235718033469
 31
0.0
  0
LINE
  5
76DD
330
17
100
AcDbEntity
  8
M01
100
AcDbLine
 10
638.2333765754188
 20
516.2077421121928
 30
0.0
 11
638.2333765754188
 21
542.4235718033469
 31
0.0
  0
HATCH
  5
76E6
330
17
100
AcDbEntity
  8
M04
100
AcDbHatch
 10
0.0
 20
0.0
 30
0.0
210
0.0
220
0.0
230
1.0
  2
_U
 70
     0
 71
     0
 91
        2
 92
        7
 72
     0
 73
     1
 93
        4
 10
635.233376575419
 20
542.4235718033469
 10
632.2333765754189
 20
542.423571803347
 10
632.2333765754189
 20
516.2077421121925
 10
635.2333765754188
 20
516.2077421121927
 97
        0
 92
        7
 72
     0
 73
     1
 93
        4
 10
638.2333765754188
 20
542.4235718033469
 10
635.2333765754188
 20
542.4235718033469
 10
635.233376575419
 20
516.2077421121925
 10
638.2333765754188
 20
516.2077421121928
 97
        0
 75
     0
 76
     0
 52
45.0
 41
1.0
 77
     1
 78
     2
 53
45.0
 43
-146.8137618081477
 44
75.32883416800586
 45
-0.7071067811865475
 46
0.7071067811865476
 79
     0
 53
135.0
 43
-146.8137618081477
 44
75.32883416800586
 45
-0.7071067811865476
 46
-0.7071067811865475
 79
     0
 47
0.0843056911458626
 98
        2
 10
634.4067951388215
 20
526.574101817677
 10
637.0212994969029
 20
527.2485468012953
  0
ARC
  5
76EF
330
17
100
AcDbEntity
  8
M03
100
AcDbCircle
 10
581.7333765754189
 20
409.2077421121927
 30
0.0
 40
2.5
100
AcDbArc
 50
90.0
 51
168.4630409671856
  0
LINE
  5
76F0
330
17
100
AcDbEntity
  8
CENTRE
 48
0.7
100
AcDbLine
 10
636.4833765754188
 20
380.966125298301
 30
0.0
 11
636.4833765754188
 21
398.8637378101055
 31
0.0
  0
TEXT
  5
76F1
330
17
100
AcDbEntity
  8
TEXT
100
AcDbText
 10
587.3598941640189
 20
415.3734497655206
 30
0.0
 40
2.0
  1
DS020002
 41
0.9
100
AcDbText
  0
DIMENSION
  5
779D
330
17
100
AcDbEntity
  8
DIMS
100
AcDbDimension
  2
*D0
 10
669.9399971282818
 20
426.2077421121926
 30
0.0
 11
669.9399971282816
 21
404.4690727446861
 31
0.0
 70
   160
  1
%%c<>
 71
     5
 42
34.0
  3
DIM1
100
AcDbAlignedDimension
 13
633.9833765754189
 23
392.2077421121926
 33
0.0
 14
633.9833765754189
 24
426.2077421121927
 34
0.0
 50
90.0
100
AcDbRotatedDimension
1001
ACAD
1000
DSTYLE
1002
{
1070
   144
1040
1.0
1002
}
  0
TEXT
  5
77A9
330
17
100
AcDbEntity
  8
DIMS
 62
     2
100
AcDbText
 10
664.8498778265418
 20
413.720203919692
 30
0.0
 40
2.0
  1
+0.025
 50
90.0
100
AcDbText
  0
TEXT
  5
77AA
330
17
100
AcDbEntity
  8
DIMS
 62
     2
100
AcDbText
 10
667.9347981983625
 20
413.720203919692
 30
0.0
 40
2.0
  1
-0
 50
90.0
100
AcDbText
  0
LINE
  5
77CE
330
17
100
AcDbEntity
  8
CENTRE
100
AcDbLine
 10
515.7387716623138
 20
409.2077421121927
 30
0.0
 11
466.1058629161024
 21
409.2077421121927
 31
0.0
  0
CIRCLE
  5
77E3
330
17
100
AcDbEntity
  8
M04
100
AcDbCircle
 10
578.4833765754188
 20
409.2077421121927
 30
0.0
 40
1.25
  0
LINE
  5
77EF
330
17
100
AcDbEntity
  8
0
  6
ByBlock
 62
     4
100
AcDbLine
 10
576.8553380598929
 20
413.1335529318787
 30
0.0
 11
565.5196236773771
 21
440.4682073318602
 31
0.0
  0
LINE
  5
77F0
330
17
100
AcDbEntity
  8
0
  6
ByBlock
 62
     4
100
AcDbLine
 10
565.5196236773771
 20
440.4682073318602
 30
0.0
 11
562.5196236773772
 21
440.4682073318602
 31
0.0
  0
SOLID
  5
77F2
330
17
100
AcDbEntity
  8
0
  6
ByBlock
 62
     4
100
AcDbTrace
 10
577.3171981563267
 20
413.3250868748818
 30
0.0
 11
576.3934779634594
 21
412.9420189888758
 31
0.0
 12
578.0045417179112
 22
410.3623923532768
 32
0.0
 13
578.0045417179112
 23
410.3623923532768
 33
0.0
  0
MTEXT
  5
77F3
330
17
100
AcDbEntity
  8
0
  6
ByBlock
 62
     2
100
AcDbMText
 10
545.5386705173482
 20
440.46820733186
 30
0.0
 40
3.0
 41
0.0
 71
     5
 72
     1
  1
INSERT POINT
 73
     1
 44
1.0
  0
POINT
  5
77F4
330
17
100
AcDbEntity
  8
DEFPOINTS
  6
ByBlock
 62
     0
100
AcDbPoint
 10
578.0045417179112
 20
410.3623923532768
 30
0.0
  0
CIRCLE
  5
77FC
330
17
100
AcDbEntity
  8
M01
100
AcDbCircle
 10
490.9223172892081
 20
409.2077421121927
 30
0.0
 40
11.36278199999998
  0
CIRCLE
  5
77FD
330
17
100
AcDbEntity
  8
M01
100
AcDbCircle
 10
490.9223172892081
 20
409.2077421121927
 30
0.0
 40
12.0
  0
CIRCLE
  5
77FE
330
17
100
AcDbEntity
  8
M04
100
AcDbCircle
 10
490.9223172892081
 20
409.2077421121927
 30
0.0
 40
14.0
  0
CIRCLE
  5
77FF
330
17
100
AcDbEntity
  8
M01
100
AcDbCircle
 10
490.9223172892081
 20
409.2077421121927
 30
0.0
 40
16.99999999999994
  0
LINE
  5
7820
330
17
100
AcDbEntity
  8
M04
100
AcDbLine
 10
498.9223172892081
 20
549.2077421121926
 30
0.0
 11
498.9223172892081
 21
424.2077421121926
 31
0.0
  0
LINE
  5
7821
330
17
100
AcDbEntity
  8
M04
100
AcDbLine
 10
482.922317289208
 20
549.2077421121926
 30
0.0
 11
482.9223172892081
 21
424.2077421121926
 31
0.0
  0
LINE
  5
7822
330
17
100
AcDbEntity
  8
M01
100
AcDbLine
 10
492.4223172892081
 20
392.2740478903167
 30
0.0
 11
492.4223172892081
 21
386.7077421121927
 31
0.0
  0
LINE
  5
7823
330
17
100
AcDbEntity
  8
M01
100
AcDbLine
 10
492.4223172892081
 20
386.7077421121927
 30
0.0
 11
491.9223172892081
 21
386.2077421121927
 31
0.0
  0
LINE
  5
7824
330
17
100
AcDbEntity
  8
M01
100
AcDbLine
 10
489.4223172892081
 20
386.7077421121927
 30
0.0
 11
492.4223172892081
 21
386.7077421121927
 31
0.0
  0
LINE
  5
7825
330
17
100
AcDbEntity
  8
M01
100
AcDbLine
 10
489.4223172892081
 20
386.7077421121927
 30
0.0
 11
489.9223172892081
 21
386.2077421121927
 31
0.0
  0
LINE
  5
7826
330
17
100
AcDbEntity
  8
M01
100
AcDbLine
 10
491.9223172892081
 20
386.2077421121927
 30
0.0
 11
489.9223172892081
 21
386.2077421121927
 31
0.0
  0
LINE
  5
7827
330
17
100
AcDbEntity
  8
M01
100
AcDbLine
 10
489.4223172892081
 20
392.2740478903167
 30
0.0
 11
489.4223172892081
 21
386.7077421121927
 31
0.0
  0
LINE
  5
7829
330
17
100
AcDbEntity
  8
M04
100
AcDbLine
 10
489.4223172892081
 20
386.7077421121927
 30
0.0
 11
489.4223172892082
 21
385.7077421121927
 31
0.0
  0
LINE
  5
782A
330
17
100
AcDbEntity
  8
M04
100
AcDbLine
 10
492.4223172892081
 20
386.7077421121927
 30
0.0
 11
492.4223172892081
 21
385.7077421121927
 31
0.0
  0
ARC
  5
782C
330
17
100
AcDbEntity
  8
M04
100
AcDbCircle
 10
490.9223172892081
 20
385.7077421121927
 30
0.0
 40
1.5
100
AcDbArc
 50
180.0
 51
0.0
  0
LINE
  5
7841
330
17
100
AcDbEntity
  8
M01
100
AcDbLine
 10
488.672317289208
 20
491.2077421121927
 30
0.0
 11
486.1723172892081
 21
491.2077421121927
 31
0.0
  0
LINE
  5
7842
330
17
100
AcDbEntity
  8
M01
100
AcDbLine
 10
491.4223172892082
 20
516.2077421121929
 30
0.0
 11
483.4223172892079
 21
516.2077421121925
 31
0.0
  0
LINE
  5
7843
330
17
100
AcDbEntity
  8
M01
100
AcDbLine
 10
491.4223172892082
 20
509.2077421121929
 30
0.0
 11
491.4223172892082
 21
516.2077421121929
 31
0.0
  0
LINE
  5
7844
330
17
100
AcDbEntity
  8
M01
100
AcDbLine
 10
488.672317289208
 20
491.2077421121927
 30
0.0
 11
490.4223172892081
 21
501.1324852965247
 31
0.0
  0
LINE
  5
7845
330
17
100
AcDbEntity
  8
M01
100
AcDbLine
 10
483.4223172892079
 20
509.2077421121926
 30
0.0
 11
483.4223172892079
 21
516.2077421121925
 31
0.0
  0
LINE
  5
7846
330
17
100
AcDbEntity
  8
M01
100
AcDbLine
 10
486.1723172892082
 20
491.2077421121927
 30
0.0
 11
484.4223172892077
 21
501.1324852965254
 31
0.0
  0
LINE
  5
7847
330
17
100
AcDbEntity
  8
M01
100
AcDbLine
 10
484.4223172892077
 20
501.1324852965254
 30
0.0
 11
484.4223172892078
 21
509.2077421121927
 31
0.0
  0
LINE
  5
7848
330
17
100
AcDbEntity
  8
M01
100
AcDbLine
 10
490.4223172892081
 20
501.1324852965247
 30
0.0
 11
490.422317289208
 21
509.2077421121928
 31
0.0
  0
LINE
  5
7849
330
17
100
AcDbEntity
  8
M01
100
AcDbLine
 10
484.4223172892077
 20
501.1324852965254
 30
0.0
 11
490.4223172892081
 21
501.1324852965247
 31
0.0
  0
LINE
  5
784A
330
17
100
AcDbEntity
  8
M01
100
AcDbLine
 10
491.4223172892082
 20
509.2077421121929
 30
0.0
 11
483.4223172892079
 21
509.2077421121926
 31
0.0
  0
LINE
  5
784B
330
17
100
AcDbEntity
  8
M01
100
AcDbLine
 10
486.172317289208
 20
425.5306554550981
 30
0.0
 11
486.1723172892081
 21
491.2077421121927
 31
0.0
  0
LINE
  5
784C
330
17
100
AcDbEntity
  8
M01
100
AcDbLine
 10
488.6723172892081
 20
426.0581872101715
 30
0.0
 11
488.672317289208
 21
491.2077421121927
 31
0.0
  0
LINE
  5
784D
330
17
100
AcDbEntity
  8
CENTRE
 48
0.7
100
AcDbLine
 10
487.4223172892079
 20
484.6069879482461
 30
0.0
 11
487.4223172892081
 21
547.0603851609264
 31
0.0
  0
LINE
  5
784E
330
17
100
AcDbEntity
  8
M01
100
AcDbLine
 10
484.4223172892078
 20
516.2077421121925
 30
0.0
 11
484.4223172892078
 21
542.4235718033469
 31
0.0
  0
LINE
  5
784F
330
17
100
AcDbEntity
  8
M01
100
AcDbLine
 10
490.4223172892079
 20
516.2077421121928
 30
0.0
 11
490.4223172892079
 21
542.4235718033469
 31
0.0
  0
HATCH
  5
7850
330
17
100
AcDbEntity
  8
M04
100
AcDbHatch
 10
0.0
 20
0.0
 30
0.0
210
0.0
220
0.0
230
1.0
  2
_U
 70
     0
 71
     0
 91
        2
 92
        7
 72
     0
 73
     1
 93
        4
 10
487.4223172892081
 20
542.4235718033469
 10
484.422317289208
 20
542.423571803347
 10
484.422317289208
 20
516.2077421121925
 10
487.4223172892079
 20
516.2077421121927
 97
        0
 92
        7
 72
     0
 73
     1
 93
        4
 10
490.4223172892079
 20
542.4235718033469
 10
487.4223172892079
 20
542.4235718033469
 10
487.4223172892081
 20
516.2077421121925
 10
490.4223172892079
 20
516.2077421121928
 97
        0
 75
     0
 76
     0
 52
45.0
 41
1.0
 77
     1
 78
     2
 53
45.0
 43
-294.6248210943586
 44
75.32883416800586
 45
-0.7071067811865475
 46
0.7071067811865476
 79
     0
 53
135.0
 43
-294.6248210943586
 44
75.32883416800586
 45
-0.7071067811865476
 46
-0.7071067811865475
 79
     0
 47
0.0843056911458626
 98
        2
 10
486.5957358526106
 20
526.574101817677
 10
489.210240210692
 20
527.2485468012953
  0
LINE
  5
7851
330
17
100
AcDbEntity
  8
CENTRE
 48
0.7
100
AcDbLine
 10
490.9223172892079
 20
379.2077421121927
 30
0.0
 11
490.9223172892079
 21
439.2077421121928
 31
0.0
  0
LINE
  5
7854
330
17
100
AcDbEntity
  8
M01
 48
0.7
100
AcDbLine
 10
491.9223172892078
 20
426.1783048606698
 30
0.0
 11
491.9223172892078
 21
437.1062065647089
 31
0.0
  0
LINE
  5
7855
330
17
100
AcDbEntity
  8
M01
 48
0.7
100
AcDbLine
 10
489.9223172892079
 20
426.1783048606698
 30
0.0
 11
489.9223172892079
 21
437.1062065647089
 31
0.0
  0
LINE
  5
7858
330
17
100
AcDbEntity
  8
M01
 48
0.7
100
AcDbLine
 10
496.3989047114204
 20
465.9937419672691
 30
0.0
 11
496.3989047114203
 21
484.2077421121927
 31
0.0
  0
LINE
  5
7859
330
17
100
AcDbEntity
  8
M01
 48
0.7
100
AcDbLine
 10
494.3989047114206
 20
465.9937419672695
 30
0.0
 11
494.3989047114205
 21
484.2077421121928
 31
0.0
  0
LINE
  5
785A
330
17
100
AcDbEntity
  8
CENTRE
100
AcDbLine
 10
495.3989047114204
 20
481.5465999379028
 30
0.0
 11
495.3989047114204
 21
542.7586530885361
 31
0.0
  0
ARC
  5
785D
330
17
100
AcDbEntity
  8
M01
100
AcDbCircle
 10
510.9223172892079
 20
437.1062065647089
 30
0.0
 40
21.0
100
AcDbArc
 50
169.9999999999999
 51
180.0
  0
LINE
  5
785E
330
17
100
AcDbEntity
  8
M01
100
AcDbLine
 10
494.1102520186525
 20
462.6944265915979
 30
0.0
 11
490.2413544759515
 21
440.7528182957144
 31
0.0
  0
ARC
  5
7860
330
17
100
AcDbEntity
  8
M01
100
AcDbCircle
 10
510.9223172892079
 20
437.1062065647089
 30
0.0
 40
19.0
100
AcDbArc
 50
169.9999999999999
 51
180.0
  0
LINE
  5
7861
330
17
100
AcDbEntity
  8
M01
100
AcDbLine
 10
496.0798675246768
 20
462.3471302362633
 30
0.0
 11
492.2109699819759
 21
440.4055219403806
 31
0.0
  0
LINE
  5
7863
330
17
100
AcDbEntity
  8
M01
100
AcDbLine
 10
497.1489047114205
 20
484.2077421121927
 30
0.0
 11
493.6489047114206
 21
484.2077421121929
 31
0.0
  0
LINE
  5
7864
330
17
100
AcDbEntity
  8
M01
100
AcDbLine
 10
497.6489047114204
 20
514.2077421121928
 30
0.0
 11
493.1489047114207
 21
514.2077421121928
 31
0.0
  0
LINE
  5
7865
330
17
100
AcDbEntity
  8
M01
100
AcDbLine
 10
497.6489047114205
 20
489.2077421121927
 30
0.0
 11
493.1489047114206
 21
489.2077421121928
 31
0.0
  0
LINE
  5
7866
330
17
100
AcDbEntity
  8
M01
 48
0.7
100
AcDbLine
 10
493.6489047114206
 20
484.2077421121929
 30
0.0
 11
493.6489047114206
 21
489.2077421121928
 31
0.0
  0
LINE
  5
7867
330
17
100
AcDbEntity
  8
M01
 48
0.7
100
AcDbLine
 10
497.1489047114205
 20
484.2077421121927
 30
0.0
 11
497.1489047114205
 21
489.2077421121927
 31
0.0
  0
LINE
  5
7868
330
17
100
AcDbEntity
  8
M01
100
AcDbLine
 10
497.6489047114204
 20
509.2077421121927
 30
0.0
 11
493.1489047114206
 21
509.2077421121929
 31
0.0
  0
LINE
  5
7869
330
17
100
AcDbEntity
  8
M01
 48
0.7
100
AcDbLine
 10
497.6489047114205
 20
489.2077421121927
 30
0.0
 11
497.6489047114204
 21
514.2077421121928
 31
0.0
  0
LINE
  5
786A
330
17
100
AcDbEntity
  8
M01
 48
0.7
100
AcDbLine
 10
493.1489047114206
 20
489.2077421121928
 30
0.0
 11
493.1489047114207
 21
514.2077421121928
 31
0.0
  0
LINE
  5
786B
330
17
100
AcDbEntity
  8
M01
100
AcDbLine
 10
493.6489047114206
 20
514.2077421121927
 30
0.0
 11
493.6489047114206
 21
538.717277700464
 31
0.0
  0
LINE
  5
786D
330
17
100
AcDbEntity
  8
M01
100
AcDbLine
 10
497.1489047114205
 20
514.2077421121928
 30
0.0
 11
497.1489047114205
 21
538.717277700464
 31
0.0
  0
HATCH
  5
7876
330
17
100
AcDbEntity
  8
M04
100
AcDbHatch
 10
0.0
 20
0.0
 30
0.0
210
0.0
220
0.0
230
1.0
  2
_U
 70
     0
 71
     0
 91
        2
 92
        7
 72
     0
 73
     1
 93
        4
 10
495.3989047114204
 20
538.717277700464
 10
493.6489047114206
 20
538.717277700464
 10
493.6489047114206
 20
514.2077421121928
 10
495.3989047114204
 20
514.2077421121928
 97
        0
 92
        7
 72
     0
 73
     1
 93
        4
 10
497.1489047114205
 20
538.717277700464
 10
495.3989047114204
 20
538.717277700464
 10
495.3989047114204
 20
514.2077421121928
 10
497.1489047114205
 20
514.2077421121928
 97
        0
 75
     0
 76
     0
 52
45.0
 41
0.75
 77
     1
 78
     2
 53
45.0
 43
579.9599639976314
 44
409.2077421121927
 45
-0.5303300858899106
 46
0.5303300858899107
 79
     0
 53
135.0
 43
579.9599639976314
 44
409.2077421121927
 45
-0.5303300858899107
 46
-0.5303300858899106
 79
     0
 47
0.0985701327119849
 98
        2
 10
494.4684416393269
 20
517.7218388240937
 10
496.1447912069767
 20
518.2146895953277
  0
ARC
  5
7877
330
17
100
AcDbEntity
  8
M01
 48
0.7
100
AcDbCircle
 10
475.3989047114204
 20
465.9937419672689
 30
0.0
 40
21.0
100
AcDbArc
 50
349.9999999999998
 51
0.0000000000004834
  0
ARC
  5
7878
330
17
100
AcDbEntity
  8
M01
 48
0.7
100
AcDbCircle
 10
475.3989047114205
 20
465.9937419672696
 30
0.0
 40
19.0
100
AcDbArc
 50
349.9999999999998
 51
359.9999999999997
  0
TEXT
  5
787E
330
17
100
AcDbEntity
  8
TEXT
100
AcDbText
 10
396.0487417630144
 20
329.3229346827877
 30
0.0
 40
4.0
  1
%%UNOTE
100
AcDbText
  0
TEXT
  5
787F
330
17
100
AcDbEntity
  8
TEXT
100
AcDbText
 10
376.4754399465047
 20
320.8828644427081
 30
0.0
 40
3.0
  1
1. AN ALLOWANCE FOR EXPANSION OF THE BUSHING MUST BE MADE DEPENDENT ON THE
100
AcDbText
  0
TEXT
  5
7882
330
17
100
AcDbEntity
  8
TEXT
100
AcDbText
 10
382.9428501849605
 20
315.5724345092365
 30
0.0
 40
3.0
  1
MATERIAL TO BE MOULDED AND THE PROCESS CONDITIONS - SEE CATALOGUE FOR DETAILS
100
AcDbText
  0
TEXT
  5
78CA
330
17
100
AcDbEntity
  8
TEXT
100
AcDbText
 10
588.3376687042179
 20
401.5270873395308
 30
0.0
 40
2.0
  1
TYPE 1
 41
0.9
100
AcDbText
  0
LINE
  5
78CB
330
17
100
AcDbEntity
  8
M01
 48
0.7
100
AcDbLine
 10
578.4833765754187
 20
414.2077421121927
 30
0.0
 11
583.4833765754189
 21
414.2077421121928
 31
0.0
  0
LINE
  5
78CD
330
17
100
AcDbEntity
  8
M01
 48
0.7
100
AcDbLine
 10
578.4833765754188
 20
404.2077421121927
 30
0.0
 11
583.4833765754189
 21
404.2077421121927
 31
0.0
  0
LINE
  5
78CE
330
17
100
AcDbEntity
  8
M04
100
AcDbLine
 10
582.4833765754191
 20
416.207742112193
 30
0.0
 11
580.4833765754189
 21
414.2077421121928
 31
0.0
  0
LINE
  5
78CF
330
17
100
AcDbEntity
  8
M04
100
AcDbLine
 10
582.4833765754191
 20
402.2077421121925
 30
0.0
 11
580.4833765754189
 21
404.2077421121927
 31
0.0
  0
LINE
  5
78D1
330
17
100
AcDbEntity
  8
M03
 48
0.7
100
AcDbLine
 10
578.483376575419
 20
410.1699169246859
 30
0.0
 11
579.2838868326357
 21
409.7077421121927
 31
0.0
  0
LINE
  5
78D2
330
17
100
AcDbEntity
  8
M03
 48
0.7
100
AcDbLine
 10
578.483376575419
 20
408.2455672996996
 30
0.0
 11
579.2838868326357
 21
408.7077421121928
 31
0.0
  0
ARC
  5
78D3
330
17
100
AcDbEntity
  8
M03
100
AcDbCircle
 10
581.7333765754189
 20
409.2077421121927
 30
0.0
 40
2.5
100
AcDbArc
 50
191.5369590328143
 51
270.0
  0
LINE
  5
78D4
330
17
100
AcDbEntity
  8
M03
100
AcDbLine
 10
579.2838868326357
 20
408.7077421121928
 30
0.0
 11
579.2838868326357
 21
409.7077421121927
 31
0.0
  0
LINE
  5
78D5
330
17
100
AcDbEntity
  8
M03
 48
0.7
100
AcDbLine
 10
577.9833765754188
 20
414.7077421121927
 30
0.0
 11
578.4833765754188
 21
414.7077421121927
 31
0.0
  0
LINE
  5
78D6
330
17
100
AcDbEntity
  8
M03
 48
0.7
100
AcDbLine
 10
577.9833765754189
 20
403.7077421121927
 30
0.0
 11
578.4833765754188
 21
403.7077421121927
 31
0.0
  0
LINE
  5
78D7
330
17
100
AcDbEntity
  8
M03
100
AcDbLine
 10
577.9833765754188
 20
414.7077421121927
 30
0.0
 11
577.9833765754189
 21
403.7077421121927
 31
0.0
  0
DIMENSION
  5
78E5
330
17
100
AcDbEntity
  8
DIMS
100
AcDbDimension
  2
*D1
 10
580.4833765754189
 20
446.0539078986677
 30
0.0
 11
596.9119480039903
 21
449.0539078986677
 31
0.0
 70
    32
  1
2.0 MIN.
 71
     5
 42
2.000000000000113
  3
DIM1
100
AcDbAlignedDimension
 13
578.4833765754187
 23
430.1928457658632
 33
0.0
 14
580.4833765754189
 24
414.2077421121928
 34
0.0
100
AcDbRotatedDimension
1001
ACAD
1000
DSTYLE
1002
{
1070
   144
1040
1.0
1002
}
  0
DIMENSION
  5
78FF
330
17
100
AcDbEntity
  8
DIMS
100
AcDbDimension
  2
*D2
 10
555.4704151972031
 20
404.2077421121927
 30
0.0
 11
555.470415197203
 21
380.1885653162316
 31
0.0
 70
   160
 71
     5
 42
9.999999999999943
  3
DIM1
100
AcDbAlignedDimension
 13
578.4833765754188
 23
414.2077421121927
 33
0.0
 14
578.4833765754188
 24
404.2077421121927
 34
0.0
 50
90.0
100
AcDbRotatedDimension
1001
ACAD
1000
DSTYLE
1002
{
1070
   144
1040
1.0
1002
}
  0
TEXT
  5
790C
330
17
100
AcDbEntity
  8
DIMS
 62
     2
100
AcDbText
 10
550.3300221741321
 20
388.5546729067801
 30
0.0
 40
2.0
  1
+0.015
 50
90.0
100
AcDbText
  0
TEXT
  5
790D
330
17
100
AcDbEntity
  8
DIMS
 62
     2
100
AcDbText
 10
553.414942545953
 20
388.5546729067801
 30
0.0
 40
2.0
  1
-0
 50
90.0
100
AcDbText
  0
DIMENSION
  5
7927
330
17
100
AcDbEntity
  8
DIMS
100
AcDbDimension
  2
*D3
 10
631.4833765754188
 20
369.321609180589
 30
0.0
 11
604.9833765754189
 21
372.321609180589
 31
0.0
 70
    32
  1
L1=<>
 71
     5
 42
52.99999999999977
  3
DIM1
100
AcDbAlignedDimension
 13
578.483376575419
 23
388.3650203122227
 33
0.0
 14
631.4833765754188
 24
392.2077421121926
 34
0.0
100
AcDbRotatedDimension
1001
ACAD
1000
DSTYLE
1002
{
1070
   144
1040
1.0
1002
}
  0
DIMENSION
  5
7934
330
17
100
AcDbEntity
  8
DIMS
100
AcDbDimension
  2
*D4
 10
641.4833765754188
 20
349.321609180589
 30
0.0
 11
609.983376575419
 21
352.321609180589
 31
0.0
 70
    32
  1
L=<>
 71
     5
 42
62.99999999999989
  3
DIM1
100
AcDbAlignedDimension
 13
578.483376575419
 23
388.3650203122227
 33
0.0
 14
641.4833765754188
 24
378.9661072684996
 34
0.0
100
AcDbRotatedDimension
1001
ACAD
1000
DSTYLE
1002
{
1070
   144
1040
1.0
1002
}
  0
DIMENSION
  5
797A
330
17
100
AcDbEntity
  8
DIMS
100
AcDbDimension
  2
*D5
 10
582.483376575419
 20
359.194865771649
 30
0.0
 11
611.983376575419
 21
362.194865771649
 31
0.0
 70
    32
  1
N=<>
 71
     5
 42
58.99999999999988
  3
DIM1
100
AcDbAlignedDimension
 13
641.4833765754188
 23
378.9661072684996
 33
0.0
 14
582.483376575419
 24
397.2077421121927
 34
0.0
100
AcDbRotatedDimension
1001
ACAD
1000
DSTYLE
1002
{
1070
   144
1040
1.0
1002
}
  0
TEXT
  5
799C
330
17
100
AcDbEntity
  8
TEXT
100
AcDbText
 10
376.4754399465047
 20
306.7791703994648
 30
0.0
 40
3.0
  1
2. A MATERIAL WELL APPROX. %%C11.0 x 0.5 dp.. SHOULD BE PROVIDED TO ELIMINATE CONTACT WITH THE MOVING HALF
100
AcDbText
  0
LEADER
  5
79AC
330
17
100
AcDbEntity
  8
DIMS
 62
     4
100
AcDbLeader
  3
DIM1$7
 73
     0
 75
     1
 40
3.0
 41
27.28571428571428
 76
     3
 10
577.9833765754189
 20
403.7077421121927
 30
0.0
 10
561.4913955837066
 20
363.8977058509321
 30
0.0
 10
558.4913955837066
 20
363.8977058509321
 30
0.0
340
79AD
213
0.0
223
1.5
233
0.0
1001
ACAD
1000
DSTYLE
1002
{
1070
   144
1040
1.0
1002
}
  0
MTEXT
  5
79AD
102
{ACAD_REACTORS
330
79AC
102
}
330
17
100
AcDbEntity
  8
DIMS
 62
     2
100
AcDbMText
 10
556.9913955837066
 20
362.3977058509321
 30
0.0
 40
3.0
 41
0.0
 71
     9
 72
     5
  1
SEE NOTE 2
 73
     1
 44
1.0
  0
CIRCLE
  5
79B2
330
17
100
AcDbEntity
  8
M04
100
AcDbCircle
 10
490.9223172892081
 20
409.2077421121927
 30
0.0
 40
7.000000000000284
  0
CIRCLE
  5
79B5
330
17
100
AcDbEntity
  8
M01
100
AcDbCircle
 10
490.9223172892081
 20
409.2077421121927
 30
0.0
 40
0.962174812493231
  0
CIRCLE
  5
79B6
330
17
100
AcDbEntity
  8
M01
100
AcDbCircle
 10
490.9223172892081
 20
409.2077421121927
 30
0.0
 40
0.5
  0
CIRCLE
  5
79B7
330
17
100
AcDbEntity
  8
M01
100
AcDbCircle
 10
490.9223172892081
 20
409.2077421121927
 30
0.0
 40
5.0
  0
CIRCLE
  5
79BB
330
17
100
AcDbEntity
  8
M03
100
AcDbCircle
 10
490.9223172892081
 20
409.2077421121927
 30
0.0
 40
2.5
  0
TEXT
  5
79C1
330
17
100
AcDbEntity
  8
TEXT
100
AcDbText
 10
383.2696422562191
 20
301.8829477915113
 30
0.0
 40
3.0
  1
WHEN FEEDING ONTO A SUB-RUNNER
100
AcDbText
  0
ENDSEC
  0
SECTION
  2
OBJECTS
  0
DICTIONARY
  5
C
330
0
100
AcDbDictionary
281
     1
  3
ACAD_GROUP
350
D
  3
ACAD_LAYOUT
350
79F3
  3
ACAD_MLINESTYLE
350
1A
  3
ACAD_PLOTSETTINGS
350
79F4
  3
ACAD_PLOTSTYLENAME
350
79F1
  3
ACAD_WIPEOUT_VARS
350
4846
  3
ACDBVARIABLEDICTIONARY
350
33
  3
CONTENTDICTIONARY
350
1149
  0
DICTIONARY
  5
20BE
330
17
100
AcDbDictionary
280
     1
281
     1
  3
ACAD_SORTENTS
360
20BF
  0
DICTIONARY
  5
D
102
{ACAD_REACTORS
330
C
102
}
330
C
100
AcDbDictionary
281
     1
  3
*A1
350
484B
  3
*A2
350
484E
  3
*A3
350
6B86
  0
DICTIONARY
  5
79F3
102
{ACAD_REACTORS
330
C
102
}
330
C
100
AcDbDictionary
281
     1
  3
Layout1
350
79F6
  3
Model
350
79F5
  0
DICTIONARY
  5
1A
102
{ACAD_REACTORS
330
C
102
}
330
C
100
AcDbDictionary
281
     1
  3
STANDARD
350
1B
  0
DICTIONARY
  5
79F4
102
{ACAD_REACTORS
330
C
102
}
330
C
100
AcDbDictionary
281
     1
  0
ACDBDICTIONARYWDFLT
  5
79F1
102
{ACAD_REACTORS
330
C
102
}
330
C
100
AcDbDictionary
281
     1
  3
Normal
350
79F2
100
AcDbDictionaryWithDefault
340
79F2
  0
ACAD_PROXY_OBJECT
  5
4846
102
{ACAD_REACTORS
330
C
102
}
330
C
100
AcDbProxyObject
 90
      499
 91
      504
 95
   589845
 70
     0
 93
        2
310
AF
 94
        0
  0
DICTIONARY
  5
33
102
{ACAD_REACTORS
330
C
102
}
330
C
100
AcDbDictionary
281
     1
  3
DIMADEC
350
34
  3
DIMASSOC
350
7A31
  3
SORTENTS
350
1D6E
  0
DICTIONARY
  5
1149
102
{ACAD_REACTORS
330
C
102
}
330
C
100
AcDbDictionary
281
     1
  0
SORTENTSTABLE
  5
20BF
102
{ACAD_REACTORS
330
20BE
102
}
330
20BE
100
AcDbSortentsTable
330
17
  0
GROUP
  5
484B
102
{ACAD_REACTORS
330
D
102
}
330
D
100
AcDbGroup
300
In use by TEXTMASK
 70
     1
 71
     1
  0
GROUP
  5
484E
102
{ACAD_REACTORS
330
D
102
}
330
D
100
AcDbGroup
300

 70
     1
 71
     1
  0
GROUP
  5
6B86
102
{ACAD_REACTORS
330
D
102
}
330
D
100
AcDbGroup
300

 70
     1
 71
     1
  0
LAYOUT
  5
79F6
102
{ACAD_REACTORS
330
79F3
102
}
330
79F3
100
AcDbPlotSettings
  1

  2
\\Server01\SHARP MX-2300N PCL5c
  4

  6

 40
0.0
 41
0.0
 42
0.0
 43
0.0
 44
0.0
 45
0.0
 46
0.0
 47
0.0
 48
0.0
 49
0.0
140
0.0
141
0.0
142
1.0
143
1.0
 70
   688
 72
     0
 73
     0
 74
     5
  7

 75
    16
147
1.0
148
0.0
149
0.0
100
AcDbLayout
  1
Layout1
 70
     0
 71
     1
 10
0.0
 20
0.0
 11
12.0
 21
9.0
 12
0.0
 22
0.0
 32
0.0
 14
1.000000000000000E+20
 24
1.000000000000000E+20
 34
1.000000000000000E+20
 15
-1.000000000000000E+20
 25
-1.000000000000000E+20
 35
-1.000000000000000E+20
146
0.0
 13
0.0
 23
0.0
 33
0.0
 16
1.0
 26
0.0
 36
0.0
 17
0.0
 27
1.0
 37
0.0
 76
     0
330
14
  0
LAYOUT
  5
79F5
102
{ACAD_REACTORS
330
79F3
102
}
330
79F3
100
AcDbPlotSettings
  1

  2
\\Server01\SHARP MX-2300N PCL5c
  4

  6

 40
0.0
 41
0.0
 42
0.0
 43
0.0
 44
0.0
 45
0.0
 46
0.0
 47
0.0
 48
0.0
 49
0.0
140
0.0
141
0.0
142
1.0
143
1.0
 70
  1712
 72
     0
 73
     0
 74
     0
  7

 75
     0
147
1.0
148
0.0
149
0.0
100
AcDbLayout
  1
Model
 70
     1
 71
     0
 10
0.0
 20
0.0
 11
12.0
 21
9.0
 12
0.0
 22
0.0
 32
0.0
 14
0.0
 24
0.0
 34
0.0
 15
0.0
 25
0.0
 35
0.0
146
0.0
 13
0.0
 23
0.0
 33
0.0
 16
1.0
 26
0.0
 36
0.0
 17
0.0
 27
1.0
 37
0.0
 76
     0
330
17
  0
MLINESTYLE
  5
1B
102
{ACAD_REACTORS
330
1A
102
}
330
1A
100
AcDbMlineStyle
  2
STANDARD
 70
     0
  3

 62
   256
 51
90.0
 52
90.0
 71
     2
 49
0.5
 62
   256
  6
BYLAYER
 49
-0.5
 62
   256
  6
BYLAYER
  0
ACDBPLACEHOLDER
  5
79F2
102
{ACAD_REACTORS
330
79F1
102
}
330
79F1
  0
DICTIONARYVAR
  5
34
102
{ACAD_REACTORS
330
33
102
}
330
33
100
DictionaryVariables
280
     0
  1
3
  0
DICTIONARYVAR
  5
7A31
102
{ACAD_REACTORS
330
33
102
}
330
33
100
DictionaryVariables
280
     0
  1
1
  0
DICTIONARYVAR
  5
1D6E
102
{ACAD_REACTORS
330
33
102
}
330
33
100
DictionaryVariables
280
     0
  1
127
  0
ENDSEC
  0
EOF
