  0
SECTION
  2
HEADER
  9
$ACADVER
  1
AC1014
  9
$ACADMAINTVER
 70
     9
  9
$DWGCODEPAGE
  3
ANSI_1252
  9
$INSBASE
 10
0.0
 20
0.0
 30
0.0
  9
$EXTMIN
 10
390.675679
 20
152.041051
 30
-0.222949
  9
$EXTMAX
 10
871.444712
 20
549.207742
 30
0.0
  9
$LIMMIN
 10
0.0
 20
0.0
  9
$LIMMAX
 10
1189.0
 20
841.0
  9
$ORTHOMODE
 70
     1
  9
$REGENMODE
 70
     1
  9
$FILLMODE
 70
     1
  9
$QTEXTMODE
 70
     0
  9
$MIRRTEXT
 70
     0
  9
$DRAGMODE
 70
     2
  9
$LTSCALE
 40
8.0
  9
$OSMODE
 70
     0
  9
$ATTMODE
 70
     1
  9
$TEXTSIZE
 40
2.0
  9
$TRACEWID
 40
10.0
  9
$TEXTSTYLE
  7
STANDARD
  9
$CLAYER
  8
DIMS
  9
$CELTYPE
  6
BYLAYER
  9
$CECOLOR
 62
   256
  9
$CELTSCALE
 40
1.0
  9
$DELOBJ
 70
     1
  9
$DISPSILH
 70
     0
  9
$DIMSCALE
 40
1.0
  9
$DIMASZ
 40
3.0
  9
$DIMEXO
 40
1.0
  9
$DIMDLI
 40
10.0
  9
$DIMRND
 40
0.01
  9
$DIMDLE
 40
1.25
  9
$DIMEXE
 40
2.5
  9
$DIMTP
 40
0.05
  9
$DIMTM
 40
0.0
  9
$DIMTXT
 40
3.0
  9
$DIMCEN
 40
-1.7
  9
$DIMTSZ
 40
0.0
  9
$DIMTOL
 70
     0
  9
$DIMLIM
 70
     0
  9
$DIMTIH
 70
     0
  9
$DIMTOH
 70
     0
  9
$DIMSE1
 70
     0
  9
$DIMSE2
 70
     0
  9
$DIMTAD
 70
     3
  9
$DIMZIN
 70
     1
  9
$DIMBLK
  1

  9
$DIMASO
 70
     1
  9
$DIMSHO
 70
     0
  9
$DIMPOST
  1

  9
$DIMAPOST
  1

  9
$DIMALT
 70
     0
  9
$DIMALTD
 70
     2
  9
$DIMALTF
 40
0.039
  9
$DIMLFAC
 40
1.0
  9
$DIMTOFL
 70
     0
  9
$DIMTVP
 40
1.5
  9
$DIMTIX
 70
     0
  9
$DIMSOXD
 70
     0
  9
$DIMSAH
 70
     0
  9
$DIMBLK1
  1

  9
$DIMBLK2
  1

  9
$DIMSTYLE
  2
DIM1
  9
$DIMCLRD
 70
     4
  9
$DIMCLRE
 70
     4
  9
$DIMCLRT
 70
     2
  9
$DIMTFAC
 40
0.7
  9
$DIMGAP
 40
1.5
  9
$DIMJUST
 70
     0
  9
$DIMSD1
 70
     0
  9
$DIMSD2
 70
     0
  9
$DIMTOLJ
 70
     1
  9
$DIMTZIN
 70
     1
  9
$DIMALTZ
 70
     1
  9
$DIMALTTZ
 70
     1
  9
$DIMFIT
 70
     0
  9
$DIMUPT
 70
     0
  9
$DIMUNIT
 70
     2
  9
$DIMDEC
 70
     2
  9
$DIMTDEC
 70
     2
  9
$DIMALTU
 70
     2
  9
$DIMALTTD
 70
     2
  9
$DIMTXSTY
  7
STANDARD
  9
$DIMAUNIT
 70
     0
  9
$LUNITS
 70
     2
  9
$LUPREC
 70
     2
  9
$SKETCHINC
 40
1.0
  9
$FILLETRAD
 40
0.0
  9
$AUNITS
 70
     0
  9
$AUPREC
 70
     3
  9
$MENU
  1
ACAD
  9
$ELEVATION
 40
0.0
  9
$PELEVATION
 40
0.0
  9
$THICKNESS
 40
0.0
  9
$LIMCHECK
 70
     0
  9
$BLIPMODE
 70
     1
  9
$CHAMFERA
 40
2.0
  9
$CHAMFERB
 40
2.0
  9
$CHAMFERC
 40
0.0
  9
$CHAMFERD
 40
0.0
  9
$SKPOLY
 70
     1
  9
$TDCREATE
 40
2449993.725698611
  9
$TDUPDATE
 40
2452053.624566967
  9
$TDINDWG
 40
1.0608541667
  9
$TDUSRTIMER
 40
1.0608541667
  9
$USRTIMER
 70
     1
  9
$ANGBASE
 50
0.0
  9
$ANGDIR
 70
     0
  9
$PDMODE
 70
     3
  9
$PDSIZE
 40
0.0
  9
$PLINEWID
 40
0.0
  9
$COORDS
 70
     2
  9
$SPLFRAME
 70
     0
  9
$SPLINETYPE
 70
     6
  9
$SPLINESEGS
 70
     6
  9
$ATTDIA
 70
     1
  9
$ATTREQ
 70
     1
  9
$HANDLING
 70
     1
  9
$HANDSEED
  5
18E
  9
$SURFTAB1
 70
    12
  9
$SURFTAB2
 70
    12
  9
$SURFTYPE
 70
     6
  9
$SURFU
 70
    12
  9
$SURFV
 70
    12
  9
$UCSNAME
  2

  9
$UCSORG
 10
0.0
 20
0.0
 30
0.0
  9
$UCSXDIR
 10
1.0
 20
0.0
 30
0.0
  9
$UCSYDIR
 10
0.0
 20
1.0
 30
0.0
  9
$PUCSNAME
  2

  9
$PUCSORG
 10
0.0
 20
0.0
 30
0.0
  9
$PUCSXDIR
 10
1.0
 20
0.0
 30
0.0
  9
$PUCSYDIR
 10
0.0
 20
1.0
 30
0.0
  9
$USERI1
 70
     0
  9
$USERI2
 70
     0
  9
$USERI3
 70
     0
  9
$USERI4
 70
     0
  9
$USERI5
 70
     0
  9
$USERR1
 40
0.0
  9
$USERR2
 40
0.0
  9
$USERR3
 40
0.0
  9
$USERR4
 40
0.0
  9
$USERR5
 40
0.0
  9
$WORLDVIEW
 70
     0
  9
$SHADEDGE
 70
     3
  9
$SHADEDIF
 70
    70
  9
$TILEMODE
 70
     1
  9
$MAXACTVP
 70
    16
  9
$PINSBASE
 10
0.0
 20
0.0
 30
0.0
  9
$PLIMCHECK
 70
     0
  9
$PEXTMIN
 10
1.000000E+20
 20
1.000000E+20
 30
1.000000E+20
  9
$PEXTMAX
 10
-1.000000E+20
 20
-1.000000E+20
 30
-1.000000E+20
  9
$PLIMMIN
 10
0.0
 20
0.0
  9
$PLIMMAX
 10
12.0
 20
9.0
  9
$UNITMODE
 70
     0
  9
$VISRETAIN
 70
     0
  9
$PLINEGEN
 70
     0
  9
$PSLTSCALE
 70
     0
  9
$TREEDEPTH
 70
  3020
  9
$PICKSTYLE
 70
     1
  9
$CMLSTYLE
  2
STANDARD
  9
$CMLJUST
 70
     0
  9
$CMLSCALE
 40
1.0
  9
$PROXYGRAPHICS
 70
     1
  9
$MEASUREMENT
 70
     0
  0
ENDSEC
  0
SECTION
  2
CLASSES
  0
CLASS
  1
DICTIONARYVAR
  2
AcDbDictionaryVar
  3
"AutoCAD"
 90
        0
280
     0
281
     0
  0
CLASS
  1
LWPOLYLINE
  2
AcDbPolyline
  3
"AutoCAD"
 90
        0
280
     0
281
     1
  0
CLASS
  1
HATCH
  2
AcDbHatch
  3
"ACAD_SEDONA"
 90
        0
280
     0
281
     1
  0
CLASS
  1
SORTENTSTABLE
  2
AcDbSortentsTable
  3
"AutoCAD"
 90
        0
280
     0
281
     0
  0
CLASS
  1
WIPEOUTVARIABLES
  2
AcDbWipeoutVariables
  3
WIPEOUT
 90
        0
280
     0
281
     0
  0
CLASS
  1
WIPEOUT
  2
AcDbWipeout
  3
WIPEOUT
 90
      127
280
     0
281
     1
  0
ENDSEC
  0
SECTION
  2
TABLES
  0
TABLE
  2
VPORT
  5
14
100
AcDbSymbolTable
 70
     2
  0
VPORT
  5
18D
100
AcDbSymbolTableRecord
100
AcDbViewportTableRecord
  2
*ACTIVE
 70
     0
 10
0.0
 20
0.0
 11
1.0
 21
1.0
 12
539.584063
 22
437.130087
 13
0.0
 23
0.0
 14
10.0
 24
10.0
 15
0.0
 25
0.0
 16
0.0
 26
0.0
 36
1.0
 17
16.313321
 27
12.779115
 37
0.222949
 40
312.666258
 41
1.470516
 42
50.0
 43
0.0
 44
0.0
 50
0.0
 51
0.0
 71
     0
 72
  2000
 73
     1
 74
     2
 75
     0
 76
     0
 77
     0
 78
     1
  0
ENDTAB
  0
TABLE
  2
LTYPE
  5
F
100
AcDbSymbolTable
 70
     3
  0
LTYPE
  5
10
100
AcDbSymbolTableRecord
100
AcDbLinetypeTableRecord
  2
BYBLOCK
 70
     0
  3

 72
    65
 73
     0
 40
0.0
  0
LTYPE
  5
11
100
AcDbSymbolTableRecord
100
AcDbLinetypeTableRecord
  2
BYLAYER
 70
     0
  3

 72
    65
 73
     0
 40
0.0
  0
LTYPE
  5
7
100
AcDbSymbolTableRecord
100
AcDbLinetypeTableRecord
  2
CONTINUOUS
 70
     0
  3
Solid line
 72
    65
 73
     0
 40
0.0
  0
LTYPE
  5
64
100
AcDbSymbolTableRecord
100
AcDbLinetypeTableRecord
  2
CENTER
 70
     0
  3
Center ____ _ ____ _ ____ _ ____ _ ____ _ ____
 72
    65
 73
     4
 40
2.0
 49
1.25
 74
     0
 49
-0.25
 74
     0
 49
0.25
 74
     0
 49
-0.25
 74
     0
  0
LTYPE
  5
55
100
AcDbSymbolTableRecord
100
AcDbLinetypeTableRecord
  2
HIDDEN
 70
     0
  3
Hidden __ __ __ __ __ __ __ __ __ __ __ __ __ _
 72
    65
 73
     2
 40
0.375
 49
0.25
 74
     0
 49
-0.125
 74
     0
  0
ENDTAB
  0
TABLE
  2
LAYER
  5
C
100
AcDbSymbolTable
 70
     8
  0
LAYER
  5
6
100
AcDbSymbolTableRecord
100
AcDbLayerTableRecord
  2
0
 70
     0
 62
     7
  6
CONTINUOUS
  0
LAYER
  5
63
100
AcDbSymbolTableRecord
100
AcDbLayerTableRecord
  2
CENTRE
 70
     0
 62
     3
  6
CENTER
  0
LAYER
  5
4B
100
AcDbSymbolTableRecord
100
AcDbLayerTableRecord
  2
M01
 70
     0
 62
     1
  6
CONTINUOUS
  0
LAYER
  5
54
100
AcDbSymbolTableRecord
100
AcDbLayerTableRecord
  2
M03
 70
     0
 62
     2
  6
HIDDEN
  0
LAYER
  5
27
100
AcDbSymbolTableRecord
100
AcDbLayerTableRecord
  2
M04
 70
     0
 62
     7
  6
CONTINUOUS
  0
LAYER
  5
1D
100
AcDbSymbolTableRecord
100
AcDbLayerTableRecord
  2
DIMS
 70
     0
 62
     4
  6
CONTINUOUS
  0
LAYER
  5
77
100
AcDbSymbolTableRecord
100
AcDbLayerTableRecord
  2
TEXT
 70
     0
 62
     2
  6
CONTINUOUS
  0
LAYER
  5
21
100
AcDbSymbolTableRecord
100
AcDbLayerTableRecord
  2
DEFPOINTS
 70
     0
 62
     7
  6
CONTINUOUS
  0
ENDTAB
  0
TABLE
  2
STYLE
  5
D
100
AcDbSymbolTable
 70
     1
  0
STYLE
  5
E
100
AcDbSymbolTableRecord
100
AcDbTextStyleTableRecord
  2
STANDARD
 70
     0
 40
0.0
 41
1.0
 50
0.0
 71
     0
 42
2.0
  3
SIMPLEX
  4

  0
ENDTAB
  0
TABLE
  2
VIEW
  5
12
100
AcDbSymbolTable
 70
     0
  0
ENDTAB
  0
TABLE
  2
UCS
  5
13
100
AcDbSymbolTable
 70
     0
  0
ENDTAB
  0
TABLE
  2
APPID
  5
16
100
AcDbSymbolTable
 70
     1
  0
APPID
  5
17
100
AcDbSymbolTableRecord
100
AcDbRegAppTableRecord
  2
ACAD
 70
     0
  0
ENDTAB
  0
TABLE
  2
DIMSTYLE
  5
18
100
AcDbSymbolTable
 70
     1
  0
DIMSTYLE
105
1F
102
{ACAD_REACTORS
330
109
330
FD
330
F0
330
E3
330
D6
330
C9
330
3B
330
2D
102
}
100
AcDbSymbolTableRecord
100
AcDbDimStyleTableRecord
  2
DIM1
 70
     0
  3

  4

  5

  6

  7

 40
1.0
 41
3.0
 42
1.0
 43
10.0
 44
2.5
 45
0.01
 46
1.25
 47
0.05
 48
0.0
140
3.0
141
-1.7
142
0.0
143
0.039
144
0.2
145
1.5
146
0.7
147
1.5
 71
     0
 72
     0
 73
     0
 74
     0
 75
     0
 76
     0
 77
     3
 78
     1
170
     0
171
     2
172
     0
173
     0
174
     0
175
     0
176
     4
177
     4
178
     2
270
     2
271
     2
272
     2
273
     2
274
     2
340
E
275
     0
280
     0
281
     0
282
     0
283
     1
284
     1
285
     1
286
     1
287
     0
288
     0
  0
ENDTAB
  0
TABLE
  2
BLOCK_RECORD
  5
1
100
AcDbSymbolTable
 70
     8
  0
BLOCK_RECORD
  5
2
102
{ACAD_XDICTIONARY
360
3
102
}
100
AcDbSymbolTableRecord
100
AcDbBlockTableRecord
  2
*MODEL_SPACE
  0
BLOCK_RECORD
  5
9
100
AcDbSymbolTableRecord
100
AcDbBlockTableRecord
  2
*PAPER_SPACE
  0
BLOCK_RECORD
  5
10A
100
AcDbSymbolTableRecord
100
AcDbBlockTableRecord
  2
*D0
  0
BLOCK_RECORD
  5
FE
100
AcDbSymbolTableRecord
100
AcDbBlockTableRecord
  2
*D1
  0
BLOCK_RECORD
  5
F1
100
AcDbSymbolTableRecord
100
AcDbBlockTableRecord
  2
*D2
  0
BLOCK_RECORD
  5
E4
100
AcDbSymbolTableRecord
100
AcDbBlockTableRecord
  2
*D3
  0
BLOCK_RECORD
  5
D7
100
AcDbSymbolTableRecord
100
AcDbBlockTableRecord
  2
*D4
  0
BLOCK_RECORD
  5
CA
100
AcDbSymbolTableRecord
100
AcDbBlockTableRecord
  2
*D5
  0
BLOCK_RECORD
  5
3C
100
AcDbSymbolTableRecord
100
AcDbBlockTableRecord
  2
*D6
  0
BLOCK_RECORD
  5
2E
100
AcDbSymbolTableRecord
100
AcDbBlockTableRecord
  2
*D7
  0
ENDTAB
  0
ENDSEC
  0
SECTION
  2
BLOCKS
  0
BLOCK
  5
5
100
AcDbEntity
  8
0
100
AcDbBlockBegin
  2
*MODEL_SPACE
 70
     0
 10
0.0
 20
0.0
 30
0.0
  3
*MODEL_SPACE
  1

  0
ENDBLK
  5
8
100
AcDbEntity
  8
0
100
AcDbBlockEnd
  0
BLOCK
  5
A
100
AcDbEntity
 67
     1
  8
0
100
AcDbBlockBegin
  2
*PAPER_SPACE
 70
     0
 10
0.0
 20
0.0
 30
0.0
  3
*PAPER_SPACE
  1

  0
ENDBLK
  5
B
100
AcDbEntity
 67
     1
  8
0
100
AcDbBlockEnd
  0
BLOCK
  5
114
100
AcDbEntity
  8
0
100
AcDbBlockBegin
  2
*D0
 70
     1
 10
0.0
 20
0.0
 30
0.0
  3
*D0
  1

  0
LINE
  5
10B
100
AcDbEntity
  8
0
  6
BYBLOCK
 62
     4
100
AcDbLine
 10
732.297138
 20
312.036186
 30
0.0
 11
732.297138
 21
287.458765
 31
0.0
  0
LINE
  5
10C
100
AcDbEntity
  8
0
  6
BYBLOCK
 62
     4
100
AcDbLine
 10
747.297138
 20
320.878908
 30
0.0
 11
747.297138
 21
287.458765
 31
0.0
  0
LINE
  5
10D
100
AcDbEntity
  8
0
  6
BYBLOCK
 62
     4
100
AcDbLine
 10
735.297138
 20
289.958765
 30
0.0
 11
744.297138
 21
289.958765
 31
0.0
  0
SOLID
  5
10E
100
AcDbEntity
  8
0
  6
BYBLOCK
 62
     4
100
AcDbTrace
 10
735.297138
 20
290.458765
 30
0.0
 11
735.297138
 21
289.458765
 31
0.0
 12
732.297138
 22
289.958765
 32
0.0
 13
732.297138
 23
289.958765
 33
0.0
  0
SOLID
  5
10F
100
AcDbEntity
  8
0
  6
BYBLOCK
 62
     4
100
AcDbTrace
 10
744.297138
 20
290.458765
 30
0.0
 11
744.297138
 21
289.458765
 31
0.0
 12
747.297138
 22
289.958765
 32
0.0
 13
747.297138
 23
289.958765
 33
0.0
  0
MTEXT
  5
110
100
AcDbEntity
  8
0
  6
BYBLOCK
 62
     2
100
AcDbMText
 10
739.797138
 20
292.958765
 30
0.0
 40
3.0
 41
0.0
 71
     5
 72
     1
  1
\A1;15.0
  0
POINT
  5
111
100
AcDbEntity
  8
DEFPOINTS
  6
BYBLOCK
 62
     0
100
AcDbPoint
 10
732.297138
 20
313.036186
 30
0.0
  0
POINT
  5
112
100
AcDbEntity
  8
DEFPOINTS
  6
BYBLOCK
 62
     0
100
AcDbPoint
 10
747.297138
 20
321.878908
 30
0.0
  0
POINT
  5
113
100
AcDbEntity
  8
DEFPOINTS
  6
BYBLOCK
 62
     0
100
AcDbPoint
 10
747.297138
 20
289.958765
 30
0.0
  0
ENDBLK
  5
115
100
AcDbEntity
  8
0
100
AcDbBlockEnd
  0
BLOCK
  5
107
100
AcDbEntity
  8
0
100
AcDbBlockBegin
  2
*D1
 70
     1
 10
0.0
 20
0.0
 30
0.0
  3
*D1
  1

  0
LINE
  5
FF
100
AcDbEntity
  8
0
  6
BYBLOCK
 62
     4
100
AcDbLine
 10
652.483377
 20
377.966107
 30
0.0
 11
652.483377
 21
362.7876
 31
0.0
  0
LINE
  5
100
100
AcDbEntity
  8
0
  6
BYBLOCK
 62
     4
100
AcDbLine
 10
596.483377
 20
365.2876
 30
0.0
 11
649.483377
 21
365.2876
 31
0.0
  0
SOLID
  5
101
100
AcDbEntity
  8
0
  6
BYBLOCK
 62
     4
100
AcDbTrace
 10
596.483377
 20
365.7876
 30
0.0
 11
596.483377
 21
364.7876
 31
0.0
 12
593.483377
 22
365.2876
 32
0.0
 13
593.483377
 23
365.2876
 33
0.0
  0
SOLID
  5
102
100
AcDbEntity
  8
0
  6
BYBLOCK
 62
     4
100
AcDbTrace
 10
649.483377
 20
365.7876
 30
0.0
 11
649.483377
 21
364.7876
 31
0.0
 12
652.483377
 22
365.2876
 32
0.0
 13
652.483377
 23
365.2876
 33
0.0
  0
MTEXT
  5
103
100
AcDbEntity
  8
0
  6
BYBLOCK
 62
     2
100
AcDbMText
 10
622.983377
 20
368.2876
 30
0.0
 40
3.0
 41
0.0
 71
     5
 72
     1
  1
\A1;N=59.00
  0
POINT
  5
104
100
AcDbEntity
  8
DEFPOINTS
  6
BYBLOCK
 62
     0
100
AcDbPoint
 10
593.483377
 20
397.207742
 30
0.0
  0
POINT
  5
105
100
AcDbEntity
  8
DEFPOINTS
  6
BYBLOCK
 62
     0
100
AcDbPoint
 10
652.483377
 20
378.966107
 30
0.0
  0
POINT
  5
106
100
AcDbEntity
  8
DEFPOINTS
  6
BYBLOCK
 62
     0
100
AcDbPoint
 10
652.483377
 20
365.2876
 30
0.0
  0
ENDBLK
  5
108
100
AcDbEntity
  8
0
100
AcDbBlockEnd
  0
BLOCK
  5
FB
100
AcDbEntity
  8
0
100
AcDbBlockBegin
  2
*D2
 70
     1
 10
0.0
 20
0.0
 30
0.0
  3
*D2
  1

  0
LINE
  5
F2
100
AcDbEntity
  8
0
  6
BYBLOCK
 62
     4
100
AcDbLine
 10
578.483377
 20
387.36502
 30
0.0
 11
578.483377
 21
352.835462
 31
0.0
  0
LINE
  5
F3
100
AcDbEntity
  8
0
  6
BYBLOCK
 62
     4
100
AcDbLine
 10
642.483377
 20
391.207742
 30
0.0
 11
642.483377
 21
352.835462
 31
0.0
  0
LINE
  5
F4
100
AcDbEntity
  8
0
  6
BYBLOCK
 62
     4
100
AcDbLine
 10
581.483377
 20
355.335462
 30
0.0
 11
639.483377
 21
355.335462
 31
0.0
  0
SOLID
  5
F5
100
AcDbEntity
  8
0
  6
BYBLOCK
 62
     4
100
AcDbTrace
 10
581.483377
 20
355.835462
 30
0.0
 11
581.483377
 21
354.835462
 31
0.0
 12
578.483377
 22
355.335462
 32
0.0
 13
578.483377
 23
355.335462
 33
0.0
  0
SOLID
  5
F6
100
AcDbEntity
  8
0
  6
BYBLOCK
 62
     4
100
AcDbTrace
 10
639.483377
 20
355.835462
 30
0.0
 11
639.483377
 21
354.835462
 31
0.0
 12
642.483377
 22
355.335462
 32
0.0
 13
642.483377
 23
355.335462
 33
0.0
  0
MTEXT
  5
F7
100
AcDbEntity
  8
0
  6
BYBLOCK
 62
     2
100
AcDbMText
 10
610.483377
 20
358.335462
 30
0.0
 40
3.0
 41
0.0
 71
     5
 72
     1
  1
\A1;L1=64.00
  0
POINT
  5
F8
100
AcDbEntity
  8
DEFPOINTS
  6
BYBLOCK
 62
     0
100
AcDbPoint
 10
578.483377
 20
388.36502
 30
0.0
  0
POINT
  5
F9
100
AcDbEntity
  8
DEFPOINTS
  6
BYBLOCK
 62
     0
100
AcDbPoint
 10
642.483377
 20
392.207742
 30
0.0
  0
POINT
  5
FA
100
AcDbEntity
  8
DEFPOINTS
  6
BYBLOCK
 62
     0
100
AcDbPoint
 10
642.483377
 20
355.335462
 30
0.0
  0
ENDBLK
  5
FC
100
AcDbEntity
  8
0
100
AcDbBlockEnd
  0
BLOCK
  5
EE
100
AcDbEntity
  8
0
100
AcDbBlockBegin
  2
*D3
 70
     1
 10
0.0
 20
0.0
 30
0.0
  3
*D3
  1

  0
LINE
  5
E5
100
AcDbEntity
  8
0
  6
BYBLOCK
 62
     4
100
AcDbLine
 10
578.483377
 20
387.36502
 30
0.0
 11
578.483377
 21
342.835462
 31
0.0
  0
LINE
  5
E6
100
AcDbEntity
  8
0
  6
BYBLOCK
 62
     4
100
AcDbLine
 10
652.483377
 20
377.966107
 30
0.0
 11
652.483377
 21
342.835462
 31
0.0
  0
LINE
  5
E7
100
AcDbEntity
  8
0
  6
BYBLOCK
 62
     4
100
AcDbLine
 10
581.483377
 20
345.335462
 30
0.0
 11
649.483377
 21
345.335462
 31
0.0
  0
SOLID
  5
E8
100
AcDbEntity
  8
0
  6
BYBLOCK
 62
     4
100
AcDbTrace
 10
581.483377
 20
345.835462
 30
0.0
 11
581.483377
 21
344.835462
 31
0.0
 12
578.483377
 22
345.335462
 32
0.0
 13
578.483377
 23
345.335462
 33
0.0
  0
SOLID
  5
E9
100
AcDbEntity
  8
0
  6
BYBLOCK
 62
     4
100
AcDbTrace
 10
649.483377
 20
345.835462
 30
0.0
 11
649.483377
 21
344.835462
 31
0.0
 12
652.483377
 22
345.335462
 32
0.0
 13
652.483377
 23
345.335462
 33
0.0
  0
MTEXT
  5
EA
100
AcDbEntity
  8
0
  6
BYBLOCK
 62
     2
100
AcDbMText
 10
615.483377
 20
348.335462
 30
0.0
 40
3.0
 41
0.0
 71
     5
 72
     1
  1
\A1;L=74.00
  0
POINT
  5
EB
100
AcDbEntity
  8
DEFPOINTS
  6
BYBLOCK
 62
     0
100
AcDbPoint
 10
578.483377
 20
388.36502
 30
0.0
  0
POINT
  5
EC
100
AcDbEntity
  8
DEFPOINTS
  6
BYBLOCK
 62
     0
100
AcDbPoint
 10
652.483377
 20
378.966107
 30
0.0
  0
POINT
  5
ED
100
AcDbEntity
  8
DEFPOINTS
  6
BYBLOCK
 62
     0
100
AcDbPoint
 10
652.483377
 20
345.335462
 30
0.0
  0
ENDBLK
  5
EF
100
AcDbEntity
  8
0
100
AcDbBlockEnd
  0
BLOCK
  5
E1
100
AcDbEntity
  8
0
100
AcDbBlockBegin
  2
*D4
 70
     1
 10
0.0
 20
0.0
 30
0.0
  3
*D4
  1

  0
LINE
  5
D8
100
AcDbEntity
  8
0
  6
BYBLOCK
 62
     4
100
AcDbLine
 10
742.018206
 20
342.878908
 30
0.0
 11
707.617396
 21
342.878908
 31
0.0
  0
LINE
  5
D9
100
AcDbEntity
  8
0
  6
BYBLOCK
 62
     4
100
AcDbLine
 10
742.018206
 20
324.878908
 30
0.0
 11
707.617396
 21
324.878908
 31
0.0
  0
LINE
  5
DA
100
AcDbEntity
  8
0
  6
BYBLOCK
 62
     4
100
AcDbLine
 10
710.117396
 20
339.878908
 30
0.0
 11
710.117396
 21
327.878908
 31
0.0
  0
SOLID
  5
DB
100
AcDbEntity
  8
0
  6
BYBLOCK
 62
     4
100
AcDbTrace
 10
709.617396
 20
339.878908
 30
0.0
 11
710.617396
 21
339.878908
 31
0.0
 12
710.117396
 22
342.878908
 32
0.0
 13
710.117396
 23
342.878908
 33
0.0
  0
SOLID
  5
DC
100
AcDbEntity
  8
0
  6
BYBLOCK
 62
     4
100
AcDbTrace
 10
709.617396
 20
327.878908
 30
0.0
 11
710.617396
 21
327.878908
 31
0.0
 12
710.117396
 22
324.878908
 32
0.0
 13
710.117396
 23
324.878908
 33
0.0
  0
MTEXT
  5
DD
100
AcDbEntity
  8
0
  6
BYBLOCK
 62
     2
100
AcDbMText
 10
707.117396
 20
333.878908
 30
0.0
 40
3.0
 41
0.0
 71
     5
 72
     1
  1
\A1;\U+220518.00
 11
0.0
 21
1.0
 31
0.0
  0
POINT
  5
DE
100
AcDbEntity
  8
DEFPOINTS
  6
BYBLOCK
 62
     0
100
AcDbPoint
 10
743.018206
 20
342.878908
 30
0.0
  0
POINT
  5
DF
100
AcDbEntity
  8
DEFPOINTS
  6
BYBLOCK
 62
     0
100
AcDbPoint
 10
743.018206
 20
324.878908
 30
0.0
  0
POINT
  5
E0
100
AcDbEntity
  8
DEFPOINTS
  6
BYBLOCK
 62
     0
100
AcDbPoint
 10
710.117396
 20
324.878908
 30
0.0
  0
ENDBLK
  5
E2
100
AcDbEntity
  8
0
100
AcDbBlockEnd
  0
BLOCK
  5
D4
100
AcDbEntity
  8
0
100
AcDbBlockBegin
  2
*D5
 70
     1
 10
0.0
 20
0.0
 30
0.0
  3
*D5
  1

  0
LINE
  5
CB
100
AcDbEntity
  8
0
  6
BYBLOCK
 62
     4
100
AcDbLine
 10
627.983377
 20
392.207742
 30
0.0
 11
665.439997
 21
392.207742
 31
0.0
  0
LINE
  5
CC
100
AcDbEntity
  8
0
  6
BYBLOCK
 62
     4
100
AcDbLine
 10
627.983377
 20
426.207742
 30
0.0
 11
665.439997
 21
426.207742
 31
0.0
  0
LINE
  5
CD
100
AcDbEntity
  8
0
  6
BYBLOCK
 62
     4
100
AcDbLine
 10
662.939997
 20
395.207742
 30
0.0
 11
662.939997
 21
423.207742
 31
0.0
  0
SOLID
  5
CE
100
AcDbEntity
  8
0
  6
BYBLOCK
 62
     4
100
AcDbTrace
 10
662.439997
 20
395.207742
 30
0.0
 11
663.439997
 21
395.207742
 31
0.0
 12
662.939997
 22
392.207742
 32
0.0
 13
662.939997
 23
392.207742
 33
0.0
  0
SOLID
  5
CF
100
AcDbEntity
  8
0
  6
BYBLOCK
 62
     4
100
AcDbTrace
 10
662.439997
 20
423.207742
 30
0.0
 11
663.439997
 21
423.207742
 31
0.0
 12
662.939997
 22
426.207742
 32
0.0
 13
662.939997
 23
426.207742
 33
0.0
  0
MTEXT
  5
D0
100
AcDbEntity
  8
0
  6
BYBLOCK
 62
     2
100
AcDbMText
 10
659.939997
 20
404.469073
 30
0.0
 40
3.0
 41
0.0
 71
     5
 72
     1
  1
\A1;\U+220534.00
 11
0.0
 21
1.0
 31
0.0
  0
POINT
  5
D1
100
AcDbEntity
  8
DEFPOINTS
  6
BYBLOCK
 62
     0
100
AcDbPoint
 10
626.983377
 20
392.207742
 30
0.0
  0
POINT
  5
D2
100
AcDbEntity
  8
DEFPOINTS
  6
BYBLOCK
 62
     0
100
AcDbPoint
 10
626.983377
 20
426.207742
 30
0.0
  0
POINT
  5
D3
100
AcDbEntity
  8
DEFPOINTS
  6
BYBLOCK
 62
     0
100
AcDbPoint
 10
662.939997
 20
426.207742
 30
0.0
  0
ENDBLK
  5
D5
100
AcDbEntity
  8
0
100
AcDbBlockEnd
  0
BLOCK
  5
46
100
AcDbEntity
  8
0
100
AcDbBlockBegin
  2
*D6
 70
     1
 10
0.0
 20
0.0
 30
0.0
  3
*D6
  1

  0
LINE
  5
3D
100
AcDbEntity
  8
0
  6
BYBLOCK
 62
     4
100
AcDbLine
 10
465.105863
 20
409.207742
 30
0.0
 11
455.364602
 21
409.207742
 31
0.0
  0
LINE
  5
3E
100
AcDbEntity
  8
0
  6
BYBLOCK
 62
     4
100
AcDbLine
 10
484.116989
 20
389.207742
 30
0.0
 11
455.364602
 21
389.207742
 31
0.0
  0
LINE
  5
3F
100
AcDbEntity
  8
0
  6
BYBLOCK
 62
     4
100
AcDbLine
 10
457.864602
 20
406.207742
 30
0.0
 11
457.864602
 21
392.207742
 31
0.0
  0
SOLID
  5
40
100
AcDbEntity
  8
0
  6
BYBLOCK
 62
     4
100
AcDbTrace
 10
457.364602
 20
406.207742
 30
0.0
 11
458.364602
 21
406.207742
 31
0.0
 12
457.864602
 22
409.207742
 32
0.0
 13
457.864602
 23
409.207742
 33
0.0
  0
SOLID
  5
41
100
AcDbEntity
  8
0
  6
BYBLOCK
 62
     4
100
AcDbTrace
 10
457.364602
 20
392.207742
 30
0.0
 11
458.364602
 21
392.207742
 31
0.0
 12
457.864602
 22
389.207742
 32
0.0
 13
457.864602
 23
389.207742
 33
0.0
  0
MTEXT
  5
42
100
AcDbEntity
  8
0
  6
BYBLOCK
 62
     2
100
AcDbMText
 10
454.864602
 20
399.207742
 30
0.0
 40
3.0
 41
0.0
 71
     5
 72
     1
  1
\A1;20.00
 11
0.0
 21
1.0
 31
0.0
  0
POINT
  5
43
100
AcDbEntity
  8
DEFPOINTS
  6
BYBLOCK
 62
     0
100
AcDbPoint
 10
466.105863
 20
409.207742
 30
0.0
  0
POINT
  5
44
100
AcDbEntity
  8
DEFPOINTS
  6
BYBLOCK
 62
     0
100
AcDbPoint
 10
485.116989
 20
389.207742
 30
0.0
  0
POINT
  5
45
100
AcDbEntity
  8
DEFPOINTS
  6
BYBLOCK
 62
     0
100
AcDbPoint
 10
457.864602
 20
389.207742
 30
0.0
  0
ENDBLK
  5
47
100
AcDbEntity
  8
0
100
AcDbBlockEnd
  0
BLOCK
  5
39
100
AcDbEntity
  8
0
100
AcDbBlockBegin
  2
*D7
 70
     1
 10
0.0
 20
0.0
 30
0.0
  3
*D7
  1

  0
LINE
  5
2F
100
AcDbEntity
  8
0
  6
BYBLOCK
 62
     4
100
AcDbLine
 10
487.922317
 20
385.402414
 30
0.0
 11
487.922317
 21
367.832169
 31
0.0
  0
LINE
  5
30
100
AcDbEntity
  8
0
  6
BYBLOCK
 62
     4
100
AcDbLine
 10
493.922317
 20
385.402414
 30
0.0
 11
493.922317
 21
367.832169
 31
0.0
  0
LINE
  5
31
100
AcDbEntity
  8
0
  6
BYBLOCK
 62
     4
100
AcDbLine
 10
484.922317
 20
370.332169
 30
0.0
 11
481.922317
 21
370.332169
 31
0.0
  0
LINE
  5
32
100
AcDbEntity
  8
0
  6
BYBLOCK
 62
     4
100
AcDbLine
 10
496.922317
 20
370.332169
 30
0.0
 11
512.065174
 21
370.332169
 31
0.0
  0
SOLID
  5
33
100
AcDbEntity
  8
0
  6
BYBLOCK
 62
     4
100
AcDbTrace
 10
484.922317
 20
370.832169
 30
0.0
 11
484.922317
 21
369.832169
 31
0.0
 12
487.922317
 22
370.332169
 32
0.0
 13
487.922317
 23
370.332169
 33
0.0
  0
SOLID
  5
34
100
AcDbEntity
  8
0
  6
BYBLOCK
 62
     4
100
AcDbTrace
 10
496.922317
 20
370.832169
 30
0.0
 11
496.922317
 21
369.832169
 31
0.0
 12
493.922317
 22
370.332169
 32
0.0
 13
493.922317
 23
370.332169
 33
0.0
  0
MTEXT
  5
35
100
AcDbEntity
  8
0
  6
BYBLOCK
 62
     2
100
AcDbMText
 10
505.993746
 20
373.332169
 30
0.0
 40
3.0
 41
0.0
 71
     5
 72
     1
  1
\A1;6.00
  0
POINT
  5
36
100
AcDbEntity
  8
DEFPOINTS
  6
BYBLOCK
 62
     0
100
AcDbPoint
 10
487.922317
 20
386.402414
 30
0.0
  0
POINT
  5
37
100
AcDbEntity
  8
DEFPOINTS
  6
BYBLOCK
 62
     0
100
AcDbPoint
 10
493.922317
 20
386.402414
 30
0.0
  0
POINT
  5
38
100
AcDbEntity
  8
DEFPOINTS
  6
BYBLOCK
 62
     0
100
AcDbPoint
 10
493.922317
 20
370.332169
 30
0.0
  0
ENDBLK
  5
3A
100
AcDbEntity
  8
0
100
AcDbBlockEnd
  0
ENDSEC
  0
SECTION
  2
ENTITIES
  0
POINT
  5
20
100
AcDbEntity
  8
DEFPOINTS
  6
BYBLOCK
 62
     0
100
AcDbPoint
 10
653.15964
 20
410.259012
 30
0.0
  0
MTEXT
  5
22
100
AcDbEntity
  8
0
  6
BYBLOCK
 62
     2
100
AcDbMText
 10
704.846619
 20
434.802747
 30
0.0
 40
3.0
 41
0.0
 71
     5
 72
     1
  1
MANIFOLD INSERTION POINT
  0
SOLID
  5
23
100
AcDbEntity
  8
0
  6
BYBLOCK
 62
     4
100
AcDbTrace
 10
654.362165
 20
413.052564
 30
0.0
 11
655.203181
 21
412.511553
 31
0.0
 12
653.15964
 22
410.259012
 32
0.0
 13
653.15964
 23
410.259012
 33
0.0
  0
LINE
  5
24
100
AcDbEntity
  8
0
  6
BYBLOCK
 62
     4
100
AcDbLine
 10
668.948203
 20
434.802747
 30
0.0
 11
671.948203
 21
434.802747
 31
0.0
  0
LINE
  5
25
100
AcDbEntity
  8
0
  6
BYBLOCK
 62
     4
100
AcDbLine
 10
654.782673
 20
412.782058
 30
0.0
 11
668.948203
 21
434.802747
 31
0.0
  0
CIRCLE
  5
26
100
AcDbEntity
  8
M04
100
AcDbCircle
 10
652.483377
 20
409.207742
 30
0.0
 40
1.25
  0
POINT
  5
28
100
AcDbEntity
  8
DEFPOINTS
  6
BYBLOCK
 62
     0
100
AcDbPoint
 10
486.883926
 20
388.125271
 30
0.0
  0
MTEXT
  5
29
100
AcDbEntity
  8
0
  6
BYBLOCK
 62
     2
100
AcDbMText
 10
435.526162
 20
373.457836
 30
0.0
 40
3.0
 41
0.0
 71
     5
 72
     1
  1
2 DOWELS %%C3.00 x 3.5 HIGH
  0
SOLID
  5
2A
100
AcDbEntity
  8
0
  6
BYBLOCK
 62
     4
100
AcDbTrace
 10
484.446319
 20
386.306461
 30
0.0
 11
485.167966
 21
385.6142
 31
0.0
 12
486.883926
 22
388.125271
 32
0.0
 13
486.883926
 23
388.125271
 33
0.0
  0
LINE
  5
2B
100
AcDbEntity
  8
0
  6
BYBLOCK
 62
     4
100
AcDbLine
 10
472.813758
 20
373.457836
 30
0.0
 11
469.813758
 21
373.457836
 31
0.0
  0
LINE
  5
2C
100
AcDbEntity
  8
0
  6
BYBLOCK
 62
     4
100
AcDbLine
 10
484.807142
 20
385.96033
 30
0.0
 11
472.813758
 21
373.457836
 31
0.0
  0
DIMENSION
  5
2D
100
AcDbEntity
  8
DIMS
100
AcDbDimension
  2
*D7
 10
493.922317
 20
370.332169
 30
0.0
 11
505.993746
 21
373.332169
 31
0.0
  3
DIM1
100
AcDbAlignedDimension
 13
487.922317
 23
386.402414
 33
0.0
 14
493.922317
 24
386.402414
 34
0.0
100
AcDbRotatedDimension
1001
ACAD
1000
DSTYLE
1002
{
1070
   144
1040
1.0
1002
}
  0
DIMENSION
  5
3B
100
AcDbEntity
  8
DIMS
100
AcDbDimension
  2
*D6
 10
457.864602
 20
389.207742
 30
0.0
 11
454.864602
 21
399.207742
 31
0.0
  3
DIM1
100
AcDbAlignedDimension
 13
466.105863
 23
409.207742
 33
0.0
 14
485.116989
 24
389.207742
 34
0.0
 50
90.0
100
AcDbRotatedDimension
1001
ACAD
1000
DSTYLE
1002
{
1070
   144
1040
1.0
1002
}
  0
LINE
  5
48
100
AcDbEntity
  8
DIMS
 62
     4
100
AcDbLine
 10
487.922317
 20
386.402414
 30
0.0
 11
487.922317
 21
392.01307
 31
0.0
  0
LINE
  5
49
100
AcDbEntity
  8
DIMS
 62
     4
100
AcDbLine
 10
485.116989
 20
389.207742
 30
0.0
 11
490.727645
 21
389.207742
 31
0.0
  0
LWPOLYLINE
  5
4A
100
AcDbEntity
  8
M01
100
AcDbPolyline
 90
        2
 70
     0
 43
1.5
 10
487.922317
 20
389.957742
 42
0.414214
 10
487.172317
 20
389.207742
  0
LWPOLYLINE
  5
4C
100
AcDbEntity
  8
M01
100
AcDbPolyline
 90
        2
 70
     0
 43
1.5
 10
487.922317
 20
388.457742
 42
0.414214
 10
488.672317
 20
389.207742
  0
CIRCLE
  5
4D
100
AcDbEntity
  8
M01
100
AcDbCircle
 10
487.922317
 20
389.207742
 30
0.0
 40
1.5
  0
LINE
  5
4E
100
AcDbEntity
  8
DIMS
 62
     4
100
AcDbLine
 10
493.922317
 20
386.402414
 30
0.0
 11
493.922317
 21
392.01307
 31
0.0
  0
LINE
  5
4F
100
AcDbEntity
  8
DIMS
 62
     4
100
AcDbLine
 10
491.116989
 20
389.207742
 30
0.0
 11
496.727645
 21
389.207742
 31
0.0
  0
LWPOLYLINE
  5
50
100
AcDbEntity
  8
M01
100
AcDbPolyline
 90
        2
 70
     0
 43
1.5
 10
493.922317
 20
389.957742
 42
0.414214
 10
493.172317
 20
389.207742
  0
LWPOLYLINE
  5
51
100
AcDbEntity
  8
M01
100
AcDbPolyline
 90
        2
 70
     0
 43
1.5
 10
493.922317
 20
388.457742
 42
0.414214
 10
494.672317
 20
389.207742
  0
CIRCLE
  5
52
100
AcDbEntity
  8
M01
100
AcDbCircle
 10
493.922317
 20
389.207742
 30
0.0
 40
1.5
  0
LINE
  5
53
100
AcDbEntity
  8
M03
 48
0.7
100
AcDbLine
 10
636.349402
 20
387.707742
 30
0.0
 11
636.349402
 21
390.707742
 31
0.0
  0
LINE
  5
56
100
AcDbEntity
  8
M03
 48
0.7
100
AcDbLine
 10
636.349402
 20
387.707742
 30
0.0
 11
635.483377
 21
389.207742
 31
0.0
  0
LINE
  5
57
100
AcDbEntity
  8
M03
 48
0.7
100
AcDbLine
 10
636.349402
 20
390.707742
 30
0.0
 11
635.483377
 21
389.207742
 31
0.0
  0
LINE
  5
58
100
AcDbEntity
  8
M03
 48
0.7
100
AcDbLine
 10
648.483377
 20
388.207742
 30
0.0
 11
647.983377
 21
387.707742
 31
0.0
  0
LINE
  5
59
100
AcDbEntity
  8
M03
 48
0.7
100
AcDbLine
 10
636.483377
 20
388.207742
 30
0.0
 11
636.983377
 21
387.707742
 31
0.0
  0
LINE
  5
5A
100
AcDbEntity
  8
M03
 48
0.7
100
AcDbLine
 10
647.983377
 20
387.707742
 30
0.0
 11
636.349402
 21
387.707742
 31
0.0
  0
LINE
  5
5B
100
AcDbEntity
  8
M03
 48
0.7
100
AcDbLine
 10
647.983377
 20
390.707742
 30
0.0
 11
648.483377
 21
390.207742
 31
0.0
  0
LINE
  5
5C
100
AcDbEntity
  8
M03
 48
0.7
100
AcDbLine
 10
636.983377
 20
390.707742
 30
0.0
 11
636.483377
 21
390.207742
 31
0.0
  0
LINE
  5
5D
100
AcDbEntity
  8
M03
 48
0.7
100
AcDbLine
 10
647.983377
 20
390.707742
 30
0.0
 11
636.349402
 21
390.707742
 31
0.0
  0
LINE
  5
5E
100
AcDbEntity
  8
M03
 48
0.7
100
AcDbLine
 10
648.483377
 20
390.207742
 30
0.0
 11
648.483377
 21
388.207742
 31
0.0
  0
LINE
  5
5F
100
AcDbEntity
  8
M03
 48
0.7
100
AcDbLine
 10
636.483377
 20
390.207742
 30
0.0
 11
636.483377
 21
388.207742
 31
0.0
  0
LINE
  5
60
100
AcDbEntity
  8
M03
 48
0.7
100
AcDbLine
 10
636.983377
 20
390.707742
 30
0.0
 11
636.983377
 21
387.707742
 31
0.0
  0
LINE
  5
61
100
AcDbEntity
  8
M03
 48
0.7
100
AcDbLine
 10
647.983377
 20
387.707742
 30
0.0
 11
647.983377
 21
390.707742
 31
0.0
  0
LINE
  5
62
100
AcDbEntity
  8
CENTRE
 48
0.7
100
AcDbLine
 10
631.31217
 20
389.207742
 30
0.0
 11
655.874746
 21
389.207742
 31
0.0
  0
LINE
  5
65
100
AcDbEntity
  8
M04
100
AcDbLine
 10
625.483377
 20
423.207742
 30
0.0
 11
642.483377
 21
423.207742
 31
0.0
  0
LINE
  5
66
100
AcDbEntity
  8
M04
100
AcDbLine
 10
642.983377
 20
426.207742
 30
0.0
 11
642.483377
 21
426.207742
 31
0.0
  0
LINE
  5
67
100
AcDbEntity
  8
M04
100
AcDbLine
 10
642.483377
 20
425.707742
 30
0.0
 11
642.483377
 21
426.207742
 31
0.0
  0
LINE
  5
68
100
AcDbEntity
  8
M04
 48
0.7
100
AcDbLine
 10
652.483377
 20
442.207742
 30
0.0
 11
654.483377
 21
444.207742
 31
0.0
  0
ARC
  5
69
100
AcDbEntity
  8
M04
 48
0.7
100
AcDbCircle
 10
647.483377
 20
449.207742
 30
0.0
 40
2.0
100
AcDbArc
 50
90.0
 51
180.0
  0
LINE
  5
6A
100
AcDbEntity
  8
M04
100
AcDbLine
 10
645.483377
 20
392.496418
 30
0.0
 11
645.483377
 21
378.966107
 31
0.0
  0
LINE
  5
6B
100
AcDbEntity
  8
M04
 48
0.7
100
AcDbLine
 10
647.483377
 20
451.207742
 30
0.0
 11
670.800311
 21
451.207742
 31
0.0
  0
LINE
  5
6C
100
AcDbEntity
  8
M04
 48
0.7
100
AcDbLine
 10
654.483377
 20
444.207742
 30
0.0
 11
670.800311
 21
444.207742
 31
0.0
  0
LINE
  5
6D
100
AcDbEntity
  8
M04
100
AcDbLine
 10
652.483377
 20
425.207742
 30
0.0
 11
652.483377
 21
442.207742
 31
0.0
  0
LINE
  5
6E
100
AcDbEntity
  8
M01
 48
0.7
100
AcDbLine
 10
626.483377
 20
399.707742
 30
0.0
 11
642.483377
 21
399.707742
 31
0.0
  0
LINE
  5
6F
100
AcDbEntity
  8
M01
 48
0.7
100
AcDbLine
 10
626.483377
 20
418.707742
 30
0.0
 11
642.483377
 21
418.707742
 31
0.0
  0
LINE
  5
70
100
AcDbEntity
  8
M01
100
AcDbLine
 10
625.18345
 20
420.570524
 30
0.0
 11
626.483377
 21
420.570524
 31
0.0
  0
LINE
  5
71
100
AcDbEntity
  8
M01
100
AcDbLine
 10
625.18345
 20
397.844938
 30
0.0
 11
626.483377
 21
397.844938
 31
0.0
  0
LINE
  5
72
100
AcDbEntity
  8
M01
100
AcDbLine
 10
625.18345
 20
421.207742
 30
0.0
 11
625.18345
 21
397.207742
 31
0.0
  0
LINE
  5
73
100
AcDbEntity
  8
M01
100
AcDbLine
 10
626.483377
 20
420.570524
 30
0.0
 11
626.483377
 21
397.844938
 31
0.0
  0
LINE
  5
74
100
AcDbEntity
  8
M04
100
AcDbLine
 10
621.483377
 20
549.059559
 30
0.0
 11
621.483377
 21
423.207742
 31
0.0
  0
LINE
  5
75
100
AcDbEntity
  8
M04
100
AcDbLine
 10
645.483377
 20
449.207742
 30
0.0
 11
645.483377
 21
425.919067
 31
0.0
  0
TEXT
  5
76
100
AcDbEntity
  8
TEXT
100
AcDbText
 10
397.143089
 20
321.189107
 30
0.0
 40
3.0
  1
MATERIAL TO BE MOULDED AND THE PROCESS CONDITIONS - SEE CATALOGUE FOR DETAILS
100
AcDbText
  0
TEXT
  5
78
100
AcDbEntity
  8
TEXT
100
AcDbText
 10
390.675679
 20
313.90494
 30
0.0
 40
3.0
  1
2. %%C18.00 MUST BE A GROUND FIT, DO NOT SPARK ERODE.
100
AcDbText
  0
TEXT
  5
79
100
AcDbEntity
  8
TEXT
100
AcDbText
 10
390.675679
 20
326.499537
 30
0.0
 40
3.0
  1
1. AN ALLOWANCE FOR EXPANSION OF THE BUSHING MUST BE MADE DEPENDENT ON THE
100
AcDbText
  0
TEXT
  5
7A
100
AcDbEntity
  8
TEXT
100
AcDbText
 10
410.248981
 20
334.939607
 30
0.0
 40
4.0
  1
%%UNOTE
100
AcDbText
  0
ARC
  5
7B
100
AcDbEntity
  8
M01
 48
0.7
100
AcDbCircle
 10
475.398905
 20
465.993742
 30
0.0
 40
19.0
100
AcDbArc
 50
350.0
 51
360.0
  0
ARC
  5
7C
100
AcDbEntity
  8
M01
 48
0.7
100
AcDbCircle
 10
475.398905
 20
465.993742
 30
0.0
 40
21.0
100
AcDbArc
 50
350.0
 51
0.0
  0
HATCH
  5
7D
100
AcDbEntity
  8
M04
100
AcDbHatch
 10
0.0
 20
0.0
 30
0.0
210
0.0
220
0.0
230
1.0
  2
_U
 70
     0
 71
     0
 91
        2
 92
        7
 72
     0
 73
     1
 93
        4
 10
495.3989047114204
 20
538.717277700464
 10
493.6489047114206
 20
538.717277700464
 10
493.6489047114206
 20
514.2077421121928
 10
495.3989047114204
 20
514.2077421121928
 97
        0
 92
        7
 72
     0
 73
     1
 93
        4
 10
497.1489047114205
 20
538.717277700464
 10
495.3989047114204
 20
538.717277700464
 10
495.3989047114204
 20
514.2077421121928
 10
497.1489047114205
 20
514.2077421121928
 97
        0
 75
     0
 76
     0
 52
45.0
 41
0.75
 77
     1
 78
     2
 53
45.0
 43
579.959964
 44
409.207742
 45
-0.5303300858899106
 46
0.5303300858899107
 79
     0
 53
135.0
 43
579.959964
 44
409.207742
 45
-0.5303300858899107
 46
-0.5303300858899106
 79
     0
 47
0.09857
 98
        2
 10
494.468442
 20
517.721839
 10
496.144791
 20
518.21469
  0
LINE
  5
7E
100
AcDbEntity
  8
M01
100
AcDbLine
 10
497.148905
 20
514.207742
 30
0.0
 11
497.148905
 21
538.717278
 31
0.0
  0
LINE
  5
7F
100
AcDbEntity
  8
M01
100
AcDbLine
 10
493.648905
 20
514.207742
 30
0.0
 11
493.648905
 21
538.717278
 31
0.0
  0
LINE
  5
80
100
AcDbEntity
  8
M01
 48
0.7
100
AcDbLine
 10
493.148905
 20
489.207742
 30
0.0
 11
493.148905
 21
514.207742
 31
0.0
  0
LINE
  5
81
100
AcDbEntity
  8
M01
 48
0.7
100
AcDbLine
 10
497.648905
 20
489.207742
 30
0.0
 11
497.648905
 21
514.207742
 31
0.0
  0
LINE
  5
82
100
AcDbEntity
  8
M01
100
AcDbLine
 10
497.648905
 20
509.207742
 30
0.0
 11
493.148905
 21
509.207742
 31
0.0
  0
LINE
  5
83
100
AcDbEntity
  8
M01
 48
0.7
100
AcDbLine
 10
497.148905
 20
484.207742
 30
0.0
 11
497.148905
 21
489.207742
 31
0.0
  0
LINE
  5
84
100
AcDbEntity
  8
M01
 48
0.7
100
AcDbLine
 10
493.648905
 20
484.207742
 30
0.0
 11
493.648905
 21
489.207742
 31
0.0
  0
LINE
  5
85
100
AcDbEntity
  8
M01
100
AcDbLine
 10
497.648905
 20
489.207742
 30
0.0
 11
493.148905
 21
489.207742
 31
0.0
  0
LINE
  5
86
100
AcDbEntity
  8
M01
100
AcDbLine
 10
497.648905
 20
514.207742
 30
0.0
 11
493.148905
 21
514.207742
 31
0.0
  0
LINE
  5
87
100
AcDbEntity
  8
M01
100
AcDbLine
 10
497.148905
 20
484.207742
 30
0.0
 11
493.648905
 21
484.207742
 31
0.0
  0
LINE
  5
88
100
AcDbEntity
  8
M01
100
AcDbLine
 10
496.079868
 20
462.34713
 30
0.0
 11
492.21097
 21
440.405522
 31
0.0
  0
ARC
  5
89
100
AcDbEntity
  8
M01
100
AcDbCircle
 10
510.922317
 20
437.106207
 30
0.0
 40
19.0
100
AcDbArc
 50
170.0
 51
180.0
  0
LINE
  5
8A
100
AcDbEntity
  8
M01
100
AcDbLine
 10
494.110252
 20
462.694427
 30
0.0
 11
490.241354
 21
440.752818
 31
0.0
  0
ARC
  5
8B
100
AcDbEntity
  8
M01
100
AcDbCircle
 10
510.922317
 20
437.106207
 30
0.0
 40
21.0
100
AcDbArc
 50
170.0
 51
180.0
  0
LINE
  5
8C
100
AcDbEntity
  8
CENTRE
100
AcDbLine
 10
495.398905
 20
481.5466
 30
0.0
 11
495.398905
 21
542.758653
 31
0.0
  0
LINE
  5
8D
100
AcDbEntity
  8
M01
 48
0.7
100
AcDbLine
 10
494.398905
 20
465.993742
 30
0.0
 11
494.398905
 21
484.207742
 31
0.0
  0
LINE
  5
8E
100
AcDbEntity
  8
M01
 48
0.7
100
AcDbLine
 10
496.398905
 20
465.993742
 30
0.0
 11
496.398905
 21
484.207742
 31
0.0
  0
LINE
  5
8F
100
AcDbEntity
  8
M01
 48
0.7
100
AcDbLine
 10
489.922317
 20
426.178305
 30
0.0
 11
489.922317
 21
437.106207
 31
0.0
  0
LINE
  5
90
100
AcDbEntity
  8
M01
 48
0.7
100
AcDbLine
 10
491.922317
 20
426.178305
 30
0.0
 11
491.922317
 21
437.106207
 31
0.0
  0
LINE
  5
91
100
AcDbEntity
  8
CENTRE
 48
0.7
100
AcDbLine
 10
490.922317
 20
379.207742
 30
0.0
 11
490.922317
 21
439.207742
 31
0.0
  0
HATCH
  5
92
100
AcDbEntity
  8
M04
100
AcDbHatch
 10
0.0
 20
0.0
 30
0.0
210
0.0
220
0.0
230
1.0
  2
_U
 70
     0
 71
     0
 91
        2
 92
        7
 72
     0
 73
     1
 93
        4
 10
487.4223172892081
 20
542.4235718033469
 10
484.422317289208
 20
542.423571803347
 10
484.422317289208
 20
516.2077421121925
 10
487.4223172892079
 20
516.2077421121927
 97
        0
 92
        7
 72
     0
 73
     1
 93
        4
 10
490.4223172892079
 20
542.4235718033469
 10
487.4223172892079
 20
542.4235718033469
 10
487.4223172892081
 20
516.2077421121925
 10
490.4223172892079
 20
516.2077421121928
 97
        0
 75
     0
 76
     0
 52
45.0
 41
1.0
 77
     1
 78
     2
 53
45.0
 43
-294.624821
 44
75.328834
 45
-0.7071067811865475
 46
0.7071067811865476
 79
     0
 53
135.0
 43
-294.624821
 44
75.328834
 45
-0.7071067811865476
 46
-0.7071067811865475
 79
     0
 47
0.084306
 98
        2
 10
486.595736
 20
526.574102
 10
489.21024
 20
527.248547
  0
LINE
  5
93
100
AcDbEntity
  8
M01
100
AcDbLine
 10
490.422317
 20
516.207742
 30
0.0
 11
490.422317
 21
542.423572
 31
0.0
  0
LINE
  5
94
100
AcDbEntity
  8
M01
100
AcDbLine
 10
484.422317
 20
516.207742
 30
0.0
 11
484.422317
 21
542.423572
 31
0.0
  0
LINE
  5
95
100
AcDbEntity
  8
CENTRE
 48
0.7
100
AcDbLine
 10
487.422317
 20
484.606988
 30
0.0
 11
487.422317
 21
547.060385
 31
0.0
  0
LINE
  5
96
100
AcDbEntity
  8
M01
100
AcDbLine
 10
488.672317
 20
426.058187
 30
0.0
 11
488.672317
 21
491.207742
 31
0.0
  0
LINE
  5
97
100
AcDbEntity
  8
M01
100
AcDbLine
 10
486.172317
 20
425.530655
 30
0.0
 11
486.172317
 21
491.207742
 31
0.0
  0
LINE
  5
98
100
AcDbEntity
  8
M01
100
AcDbLine
 10
491.422317
 20
509.207742
 30
0.0
 11
483.422317
 21
509.207742
 31
0.0
  0
LINE
  5
99
100
AcDbEntity
  8
M01
100
AcDbLine
 10
484.422317
 20
501.132485
 30
0.0
 11
490.422317
 21
501.132485
 31
0.0
  0
LINE
  5
9A
100
AcDbEntity
  8
M01
100
AcDbLine
 10
490.422317
 20
501.132485
 30
0.0
 11
490.422317
 21
509.207742
 31
0.0
  0
LINE
  5
9B
100
AcDbEntity
  8
M01
100
AcDbLine
 10
484.422317
 20
501.132485
 30
0.0
 11
484.422317
 21
509.207742
 31
0.0
  0
LINE
  5
9C
100
AcDbEntity
  8
M01
100
AcDbLine
 10
486.172317
 20
491.207742
 30
0.0
 11
484.422317
 21
501.132485
 31
0.0
  0
LINE
  5
9D
100
AcDbEntity
  8
M01
100
AcDbLine
 10
483.422317
 20
509.207742
 30
0.0
 11
483.422317
 21
516.207742
 31
0.0
  0
LINE
  5
9E
100
AcDbEntity
  8
M01
100
AcDbLine
 10
488.672317
 20
491.207742
 30
0.0
 11
490.422317
 21
501.132485
 31
0.0
  0
LINE
  5
9F
100
AcDbEntity
  8
M01
100
AcDbLine
 10
491.422317
 20
509.207742
 30
0.0
 11
491.422317
 21
516.207742
 31
0.0
  0
LINE
  5
A0
100
AcDbEntity
  8
M01
100
AcDbLine
 10
491.422317
 20
516.207742
 30
0.0
 11
483.422317
 21
516.207742
 31
0.0
  0
LINE
  5
A1
100
AcDbEntity
  8
M01
100
AcDbLine
 10
488.672317
 20
491.207742
 30
0.0
 11
486.172317
 21
491.207742
 31
0.0
  0
LINE
  5
A2
100
AcDbEntity
  8
M01
100
AcDbLine
 10
489.422317
 20
392.274048
 30
0.0
 11
489.422317
 21
386.707742
 31
0.0
  0
LINE
  5
A3
100
AcDbEntity
  8
M01
100
AcDbLine
 10
491.922317
 20
386.207742
 30
0.0
 11
489.922317
 21
386.207742
 31
0.0
  0
LINE
  5
A4
100
AcDbEntity
  8
M01
100
AcDbLine
 10
489.422317
 20
386.707742
 30
0.0
 11
489.922317
 21
386.207742
 31
0.0
  0
LINE
  5
A5
100
AcDbEntity
  8
M01
100
AcDbLine
 10
489.422317
 20
386.707742
 30
0.0
 11
492.422317
 21
386.707742
 31
0.0
  0
LINE
  5
A6
100
AcDbEntity
  8
M01
100
AcDbLine
 10
492.422317
 20
386.707742
 30
0.0
 11
491.922317
 21
386.207742
 31
0.0
  0
LINE
  5
A7
100
AcDbEntity
  8
M01
100
AcDbLine
 10
492.422317
 20
392.274048
 30
0.0
 11
492.422317
 21
386.707742
 31
0.0
  0
LINE
  5
A8
100
AcDbEntity
  8
M04
100
AcDbLine
 10
482.922317
 20
549.207742
 30
0.0
 11
482.922317
 21
424.207742
 31
0.0
  0
LINE
  5
A9
100
AcDbEntity
  8
M04
100
AcDbLine
 10
498.922317
 20
549.207742
 30
0.0
 11
498.922317
 21
424.207742
 31
0.0
  0
LWPOLYLINE
  5
AA
100
AcDbEntity
  8
M01
100
AcDbPolyline
 90
        2
 70
     0
 43
0.0
 10
495.922317
 20
406.916454
 10
495.922317
 20
411.49903
  0
LWPOLYLINE
  5
AB
100
AcDbEntity
  8
M01
100
AcDbPolyline
 90
        2
 70
     0
 43
0.0
 10
491.438004
 20
403.731971
 10
495.406631
 20
406.023259
  0
LWPOLYLINE
  5
AC
100
AcDbEntity
  8
M01
100
AcDbPolyline
 90
        2
 70
     0
 43
0.0
 10
486.438004
 20
406.023259
 10
490.406631
 20
403.731971
  0
LWPOLYLINE
  5
AD
100
AcDbEntity
  8
M01
100
AcDbPolyline
 90
        2
 70
     0
 43
0.0
 10
485.922317
 20
411.49903
 10
485.922317
 20
406.916454
  0
LWPOLYLINE
  5
AE
100
AcDbEntity
  8
M01
100
AcDbPolyline
 90
        2
 70
     0
 43
0.0
 10
490.406631
 20
414.683513
 10
486.438004
 20
412.392225
  0
LWPOLYLINE
  5
AF
100
AcDbEntity
  8
M01
100
AcDbPolyline
 90
        2
 70
     0
 43
0.0
 10
495.406631
 20
412.392225
 10
491.438004
 20
414.683513
  0
ARC
  5
B0
100
AcDbEntity
  8
M01
100
AcDbCircle
 10
490.922317
 20
409.207742
 30
0.0
 40
2.5
100
AcDbArc
 50
247.146417
 51
292.853583
  0
ARC
  5
B1
100
AcDbEntity
  8
M01
100
AcDbCircle
 10
490.922317
 20
409.207742
 30
0.0
 40
2.5
100
AcDbArc
 50
67.146417
 51
112.853583
  0
ARC
  5
B2
100
AcDbEntity
  8
M03
100
AcDbCircle
 10
490.922317
 20
409.207742
 30
0.0
 40
2.5
100
AcDbArc
 50
112.853583
 51
247.146417
  0
ELLIPSE
  5
B3
100
AcDbEntity
  8
M01
100
AcDbEllipse
 10
490.922317
 20
411.78727
 30
0.0
 11
0.0
 21
1.152395732798026
 31
0.0
210
0.0
220
0.0
230
-1.0
 40
0.867757
 41
0.0
 42
6.283185307179586
  0
ARC
  5
B4
100
AcDbEntity
  8
M03
100
AcDbCircle
 10
490.922317
 20
409.207742
 30
0.0
 40
2.5
100
AcDbArc
 50
292.853583
 51
67.146417
  0
CIRCLE
  5
B5
100
AcDbEntity
  8
M01
100
AcDbCircle
 10
490.922317
 20
409.207742
 30
0.0
 40
9.4995
  0
CIRCLE
  5
B6
100
AcDbEntity
  8
M01
100
AcDbCircle
 10
490.922317
 20
409.207742
 30
0.0
 40
8.499989
  0
CIRCLE
  5
B7
100
AcDbEntity
  8
M01
100
AcDbCircle
 10
490.922317
 20
409.207742
 30
0.0
 40
5.5
  0
ELLIPSE
  5
B8
100
AcDbEntity
  8
M01
100
AcDbEllipse
 10
490.922317
 20
406.628214
 30
0.0
 11
0.0
 21
-1.152395732798026
 31
0.0
210
0.0
220
0.0
230
1.0
 40
0.867757
 41
0.0
 42
6.283185307179586
  0
CIRCLE
  5
B9
100
AcDbEntity
  8
M01
100
AcDbCircle
 10
490.922317
 20
409.207742
 30
0.0
 40
17.0
  0
CIRCLE
  5
BA
100
AcDbEntity
  8
M04
100
AcDbCircle
 10
490.922317
 20
409.207742
 30
0.0
 40
14.0
  0
CIRCLE
  5
BB
100
AcDbEntity
  8
M01
100
AcDbCircle
 10
490.922317
 20
409.207742
 30
0.0
 40
12.0
  0
CIRCLE
  5
BC
100
AcDbEntity
  8
M01
100
AcDbCircle
 10
490.922317
 20
409.207742
 30
0.0
 40
11.362782
  0
CIRCLE
  5
BD
100
AcDbEntity
  8
M01
100
AcDbCircle
 10
490.922317
 20
409.207742
 30
0.0
 40
9.0
  0
POINT
  5
BE
100
AcDbEntity
  8
DEFPOINTS
  6
BYBLOCK
 62
     0
100
AcDbPoint
 10
578.004542
 20
410.362392
 30
0.0
  0
MTEXT
  5
BF
100
AcDbEntity
  8
0
  6
BYBLOCK
 62
     2
100
AcDbMText
 10
535.131161
 20
440.468207
 30
0.0
 40
3.0
 41
0.0
 71
     5
 72
     1
  1
GATE INSERTION POINT
  0
SOLID
  5
C0
100
AcDbEntity
  8
0
  6
BYBLOCK
 62
     4
100
AcDbTrace
 10
577.317198
 20
413.325087
 30
0.0
 11
576.393478
 21
412.942019
 31
0.0
 12
578.004542
 22
410.362392
 32
0.0
 13
578.004542
 23
410.362392
 33
0.0
  0
LINE
  5
C1
100
AcDbEntity
  8
0
  6
BYBLOCK
 62
     4
100
AcDbLine
 10
565.519624
 20
440.468207
 30
0.0
 11
562.519624
 21
440.468207
 31
0.0
  0
LINE
  5
C2
100
AcDbEntity
  8
0
  6
BYBLOCK
 62
     4
100
AcDbLine
 10
576.855338
 20
413.133553
 30
0.0
 11
565.519624
 21
440.468207
 31
0.0
  0
CIRCLE
  5
C3
100
AcDbEntity
  8
M04
100
AcDbCircle
 10
578.483377
 20
409.207742
 30
0.0
 40
1.25
  0
LINE
  5
C4
100
AcDbEntity
  8
CENTRE
100
AcDbLine
 10
515.738772
 20
409.207742
 30
0.0
 11
466.105863
 21
409.207742
 31
0.0
  0
TEXT
  5
C5
100
AcDbEntity
  8
DIMS
 62
     2
100
AcDbText
 10
554.967758
 20
419.733438
 30
0.0
 40
2.0
  1
-0
 50
90.0
100
AcDbText
  0
TEXT
  5
C6
100
AcDbEntity
  8
DIMS
 62
     2
100
AcDbText
 10
551.882838
 20
419.733438
 30
0.0
 40
2.0
  1
+0.018
 50
90.0
100
AcDbText
  0
TEXT
  5
C7
100
AcDbEntity
  8
DIMS
 62
     2
100
AcDbText
 10
678.934798
 20
413.720204
 30
0.0
 40
2.0
  1
-0
 50
90.0
100
AcDbText
  0
TEXT
  5
C8
100
AcDbEntity
  8
DIMS
 62
     2
100
AcDbText
 10
675.849878
 20
413.720204
 30
0.0
 40
2.0
  1
+0.025
 50
90.0
100
AcDbText
  0
DIMENSION
  5
C9
100
AcDbEntity
  8
DIMS
100
AcDbDimension
  2
*D5
 10
680.939997
 20
426.207742
 30
0.0
 11
680.939997
 21
404.469073
 31
0.0
 12
18.0
 22
0.0
 32
0.0
 70
   128
  1
%%c<>
  3
DIM1
100
AcDbAlignedDimension
 13
644.983377
 23
392.207742
 33
0.0
 14
644.983377
 24
426.207742
 34
0.0
 50
90.0
100
AcDbRotatedDimension
1001
ACAD
1000
DSTYLE
1002
{
1070
   144
1040
1.0
1002
}
  0
DIMENSION
  5
D6
100
AcDbEntity
  8
DIMS
100
AcDbDimension
  2
*D4
 10
556.303634
 20
400.207742
 30
0.0
 11
553.303634
 21
409.207742
 31
0.0
 12
-153.813762
 22
75.328834
 32
0.0
  1
%%c<>
  3
DIM1
100
AcDbAlignedDimension
 13
589.204444
 23
418.207742
 33
0.0
 14
589.204444
 24
400.207742
 34
0.0
 50
90.0
100
AcDbRotatedDimension
1001
ACAD
1000
DSTYLE
1002
{
1070
   144
1040
1.0
1002
}
  0
DIMENSION
  5
E3
100
AcDbEntity
  8
DIMS
100
AcDbDimension
  2
*D3
 10
652.483377
 20
345.335462
 30
0.0
 11
615.483377
 21
348.335462
 31
0.0
  1
L=<>
  3
DIM1
100
AcDbAlignedDimension
 13
578.483377
 23
388.36502
 33
0.0
 14
652.483377
 24
378.966107
 34
0.0
100
AcDbRotatedDimension
1001
ACAD
1000
DSTYLE
1002
{
1070
   144
1040
1.0
1002
}
  0
DIMENSION
  5
F0
100
AcDbEntity
  8
DIMS
100
AcDbDimension
  2
*D2
 10
642.483377
 20
355.335462
 30
0.0
 11
610.483377
 21
358.335462
 31
0.0
  1
L1=<>
  3
DIM1
100
AcDbAlignedDimension
 13
578.483377
 23
388.36502
 33
0.0
 14
642.483377
 24
392.207742
 34
0.0
100
AcDbRotatedDimension
1001
ACAD
1000
DSTYLE
1002
{
1070
   144
1040
1.0
1002
}
  0
DIMENSION
  5
FD
100
AcDbEntity
  8
DIMS
100
AcDbDimension
  2
*D1
 10
652.483377
 20
365.2876
 30
0.0
 11
622.983377
 21
368.2876
 31
0.0
  1
N=<>
  3
DIM1
100
AcDbAlignedDimension
 13
593.483377
 23
397.207742
 33
0.0
 14
652.483377
 24
378.966107
 34
0.0
100
AcDbRotatedDimension
1001
ACAD
1000
DSTYLE
1002
{
1070
    75
1070
     1
1070
   144
1040
1.0
1070
   287
1070
     4
1002
}
  0
DIMENSION
  5
109
100
AcDbEntity
  8
DIMS
100
AcDbDimension
  2
*D0
 10
593.483377
 20
365.2876
 30
0.0
 11
585.983377
 21
368.2876
 31
0.0
 12
-153.813762
 22
75.328834
 32
0.0
  1
15.0
  3
DIM1
100
AcDbAlignedDimension
 13
578.483377
 23
388.36502
 33
0.0
 14
593.483377
 24
397.207742
 34
0.0
100
AcDbRotatedDimension
1001
ACAD
1000
DSTYLE
1002
{
1070
   144
1040
1.0
1002
}
  0
TEXT
  5
116
100
AcDbEntity
  8
TEXT
100
AcDbText
 10
604.431609
 20
415.37345
 30
0.0
 40
2.0
  1
DG010011
 41
0.9
100
AcDbText
  0
LINE
  5
117
100
AcDbEntity
  8
CENTRE
 48
0.7
100
AcDbLine
 10
647.483377
 20
380.966125
 30
0.0
 11
647.483377
 21
398.863738
 31
0.0
  0
ARC
  5
118
100
AcDbEntity
  8
M03
100
AcDbCircle
 10
588.983377
 20
409.207742
 30
0.0
 40
2.5
100
AcDbArc
 50
90.0
 51
270.0
  0
ARC
  5
119
100
AcDbEntity
  8
M04
100
AcDbCircle
 10
589.204444
 20
405.207742
 30
0.0
 40
5.0
100
AcDbArc
 50
225.0
 51
270.0
  0
LINE
  5
11A
100
AcDbEntity
  8
M04
100
AcDbLine
 10
591.483377
 20
400.207742
 30
0.0
 11
589.204444
 21
400.207742
 31
0.0
  0
LINE
  5
11B
100
AcDbEntity
  8
M04
100
AcDbLine
 10
578.633377
 20
408.707742
 30
0.0
 11
585.66891
 21
401.672208
 31
0.0
  0
ARC
  5
11C
100
AcDbEntity
  8
M04
100
AcDbCircle
 10
589.204444
 20
413.207742
 30
0.0
 40
5.0
100
AcDbArc
 50
90.0
 51
135.0
  0
HATCH
  5
11D
100
AcDbEntity
  8
M04
100
AcDbHatch
 10
0.0
 20
0.0
 30
0.0
210
0.0
220
0.0
230
1.0
  2
_U
 70
     0
 71
     0
 91
        2
 92
        7
 72
     0
 73
     1
 93
        4
 10
627.2333765754189
 20
542.4235718033469
 10
624.2333765754188
 20
542.4235718033469
 10
624.2333765754188
 20
516.2077421121925
 10
627.2333765754187
 20
516.2077421121925
 97
        0
 92
        7
 72
     0
 73
     1
 93
        4
 10
630.2333765754187
 20
542.4235718033469
 10
627.2333765754187
 20
542.4235718033469
 10
627.2333765754189
 20
516.2077421121925
 10
630.2333765754187
 20
516.2077421121928
 97
        0
 75
     0
 76
     0
 52
45.0
 41
1.0
 77
     1
 78
     2
 53
45.0
 43
-154.813762
 44
75.328834
 45
-0.7071067811865475
 46
0.7071067811865476
 79
     0
 53
135.0
 43
-154.813762
 44
75.328834
 45
-0.7071067811865476
 46
-0.7071067811865475
 79
     0
 47
0.084306
 98
        2
 10
626.406795
 20
526.574102
 10
629.021299
 20
527.248547
  0
LINE
  5
11E
100
AcDbEntity
  8
M01
100
AcDbLine
 10
630.233377
 20
516.207742
 30
0.0
 11
630.233377
 21
542.423572
 31
0.0
  0
LINE
  5
11F
100
AcDbEntity
  8
M01
100
AcDbLine
 10
624.233377
 20
516.207742
 30
0.0
 11
624.233377
 21
542.423572
 31
0.0
  0
ARC
  5
120
100
AcDbEntity
  8
M01
100
AcDbCircle
 10
644.233377
 20
448.394467
 30
0.0
 40
18.75
100
AcDbArc
 50
170.0
 51
180.0
  0
LINE
  5
121
100
AcDbEntity
  8
M01
100
AcDbLine
 10
625.768231
 20
451.650371
 30
0.0
 11
628.160541
 21
465.217835
 31
0.0
  0
ARC
  5
122
100
AcDbEntity
  8
M01
100
AcDbCircle
 10
607.233377
 20
468.907859
 30
0.0
 40
21.25
100
AcDbArc
 50
350.0
 51
0.0
  0
ARC
  5
123
100
AcDbEntity
  8
M01
100
AcDbCircle
 10
607.233377
 20
468.907859
 30
0.0
 40
18.75
100
AcDbArc
 50
350.0
 51
0.0
  0
LINE
  5
124
100
AcDbEntity
  8
M01
100
AcDbLine
 10
623.306212
 20
452.084491
 30
0.0
 11
625.698522
 21
465.651956
 31
0.0
  0
ARC
  5
125
100
AcDbEntity
  8
M01
100
AcDbCircle
 10
644.233377
 20
448.394467
 30
0.0
 40
21.25
100
AcDbArc
 50
170.0
 51
180.0
  0
LINE
  5
126
100
AcDbEntity
  8
CENTRE
 48
0.7
100
AcDbLine
 10
627.233377
 20
484.699008
 30
0.0
 11
627.233377
 21
547.060385
 31
0.0
  0
LINE
  5
127
100
AcDbEntity
  8
M01
100
AcDbLine
 10
628.483377
 20
468.907859
 30
0.0
 11
628.483377
 21
491.207742
 31
0.0
  0
LINE
  5
128
100
AcDbEntity
  8
M01
100
AcDbLine
 10
625.983377
 20
468.907859
 30
0.0
 11
625.983377
 21
491.207742
 31
0.0
  0
LINE
  5
129
100
AcDbEntity
  8
M01
100
AcDbLine
 10
631.233377
 20
509.207742
 30
0.0
 11
623.233377
 21
509.207742
 31
0.0
  0
LINE
  5
12A
100
AcDbEntity
  8
M01
100
AcDbLine
 10
624.233377
 20
501.132485
 30
0.0
 11
630.233377
 21
501.132485
 31
0.0
  0
LINE
  5
12B
100
AcDbEntity
  8
M01
100
AcDbLine
 10
630.233377
 20
501.132485
 30
0.0
 11
630.233377
 21
509.207742
 31
0.0
  0
LINE
  5
12C
100
AcDbEntity
  8
M01
100
AcDbLine
 10
624.233377
 20
501.132485
 30
0.0
 11
624.233377
 21
509.207742
 31
0.0
  0
LINE
  5
12D
100
AcDbEntity
  8
M01
100
AcDbLine
 10
625.983377
 20
491.207742
 30
0.0
 11
624.233377
 21
501.132485
 31
0.0
  0
LINE
  5
12E
100
AcDbEntity
  8
M01
100
AcDbLine
 10
623.233377
 20
509.207742
 30
0.0
 11
623.233377
 21
516.207742
 31
0.0
  0
LINE
  5
12F
100
AcDbEntity
  8
M01
100
AcDbLine
 10
628.483377
 20
491.207742
 30
0.0
 11
630.233377
 21
501.132485
 31
0.0
  0
LINE
  5
130
100
AcDbEntity
  8
M01
100
AcDbLine
 10
631.233377
 20
509.207742
 30
0.0
 11
631.233377
 21
516.207742
 31
0.0
  0
LINE
  5
131
100
AcDbEntity
  8
M01
100
AcDbLine
 10
631.233377
 20
516.207742
 30
0.0
 11
623.233377
 21
516.207742
 31
0.0
  0
LINE
  5
132
100
AcDbEntity
  8
M04
100
AcDbLine
 10
591.483377
 20
418.207742
 30
0.0
 11
589.204444
 21
418.207742
 31
0.0
  0
LINE
  5
133
100
AcDbEntity
  8
M04
100
AcDbLine
 10
578.633377
 20
409.707742
 30
0.0
 11
585.66891
 21
416.743276
 31
0.0
  0
LINE
  5
134
100
AcDbEntity
  8
M04
100
AcDbLine
 10
578.633377
 20
409.707742
 30
0.0
 11
578.633377
 21
408.707742
 31
0.0
  0
LINE
  5
135
100
AcDbEntity
  8
M04
100
AcDbLine
 10
578.483377
 20
408.707742
 30
0.0
 11
578.633377
 21
408.707742
 31
0.0
  0
LINE
  5
136
100
AcDbEntity
  8
M04
100
AcDbLine
 10
578.483377
 20
409.707742
 30
0.0
 11
578.633377
 21
409.707742
 31
0.0
  0
LINE
  5
137
100
AcDbEntity
  8
M04
100
AcDbLine
 10
633.483377
 20
423.207742
 30
0.0
 11
633.483377
 21
549.207742
 31
0.0
  0
LINE
  5
138
100
AcDbEntity
  8
M04
100
AcDbLine
 10
642.983377
 20
392.207742
 30
0.0
 11
642.483377
 21
392.207742
 31
0.0
  0
LINE
  5
139
100
AcDbEntity
  8
M04
100
AcDbLine
 10
642.483377
 20
392.707742
 30
0.0
 11
642.483377
 21
392.207742
 31
0.0
  0
LINE
  5
13A
100
AcDbEntity
  8
M04
100
AcDbLine
 10
652.483377
 20
393.207742
 30
0.0
 11
652.483377
 21
378.966107
 31
0.0
  0
LINE
  5
13B
100
AcDbEntity
  8
M04
100
AcDbLine
 10
593.483377
 20
400.207731
 30
0.0
 11
593.483377
 21
397.207742
 31
0.0
  0
LINE
  5
13C
100
AcDbEntity
  8
M04
100
AcDbLine
 10
578.483377
 20
430.192846
 30
0.0
 11
578.483377
 21
388.36502
 31
0.0
  0
ARC
  5
13D
100
AcDbEntity
  8
M04
100
AcDbCircle
 10
595.483377
 20
397.207742
 30
0.0
 40
2.0
100
AcDbArc
 50
180.0
 51
270.0
  0
ARC
  5
13E
100
AcDbEntity
  8
M04
100
AcDbCircle
 10
595.483377
 20
421.207742
 30
0.0
 40
2.0
100
AcDbArc
 50
90.0
 51
180.0
  0
LINE
  5
13F
100
AcDbEntity
  8
M04
100
AcDbLine
 10
595.483377
 20
395.207742
 30
0.0
 11
642.483377
 21
395.207742
 31
0.0
  0
LINE
  5
140
100
AcDbEntity
  8
M04
100
AcDbLine
 10
595.483377
 20
423.207742
 30
0.0
 11
622.983377
 21
423.207742
 31
0.0
  0
LINE
  5
141
100
AcDbEntity
  8
M04
100
AcDbLine
 10
593.483377
 20
421.207742
 30
0.0
 11
593.483377
 21
418.207731
 31
0.0
  0
LINE
  5
142
100
AcDbEntity
  8
M01
100
AcDbLine
 10
628.483377
 20
491.207742
 30
0.0
 11
625.983377
 21
491.207742
 31
0.0
  0
LINE
  5
143
100
AcDbEntity
  8
M03
 48
0.7
100
AcDbLine
 10
583.947732
 20
408.207742
 30
0.0
 11
586.692089
 21
408.207742
 31
0.0
  0
LINE
  5
144
100
AcDbEntity
  8
M03
 48
0.7
100
AcDbLine
 10
583.947732
 20
410.207742
 30
0.0
 11
586.692089
 21
410.207742
 31
0.0
  0
LINE
  5
145
100
AcDbEntity
  8
M03
 48
0.7
100
AcDbLine
 10
588.983377
 20
406.707742
 30
0.0
 11
652.483377
 21
406.707742
 31
0.0
  0
LINE
  5
146
100
AcDbEntity
  8
M03
 48
0.7
100
AcDbLine
 10
588.983377
 20
411.707742
 30
0.0
 11
652.483377
 21
411.707742
 31
0.0
  0
LINE
  5
147
100
AcDbEntity
  8
M01
100
AcDbLine
 10
625.483377
 20
420.570524
 30
0.0
 11
625.483377
 21
448.394467
 31
0.0
  0
LINE
  5
148
100
AcDbEntity
  8
M01
100
AcDbLine
 10
622.983377
 20
421.207742
 30
0.0
 11
622.983377
 21
448.394467
 31
0.0
  0
LINE
  5
149
100
AcDbEntity
  8
CENTRE
 48
0.7
100
AcDbLine
 10
568.315633
 20
409.207742
 30
0.0
 11
660.800749
 21
409.207742
 31
0.0
  0
LINE
  5
14A
100
AcDbEntity
  8
M01
100
AcDbLine
 10
651.983377
 20
425.707742
 30
0.0
 11
652.483377
 21
425.207742
 31
0.0
  0
LINE
  5
14B
100
AcDbEntity
  8
M01
100
AcDbLine
 10
651.983377
 20
425.707742
 30
0.0
 11
650.483377
 21
425.707742
 31
0.0
  0
LINE
  5
14C
100
AcDbEntity
  8
M01
100
AcDbLine
 10
650.483377
 20
423.707742
 30
0.0
 11
649.313505
 21
423.707742
 31
0.0
  0
LINE
  5
14D
100
AcDbEntity
  8
M01
100
AcDbLine
 10
650.483377
 20
425.707742
 30
0.0
 11
650.483377
 21
409.207742
 31
0.0
  0
LINE
  5
14E
100
AcDbEntity
  8
M01
100
AcDbLine
 10
644.983377
 20
426.207742
 30
0.0
 11
644.983377
 21
409.207742
 31
0.0
  0
LINE
  5
14F
100
AcDbEntity
  8
M01
100
AcDbLine
 10
644.983377
 20
426.207742
 30
0.0
 11
649.313505
 21
423.707742
 31
0.0
  0
LINE
  5
150
100
AcDbEntity
  8
M01
100
AcDbLine
 10
642.483377
 20
425.707742
 30
0.0
 11
642.983377
 21
426.207742
 31
0.0
  0
LINE
  5
151
100
AcDbEntity
  8
M01
100
AcDbLine
 10
642.483377
 20
425.707742
 30
0.0
 11
642.483377
 21
409.207742
 31
0.0
  0
LINE
  5
152
100
AcDbEntity
  8
M01
100
AcDbLine
 10
644.983377
 20
426.207742
 30
0.0
 11
642.983377
 21
426.207742
 31
0.0
  0
LINE
  5
153
100
AcDbEntity
  8
M01
100
AcDbLine
 10
648.983377
 20
394.517144
 30
0.0
 11
649.313505
 21
394.707742
 31
0.0
  0
LINE
  5
154
100
AcDbEntity
  8
M01
100
AcDbLine
 10
650.483377
 20
394.707742
 30
0.0
 11
649.313505
 21
394.707742
 31
0.0
  0
LINE
  5
155
100
AcDbEntity
  8
M01
100
AcDbLine
 10
652.483377
 20
393.207742
 30
0.0
 11
651.983377
 21
392.707742
 31
0.0
  0
LINE
  5
156
100
AcDbEntity
  8
M01
100
AcDbLine
 10
651.983377
 20
392.707742
 30
0.0
 11
650.483377
 21
392.707742
 31
0.0
  0
LINE
  5
157
100
AcDbEntity
  8
M01
100
AcDbLine
 10
644.983377
 20
392.207742
 30
0.0
 11
645.983377
 21
392.785093
 31
0.0
  0
LINE
  5
158
100
AcDbEntity
  8
M01
100
AcDbLine
 10
645.983377
 20
392.785093
 30
0.0
 11
645.983377
 21
386.707742
 31
0.0
  0
ARC
  5
159
100
AcDbEntity
  8
M01
100
AcDbCircle
 10
647.986398
 20
392.779859
 30
0.0
 40
2.003029
100
AcDbArc
 50
60.149689
 51
179.850311
  0
LINE
  5
15A
100
AcDbEntity
  8
M01
100
AcDbLine
 10
648.483377
 20
386.207742
 30
0.0
 11
646.483377
 21
386.207742
 31
0.0
  0
LINE
  5
15B
100
AcDbEntity
  8
M01
100
AcDbLine
 10
645.983377
 20
386.707742
 30
0.0
 11
646.483377
 21
386.207742
 31
0.0
  0
LINE
  5
15C
100
AcDbEntity
  8
M01
100
AcDbLine
 10
645.983377
 20
386.707742
 30
0.0
 11
648.983377
 21
386.707742
 31
0.0
  0
LINE
  5
15D
100
AcDbEntity
  8
M01
100
AcDbLine
 10
648.983377
 20
386.707742
 30
0.0
 11
648.483377
 21
386.207742
 31
0.0
  0
LINE
  5
15E
100
AcDbEntity
  8
M01
100
AcDbLine
 10
648.983377
 20
394.517144
 30
0.0
 11
648.983377
 21
386.707742
 31
0.0
  0
LINE
  5
15F
100
AcDbEntity
  8
M01
100
AcDbLine
 10
642.483377
 20
392.707742
 30
0.0
 11
642.983377
 21
392.207742
 31
0.0
  0
LINE
  5
160
100
AcDbEntity
  8
M01
100
AcDbLine
 10
644.983377
 20
392.207742
 30
0.0
 11
642.983377
 21
392.207742
 31
0.0
  0
LINE
  5
161
100
AcDbEntity
  8
M01
100
AcDbLine
 10
649.313505
 20
394.707742
 30
0.0
 11
649.313505
 21
423.707742
 31
0.0
  0
LINE
  5
162
100
AcDbEntity
  8
M01
100
AcDbLine
 10
642.983377
 20
392.207742
 30
0.0
 11
642.983377
 21
426.207742
 31
0.0
  0
LINE
  5
163
100
AcDbEntity
  8
M01
100
AcDbLine
 10
651.983377
 20
392.707742
 30
0.0
 11
651.983377
 21
425.707742
 31
0.0
  0
LINE
  5
164
100
AcDbEntity
  8
M01
100
AcDbLine
 10
652.483377
 20
425.207742
 30
0.0
 11
652.483377
 21
393.207742
 31
0.0
  0
LINE
  5
165
100
AcDbEntity
  8
M01
100
AcDbLine
 10
650.483377
 20
392.707742
 30
0.0
 11
650.483377
 21
409.207742
 31
0.0
  0
LINE
  5
166
100
AcDbEntity
  8
M01
100
AcDbLine
 10
644.983377
 20
392.207742
 30
0.0
 11
644.983377
 21
409.207742
 31
0.0
  0
LINE
  5
167
100
AcDbEntity
  8
M01
100
AcDbLine
 10
642.483377
 20
409.207742
 30
0.0
 11
642.483377
 21
392.707742
 31
0.0
  0
LINE
  5
168
100
AcDbEntity
  8
M01
100
AcDbLine
 10
596.283304
 20
420.570524
 30
0.0
 11
594.983377
 21
420.570524
 31
0.0
  0
LINE
  5
169
100
AcDbEntity
  8
M01
100
AcDbLine
 10
593.983377
 20
418.457242
 30
0.0
 11
594.233377
 21
418.707242
 31
0.0
  0
LINE
  5
16A
100
AcDbEntity
  8
M01
100
AcDbLine
 10
591.483377
 20
418.207731
 30
0.0
 11
593.983377
 21
418.207731
 31
0.0
  0
LINE
  5
16B
100
AcDbEntity
  8
M01
100
AcDbLine
 10
590.983377
 20
417.707731
 30
0.0
 11
591.483377
 21
418.207731
 31
0.0
  0
ARC
  5
16C
100
AcDbEntity
  8
M01
100
AcDbCircle
 10
-588.138773
 20
413.550027
 30
0.0
 40
1.164755
210
0.0
220
0.0
230
-1.0
100
AcDbArc
 50
276.32991
 51
36.342163
  0
LINE
  5
16D
100
AcDbEntity
  8
M01
100
AcDbLine
 10
590.983377
 20
414.707742
 30
0.0
 11
588.010355
 21
414.707742
 31
0.0
  0
LINE
  5
16E
100
AcDbEntity
  8
M01
100
AcDbLine
 10
590.983377
 20
412.392312
 30
0.0
 11
588.010355
 21
412.392312
 31
0.0
  0
ARC
  5
16F
100
AcDbEntity
  8
M01
100
AcDbCircle
 10
590.13511
 20
409.207742
 30
0.0
 40
3.124813
100
AcDbArc
 50
132.840698
 51
227.159271
  0
ARC
  5
170
100
AcDbEntity
  8
M01
100
AcDbCircle
 10
588.138773
 20
404.865457
 30
0.0
 40
1.164755
100
AcDbArc
 50
96.32991
 51
216.342163
  0
LINE
  5
171
100
AcDbEntity
  8
M01
100
AcDbLine
 10
588.010355
 20
406.916482
 30
0.0
 11
588.010355
 21
406.023111
 31
0.0
  0
LINE
  5
172
100
AcDbEntity
  8
M01
100
AcDbLine
 10
590.983377
 20
411.499002
 30
0.0
 11
588.010355
 21
411.499002
 31
0.0
  0
LINE
  5
173
100
AcDbEntity
  8
M01
100
AcDbLine
 10
588.010355
 20
406.023111
 30
0.0
 11
590.983377
 21
406.023111
 31
0.0
  0
LINE
  5
174
100
AcDbEntity
  8
M01
100
AcDbLine
 10
588.010355
 20
406.916482
 30
0.0
 11
590.983377
 21
406.916482
 31
0.0
  0
LINE
  5
175
100
AcDbEntity
  8
M01
100
AcDbLine
 10
590.983377
 20
403.707742
 30
0.0
 11
588.010355
 21
403.707742
 31
0.0
  0
LINE
  5
176
100
AcDbEntity
  8
M01
100
AcDbLine
 10
590.983377
 20
417.707731
 30
0.0
 11
590.983377
 21
400.707731
 31
0.0
  0
LINE
  5
177
100
AcDbEntity
  8
M01
100
AcDbLine
 10
588.010355
 20
412.392312
 30
0.0
 11
588.010355
 21
411.499002
 31
0.0
  0
LINE
  5
178
100
AcDbEntity
  8
M01
100
AcDbLine
 10
594.983377
 20
418.707242
 30
0.0
 11
594.233377
 21
418.707242
 31
0.0
  0
LINE
  5
179
100
AcDbEntity
  8
M01
100
AcDbLine
 10
583.947732
 20
410.207742
 30
0.0
 11
583.223367
 21
410.207742
 31
0.0
  0
LINE
  5
17A
100
AcDbEntity
  8
M01
100
AcDbLine
 10
583.947732
 20
408.207742
 30
0.0
 11
583.223367
 21
408.207742
 31
0.0
  0
ARC
  5
17B
100
AcDbEntity
  8
M01
100
AcDbCircle
 10
584.796976
 20
409.21058
 30
0.0
 40
0.811339
100
AcDbArc
 50
106.179245
 51
254.199615
  0
ARC
  5
17C
100
AcDbEntity
  8
M01
100
AcDbCircle
 10
-583.289041
 20
406.987008
 30
0.0
 40
3.221402
210
0.0
220
0.0
230
-1.0
100
AcDbArc
 50
43.580139
 51
88.83194
  0
ARC
  5
17D
100
AcDbEntity
  8
M01
100
AcDbCircle
 10
583.289041
 20
411.428476
 30
0.0
 40
3.221402
100
AcDbArc
 50
223.580139
 51
268.83194
  0
ARC
  5
17E
100
AcDbEntity
  8
M01
100
AcDbCircle
 10
583.947732
 20
409.207742
 30
0.0
 40
1.0
100
AcDbArc
 50
270.0
 51
89.999985
  0
LINE
  5
17F
100
AcDbEntity
  8
M01
100
AcDbLine
 10
578.483377
 20
409.207742
 30
0.0
 11
588.010355
 21
414.707742
 31
0.0
  0
LINE
  5
180
100
AcDbEntity
  8
M01
100
AcDbLine
 10
578.483377
 20
409.207742
 30
0.0
 11
588.010355
 21
403.707742
 31
0.0
  0
LINE
  5
181
100
AcDbEntity
  8
M01
100
AcDbLine
 10
596.283304
 20
397.844938
 30
0.0
 11
594.983377
 21
397.844938
 31
0.0
  0
LINE
  5
182
100
AcDbEntity
  8
M01
100
AcDbLine
 10
593.983377
 20
399.957242
 30
0.0
 11
594.233377
 21
399.707242
 31
0.0
  0
LINE
  5
183
100
AcDbEntity
  8
M01
100
AcDbLine
 10
591.483377
 20
400.207731
 30
0.0
 11
593.983377
 21
400.207731
 31
0.0
  0
LINE
  5
184
100
AcDbEntity
  8
M01
100
AcDbLine
 10
594.233377
 20
399.707242
 30
0.0
 11
594.983377
 21
399.707242
 31
0.0
  0
LINE
  5
185
100
AcDbEntity
  8
M01
100
AcDbLine
 10
594.233377
 20
418.707242
 30
0.0
 11
594.233377
 21
399.707242
 31
0.0
  0
LINE
  5
186
100
AcDbEntity
  8
M01
100
AcDbLine
 10
593.983377
 20
399.957242
 30
0.0
 11
593.983377
 21
418.457242
 31
0.0
  0
LINE
  5
187
100
AcDbEntity
  8
M01
100
AcDbLine
 10
594.983377
 20
420.570524
 30
0.0
 11
594.983377
 21
397.844938
 31
0.0
  0
LINE
  5
188
100
AcDbEntity
  8
M01
100
AcDbLine
 10
596.283304
 20
421.207742
 30
0.0
 11
596.283304
 21
397.207742
 31
0.0
  0
LINE
  5
189
100
AcDbEntity
  8
M01
100
AcDbLine
 10
591.483377
 20
418.207742
 30
0.0
 11
591.483377
 21
400.207742
 31
0.0
  0
LINE
  5
18A
100
AcDbEntity
  8
M01
100
AcDbLine
 10
590.983377
 20
400.707731
 30
0.0
 11
591.483377
 21
400.207731
 31
0.0
  0
LINE
  5
18B
100
AcDbEntity
  8
M01
100
AcDbLine
 10
625.18345
 20
421.207742
 30
0.0
 11
596.283304
 21
421.207742
 31
0.0
  0
LINE
  5
18C
100
AcDbEntity
  8
M01
100
AcDbLine
 10
625.18345
 20
397.207742
 30
0.0
 11
596.283304
 21
397.207742
 31
0.0
  0
ENDSEC
  0
SECTION
  2
OBJECTS
  0
DICTIONARY
  5
1C
100
AcDbDictionary
  3
ACAD_GROUP
350
1A
  3
ACAD_MLINESTYLE
350
1B
  0
DICTIONARY
  5
3
100
AcDbDictionary
280
     1
  3
ACAD_SORTENTS
360
4
  0
DICTIONARY
  5
1A
102
{ACAD_REACTORS
330
1C
102
}
100
AcDbDictionary
  0
DICTIONARY
  5
1B
102
{ACAD_REACTORS
330
1C
102
}
100
AcDbDictionary
  3
STANDARD
350
1E
  0
SORTENTSTABLE
  5
4
102
{ACAD_REACTORS
330
3
102
}
100
AcDbSortentsTable
330
2
  0
MLINESTYLE
  5
1E
102
{ACAD_REACTORS
330
1B
102
}
100
AcDbMlineStyle
  2
STANDARD
 70
     0
  3

 62
   256
 51
90.0
 52
90.0
 71
     2
 49
0.5
 62
   256
  6
BYLAYER
 49
-0.5
 62
   256
  6
BYLAYER
  0
ENDSEC
  0
EOF
