  0
SECTION
  2
HEADER
  9
$ACADVER
  1
AC1014
  9
$ACADMAINTVER
 70
     9
  9
$DWGCODEPAGE
  3
ANSI_1252
  9
$INSBASE
 10
0.0
 20
0.0
 30
0.0
  9
$EXTMIN
 10
89.090426
 20
152.041051
 30
-0.222949
  9
$EXTMAX
 10
962.653225
 20
792.47655
 30
0.0
  9
$LIMMIN
 10
0.0
 20
0.0
  9
$LIMMAX
 10
1189.0
 20
841.0
  9
$ORTHOMODE
 70
     1
  9
$REGENMODE
 70
     1
  9
$FILLMODE
 70
     1
  9
$QTEXTMODE
 70
     0
  9
$MIRRTEXT
 70
     0
  9
$DRAGMODE
 70
     2
  9
$LTSCALE
 40
8.0
  9
$OSMODE
 70
     0
  9
$ATTMODE
 70
     1
  9
$TEXTSIZE
 40
2.0
  9
$TRACEWID
 40
10.0
  9
$TEXTSTYLE
  7
STANDARD
  9
$CLAYER
  8
M04
  9
$CELTYPE
  6
BYLAYER
  9
$CECOLOR
 62
   256
  9
$CELTSCALE
 40
1.0
  9
$DELOBJ
 70
     1
  9
$DISPSILH
 70
     0
  9
$DIMSCALE
 40
1.0
  9
$DIMASZ
 40
3.0
  9
$DIMEXO
 40
1.0
  9
$DIMDLI
 40
10.0
  9
$DIMRND
 40
0.01
  9
$DIMDLE
 40
1.25
  9
$DIMEXE
 40
2.5
  9
$DIMTP
 40
0.05
  9
$DIMTM
 40
0.0
  9
$DIMTXT
 40
3.0
  9
$DIMCEN
 40
-1.7
  9
$DIMTSZ
 40
0.0
  9
$DIMTOL
 70
     0
  9
$DIMLIM
 70
     0
  9
$DIMTIH
 70
     0
  9
$DIMTOH
 70
     0
  9
$DIMSE1
 70
     0
  9
$DIMSE2
 70
     0
  9
$DIMTAD
 70
     3
  9
$DIMZIN
 70
     1
  9
$DIMBLK
  1

  9
$DIMASO
 70
     1
  9
$DIMSHO
 70
     0
  9
$DIMPOST
  1

  9
$DIMAPOST
  1

  9
$DIMALT
 70
     0
  9
$DIMALTD
 70
     2
  9
$DIMALTF
 40
0.039
  9
$DIMLFAC
 40
1.0
  9
$DIMTOFL
 70
     0
  9
$DIMTVP
 40
1.5
  9
$DIMTIX
 70
     0
  9
$DIMSOXD
 70
     0
  9
$DIMSAH
 70
     0
  9
$DIMBLK1
  1

  9
$DIMBLK2
  1

  9
$DIMSTYLE
  2
DIM1
  9
$DIMCLRD
 70
     4
  9
$DIMCLRE
 70
     4
  9
$DIMCLRT
 70
     2
  9
$DIMTFAC
 40
0.7
  9
$DIMGAP
 40
1.5
  9
$DIMJUST
 70
     0
  9
$DIMSD1
 70
     0
  9
$DIMSD2
 70
     0
  9
$DIMTOLJ
 70
     1
  9
$DIMTZIN
 70
     1
  9
$DIMALTZ
 70
     1
  9
$DIMALTTZ
 70
     1
  9
$DIMFIT
 70
     0
  9
$DIMUPT
 70
     0
  9
$DIMUNIT
 70
     2
  9
$DIMDEC
 70
     2
  9
$DIMTDEC
 70
     2
  9
$DIMALTU
 70
     2
  9
$DIMALTTD
 70
     2
  9
$DIMTXSTY
  7
STANDARD
  9
$DIMAUNIT
 70
     0
  9
$LUNITS
 70
     2
  9
$LUPREC
 70
     3
  9
$SKETCHINC
 40
1.0
  9
$FILLETRAD
 40
0.0
  9
$AUNITS
 70
     0
  9
$AUPREC
 70
     3
  9
$MENU
  1
ACAD
  9
$ELEVATION
 40
0.0
  9
$PELEVATION
 40
0.0
  9
$THICKNESS
 40
0.0
  9
$LIMCHECK
 70
     0
  9
$BLIPMODE
 70
     1
  9
$CHAMFERA
 40
0.5
  9
$CHAMFERB
 40
0.5
  9
$CHAMFERC
 40
0.0
  9
$CHAMFERD
 40
0.0
  9
$SKPOLY
 70
     1
  9
$TDCREATE
 40
2449993.725698611
  9
$TDUPDATE
 40
2452118.451088889
  9
$TDINDWG
 40
1.5450457986
  9
$TDUSRTIMER
 40
1.5450457986
  9
$USRTIMER
 70
     1
  9
$ANGBASE
 50
0.0
  9
$ANGDIR
 70
     0
  9
$PDMODE
 70
     3
  9
$PDSIZE
 40
0.0
  9
$PLINEWID
 40
0.0
  9
$COORDS
 70
     2
  9
$SPLFRAME
 70
     0
  9
$SPLINETYPE
 70
     6
  9
$SPLINESEGS
 70
     6
  9
$ATTDIA
 70
     1
  9
$ATTREQ
 70
     1
  9
$HANDLING
 70
     1
  9
$HANDSEED
  5
2C1
  9
$SURFTAB1
 70
    12
  9
$SURFTAB2
 70
    12
  9
$SURFTYPE
 70
     6
  9
$SURFU
 70
    12
  9
$SURFV
 70
    12
  9
$UCSNAME
  2

  9
$UCSORG
 10
0.0
 20
0.0
 30
0.0
  9
$UCSXDIR
 10
1.0
 20
0.0
 30
0.0
  9
$UCSYDIR
 10
0.0
 20
1.0
 30
0.0
  9
$PUCSNAME
  2

  9
$PUCSORG
 10
0.0
 20
0.0
 30
0.0
  9
$PUCSXDIR
 10
1.0
 20
0.0
 30
0.0
  9
$PUCSYDIR
 10
0.0
 20
1.0
 30
0.0
  9
$USERI1
 70
     0
  9
$USERI2
 70
     0
  9
$USERI3
 70
     0
  9
$USERI4
 70
     0
  9
$USERI5
 70
     0
  9
$USERR1
 40
0.0
  9
$USERR2
 40
0.0
  9
$USERR3
 40
0.0
  9
$USERR4
 40
0.0
  9
$USERR5
 40
0.0
  9
$WORLDVIEW
 70
     0
  9
$SHADEDGE
 70
     3
  9
$SHADEDIF
 70
    70
  9
$TILEMODE
 70
     1
  9
$MAXACTVP
 70
    16
  9
$PINSBASE
 10
0.0
 20
0.0
 30
0.0
  9
$PLIMCHECK
 70
     0
  9
$PEXTMIN
 10
1.000000E+20
 20
1.000000E+20
 30
1.000000E+20
  9
$PEXTMAX
 10
-1.000000E+20
 20
-1.000000E+20
 30
-1.000000E+20
  9
$PLIMMIN
 10
0.0
 20
0.0
  9
$PLIMMAX
 10
12.0
 20
9.0
  9
$UNITMODE
 70
     0
  9
$VISRETAIN
 70
     0
  9
$PLINEGEN
 70
     0
  9
$PSLTSCALE
 70
     0
  9
$TREEDEPTH
 70
  3020
  9
$PICKSTYLE
 70
     1
  9
$CMLSTYLE
  2
STANDARD
  9
$CMLJUST
 70
     0
  9
$CMLSCALE
 40
1.0
  9
$PROXYGRAPHICS
 70
     1
  9
$MEASUREMENT
 70
     0
  0
ENDSEC
  0
SECTION
  2
CLASSES
  0
CLASS
  1
DICTIONARYVAR
  2
AcDbDictionaryVar
  3
"AutoCAD"
 90
        0
280
     0
281
     0
  0
CLASS
  1
LWPOLYLINE
  2
AcDbPolyline
  3
"AutoCAD"
 90
        0
280
     0
281
     1
  0
CLASS
  1
HATCH
  2
AcDbHatch
  3
"ACAD_SEDONA"
 90
        0
280
     0
281
     1
  0
CLASS
  1
SORTENTSTABLE
  2
AcDbSortentsTable
  3
"AutoCAD"
 90
        0
280
     0
281
     0
  0
CLASS
  1
WIPEOUTVARIABLES
  2
AcDbWipeoutVariables
  3
WIPEOUT
 90
        0
280
     0
281
     0
  0
CLASS
  1
WIPEOUT
  2
AcDbWipeout
  3
WIPEOUT
 90
      127
280
     0
281
     1
  0
ENDSEC
  0
SECTION
  2
TABLES
  0
TABLE
  2
VPORT
  5
14
100
AcDbSymbolTable
 70
     2
  0
VPORT
  5
2C0
100
AcDbSymbolTableRecord
100
AcDbViewportTableRecord
  2
*ACTIVE
 70
     0
 10
0.0
 20
0.0
 11
1.0
 21
1.0
 12
602.038644
 22
414.545479
 13
0.0
 23
0.0
 14
10.0
 24
10.0
 15
0.0
 25
0.0
 16
0.0
 26
0.0
 36
1.0
 17
16.313321
 27
12.779115
 37
0.222949
 40
949.610209
 41
1.470516
 42
50.0
 43
0.0
 44
0.0
 50
0.0
 51
0.0
 71
     0
 72
  2000
 73
     1
 74
     2
 75
     0
 76
     0
 77
     0
 78
     1
  0
ENDTAB
  0
TABLE
  2
LTYPE
  5
F
100
AcDbSymbolTable
 70
     3
  0
LTYPE
  5
10
100
AcDbSymbolTableRecord
100
AcDbLinetypeTableRecord
  2
BYBLOCK
 70
     0
  3

 72
    65
 73
     0
 40
0.0
  0
LTYPE
  5
11
100
AcDbSymbolTableRecord
100
AcDbLinetypeTableRecord
  2
BYLAYER
 70
     0
  3

 72
    65
 73
     0
 40
0.0
  0
LTYPE
  5
7
100
AcDbSymbolTableRecord
100
AcDbLinetypeTableRecord
  2
CONTINUOUS
 70
     0
  3
Solid line
 72
    65
 73
     0
 40
0.0
  0
LTYPE
  5
9A
100
AcDbSymbolTableRecord
100
AcDbLinetypeTableRecord
  2
CENTER
 70
     0
  3
Center ____ _ ____ _ ____ _ ____ _ ____ _ ____
 72
    65
 73
     4
 40
2.0
 49
1.25
 74
     0
 49
-0.25
 74
     0
 49
0.25
 74
     0
 49
-0.25
 74
     0
  0
LTYPE
  5
2E
100
AcDbSymbolTableRecord
100
AcDbLinetypeTableRecord
  2
HIDDEN
 70
     0
  3
Hidden __ __ __ __ __ __ __ __ __ __ __ __ __ _
 72
    65
 73
     2
 40
0.375
 49
0.25
 74
     0
 49
-0.125
 74
     0
  0
ENDTAB
  0
TABLE
  2
LAYER
  5
C
100
AcDbSymbolTable
 70
     8
  0
LAYER
  5
6
100
AcDbSymbolTableRecord
100
AcDbLayerTableRecord
  2
0
 70
     0
 62
     7
  6
CONTINUOUS
  0
LAYER
  5
99
100
AcDbSymbolTableRecord
100
AcDbLayerTableRecord
  2
CENTRE
 70
     0
 62
     3
  6
CENTER
  0
LAYER
  5
53
100
AcDbSymbolTableRecord
100
AcDbLayerTableRecord
  2
M01
 70
     0
 62
     1
  6
CONTINUOUS
  0
LAYER
  5
2D
100
AcDbSymbolTableRecord
100
AcDbLayerTableRecord
  2
M03
 70
     0
 62
     2
  6
HIDDEN
  0
LAYER
  5
1D
100
AcDbSymbolTableRecord
100
AcDbLayerTableRecord
  2
M04
 70
     0
 62
     7
  6
CONTINUOUS
  0
LAYER
  5
34
100
AcDbSymbolTableRecord
100
AcDbLayerTableRecord
  2
DIMS
 70
     0
 62
     4
  6
CONTINUOUS
  0
LAYER
  5
A9
100
AcDbSymbolTableRecord
100
AcDbLayerTableRecord
  2
TEXT
 70
     0
 62
     2
  6
CONTINUOUS
  0
LAYER
  5
3E
100
AcDbSymbolTableRecord
100
AcDbLayerTableRecord
  2
DEFPOINTS
 70
     0
 62
     7
  6
CONTINUOUS
  0
ENDTAB
  0
TABLE
  2
STYLE
  5
D
100
AcDbSymbolTable
 70
     1
  0
STYLE
  5
E
100
AcDbSymbolTableRecord
100
AcDbTextStyleTableRecord
  2
STANDARD
 70
     0
 40
0.0
 41
1.0
 50
0.0
 71
     0
 42
2.0
  3
SIMPLEX
  4

  0
ENDTAB
  0
TABLE
  2
VIEW
  5
12
100
AcDbSymbolTable
 70
     0
  0
ENDTAB
  0
TABLE
  2
UCS
  5
13
100
AcDbSymbolTable
 70
     0
  0
ENDTAB
  0
TABLE
  2
APPID
  5
16
100
AcDbSymbolTable
 70
     1
  0
APPID
  5
17
100
AcDbSymbolTableRecord
100
AcDbRegAppTableRecord
  2
ACAD
 70
     0
  0
ENDTAB
  0
TABLE
  2
DIMSTYLE
  5
18
100
AcDbSymbolTable
 70
     1
  0
DIMSTYLE
105
1F
102
{ACAD_REACTORS
330
1C9
330
1B9
330
1AC
330
19F
330
182
330
174
330
8B
330
7B
330
6E
330
61
330
43
330
33
102
}
100
AcDbSymbolTableRecord
100
AcDbDimStyleTableRecord
  2
DIM1
 70
     0
  3

  4

  5

  6

  7

 40
1.0
 41
3.0
 42
1.0
 43
10.0
 44
2.5
 45
0.01
 46
1.25
 47
0.05
 48
0.0
140
3.0
141
-1.7
142
0.0
143
0.039
144
0.2
145
1.5
146
0.7
147
1.5
 71
     0
 72
     0
 73
     0
 74
     0
 75
     0
 76
     0
 77
     3
 78
     1
170
     0
171
     2
172
     0
173
     0
174
     0
175
     0
176
     4
177
     4
178
     2
270
     2
271
     2
272
     2
273
     2
274
     2
340
E
275
     0
280
     0
281
     0
282
     0
283
     1
284
     1
285
     1
286
     1
287
     0
288
     0
  0
ENDTAB
  0
TABLE
  2
BLOCK_RECORD
  5
1
100
AcDbSymbolTable
 70
    12
  0
BLOCK_RECORD
  5
2
102
{ACAD_XDICTIONARY
360
3
102
}
100
AcDbSymbolTableRecord
100
AcDbBlockTableRecord
  2
*MODEL_SPACE
  0
BLOCK_RECORD
  5
9
100
AcDbSymbolTableRecord
100
AcDbBlockTableRecord
  2
*PAPER_SPACE
  0
BLOCK_RECORD
  5
1CA
100
AcDbSymbolTableRecord
100
AcDbBlockTableRecord
  2
*D0
  0
BLOCK_RECORD
  5
1BA
100
AcDbSymbolTableRecord
100
AcDbBlockTableRecord
  2
*D1
  0
BLOCK_RECORD
  5
1AD
100
AcDbSymbolTableRecord
100
AcDbBlockTableRecord
  2
*D2
  0
BLOCK_RECORD
  5
1A0
100
AcDbSymbolTableRecord
100
AcDbBlockTableRecord
  2
*D3
  0
BLOCK_RECORD
  5
183
100
AcDbSymbolTableRecord
100
AcDbBlockTableRecord
  2
*D4
  0
BLOCK_RECORD
  5
175
100
AcDbSymbolTableRecord
100
AcDbBlockTableRecord
  2
*D5
  0
BLOCK_RECORD
  5
8C
100
AcDbSymbolTableRecord
100
AcDbBlockTableRecord
  2
*D6
  0
BLOCK_RECORD
  5
7C
100
AcDbSymbolTableRecord
100
AcDbBlockTableRecord
  2
*D7
  0
BLOCK_RECORD
  5
6F
100
AcDbSymbolTableRecord
100
AcDbBlockTableRecord
  2
*D8
  0
BLOCK_RECORD
  5
62
100
AcDbSymbolTableRecord
100
AcDbBlockTableRecord
  2
*D9
  0
BLOCK_RECORD
  5
44
100
AcDbSymbolTableRecord
100
AcDbBlockTableRecord
  2
*D10
  0
BLOCK_RECORD
  5
35
100
AcDbSymbolTableRecord
100
AcDbBlockTableRecord
  2
*D11
  0
ENDTAB
  0
ENDSEC
  0
SECTION
  2
BLOCKS
  0
BLOCK
  5
5
100
AcDbEntity
  8
0
100
AcDbBlockBegin
  2
*MODEL_SPACE
 70
     0
 10
0.0
 20
0.0
 30
0.0
  3
*MODEL_SPACE
  1

  0
ENDBLK
  5
8
100
AcDbEntity
  8
0
100
AcDbBlockEnd
  0
BLOCK
  5
A
100
AcDbEntity
 67
     1
  8
0
100
AcDbBlockBegin
  2
*PAPER_SPACE
 70
     0
 10
0.0
 20
0.0
 30
0.0
  3
*PAPER_SPACE
  1

  0
ENDBLK
  5
B
100
AcDbEntity
 67
     1
  8
0
100
AcDbBlockEnd
  0
BLOCK
  5
1D4
100
AcDbEntity
  8
0
100
AcDbBlockBegin
  2
*D0
 70
     1
 10
0.0
 20
0.0
 30
0.0
  3
*D0
  1

  0
LINE
  5
1CB
100
AcDbEntity
  8
0
  6
BYBLOCK
 62
     4
100
AcDbLine
 10
693.368948
 20
672.156141
 30
0.0
 11
731.442155
 21
672.156141
 31
0.0
  0
LINE
  5
1CC
100
AcDbEntity
  8
0
  6
BYBLOCK
 62
     4
100
AcDbLine
 10
687.266243
 20
730.576141
 30
0.0
 11
731.442155
 21
730.576141
 31
0.0
  0
LINE
  5
1CD
100
AcDbEntity
  8
0
  6
BYBLOCK
 62
     4
100
AcDbLine
 10
728.942155
 20
675.156141
 30
0.0
 11
728.942155
 21
727.576141
 31
0.0
  0
SOLID
  5
1CE
100
AcDbEntity
  8
0
  6
BYBLOCK
 62
     4
100
AcDbTrace
 10
728.442155
 20
675.156141
 30
0.0
 11
729.442155
 21
675.156141
 31
0.0
 12
728.942155
 22
672.156141
 32
0.0
 13
728.942155
 23
672.156141
 33
0.0
  0
SOLID
  5
1CF
100
AcDbEntity
  8
0
  6
BYBLOCK
 62
     4
100
AcDbTrace
 10
728.442155
 20
727.576141
 30
0.0
 11
729.442155
 21
727.576141
 31
0.0
 12
728.942155
 22
730.576141
 32
0.0
 13
728.942155
 23
730.576141
 33
0.0
  0
MTEXT
  5
1D0
100
AcDbEntity
  8
0
  6
BYBLOCK
 62
     2
100
AcDbMText
 10
725.942155
 20
701.236377
 30
0.0
 40
3.0
 41
0.0
 71
     5
 72
     1
  1
\A1;\U+220558.42
 11
0.0
 21
1.0
 31
0.0
  0
POINT
  5
1D1
100
AcDbEntity
  8
DEFPOINTS
  6
BYBLOCK
 62
     0
100
AcDbPoint
 10
692.368948
 20
672.156141
 30
0.0
  0
POINT
  5
1D2
100
AcDbEntity
  8
DEFPOINTS
  6
BYBLOCK
 62
     0
100
AcDbPoint
 10
686.266243
 20
730.576141
 30
0.0
  0
POINT
  5
1D3
100
AcDbEntity
  8
DEFPOINTS
  6
BYBLOCK
 62
     0
100
AcDbPoint
 10
728.942155
 20
730.576141
 30
0.0
  0
ENDBLK
  5
1D5
100
AcDbEntity
  8
0
100
AcDbBlockEnd
  0
BLOCK
  5
1C5
100
AcDbEntity
  8
0
100
AcDbBlockBegin
  2
*D1
 70
     1
 10
0.0
 20
0.0
 30
0.0
  3
*D1
  1

  0
LINE
  5
1BB
100
AcDbEntity
  8
0
  6
BYBLOCK
 62
     4
100
AcDbLine
 10
701.793948
 20
538.974791
 30
0.0
 11
701.793948
 21
523.727187
 31
0.0
  0
LINE
  5
1BC
100
AcDbEntity
  8
0
  6
BYBLOCK
 62
     4
100
AcDbLine
 10
682.743948
 20
556.591023
 30
0.0
 11
682.743948
 21
523.727187
 31
0.0
  0
LINE
  5
1BD
100
AcDbEntity
  8
0
  6
BYBLOCK
 62
     4
100
AcDbLine
 10
704.793948
 20
526.227187
 30
0.0
 11
707.793948
 21
526.227187
 31
0.0
  0
LINE
  5
1BE
100
AcDbEntity
  8
0
  6
BYBLOCK
 62
     4
100
AcDbLine
 10
679.743948
 20
526.227187
 30
0.0
 11
654.153319
 21
526.227187
 31
0.0
  0
SOLID
  5
1BF
100
AcDbEntity
  8
0
  6
BYBLOCK
 62
     4
100
AcDbTrace
 10
704.793948
 20
526.727187
 30
0.0
 11
704.793948
 21
525.727187
 31
0.0
 12
701.793948
 22
526.227187
 32
0.0
 13
701.793948
 23
526.227187
 33
0.0
  0
SOLID
  5
1C0
100
AcDbEntity
  8
0
  6
BYBLOCK
 62
     4
100
AcDbTrace
 10
679.743948
 20
526.727187
 30
0.0
 11
679.743948
 21
525.727187
 31
0.0
 12
682.743948
 22
526.227187
 32
0.0
 13
682.743948
 23
526.227187
 33
0.0
  0
MTEXT
  5
1C1
100
AcDbEntity
  8
0
  6
BYBLOCK
 62
     2
100
AcDbMText
 10
661.367604
 20
529.227187
 30
0.0
 40
3.0
 41
0.0
 71
     5
 72
     1
  1
\A1;19.05
  0
POINT
  5
1C2
100
AcDbEntity
  8
DEFPOINTS
  6
BYBLOCK
 62
     0
100
AcDbPoint
 10
701.793948
 20
539.974791
 30
0.0
  0
POINT
  5
1C3
100
AcDbEntity
  8
DEFPOINTS
  6
BYBLOCK
 62
     0
100
AcDbPoint
 10
682.743948
 20
557.591023
 30
0.0
  0
POINT
  5
1C4
100
AcDbEntity
  8
DEFPOINTS
  6
BYBLOCK
 62
     0
100
AcDbPoint
 10
682.743948
 20
526.227187
 30
0.0
  0
ENDBLK
  5
1C6
100
AcDbEntity
  8
0
100
AcDbBlockEnd
  0
BLOCK
  5
1B7
100
AcDbEntity
  8
0
100
AcDbBlockBegin
  2
*D2
 70
     1
 10
0.0
 20
0.0
 30
0.0
  3
*D2
  1

  0
LINE
  5
1AE
100
AcDbEntity
  8
0
  6
BYBLOCK
 62
     4
100
AcDbLine
 10
727.193948
 20
538.974791
 30
0.0
 11
727.193948
 21
513.667976
 31
0.0
  0
LINE
  5
1AF
100
AcDbEntity
  8
0
  6
BYBLOCK
 62
     4
100
AcDbLine
 10
625.593948
 20
568.801023
 30
0.0
 11
625.593948
 21
513.667976
 31
0.0
  0
LINE
  5
1B0
100
AcDbEntity
  8
0
  6
BYBLOCK
 62
     4
100
AcDbLine
 10
724.193948
 20
516.167976
 30
0.0
 11
628.593948
 21
516.167976
 31
0.0
  0
SOLID
  5
1B1
100
AcDbEntity
  8
0
  6
BYBLOCK
 62
     4
100
AcDbTrace
 10
724.193948
 20
516.667976
 30
0.0
 11
724.193948
 21
515.667976
 31
0.0
 12
727.193948
 22
516.167976
 32
0.0
 13
727.193948
 23
516.167976
 33
0.0
  0
SOLID
  5
1B2
100
AcDbEntity
  8
0
  6
BYBLOCK
 62
     4
100
AcDbTrace
 10
628.593948
 20
516.667976
 30
0.0
 11
628.593948
 21
515.667976
 31
0.0
 12
625.593948
 22
516.167976
 32
0.0
 13
625.593948
 23
516.167976
 33
0.0
  0
MTEXT
  5
1B3
100
AcDbEntity
  8
0
  6
BYBLOCK
 62
     2
100
AcDbMText
 10
676.393948
 20
519.95369
 30
0.0
 40
3.0
 41
0.0
 71
     5
 72
     1
  1
\A1;L1=101.60 (4.000")
  0
POINT
  5
1B4
100
AcDbEntity
  8
DEFPOINTS
  6
BYBLOCK
 62
     0
100
AcDbPoint
 10
727.193948
 20
539.974791
 30
0.0
  0
POINT
  5
1B5
100
AcDbEntity
  8
DEFPOINTS
  6
BYBLOCK
 62
     0
100
AcDbPoint
 10
625.593948
 20
569.801023
 30
0.0
  0
POINT
  5
1B6
100
AcDbEntity
  8
DEFPOINTS
  6
BYBLOCK
 62
     0
100
AcDbPoint
 10
625.593948
 20
516.167976
 30
0.0
  0
ENDBLK
  5
1B8
100
AcDbEntity
  8
0
100
AcDbBlockEnd
  0
BLOCK
  5
1AA
100
AcDbEntity
  8
0
100
AcDbBlockBegin
  2
*D3
 70
     1
 10
0.0
 20
0.0
 30
0.0
  3
*D3
  1

  0
LINE
  5
1A1
100
AcDbEntity
  8
0
  6
BYBLOCK
 62
     4
100
AcDbLine
 10
727.193948
 20
538.974791
 30
0.0
 11
727.193948
 21
503.667976
 31
0.0
  0
LINE
  5
1A2
100
AcDbEntity
  8
0
  6
BYBLOCK
 62
     4
100
AcDbLine
 10
612.893948
 20
583.801023
 30
0.0
 11
612.893948
 21
503.667976
 31
0.0
  0
LINE
  5
1A3
100
AcDbEntity
  8
0
  6
BYBLOCK
 62
     4
100
AcDbLine
 10
724.193948
 20
506.167976
 30
0.0
 11
615.893948
 21
506.167976
 31
0.0
  0
SOLID
  5
1A4
100
AcDbEntity
  8
0
  6
BYBLOCK
 62
     4
100
AcDbTrace
 10
724.193948
 20
506.667976
 30
0.0
 11
724.193948
 21
505.667976
 31
0.0
 12
727.193948
 22
506.167976
 32
0.0
 13
727.193948
 23
506.167976
 33
0.0
  0
SOLID
  5
1A5
100
AcDbEntity
  8
0
  6
BYBLOCK
 62
     4
100
AcDbTrace
 10
615.893948
 20
506.667976
 30
0.0
 11
615.893948
 21
505.667976
 31
0.0
 12
612.893948
 22
506.167976
 32
0.0
 13
612.893948
 23
506.167976
 33
0.0
  0
MTEXT
  5
1A6
100
AcDbEntity
  8
0
  6
BYBLOCK
 62
     2
100
AcDbMText
 10
670.043948
 20
509.167976
 30
0.0
 40
3.0
 41
0.0
 71
     5
 72
     1
  1
\A1;114.30 REF.
  0
POINT
  5
1A7
100
AcDbEntity
  8
DEFPOINTS
  6
BYBLOCK
 62
     0
100
AcDbPoint
 10
727.193948
 20
539.974791
 30
0.0
  0
POINT
  5
1A8
100
AcDbEntity
  8
DEFPOINTS
  6
BYBLOCK
 62
     0
100
AcDbPoint
 10
612.893948
 20
584.801023
 30
0.0
  0
POINT
  5
1A9
100
AcDbEntity
  8
DEFPOINTS
  6
BYBLOCK
 62
     0
100
AcDbPoint
 10
612.893948
 20
506.167976
 30
0.0
  0
ENDBLK
  5
1AB
100
AcDbEntity
  8
0
100
AcDbBlockEnd
  0
BLOCK
  5
18D
100
AcDbEntity
  8
0
100
AcDbBlockBegin
  2
*D4
 70
     1
 10
0.0
 20
0.0
 30
0.0
  3
*D4
  1

  0
LINE
  5
184
100
AcDbEntity
  8
0
  6
BYBLOCK
 62
     4
100
AcDbLine
 10
457.661937
 20
586.801023
 30
0.0
 11
443.67936
 21
586.801023
 31
0.0
  0
LINE
  5
185
100
AcDbEntity
  8
0
  6
BYBLOCK
 62
     4
100
AcDbLine
 10
498.333585
 20
548.801023
 30
0.0
 11
443.67936
 21
548.801023
 31
0.0
  0
LINE
  5
186
100
AcDbEntity
  8
0
  6
BYBLOCK
 62
     4
100
AcDbLine
 10
446.17936
 20
583.801023
 30
0.0
 11
446.17936
 21
551.801023
 31
0.0
  0
SOLID
  5
187
100
AcDbEntity
  8
0
  6
BYBLOCK
 62
     4
100
AcDbTrace
 10
445.67936
 20
583.801023
 30
0.0
 11
446.67936
 21
583.801023
 31
0.0
 12
446.17936
 22
586.801023
 32
0.0
 13
446.17936
 23
586.801023
 33
0.0
  0
SOLID
  5
188
100
AcDbEntity
  8
0
  6
BYBLOCK
 62
     4
100
AcDbTrace
 10
445.67936
 20
551.801023
 30
0.0
 11
446.67936
 21
551.801023
 31
0.0
 12
446.17936
 22
548.801023
 32
0.0
 13
446.17936
 23
548.801023
 33
0.0
  0
MTEXT
  5
189
100
AcDbEntity
  8
0
  6
BYBLOCK
 62
     2
100
AcDbMText
 10
443.17936
 20
567.801023
 30
0.0
 40
3.0
 41
0.0
 71
     5
 72
     1
  1
\A1;38
 11
0.0
 21
1.0
 31
0.0
  0
POINT
  5
18A
100
AcDbEntity
  8
DEFPOINTS
  6
BYBLOCK
 62
     0
100
AcDbPoint
 10
458.661937
 20
586.801023
 30
0.0
  0
POINT
  5
18B
100
AcDbEntity
  8
DEFPOINTS
  6
BYBLOCK
 62
     0
100
AcDbPoint
 10
499.333585
 20
548.801023
 30
0.0
  0
POINT
  5
18C
100
AcDbEntity
  8
DEFPOINTS
  6
BYBLOCK
 62
     0
100
AcDbPoint
 10
446.17936
 20
548.801023
 30
0.0
  0
ENDBLK
  5
18E
100
AcDbEntity
  8
0
100
AcDbBlockEnd
  0
BLOCK
  5
180
100
AcDbEntity
  8
0
100
AcDbBlockBegin
  2
*D5
 70
     1
 10
0.0
 20
0.0
 30
0.0
  3
*D5
  1

  0
LINE
  5
176
100
AcDbEntity
  8
0
  6
BYBLOCK
 62
     4
100
AcDbLine
 10
497.833585
 20
549.301023
 30
0.0
 11
497.833585
 21
532.950054
 31
0.0
  0
LINE
  5
177
100
AcDbEntity
  8
0
  6
BYBLOCK
 62
     4
100
AcDbLine
 10
500.833585
 20
549.301023
 30
0.0
 11
500.833585
 21
532.950054
 31
0.0
  0
LINE
  5
178
100
AcDbEntity
  8
0
  6
BYBLOCK
 62
     4
100
AcDbLine
 10
494.833585
 20
535.450054
 30
0.0
 11
491.833585
 21
535.450054
 31
0.0
  0
LINE
  5
179
100
AcDbEntity
  8
0
  6
BYBLOCK
 62
     4
100
AcDbLine
 10
503.833585
 20
535.450054
 30
0.0
 11
539.547871
 21
535.450054
 31
0.0
  0
SOLID
  5
17A
100
AcDbEntity
  8
0
  6
BYBLOCK
 62
     4
100
AcDbTrace
 10
494.833585
 20
535.950054
 30
0.0
 11
494.833585
 21
534.950054
 31
0.0
 12
497.833585
 22
535.450054
 32
0.0
 13
497.833585
 23
535.450054
 33
0.0
  0
SOLID
  5
17B
100
AcDbEntity
  8
0
  6
BYBLOCK
 62
     4
100
AcDbTrace
 10
503.833585
 20
535.950054
 30
0.0
 11
503.833585
 21
534.950054
 31
0.0
 12
500.833585
 22
535.450054
 32
0.0
 13
500.833585
 23
535.450054
 33
0.0
  0
MTEXT
  5
17C
100
AcDbEntity
  8
0
  6
BYBLOCK
 62
     2
100
AcDbMText
 10
523.190728
 20
538.450054
 30
0.0
 40
3.0
 41
0.0
 71
     5
 72
     1
  1
\A1;3.00 x 4 DP.
  0
POINT
  5
17D
100
AcDbEntity
  8
DEFPOINTS
  6
BYBLOCK
 62
     0
100
AcDbPoint
 10
497.833585
 20
550.301023
 30
0.0
  0
POINT
  5
17E
100
AcDbEntity
  8
DEFPOINTS
  6
BYBLOCK
 62
     0
100
AcDbPoint
 10
500.833585
 20
550.301023
 30
0.0
  0
POINT
  5
17F
100
AcDbEntity
  8
DEFPOINTS
  6
BYBLOCK
 62
     0
100
AcDbPoint
 10
500.833585
 20
535.450054
 30
0.0
  0
ENDBLK
  5
181
100
AcDbEntity
  8
0
100
AcDbBlockEnd
  0
BLOCK
  5
96
100
AcDbEntity
  8
0
100
AcDbBlockBegin
  2
*D6
 70
     1
 10
0.0
 20
0.0
 30
0.0
  3
*D6
  1

  0
LINE
  5
8D
100
AcDbEntity
  8
0
  6
BYBLOCK
 62
     4
100
AcDbLine
 10
688.743948
 20
262.80405
 30
0.0
 11
731.442155
 21
262.80405
 31
0.0
  0
LINE
  5
8E
100
AcDbEntity
  8
0
  6
BYBLOCK
 62
     4
100
AcDbLine
 10
687.266243
 20
321.22405
 30
0.0
 11
731.442155
 21
321.22405
 31
0.0
  0
LINE
  5
8F
100
AcDbEntity
  8
0
  6
BYBLOCK
 62
     4
100
AcDbLine
 10
728.942155
 20
265.80405
 30
0.0
 11
728.942155
 21
318.22405
 31
0.0
  0
SOLID
  5
90
100
AcDbEntity
  8
0
  6
BYBLOCK
 62
     4
100
AcDbTrace
 10
728.442155
 20
265.80405
 30
0.0
 11
729.442155
 21
265.80405
 31
0.0
 12
728.942155
 22
262.80405
 32
0.0
 13
728.942155
 23
262.80405
 33
0.0
  0
SOLID
  5
91
100
AcDbEntity
  8
0
  6
BYBLOCK
 62
     4
100
AcDbTrace
 10
728.442155
 20
318.22405
 30
0.0
 11
729.442155
 21
318.22405
 31
0.0
 12
728.942155
 22
321.22405
 32
0.0
 13
728.942155
 23
321.22405
 33
0.0
  0
MTEXT
  5
92
100
AcDbEntity
  8
0
  6
BYBLOCK
 62
     2
100
AcDbMText
 10
725.942155
 20
291.884286
 30
0.0
 40
3.0
 41
0.0
 71
     5
 72
     1
  1
\A1;\U+220558.42
 11
0.0
 21
1.0
 31
0.0
  0
POINT
  5
93
100
AcDbEntity
  8
DEFPOINTS
  6
BYBLOCK
 62
     0
100
AcDbPoint
 10
687.743948
 20
262.80405
 30
0.0
  0
POINT
  5
94
100
AcDbEntity
  8
DEFPOINTS
  6
BYBLOCK
 62
     0
100
AcDbPoint
 10
686.266243
 20
321.22405
 30
0.0
  0
POINT
  5
95
100
AcDbEntity
  8
DEFPOINTS
  6
BYBLOCK
 62
     0
100
AcDbPoint
 10
728.942155
 20
321.22405
 30
0.0
  0
ENDBLK
  5
97
100
AcDbEntity
  8
0
100
AcDbBlockEnd
  0
BLOCK
  5
87
100
AcDbEntity
  8
0
100
AcDbBlockBegin
  2
*D7
 70
     1
 10
0.0
 20
0.0
 30
0.0
  3
*D7
  1

  0
LINE
  5
7D
100
AcDbEntity
  8
0
  6
BYBLOCK
 62
     4
100
AcDbLine
 10
701.793948
 20
538.974791
 30
0.0
 11
701.793948
 21
523.727187
 31
0.0
  0
LINE
  5
7E
100
AcDbEntity
  8
0
  6
BYBLOCK
 62
     4
100
AcDbLine
 10
682.743948
 20
556.591023
 30
0.0
 11
682.743948
 21
523.727187
 31
0.0
  0
LINE
  5
7F
100
AcDbEntity
  8
0
  6
BYBLOCK
 62
     4
100
AcDbLine
 10
704.793948
 20
526.227187
 30
0.0
 11
707.793948
 21
526.227187
 31
0.0
  0
LINE
  5
80
100
AcDbEntity
  8
0
  6
BYBLOCK
 62
     4
100
AcDbLine
 10
679.743948
 20
526.227187
 30
0.0
 11
654.153319
 21
526.227187
 31
0.0
  0
SOLID
  5
81
100
AcDbEntity
  8
0
  6
BYBLOCK
 62
     4
100
AcDbTrace
 10
704.793948
 20
526.727187
 30
0.0
 11
704.793948
 21
525.727187
 31
0.0
 12
701.793948
 22
526.227187
 32
0.0
 13
701.793948
 23
526.227187
 33
0.0
  0
SOLID
  5
82
100
AcDbEntity
  8
0
  6
BYBLOCK
 62
     4
100
AcDbTrace
 10
679.743948
 20
526.727187
 30
0.0
 11
679.743948
 21
525.727187
 31
0.0
 12
682.743948
 22
526.227187
 32
0.0
 13
682.743948
 23
526.227187
 33
0.0
  0
MTEXT
  5
83
100
AcDbEntity
  8
0
  6
BYBLOCK
 62
     2
100
AcDbMText
 10
661.367604
 20
529.227187
 30
0.0
 40
3.0
 41
0.0
 71
     5
 72
     1
  1
\A1;19.05
  0
POINT
  5
84
100
AcDbEntity
  8
DEFPOINTS
  6
BYBLOCK
 62
     0
100
AcDbPoint
 10
701.793948
 20
539.974791
 30
0.0
  0
POINT
  5
85
100
AcDbEntity
  8
DEFPOINTS
  6
BYBLOCK
 62
     0
100
AcDbPoint
 10
682.743948
 20
557.591023
 30
0.0
  0
POINT
  5
86
100
AcDbEntity
  8
DEFPOINTS
  6
BYBLOCK
 62
     0
100
AcDbPoint
 10
682.743948
 20
526.227187
 30
0.0
  0
ENDBLK
  5
88
100
AcDbEntity
  8
0
100
AcDbBlockEnd
  0
BLOCK
  5
79
100
AcDbEntity
  8
0
100
AcDbBlockBegin
  2
*D8
 70
     1
 10
0.0
 20
0.0
 30
0.0
  3
*D8
  1

  0
LINE
  5
70
100
AcDbEntity
  8
0
  6
BYBLOCK
 62
     4
100
AcDbLine
 10
727.193948
 20
244.187817
 30
0.0
 11
727.193948
 21
218.881003
 31
0.0
  0
LINE
  5
71
100
AcDbEntity
  8
0
  6
BYBLOCK
 62
     4
100
AcDbLine
 10
625.593948
 20
274.01405
 30
0.0
 11
625.593948
 21
218.881003
 31
0.0
  0
LINE
  5
72
100
AcDbEntity
  8
0
  6
BYBLOCK
 62
     4
100
AcDbLine
 10
724.193948
 20
221.381003
 30
0.0
 11
628.593948
 21
221.381003
 31
0.0
  0
SOLID
  5
73
100
AcDbEntity
  8
0
  6
BYBLOCK
 62
     4
100
AcDbTrace
 10
724.193948
 20
221.881003
 30
0.0
 11
724.193948
 21
220.881003
 31
0.0
 12
727.193948
 22
221.381003
 32
0.0
 13
727.193948
 23
221.381003
 33
0.0
  0
SOLID
  5
74
100
AcDbEntity
  8
0
  6
BYBLOCK
 62
     4
100
AcDbTrace
 10
628.593948
 20
221.881003
 30
0.0
 11
628.593948
 21
220.881003
 31
0.0
 12
625.593948
 22
221.381003
 32
0.0
 13
625.593948
 23
221.381003
 33
0.0
  0
MTEXT
  5
75
100
AcDbEntity
  8
0
  6
BYBLOCK
 62
     2
100
AcDbMText
 10
676.393948
 20
225.166717
 30
0.0
 40
3.0
 41
0.0
 71
     5
 72
     1
  1
\A1;L1=101.60 (4.000")
  0
POINT
  5
76
100
AcDbEntity
  8
DEFPOINTS
  6
BYBLOCK
 62
     0
100
AcDbPoint
 10
727.193948
 20
245.187817
 30
0.0
  0
POINT
  5
77
100
AcDbEntity
  8
DEFPOINTS
  6
BYBLOCK
 62
     0
100
AcDbPoint
 10
625.593948
 20
275.01405
 30
0.0
  0
POINT
  5
78
100
AcDbEntity
  8
DEFPOINTS
  6
BYBLOCK
 62
     0
100
AcDbPoint
 10
625.593948
 20
221.381003
 30
0.0
  0
ENDBLK
  5
7A
100
AcDbEntity
  8
0
100
AcDbBlockEnd
  0
BLOCK
  5
6C
100
AcDbEntity
  8
0
100
AcDbBlockBegin
  2
*D9
 70
     1
 10
0.0
 20
0.0
 30
0.0
  3
*D9
  1

  0
LINE
  5
63
100
AcDbEntity
  8
0
  6
BYBLOCK
 62
     4
100
AcDbLine
 10
727.193948
 20
244.187817
 30
0.0
 11
727.193948
 21
208.881003
 31
0.0
  0
LINE
  5
64
100
AcDbEntity
  8
0
  6
BYBLOCK
 62
     4
100
AcDbLine
 10
612.893948
 20
289.01405
 30
0.0
 11
612.893948
 21
208.881003
 31
0.0
  0
LINE
  5
65
100
AcDbEntity
  8
0
  6
BYBLOCK
 62
     4
100
AcDbLine
 10
724.193948
 20
211.381003
 30
0.0
 11
615.893948
 21
211.381003
 31
0.0
  0
SOLID
  5
66
100
AcDbEntity
  8
0
  6
BYBLOCK
 62
     4
100
AcDbTrace
 10
724.193948
 20
211.881003
 30
0.0
 11
724.193948
 21
210.881003
 31
0.0
 12
727.193948
 22
211.381003
 32
0.0
 13
727.193948
 23
211.381003
 33
0.0
  0
SOLID
  5
67
100
AcDbEntity
  8
0
  6
BYBLOCK
 62
     4
100
AcDbTrace
 10
615.893948
 20
211.881003
 30
0.0
 11
615.893948
 21
210.881003
 31
0.0
 12
612.893948
 22
211.381003
 32
0.0
 13
612.893948
 23
211.381003
 33
0.0
  0
MTEXT
  5
68
100
AcDbEntity
  8
0
  6
BYBLOCK
 62
     2
100
AcDbMText
 10
670.043948
 20
214.381003
 30
0.0
 40
3.0
 41
0.0
 71
     5
 72
     1
  1
\A1;114.30 REF.
  0
POINT
  5
69
100
AcDbEntity
  8
DEFPOINTS
  6
BYBLOCK
 62
     0
100
AcDbPoint
 10
727.193948
 20
245.187817
 30
0.0
  0
POINT
  5
6A
100
AcDbEntity
  8
DEFPOINTS
  6
BYBLOCK
 62
     0
100
AcDbPoint
 10
612.893948
 20
290.01405
 30
0.0
  0
POINT
  5
6B
100
AcDbEntity
  8
DEFPOINTS
  6
BYBLOCK
 62
     0
100
AcDbPoint
 10
612.893948
 20
211.381003
 30
0.0
  0
ENDBLK
  5
6D
100
AcDbEntity
  8
0
100
AcDbBlockEnd
  0
BLOCK
  5
4E
100
AcDbEntity
  8
0
100
AcDbBlockBegin
  2
*D10
 70
     1
 10
0.0
 20
0.0
 30
0.0
  3
*D10
  1

  0
LINE
  5
45
100
AcDbEntity
  8
0
  6
BYBLOCK
 62
     4
100
AcDbLine
 10
457.661937
 20
586.801023
 30
0.0
 11
443.67936
 21
586.801023
 31
0.0
  0
LINE
  5
46
100
AcDbEntity
  8
0
  6
BYBLOCK
 62
     4
100
AcDbLine
 10
498.333585
 20
548.801023
 30
0.0
 11
443.67936
 21
548.801023
 31
0.0
  0
LINE
  5
47
100
AcDbEntity
  8
0
  6
BYBLOCK
 62
     4
100
AcDbLine
 10
446.17936
 20
583.801023
 30
0.0
 11
446.17936
 21
551.801023
 31
0.0
  0
SOLID
  5
48
100
AcDbEntity
  8
0
  6
BYBLOCK
 62
     4
100
AcDbTrace
 10
445.67936
 20
583.801023
 30
0.0
 11
446.67936
 21
583.801023
 31
0.0
 12
446.17936
 22
586.801023
 32
0.0
 13
446.17936
 23
586.801023
 33
0.0
  0
SOLID
  5
49
100
AcDbEntity
  8
0
  6
BYBLOCK
 62
     4
100
AcDbTrace
 10
445.67936
 20
551.801023
 30
0.0
 11
446.67936
 21
551.801023
 31
0.0
 12
446.17936
 22
548.801023
 32
0.0
 13
446.17936
 23
548.801023
 33
0.0
  0
MTEXT
  5
4A
100
AcDbEntity
  8
0
  6
BYBLOCK
 62
     2
100
AcDbMText
 10
443.17936
 20
567.801023
 30
0.0
 40
3.0
 41
0.0
 71
     5
 72
     1
  1
\A1;38
 11
0.0
 21
1.0
 31
0.0
  0
POINT
  5
4B
100
AcDbEntity
  8
DEFPOINTS
  6
BYBLOCK
 62
     0
100
AcDbPoint
 10
458.661937
 20
586.801023
 30
0.0
  0
POINT
  5
4C
100
AcDbEntity
  8
DEFPOINTS
  6
BYBLOCK
 62
     0
100
AcDbPoint
 10
499.333585
 20
548.801023
 30
0.0
  0
POINT
  5
4D
100
AcDbEntity
  8
DEFPOINTS
  6
BYBLOCK
 62
     0
100
AcDbPoint
 10
446.17936
 20
548.801023
 30
0.0
  0
ENDBLK
  5
4F
100
AcDbEntity
  8
0
100
AcDbBlockEnd
  0
BLOCK
  5
41
100
AcDbEntity
  8
0
100
AcDbBlockBegin
  2
*D11
 70
     1
 10
0.0
 20
0.0
 30
0.0
  3
*D11
  1

  0
LINE
  5
36
100
AcDbEntity
  8
0
  6
BYBLOCK
 62
     4
100
AcDbLine
 10
497.833585
 20
549.301023
 30
0.0
 11
497.833585
 21
532.950054
 31
0.0
  0
LINE
  5
37
100
AcDbEntity
  8
0
  6
BYBLOCK
 62
     4
100
AcDbLine
 10
500.833585
 20
549.301023
 30
0.0
 11
500.833585
 21
532.950054
 31
0.0
  0
LINE
  5
38
100
AcDbEntity
  8
0
  6
BYBLOCK
 62
     4
100
AcDbLine
 10
494.833585
 20
535.450054
 30
0.0
 11
491.833585
 21
535.450054
 31
0.0
  0
LINE
  5
39
100
AcDbEntity
  8
0
  6
BYBLOCK
 62
     4
100
AcDbLine
 10
503.833585
 20
535.450054
 30
0.0
 11
539.547871
 21
535.450054
 31
0.0
  0
SOLID
  5
3A
100
AcDbEntity
  8
0
  6
BYBLOCK
 62
     4
100
AcDbTrace
 10
494.833585
 20
535.950054
 30
0.0
 11
494.833585
 21
534.950054
 31
0.0
 12
497.833585
 22
535.450054
 32
0.0
 13
497.833585
 23
535.450054
 33
0.0
  0
SOLID
  5
3B
100
AcDbEntity
  8
0
  6
BYBLOCK
 62
     4
100
AcDbTrace
 10
503.833585
 20
535.950054
 30
0.0
 11
503.833585
 21
534.950054
 31
0.0
 12
500.833585
 22
535.450054
 32
0.0
 13
500.833585
 23
535.450054
 33
0.0
  0
MTEXT
  5
3C
100
AcDbEntity
  8
0
  6
BYBLOCK
 62
     2
100
AcDbMText
 10
523.190728
 20
538.450054
 30
0.0
 40
3.0
 41
0.0
 71
     5
 72
     1
  1
\A1;3.00 x 4 DP.
  0
POINT
  5
3D
100
AcDbEntity
  8
DEFPOINTS
  6
BYBLOCK
 62
     0
100
AcDbPoint
 10
497.833585
 20
550.301023
 30
0.0
  0
POINT
  5
3F
100
AcDbEntity
  8
DEFPOINTS
  6
BYBLOCK
 62
     0
100
AcDbPoint
 10
500.833585
 20
550.301023
 30
0.0
  0
POINT
  5
40
100
AcDbEntity
  8
DEFPOINTS
  6
BYBLOCK
 62
     0
100
AcDbPoint
 10
500.833585
 20
535.450054
 30
0.0
  0
ENDBLK
  5
42
100
AcDbEntity
  8
0
100
AcDbBlockEnd
  0
ENDSEC
  0
SECTION
  2
ENTITIES
  0
LINE
  5
20
100
AcDbEntity
  8
M04
100
AcDbLine
 10
715.378294
 20
322.51405
 30
0.0
 11
727.193948
 21
322.51405
 31
0.0
  0
LINE
  5
21
100
AcDbEntity
  8
M04
100
AcDbLine
 10
715.378294
 20
322.51405
 30
0.0
 11
715.378294
 21
320.002656
 31
0.0
  0
LINE
  5
22
100
AcDbEntity
  8
M04
100
AcDbLine
 10
714.133948
 20
321.795627
 30
0.0
 11
715.378294
 21
322.51405
 31
0.0
  0
LINE
  5
23
100
AcDbEntity
  8
M04
100
AcDbLine
 10
709.143948
 20
321.22405
 30
0.0
 11
708.143948
 21
321.22405
 31
0.0
  0
LINE
  5
24
100
AcDbEntity
  8
M04
100
AcDbLine
 10
708.143948
 20
320.22405
 30
0.0
 11
708.143948
 21
321.22405
 31
0.0
  0
LINE
  5
25
100
AcDbEntity
  8
M04
100
AcDbLine
 10
720.768948
 20
261.51405
 30
0.0
 11
727.193948
 21
261.51405
 31
0.0
  0
LINE
  5
26
100
AcDbEntity
  8
M04
100
AcDbLine
 10
715.378294
 20
261.51405
 30
0.0
 11
715.378294
 21
264.025444
 31
0.0
  0
LINE
  5
27
100
AcDbEntity
  8
M04
100
AcDbLine
 10
713.143948
 20
262.80405
 30
0.0
 11
713.143948
 21
263.51405
 31
0.0
  0
LINE
  5
28
100
AcDbEntity
  8
M04
100
AcDbLine
 10
715.378294
 20
261.51405
 30
0.0
 11
717.768948
 21
261.51405
 31
0.0
  0
LINE
  5
29
100
AcDbEntity
  8
M04
100
AcDbLine
 10
713.143948
 20
262.80405
 30
0.0
 11
715.378294
 21
261.51405
 31
0.0
  0
LINE
  5
2A
100
AcDbEntity
  8
M04
100
AcDbLine
 10
730.193948
 20
267.86405
 30
0.0
 11
737.265016
 21
260.792982
 31
0.0
  0
LINE
  5
2B
100
AcDbEntity
  8
M04
 48
0.7
100
AcDbLine
 10
727.193948
 20
267.86405
 30
0.0
 11
730.193948
 21
267.86405
 31
0.0
  0
ARC
  5
2C
100
AcDbEntity
  8
M03
100
AcDbCircle
 10
738.693948
 20
292.01405
 30
0.0
 40
15.5
100
AcDbArc
 50
137.896551
 51
222.103449
  0
LINE
  5
2F
100
AcDbEntity
  8
M04
100
AcDbLine
 10
730.193948
 20
316.16405
 30
0.0
 11
737.265016
 21
323.235118
 31
0.0
  0
LINE
  5
30
100
AcDbEntity
  8
M04
 48
0.7
100
AcDbLine
 10
727.193948
 20
316.16405
 30
0.0
 11
730.193948
 21
316.16405
 31
0.0
  0
LINE
  5
31
100
AcDbEntity
  8
M04
100
AcDbLine
 10
730.193948
 20
316.16405
 30
0.0
 11
730.193948
 21
267.86405
 31
0.0
  0
LINE
  5
32
100
AcDbEntity
  8
M04
100
AcDbLine
 10
727.193948
 20
319.51405
 30
0.0
 11
727.193948
 21
338.840283
 31
0.0
  0
DIMENSION
  5
33
100
AcDbEntity
  8
DIMS
100
AcDbDimension
  2
*D11
 10
500.833585
 20
240.663081
 30
0.0
 11
523.190728
 21
243.663081
 31
0.0
 12
0.0
 22
-294.786973
 32
0.0
  1
3.00 x 4 DP.
  3
DIM1
100
AcDbAlignedDimension
 13
497.833585
 23
255.51405
 33
0.0
 14
500.833585
 24
255.51405
 34
0.0
100
AcDbRotatedDimension
1001
ACAD
1000
DSTYLE
1002
{
1070
   144
1040
1.0
1002
}
  0
DIMENSION
  5
43
100
AcDbEntity
  8
DIMS
100
AcDbDimension
  2
*D10
 10
446.17936
 20
254.01405
 30
0.0
 11
443.17936
 21
273.01405
 31
0.0
 12
0.0
 22
-294.786973
 32
0.0
  1
38
  3
DIM1
100
AcDbAlignedDimension
 13
458.661937
 23
292.01405
 33
0.0
 14
499.333585
 24
254.01405
 34
0.0
 50
90.0
100
AcDbRotatedDimension
1001
ACAD
1000
DSTYLE
1002
{
1070
   144
1040
1.0
1002
}
  0
CIRCLE
  5
50
100
AcDbEntity
  8
M03
100
AcDbCircle
 10
499.333585
 20
292.01405
 30
0.0
 40
7.95
  0
CIRCLE
  5
51
100
AcDbEntity
  8
M04
100
AcDbCircle
 10
499.333585
 20
292.01405
 30
0.0
 40
24.0
  0
ARC
  5
52
100
AcDbEntity
  8
M01
100
AcDbCircle
 10
499.333585
 20
292.01405
 30
0.0
 40
29.21
100
AcDbArc
 50
93.926097
 51
86.093564
  0
CIRCLE
  5
54
100
AcDbEntity
  8
M01
100
AcDbCircle
 10
499.333585
 20
292.01405
 30
0.0
 40
22.85
  0
CIRCLE
  5
55
100
AcDbEntity
  8
M01
100
AcDbCircle
 10
499.333585
 20
292.01405
 30
0.0
 40
17.5
  0
ARC
  5
56
100
AcDbEntity
  8
M04
100
AcDbCircle
 10
499.333585
 20
255.51405
 30
0.0
 40
1.5
100
AcDbArc
 50
180.0
 51
0.0
  0
LINE
  5
57
100
AcDbEntity
  8
M04
100
AcDbLine
 10
500.833585
 20
258.01405
 30
0.0
 11
500.833585
 21
255.51405
 31
0.0
  0
LINE
  5
58
100
AcDbEntity
  8
M04
100
AcDbLine
 10
497.833585
 20
258.01405
 30
0.0
 11
497.833585
 21
255.51405
 31
0.0
  0
LINE
  5
59
100
AcDbEntity
  8
M01
100
AcDbLine
 10
500.400573
 20
257.26405
 30
0.0
 11
498.266598
 21
257.26405
 31
0.0
  0
LINE
  5
5A
100
AcDbEntity
  8
M01
100
AcDbLine
 10
497.833585
 20
258.01405
 30
0.0
 11
498.266598
 21
257.26405
 31
0.0
  0
LINE
  5
5B
100
AcDbEntity
  8
M01
100
AcDbLine
 10
500.833585
 20
258.01405
 30
0.0
 11
497.833585
 21
258.01405
 31
0.0
  0
LINE
  5
5C
100
AcDbEntity
  8
M01
100
AcDbLine
 10
500.833585
 20
258.01405
 30
0.0
 11
500.400573
 21
257.26405
 31
0.0
  0
LINE
  5
5D
100
AcDbEntity
  8
M01
100
AcDbLine
 10
500.833585
 20
262.84259
 30
0.0
 11
500.833585
 21
258.01405
 31
0.0
  0
LINE
  5
5E
100
AcDbEntity
  8
M01
100
AcDbLine
 10
497.833585
 20
262.84259
 30
0.0
 11
497.833585
 21
258.01405
 31
0.0
  0
TEXT
  5
5F
100
AcDbEntity
  8
DIMS
 62
     2
100
AcDbText
 10
695.489923
 20
233.713442
 30
0.0
 40
2.0
  1
-0
100
AcDbText
  0
TEXT
  5
60
100
AcDbEntity
  8
DIMS
 62
     2
100
AcDbText
 10
695.489923
 20
236.798362
 30
0.0
 40
2.0
  1
+0.025
100
AcDbText
  0
DIMENSION
  5
61
100
AcDbEntity
  8
DIMS
100
AcDbDimension
  2
*D9
 10
612.893948
 20
211.381003
 30
0.0
 11
670.043948
 21
214.381003
 31
0.0
  1
<> REF.
  3
DIM1
100
AcDbAlignedDimension
 13
727.193948
 23
245.187817
 33
0.0
 14
612.893948
 24
290.01405
 34
0.0
100
AcDbRotatedDimension
1001
ACAD
1000
DSTYLE
1002
{
1070
   144
1040
1.0
1002
}
  0
DIMENSION
  5
6E
100
AcDbEntity
  8
DIMS
100
AcDbDimension
  2
*D8
 10
625.593948
 20
221.381003
 30
0.0
 11
676.393948
 21
225.166717
 31
0.0
  1
L1=<> (4.000")
  3
DIM1
100
AcDbAlignedDimension
 13
727.193948
 23
245.187817
 33
0.0
 14
625.593948
 24
275.01405
 34
0.0
100
AcDbRotatedDimension
1001
ACAD
1000
DSTYLE
1002
{
1070
   144
1040
1.0
1002
}
  0
DIMENSION
  5
7B
100
AcDbEntity
  8
DIMS
100
AcDbDimension
  2
*D7
 10
708.143948
 20
231.440214
 30
0.0
 11
686.767604
 21
231.440214
 31
0.0
 12
25.4
 22
-294.786973
 32
0.0
 70
   128
  3
DIM1
100
AcDbAlignedDimension
 13
727.193948
 23
245.187817
 33
0.0
 14
708.143948
 24
262.80405
 34
0.0
100
AcDbRotatedDimension
1001
ACAD
1000
DSTYLE
1002
{
1070
   144
1040
1.0
1002
}
  0
TEXT
  5
89
100
AcDbEntity
  8
DIMS
 62
     2
100
AcDbText
 10
752.001989
 20
301.111029
 30
0.0
 40
2.0
  1
-0
 50
90.0
100
AcDbText
  0
TEXT
  5
8A
100
AcDbEntity
  8
DIMS
 62
     2
100
AcDbText
 10
748.917069
 20
301.111029
 30
0.0
 40
2.0
  1
+0.025
 50
90.0
100
AcDbText
  0
DIMENSION
  5
8B
100
AcDbEntity
  8
DIMS
100
AcDbDimension
  2
*D6
 10
754.342155
 20
321.22405
 30
0.0
 11
754.342155
 21
291.884286
 31
0.0
 12
25.4
 22
0.0
 32
0.0
 70
   128
  1
%%c<>
  3
DIM1
100
AcDbAlignedDimension
 13
713.143948
 23
262.80405
 33
0.0
 14
711.666243
 24
321.22405
 34
0.0
 50
90.0
100
AcDbRotatedDimension
1001
ACAD
1000
DSTYLE
1002
{
1070
   144
1040
1.0
1002
}
  0
LINE
  5
98
100
AcDbEntity
  8
CENTRE
100
AcDbLine
 10
719.268948
 20
251.287392
 30
0.0
 11
719.268948
 21
269.04478
 31
0.0
  0
MTEXT
  5
9B
100
AcDbEntity
  8
0
  6
BYBLOCK
 62
     2
100
AcDbMText
 10
575.113039
 20
310.023855
 30
0.0
 40
3.0
 41
0.0
 71
     5
 72
     1
  1
GATE INSERTION POINT
  0
SOLID
  5
9C
100
AcDbEntity
  8
0
  6
BYBLOCK
 62
     4
100
AcDbTrace
 10
611.72777
 20
296.131395
 30
0.0
 11
610.80405
 21
295.748327
 31
0.0
 12
612.415114
 22
293.1687
 32
0.0
 13
612.415114
 23
293.1687
 33
0.0
  0
LINE
  5
9D
100
AcDbEntity
  8
0
  6
BYBLOCK
 62
     4
100
AcDbLine
 10
605.501501
 20
310.023855
 30
0.0
 11
602.501501
 21
310.023855
 31
0.0
  0
LINE
  5
9E
100
AcDbEntity
  8
0
  6
BYBLOCK
 62
     4
100
AcDbLine
 10
611.26591
 20
295.939861
 30
0.0
 11
605.501501
 21
310.023855
 31
0.0
  0
CIRCLE
  5
9F
100
AcDbEntity
  8
M04
100
AcDbCircle
 10
612.893948
 20
292.01405
 30
0.0
 40
1.25
  0
LINE
  5
A0
100
AcDbEntity
  8
M03
100
AcDbLine
 10
625.593948
 20
284.06405
 30
0.0
 11
725.388029
 21
284.06405
 31
0.0
  0
LINE
  5
A1
100
AcDbEntity
  8
M03
100
AcDbLine
 10
625.593948
 20
299.96405
 30
0.0
 11
725.388029
 21
299.96405
 31
0.0
  0
LINE
  5
A2
100
AcDbEntity
  8
M04
100
AcDbLine
 10
716.193948
 20
261.51405
 30
0.0
 11
716.193948
 21
254.01405
 31
0.0
  0
LINE
  5
A3
100
AcDbEntity
  8
M04
100
AcDbLine
 10
716.193948
 20
254.01405
 30
0.0
 11
727.193948
 21
254.01405
 31
0.0
  0
LINE
  5
A4
100
AcDbEntity
  8
M04
100
AcDbLine
 10
711.666243
 20
262.80405
 30
0.0
 11
713.143948
 21
262.80405
 31
0.0
  0
LINE
  5
A5
100
AcDbEntity
  8
M04
100
AcDbLine
 10
727.193948
 20
264.51405
 30
0.0
 11
727.193948
 21
245.187817
 31
0.0
  0
LINE
  5
A6
100
AcDbEntity
  8
M04
100
AcDbLine
 10
709.143948
 20
262.80405
 30
0.0
 11
708.143948
 21
262.80405
 31
0.0
  0
LINE
  5
A7
100
AcDbEntity
  8
M04
100
AcDbLine
 10
708.143948
 20
263.80405
 30
0.0
 11
708.143948
 21
262.80405
 31
0.0
  0
TEXT
  5
A8
100
AcDbEntity
  8
TEXT
100
AcDbText
 10
634.479835
 20
307.097109
 30
0.0
 40
2.0
  1
PVL625-04000
 41
0.9
100
AcDbText
  0
LINE
  5
AA
100
AcDbEntity
  8
M01
100
AcDbLine
 10
714.133948
 20
389.878245
 30
0.0
 11
714.133948
 21
320.524608
 31
0.0
  0
LINE
  5
AB
100
AcDbEntity
  8
M01
100
AcDbLine
 10
710.143948
 20
389.878245
 30
0.0
 11
710.143948
 21
321.22405
 31
0.0
  0
LINE
  5
AC
100
AcDbEntity
  8
M01
100
AcDbLine
 10
714.393948
 20
419.434398
 30
0.0
 11
714.393948
 21
420.934398
 31
0.0
  0
LINE
  5
AD
100
AcDbEntity
  8
M01
100
AcDbLine
 10
715.143948
 20
418.135359
 30
0.0
 11
715.143948
 21
419.635359
 31
0.0
  0
LINE
  5
AE
100
AcDbEntity
  8
M01
100
AcDbLine
 10
709.143948
 20
418.027664
 30
0.0
 11
715.143948
 21
419.635359
 31
0.0
  0
LINE
  5
AF
100
AcDbEntity
  8
M01
100
AcDbLine
 10
714.184385
 20
417.878245
 30
0.0
 11
715.143948
 21
418.135359
 31
0.0
  0
LINE
  5
B0
100
AcDbEntity
  8
M01
100
AcDbLine
 10
709.143948
 20
417.878245
 30
0.0
 11
709.143948
 21
418.027664
 31
0.0
  0
LINE
  5
B1
100
AcDbEntity
  8
M01
100
AcDbLine
 10
709.893948
 20
442.228626
 30
0.0
 11
709.893948
 21
442.965907
 31
0.0
  0
LINE
  5
B2
100
AcDbEntity
  8
M01
100
AcDbLine
 10
709.143948
 20
440.527664
 30
0.0
 11
709.143948
 21
442.027664
 31
0.0
  0
LINE
  5
B3
100
AcDbEntity
  8
M01
100
AcDbLine
 10
709.893948
 20
439.228626
 30
0.0
 11
709.893948
 21
440.728626
 31
0.0
  0
LINE
  5
B4
100
AcDbEntity
  8
M01
100
AcDbLine
 10
709.143948
 20
437.527664
 30
0.0
 11
709.143948
 21
439.027664
 31
0.0
  0
LINE
  5
B5
100
AcDbEntity
  8
M01
100
AcDbLine
 10
709.893948
 20
436.228626
 30
0.0
 11
709.893948
 21
437.728626
 31
0.0
  0
LINE
  5
B6
100
AcDbEntity
  8
M01
100
AcDbLine
 10
709.893948
 20
433.228626
 30
0.0
 11
709.893948
 21
434.728626
 31
0.0
  0
LINE
  5
B7
100
AcDbEntity
  8
M01
100
AcDbLine
 10
709.143948
 20
434.527664
 30
0.0
 11
709.143948
 21
436.027664
 31
0.0
  0
LINE
  5
B8
100
AcDbEntity
  8
M01
100
AcDbLine
 10
709.143948
 20
431.527664
 30
0.0
 11
709.143948
 21
433.027664
 31
0.0
  0
LINE
  5
B9
100
AcDbEntity
  8
M01
100
AcDbLine
 10
709.893948
 20
430.228626
 30
0.0
 11
709.893948
 21
431.728626
 31
0.0
  0
LINE
  5
BA
100
AcDbEntity
  8
M01
100
AcDbLine
 10
709.143948
 20
428.527664
 30
0.0
 11
709.143948
 21
430.027664
 31
0.0
  0
LINE
  5
BB
100
AcDbEntity
  8
M01
100
AcDbLine
 10
709.893948
 20
427.228626
 30
0.0
 11
709.893948
 21
428.728626
 31
0.0
  0
LINE
  5
BC
100
AcDbEntity
  8
M01
100
AcDbLine
 10
709.143948
 20
425.527664
 30
0.0
 11
709.143948
 21
427.027664
 31
0.0
  0
LINE
  5
BD
100
AcDbEntity
  8
M01
100
AcDbLine
 10
709.893948
 20
424.228626
 30
0.0
 11
709.893948
 21
425.728626
 31
0.0
  0
LINE
  5
BE
100
AcDbEntity
  8
M01
100
AcDbLine
 10
709.143948
 20
422.527664
 30
0.0
 11
709.143948
 21
424.027664
 31
0.0
  0
LINE
  5
BF
100
AcDbEntity
  8
M01
100
AcDbLine
 10
709.893948
 20
421.228626
 30
0.0
 11
709.893948
 21
422.728626
 31
0.0
  0
LINE
  5
C0
100
AcDbEntity
  8
M01
100
AcDbLine
 10
714.393948
 20
422.434398
 30
0.0
 11
714.393948
 21
423.934398
 31
0.0
  0
LINE
  5
C1
100
AcDbEntity
  8
M01
100
AcDbLine
 10
714.393948
 20
425.434398
 30
0.0
 11
714.393948
 21
426.934398
 31
0.0
  0
LINE
  5
C2
100
AcDbEntity
  8
M01
100
AcDbLine
 10
714.393948
 20
428.434398
 30
0.0
 11
714.393948
 21
429.934398
 31
0.0
  0
LINE
  5
C3
100
AcDbEntity
  8
M01
100
AcDbLine
 10
714.393948
 20
431.434398
 30
0.0
 11
714.393948
 21
432.934398
 31
0.0
  0
LINE
  5
C4
100
AcDbEntity
  8
M01
100
AcDbLine
 10
714.393948
 20
434.434398
 30
0.0
 11
714.393948
 21
435.934398
 31
0.0
  0
LINE
  5
C5
100
AcDbEntity
  8
M01
100
AcDbLine
 10
714.393948
 20
437.434398
 30
0.0
 11
714.393948
 21
438.934398
 31
0.0
  0
LINE
  5
C6
100
AcDbEntity
  8
M01
100
AcDbLine
 10
714.393948
 20
440.434398
 30
0.0
 11
714.393948
 21
441.934398
 31
0.0
  0
LINE
  5
C7
100
AcDbEntity
  8
M01
100
AcDbLine
 10
714.393948
 20
443.434398
 30
0.0
 11
714.393948
 21
444.470899
 31
0.0
  0
LINE
  5
C8
100
AcDbEntity
  8
M01
100
AcDbLine
 10
715.143948
 20
442.135359
 30
0.0
 11
715.143948
 21
443.635359
 31
0.0
  0
LINE
  5
C9
100
AcDbEntity
  8
M01
100
AcDbLine
 10
715.143948
 20
439.135359
 30
0.0
 11
715.143948
 21
440.635359
 31
0.0
  0
LINE
  5
CA
100
AcDbEntity
  8
M01
100
AcDbLine
 10
715.143948
 20
436.135359
 30
0.0
 11
715.143948
 21
437.635359
 31
0.0
  0
LINE
  5
CB
100
AcDbEntity
  8
M01
100
AcDbLine
 10
715.143948
 20
433.135359
 30
0.0
 11
715.143948
 21
434.635359
 31
0.0
  0
LINE
  5
CC
100
AcDbEntity
  8
M01
100
AcDbLine
 10
715.143948
 20
430.135359
 30
0.0
 11
715.143948
 21
431.635359
 31
0.0
  0
LINE
  5
CD
100
AcDbEntity
  8
M01
100
AcDbLine
 10
715.143948
 20
427.135359
 30
0.0
 11
715.143948
 21
428.635359
 31
0.0
  0
LINE
  5
CE
100
AcDbEntity
  8
M01
100
AcDbLine
 10
715.143948
 20
424.135359
 30
0.0
 11
715.143948
 21
425.635359
 31
0.0
  0
LINE
  5
CF
100
AcDbEntity
  8
M01
100
AcDbLine
 10
714.393948
 20
417.878245
 30
0.0
 11
714.393948
 21
417.934398
 31
0.0
  0
LINE
  5
D0
100
AcDbEntity
  8
M01
100
AcDbLine
 10
715.143948
 20
421.135359
 30
0.0
 11
715.143948
 21
422.635359
 31
0.0
  0
LINE
  5
D1
100
AcDbEntity
  8
M01
100
AcDbLine
 10
709.143948
 20
442.027664
 30
0.0
 11
715.143948
 21
443.635359
 31
0.0
  0
LINE
  5
D2
100
AcDbEntity
  8
M01
100
AcDbLine
 10
709.143948
 20
440.527664
 30
0.0
 11
715.143948
 21
442.135359
 31
0.0
  0
LINE
  5
D3
100
AcDbEntity
  8
M01
100
AcDbLine
 10
709.143948
 20
439.027664
 30
0.0
 11
715.143948
 21
440.635359
 31
0.0
  0
LINE
  5
D4
100
AcDbEntity
  8
M01
100
AcDbLine
 10
709.143948
 20
437.527664
 30
0.0
 11
715.143948
 21
439.135359
 31
0.0
  0
LINE
  5
D5
100
AcDbEntity
  8
M01
100
AcDbLine
 10
709.143948
 20
436.027664
 30
0.0
 11
715.143948
 21
437.635359
 31
0.0
  0
LINE
  5
D6
100
AcDbEntity
  8
M01
100
AcDbLine
 10
709.143948
 20
434.527664
 30
0.0
 11
715.143948
 21
436.135359
 31
0.0
  0
LINE
  5
D7
100
AcDbEntity
  8
M01
100
AcDbLine
 10
709.143948
 20
433.027664
 30
0.0
 11
715.143948
 21
434.635359
 31
0.0
  0
LINE
  5
D8
100
AcDbEntity
  8
M01
100
AcDbLine
 10
709.143948
 20
431.527664
 30
0.0
 11
715.143948
 21
433.135359
 31
0.0
  0
LINE
  5
D9
100
AcDbEntity
  8
M01
100
AcDbLine
 10
709.143948
 20
430.027664
 30
0.0
 11
715.143948
 21
431.635359
 31
0.0
  0
LINE
  5
DA
100
AcDbEntity
  8
M01
100
AcDbLine
 10
709.143948
 20
428.527664
 30
0.0
 11
715.143948
 21
430.135359
 31
0.0
  0
LINE
  5
DB
100
AcDbEntity
  8
M01
100
AcDbLine
 10
709.143948
 20
427.027664
 30
0.0
 11
715.143948
 21
428.635359
 31
0.0
  0
LINE
  5
DC
100
AcDbEntity
  8
M01
100
AcDbLine
 10
709.143948
 20
425.527664
 30
0.0
 11
715.143948
 21
427.135359
 31
0.0
  0
LINE
  5
DD
100
AcDbEntity
  8
M01
100
AcDbLine
 10
709.143948
 20
424.027664
 30
0.0
 11
715.143948
 21
425.635359
 31
0.0
  0
LINE
  5
DE
100
AcDbEntity
  8
M01
100
AcDbLine
 10
709.143948
 20
422.527664
 30
0.0
 11
715.143948
 21
424.135359
 31
0.0
  0
LINE
  5
DF
100
AcDbEntity
  8
M01
100
AcDbLine
 10
709.143948
 20
421.027664
 30
0.0
 11
715.143948
 21
422.635359
 31
0.0
  0
LINE
  5
E0
100
AcDbEntity
  8
M01
100
AcDbLine
 10
709.143948
 20
419.527664
 30
0.0
 11
715.143948
 21
421.135359
 31
0.0
  0
LINE
  5
E1
100
AcDbEntity
  8
M01
100
AcDbLine
 10
709.893948
 20
418.228626
 30
0.0
 11
709.893948
 21
419.728626
 31
0.0
  0
LINE
  5
E2
100
AcDbEntity
  8
M01
100
AcDbLine
 10
709.143948
 20
419.527664
 30
0.0
 11
709.143948
 21
421.027664
 31
0.0
  0
LINE
  5
E3
100
AcDbEntity
  8
CENTRE
 48
0.7
100
AcDbLine
 10
712.143948
 20
373.991417
 30
0.0
 11
712.143948
 21
452.62854
 31
0.0
  0
LINE
  5
E4
100
AcDbEntity
  8
M01
100
AcDbLine
 10
715.643948
 20
407.878245
 30
0.0
 11
708.643948
 21
407.878245
 31
0.0
  0
LINE
  5
E5
100
AcDbEntity
  8
M01
100
AcDbLine
 10
709.143948
 20
399.802988
 30
0.0
 11
715.143948
 21
399.802988
 31
0.0
  0
LINE
  5
E6
100
AcDbEntity
  8
M01
100
AcDbLine
 10
715.143948
 20
399.802988
 30
0.0
 11
715.143948
 21
407.878245
 31
0.0
  0
LINE
  5
E7
100
AcDbEntity
  8
M01
100
AcDbLine
 10
709.143948
 20
399.802988
 30
0.0
 11
709.143948
 21
407.878245
 31
0.0
  0
LINE
  5
E8
100
AcDbEntity
  8
M01
100
AcDbLine
 10
710.143948
 20
389.878245
 30
0.0
 11
709.143948
 21
399.802988
 31
0.0
  0
LINE
  5
E9
100
AcDbEntity
  8
M01
100
AcDbLine
 10
708.643948
 20
407.878245
 30
0.0
 11
708.643948
 21
417.878245
 31
0.0
  0
LINE
  5
EA
100
AcDbEntity
  8
M01
100
AcDbLine
 10
714.133948
 20
389.878245
 30
0.0
 11
715.143948
 21
399.802988
 31
0.0
  0
LINE
  5
EB
100
AcDbEntity
  8
M01
100
AcDbLine
 10
715.643948
 20
407.878245
 30
0.0
 11
715.643948
 21
417.878245
 31
0.0
  0
LINE
  5
EC
100
AcDbEntity
  8
M01
100
AcDbLine
 10
715.643948
 20
417.878245
 30
0.0
 11
708.643948
 21
417.878245
 31
0.0
  0
LINE
  5
ED
100
AcDbEntity
  8
M01
100
AcDbLine
 10
714.133948
 20
389.878245
 30
0.0
 11
710.143948
 21
389.878245
 31
0.0
  0
LINE
  5
EE
100
AcDbEntity
  8
M04
100
AcDbLine
 10
705.193948
 20
457.308659
 30
0.0
 11
705.193948
 21
314.86405
 31
0.0
  0
LINE
  5
EF
100
AcDbEntity
  8
M04
100
AcDbLine
 10
640.593948
 20
268.01405
 30
0.0
 11
708.143948
 21
268.01405
 31
0.0
  0
LINE
  5
F0
100
AcDbEntity
  8
M04
100
AcDbLine
 10
640.593948
 20
316.01405
 30
0.0
 11
705.193948
 21
316.01405
 31
0.0
  0
LINE
  5
F1
100
AcDbEntity
  8
M01
100
AcDbLine
 10
726.193949
 20
299.51405
 30
0.0
 11
726.193949
 21
320.515526
 31
0.0
  0
LINE
  5
F2
100
AcDbEntity
  8
M01
100
AcDbLine
 10
723.383948
 20
319.018395
 30
0.0
 11
723.383948
 21
320.517643
 31
0.0
  0
LINE
  5
F3
100
AcDbEntity
  8
M01
100
AcDbLine
 10
726.193949
 20
320.515526
 30
0.0
 11
723.383948
 21
320.517643
 31
0.0
  0
ARC
  5
F4
100
AcDbEntity
  8
M01
100
AcDbCircle
 10
722.383948
 20
319.018395
 30
0.0
 40
1.0
100
AcDbArc
 50
269.956853
 51
0.0
  0
LINE
  5
F5
100
AcDbEntity
  8
M01
100
AcDbLine
 10
722.383195
 20
318.018396
 30
0.0
 11
718.851373
 21
318.021055
 31
0.0
  0
LINE
  5
F6
100
AcDbEntity
  8
M01
100
AcDbLine
 10
727.193948
 20
319.514773
 30
0.0
 11
726.193949
 21
320.515526
 31
0.0
  0
LINE
  5
F7
100
AcDbEntity
  8
M01
100
AcDbLine
 10
714.515589
 20
320.524321
 30
0.0
 11
711.666243
 21
320.526467
 31
0.0
  0
LINE
  5
F8
100
AcDbEntity
  8
M01
100
AcDbLine
 10
709.143948
 20
321.22405
 30
0.0
 11
711.666243
 21
321.22405
 31
0.0
  0
LINE
  5
F9
100
AcDbEntity
  8
M01
100
AcDbLine
 10
709.143948
 20
321.22405
 30
0.0
 11
708.143948
 21
320.22405
 31
0.0
  0
LINE
  5
FA
100
AcDbEntity
  8
M01
100
AcDbLine
 10
714.515589
 20
320.524321
 30
0.0
 11
718.851373
 21
318.021055
 31
0.0
  0
LINE
  5
FB
100
AcDbEntity
  8
M01
100
AcDbLine
 10
723.383948
 20
299.51405
 30
0.0
 11
727.193948
 21
299.51405
 31
0.0
  0
LINE
  5
FC
100
AcDbEntity
  8
M01
100
AcDbLine
 10
723.383948
 20
265.01405
 30
0.0
 11
723.383948
 21
264.51405
 31
0.0
  0
ARC
  5
FD
100
AcDbEntity
  8
M01
100
AcDbCircle
 10
722.383948
 20
265.01405
 30
0.0
 40
1.0
100
AcDbArc
 50
0.0
 51
90.0
  0
LINE
  5
FE
100
AcDbEntity
  8
M01
100
AcDbLine
 10
722.383948
 20
266.01405
 30
0.0
 11
718.82266
 21
266.01405
 31
0.0
  0
LINE
  5
FF
100
AcDbEntity
  8
M01
100
AcDbLine
 10
723.383948
 20
284.51405
 30
0.0
 11
727.193948
 21
284.51405
 31
0.0
  0
LINE
  5
100
100
AcDbEntity
  8
M04
100
AcDbLine
 10
723.383948
 20
299.51405
 30
0.0
 11
727.193948
 21
284.51405
 31
0.0
  0
LINE
  5
101
100
AcDbEntity
  8
M04
100
AcDbLine
 10
723.383948
 20
284.51405
 30
0.0
 11
727.193948
 21
299.51405
 31
0.0
  0
LINE
  5
102
100
AcDbEntity
  8
M01
100
AcDbLine
 10
708.161136
 20
309.514123
 30
0.0
 11
708.143948
 21
309.51405
 31
0.0
  0
LINE
  5
103
100
AcDbEntity
  8
M01
100
AcDbLine
 10
708.143948
 20
274.51405
 30
0.0
 11
708.146982
 21
274.51405
 31
0.0
  0
LINE
  5
104
100
AcDbEntity
  8
M01
100
AcDbLine
 10
708.143948
 20
266.51405
 30
0.0
 11
708.143948
 21
267.51405
 31
0.0
  0
LINE
  5
105
100
AcDbEntity
  8
M01
100
AcDbLine
 10
726.193948
 20
263.51405
 30
0.0
 11
723.383948
 21
263.51405
 31
0.0
  0
LINE
  5
106
100
AcDbEntity
  8
M01
100
AcDbLine
 10
720.335936
 20
257.26405
 30
0.0
 11
718.201961
 21
257.26405
 31
0.0
  0
LINE
  5
107
100
AcDbEntity
  8
M01
100
AcDbLine
 10
717.768948
 20
258.01405
 30
0.0
 11
718.201961
 21
257.26405
 31
0.0
  0
LINE
  5
108
100
AcDbEntity
  8
M01
100
AcDbLine
 10
720.768948
 20
258.01405
 30
0.0
 11
717.768948
 21
258.01405
 31
0.0
  0
LINE
  5
109
100
AcDbEntity
  8
M01
100
AcDbLine
 10
720.768948
 20
258.01405
 30
0.0
 11
720.335936
 21
257.26405
 31
0.0
  0
LINE
  5
10A
100
AcDbEntity
  8
M01
100
AcDbLine
 10
714.492533
 20
263.51405
 30
0.0
 11
711.666243
 21
263.51405
 31
0.0
  0
LINE
  5
10B
100
AcDbEntity
  8
M01
100
AcDbLine
 10
709.143948
 20
262.80405
 30
0.0
 11
711.666243
 21
262.80405
 31
0.0
  0
LINE
  5
10C
100
AcDbEntity
  8
M01
100
AcDbLine
 10
708.143948
 20
263.80405
 30
0.0
 11
709.143948
 21
262.80405
 31
0.0
  0
LINE
  5
10D
100
AcDbEntity
  8
M01
100
AcDbLine
 10
727.193948
 20
264.51405
 30
0.0
 11
726.193948
 21
263.51405
 31
0.0
  0
LINE
  5
10E
100
AcDbEntity
  8
M01
100
AcDbLine
 10
723.383948
 20
264.51405
 30
0.0
 11
723.383948
 21
263.51405
 31
0.0
  0
LINE
  5
10F
100
AcDbEntity
  8
M01
100
AcDbLine
 10
714.492533
 20
263.51405
 30
0.0
 11
718.82266
 21
266.01405
 31
0.0
  0
LINE
  5
110
100
AcDbEntity
  8
M01
100
AcDbLine
 10
720.768948
 20
266.01405
 30
0.0
 11
720.768948
 21
258.01405
 31
0.0
  0
LINE
  5
111
100
AcDbEntity
  8
M01
100
AcDbLine
 10
717.768948
 20
265.405689
 30
0.0
 11
717.768948
 21
258.01405
 31
0.0
  0
LINE
  5
112
100
AcDbEntity
  8
M01
100
AcDbLine
 10
708.143948
 20
263.80405
 30
0.0
 11
708.143948
 21
320.22405
 31
0.0
  0
LINE
  5
113
100
AcDbEntity
  8
M01
100
AcDbLine
 10
727.193948
 20
319.514773
 30
0.0
 11
727.193948
 21
264.51405
 31
0.0
  0
LINE
  5
114
100
AcDbEntity
  8
M01
100
AcDbLine
 10
726.193948
 20
263.51405
 30
0.0
 11
726.193948
 21
284.51405
 31
0.0
  0
LINE
  5
115
100
AcDbEntity
  8
M01
100
AcDbLine
 10
723.383948
 20
320.517643
 30
0.0
 11
723.383948
 21
263.51405
 31
0.0
  0
LINE
  5
116
100
AcDbEntity
  8
M01
100
AcDbLine
 10
714.515589
 20
320.524321
 30
0.0
 11
714.492533
 21
263.51405
 31
0.0
  0
LINE
  5
117
100
AcDbEntity
  8
M01
100
AcDbLine
 10
718.851373
 20
318.021055
 30
0.0
 11
718.82266
 21
266.01405
 31
0.0
  0
LINE
  5
118
100
AcDbEntity
  8
M01
100
AcDbLine
 10
711.666243
 20
321.22405
 30
0.0
 11
711.666243
 21
262.80405
 31
0.0
  0
LINE
  5
119
100
AcDbEntity
  8
M01
100
AcDbLine
 10
709.143948
 20
321.22405
 30
0.0
 11
709.143948
 21
262.80405
 31
0.0
  0
LINE
  5
11A
100
AcDbEntity
  8
M01
100
AcDbLine
 10
629.693948
 20
309.51405
 30
0.0
 11
628.693948
 21
309.51405
 31
0.0
  0
LINE
  5
11B
100
AcDbEntity
  8
M01
100
AcDbLine
 10
626.093948
 20
309.51405
 30
0.0
 11
625.593948
 21
309.01405
 31
0.0
  0
LINE
  5
11C
100
AcDbEntity
  8
M01
100
AcDbLine
 10
627.093948
 20
309.51405
 30
0.0
 11
626.093948
 21
309.51405
 31
0.0
  0
LINE
  5
11D
100
AcDbEntity
  8
M01
100
AcDbLine
 10
627.093948
 20
309.51405
 30
0.0
 11
626.093948
 21
309.51405
 31
0.0
  0
LINE
  5
11E
100
AcDbEntity
  8
M01
100
AcDbLine
 10
627.093948
 20
308.58405
 30
0.0
 11
628.693948
 21
308.58405
 31
0.0
  0
LINE
  5
11F
100
AcDbEntity
  8
M01
100
AcDbLine
 10
629.693948
 20
274.51405
 30
0.0
 11
628.693948
 21
274.51405
 31
0.0
  0
LINE
  5
120
100
AcDbEntity
  8
M01
100
AcDbLine
 10
627.093948
 20
274.51405
 30
0.0
 11
626.093948
 21
274.51405
 31
0.0
  0
LINE
  5
121
100
AcDbEntity
  8
M01
100
AcDbLine
 10
626.093948
 20
274.51405
 30
0.0
 11
625.593948
 21
275.01405
 31
0.0
  0
LINE
  5
122
100
AcDbEntity
  8
M01
100
AcDbLine
 10
627.093948
 20
274.51405
 30
0.0
 11
626.093948
 21
274.51405
 31
0.0
  0
LINE
  5
123
100
AcDbEntity
  8
M01
100
AcDbLine
 10
627.093948
 20
275.44405
 30
0.0
 11
628.693948
 21
275.44405
 31
0.0
  0
LINE
  5
124
100
AcDbEntity
  8
M01
100
AcDbLine
 10
625.593948
 20
275.01405
 30
0.0
 11
625.593948
 21
309.01405
 31
0.0
  0
LINE
  5
125
100
AcDbEntity
  8
M01
100
AcDbLine
 10
628.693948
 20
309.51405
 30
0.0
 11
628.693948
 21
274.51405
 31
0.0
  0
LINE
  5
126
100
AcDbEntity
  8
M01
100
AcDbLine
 10
627.093948
 20
309.51405
 30
0.0
 11
627.093948
 21
274.51405
 31
0.0
  0
LINE
  5
127
100
AcDbEntity
  8
M01
100
AcDbLine
 10
626.093948
 20
309.51405
 30
0.0
 11
626.093948
 21
274.51405
 31
0.0
  0
LINE
  5
128
100
AcDbEntity
  8
DIMS
100
AcDbLine
 10
612.893948
 20
294.01405
 30
0.0
 11
612.893948
 21
290.01405
 31
0.0
  0
LINE
  5
129
100
AcDbEntity
  8
M01
100
AcDbLine
 10
629.693948
 20
314.86405
 30
0.0
 11
629.693948
 21
269.16405
 31
0.0
  0
LINE
  5
12A
100
AcDbEntity
  8
CENTRE
100
AcDbLine
 10
607.893948
 20
292.01405
 30
0.0
 11
741.606418
 21
292.01405
 31
0.0
  0
LINE
  5
12B
100
AcDbEntity
  8
M01
100
AcDbLine
 10
629.693948
 20
314.86405
 30
0.0
 11
708.143948
 21
314.86405
 31
0.0
  0
LINE
  5
12C
100
AcDbEntity
  8
M01
100
AcDbLine
 10
629.693948
 20
269.16405
 30
0.0
 11
708.143948
 21
269.16405
 31
0.0
  0
LINE
  5
12D
100
AcDbEntity
  8
M04
 48
0.7
100
AcDbLine
 10
493.333585
 20
315.25195
 30
0.0
 11
493.333585
 21
448.271867
 31
0.0
  0
LINE
  5
12E
100
AcDbEntity
  8
M04
 48
0.7
100
AcDbLine
 10
505.333585
 20
315.25195
 30
0.0
 11
505.333585
 21
448.271867
 31
0.0
  0
LINE
  5
12F
100
AcDbEntity
  8
M01
100
AcDbLine
 10
501.323585
 20
389.878245
 30
0.0
 11
501.323585
 21
314.777231
 31
0.0
  0
LINE
  5
130
100
AcDbEntity
  8
M01
100
AcDbLine
 10
497.333585
 20
389.878245
 30
0.0
 11
497.333585
 21
314.776354
 31
0.0
  0
LINE
  5
131
100
AcDbEntity
  8
M01
100
AcDbLine
 10
501.583585
 20
419.434398
 30
0.0
 11
501.583585
 21
420.934398
 31
0.0
  0
LINE
  5
132
100
AcDbEntity
  8
M01
100
AcDbLine
 10
502.333585
 20
418.135359
 30
0.0
 11
502.333585
 21
419.635359
 31
0.0
  0
LINE
  5
133
100
AcDbEntity
  8
M01
100
AcDbLine
 10
496.333585
 20
418.027664
 30
0.0
 11
502.333585
 21
419.635359
 31
0.0
  0
LINE
  5
134
100
AcDbEntity
  8
M01
100
AcDbLine
 10
501.374022
 20
417.878245
 30
0.0
 11
502.333585
 21
418.135359
 31
0.0
  0
LINE
  5
135
100
AcDbEntity
  8
M01
100
AcDbLine
 10
496.333585
 20
417.878245
 30
0.0
 11
496.333585
 21
418.027664
 31
0.0
  0
LINE
  5
136
100
AcDbEntity
  8
M01
100
AcDbLine
 10
497.083585
 20
442.228626
 30
0.0
 11
497.083585
 21
442.965907
 31
0.0
  0
LINE
  5
137
100
AcDbEntity
  8
M01
100
AcDbLine
 10
496.333585
 20
440.527664
 30
0.0
 11
496.333585
 21
442.027664
 31
0.0
  0
LINE
  5
138
100
AcDbEntity
  8
M01
100
AcDbLine
 10
497.083585
 20
439.228626
 30
0.0
 11
497.083585
 21
440.728626
 31
0.0
  0
LINE
  5
139
100
AcDbEntity
  8
M01
100
AcDbLine
 10
496.333585
 20
437.527664
 30
0.0
 11
496.333585
 21
439.027664
 31
0.0
  0
LINE
  5
13A
100
AcDbEntity
  8
M01
100
AcDbLine
 10
497.083585
 20
436.228626
 30
0.0
 11
497.083585
 21
437.728626
 31
0.0
  0
LINE
  5
13B
100
AcDbEntity
  8
M01
100
AcDbLine
 10
497.083585
 20
433.228626
 30
0.0
 11
497.083585
 21
434.728626
 31
0.0
  0
LINE
  5
13C
100
AcDbEntity
  8
M01
100
AcDbLine
 10
496.333585
 20
434.527664
 30
0.0
 11
496.333585
 21
436.027664
 31
0.0
  0
LINE
  5
13D
100
AcDbEntity
  8
M01
100
AcDbLine
 10
496.333585
 20
431.527664
 30
0.0
 11
496.333585
 21
433.027664
 31
0.0
  0
LINE
  5
13E
100
AcDbEntity
  8
M01
100
AcDbLine
 10
497.083585
 20
430.228626
 30
0.0
 11
497.083585
 21
431.728626
 31
0.0
  0
LINE
  5
13F
100
AcDbEntity
  8
M01
100
AcDbLine
 10
496.333585
 20
428.527664
 30
0.0
 11
496.333585
 21
430.027664
 31
0.0
  0
LINE
  5
140
100
AcDbEntity
  8
M01
100
AcDbLine
 10
497.083585
 20
427.228626
 30
0.0
 11
497.083585
 21
428.728626
 31
0.0
  0
LINE
  5
141
100
AcDbEntity
  8
M01
100
AcDbLine
 10
496.333585
 20
425.527664
 30
0.0
 11
496.333585
 21
427.027664
 31
0.0
  0
LINE
  5
142
100
AcDbEntity
  8
M01
100
AcDbLine
 10
497.083585
 20
424.228626
 30
0.0
 11
497.083585
 21
425.728626
 31
0.0
  0
LINE
  5
143
100
AcDbEntity
  8
M01
100
AcDbLine
 10
496.333585
 20
422.527664
 30
0.0
 11
496.333585
 21
424.027664
 31
0.0
  0
LINE
  5
144
100
AcDbEntity
  8
M01
100
AcDbLine
 10
497.083585
 20
421.228626
 30
0.0
 11
497.083585
 21
422.728626
 31
0.0
  0
LINE
  5
145
100
AcDbEntity
  8
M01
100
AcDbLine
 10
501.583585
 20
422.434398
 30
0.0
 11
501.583585
 21
423.934398
 31
0.0
  0
LINE
  5
146
100
AcDbEntity
  8
M01
100
AcDbLine
 10
501.583585
 20
425.434398
 30
0.0
 11
501.583585
 21
426.934398
 31
0.0
  0
LINE
  5
147
100
AcDbEntity
  8
M01
100
AcDbLine
 10
501.583585
 20
428.434398
 30
0.0
 11
501.583585
 21
429.934398
 31
0.0
  0
LINE
  5
148
100
AcDbEntity
  8
M01
100
AcDbLine
 10
501.583585
 20
431.434398
 30
0.0
 11
501.583585
 21
432.934398
 31
0.0
  0
LINE
  5
149
100
AcDbEntity
  8
M01
100
AcDbLine
 10
501.583585
 20
434.434398
 30
0.0
 11
501.583585
 21
435.934398
 31
0.0
  0
LINE
  5
14A
100
AcDbEntity
  8
M01
100
AcDbLine
 10
501.583585
 20
437.434398
 30
0.0
 11
501.583585
 21
438.934398
 31
0.0
  0
LINE
  5
14B
100
AcDbEntity
  8
M01
100
AcDbLine
 10
501.583585
 20
440.434398
 30
0.0
 11
501.583585
 21
441.934398
 31
0.0
  0
LINE
  5
14C
100
AcDbEntity
  8
M01
100
AcDbLine
 10
501.583585
 20
443.434398
 30
0.0
 11
501.583585
 21
444.470899
 31
0.0
  0
LINE
  5
14D
100
AcDbEntity
  8
M01
100
AcDbLine
 10
502.333585
 20
442.135359
 30
0.0
 11
502.333585
 21
443.635359
 31
0.0
  0
LINE
  5
14E
100
AcDbEntity
  8
M01
100
AcDbLine
 10
502.333585
 20
439.135359
 30
0.0
 11
502.333585
 21
440.635359
 31
0.0
  0
LINE
  5
14F
100
AcDbEntity
  8
M01
100
AcDbLine
 10
502.333585
 20
436.135359
 30
0.0
 11
502.333585
 21
437.635359
 31
0.0
  0
LINE
  5
150
100
AcDbEntity
  8
M01
100
AcDbLine
 10
502.333585
 20
433.135359
 30
0.0
 11
502.333585
 21
434.635359
 31
0.0
  0
LINE
  5
151
100
AcDbEntity
  8
M01
100
AcDbLine
 10
502.333585
 20
430.135359
 30
0.0
 11
502.333585
 21
431.635359
 31
0.0
  0
LINE
  5
152
100
AcDbEntity
  8
M01
100
AcDbLine
 10
502.333585
 20
427.135359
 30
0.0
 11
502.333585
 21
428.635359
 31
0.0
  0
LINE
  5
153
100
AcDbEntity
  8
M01
100
AcDbLine
 10
502.333585
 20
424.135359
 30
0.0
 11
502.333585
 21
425.635359
 31
0.0
  0
LINE
  5
154
100
AcDbEntity
  8
M01
100
AcDbLine
 10
501.583585
 20
417.878245
 30
0.0
 11
501.583585
 21
417.934398
 31
0.0
  0
LINE
  5
155
100
AcDbEntity
  8
M01
100
AcDbLine
 10
502.333585
 20
421.135359
 30
0.0
 11
502.333585
 21
422.635359
 31
0.0
  0
LINE
  5
156
100
AcDbEntity
  8
M01
100
AcDbLine
 10
496.333585
 20
442.027664
 30
0.0
 11
502.333585
 21
443.635359
 31
0.0
  0
LINE
  5
157
100
AcDbEntity
  8
M01
100
AcDbLine
 10
496.333585
 20
440.527664
 30
0.0
 11
502.333585
 21
442.135359
 31
0.0
  0
LINE
  5
158
100
AcDbEntity
  8
M01
100
AcDbLine
 10
496.333585
 20
439.027664
 30
0.0
 11
502.333585
 21
440.635359
 31
0.0
  0
LINE
  5
159
100
AcDbEntity
  8
M01
100
AcDbLine
 10
496.333585
 20
437.527664
 30
0.0
 11
502.333585
 21
439.135359
 31
0.0
  0
LINE
  5
15A
100
AcDbEntity
  8
M01
100
AcDbLine
 10
496.333585
 20
436.027664
 30
0.0
 11
502.333585
 21
437.635359
 31
0.0
  0
LINE
  5
15B
100
AcDbEntity
  8
M01
100
AcDbLine
 10
496.333585
 20
434.527664
 30
0.0
 11
502.333585
 21
436.135359
 31
0.0
  0
LINE
  5
15C
100
AcDbEntity
  8
M01
100
AcDbLine
 10
496.333585
 20
433.027664
 30
0.0
 11
502.333585
 21
434.635359
 31
0.0
  0
LINE
  5
15D
100
AcDbEntity
  8
M01
100
AcDbLine
 10
496.333585
 20
431.527664
 30
0.0
 11
502.333585
 21
433.135359
 31
0.0
  0
LINE
  5
15E
100
AcDbEntity
  8
M01
100
AcDbLine
 10
496.333585
 20
430.027664
 30
0.0
 11
502.333585
 21
431.635359
 31
0.0
  0
LINE
  5
15F
100
AcDbEntity
  8
M01
100
AcDbLine
 10
496.333585
 20
428.527664
 30
0.0
 11
502.333585
 21
430.135359
 31
0.0
  0
LINE
  5
160
100
AcDbEntity
  8
M01
100
AcDbLine
 10
496.333585
 20
427.027664
 30
0.0
 11
502.333585
 21
428.635359
 31
0.0
  0
LINE
  5
161
100
AcDbEntity
  8
M01
100
AcDbLine
 10
496.333585
 20
425.527664
 30
0.0
 11
502.333585
 21
427.135359
 31
0.0
  0
LINE
  5
162
100
AcDbEntity
  8
M01
100
AcDbLine
 10
496.333585
 20
424.027664
 30
0.0
 11
502.333585
 21
425.635359
 31
0.0
  0
LINE
  5
163
100
AcDbEntity
  8
M01
100
AcDbLine
 10
496.333585
 20
422.527664
 30
0.0
 11
502.333585
 21
424.135359
 31
0.0
  0
LINE
  5
164
100
AcDbEntity
  8
M01
100
AcDbLine
 10
496.333585
 20
421.027664
 30
0.0
 11
502.333585
 21
422.635359
 31
0.0
  0
LINE
  5
165
100
AcDbEntity
  8
M01
100
AcDbLine
 10
496.333585
 20
419.527664
 30
0.0
 11
502.333585
 21
421.135359
 31
0.0
  0
LINE
  5
166
100
AcDbEntity
  8
M01
100
AcDbLine
 10
497.083585
 20
418.228626
 30
0.0
 11
497.083585
 21
419.728626
 31
0.0
  0
LINE
  5
167
100
AcDbEntity
  8
M01
100
AcDbLine
 10
496.333585
 20
419.527664
 30
0.0
 11
496.333585
 21
421.027664
 31
0.0
  0
LINE
  5
168
100
AcDbEntity
  8
CENTRE
 48
0.7
100
AcDbLine
 10
499.333585
 20
251.342401
 30
0.0
 11
499.333585
 21
452.62854
 31
0.0
  0
LINE
  5
169
100
AcDbEntity
  8
M01
100
AcDbLine
 10
502.833585
 20
407.878245
 30
0.0
 11
495.833585
 21
407.878245
 31
0.0
  0
LINE
  5
16A
100
AcDbEntity
  8
M01
100
AcDbLine
 10
496.333585
 20
399.802988
 30
0.0
 11
502.333585
 21
399.802988
 31
0.0
  0
LINE
  5
16B
100
AcDbEntity
  8
M01
100
AcDbLine
 10
502.333585
 20
399.802988
 30
0.0
 11
502.333585
 21
407.878245
 31
0.0
  0
LINE
  5
16C
100
AcDbEntity
  8
M01
100
AcDbLine
 10
496.333585
 20
399.802988
 30
0.0
 11
496.333585
 21
407.878245
 31
0.0
  0
LINE
  5
16D
100
AcDbEntity
  8
M01
100
AcDbLine
 10
497.333585
 20
389.878245
 30
0.0
 11
496.333585
 21
399.802988
 31
0.0
  0
LINE
  5
16E
100
AcDbEntity
  8
M01
100
AcDbLine
 10
495.833585
 20
407.878245
 30
0.0
 11
495.833585
 21
417.878245
 31
0.0
  0
LINE
  5
16F
100
AcDbEntity
  8
M01
100
AcDbLine
 10
501.323585
 20
389.878245
 30
0.0
 11
502.333585
 21
399.802988
 31
0.0
  0
LINE
  5
170
100
AcDbEntity
  8
M01
100
AcDbLine
 10
502.833585
 20
407.878245
 30
0.0
 11
502.833585
 21
417.878245
 31
0.0
  0
LINE
  5
171
100
AcDbEntity
  8
M01
100
AcDbLine
 10
502.833585
 20
417.878245
 30
0.0
 11
495.833585
 21
417.878245
 31
0.0
  0
LINE
  5
172
100
AcDbEntity
  8
M01
100
AcDbLine
 10
501.323585
 20
389.878245
 30
0.0
 11
497.333585
 21
389.878245
 31
0.0
  0
LINE
  5
173
100
AcDbEntity
  8
CENTRE
100
AcDbLine
 10
540.005234
 20
292.01405
 30
0.0
 11
458.661937
 21
292.01405
 31
0.0
  0
DIMENSION
  5
174
100
AcDbEntity
  8
DIMS
100
AcDbDimension
  2
*D5
 10
500.833585
 20
535.450054
 30
0.0
 11
523.190728
 21
538.450054
 31
0.0
  1
3.00 x 4 DP.
  3
DIM1
100
AcDbAlignedDimension
 13
497.833585
 23
550.301023
 33
0.0
 14
500.833585
 24
550.301023
 34
0.0
100
AcDbRotatedDimension
1001
ACAD
1000
DSTYLE
1002
{
1070
   144
1040
1.0
1002
}
  0
DIMENSION
  5
182
100
AcDbEntity
  8
DIMS
100
AcDbDimension
  2
*D4
 10
446.17936
 20
548.801023
 30
0.0
 11
443.17936
 21
567.801023
 31
0.0
  1
38
  3
DIM1
100
AcDbAlignedDimension
 13
458.661937
 23
586.801023
 33
0.0
 14
499.333585
 24
548.801023
 34
0.0
 50
90.0
100
AcDbRotatedDimension
1001
ACAD
1000
DSTYLE
1002
{
1070
   144
1040
1.0
1002
}
  0
CIRCLE
  5
18F
100
AcDbEntity
  8
M03
100
AcDbCircle
 10
499.333585
 20
586.801023
 30
0.0
 40
7.95
  0
CIRCLE
  5
190
100
AcDbEntity
  8
M04
100
AcDbCircle
 10
499.333585
 20
586.801023
 30
0.0
 40
24.0
  0
ARC
  5
191
100
AcDbEntity
  8
M01
100
AcDbCircle
 10
499.333585
 20
586.801023
 30
0.0
 40
29.21
100
AcDbArc
 50
93.926097
 51
86.093564
  0
CIRCLE
  5
192
100
AcDbEntity
  8
M01
100
AcDbCircle
 10
499.333585
 20
586.801023
 30
0.0
 40
22.85
  0
CIRCLE
  5
193
100
AcDbEntity
  8
M01
100
AcDbCircle
 10
499.333585
 20
586.801023
 30
0.0
 40
17.5
  0
ARC
  5
194
100
AcDbEntity
  8
M04
100
AcDbCircle
 10
499.333585
 20
550.301023
 30
0.0
 40
1.5
100
AcDbArc
 50
180.0
 51
0.0
  0
LINE
  5
195
100
AcDbEntity
  8
M04
100
AcDbLine
 10
500.833585
 20
552.801023
 30
0.0
 11
500.833585
 21
550.301023
 31
0.0
  0
LINE
  5
196
100
AcDbEntity
  8
M04
100
AcDbLine
 10
497.833585
 20
552.801023
 30
0.0
 11
497.833585
 21
550.301023
 31
0.0
  0
LINE
  5
197
100
AcDbEntity
  8
M01
100
AcDbLine
 10
500.400573
 20
552.051023
 30
0.0
 11
498.266598
 21
552.051023
 31
0.0
  0
LINE
  5
198
100
AcDbEntity
  8
M01
100
AcDbLine
 10
497.833585
 20
552.801023
 30
0.0
 11
498.266598
 21
552.051023
 31
0.0
  0
LINE
  5
199
100
AcDbEntity
  8
M01
100
AcDbLine
 10
500.833585
 20
552.801023
 30
0.0
 11
497.833585
 21
552.801023
 31
0.0
  0
LINE
  5
19A
100
AcDbEntity
  8
M01
100
AcDbLine
 10
500.833585
 20
552.801023
 30
0.0
 11
500.400573
 21
552.051023
 31
0.0
  0
LINE
  5
19B
100
AcDbEntity
  8
M01
100
AcDbLine
 10
500.833585
 20
557.629563
 30
0.0
 11
500.833585
 21
552.801023
 31
0.0
  0
LINE
  5
19C
100
AcDbEntity
  8
M01
100
AcDbLine
 10
497.833585
 20
557.629563
 30
0.0
 11
497.833585
 21
552.801023
 31
0.0
  0
TEXT
  5
19D
100
AcDbEntity
  8
DIMS
 62
     2
100
AcDbText
 10
695.489923
 20
528.500415
 30
0.0
 40
2.0
  1
-0
100
AcDbText
  0
TEXT
  5
19E
100
AcDbEntity
  8
DIMS
 62
     2
100
AcDbText
 10
695.489923
 20
531.585336
 30
0.0
 40
2.0
  1
+0.025
100
AcDbText
  0
DIMENSION
  5
19F
100
AcDbEntity
  8
DIMS
100
AcDbDimension
  2
*D3
 10
612.893948
 20
506.167976
 30
0.0
 11
670.043948
 21
509.167976
 31
0.0
  1
<> REF.
  3
DIM1
100
AcDbAlignedDimension
 13
727.193948
 23
539.974791
 33
0.0
 14
612.893948
 24
584.801023
 34
0.0
100
AcDbRotatedDimension
1001
ACAD
1000
DSTYLE
1002
{
1070
   144
1040
1.0
1002
}
  0
DIMENSION
  5
1AC
100
AcDbEntity
  8
DIMS
100
AcDbDimension
  2
*D2
 10
625.593948
 20
516.167976
 30
0.0
 11
676.393948
 21
519.95369
 31
0.0
  1
L1=<> (4.000")
  3
DIM1
100
AcDbAlignedDimension
 13
727.193948
 23
539.974791
 33
0.0
 14
625.593948
 24
569.801023
 34
0.0
100
AcDbRotatedDimension
1001
ACAD
1000
DSTYLE
1002
{
1070
   144
1040
1.0
1002
}
  0
DIMENSION
  5
1B9
100
AcDbEntity
  8
DIMS
100
AcDbDimension
  2
*D1
 10
708.143948
 20
526.227187
 30
0.0
 11
686.767604
 21
526.227187
 31
0.0
 12
25.4
 22
0.0
 32
0.0
 70
   128
  3
DIM1
100
AcDbAlignedDimension
 13
727.193948
 23
539.974791
 33
0.0
 14
708.143948
 24
557.591023
 34
0.0
100
AcDbRotatedDimension
1001
ACAD
1000
DSTYLE
1002
{
1070
   144
1040
1.0
1002
}
  0
TEXT
  5
1C7
100
AcDbEntity
  8
DIMS
 62
     2
100
AcDbText
 10
752.001989
 20
595.898002
 30
0.0
 40
2.0
  1
-0
 50
90.0
100
AcDbText
  0
TEXT
  5
1C8
100
AcDbEntity
  8
DIMS
 62
     2
100
AcDbText
 10
748.917069
 20
595.898002
 30
0.0
 40
2.0
  1
+0.025
 50
90.0
100
AcDbText
  0
DIMENSION
  5
1C9
100
AcDbEntity
  8
DIMS
100
AcDbDimension
  2
*D0
 10
754.342155
 20
616.011023
 30
0.0
 11
754.342155
 21
586.67126
 31
0.0
 12
25.4
 22
-114.565118
 32
0.0
 70
   128
  1
%%c<>
  3
DIM1
100
AcDbAlignedDimension
 13
717.768948
 23
557.591023
 33
0.0
 14
711.666243
 24
616.011023
 34
0.0
 50
90.0
100
AcDbRotatedDimension
1001
ACAD
1000
DSTYLE
1002
{
1070
   144
1040
1.0
1002
}
  0
LINE
  5
1D6
100
AcDbEntity
  8
CENTRE
100
AcDbLine
 10
719.268948
 20
546.074366
 30
0.0
 11
719.268948
 21
563.831753
 31
0.0
  0
MTEXT
  5
1D7
100
AcDbEntity
  8
0
  6
BYBLOCK
 62
     2
100
AcDbMText
 10
575.113039
 20
604.810829
 30
0.0
 40
3.0
 41
0.0
 71
     5
 72
     1
  1
GATE INSERTION POINT
  0
SOLID
  5
1D8
100
AcDbEntity
  8
0
  6
BYBLOCK
 62
     4
100
AcDbTrace
 10
611.72777
 20
590.918368
 30
0.0
 11
610.80405
 21
590.5353
 31
0.0
 12
612.415114
 22
587.955674
 32
0.0
 13
612.415114
 23
587.955674
 33
0.0
  0
LINE
  5
1D9
100
AcDbEntity
  8
0
  6
BYBLOCK
 62
     4
100
AcDbLine
 10
605.501501
 20
604.810829
 30
0.0
 11
602.501501
 21
604.810829
 31
0.0
  0
LINE
  5
1DA
100
AcDbEntity
  8
0
  6
BYBLOCK
 62
     4
100
AcDbLine
 10
611.26591
 20
590.726834
 30
0.0
 11
605.501501
 21
604.810829
 31
0.0
  0
CIRCLE
  5
1DB
100
AcDbEntity
  8
M04
100
AcDbCircle
 10
612.893948
 20
586.801023
 30
0.0
 40
1.25
  0
LINE
  5
1DC
100
AcDbEntity
  8
M03
100
AcDbLine
 10
625.593948
 20
578.851023
 30
0.0
 11
727.193948
 21
578.851023
 31
0.0
  0
LINE
  5
1DD
100
AcDbEntity
  8
M03
100
AcDbLine
 10
625.593948
 20
594.751023
 30
0.0
 11
727.193948
 21
594.751023
 31
0.0
  0
LINE
  5
1DE
100
AcDbEntity
  8
M04
100
AcDbLine
 10
716.193948
 20
557.591023
 30
0.0
 11
716.193948
 21
548.801023
 31
0.0
  0
LINE
  5
1DF
100
AcDbEntity
  8
M04
100
AcDbLine
 10
716.193948
 20
548.801023
 30
0.0
 11
720.193948
 21
548.801023
 31
0.0
  0
LINE
  5
1E0
100
AcDbEntity
  8
M04
100
AcDbLine
 10
711.666243
 20
557.591023
 30
0.0
 11
717.768948
 21
557.591023
 31
0.0
  0
LINE
  5
1E1
100
AcDbEntity
  8
M04
100
AcDbLine
 10
727.193948
 20
559.301023
 30
0.0
 11
727.193948
 21
539.974791
 31
0.0
  0
LINE
  5
1E2
100
AcDbEntity
  8
M04
100
AcDbLine
 10
720.193948
 20
552.051023
 30
0.0
 11
720.193948
 21
539.974791
 31
0.0
  0
LINE
  5
1E3
100
AcDbEntity
  8
M04
100
AcDbLine
 10
709.143948
 20
557.591023
 30
0.0
 11
708.143948
 21
557.591023
 31
0.0
  0
LINE
  5
1E4
100
AcDbEntity
  8
M04
100
AcDbLine
 10
708.143948
 20
558.591023
 30
0.0
 11
708.143948
 21
557.591023
 31
0.0
  0
MTEXT
  5
1E5
100
AcDbEntity
  8
0
  6
BYBLOCK
 62
     2
100
AcDbMText
 10
787.580841
 20
623.83434
 30
0.0
 40
3.0
 41
0.0
 71
     5
 72
     1
  1
MANIFOLD INSERTION POINT
  0
SOLID
  5
1E6
100
AcDbEntity
  8
0
  6
BYBLOCK
 62
     4
100
AcDbTrace
 10
729.072737
 20
590.645845
 30
0.0
 11
729.913752
 21
590.104834
 31
0.0
 12
727.870212
 22
587.852293
 32
0.0
 13
727.870212
 23
587.852293
 33
0.0
  0
LINE
  5
1E7
100
AcDbEntity
  8
0
  6
BYBLOCK
 62
     4
100
AcDbLine
 10
750.83477
 20
623.83434
 30
0.0
 11
753.83477
 21
623.83434
 31
0.0
  0
LINE
  5
1E8
100
AcDbEntity
  8
0
  6
BYBLOCK
 62
     4
100
AcDbLine
 10
729.493245
 20
590.37534
 30
0.0
 11
750.83477
 21
623.83434
 31
0.0
  0
CIRCLE
  5
1E9
100
AcDbEntity
  8
M04
100
AcDbCircle
 10
727.193948
 20
586.801023
 30
0.0
 40
1.25
  0
TEXT
  5
1EA
100
AcDbEntity
  8
TEXT
100
AcDbText
 10
634.479835
 20
601.884083
 30
0.0
 40
2.0
  1
PVL625-04000
 41
0.9
100
AcDbText
  0
LINE
  5
1EB
100
AcDbEntity
  8
M01
100
AcDbLine
 10
714.133948
 20
684.665219
 30
0.0
 11
714.133948
 21
615.311582
 31
0.0
  0
LINE
  5
1EC
100
AcDbEntity
  8
M01
100
AcDbLine
 10
710.143948
 20
684.665219
 30
0.0
 11
710.143948
 21
616.011023
 31
0.0
  0
LINE
  5
1ED
100
AcDbEntity
  8
M01
100
AcDbLine
 10
714.393948
 20
714.221371
 30
0.0
 11
714.393948
 21
715.721371
 31
0.0
  0
LINE
  5
1EE
100
AcDbEntity
  8
M01
100
AcDbLine
 10
715.143948
 20
712.922333
 30
0.0
 11
715.143948
 21
714.422333
 31
0.0
  0
LINE
  5
1EF
100
AcDbEntity
  8
M01
100
AcDbLine
 10
709.143948
 20
712.814638
 30
0.0
 11
715.143948
 21
714.422333
 31
0.0
  0
LINE
  5
1F0
100
AcDbEntity
  8
M01
100
AcDbLine
 10
714.184385
 20
712.665219
 30
0.0
 11
715.143948
 21
712.922333
 31
0.0
  0
LINE
  5
1F1
100
AcDbEntity
  8
M01
100
AcDbLine
 10
709.143948
 20
712.665219
 30
0.0
 11
709.143948
 21
712.814638
 31
0.0
  0
LINE
  5
1F2
100
AcDbEntity
  8
M01
100
AcDbLine
 10
709.893948
 20
737.0156
 30
0.0
 11
709.893948
 21
737.75288
 31
0.0
  0
LINE
  5
1F3
100
AcDbEntity
  8
M01
100
AcDbLine
 10
709.143948
 20
735.314638
 30
0.0
 11
709.143948
 21
736.814638
 31
0.0
  0
LINE
  5
1F4
100
AcDbEntity
  8
M01
100
AcDbLine
 10
709.893948
 20
734.0156
 30
0.0
 11
709.893948
 21
735.5156
 31
0.0
  0
LINE
  5
1F5
100
AcDbEntity
  8
M01
100
AcDbLine
 10
709.143948
 20
732.314638
 30
0.0
 11
709.143948
 21
733.814638
 31
0.0
  0
LINE
  5
1F6
100
AcDbEntity
  8
M01
100
AcDbLine
 10
709.893948
 20
731.0156
 30
0.0
 11
709.893948
 21
732.5156
 31
0.0
  0
LINE
  5
1F7
100
AcDbEntity
  8
M01
100
AcDbLine
 10
709.893948
 20
728.0156
 30
0.0
 11
709.893948
 21
729.5156
 31
0.0
  0
LINE
  5
1F8
100
AcDbEntity
  8
M01
100
AcDbLine
 10
709.143948
 20
729.314638
 30
0.0
 11
709.143948
 21
730.814638
 31
0.0
  0
LINE
  5
1F9
100
AcDbEntity
  8
M01
100
AcDbLine
 10
709.143948
 20
726.314638
 30
0.0
 11
709.143948
 21
727.814638
 31
0.0
  0
LINE
  5
1FA
100
AcDbEntity
  8
M01
100
AcDbLine
 10
709.893948
 20
725.0156
 30
0.0
 11
709.893948
 21
726.5156
 31
0.0
  0
LINE
  5
1FB
100
AcDbEntity
  8
M01
100
AcDbLine
 10
709.143948
 20
723.314638
 30
0.0
 11
709.143948
 21
724.814638
 31
0.0
  0
LINE
  5
1FC
100
AcDbEntity
  8
M01
100
AcDbLine
 10
709.893948
 20
722.0156
 30
0.0
 11
709.893948
 21
723.5156
 31
0.0
  0
LINE
  5
1FD
100
AcDbEntity
  8
M01
100
AcDbLine
 10
709.143948
 20
720.314638
 30
0.0
 11
709.143948
 21
721.814638
 31
0.0
  0
LINE
  5
1FE
100
AcDbEntity
  8
M01
100
AcDbLine
 10
709.893948
 20
719.0156
 30
0.0
 11
709.893948
 21
720.5156
 31
0.0
  0
LINE
  5
1FF
100
AcDbEntity
  8
M01
100
AcDbLine
 10
709.143948
 20
717.314638
 30
0.0
 11
709.143948
 21
718.814638
 31
0.0
  0
LINE
  5
200
100
AcDbEntity
  8
M01
100
AcDbLine
 10
709.893948
 20
716.0156
 30
0.0
 11
709.893948
 21
717.5156
 31
0.0
  0
LINE
  5
201
100
AcDbEntity
  8
M01
100
AcDbLine
 10
714.393948
 20
717.221371
 30
0.0
 11
714.393948
 21
718.721371
 31
0.0
  0
LINE
  5
202
100
AcDbEntity
  8
M01
100
AcDbLine
 10
714.393948
 20
720.221371
 30
0.0
 11
714.393948
 21
721.721371
 31
0.0
  0
LINE
  5
203
100
AcDbEntity
  8
M01
100
AcDbLine
 10
714.393948
 20
723.221371
 30
0.0
 11
714.393948
 21
724.721371
 31
0.0
  0
LINE
  5
204
100
AcDbEntity
  8
M01
100
AcDbLine
 10
714.393948
 20
726.221371
 30
0.0
 11
714.393948
 21
727.721371
 31
0.0
  0
LINE
  5
205
100
AcDbEntity
  8
M01
100
AcDbLine
 10
714.393948
 20
729.221371
 30
0.0
 11
714.393948
 21
730.721371
 31
0.0
  0
LINE
  5
206
100
AcDbEntity
  8
M01
100
AcDbLine
 10
714.393948
 20
732.221371
 30
0.0
 11
714.393948
 21
733.721371
 31
0.0
  0
LINE
  5
207
100
AcDbEntity
  8
M01
100
AcDbLine
 10
714.393948
 20
735.221371
 30
0.0
 11
714.393948
 21
736.721371
 31
0.0
  0
LINE
  5
208
100
AcDbEntity
  8
M01
100
AcDbLine
 10
714.393948
 20
738.221371
 30
0.0
 11
714.393948
 21
739.257873
 31
0.0
  0
LINE
  5
209
100
AcDbEntity
  8
M01
100
AcDbLine
 10
715.143948
 20
736.922333
 30
0.0
 11
715.143948
 21
738.422333
 31
0.0
  0
LINE
  5
20A
100
AcDbEntity
  8
M01
100
AcDbLine
 10
715.143948
 20
733.922333
 30
0.0
 11
715.143948
 21
735.422333
 31
0.0
  0
LINE
  5
20B
100
AcDbEntity
  8
M01
100
AcDbLine
 10
715.143948
 20
730.922333
 30
0.0
 11
715.143948
 21
732.422333
 31
0.0
  0
LINE
  5
20C
100
AcDbEntity
  8
M01
100
AcDbLine
 10
715.143948
 20
727.922333
 30
0.0
 11
715.143948
 21
729.422333
 31
0.0
  0
LINE
  5
20D
100
AcDbEntity
  8
M01
100
AcDbLine
 10
715.143948
 20
724.922333
 30
0.0
 11
715.143948
 21
726.422333
 31
0.0
  0
LINE
  5
20E
100
AcDbEntity
  8
M01
100
AcDbLine
 10
715.143948
 20
721.922333
 30
0.0
 11
715.143948
 21
723.422333
 31
0.0
  0
LINE
  5
20F
100
AcDbEntity
  8
M01
100
AcDbLine
 10
715.143948
 20
718.922333
 30
0.0
 11
715.143948
 21
720.422333
 31
0.0
  0
LINE
  5
210
100
AcDbEntity
  8
M01
100
AcDbLine
 10
714.393948
 20
712.665219
 30
0.0
 11
714.393948
 21
712.721371
 31
0.0
  0
LINE
  5
211
100
AcDbEntity
  8
M01
100
AcDbLine
 10
715.143948
 20
715.922333
 30
0.0
 11
715.143948
 21
717.422333
 31
0.0
  0
LINE
  5
212
100
AcDbEntity
  8
M01
100
AcDbLine
 10
709.143948
 20
736.814638
 30
0.0
 11
715.143948
 21
738.422333
 31
0.0
  0
LINE
  5
213
100
AcDbEntity
  8
M01
100
AcDbLine
 10
709.143948
 20
735.314638
 30
0.0
 11
715.143948
 21
736.922333
 31
0.0
  0
LINE
  5
214
100
AcDbEntity
  8
M01
100
AcDbLine
 10
709.143948
 20
733.814638
 30
0.0
 11
715.143948
 21
735.422333
 31
0.0
  0
LINE
  5
215
100
AcDbEntity
  8
M01
100
AcDbLine
 10
709.143948
 20
732.314638
 30
0.0
 11
715.143948
 21
733.922333
 31
0.0
  0
LINE
  5
216
100
AcDbEntity
  8
M01
100
AcDbLine
 10
709.143948
 20
730.814638
 30
0.0
 11
715.143948
 21
732.422333
 31
0.0
  0
LINE
  5
217
100
AcDbEntity
  8
M01
100
AcDbLine
 10
709.143948
 20
729.314638
 30
0.0
 11
715.143948
 21
730.922333
 31
0.0
  0
LINE
  5
218
100
AcDbEntity
  8
M01
100
AcDbLine
 10
709.143948
 20
727.814638
 30
0.0
 11
715.143948
 21
729.422333
 31
0.0
  0
LINE
  5
219
100
AcDbEntity
  8
M01
100
AcDbLine
 10
709.143948
 20
726.314638
 30
0.0
 11
715.143948
 21
727.922333
 31
0.0
  0
LINE
  5
21A
100
AcDbEntity
  8
M01
100
AcDbLine
 10
709.143948
 20
724.814638
 30
0.0
 11
715.143948
 21
726.422333
 31
0.0
  0
LINE
  5
21B
100
AcDbEntity
  8
M01
100
AcDbLine
 10
709.143948
 20
723.314638
 30
0.0
 11
715.143948
 21
724.922333
 31
0.0
  0
LINE
  5
21C
100
AcDbEntity
  8
M01
100
AcDbLine
 10
709.143948
 20
721.814638
 30
0.0
 11
715.143948
 21
723.422333
 31
0.0
  0
LINE
  5
21D
100
AcDbEntity
  8
M01
100
AcDbLine
 10
709.143948
 20
720.314638
 30
0.0
 11
715.143948
 21
721.922333
 31
0.0
  0
LINE
  5
21E
100
AcDbEntity
  8
M01
100
AcDbLine
 10
709.143948
 20
718.814638
 30
0.0
 11
715.143948
 21
720.422333
 31
0.0
  0
LINE
  5
21F
100
AcDbEntity
  8
M01
100
AcDbLine
 10
709.143948
 20
717.314638
 30
0.0
 11
715.143948
 21
718.922333
 31
0.0
  0
LINE
  5
220
100
AcDbEntity
  8
M01
100
AcDbLine
 10
709.143948
 20
715.814638
 30
0.0
 11
715.143948
 21
717.422333
 31
0.0
  0
LINE
  5
221
100
AcDbEntity
  8
M01
100
AcDbLine
 10
709.143948
 20
714.314638
 30
0.0
 11
715.143948
 21
715.922333
 31
0.0
  0
LINE
  5
222
100
AcDbEntity
  8
M01
100
AcDbLine
 10
709.893948
 20
713.0156
 30
0.0
 11
709.893948
 21
714.5156
 31
0.0
  0
LINE
  5
223
100
AcDbEntity
  8
M01
100
AcDbLine
 10
709.143948
 20
714.314638
 30
0.0
 11
709.143948
 21
715.814638
 31
0.0
  0
LINE
  5
224
100
AcDbEntity
  8
CENTRE
 48
0.7
100
AcDbLine
 10
712.143948
 20
668.77839
 30
0.0
 11
712.143948
 21
747.415513
 31
0.0
  0
LINE
  5
225
100
AcDbEntity
  8
M01
100
AcDbLine
 10
715.643948
 20
702.665219
 30
0.0
 11
708.643948
 21
702.665219
 31
0.0
  0
LINE
  5
226
100
AcDbEntity
  8
M01
100
AcDbLine
 10
709.143948
 20
694.589962
 30
0.0
 11
715.143948
 21
694.589962
 31
0.0
  0
LINE
  5
227
100
AcDbEntity
  8
M01
100
AcDbLine
 10
715.143948
 20
694.589962
 30
0.0
 11
715.143948
 21
702.665219
 31
0.0
  0
LINE
  5
228
100
AcDbEntity
  8
M01
100
AcDbLine
 10
709.143948
 20
694.589962
 30
0.0
 11
709.143948
 21
702.665219
 31
0.0
  0
LINE
  5
229
100
AcDbEntity
  8
M01
100
AcDbLine
 10
710.143948
 20
684.665219
 30
0.0
 11
709.143948
 21
694.589962
 31
0.0
  0
LINE
  5
22A
100
AcDbEntity
  8
M01
100
AcDbLine
 10
708.643948
 20
702.665219
 30
0.0
 11
708.643948
 21
712.665219
 31
0.0
  0
LINE
  5
22B
100
AcDbEntity
  8
M01
100
AcDbLine
 10
714.133948
 20
684.665219
 30
0.0
 11
715.143948
 21
694.589962
 31
0.0
  0
LINE
  5
22C
100
AcDbEntity
  8
M01
100
AcDbLine
 10
715.643948
 20
702.665219
 30
0.0
 11
715.643948
 21
712.665219
 31
0.0
  0
LINE
  5
22D
100
AcDbEntity
  8
M01
100
AcDbLine
 10
715.643948
 20
712.665219
 30
0.0
 11
708.643948
 21
712.665219
 31
0.0
  0
LINE
  5
22E
100
AcDbEntity
  8
M01
100
AcDbLine
 10
714.133948
 20
684.665219
 30
0.0
 11
710.143948
 21
684.665219
 31
0.0
  0
LINE
  5
22F
100
AcDbEntity
  8
M04
100
AcDbLine
 10
705.193948
 20
752.095632
 30
0.0
 11
705.193948
 21
609.651023
 31
0.0
  0
LINE
  5
230
100
AcDbEntity
  8
M04
 48
0.7
100
AcDbLine
 10
727.193948
 20
631.576747
 30
0.0
 11
729.193948
 21
633.576747
 31
0.0
  0
ARC
  5
231
100
AcDbEntity
  8
M04
 48
0.7
100
AcDbCircle
 10
722.193948
 20
638.576747
 30
0.0
 40
2.0
100
AcDbArc
 50
90.0
 51
180.0
  0
LINE
  5
232
100
AcDbEntity
  8
M04
 48
0.7
100
AcDbLine
 10
722.193948
 20
640.576747
 30
0.0
 11
745.510883
 21
640.576747
 31
0.0
  0
LINE
  5
233
100
AcDbEntity
  8
M04
 48
0.7
100
AcDbLine
 10
729.193948
 20
633.576747
 30
0.0
 11
745.510883
 21
633.576747
 31
0.0
  0
LINE
  5
234
100
AcDbEntity
  8
M04
100
AcDbLine
 10
727.193948
 20
614.301747
 30
0.0
 11
727.193948
 21
631.576747
 31
0.0
  0
LINE
  5
235
100
AcDbEntity
  8
M04
100
AcDbLine
 10
720.193948
 20
752.095632
 30
0.0
 11
720.193948
 21
612.801747
 31
0.0
  0
LINE
  5
236
100
AcDbEntity
  8
M04
100
AcDbLine
 10
640.593948
 20
562.801023
 30
0.0
 11
708.143948
 21
562.801023
 31
0.0
  0
LINE
  5
237
100
AcDbEntity
  8
M04
100
AcDbLine
 10
640.593948
 20
610.801023
 30
0.0
 11
705.193948
 21
610.801023
 31
0.0
  0
LINE
  5
238
100
AcDbEntity
  8
M01
100
AcDbLine
 10
726.193949
 20
594.301023
 30
0.0
 11
726.193949
 21
615.3025
 31
0.0
  0
LINE
  5
239
100
AcDbEntity
  8
M01
100
AcDbLine
 10
723.383948
 20
613.805369
 30
0.0
 11
723.383948
 21
615.304616
 31
0.0
  0
LINE
  5
23A
100
AcDbEntity
  8
M01
100
AcDbLine
 10
726.193949
 20
615.3025
 30
0.0
 11
723.383948
 21
615.304616
 31
0.0
  0
ARC
  5
23B
100
AcDbEntity
  8
M01
100
AcDbCircle
 10
722.383948
 20
613.805369
 30
0.0
 40
1.0
100
AcDbArc
 50
269.956853
 51
0.0
  0
LINE
  5
23C
100
AcDbEntity
  8
M01
100
AcDbLine
 10
722.383195
 20
612.805369
 30
0.0
 11
718.851373
 21
612.808029
 31
0.0
  0
LINE
  5
23D
100
AcDbEntity
  8
M01
100
AcDbLine
 10
727.193948
 20
614.301747
 30
0.0
 11
726.193949
 21
615.3025
 31
0.0
  0
LINE
  5
23E
100
AcDbEntity
  8
M01
100
AcDbLine
 10
714.515589
 20
615.311294
 30
0.0
 11
711.666243
 21
615.31344
 31
0.0
  0
LINE
  5
23F
100
AcDbEntity
  8
M01
100
AcDbLine
 10
709.143948
 20
616.011023
 30
0.0
 11
711.666243
 21
616.011023
 31
0.0
  0
LINE
  5
240
100
AcDbEntity
  8
M01
100
AcDbLine
 10
709.143948
 20
616.011023
 30
0.0
 11
708.143948
 21
615.011023
 31
0.0
  0
LINE
  5
241
100
AcDbEntity
  8
M01
100
AcDbLine
 10
714.515589
 20
615.311294
 30
0.0
 11
718.851373
 21
612.808029
 31
0.0
  0
LINE
  5
242
100
AcDbEntity
  8
M01
100
AcDbLine
 10
723.383948
 20
594.301023
 30
0.0
 11
727.193948
 21
594.301023
 31
0.0
  0
LINE
  5
243
100
AcDbEntity
  8
M01
100
AcDbLine
 10
723.383948
 20
559.801023
 30
0.0
 11
723.383948
 21
559.301023
 31
0.0
  0
ARC
  5
244
100
AcDbEntity
  8
M01
100
AcDbCircle
 10
722.383948
 20
559.801023
 30
0.0
 40
1.0
100
AcDbArc
 50
0.0
 51
90.0
  0
LINE
  5
245
100
AcDbEntity
  8
M01
100
AcDbLine
 10
722.383948
 20
560.801023
 30
0.0
 11
718.82266
 21
560.801023
 31
0.0
  0
LINE
  5
246
100
AcDbEntity
  8
M01
100
AcDbLine
 10
723.383948
 20
579.301023
 30
0.0
 11
727.193948
 21
579.301023
 31
0.0
  0
LINE
  5
247
100
AcDbEntity
  8
M04
100
AcDbLine
 10
723.383948
 20
594.301023
 30
0.0
 11
727.193948
 21
579.301023
 31
0.0
  0
LINE
  5
248
100
AcDbEntity
  8
M04
100
AcDbLine
 10
723.383948
 20
579.301023
 30
0.0
 11
727.193948
 21
594.301023
 31
0.0
  0
LINE
  5
249
100
AcDbEntity
  8
M01
100
AcDbLine
 10
708.161136
 20
604.301096
 30
0.0
 11
708.143948
 21
604.301023
 31
0.0
  0
LINE
  5
24A
100
AcDbEntity
  8
M01
100
AcDbLine
 10
708.143948
 20
569.301023
 30
0.0
 11
708.146982
 21
569.301023
 31
0.0
  0
LINE
  5
24B
100
AcDbEntity
  8
M01
100
AcDbLine
 10
708.143948
 20
561.301023
 30
0.0
 11
708.143948
 21
562.301023
 31
0.0
  0
LINE
  5
24C
100
AcDbEntity
  8
M01
100
AcDbLine
 10
726.193948
 20
558.301023
 30
0.0
 11
723.383948
 21
558.301023
 31
0.0
  0
LINE
  5
24D
100
AcDbEntity
  8
M01
100
AcDbLine
 10
720.335936
 20
552.051023
 30
0.0
 11
718.201961
 21
552.051023
 31
0.0
  0
LINE
  5
24E
100
AcDbEntity
  8
M01
100
AcDbLine
 10
717.768948
 20
552.801023
 30
0.0
 11
718.201961
 21
552.051023
 31
0.0
  0
LINE
  5
24F
100
AcDbEntity
  8
M01
100
AcDbLine
 10
720.768948
 20
552.801023
 30
0.0
 11
717.768948
 21
552.801023
 31
0.0
  0
LINE
  5
250
100
AcDbEntity
  8
M01
100
AcDbLine
 10
720.768948
 20
552.801023
 30
0.0
 11
720.335936
 21
552.051023
 31
0.0
  0
LINE
  5
251
100
AcDbEntity
  8
M01
100
AcDbLine
 10
714.492533
 20
558.301023
 30
0.0
 11
711.666243
 21
558.301023
 31
0.0
  0
LINE
  5
252
100
AcDbEntity
  8
M01
100
AcDbLine
 10
709.143948
 20
557.591023
 30
0.0
 11
711.666243
 21
557.591023
 31
0.0
  0
LINE
  5
253
100
AcDbEntity
  8
M01
100
AcDbLine
 10
708.143948
 20
558.591023
 30
0.0
 11
709.143948
 21
557.591023
 31
0.0
  0
LINE
  5
254
100
AcDbEntity
  8
M01
100
AcDbLine
 10
727.193948
 20
559.301023
 30
0.0
 11
726.193948
 21
558.301023
 31
0.0
  0
LINE
  5
255
100
AcDbEntity
  8
M01
100
AcDbLine
 10
723.383948
 20
559.301023
 30
0.0
 11
723.383948
 21
558.301023
 31
0.0
  0
LINE
  5
256
100
AcDbEntity
  8
M01
100
AcDbLine
 10
714.492533
 20
558.301023
 30
0.0
 11
718.82266
 21
560.801023
 31
0.0
  0
LINE
  5
257
100
AcDbEntity
  8
M01
100
AcDbLine
 10
720.768948
 20
560.801023
 30
0.0
 11
720.768948
 21
552.801023
 31
0.0
  0
LINE
  5
258
100
AcDbEntity
  8
M01
100
AcDbLine
 10
717.768948
 20
560.192662
 30
0.0
 11
717.768948
 21
552.801023
 31
0.0
  0
LINE
  5
259
100
AcDbEntity
  8
M01
100
AcDbLine
 10
708.143948
 20
558.591023
 30
0.0
 11
708.143948
 21
615.011023
 31
0.0
  0
LINE
  5
25A
100
AcDbEntity
  8
M01
100
AcDbLine
 10
727.193948
 20
614.301747
 30
0.0
 11
727.193948
 21
559.301023
 31
0.0
  0
LINE
  5
25B
100
AcDbEntity
  8
M01
100
AcDbLine
 10
726.193948
 20
558.301023
 30
0.0
 11
726.193948
 21
579.301023
 31
0.0
  0
LINE
  5
25C
100
AcDbEntity
  8
M01
100
AcDbLine
 10
723.383948
 20
615.304616
 30
0.0
 11
723.383948
 21
558.301023
 31
0.0
  0
LINE
  5
25D
100
AcDbEntity
  8
M01
100
AcDbLine
 10
714.515589
 20
615.311294
 30
0.0
 11
714.492533
 21
558.301023
 31
0.0
  0
LINE
  5
25E
100
AcDbEntity
  8
M01
100
AcDbLine
 10
718.851373
 20
612.808029
 30
0.0
 11
718.82266
 21
560.801023
 31
0.0
  0
LINE
  5
25F
100
AcDbEntity
  8
M01
100
AcDbLine
 10
711.666243
 20
616.011023
 30
0.0
 11
711.666243
 21
557.591023
 31
0.0
  0
LINE
  5
260
100
AcDbEntity
  8
M01
100
AcDbLine
 10
709.143948
 20
616.011023
 30
0.0
 11
709.143948
 21
557.591023
 31
0.0
  0
LINE
  5
261
100
AcDbEntity
  8
M01
100
AcDbLine
 10
629.693948
 20
604.301023
 30
0.0
 11
628.693948
 21
604.301023
 31
0.0
  0
LINE
  5
262
100
AcDbEntity
  8
M01
100
AcDbLine
 10
626.093948
 20
604.301023
 30
0.0
 11
625.593948
 21
603.801023
 31
0.0
  0
LINE
  5
263
100
AcDbEntity
  8
M01
100
AcDbLine
 10
627.093948
 20
604.301023
 30
0.0
 11
626.093948
 21
604.301023
 31
0.0
  0
LINE
  5
264
100
AcDbEntity
  8
M01
100
AcDbLine
 10
627.093948
 20
604.301023
 30
0.0
 11
626.093948
 21
604.301023
 31
0.0
  0
LINE
  5
265
100
AcDbEntity
  8
M01
100
AcDbLine
 10
627.093948
 20
603.371023
 30
0.0
 11
628.693948
 21
603.371023
 31
0.0
  0
LINE
  5
266
100
AcDbEntity
  8
M01
100
AcDbLine
 10
629.693948
 20
569.301023
 30
0.0
 11
628.693948
 21
569.301023
 31
0.0
  0
LINE
  5
267
100
AcDbEntity
  8
M01
100
AcDbLine
 10
627.093948
 20
569.301023
 30
0.0
 11
626.093948
 21
569.301023
 31
0.0
  0
LINE
  5
268
100
AcDbEntity
  8
M01
100
AcDbLine
 10
626.093948
 20
569.301023
 30
0.0
 11
625.593948
 21
569.801023
 31
0.0
  0
LINE
  5
269
100
AcDbEntity
  8
M01
100
AcDbLine
 10
627.093948
 20
569.301023
 30
0.0
 11
626.093948
 21
569.301023
 31
0.0
  0
LINE
  5
26A
100
AcDbEntity
  8
M01
100
AcDbLine
 10
627.093948
 20
570.231023
 30
0.0
 11
628.693948
 21
570.231023
 31
0.0
  0
LINE
  5
26B
100
AcDbEntity
  8
M01
100
AcDbLine
 10
625.593948
 20
569.801023
 30
0.0
 11
625.593948
 21
603.801023
 31
0.0
  0
LINE
  5
26C
100
AcDbEntity
  8
M01
100
AcDbLine
 10
628.693948
 20
604.301023
 30
0.0
 11
628.693948
 21
569.301023
 31
0.0
  0
LINE
  5
26D
100
AcDbEntity
  8
M01
100
AcDbLine
 10
627.093948
 20
604.301023
 30
0.0
 11
627.093948
 21
569.301023
 31
0.0
  0
LINE
  5
26E
100
AcDbEntity
  8
M01
100
AcDbLine
 10
626.093948
 20
604.301023
 30
0.0
 11
626.093948
 21
569.301023
 31
0.0
  0
LINE
  5
26F
100
AcDbEntity
  8
DIMS
100
AcDbLine
 10
612.893948
 20
588.801023
 30
0.0
 11
612.893948
 21
584.801023
 31
0.0
  0
LINE
  5
270
100
AcDbEntity
  8
M01
100
AcDbLine
 10
629.693948
 20
609.651023
 30
0.0
 11
629.693948
 21
563.951023
 31
0.0
  0
LINE
  5
271
100
AcDbEntity
  8
CENTRE
100
AcDbLine
 10
607.893948
 20
586.801023
 30
0.0
 11
742.601847
 21
586.801023
 31
0.0
  0
LINE
  5
272
100
AcDbEntity
  8
M01
100
AcDbLine
 10
629.693948
 20
609.651023
 30
0.0
 11
708.143948
 21
609.651023
 31
0.0
  0
LINE
  5
273
100
AcDbEntity
  8
M01
100
AcDbLine
 10
629.693948
 20
563.951023
 30
0.0
 11
708.143948
 21
563.951023
 31
0.0
  0
TEXT
  5
274
100
AcDbEntity
  8
TEXT
100
AcDbText
 10
389.791565
 20
370.413563
 30
0.0
 40
4.0
  1
%%USINGLE BUSH INSTALLATION
100
AcDbText
  0
TEXT
  5
275
100
AcDbEntity
  8
TEXT
100
AcDbText
 10
409.542856
 20
661.195334
 30
0.0
 40
4.0
  1
%%UMANIFOLD INSTALLATION
100
AcDbText
  0
LINE
  5
276
100
AcDbEntity
  8
M04
 48
0.7
100
AcDbLine
 10
493.333585
 20
610.038923
 30
0.0
 11
493.333585
 21
743.058841
 31
0.0
  0
LINE
  5
277
100
AcDbEntity
  8
M04
 48
0.7
100
AcDbLine
 10
505.333585
 20
610.038923
 30
0.0
 11
505.333585
 21
743.058841
 31
0.0
  0
LINE
  5
278
100
AcDbEntity
  8
M01
100
AcDbLine
 10
501.323585
 20
684.665219
 30
0.0
 11
501.323585
 21
609.564204
 31
0.0
  0
LINE
  5
279
100
AcDbEntity
  8
M01
100
AcDbLine
 10
497.333585
 20
684.665219
 30
0.0
 11
497.333585
 21
609.563328
 31
0.0
  0
LINE
  5
27A
100
AcDbEntity
  8
M01
100
AcDbLine
 10
501.583585
 20
714.221371
 30
0.0
 11
501.583585
 21
715.721371
 31
0.0
  0
LINE
  5
27B
100
AcDbEntity
  8
M01
100
AcDbLine
 10
502.333585
 20
712.922333
 30
0.0
 11
502.333585
 21
714.422333
 31
0.0
  0
LINE
  5
27C
100
AcDbEntity
  8
M01
100
AcDbLine
 10
496.333585
 20
712.814638
 30
0.0
 11
502.333585
 21
714.422333
 31
0.0
  0
LINE
  5
27D
100
AcDbEntity
  8
M01
100
AcDbLine
 10
501.374022
 20
712.665219
 30
0.0
 11
502.333585
 21
712.922333
 31
0.0
  0
LINE
  5
27E
100
AcDbEntity
  8
M01
100
AcDbLine
 10
496.333585
 20
712.665219
 30
0.0
 11
496.333585
 21
712.814638
 31
0.0
  0
LINE
  5
27F
100
AcDbEntity
  8
M01
100
AcDbLine
 10
497.083585
 20
737.0156
 30
0.0
 11
497.083585
 21
737.75288
 31
0.0
  0
LINE
  5
280
100
AcDbEntity
  8
M01
100
AcDbLine
 10
496.333585
 20
735.314638
 30
0.0
 11
496.333585
 21
736.814638
 31
0.0
  0
LINE
  5
281
100
AcDbEntity
  8
M01
100
AcDbLine
 10
497.083585
 20
734.0156
 30
0.0
 11
497.083585
 21
735.5156
 31
0.0
  0
LINE
  5
282
100
AcDbEntity
  8
M01
100
AcDbLine
 10
496.333585
 20
732.314638
 30
0.0
 11
496.333585
 21
733.814638
 31
0.0
  0
LINE
  5
283
100
AcDbEntity
  8
M01
100
AcDbLine
 10
497.083585
 20
731.0156
 30
0.0
 11
497.083585
 21
732.5156
 31
0.0
  0
LINE
  5
284
100
AcDbEntity
  8
M01
100
AcDbLine
 10
497.083585
 20
728.0156
 30
0.0
 11
497.083585
 21
729.5156
 31
0.0
  0
LINE
  5
285
100
AcDbEntity
  8
M01
100
AcDbLine
 10
496.333585
 20
729.314638
 30
0.0
 11
496.333585
 21
730.814638
 31
0.0
  0
LINE
  5
286
100
AcDbEntity
  8
M01
100
AcDbLine
 10
496.333585
 20
726.314638
 30
0.0
 11
496.333585
 21
727.814638
 31
0.0
  0
LINE
  5
287
100
AcDbEntity
  8
M01
100
AcDbLine
 10
497.083585
 20
725.0156
 30
0.0
 11
497.083585
 21
726.5156
 31
0.0
  0
LINE
  5
288
100
AcDbEntity
  8
M01
100
AcDbLine
 10
496.333585
 20
723.314638
 30
0.0
 11
496.333585
 21
724.814638
 31
0.0
  0
LINE
  5
289
100
AcDbEntity
  8
M01
100
AcDbLine
 10
497.083585
 20
722.0156
 30
0.0
 11
497.083585
 21
723.5156
 31
0.0
  0
LINE
  5
28A
100
AcDbEntity
  8
M01
100
AcDbLine
 10
496.333585
 20
720.314638
 30
0.0
 11
496.333585
 21
721.814638
 31
0.0
  0
LINE
  5
28B
100
AcDbEntity
  8
M01
100
AcDbLine
 10
497.083585
 20
719.0156
 30
0.0
 11
497.083585
 21
720.5156
 31
0.0
  0
LINE
  5
28C
100
AcDbEntity
  8
M01
100
AcDbLine
 10
496.333585
 20
717.314638
 30
0.0
 11
496.333585
 21
718.814638
 31
0.0
  0
LINE
  5
28D
100
AcDbEntity
  8
M01
100
AcDbLine
 10
497.083585
 20
716.0156
 30
0.0
 11
497.083585
 21
717.5156
 31
0.0
  0
LINE
  5
28E
100
AcDbEntity
  8
M01
100
AcDbLine
 10
501.583585
 20
717.221371
 30
0.0
 11
501.583585
 21
718.721371
 31
0.0
  0
LINE
  5
28F
100
AcDbEntity
  8
M01
100
AcDbLine
 10
501.583585
 20
720.221371
 30
0.0
 11
501.583585
 21
721.721371
 31
0.0
  0
LINE
  5
290
100
AcDbEntity
  8
M01
100
AcDbLine
 10
501.583585
 20
723.221371
 30
0.0
 11
501.583585
 21
724.721371
 31
0.0
  0
LINE
  5
291
100
AcDbEntity
  8
M01
100
AcDbLine
 10
501.583585
 20
726.221371
 30
0.0
 11
501.583585
 21
727.721371
 31
0.0
  0
LINE
  5
292
100
AcDbEntity
  8
M01
100
AcDbLine
 10
501.583585
 20
729.221371
 30
0.0
 11
501.583585
 21
730.721371
 31
0.0
  0
LINE
  5
293
100
AcDbEntity
  8
M01
100
AcDbLine
 10
501.583585
 20
732.221371
 30
0.0
 11
501.583585
 21
733.721371
 31
0.0
  0
LINE
  5
294
100
AcDbEntity
  8
M01
100
AcDbLine
 10
501.583585
 20
735.221371
 30
0.0
 11
501.583585
 21
736.721371
 31
0.0
  0
LINE
  5
295
100
AcDbEntity
  8
M01
100
AcDbLine
 10
501.583585
 20
738.221371
 30
0.0
 11
501.583585
 21
739.257873
 31
0.0
  0
LINE
  5
296
100
AcDbEntity
  8
M01
100
AcDbLine
 10
502.333585
 20
736.922333
 30
0.0
 11
502.333585
 21
738.422333
 31
0.0
  0
LINE
  5
297
100
AcDbEntity
  8
M01
100
AcDbLine
 10
502.333585
 20
733.922333
 30
0.0
 11
502.333585
 21
735.422333
 31
0.0
  0
LINE
  5
298
100
AcDbEntity
  8
M01
100
AcDbLine
 10
502.333585
 20
730.922333
 30
0.0
 11
502.333585
 21
732.422333
 31
0.0
  0
LINE
  5
299
100
AcDbEntity
  8
M01
100
AcDbLine
 10
502.333585
 20
727.922333
 30
0.0
 11
502.333585
 21
729.422333
 31
0.0
  0
LINE
  5
29A
100
AcDbEntity
  8
M01
100
AcDbLine
 10
502.333585
 20
724.922333
 30
0.0
 11
502.333585
 21
726.422333
 31
0.0
  0
LINE
  5
29B
100
AcDbEntity
  8
M01
100
AcDbLine
 10
502.333585
 20
721.922333
 30
0.0
 11
502.333585
 21
723.422333
 31
0.0
  0
LINE
  5
29C
100
AcDbEntity
  8
M01
100
AcDbLine
 10
502.333585
 20
718.922333
 30
0.0
 11
502.333585
 21
720.422333
 31
0.0
  0
LINE
  5
29D
100
AcDbEntity
  8
M01
100
AcDbLine
 10
501.583585
 20
712.665219
 30
0.0
 11
501.583585
 21
712.721371
 31
0.0
  0
LINE
  5
29E
100
AcDbEntity
  8
M01
100
AcDbLine
 10
502.333585
 20
715.922333
 30
0.0
 11
502.333585
 21
717.422333
 31
0.0
  0
LINE
  5
29F
100
AcDbEntity
  8
M01
100
AcDbLine
 10
496.333585
 20
736.814638
 30
0.0
 11
502.333585
 21
738.422333
 31
0.0
  0
LINE
  5
2A0
100
AcDbEntity
  8
M01
100
AcDbLine
 10
496.333585
 20
735.314638
 30
0.0
 11
502.333585
 21
736.922333
 31
0.0
  0
LINE
  5
2A1
100
AcDbEntity
  8
M01
100
AcDbLine
 10
496.333585
 20
733.814638
 30
0.0
 11
502.333585
 21
735.422333
 31
0.0
  0
LINE
  5
2A2
100
AcDbEntity
  8
M01
100
AcDbLine
 10
496.333585
 20
732.314638
 30
0.0
 11
502.333585
 21
733.922333
 31
0.0
  0
LINE
  5
2A3
100
AcDbEntity
  8
M01
100
AcDbLine
 10
496.333585
 20
730.814638
 30
0.0
 11
502.333585
 21
732.422333
 31
0.0
  0
LINE
  5
2A4
100
AcDbEntity
  8
M01
100
AcDbLine
 10
496.333585
 20
729.314638
 30
0.0
 11
502.333585
 21
730.922333
 31
0.0
  0
LINE
  5
2A5
100
AcDbEntity
  8
M01
100
AcDbLine
 10
496.333585
 20
727.814638
 30
0.0
 11
502.333585
 21
729.422333
 31
0.0
  0
LINE
  5
2A6
100
AcDbEntity
  8
M01
100
AcDbLine
 10
496.333585
 20
726.314638
 30
0.0
 11
502.333585
 21
727.922333
 31
0.0
  0
LINE
  5
2A7
100
AcDbEntity
  8
M01
100
AcDbLine
 10
496.333585
 20
724.814638
 30
0.0
 11
502.333585
 21
726.422333
 31
0.0
  0
LINE
  5
2A8
100
AcDbEntity
  8
M01
100
AcDbLine
 10
496.333585
 20
723.314638
 30
0.0
 11
502.333585
 21
724.922333
 31
0.0
  0
LINE
  5
2A9
100
AcDbEntity
  8
M01
100
AcDbLine
 10
496.333585
 20
721.814638
 30
0.0
 11
502.333585
 21
723.422333
 31
0.0
  0
LINE
  5
2AA
100
AcDbEntity
  8
M01
100
AcDbLine
 10
496.333585
 20
720.314638
 30
0.0
 11
502.333585
 21
721.922333
 31
0.0
  0
LINE
  5
2AB
100
AcDbEntity
  8
M01
100
AcDbLine
 10
496.333585
 20
718.814638
 30
0.0
 11
502.333585
 21
720.422333
 31
0.0
  0
LINE
  5
2AC
100
AcDbEntity
  8
M01
100
AcDbLine
 10
496.333585
 20
717.314638
 30
0.0
 11
502.333585
 21
718.922333
 31
0.0
  0
LINE
  5
2AD
100
AcDbEntity
  8
M01
100
AcDbLine
 10
496.333585
 20
715.814638
 30
0.0
 11
502.333585
 21
717.422333
 31
0.0
  0
LINE
  5
2AE
100
AcDbEntity
  8
M01
100
AcDbLine
 10
496.333585
 20
714.314638
 30
0.0
 11
502.333585
 21
715.922333
 31
0.0
  0
LINE
  5
2AF
100
AcDbEntity
  8
M01
100
AcDbLine
 10
497.083585
 20
713.0156
 30
0.0
 11
497.083585
 21
714.5156
 31
0.0
  0
LINE
  5
2B0
100
AcDbEntity
  8
M01
100
AcDbLine
 10
496.333585
 20
714.314638
 30
0.0
 11
496.333585
 21
715.814638
 31
0.0
  0
LINE
  5
2B1
100
AcDbEntity
  8
CENTRE
 48
0.7
100
AcDbLine
 10
499.333585
 20
546.129375
 30
0.0
 11
499.333585
 21
747.415513
 31
0.0
  0
LINE
  5
2B2
100
AcDbEntity
  8
M01
100
AcDbLine
 10
502.833585
 20
702.665219
 30
0.0
 11
495.833585
 21
702.665219
 31
0.0
  0
LINE
  5
2B3
100
AcDbEntity
  8
M01
100
AcDbLine
 10
496.333585
 20
694.589962
 30
0.0
 11
502.333585
 21
694.589962
 31
0.0
  0
LINE
  5
2B4
100
AcDbEntity
  8
M01
100
AcDbLine
 10
502.333585
 20
694.589962
 30
0.0
 11
502.333585
 21
702.665219
 31
0.0
  0
LINE
  5
2B5
100
AcDbEntity
  8
M01
100
AcDbLine
 10
496.333585
 20
694.589962
 30
0.0
 11
496.333585
 21
702.665219
 31
0.0
  0
LINE
  5
2B6
100
AcDbEntity
  8
M01
100
AcDbLine
 10
497.333585
 20
684.665219
 30
0.0
 11
496.333585
 21
694.589962
 31
0.0
  0
LINE
  5
2B7
100
AcDbEntity
  8
M01
100
AcDbLine
 10
495.833585
 20
702.665219
 30
0.0
 11
495.833585
 21
712.665219
 31
0.0
  0
LINE
  5
2B8
100
AcDbEntity
  8
M01
100
AcDbLine
 10
501.323585
 20
684.665219
 30
0.0
 11
502.333585
 21
694.589962
 31
0.0
  0
LINE
  5
2B9
100
AcDbEntity
  8
M01
100
AcDbLine
 10
502.833585
 20
702.665219
 30
0.0
 11
502.833585
 21
712.665219
 31
0.0
  0
LINE
  5
2BA
100
AcDbEntity
  8
M01
100
AcDbLine
 10
502.833585
 20
712.665219
 30
0.0
 11
495.833585
 21
712.665219
 31
0.0
  0
LINE
  5
2BB
100
AcDbEntity
  8
M01
100
AcDbLine
 10
501.323585
 20
684.665219
 30
0.0
 11
497.333585
 21
684.665219
 31
0.0
  0
LINE
  5
2BC
100
AcDbEntity
  8
CENTRE
100
AcDbLine
 10
540.005234
 20
586.801023
 30
0.0
 11
458.661937
 21
586.801023
 31
0.0
  0
TEXT
  5
2BD
100
AcDbEntity
  8
TEXT
100
AcDbText
 10
747.653225
 20
440.461765
 30
0.0
 40
3.0
  1
MATERIAL TO BE MOULDED AND THE PROCESS CONDITIONS - SEE CATALOGUE FOR DETAILS
100
AcDbText
  0
TEXT
  5
2BE
100
AcDbEntity
  8
TEXT
100
AcDbText
 10
748.047976
 20
445.772195
 30
0.0
 40
3.0
  1
AN ALLOWANCE FOR EXPANSION OF THE BUSHING MUST BE MADE DEPENDENT ON THE
100
AcDbText
  0
TEXT
  5
2BF
100
AcDbEntity
  8
TEXT
100
AcDbText
 10
767.621278
 20
454.212265
 30
0.0
 40
4.0
  1
%%UNOTE
100
AcDbText
  0
ENDSEC
  0
SECTION
  2
OBJECTS
  0
DICTIONARY
  5
1C
100
AcDbDictionary
  3
ACAD_GROUP
350
1A
  3
ACAD_MLINESTYLE
350
1B
  0
DICTIONARY
  5
3
100
AcDbDictionary
280
     1
  3
ACAD_SORTENTS
360
4
  0
DICTIONARY
  5
1A
102
{ACAD_REACTORS
330
1C
102
}
100
AcDbDictionary
  0
DICTIONARY
  5
1B
102
{ACAD_REACTORS
330
1C
102
}
100
AcDbDictionary
  3
STANDARD
350
1E
  0
SORTENTSTABLE
  5
4
102
{ACAD_REACTORS
330
3
102
}
100
AcDbSortentsTable
330
2
  0
MLINESTYLE
  5
1E
102
{ACAD_REACTORS
330
1B
102
}
100
AcDbMlineStyle
  2
STANDARD
 70
     0
  3

 62
   256
 51
90.0
 52
90.0
 71
     2
 49
0.5
 62
   256
  6
BYLAYER
 49
-0.5
 62
   256
  6
BYLAYER
  0
ENDSEC
  0
EOF
