  0
SECTION
  2
HEADER
  9
$ACADVER
  1
AC1014
  9
$ACADMAINTVER
 70
     9
  9
$DWGCODEPAGE
  3
ANSI_1252
  9
$INSBASE
 10
0.0
 20
0.0
 30
0.0
  9
$EXTMIN
 10
389.191565
 20
152.041051
 30
-0.222949
  9
$EXTMAX
 10
1002.840756
 20
747.720795
 30
0.0
  9
$LIMMIN
 10
0.0
 20
0.0
  9
$LIMMAX
 10
1189.0
 20
841.0
  9
$ORTHOMODE
 70
     1
  9
$REGENMODE
 70
     1
  9
$FILLMODE
 70
     1
  9
$QTEXTMODE
 70
     0
  9
$MIRRTEXT
 70
     0
  9
$DRAGMODE
 70
     2
  9
$LTSCALE
 40
8.0
  9
$OSMODE
 70
     0
  9
$ATTMODE
 70
     1
  9
$TEXTSIZE
 40
2.0
  9
$TRACEWID
 40
10.0
  9
$TEXTSTYLE
  7
STANDARD
  9
$CLAYER
  8
M04
  9
$CELTYPE
  6
BYLAYER
  9
$CECOLOR
 62
   256
  9
$CELTSCALE
 40
1.0
  9
$DELOBJ
 70
     1
  9
$DISPSILH
 70
     0
  9
$DIMSCALE
 40
1.0
  9
$DIMASZ
 40
3.0
  9
$DIMEXO
 40
1.0
  9
$DIMDLI
 40
10.0
  9
$DIMRND
 40
0.01
  9
$DIMDLE
 40
1.25
  9
$DIMEXE
 40
2.5
  9
$DIMTP
 40
0.05
  9
$DIMTM
 40
0.0
  9
$DIMTXT
 40
3.0
  9
$DIMCEN
 40
-1.7
  9
$DIMTSZ
 40
0.0
  9
$DIMTOL
 70
     0
  9
$DIMLIM
 70
     0
  9
$DIMTIH
 70
     0
  9
$DIMTOH
 70
     0
  9
$DIMSE1
 70
     0
  9
$DIMSE2
 70
     0
  9
$DIMTAD
 70
     3
  9
$DIMZIN
 70
     1
  9
$DIMBLK
  1

  9
$DIMASO
 70
     1
  9
$DIMSHO
 70
     0
  9
$DIMPOST
  1

  9
$DIMAPOST
  1

  9
$DIMALT
 70
     0
  9
$DIMALTD
 70
     2
  9
$DIMALTF
 40
0.039
  9
$DIMLFAC
 40
1.0
  9
$DIMTOFL
 70
     0
  9
$DIMTVP
 40
1.5
  9
$DIMTIX
 70
     0
  9
$DIMSOXD
 70
     0
  9
$DIMSAH
 70
     0
  9
$DIMBLK1
  1

  9
$DIMBLK2
  1

  9
$DIMSTYLE
  2
DIM1
  9
$DIMCLRD
 70
     4
  9
$DIMCLRE
 70
     4
  9
$DIMCLRT
 70
     2
  9
$DIMTFAC
 40
0.7
  9
$DIMGAP
 40
1.5
  9
$DIMJUST
 70
     0
  9
$DIMSD1
 70
     0
  9
$DIMSD2
 70
     0
  9
$DIMTOLJ
 70
     1
  9
$DIMTZIN
 70
     1
  9
$DIMALTZ
 70
     1
  9
$DIMALTTZ
 70
     1
  9
$DIMFIT
 70
     0
  9
$DIMUPT
 70
     0
  9
$DIMUNIT
 70
     2
  9
$DIMDEC
 70
     2
  9
$DIMTDEC
 70
     2
  9
$DIMALTU
 70
     2
  9
$DIMALTTD
 70
     2
  9
$DIMTXSTY
  7
STANDARD
  9
$DIMAUNIT
 70
     0
  9
$LUNITS
 70
     2
  9
$LUPREC
 70
     3
  9
$SKETCHINC
 40
1.0
  9
$FILLETRAD
 40
3.0
  9
$AUNITS
 70
     0
  9
$AUPREC
 70
     3
  9
$MENU
  1
ACAD
  9
$ELEVATION
 40
0.0
  9
$PELEVATION
 40
0.0
  9
$THICKNESS
 40
0.0
  9
$LIMCHECK
 70
     0
  9
$BLIPMODE
 70
     1
  9
$CHAMFERA
 40
0.5
  9
$CHAMFERB
 40
0.5
  9
$CHAMFERC
 40
0.0
  9
$CHAMFERD
 40
0.0
  9
$SKPOLY
 70
     1
  9
$TDCREATE
 40
2449993.725698611
  9
$TDUPDATE
 40
2452116.488227326
  9
$TDINDWG
 40
1.4554296759
  9
$TDUSRTIMER
 40
1.4554296759
  9
$USRTIMER
 70
     1
  9
$ANGBASE
 50
0.0
  9
$ANGDIR
 70
     0
  9
$PDMODE
 70
     3
  9
$PDSIZE
 40
0.0
  9
$PLINEWID
 40
0.0
  9
$COORDS
 70
     2
  9
$SPLFRAME
 70
     0
  9
$SPLINETYPE
 70
     6
  9
$SPLINESEGS
 70
     6
  9
$ATTDIA
 70
     1
  9
$ATTREQ
 70
     1
  9
$HANDLING
 70
     1
  9
$HANDSEED
  5
2B5
  9
$SURFTAB1
 70
    12
  9
$SURFTAB2
 70
    12
  9
$SURFTYPE
 70
     6
  9
$SURFU
 70
    12
  9
$SURFV
 70
    12
  9
$UCSNAME
  2

  9
$UCSORG
 10
0.0
 20
0.0
 30
0.0
  9
$UCSXDIR
 10
1.0
 20
0.0
 30
0.0
  9
$UCSYDIR
 10
0.0
 20
1.0
 30
0.0
  9
$PUCSNAME
  2

  9
$PUCSORG
 10
0.0
 20
0.0
 30
0.0
  9
$PUCSXDIR
 10
1.0
 20
0.0
 30
0.0
  9
$PUCSYDIR
 10
0.0
 20
1.0
 30
0.0
  9
$USERI1
 70
     0
  9
$USERI2
 70
     0
  9
$USERI3
 70
     0
  9
$USERI4
 70
     0
  9
$USERI5
 70
     0
  9
$USERR1
 40
0.0
  9
$USERR2
 40
0.0
  9
$USERR3
 40
0.0
  9
$USERR4
 40
0.0
  9
$USERR5
 40
0.0
  9
$WORLDVIEW
 70
     0
  9
$SHADEDGE
 70
     3
  9
$SHADEDIF
 70
    70
  9
$TILEMODE
 70
     1
  9
$MAXACTVP
 70
    16
  9
$PINSBASE
 10
0.0
 20
0.0
 30
0.0
  9
$PLIMCHECK
 70
     0
  9
$PEXTMIN
 10
1.000000E+20
 20
1.000000E+20
 30
1.000000E+20
  9
$PEXTMAX
 10
-1.000000E+20
 20
-1.000000E+20
 30
-1.000000E+20
  9
$PLIMMIN
 10
0.0
 20
0.0
  9
$PLIMMAX
 10
12.0
 20
9.0
  9
$UNITMODE
 70
     0
  9
$VISRETAIN
 70
     0
  9
$PLINEGEN
 70
     0
  9
$PSLTSCALE
 70
     0
  9
$TREEDEPTH
 70
  3020
  9
$PICKSTYLE
 70
     1
  9
$CMLSTYLE
  2
STANDARD
  9
$CMLJUST
 70
     0
  9
$CMLSCALE
 40
1.0
  9
$PROXYGRAPHICS
 70
     1
  9
$MEASUREMENT
 70
     0
  0
ENDSEC
  0
SECTION
  2
CLASSES
  0
CLASS
  1
DICTIONARYVAR
  2
AcDbDictionaryVar
  3
"AutoCAD"
 90
        0
280
     0
281
     0
  0
CLASS
  1
LWPOLYLINE
  2
AcDbPolyline
  3
"AutoCAD"
 90
        0
280
     0
281
     1
  0
CLASS
  1
HATCH
  2
AcDbHatch
  3
"ACAD_SEDONA"
 90
        0
280
     0
281
     1
  0
CLASS
  1
SORTENTSTABLE
  2
AcDbSortentsTable
  3
"AutoCAD"
 90
        0
280
     0
281
     0
  0
CLASS
  1
WIPEOUTVARIABLES
  2
AcDbWipeoutVariables
  3
WIPEOUT
 90
        0
280
     0
281
     0
  0
CLASS
  1
WIPEOUT
  2
AcDbWipeout
  3
WIPEOUT
 90
      127
280
     0
281
     1
  0
ENDSEC
  0
SECTION
  2
TABLES
  0
TABLE
  2
VPORT
  5
14
100
AcDbSymbolTable
 70
     2
  0
VPORT
  5
2B4
100
AcDbSymbolTableRecord
100
AcDbViewportTableRecord
  2
*ACTIVE
 70
     0
 10
0.0
 20
0.0
 11
1.0
 21
1.0
 12
598.366931
 22
480.086062
 13
0.0
 23
0.0
 14
10.0
 24
10.0
 15
0.0
 25
0.0
 16
0.0
 26
0.0
 36
1.0
 17
16.313321
 27
12.779115
 37
0.222949
 40
544.248992
 41
1.470516
 42
50.0
 43
0.0
 44
0.0
 50
0.0
 51
0.0
 71
     0
 72
  2000
 73
     1
 74
     2
 75
     0
 76
     0
 77
     0
 78
     1
  0
ENDTAB
  0
TABLE
  2
LTYPE
  5
F
100
AcDbSymbolTable
 70
     3
  0
LTYPE
  5
10
100
AcDbSymbolTableRecord
100
AcDbLinetypeTableRecord
  2
BYBLOCK
 70
     0
  3

 72
    65
 73
     0
 40
0.0
  0
LTYPE
  5
11
100
AcDbSymbolTableRecord
100
AcDbLinetypeTableRecord
  2
BYLAYER
 70
     0
  3

 72
    65
 73
     0
 40
0.0
  0
LTYPE
  5
7
100
AcDbSymbolTableRecord
100
AcDbLinetypeTableRecord
  2
CONTINUOUS
 70
     0
  3
Solid line
 72
    65
 73
     0
 40
0.0
  0
LTYPE
  5
78
100
AcDbSymbolTableRecord
100
AcDbLinetypeTableRecord
  2
CENTER
 70
     0
  3
Center ____ _ ____ _ ____ _ ____ _ ____ _ ____
 72
    65
 73
     4
 40
2.0
 49
1.25
 74
     0
 49
-0.25
 74
     0
 49
0.25
 74
     0
 49
-0.25
 74
     0
  0
LTYPE
  5
2E
100
AcDbSymbolTableRecord
100
AcDbLinetypeTableRecord
  2
HIDDEN
 70
     0
  3
Hidden __ __ __ __ __ __ __ __ __ __ __ __ __ _
 72
    65
 73
     2
 40
0.375
 49
0.25
 74
     0
 49
-0.125
 74
     0
  0
ENDTAB
  0
TABLE
  2
LAYER
  5
C
100
AcDbSymbolTable
 70
     8
  0
LAYER
  5
6
100
AcDbSymbolTableRecord
100
AcDbLayerTableRecord
  2
0
 70
     0
 62
     7
  6
CONTINUOUS
  0
LAYER
  5
77
100
AcDbSymbolTableRecord
100
AcDbLayerTableRecord
  2
CENTRE
 70
     0
 62
     3
  6
CENTER
  0
LAYER
  5
29
100
AcDbSymbolTableRecord
100
AcDbLayerTableRecord
  2
M01
 70
     0
 62
     1
  6
CONTINUOUS
  0
LAYER
  5
2D
100
AcDbSymbolTableRecord
100
AcDbLayerTableRecord
  2
M03
 70
     0
 62
     2
  6
HIDDEN
  0
LAYER
  5
1D
100
AcDbSymbolTableRecord
100
AcDbLayerTableRecord
  2
M04
 70
     0
 62
     7
  6
CONTINUOUS
  0
LAYER
  5
8A
100
AcDbSymbolTableRecord
100
AcDbLayerTableRecord
  2
DIMS
 70
     0
 62
     4
  6
CONTINUOUS
  0
LAYER
  5
27
100
AcDbSymbolTableRecord
100
AcDbLayerTableRecord
  2
TEXT
 70
     0
 62
     2
  6
CONTINUOUS
  0
LAYER
  5
9D
100
AcDbSymbolTableRecord
100
AcDbLayerTableRecord
  2
DEFPOINTS
 70
     0
 62
     7
  6
CONTINUOUS
  0
ENDTAB
  0
TABLE
  2
STYLE
  5
D
100
AcDbSymbolTable
 70
     1
  0
STYLE
  5
E
100
AcDbSymbolTableRecord
100
AcDbTextStyleTableRecord
  2
STANDARD
 70
     0
 40
0.0
 41
1.0
 50
0.0
 71
     0
 42
2.0
  3
SIMPLEX
  4

  0
ENDTAB
  0
TABLE
  2
VIEW
  5
12
100
AcDbSymbolTable
 70
     0
  0
ENDTAB
  0
TABLE
  2
UCS
  5
13
100
AcDbSymbolTable
 70
     0
  0
ENDTAB
  0
TABLE
  2
APPID
  5
16
100
AcDbSymbolTable
 70
     1
  0
APPID
  5
17
100
AcDbSymbolTableRecord
100
AcDbRegAppTableRecord
  2
ACAD
 70
     0
  0
ENDTAB
  0
TABLE
  2
DIMSTYLE
  5
18
100
AcDbSymbolTable
 70
     1
  0
DIMSTYLE
105
1F
102
{ACAD_REACTORS
330
203
330
1F5
330
1E8
330
1DB
330
16D
330
152
330
BD
330
AF
330
A2
330
94
102
}
100
AcDbSymbolTableRecord
100
AcDbDimStyleTableRecord
  2
DIM1
 70
     0
  3

  4

  5

  6

  7

 40
1.0
 41
3.0
 42
1.0
 43
10.0
 44
2.5
 45
0.01
 46
1.25
 47
0.05
 48
0.0
140
3.0
141
-1.7
142
0.0
143
0.039
144
0.2
145
1.5
146
0.7
147
1.5
 71
     0
 72
     0
 73
     0
 74
     0
 75
     0
 76
     0
 77
     3
 78
     1
170
     0
171
     2
172
     0
173
     0
174
     0
175
     0
176
     4
177
     4
178
     2
270
     2
271
     2
272
     2
273
     2
274
     2
340
E
275
     0
280
     0
281
     0
282
     0
283
     1
284
     1
285
     1
286
     1
287
     0
288
     0
  0
ENDTAB
  0
TABLE
  2
BLOCK_RECORD
  5
1
100
AcDbSymbolTable
 70
    10
  0
BLOCK_RECORD
  5
2
102
{ACAD_XDICTIONARY
360
3
102
}
100
AcDbSymbolTableRecord
100
AcDbBlockTableRecord
  2
*MODEL_SPACE
  0
BLOCK_RECORD
  5
9
100
AcDbSymbolTableRecord
100
AcDbBlockTableRecord
  2
*PAPER_SPACE
  0
BLOCK_RECORD
  5
204
100
AcDbSymbolTableRecord
100
AcDbBlockTableRecord
  2
*D0
  0
BLOCK_RECORD
  5
1F6
100
AcDbSymbolTableRecord
100
AcDbBlockTableRecord
  2
*D1
  0
BLOCK_RECORD
  5
1E9
100
AcDbSymbolTableRecord
100
AcDbBlockTableRecord
  2
*D2
  0
BLOCK_RECORD
  5
1DC
100
AcDbSymbolTableRecord
100
AcDbBlockTableRecord
  2
*D3
  0
BLOCK_RECORD
  5
16E
100
AcDbSymbolTableRecord
100
AcDbBlockTableRecord
  2
*D4
  0
BLOCK_RECORD
  5
153
100
AcDbSymbolTableRecord
100
AcDbBlockTableRecord
  2
*D5
  0
BLOCK_RECORD
  5
BE
100
AcDbSymbolTableRecord
100
AcDbBlockTableRecord
  2
*D6
  0
BLOCK_RECORD
  5
B0
100
AcDbSymbolTableRecord
100
AcDbBlockTableRecord
  2
*D7
  0
BLOCK_RECORD
  5
A3
100
AcDbSymbolTableRecord
100
AcDbBlockTableRecord
  2
*D8
  0
BLOCK_RECORD
  5
95
100
AcDbSymbolTableRecord
100
AcDbBlockTableRecord
  2
*D9
  0
ENDTAB
  0
ENDSEC
  0
SECTION
  2
BLOCKS
  0
BLOCK
  5
5
100
AcDbEntity
  8
0
100
AcDbBlockBegin
  2
*MODEL_SPACE
 70
     0
 10
0.0
 20
0.0
 30
0.0
  3
*MODEL_SPACE
  1

  0
ENDBLK
  5
8
100
AcDbEntity
  8
0
100
AcDbBlockEnd
  0
BLOCK
  5
A
100
AcDbEntity
 67
     1
  8
0
100
AcDbBlockBegin
  2
*PAPER_SPACE
 70
     0
 10
0.0
 20
0.0
 30
0.0
  3
*PAPER_SPACE
  1

  0
ENDBLK
  5
B
100
AcDbEntity
 67
     1
  8
0
100
AcDbBlockEnd
  0
BLOCK
  5
20E
100
AcDbEntity
  8
0
100
AcDbBlockBegin
  2
*D0
 70
     1
 10
0.0
 20
0.0
 30
0.0
  3
*D0
  1

  0
LINE
  5
205
100
AcDbEntity
  8
0
  6
BYBLOCK
 62
     4
100
AcDbLine
 10
805.20663
 20
683.13571
 30
0.0
 11
841.156567
 21
683.13571
 31
0.0
  0
LINE
  5
206
100
AcDbEntity
  8
0
  6
BYBLOCK
 62
     4
100
AcDbLine
 10
809.55663
 20
638.68571
 30
0.0
 11
841.156567
 21
638.68571
 31
0.0
  0
LINE
  5
207
100
AcDbEntity
  8
0
  6
BYBLOCK
 62
     4
100
AcDbLine
 10
838.656567
 20
680.13571
 30
0.0
 11
838.656567
 21
641.68571
 31
0.0
  0
SOLID
  5
208
100
AcDbEntity
  8
0
  6
BYBLOCK
 62
     4
100
AcDbTrace
 10
838.156567
 20
680.13571
 30
0.0
 11
839.156567
 21
680.13571
 31
0.0
 12
838.656567
 22
683.13571
 32
0.0
 13
838.656567
 23
683.13571
 33
0.0
  0
SOLID
  5
209
100
AcDbEntity
  8
0
  6
BYBLOCK
 62
     4
100
AcDbTrace
 10
838.156567
 20
641.68571
 30
0.0
 11
839.156567
 21
641.68571
 31
0.0
 12
838.656567
 22
638.68571
 32
0.0
 13
838.656567
 23
638.68571
 33
0.0
  0
MTEXT
  5
20A
100
AcDbEntity
  8
0
  6
BYBLOCK
 62
     2
100
AcDbMText
 10
835.656567
 20
657.35165
 30
0.0
 40
3.0
 41
0.0
 71
     5
 72
     1
  1
\A1;\U+220544.45
 11
0.0
 21
1.0
 31
0.0
  0
POINT
  5
20B
100
AcDbEntity
  8
DEFPOINTS
  6
BYBLOCK
 62
     0
100
AcDbPoint
 10
804.20663
 20
683.13571
 30
0.0
  0
POINT
  5
20C
100
AcDbEntity
  8
DEFPOINTS
  6
BYBLOCK
 62
     0
100
AcDbPoint
 10
808.55663
 20
638.68571
 30
0.0
  0
POINT
  5
20D
100
AcDbEntity
  8
DEFPOINTS
  6
BYBLOCK
 62
     0
100
AcDbPoint
 10
838.656567
 20
638.68571
 30
0.0
  0
ENDBLK
  5
20F
100
AcDbEntity
  8
0
100
AcDbBlockEnd
  0
BLOCK
  5
201
100
AcDbEntity
  8
0
100
AcDbBlockBegin
  2
*D1
 70
     1
 10
0.0
 20
0.0
 30
0.0
  3
*D1
  1

  0
LINE
  5
1F7
100
AcDbEntity
  8
0
  6
BYBLOCK
 62
     4
100
AcDbLine
 10
691.020126
 20
546.07104
 30
0.0
 11
691.020126
 21
531.575748
 31
0.0
  0
LINE
  5
1F8
100
AcDbEntity
  8
0
  6
BYBLOCK
 62
     4
100
AcDbLine
 10
676.020126
 20
563.881305
 30
0.0
 11
676.020126
 21
531.575748
 31
0.0
  0
LINE
  5
1F9
100
AcDbEntity
  8
0
  6
BYBLOCK
 62
     4
100
AcDbLine
 10
694.020126
 20
534.075748
 30
0.0
 11
697.020126
 21
534.075748
 31
0.0
  0
LINE
  5
1FA
100
AcDbEntity
  8
0
  6
BYBLOCK
 62
     4
100
AcDbLine
 10
673.020126
 20
534.075748
 30
0.0
 11
645.893192
 21
534.075748
 31
0.0
  0
SOLID
  5
1FB
100
AcDbEntity
  8
0
  6
BYBLOCK
 62
     4
100
AcDbTrace
 10
694.020126
 20
534.575748
 30
0.0
 11
694.020126
 21
533.575748
 31
0.0
 12
691.020126
 22
534.075748
 32
0.0
 13
691.020126
 23
534.075748
 33
0.0
  0
SOLID
  5
1FC
100
AcDbEntity
  8
0
  6
BYBLOCK
 62
     4
100
AcDbTrace
 10
673.020126
 20
534.575748
 30
0.0
 11
673.020126
 21
533.575748
 31
0.0
 12
676.020126
 22
534.075748
 32
0.0
 13
676.020126
 23
534.075748
 33
0.0
  0
MTEXT
  5
1FD
100
AcDbEntity
  8
0
  6
BYBLOCK
 62
     2
100
AcDbMText
 10
653.107477
 20
537.075748
 30
0.0
 40
3.0
 41
0.0
 71
     5
 72
     1
  1
\A1;15.00
  0
POINT
  5
1FE
100
AcDbEntity
  8
DEFPOINTS
  6
BYBLOCK
 62
     0
100
AcDbPoint
 10
691.020126
 20
547.07104
 30
0.0
  0
POINT
  5
1FF
100
AcDbEntity
  8
DEFPOINTS
  6
BYBLOCK
 62
     0
100
AcDbPoint
 10
676.020126
 20
564.881305
 30
0.0
  0
POINT
  5
200
100
AcDbEntity
  8
DEFPOINTS
  6
BYBLOCK
 62
     0
100
AcDbPoint
 10
676.020126
 20
534.075748
 30
0.0
  0
ENDBLK
  5
202
100
AcDbEntity
  8
0
100
AcDbBlockEnd
  0
BLOCK
  5
1F3
100
AcDbEntity
  8
0
100
AcDbBlockBegin
  2
*D2
 70
     1
 10
0.0
 20
0.0
 30
0.0
  3
*D2
  1

  0
LINE
  5
1EA
100
AcDbEntity
  8
0
  6
BYBLOCK
 62
     4
100
AcDbLine
 10
754.520126
 20
546.07104
 30
0.0
 11
754.520126
 21
521.310746
 31
0.0
  0
LINE
  5
1EB
100
AcDbEntity
  8
0
  6
BYBLOCK
 62
     4
100
AcDbLine
 10
611.645126
 20
573.906305
 30
0.0
 11
611.645126
 21
521.310746
 31
0.0
  0
LINE
  5
1EC
100
AcDbEntity
  8
0
  6
BYBLOCK
 62
     4
100
AcDbLine
 10
751.520126
 20
523.810746
 30
0.0
 11
614.645126
 21
523.810746
 31
0.0
  0
SOLID
  5
1ED
100
AcDbEntity
  8
0
  6
BYBLOCK
 62
     4
100
AcDbTrace
 10
751.520126
 20
524.310746
 30
0.0
 11
751.520126
 21
523.310746
 31
0.0
 12
754.520126
 22
523.810746
 32
0.0
 13
754.520126
 23
523.810746
 33
0.0
  0
SOLID
  5
1EE
100
AcDbEntity
  8
0
  6
BYBLOCK
 62
     4
100
AcDbTrace
 10
614.645126
 20
524.310746
 30
0.0
 11
614.645126
 21
523.310746
 31
0.0
 12
611.645126
 22
523.810746
 32
0.0
 13
611.645126
 23
523.810746
 33
0.0
  0
MTEXT
  5
1EF
100
AcDbEntity
  8
0
  6
BYBLOCK
 62
     2
100
AcDbMText
 10
683.082626
 20
527.59646
 30
0.0
 40
3.0
 41
0.0
 71
     5
 72
     1
  1
\A1;L1=142.88 (5.625")
  0
POINT
  5
1F0
100
AcDbEntity
  8
DEFPOINTS
  6
BYBLOCK
 62
     0
100
AcDbPoint
 10
754.520126
 20
547.07104
 30
0.0
  0
POINT
  5
1F1
100
AcDbEntity
  8
DEFPOINTS
  6
BYBLOCK
 62
     0
100
AcDbPoint
 10
611.645126
 20
574.906305
 30
0.0
  0
POINT
  5
1F2
100
AcDbEntity
  8
DEFPOINTS
  6
BYBLOCK
 62
     0
100
AcDbPoint
 10
611.645126
 20
523.810746
 30
0.0
  0
ENDBLK
  5
1F4
100
AcDbEntity
  8
0
100
AcDbBlockEnd
  0
BLOCK
  5
1E6
100
AcDbEntity
  8
0
100
AcDbBlockBegin
  2
*D3
 70
     1
 10
0.0
 20
0.0
 30
0.0
  3
*D3
  1

  0
LINE
  5
1DD
100
AcDbEntity
  8
0
  6
BYBLOCK
 62
     4
100
AcDbLine
 10
754.520126
 20
546.07104
 30
0.0
 11
754.520126
 21
511.310746
 31
0.0
  0
LINE
  5
1DE
100
AcDbEntity
  8
0
  6
BYBLOCK
 62
     4
100
AcDbLine
 10
602.120126
 20
584.106305
 30
0.0
 11
602.120126
 21
511.310746
 31
0.0
  0
LINE
  5
1DF
100
AcDbEntity
  8
0
  6
BYBLOCK
 62
     4
100
AcDbLine
 10
751.520126
 20
513.810746
 30
0.0
 11
605.120126
 21
513.810746
 31
0.0
  0
SOLID
  5
1E0
100
AcDbEntity
  8
0
  6
BYBLOCK
 62
     4
100
AcDbTrace
 10
751.520126
 20
514.310746
 30
0.0
 11
751.520126
 21
513.310746
 31
0.0
 12
754.520126
 22
513.810746
 32
0.0
 13
754.520126
 23
513.810746
 33
0.0
  0
SOLID
  5
1E1
100
AcDbEntity
  8
0
  6
BYBLOCK
 62
     4
100
AcDbTrace
 10
605.120126
 20
514.310746
 30
0.0
 11
605.120126
 21
513.310746
 31
0.0
 12
602.120126
 22
513.810746
 32
0.0
 13
602.120126
 23
513.810746
 33
0.0
  0
MTEXT
  5
1E2
100
AcDbEntity
  8
0
  6
BYBLOCK
 62
     2
100
AcDbMText
 10
678.320126
 20
516.810746
 30
0.0
 40
3.0
 41
0.0
 71
     5
 72
     1
  1
\A1;152.40 REF.
  0
POINT
  5
1E3
100
AcDbEntity
  8
DEFPOINTS
  6
BYBLOCK
 62
     0
100
AcDbPoint
 10
754.520126
 20
547.07104
 30
0.0
  0
POINT
  5
1E4
100
AcDbEntity
  8
DEFPOINTS
  6
BYBLOCK
 62
     0
100
AcDbPoint
 10
602.120126
 20
585.106305
 30
0.0
  0
POINT
  5
1E5
100
AcDbEntity
  8
DEFPOINTS
  6
BYBLOCK
 62
     0
100
AcDbPoint
 10
602.120126
 20
513.810746
 30
0.0
  0
ENDBLK
  5
1E7
100
AcDbEntity
  8
0
100
AcDbBlockEnd
  0
BLOCK
  5
179
100
AcDbEntity
  8
0
100
AcDbBlockBegin
  2
*D4
 70
     1
 10
0.0
 20
0.0
 30
0.0
  3
*D4
  1

  0
LINE
  5
16F
100
AcDbEntity
  8
0
  6
BYBLOCK
 62
     4
100
AcDbLine
 10
496.357401
 20
563.606613
 30
0.0
 11
496.357401
 21
546.036368
 31
0.0
  0
LINE
  5
170
100
AcDbEntity
  8
0
  6
BYBLOCK
 62
     4
100
AcDbLine
 10
502.357401
 20
563.606613
 30
0.0
 11
502.357401
 21
546.036368
 31
0.0
  0
LINE
  5
171
100
AcDbEntity
  8
0
  6
BYBLOCK
 62
     4
100
AcDbLine
 10
493.357401
 20
548.536368
 30
0.0
 11
490.357401
 21
548.536368
 31
0.0
  0
LINE
  5
172
100
AcDbEntity
  8
0
  6
BYBLOCK
 62
     4
100
AcDbLine
 10
505.357401
 20
548.536368
 30
0.0
 11
520.500258
 21
548.536368
 31
0.0
  0
SOLID
  5
173
100
AcDbEntity
  8
0
  6
BYBLOCK
 62
     4
100
AcDbTrace
 10
493.357401
 20
549.036368
 30
0.0
 11
493.357401
 21
548.036368
 31
0.0
 12
496.357401
 22
548.536368
 32
0.0
 13
496.357401
 23
548.536368
 33
0.0
  0
SOLID
  5
174
100
AcDbEntity
  8
0
  6
BYBLOCK
 62
     4
100
AcDbTrace
 10
505.357401
 20
549.036368
 30
0.0
 11
505.357401
 21
548.036368
 31
0.0
 12
502.357401
 22
548.536368
 32
0.0
 13
502.357401
 23
548.536368
 33
0.0
  0
MTEXT
  5
175
100
AcDbEntity
  8
0
  6
BYBLOCK
 62
     2
100
AcDbMText
 10
514.42883
 20
551.536368
 30
0.0
 40
3.0
 41
0.0
 71
     5
 72
     1
  1
\A1;6.00
  0
POINT
  5
176
100
AcDbEntity
  8
DEFPOINTS
  6
BYBLOCK
 62
     0
100
AcDbPoint
 10
496.357401
 20
564.606613
 30
0.0
  0
POINT
  5
177
100
AcDbEntity
  8
DEFPOINTS
  6
BYBLOCK
 62
     0
100
AcDbPoint
 10
502.357401
 20
564.606613
 30
0.0
  0
POINT
  5
178
100
AcDbEntity
  8
DEFPOINTS
  6
BYBLOCK
 62
     0
100
AcDbPoint
 10
502.357401
 20
548.536368
 30
0.0
  0
ENDBLK
  5
17A
100
AcDbEntity
  8
0
100
AcDbBlockEnd
  0
BLOCK
  5
15D
100
AcDbEntity
  8
0
100
AcDbBlockBegin
  2
*D5
 70
     1
 10
0.0
 20
0.0
 30
0.0
  3
*D5
  1

  0
LINE
  5
154
100
AcDbEntity
  8
0
  6
BYBLOCK
 62
     4
100
AcDbLine
 10
587.674268
 20
660.91071
 30
0.0
 11
577.184191
 21
660.91071
 31
0.0
  0
LINE
  5
155
100
AcDbEntity
  8
0
  6
BYBLOCK
 62
     4
100
AcDbLine
 10
616.482038
 20
635.91071
 30
0.0
 11
577.184191
 21
635.91071
 31
0.0
  0
LINE
  5
156
100
AcDbEntity
  8
0
  6
BYBLOCK
 62
     4
100
AcDbLine
 10
579.684191
 20
657.91071
 30
0.0
 11
579.684191
 21
638.91071
 31
0.0
  0
SOLID
  5
157
100
AcDbEntity
  8
0
  6
BYBLOCK
 62
     4
100
AcDbTrace
 10
579.184191
 20
657.91071
 30
0.0
 11
580.184191
 21
657.91071
 31
0.0
 12
579.684191
 22
660.91071
 32
0.0
 13
579.684191
 23
660.91071
 33
0.0
  0
SOLID
  5
158
100
AcDbEntity
  8
0
  6
BYBLOCK
 62
     4
100
AcDbTrace
 10
579.184191
 20
638.91071
 30
0.0
 11
580.184191
 21
638.91071
 31
0.0
 12
579.684191
 22
635.91071
 32
0.0
 13
579.684191
 23
635.91071
 33
0.0
  0
MTEXT
  5
159
100
AcDbEntity
  8
0
  6
BYBLOCK
 62
     2
100
AcDbMText
 10
576.684191
 20
648.41071
 30
0.0
 40
3.0
 41
0.0
 71
     5
 72
     1
  1
\A1;25.00
 11
0.0
 21
1.0
 31
0.0
  0
POINT
  5
15A
100
AcDbEntity
  8
DEFPOINTS
  6
BYBLOCK
 62
     0
100
AcDbPoint
 10
588.674268
 20
660.91071
 30
0.0
  0
POINT
  5
15B
100
AcDbEntity
  8
DEFPOINTS
  6
BYBLOCK
 62
     0
100
AcDbPoint
 10
617.482038
 20
635.91071
 30
0.0
  0
POINT
  5
15C
100
AcDbEntity
  8
DEFPOINTS
  6
BYBLOCK
 62
     0
100
AcDbPoint
 10
579.684191
 20
635.91071
 30
0.0
  0
ENDBLK
  5
15E
100
AcDbEntity
  8
0
100
AcDbBlockEnd
  0
BLOCK
  5
C8
100
AcDbEntity
  8
0
100
AcDbBlockBegin
  2
*D6
 70
     1
 10
0.0
 20
0.0
 30
0.0
  3
*D6
  1

  0
LINE
  5
BF
100
AcDbEntity
  8
0
  6
BYBLOCK
 62
     4
100
AcDbLine
 10
654.420126
 20
340.206678
 30
0.0
 11
690.370063
 21
340.206678
 31
0.0
  0
LINE
  5
C0
100
AcDbEntity
  8
0
  6
BYBLOCK
 62
     4
100
AcDbLine
 10
656.620126
 20
295.756678
 30
0.0
 11
690.370063
 21
295.756678
 31
0.0
  0
LINE
  5
C1
100
AcDbEntity
  8
0
  6
BYBLOCK
 62
     4
100
AcDbLine
 10
687.870063
 20
337.206678
 30
0.0
 11
687.870063
 21
298.756678
 31
0.0
  0
SOLID
  5
C2
100
AcDbEntity
  8
0
  6
BYBLOCK
 62
     4
100
AcDbTrace
 10
687.370063
 20
337.206678
 30
0.0
 11
688.370063
 21
337.206678
 31
0.0
 12
687.870063
 22
340.206678
 32
0.0
 13
687.870063
 23
340.206678
 33
0.0
  0
SOLID
  5
C3
100
AcDbEntity
  8
0
  6
BYBLOCK
 62
     4
100
AcDbTrace
 10
687.370063
 20
298.756678
 30
0.0
 11
688.370063
 21
298.756678
 31
0.0
 12
687.870063
 22
295.756678
 32
0.0
 13
687.870063
 23
295.756678
 33
0.0
  0
MTEXT
  5
C4
100
AcDbEntity
  8
0
  6
BYBLOCK
 62
     2
100
AcDbMText
 10
684.870063
 20
314.422618
 30
0.0
 40
3.0
 41
0.0
 71
     5
 72
     1
  1
\A1;\U+220544.45
 11
0.0
 21
1.0
 31
0.0
  0
POINT
  5
C5
100
AcDbEntity
  8
DEFPOINTS
  6
BYBLOCK
 62
     0
100
AcDbPoint
 10
653.420126
 20
340.206678
 30
0.0
  0
POINT
  5
C6
100
AcDbEntity
  8
DEFPOINTS
  6
BYBLOCK
 62
     0
100
AcDbPoint
 10
655.620126
 20
295.756678
 30
0.0
  0
POINT
  5
C7
100
AcDbEntity
  8
DEFPOINTS
  6
BYBLOCK
 62
     0
100
AcDbPoint
 10
687.870063
 20
295.756678
 30
0.0
  0
ENDBLK
  5
C9
100
AcDbEntity
  8
0
100
AcDbBlockEnd
  0
BLOCK
  5
BB
100
AcDbEntity
  8
0
100
AcDbBlockBegin
  2
*D7
 70
     1
 10
0.0
 20
0.0
 30
0.0
  3
*D7
  1

  0
LINE
  5
B1
100
AcDbEntity
  8
0
  6
BYBLOCK
 62
     4
100
AcDbLine
 10
691.020126
 20
276.946414
 30
0.0
 11
691.020126
 21
262.451122
 31
0.0
  0
LINE
  5
B2
100
AcDbEntity
  8
0
  6
BYBLOCK
 62
     4
100
AcDbLine
 10
676.020126
 20
294.756678
 30
0.0
 11
676.020126
 21
262.451122
 31
0.0
  0
LINE
  5
B3
100
AcDbEntity
  8
0
  6
BYBLOCK
 62
     4
100
AcDbLine
 10
694.020126
 20
264.951122
 30
0.0
 11
697.020126
 21
264.951122
 31
0.0
  0
LINE
  5
B4
100
AcDbEntity
  8
0
  6
BYBLOCK
 62
     4
100
AcDbLine
 10
673.020126
 20
264.951122
 30
0.0
 11
645.893192
 21
264.951122
 31
0.0
  0
SOLID
  5
B5
100
AcDbEntity
  8
0
  6
BYBLOCK
 62
     4
100
AcDbTrace
 10
694.020126
 20
265.451122
 30
0.0
 11
694.020126
 21
264.451122
 31
0.0
 12
691.020126
 22
264.951122
 32
0.0
 13
691.020126
 23
264.951122
 33
0.0
  0
SOLID
  5
B6
100
AcDbEntity
  8
0
  6
BYBLOCK
 62
     4
100
AcDbTrace
 10
673.020126
 20
265.451122
 30
0.0
 11
673.020126
 21
264.451122
 31
0.0
 12
676.020126
 22
264.951122
 32
0.0
 13
676.020126
 23
264.951122
 33
0.0
  0
MTEXT
  5
B7
100
AcDbEntity
  8
0
  6
BYBLOCK
 62
     2
100
AcDbMText
 10
653.107477
 20
267.951122
 30
0.0
 40
3.0
 41
0.0
 71
     5
 72
     1
  1
\A1;15.00
  0
POINT
  5
B8
100
AcDbEntity
  8
DEFPOINTS
  6
BYBLOCK
 62
     0
100
AcDbPoint
 10
691.020126
 20
277.946414
 30
0.0
  0
POINT
  5
B9
100
AcDbEntity
  8
DEFPOINTS
  6
BYBLOCK
 62
     0
100
AcDbPoint
 10
676.020126
 20
295.756678
 30
0.0
  0
POINT
  5
BA
100
AcDbEntity
  8
DEFPOINTS
  6
BYBLOCK
 62
     0
100
AcDbPoint
 10
676.020126
 20
264.951122
 30
0.0
  0
ENDBLK
  5
BC
100
AcDbEntity
  8
0
100
AcDbBlockEnd
  0
BLOCK
  5
AD
100
AcDbEntity
  8
0
100
AcDbBlockBegin
  2
*D8
 70
     1
 10
0.0
 20
0.0
 30
0.0
  3
*D8
  1

  0
LINE
  5
A4
100
AcDbEntity
  8
0
  6
BYBLOCK
 62
     4
100
AcDbLine
 10
754.520126
 20
276.946414
 30
0.0
 11
754.520126
 21
252.18612
 31
0.0
  0
LINE
  5
A5
100
AcDbEntity
  8
0
  6
BYBLOCK
 62
     4
100
AcDbLine
 10
611.645126
 20
304.781678
 30
0.0
 11
611.645126
 21
252.18612
 31
0.0
  0
LINE
  5
A6
100
AcDbEntity
  8
0
  6
BYBLOCK
 62
     4
100
AcDbLine
 10
751.520126
 20
254.68612
 30
0.0
 11
614.645126
 21
254.68612
 31
0.0
  0
SOLID
  5
A7
100
AcDbEntity
  8
0
  6
BYBLOCK
 62
     4
100
AcDbTrace
 10
751.520126
 20
255.18612
 30
0.0
 11
751.520126
 21
254.18612
 31
0.0
 12
754.520126
 22
254.68612
 32
0.0
 13
754.520126
 23
254.68612
 33
0.0
  0
SOLID
  5
A8
100
AcDbEntity
  8
0
  6
BYBLOCK
 62
     4
100
AcDbTrace
 10
614.645126
 20
255.18612
 30
0.0
 11
614.645126
 21
254.18612
 31
0.0
 12
611.645126
 22
254.68612
 32
0.0
 13
611.645126
 23
254.68612
 33
0.0
  0
MTEXT
  5
A9
100
AcDbEntity
  8
0
  6
BYBLOCK
 62
     2
100
AcDbMText
 10
683.082626
 20
258.471834
 30
0.0
 40
3.0
 41
0.0
 71
     5
 72
     1
  1
\A1;L1=142.88 (5.625")
  0
POINT
  5
AA
100
AcDbEntity
  8
DEFPOINTS
  6
BYBLOCK
 62
     0
100
AcDbPoint
 10
754.520126
 20
277.946414
 30
0.0
  0
POINT
  5
AB
100
AcDbEntity
  8
DEFPOINTS
  6
BYBLOCK
 62
     0
100
AcDbPoint
 10
611.645126
 20
305.781678
 30
0.0
  0
POINT
  5
AC
100
AcDbEntity
  8
DEFPOINTS
  6
BYBLOCK
 62
     0
100
AcDbPoint
 10
611.645126
 20
254.68612
 30
0.0
  0
ENDBLK
  5
AE
100
AcDbEntity
  8
0
100
AcDbBlockEnd
  0
BLOCK
  5
A0
100
AcDbEntity
  8
0
100
AcDbBlockBegin
  2
*D9
 70
     1
 10
0.0
 20
0.0
 30
0.0
  3
*D9
  1

  0
LINE
  5
96
100
AcDbEntity
  8
0
  6
BYBLOCK
 62
     4
100
AcDbLine
 10
754.520126
 20
276.946414
 30
0.0
 11
754.520126
 21
242.18612
 31
0.0
  0
LINE
  5
97
100
AcDbEntity
  8
0
  6
BYBLOCK
 62
     4
100
AcDbLine
 10
602.120126
 20
314.981678
 30
0.0
 11
602.120126
 21
242.18612
 31
0.0
  0
LINE
  5
98
100
AcDbEntity
  8
0
  6
BYBLOCK
 62
     4
100
AcDbLine
 10
751.520126
 20
244.68612
 30
0.0
 11
605.120126
 21
244.68612
 31
0.0
  0
SOLID
  5
99
100
AcDbEntity
  8
0
  6
BYBLOCK
 62
     4
100
AcDbTrace
 10
751.520126
 20
245.18612
 30
0.0
 11
751.520126
 21
244.18612
 31
0.0
 12
754.520126
 22
244.68612
 32
0.0
 13
754.520126
 23
244.68612
 33
0.0
  0
SOLID
  5
9A
100
AcDbEntity
  8
0
  6
BYBLOCK
 62
     4
100
AcDbTrace
 10
605.120126
 20
245.18612
 30
0.0
 11
605.120126
 21
244.18612
 31
0.0
 12
602.120126
 22
244.68612
 32
0.0
 13
602.120126
 23
244.68612
 33
0.0
  0
MTEXT
  5
9B
100
AcDbEntity
  8
0
  6
BYBLOCK
 62
     2
100
AcDbMText
 10
678.320126
 20
247.68612
 30
0.0
 40
3.0
 41
0.0
 71
     5
 72
     1
  1
\A1;152.40 REF.
  0
POINT
  5
9C
100
AcDbEntity
  8
DEFPOINTS
  6
BYBLOCK
 62
     0
100
AcDbPoint
 10
754.520126
 20
277.946414
 30
0.0
  0
POINT
  5
9E
100
AcDbEntity
  8
DEFPOINTS
  6
BYBLOCK
 62
     0
100
AcDbPoint
 10
602.120126
 20
315.981678
 30
0.0
  0
POINT
  5
9F
100
AcDbEntity
  8
DEFPOINTS
  6
BYBLOCK
 62
     0
100
AcDbPoint
 10
602.120126
 20
244.68612
 30
0.0
  0
ENDBLK
  5
A1
100
AcDbEntity
  8
0
100
AcDbBlockEnd
  0
ENDSEC
  0
SECTION
  2
ENTITIES
  0
LINE
  5
20
100
AcDbEntity
  8
M04
100
AcDbLine
 10
746.728491
 20
294.481678
 30
0.0
 11
746.728491
 21
298.256678
 31
0.0
  0
LINE
  5
21
100
AcDbEntity
  8
M04
 48
0.7
100
AcDbLine
 10
746.728491
 20
294.481678
 30
0.0
 11
754.520126
 21
294.481678
 31
0.0
  0
LINE
  5
22
100
AcDbEntity
  8
M04
100
AcDbLine
 10
744.520126
 20
295.756678
 30
0.0
 11
744.520126
 21
297.026849
 31
0.0
  0
LINE
  5
23
100
AcDbEntity
  8
M04
100
AcDbLine
 10
744.520126
 20
295.756678
 30
0.0
 11
746.728491
 21
294.481678
 31
0.0
  0
LINE
  5
24
100
AcDbEntity
  8
M04
100
AcDbLine
 10
757.520126
 20
298.981678
 30
0.0
 11
764.591194
 21
291.910611
 31
0.0
  0
LINE
  5
25
100
AcDbEntity
  8
M04
 48
0.7
100
AcDbLine
 10
754.520126
 20
298.981678
 30
0.0
 11
757.520126
 21
298.981678
 31
0.0
  0
TEXT
  5
26
100
AcDbEntity
  8
TEXT
100
AcDbText
 10
389.791565
 20
370.413563
 30
0.0
 40
4.0
  1
%%USINGLE BUSH INSTALLATION
100
AcDbText
  0
LINE
  5
28
100
AcDbEntity
  8
M01
100
AcDbLine
 10
754.020126
 20
580.65023
 30
0.0
 11
754.020126
 21
565.381305
 31
0.0
  0
LINE
  5
2A
100
AcDbEntity
  8
M04
100
AcDbLine
 10
754.520126
 20
339.206678
 30
0.0
 11
754.520126
 21
358.016943
 31
0.0
  0
LINE
  5
2B
100
AcDbEntity
  8
M01
100
AcDbLine
 10
754.020126
 20
311.525604
 30
0.0
 11
754.020126
 21
296.256678
 31
0.0
  0
ARC
  5
2C
100
AcDbEntity
  8
M03
100
AcDbCircle
 10
767.520126
 20
317.981678
 30
0.0
 40
15.5
100
AcDbArc
 50
147.004115
 51
212.995885
  0
LINE
  5
2F
100
AcDbEntity
  8
M04
100
AcDbLine
 10
757.520126
 20
336.981678
 30
0.0
 11
764.591194
 21
344.052746
 31
0.0
  0
LINE
  5
30
100
AcDbEntity
  8
M04
 48
0.7
100
AcDbLine
 10
754.520126
 20
336.981678
 30
0.0
 11
757.520126
 21
336.981678
 31
0.0
  0
LINE
  5
31
100
AcDbEntity
  8
M04
100
AcDbLine
 10
757.520126
 20
336.981678
 30
0.0
 11
757.520126
 21
298.981678
 31
0.0
  0
ARC
  5
32
100
AcDbEntity
  8
M04
100
AcDbCircle
 10
499.333585
 20
288.981678
 30
0.0
 40
1.5
100
AcDbArc
 50
180.0
 51
0.0
  0
LINE
  5
33
100
AcDbEntity
  8
M04
100
AcDbLine
 10
497.833585
 20
290.231678
 30
0.0
 11
497.833585
 21
288.981678
 31
0.0
  0
LINE
  5
34
100
AcDbEntity
  8
M04
100
AcDbLine
 10
500.833585
 20
290.231678
 30
0.0
 11
500.833585
 21
288.981678
 31
0.0
  0
LINE
  5
35
100
AcDbEntity
  8
M01
100
AcDbLine
 10
500.833585
 20
290.231678
 30
0.0
 11
500.400573
 21
289.481678
 31
0.0
  0
LINE
  5
36
100
AcDbEntity
  8
M01
100
AcDbLine
 10
497.833585
 20
290.231678
 30
0.0
 11
498.266598
 21
289.481678
 31
0.0
  0
LINE
  5
37
100
AcDbEntity
  8
M01
100
AcDbLine
 10
497.833585
 20
290.231678
 30
0.0
 11
500.833585
 21
290.231678
 31
0.0
  0
LINE
  5
38
100
AcDbEntity
  8
M01
100
AcDbLine
 10
498.266598
 20
289.481678
 30
0.0
 11
500.400573
 21
289.481678
 31
0.0
  0
LINE
  5
39
100
AcDbEntity
  8
M01
100
AcDbLine
 10
497.833585
 20
295.807355
 30
0.0
 11
497.833585
 21
290.231678
 31
0.0
  0
LINE
  5
3A
100
AcDbEntity
  8
M01
100
AcDbLine
 10
500.833585
 20
295.807355
 30
0.0
 11
500.833585
 21
290.231678
 31
0.0
  0
LINE
  5
3B
100
AcDbEntity
  8
M04
 48
0.7
100
AcDbLine
 10
493.333585
 20
336.009435
 30
0.0
 11
493.333585
 21
474.239496
 31
0.0
  0
LINE
  5
3C
100
AcDbEntity
  8
M04
 48
0.7
100
AcDbLine
 10
505.333585
 20
336.009435
 30
0.0
 11
505.333585
 21
474.239496
 31
0.0
  0
LINE
  5
3D
100
AcDbEntity
  8
M01
100
AcDbLine
 10
501.323585
 20
415.845874
 30
0.0
 11
501.323585
 21
335.619774
 31
0.0
  0
LINE
  5
3E
100
AcDbEntity
  8
M01
100
AcDbLine
 10
497.333585
 20
415.845874
 30
0.0
 11
497.333585
 21
335.618642
 31
0.0
  0
LINE
  5
3F
100
AcDbEntity
  8
M01
100
AcDbLine
 10
501.583585
 20
445.402026
 30
0.0
 11
501.583585
 21
446.902026
 31
0.0
  0
LINE
  5
40
100
AcDbEntity
  8
M01
100
AcDbLine
 10
502.333585
 20
444.102988
 30
0.0
 11
502.333585
 21
445.602988
 31
0.0
  0
LINE
  5
41
100
AcDbEntity
  8
M01
100
AcDbLine
 10
496.333585
 20
443.995293
 30
0.0
 11
502.333585
 21
445.602988
 31
0.0
  0
LINE
  5
42
100
AcDbEntity
  8
M01
100
AcDbLine
 10
501.374022
 20
443.845874
 30
0.0
 11
502.333585
 21
444.102988
 31
0.0
  0
LINE
  5
43
100
AcDbEntity
  8
M01
100
AcDbLine
 10
496.333585
 20
443.845874
 30
0.0
 11
496.333585
 21
443.995293
 31
0.0
  0
LINE
  5
44
100
AcDbEntity
  8
M01
100
AcDbLine
 10
497.083585
 20
468.196255
 30
0.0
 11
497.083585
 21
468.933536
 31
0.0
  0
LINE
  5
45
100
AcDbEntity
  8
M01
100
AcDbLine
 10
496.333585
 20
466.495293
 30
0.0
 11
496.333585
 21
467.995293
 31
0.0
  0
LINE
  5
46
100
AcDbEntity
  8
M01
100
AcDbLine
 10
497.083585
 20
465.196255
 30
0.0
 11
497.083585
 21
466.696255
 31
0.0
  0
LINE
  5
47
100
AcDbEntity
  8
M01
100
AcDbLine
 10
496.333585
 20
463.495293
 30
0.0
 11
496.333585
 21
464.995293
 31
0.0
  0
LINE
  5
48
100
AcDbEntity
  8
M01
100
AcDbLine
 10
497.083585
 20
462.196255
 30
0.0
 11
497.083585
 21
463.696255
 31
0.0
  0
LINE
  5
49
100
AcDbEntity
  8
M01
100
AcDbLine
 10
497.083585
 20
459.196255
 30
0.0
 11
497.083585
 21
460.696255
 31
0.0
  0
LINE
  5
4A
100
AcDbEntity
  8
M01
100
AcDbLine
 10
496.333585
 20
460.495293
 30
0.0
 11
496.333585
 21
461.995293
 31
0.0
  0
LINE
  5
4B
100
AcDbEntity
  8
M01
100
AcDbLine
 10
496.333585
 20
457.495293
 30
0.0
 11
496.333585
 21
458.995293
 31
0.0
  0
LINE
  5
4C
100
AcDbEntity
  8
M01
100
AcDbLine
 10
497.083585
 20
456.196255
 30
0.0
 11
497.083585
 21
457.696255
 31
0.0
  0
LINE
  5
4D
100
AcDbEntity
  8
M01
100
AcDbLine
 10
496.333585
 20
454.495293
 30
0.0
 11
496.333585
 21
455.995293
 31
0.0
  0
LINE
  5
4E
100
AcDbEntity
  8
M01
100
AcDbLine
 10
497.083585
 20
453.196255
 30
0.0
 11
497.083585
 21
454.696255
 31
0.0
  0
LINE
  5
4F
100
AcDbEntity
  8
M01
100
AcDbLine
 10
496.333585
 20
451.495293
 30
0.0
 11
496.333585
 21
452.995293
 31
0.0
  0
LINE
  5
50
100
AcDbEntity
  8
M01
100
AcDbLine
 10
497.083585
 20
450.196255
 30
0.0
 11
497.083585
 21
451.696255
 31
0.0
  0
LINE
  5
51
100
AcDbEntity
  8
M01
100
AcDbLine
 10
496.333585
 20
448.495293
 30
0.0
 11
496.333585
 21
449.995293
 31
0.0
  0
LINE
  5
52
100
AcDbEntity
  8
M01
100
AcDbLine
 10
497.083585
 20
447.196255
 30
0.0
 11
497.083585
 21
448.696255
 31
0.0
  0
LINE
  5
53
100
AcDbEntity
  8
M01
100
AcDbLine
 10
501.583585
 20
448.402026
 30
0.0
 11
501.583585
 21
449.902026
 31
0.0
  0
LINE
  5
54
100
AcDbEntity
  8
M01
100
AcDbLine
 10
501.583585
 20
451.402026
 30
0.0
 11
501.583585
 21
452.902026
 31
0.0
  0
LINE
  5
55
100
AcDbEntity
  8
M01
100
AcDbLine
 10
501.583585
 20
454.402026
 30
0.0
 11
501.583585
 21
455.902026
 31
0.0
  0
LINE
  5
56
100
AcDbEntity
  8
M01
100
AcDbLine
 10
501.583585
 20
457.402026
 30
0.0
 11
501.583585
 21
458.902026
 31
0.0
  0
LINE
  5
57
100
AcDbEntity
  8
M01
100
AcDbLine
 10
501.583585
 20
460.402026
 30
0.0
 11
501.583585
 21
461.902026
 31
0.0
  0
LINE
  5
58
100
AcDbEntity
  8
M01
100
AcDbLine
 10
501.583585
 20
463.402026
 30
0.0
 11
501.583585
 21
464.902026
 31
0.0
  0
LINE
  5
59
100
AcDbEntity
  8
M01
100
AcDbLine
 10
501.583585
 20
466.402026
 30
0.0
 11
501.583585
 21
467.902026
 31
0.0
  0
LINE
  5
5A
100
AcDbEntity
  8
M01
100
AcDbLine
 10
501.583585
 20
469.402026
 30
0.0
 11
501.583585
 21
470.438528
 31
0.0
  0
LINE
  5
5B
100
AcDbEntity
  8
M01
100
AcDbLine
 10
502.333585
 20
468.102988
 30
0.0
 11
502.333585
 21
469.602988
 31
0.0
  0
LINE
  5
5C
100
AcDbEntity
  8
M01
100
AcDbLine
 10
502.333585
 20
465.102988
 30
0.0
 11
502.333585
 21
466.602988
 31
0.0
  0
LINE
  5
5D
100
AcDbEntity
  8
M01
100
AcDbLine
 10
502.333585
 20
462.102988
 30
0.0
 11
502.333585
 21
463.602988
 31
0.0
  0
LINE
  5
5E
100
AcDbEntity
  8
M01
100
AcDbLine
 10
502.333585
 20
459.102988
 30
0.0
 11
502.333585
 21
460.602988
 31
0.0
  0
LINE
  5
5F
100
AcDbEntity
  8
M01
100
AcDbLine
 10
502.333585
 20
456.102988
 30
0.0
 11
502.333585
 21
457.602988
 31
0.0
  0
LINE
  5
60
100
AcDbEntity
  8
M01
100
AcDbLine
 10
502.333585
 20
453.102988
 30
0.0
 11
502.333585
 21
454.602988
 31
0.0
  0
LINE
  5
61
100
AcDbEntity
  8
M01
100
AcDbLine
 10
502.333585
 20
450.102988
 30
0.0
 11
502.333585
 21
451.602988
 31
0.0
  0
LINE
  5
62
100
AcDbEntity
  8
M01
100
AcDbLine
 10
501.583585
 20
443.845874
 30
0.0
 11
501.583585
 21
443.902026
 31
0.0
  0
LINE
  5
63
100
AcDbEntity
  8
M01
100
AcDbLine
 10
502.333585
 20
447.102988
 30
0.0
 11
502.333585
 21
448.602988
 31
0.0
  0
LINE
  5
64
100
AcDbEntity
  8
M01
100
AcDbLine
 10
496.333585
 20
467.995293
 30
0.0
 11
502.333585
 21
469.602988
 31
0.0
  0
LINE
  5
65
100
AcDbEntity
  8
M01
100
AcDbLine
 10
496.333585
 20
466.495293
 30
0.0
 11
502.333585
 21
468.102988
 31
0.0
  0
LINE
  5
66
100
AcDbEntity
  8
M01
100
AcDbLine
 10
496.333585
 20
464.995293
 30
0.0
 11
502.333585
 21
466.602988
 31
0.0
  0
LINE
  5
67
100
AcDbEntity
  8
M01
100
AcDbLine
 10
496.333585
 20
463.495293
 30
0.0
 11
502.333585
 21
465.102988
 31
0.0
  0
LINE
  5
68
100
AcDbEntity
  8
M01
100
AcDbLine
 10
496.333585
 20
461.995293
 30
0.0
 11
502.333585
 21
463.602988
 31
0.0
  0
LINE
  5
69
100
AcDbEntity
  8
M01
100
AcDbLine
 10
496.333585
 20
460.495293
 30
0.0
 11
502.333585
 21
462.102988
 31
0.0
  0
LINE
  5
6A
100
AcDbEntity
  8
M01
100
AcDbLine
 10
496.333585
 20
458.995293
 30
0.0
 11
502.333585
 21
460.602988
 31
0.0
  0
LINE
  5
6B
100
AcDbEntity
  8
M01
100
AcDbLine
 10
496.333585
 20
457.495293
 30
0.0
 11
502.333585
 21
459.102988
 31
0.0
  0
LINE
  5
6C
100
AcDbEntity
  8
M01
100
AcDbLine
 10
496.333585
 20
455.995293
 30
0.0
 11
502.333585
 21
457.602988
 31
0.0
  0
LINE
  5
6D
100
AcDbEntity
  8
M01
100
AcDbLine
 10
496.333585
 20
454.495293
 30
0.0
 11
502.333585
 21
456.102988
 31
0.0
  0
LINE
  5
6E
100
AcDbEntity
  8
M01
100
AcDbLine
 10
496.333585
 20
452.995293
 30
0.0
 11
502.333585
 21
454.602988
 31
0.0
  0
LINE
  5
6F
100
AcDbEntity
  8
M01
100
AcDbLine
 10
496.333585
 20
451.495293
 30
0.0
 11
502.333585
 21
453.102988
 31
0.0
  0
LINE
  5
70
100
AcDbEntity
  8
M01
100
AcDbLine
 10
496.333585
 20
449.995293
 30
0.0
 11
502.333585
 21
451.602988
 31
0.0
  0
LINE
  5
71
100
AcDbEntity
  8
M01
100
AcDbLine
 10
496.333585
 20
448.495293
 30
0.0
 11
502.333585
 21
450.102988
 31
0.0
  0
LINE
  5
72
100
AcDbEntity
  8
M01
100
AcDbLine
 10
496.333585
 20
446.995293
 30
0.0
 11
502.333585
 21
448.602988
 31
0.0
  0
LINE
  5
73
100
AcDbEntity
  8
M01
100
AcDbLine
 10
496.333585
 20
445.495293
 30
0.0
 11
502.333585
 21
447.102988
 31
0.0
  0
LINE
  5
74
100
AcDbEntity
  8
M01
100
AcDbLine
 10
497.083585
 20
444.196255
 30
0.0
 11
497.083585
 21
445.696255
 31
0.0
  0
LINE
  5
75
100
AcDbEntity
  8
M01
100
AcDbLine
 10
496.333585
 20
445.495293
 30
0.0
 11
496.333585
 21
446.995293
 31
0.0
  0
LINE
  5
76
100
AcDbEntity
  8
CENTRE
 48
0.7
100
AcDbLine
 10
499.333585
 20
283.368581
 30
0.0
 11
499.333585
 21
478.596168
 31
0.0
  0
LINE
  5
79
100
AcDbEntity
  8
M01
100
AcDbLine
 10
502.833585
 20
433.845874
 30
0.0
 11
495.833585
 21
433.845874
 31
0.0
  0
LINE
  5
7A
100
AcDbEntity
  8
M01
100
AcDbLine
 10
496.333585
 20
425.770617
 30
0.0
 11
502.333585
 21
425.770617
 31
0.0
  0
LINE
  5
7B
100
AcDbEntity
  8
M01
100
AcDbLine
 10
502.333585
 20
425.770617
 30
0.0
 11
502.333585
 21
433.845874
 31
0.0
  0
LINE
  5
7C
100
AcDbEntity
  8
M01
100
AcDbLine
 10
496.333585
 20
425.770617
 30
0.0
 11
496.333585
 21
433.845874
 31
0.0
  0
LINE
  5
7D
100
AcDbEntity
  8
M01
100
AcDbLine
 10
497.333585
 20
415.845874
 30
0.0
 11
496.333585
 21
425.770617
 31
0.0
  0
LINE
  5
7E
100
AcDbEntity
  8
M01
100
AcDbLine
 10
495.833585
 20
433.845874
 30
0.0
 11
495.833585
 21
443.845874
 31
0.0
  0
LINE
  5
7F
100
AcDbEntity
  8
M01
100
AcDbLine
 10
501.323585
 20
415.845874
 30
0.0
 11
502.333585
 21
425.770617
 31
0.0
  0
LINE
  5
80
100
AcDbEntity
  8
M01
100
AcDbLine
 10
502.833585
 20
433.845874
 30
0.0
 11
502.833585
 21
443.845874
 31
0.0
  0
LINE
  5
81
100
AcDbEntity
  8
M01
100
AcDbLine
 10
502.833585
 20
443.845874
 30
0.0
 11
495.833585
 21
443.845874
 31
0.0
  0
LINE
  5
82
100
AcDbEntity
  8
M01
100
AcDbLine
 10
501.323585
 20
415.845874
 30
0.0
 11
497.333585
 21
415.845874
 31
0.0
  0
CIRCLE
  5
83
100
AcDbEntity
  8
M03
100
AcDbCircle
 10
499.333585
 20
317.981678
 30
0.0
 40
4.75
  0
CIRCLE
  5
84
100
AcDbEntity
  8
M04
100
AcDbCircle
 10
499.333585
 20
317.981678
 30
0.0
 40
19.0
  0
ARC
  5
85
100
AcDbEntity
  8
M01
100
AcDbCircle
 10
499.333585
 20
317.981678
 30
0.0
 40
22.225
100
AcDbArc
 50
95.16296
 51
84.862924
  0
CIRCLE
  5
86
100
AcDbEntity
  8
M01
100
AcDbCircle
 10
499.333585
 20
317.981678
 30
0.0
 40
17.75
  0
CIRCLE
  5
87
100
AcDbEntity
  8
M01
100
AcDbCircle
 10
499.333585
 20
317.981678
 30
0.0
 40
12.7
  0
LINE
  5
88
100
AcDbEntity
  8
CENTRE
100
AcDbLine
 10
533.946683
 20
317.981678
 30
0.0
 11
464.720488
 21
317.981678
 31
0.0
  0
TEXT
  5
89
100
AcDbEntity
  8
DIMS
 62
     2
100
AcDbText
 10
774.948228
 20
324.288752
 30
0.0
 40
2.0
  1
-0
 50
90.0
100
AcDbText
  0
TEXT
  5
8B
100
AcDbEntity
  8
DIMS
 62
     2
100
AcDbText
 10
771.863308
 20
324.288752
 30
0.0
 40
2.0
  1
+0.02
 50
90.0
100
AcDbText
  0
MTEXT
  5
8C
100
AcDbEntity
  8
0
  6
BYBLOCK
 62
     2
100
AcDbMText
 10
564.339216
 20
335.991484
 30
0.0
 40
3.0
 41
0.0
 71
     5
 72
     1
  1
GATE INSERTION POINT
  0
SOLID
  5
8D
100
AcDbEntity
  8
0
  6
BYBLOCK
 62
     4
100
AcDbTrace
 10
600.953947
 20
322.099023
 30
0.0
 11
600.030227
 21
321.715955
 31
0.0
 12
601.641291
 22
319.136329
 32
0.0
 13
601.641291
 23
319.136329
 33
0.0
  0
LINE
  5
8E
100
AcDbEntity
  8
0
  6
BYBLOCK
 62
     4
100
AcDbLine
 10
594.727679
 20
335.991484
 30
0.0
 11
591.727679
 21
335.991484
 31
0.0
  0
LINE
  5
8F
100
AcDbEntity
  8
0
  6
BYBLOCK
 62
     4
100
AcDbLine
 10
600.492087
 20
321.907489
 30
0.0
 11
594.727679
 21
335.991484
 31
0.0
  0
CIRCLE
  5
90
100
AcDbEntity
  8
M04
100
AcDbCircle
 10
602.120126
 20
317.981678
 30
0.0
 40
1.25
  0
TEXT
  5
91
100
AcDbEntity
  8
DIMS
 62
     2
100
AcDbText
 10
725.266632
 20
267.556153
 30
0.0
 40
2.0
  1
-0
100
AcDbText
  0
TEXT
  5
92
100
AcDbEntity
  8
DIMS
 62
     2
100
AcDbText
 10
725.266632
 20
270.641074
 30
0.0
 40
2.0
  1
+0.02
100
AcDbText
  0
TEXT
  5
93
100
AcDbEntity
  8
TEXT
100
AcDbText
 10
617.507852
 20
328.998328
 30
0.0
 40
2.0
  1
PLV375-05625
 41
0.9
100
AcDbText
  0
DIMENSION
  5
94
100
AcDbEntity
  8
DIMS
100
AcDbDimension
  2
*D9
 10
602.120126
 20
244.68612
 30
0.0
 11
678.320126
 21
247.68612
 31
0.0
  1
<> REF.
  3
DIM1
100
AcDbAlignedDimension
 13
754.520126
 23
277.946414
 33
0.0
 14
602.120126
 24
315.981678
 34
0.0
100
AcDbRotatedDimension
1001
ACAD
1000
DSTYLE
1002
{
1070
   144
1040
1.0
1002
}
  0
DIMENSION
  5
A2
100
AcDbEntity
  8
DIMS
100
AcDbDimension
  2
*D8
 10
611.645126
 20
254.68612
 30
0.0
 11
683.082626
 21
258.471834
 31
0.0
  1
L1=<> (5.625")
  3
DIM1
100
AcDbAlignedDimension
 13
754.520126
 23
277.946414
 33
0.0
 14
611.645126
 24
305.781678
 34
0.0
100
AcDbRotatedDimension
1001
ACAD
1000
DSTYLE
1002
{
1070
   144
1040
1.0
1002
}
  0
DIMENSION
  5
AF
100
AcDbEntity
  8
DIMS
100
AcDbDimension
  2
*D7
 10
739.520126
 20
264.951122
 30
0.0
 11
716.607477
 21
264.951122
 31
0.0
 12
63.5
 22
0.0
 32
0.0
 70
   128
  3
DIM1
100
AcDbAlignedDimension
 13
754.520126
 23
277.946414
 33
0.0
 14
739.520126
 24
295.756678
 34
0.0
100
AcDbRotatedDimension
1001
ACAD
1000
DSTYLE
1002
{
1070
   144
1040
1.0
1002
}
  0
DIMENSION
  5
BD
100
AcDbEntity
  8
DIMS
100
AcDbDimension
  2
*D6
 10
776.770063
 20
295.756678
 30
0.0
 11
776.770063
 21
314.422618
 31
0.0
 12
88.9
 22
0.0
 32
0.0
 70
   128
  1
%%c<>
  3
DIM1
100
AcDbAlignedDimension
 13
742.320126
 23
340.206678
 33
0.0
 14
744.520126
 24
295.756678
 34
0.0
 50
90.0
100
AcDbRotatedDimension
1001
ACAD
1000
DSTYLE
1002
{
1070
   144
1040
1.0
1002
}
  0
LINE
  5
CA
100
AcDbEntity
  8
M01
100
AcDbLine
 10
743.510126
 20
415.845874
 30
0.0
 11
743.510126
 21
339.519632
 31
0.0
  0
LINE
  5
CB
100
AcDbEntity
  8
M01
100
AcDbLine
 10
739.520126
 20
415.845874
 30
0.0
 11
739.520126
 21
339.206678
 31
0.0
  0
LINE
  5
CC
100
AcDbEntity
  8
M01
100
AcDbLine
 10
743.770126
 20
445.402026
 30
0.0
 11
743.770126
 21
446.902026
 31
0.0
  0
LINE
  5
CD
100
AcDbEntity
  8
M01
100
AcDbLine
 10
744.520126
 20
444.102988
 30
0.0
 11
744.520126
 21
445.602988
 31
0.0
  0
LINE
  5
CE
100
AcDbEntity
  8
M01
100
AcDbLine
 10
738.520126
 20
443.995293
 30
0.0
 11
744.520126
 21
445.602988
 31
0.0
  0
LINE
  5
CF
100
AcDbEntity
  8
M01
100
AcDbLine
 10
743.560562
 20
443.845874
 30
0.0
 11
744.520126
 21
444.102988
 31
0.0
  0
LINE
  5
D0
100
AcDbEntity
  8
M01
100
AcDbLine
 10
738.520126
 20
443.845874
 30
0.0
 11
738.520126
 21
443.995293
 31
0.0
  0
LINE
  5
D1
100
AcDbEntity
  8
M01
100
AcDbLine
 10
739.270126
 20
468.196255
 30
0.0
 11
739.270126
 21
468.933536
 31
0.0
  0
LINE
  5
D2
100
AcDbEntity
  8
M01
100
AcDbLine
 10
738.520126
 20
466.495293
 30
0.0
 11
738.520126
 21
467.995293
 31
0.0
  0
LINE
  5
D3
100
AcDbEntity
  8
M01
100
AcDbLine
 10
739.270126
 20
465.196255
 30
0.0
 11
739.270126
 21
466.696255
 31
0.0
  0
LINE
  5
D4
100
AcDbEntity
  8
M01
100
AcDbLine
 10
738.520126
 20
463.495293
 30
0.0
 11
738.520126
 21
464.995293
 31
0.0
  0
LINE
  5
D5
100
AcDbEntity
  8
M01
100
AcDbLine
 10
739.270126
 20
462.196255
 30
0.0
 11
739.270126
 21
463.696255
 31
0.0
  0
LINE
  5
D6
100
AcDbEntity
  8
M01
100
AcDbLine
 10
739.270126
 20
459.196255
 30
0.0
 11
739.270126
 21
460.696255
 31
0.0
  0
LINE
  5
D7
100
AcDbEntity
  8
M01
100
AcDbLine
 10
738.520126
 20
460.495293
 30
0.0
 11
738.520126
 21
461.995293
 31
0.0
  0
LINE
  5
D8
100
AcDbEntity
  8
M01
100
AcDbLine
 10
738.520126
 20
457.495293
 30
0.0
 11
738.520126
 21
458.995293
 31
0.0
  0
LINE
  5
D9
100
AcDbEntity
  8
M01
100
AcDbLine
 10
739.270126
 20
456.196255
 30
0.0
 11
739.270126
 21
457.696255
 31
0.0
  0
LINE
  5
DA
100
AcDbEntity
  8
M01
100
AcDbLine
 10
738.520126
 20
454.495293
 30
0.0
 11
738.520126
 21
455.995293
 31
0.0
  0
LINE
  5
DB
100
AcDbEntity
  8
M01
100
AcDbLine
 10
739.270126
 20
453.196255
 30
0.0
 11
739.270126
 21
454.696255
 31
0.0
  0
LINE
  5
DC
100
AcDbEntity
  8
M01
100
AcDbLine
 10
738.520126
 20
451.495293
 30
0.0
 11
738.520126
 21
452.995293
 31
0.0
  0
LINE
  5
DD
100
AcDbEntity
  8
M01
100
AcDbLine
 10
739.270126
 20
450.196255
 30
0.0
 11
739.270126
 21
451.696255
 31
0.0
  0
LINE
  5
DE
100
AcDbEntity
  8
M01
100
AcDbLine
 10
738.520126
 20
448.495293
 30
0.0
 11
738.520126
 21
449.995293
 31
0.0
  0
LINE
  5
DF
100
AcDbEntity
  8
M01
100
AcDbLine
 10
739.270126
 20
447.196255
 30
0.0
 11
739.270126
 21
448.696255
 31
0.0
  0
LINE
  5
E0
100
AcDbEntity
  8
M01
100
AcDbLine
 10
743.770126
 20
448.402026
 30
0.0
 11
743.770126
 21
449.902026
 31
0.0
  0
LINE
  5
E1
100
AcDbEntity
  8
M01
100
AcDbLine
 10
743.770126
 20
451.402026
 30
0.0
 11
743.770126
 21
452.902026
 31
0.0
  0
LINE
  5
E2
100
AcDbEntity
  8
M01
100
AcDbLine
 10
743.770126
 20
454.402026
 30
0.0
 11
743.770126
 21
455.902026
 31
0.0
  0
LINE
  5
E3
100
AcDbEntity
  8
M01
100
AcDbLine
 10
743.770126
 20
457.402026
 30
0.0
 11
743.770126
 21
458.902026
 31
0.0
  0
LINE
  5
E4
100
AcDbEntity
  8
M01
100
AcDbLine
 10
743.770126
 20
460.402026
 30
0.0
 11
743.770126
 21
461.902026
 31
0.0
  0
LINE
  5
E5
100
AcDbEntity
  8
M01
100
AcDbLine
 10
743.770126
 20
463.402026
 30
0.0
 11
743.770126
 21
464.902026
 31
0.0
  0
LINE
  5
E6
100
AcDbEntity
  8
M01
100
AcDbLine
 10
743.770126
 20
466.402026
 30
0.0
 11
743.770126
 21
467.902026
 31
0.0
  0
LINE
  5
E7
100
AcDbEntity
  8
M01
100
AcDbLine
 10
743.770126
 20
469.402026
 30
0.0
 11
743.770126
 21
470.438528
 31
0.0
  0
LINE
  5
E8
100
AcDbEntity
  8
M01
100
AcDbLine
 10
744.520126
 20
468.102988
 30
0.0
 11
744.520126
 21
469.602988
 31
0.0
  0
LINE
  5
E9
100
AcDbEntity
  8
M01
100
AcDbLine
 10
744.520126
 20
465.102988
 30
0.0
 11
744.520126
 21
466.602988
 31
0.0
  0
LINE
  5
EA
100
AcDbEntity
  8
M01
100
AcDbLine
 10
744.520126
 20
462.102988
 30
0.0
 11
744.520126
 21
463.602988
 31
0.0
  0
LINE
  5
EB
100
AcDbEntity
  8
M01
100
AcDbLine
 10
744.520126
 20
459.102988
 30
0.0
 11
744.520126
 21
460.602988
 31
0.0
  0
LINE
  5
EC
100
AcDbEntity
  8
M01
100
AcDbLine
 10
744.520126
 20
456.102988
 30
0.0
 11
744.520126
 21
457.602988
 31
0.0
  0
LINE
  5
ED
100
AcDbEntity
  8
M01
100
AcDbLine
 10
744.520126
 20
453.102988
 30
0.0
 11
744.520126
 21
454.602988
 31
0.0
  0
LINE
  5
EE
100
AcDbEntity
  8
M01
100
AcDbLine
 10
744.520126
 20
450.102988
 30
0.0
 11
744.520126
 21
451.602988
 31
0.0
  0
LINE
  5
EF
100
AcDbEntity
  8
M01
100
AcDbLine
 10
743.770126
 20
443.845874
 30
0.0
 11
743.770126
 21
443.902026
 31
0.0
  0
LINE
  5
F0
100
AcDbEntity
  8
M01
100
AcDbLine
 10
744.520126
 20
447.102988
 30
0.0
 11
744.520126
 21
448.602988
 31
0.0
  0
LINE
  5
F1
100
AcDbEntity
  8
M01
100
AcDbLine
 10
738.520126
 20
467.995293
 30
0.0
 11
744.520126
 21
469.602988
 31
0.0
  0
LINE
  5
F2
100
AcDbEntity
  8
M01
100
AcDbLine
 10
738.520126
 20
466.495293
 30
0.0
 11
744.520126
 21
468.102988
 31
0.0
  0
LINE
  5
F3
100
AcDbEntity
  8
M01
100
AcDbLine
 10
738.520126
 20
464.995293
 30
0.0
 11
744.520126
 21
466.602988
 31
0.0
  0
LINE
  5
F4
100
AcDbEntity
  8
M01
100
AcDbLine
 10
738.520126
 20
463.495293
 30
0.0
 11
744.520126
 21
465.102988
 31
0.0
  0
LINE
  5
F5
100
AcDbEntity
  8
M01
100
AcDbLine
 10
738.520126
 20
461.995293
 30
0.0
 11
744.520126
 21
463.602988
 31
0.0
  0
LINE
  5
F6
100
AcDbEntity
  8
M01
100
AcDbLine
 10
738.520126
 20
460.495293
 30
0.0
 11
744.520126
 21
462.102988
 31
0.0
  0
LINE
  5
F7
100
AcDbEntity
  8
M01
100
AcDbLine
 10
738.520126
 20
458.995293
 30
0.0
 11
744.520126
 21
460.602988
 31
0.0
  0
LINE
  5
F8
100
AcDbEntity
  8
M01
100
AcDbLine
 10
738.520126
 20
457.495293
 30
0.0
 11
744.520126
 21
459.102988
 31
0.0
  0
LINE
  5
F9
100
AcDbEntity
  8
M01
100
AcDbLine
 10
738.520126
 20
455.995293
 30
0.0
 11
744.520126
 21
457.602988
 31
0.0
  0
LINE
  5
FA
100
AcDbEntity
  8
M01
100
AcDbLine
 10
738.520126
 20
454.495293
 30
0.0
 11
744.520126
 21
456.102988
 31
0.0
  0
LINE
  5
FB
100
AcDbEntity
  8
M01
100
AcDbLine
 10
738.520126
 20
452.995293
 30
0.0
 11
744.520126
 21
454.602988
 31
0.0
  0
LINE
  5
FC
100
AcDbEntity
  8
M01
100
AcDbLine
 10
738.520126
 20
451.495293
 30
0.0
 11
744.520126
 21
453.102988
 31
0.0
  0
LINE
  5
FD
100
AcDbEntity
  8
M01
100
AcDbLine
 10
738.520126
 20
449.995293
 30
0.0
 11
744.520126
 21
451.602988
 31
0.0
  0
LINE
  5
FE
100
AcDbEntity
  8
M01
100
AcDbLine
 10
738.520126
 20
448.495293
 30
0.0
 11
744.520126
 21
450.102988
 31
0.0
  0
LINE
  5
FF
100
AcDbEntity
  8
M01
100
AcDbLine
 10
738.520126
 20
446.995293
 30
0.0
 11
744.520126
 21
448.602988
 31
0.0
  0
LINE
  5
100
100
AcDbEntity
  8
M01
100
AcDbLine
 10
738.520126
 20
445.495293
 30
0.0
 11
744.520126
 21
447.102988
 31
0.0
  0
LINE
  5
101
100
AcDbEntity
  8
M01
100
AcDbLine
 10
739.270126
 20
444.196255
 30
0.0
 11
739.270126
 21
445.696255
 31
0.0
  0
LINE
  5
102
100
AcDbEntity
  8
M01
100
AcDbLine
 10
738.520126
 20
445.495293
 30
0.0
 11
738.520126
 21
446.995293
 31
0.0
  0
LINE
  5
103
100
AcDbEntity
  8
CENTRE
 48
0.7
100
AcDbLine
 10
741.520126
 20
399.959045
 30
0.0
 11
741.520126
 21
478.596168
 31
0.0
  0
LINE
  5
104
100
AcDbEntity
  8
M01
100
AcDbLine
 10
745.020126
 20
433.845874
 30
0.0
 11
738.020126
 21
433.845874
 31
0.0
  0
LINE
  5
105
100
AcDbEntity
  8
M01
100
AcDbLine
 10
738.520126
 20
425.770617
 30
0.0
 11
744.520126
 21
425.770617
 31
0.0
  0
LINE
  5
106
100
AcDbEntity
  8
M01
100
AcDbLine
 10
744.520126
 20
425.770617
 30
0.0
 11
744.520126
 21
433.845874
 31
0.0
  0
LINE
  5
107
100
AcDbEntity
  8
M01
100
AcDbLine
 10
738.520126
 20
425.770617
 30
0.0
 11
738.520126
 21
433.845874
 31
0.0
  0
LINE
  5
108
100
AcDbEntity
  8
M01
100
AcDbLine
 10
739.520126
 20
415.845874
 30
0.0
 11
738.520126
 21
425.770617
 31
0.0
  0
LINE
  5
109
100
AcDbEntity
  8
M01
100
AcDbLine
 10
738.020126
 20
433.845874
 30
0.0
 11
738.020126
 21
443.845874
 31
0.0
  0
LINE
  5
10A
100
AcDbEntity
  8
M01
100
AcDbLine
 10
743.510126
 20
415.845874
 30
0.0
 11
744.520126
 21
425.770617
 31
0.0
  0
LINE
  5
10B
100
AcDbEntity
  8
M01
100
AcDbLine
 10
745.020126
 20
433.845874
 30
0.0
 11
745.020126
 21
443.845874
 31
0.0
  0
LINE
  5
10C
100
AcDbEntity
  8
M01
100
AcDbLine
 10
745.020126
 20
443.845874
 30
0.0
 11
738.020126
 21
443.845874
 31
0.0
  0
LINE
  5
10D
100
AcDbEntity
  8
M01
100
AcDbLine
 10
743.510126
 20
415.845874
 30
0.0
 11
739.520126
 21
415.845874
 31
0.0
  0
LINE
  5
10E
100
AcDbEntity
  8
M03
 48
0.7
100
AcDbLine
 10
611.645126
 20
313.231678
 30
0.0
 11
753.126117
 21
313.231678
 31
0.0
  0
LINE
  5
10F
100
AcDbEntity
  8
M03
 48
0.7
100
AcDbLine
 10
611.645126
 20
322.731678
 30
0.0
 11
753.126117
 21
322.731678
 31
0.0
  0
LINE
  5
110
100
AcDbEntity
  8
CENTRE
100
AcDbLine
 10
748.170126
 20
283.533089
 30
0.0
 11
748.170126
 21
302.671581
 31
0.0
  0
LINE
  5
111
100
AcDbEntity
  8
M04
100
AcDbLine
 10
745.520126
 20
295.179328
 30
0.0
 11
745.520126
 21
287.481678
 31
0.0
  0
LINE
  5
112
100
AcDbEntity
  8
M04
 48
0.7
100
AcDbLine
 10
745.520126
 20
287.481678
 30
0.0
 11
754.520126
 21
287.481678
 31
0.0
  0
LINE
  5
113
100
AcDbEntity
  8
M04
100
AcDbLine
 10
740.520126
 20
295.756678
 30
0.0
 11
739.520126
 21
295.756678
 31
0.0
  0
LINE
  5
114
100
AcDbEntity
  8
M04
100
AcDbLine
 10
739.520126
 20
296.756678
 30
0.0
 11
739.520126
 21
295.756678
 31
0.0
  0
LINE
  5
115
100
AcDbEntity
  8
M04
100
AcDbLine
 10
742.320126
 20
295.756678
 30
0.0
 11
744.520126
 21
295.756678
 31
0.0
  0
LINE
  5
116
100
AcDbEntity
  8
M04
 48
0.7
100
AcDbLine
 10
621.642546
 20
298.981678
 30
0.0
 11
739.520126
 21
298.981678
 31
0.0
  0
LINE
  5
117
100
AcDbEntity
  8
M04
 48
0.7
100
AcDbLine
 10
621.642546
 20
336.981678
 30
0.0
 11
736.520126
 21
336.981678
 31
0.0
  0
LINE
  5
118
100
AcDbEntity
  8
M04
100
AcDbLine
 10
754.520126
 20
296.756678
 30
0.0
 11
754.520126
 21
277.946414
 31
0.0
  0
LINE
  5
119
100
AcDbEntity
  8
M04
100
AcDbLine
 10
736.520126
 20
335.731678
 30
0.0
 11
736.520126
 21
477.000564
 31
0.0
  0
LINE
  5
11A
100
AcDbEntity
  8
M01
100
AcDbLine
 10
754.020126
 20
339.706678
 30
0.0
 11
754.520126
 21
339.206678
 31
0.0
  0
ARC
  5
11B
100
AcDbEntity
  8
M01
100
AcDbCircle
 10
750.520126
 20
338.706678
 30
0.0
 40
1.0
100
AcDbArc
 50
270.0
 51
360.0
  0
LINE
  5
11C
100
AcDbEntity
  8
M01
100
AcDbLine
 10
751.520126
 20
339.706678
 30
0.0
 11
751.520126
 21
338.706678
 31
0.0
  0
LINE
  5
11D
100
AcDbEntity
  8
M01
100
AcDbLine
 10
750.520126
 20
337.706678
 30
0.0
 11
746.650253
 21
337.706678
 31
0.0
  0
LINE
  5
11E
100
AcDbEntity
  8
M01
100
AcDbLine
 10
739.520126
 20
339.206678
 30
0.0
 11
740.520126
 21
340.206678
 31
0.0
  0
LINE
  5
11F
100
AcDbEntity
  8
M01
100
AcDbLine
 10
739.520126
 20
339.206678
 30
0.0
 11
739.520126
 21
296.756678
 31
0.0
  0
LINE
  5
120
100
AcDbEntity
  8
M01
100
AcDbLine
 10
740.520126
 20
340.206678
 30
0.0
 11
742.320126
 21
340.206678
 31
0.0
  0
LINE
  5
121
100
AcDbEntity
  8
M01
100
AcDbLine
 10
742.320126
 20
340.206678
 30
0.0
 11
746.650253
 21
337.706678
 31
0.0
  0
LINE
  5
122
100
AcDbEntity
  8
M01
100
AcDbLine
 10
751.520126
 20
339.706678
 30
0.0
 11
754.020126
 21
339.706678
 31
0.0
  0
LINE
  5
123
100
AcDbEntity
  8
M01
100
AcDbLine
 10
754.520126
 20
324.437753
 30
0.0
 11
751.520126
 21
324.437753
 31
0.0
  0
LINE
  5
124
100
AcDbEntity
  8
M01
100
AcDbLine
 10
754.020126
 20
296.256678
 30
0.0
 11
754.520126
 21
296.756678
 31
0.0
  0
LINE
  5
125
100
AcDbEntity
  8
M01
100
AcDbLine
 10
754.520126
 20
339.206678
 30
0.0
 11
754.520126
 21
296.756678
 31
0.0
  0
LINE
  5
126
100
AcDbEntity
  8
M01
100
AcDbLine
 10
751.520126
 20
296.256678
 30
0.0
 11
751.520126
 21
297.256678
 31
0.0
  0
ARC
  5
127
100
AcDbEntity
  8
M01
100
AcDbCircle
 10
750.520126
 20
297.256678
 30
0.0
 40
1.0
100
AcDbArc
 50
0.0
 51
90.0
  0
LINE
  5
128
100
AcDbEntity
  8
M01
100
AcDbLine
 10
749.670126
 20
290.231678
 30
0.0
 11
749.237113
 21
289.481678
 31
0.0
  0
LINE
  5
129
100
AcDbEntity
  8
M01
100
AcDbLine
 10
749.670126
 20
298.256678
 30
0.0
 11
749.670126
 21
290.231678
 31
0.0
  0
LINE
  5
12A
100
AcDbEntity
  8
M01
100
AcDbLine
 10
746.670126
 20
290.231678
 30
0.0
 11
747.103138
 21
289.481678
 31
0.0
  0
LINE
  5
12B
100
AcDbEntity
  8
M01
100
AcDbLine
 10
746.670126
 20
298.256678
 30
0.0
 11
746.670126
 21
290.231678
 31
0.0
  0
LINE
  5
12C
100
AcDbEntity
  8
M01
100
AcDbLine
 10
750.520126
 20
298.256678
 30
0.0
 11
746.650253
 21
298.256678
 31
0.0
  0
LINE
  5
12D
100
AcDbEntity
  8
M01
100
AcDbLine
 10
749.670126
 20
290.231678
 30
0.0
 11
746.650253
 21
290.231678
 31
0.0
  0
LINE
  5
12E
100
AcDbEntity
  8
M01
100
AcDbLine
 10
749.237113
 20
289.481678
 30
0.0
 11
747.103138
 21
289.481678
 31
0.0
  0
LINE
  5
12F
100
AcDbEntity
  8
M01
100
AcDbLine
 10
739.520126
 20
296.756678
 30
0.0
 11
740.520126
 21
295.756678
 31
0.0
  0
LINE
  5
130
100
AcDbEntity
  8
M01
100
AcDbLine
 10
740.520126
 20
295.756678
 30
0.0
 11
742.320126
 21
295.756678
 31
0.0
  0
LINE
  5
131
100
AcDbEntity
  8
M01
100
AcDbLine
 10
742.320126
 20
295.756678
 30
0.0
 11
746.650253
 21
298.256678
 31
0.0
  0
LINE
  5
132
100
AcDbEntity
  8
M01
100
AcDbLine
 10
751.520126
 20
296.256678
 30
0.0
 11
754.020126
 21
296.256678
 31
0.0
  0
LINE
  5
133
100
AcDbEntity
  8
M01
100
AcDbLine
 10
754.520126
 20
311.525604
 30
0.0
 11
751.520126
 21
311.525604
 31
0.0
  0
LINE
  5
134
100
AcDbEntity
  8
M01
100
AcDbLine
 10
754.020126
 20
339.706678
 30
0.0
 11
754.020126
 21
324.437753
 31
0.0
  0
LINE
  5
135
100
AcDbEntity
  8
M01
100
AcDbLine
 10
751.520126
 20
339.206678
 30
0.0
 11
751.520126
 21
297.256678
 31
0.0
  0
LINE
  5
136
100
AcDbEntity
  8
M01
100
AcDbLine
 10
740.520126
 20
340.206678
 30
0.0
 11
740.520126
 21
295.756678
 31
0.0
  0
LINE
  5
137
100
AcDbEntity
  8
M04
100
AcDbLine
 10
751.520126
 20
324.437753
 30
0.0
 11
754.520126
 21
311.525604
 31
0.0
  0
LINE
  5
138
100
AcDbEntity
  8
M04
100
AcDbLine
 10
754.520126
 20
324.437753
 30
0.0
 11
751.520126
 21
311.525604
 31
0.0
  0
LINE
  5
139
100
AcDbEntity
  8
M01
100
AcDbLine
 10
742.320126
 20
340.206678
 30
0.0
 11
742.320126
 21
295.756678
 31
0.0
  0
LINE
  5
13A
100
AcDbEntity
  8
M01
100
AcDbLine
 10
746.650253
 20
337.706678
 30
0.0
 11
746.650253
 21
298.256678
 31
0.0
  0
LINE
  5
13B
100
AcDbEntity
  8
M01
100
AcDbLine
 10
614.445126
 20
330.681678
 30
0.0
 11
613.945126
 21
330.681678
 31
0.0
  0
LINE
  5
13C
100
AcDbEntity
  8
M01
100
AcDbLine
 10
613.945126
 20
330.181678
 30
0.0
 11
613.945126
 21
330.681678
 31
0.0
  0
LINE
  5
13D
100
AcDbEntity
  8
M01
100
AcDbLine
 10
612.145126
 20
330.681678
 30
0.0
 11
611.645126
 21
330.181678
 31
0.0
  0
LINE
  5
13E
100
AcDbEntity
  8
M01
100
AcDbLine
 10
612.645126
 20
330.681678
 30
0.0
 11
612.145126
 21
330.681678
 31
0.0
  0
LINE
  5
13F
100
AcDbEntity
  8
M01
100
AcDbLine
 10
612.645126
 20
330.681678
 30
0.0
 11
612.645126
 21
330.181678
 31
0.0
  0
LINE
  5
140
100
AcDbEntity
  8
M01
100
AcDbLine
 10
612.645126
 20
330.181678
 30
0.0
 11
613.945126
 21
330.181678
 31
0.0
  0
LINE
  5
141
100
AcDbEntity
  8
M01
100
AcDbLine
 10
614.445126
 20
305.281678
 30
0.0
 11
613.945126
 21
305.281678
 31
0.0
  0
LINE
  5
142
100
AcDbEntity
  8
M01
100
AcDbLine
 10
613.945126
 20
305.781678
 30
0.0
 11
613.945126
 21
305.281678
 31
0.0
  0
LINE
  5
143
100
AcDbEntity
  8
M01
100
AcDbLine
 10
611.645126
 20
305.781678
 30
0.0
 11
612.145126
 21
305.281678
 31
0.0
  0
LINE
  5
144
100
AcDbEntity
  8
M01
100
AcDbLine
 10
611.645126
 20
305.781678
 30
0.0
 11
611.645126
 21
330.181678
 31
0.0
  0
LINE
  5
145
100
AcDbEntity
  8
M01
100
AcDbLine
 10
612.645126
 20
305.281678
 30
0.0
 11
612.645126
 21
305.781678
 31
0.0
  0
LINE
  5
146
100
AcDbEntity
  8
M01
100
AcDbLine
 10
612.645126
 20
305.281678
 30
0.0
 11
612.145126
 21
305.281678
 31
0.0
  0
LINE
  5
147
100
AcDbEntity
  8
M01
100
AcDbLine
 10
612.645126
 20
305.781678
 30
0.0
 11
613.945126
 21
305.781678
 31
0.0
  0
LINE
  5
148
100
AcDbEntity
  8
DIMS
100
AcDbLine
 10
602.120126
 20
319.981678
 30
0.0
 11
602.120126
 21
315.981678
 31
0.0
  0
LINE
  5
149
100
AcDbEntity
  8
M01
100
AcDbLine
 10
613.945126
 20
305.281678
 30
0.0
 11
613.945126
 21
330.681678
 31
0.0
  0
LINE
  5
14A
100
AcDbEntity
  8
M01
100
AcDbLine
 10
613.945126
 20
330.181678
 30
0.0
 11
613.945126
 21
305.781678
 31
0.0
  0
LINE
  5
14B
100
AcDbEntity
  8
M01
100
AcDbLine
 10
612.145126
 20
330.681678
 30
0.0
 11
612.145126
 21
305.281678
 31
0.0
  0
LINE
  5
14C
100
AcDbEntity
  8
M01
100
AcDbLine
 10
612.645126
 20
330.181678
 30
0.0
 11
612.645126
 21
305.781678
 31
0.0
  0
LINE
  5
14D
100
AcDbEntity
  8
M01
100
AcDbLine
 10
614.445126
 20
335.731678
 30
0.0
 11
614.445126
 21
300.231678
 31
0.0
  0
LINE
  5
14E
100
AcDbEntity
  8
CENTRE
 48
0.7
100
AcDbLine
 10
594.442969
 20
317.981678
 30
0.0
 11
768.474492
 21
317.981678
 31
0.0
  0
LINE
  5
14F
100
AcDbEntity
  8
M01
100
AcDbLine
 10
614.445126
 20
335.731678
 30
0.0
 11
739.520126
 21
335.731678
 31
0.0
  0
LINE
  5
150
100
AcDbEntity
  8
M01
100
AcDbLine
 10
614.445126
 20
300.231678
 30
0.0
 11
739.520126
 21
300.231678
 31
0.0
  0
TEXT
  5
151
100
AcDbEntity
  8
TEXT
100
AcDbText
 10
409.542856
 20
661.195334
 30
0.0
 40
4.0
  1
%%UMANIFOLD INSTALLATION
100
AcDbText
  0
DIMENSION
  5
152
100
AcDbEntity
  8
DIMS
100
AcDbDimension
  2
*D5
 10
455.73041
 20
562.106305
 30
0.0
 11
452.73041
 21
574.606305
 31
0.0
 12
-123.953781
 22
-73.804406
 32
0.0
  3
DIM1
100
AcDbAlignedDimension
 13
464.720488
 23
587.106305
 33
0.0
 14
493.528257
 24
562.106305
 34
0.0
 50
90.0
100
AcDbRotatedDimension
1001
ACAD
1000
DSTYLE
1002
{
1070
   144
1040
1.0
1002
}
  0
ARC
  5
15F
100
AcDbEntity
  8
M04
100
AcDbCircle
 10
499.333585
 20
558.106305
 30
0.0
 40
1.5
100
AcDbArc
 50
180.0
 51
0.0
  0
LINE
  5
160
100
AcDbEntity
  8
M04
100
AcDbLine
 10
497.833585
 20
559.356305
 30
0.0
 11
497.833585
 21
558.106305
 31
0.0
  0
LINE
  5
161
100
AcDbEntity
  8
M04
100
AcDbLine
 10
500.833585
 20
559.356305
 30
0.0
 11
500.833585
 21
558.106305
 31
0.0
  0
LINE
  5
162
100
AcDbEntity
  8
M01
100
AcDbLine
 10
500.833585
 20
559.356305
 30
0.0
 11
500.400573
 21
558.606305
 31
0.0
  0
LINE
  5
163
100
AcDbEntity
  8
M01
100
AcDbLine
 10
497.833585
 20
559.356305
 30
0.0
 11
498.266598
 21
558.606305
 31
0.0
  0
LINE
  5
164
100
AcDbEntity
  8
M01
100
AcDbLine
 10
497.833585
 20
559.356305
 30
0.0
 11
500.833585
 21
559.356305
 31
0.0
  0
LINE
  5
165
100
AcDbEntity
  8
M01
100
AcDbLine
 10
498.266598
 20
558.606305
 30
0.0
 11
500.400573
 21
558.606305
 31
0.0
  0
LINE
  5
166
100
AcDbEntity
  8
DIMS
 62
     4
100
AcDbLine
 10
493.528257
 20
562.106305
 30
0.0
 11
499.138913
 21
562.106305
 31
0.0
  0
LINE
  5
167
100
AcDbEntity
  8
DIMS
 62
     4
100
AcDbLine
 10
499.528257
 20
562.106305
 30
0.0
 11
505.138913
 21
562.106305
 31
0.0
  0
POINT
  5
168
100
AcDbEntity
  8
DEFPOINTS
  6
BYBLOCK
 62
     0
100
AcDbPoint
 10
495.295194
 20
561.023834
 30
0.0
  0
MTEXT
  5
169
100
AcDbEntity
  8
0
  6
BYBLOCK
 62
     2
100
AcDbMText
 10
443.93743
 20
546.356398
 30
0.0
 40
3.0
 41
0.0
 71
     5
 72
     1
  1
2 DOWELS %%C3.00 x 3.5 HIGH
  0
SOLID
  5
16A
100
AcDbEntity
  8
0
  6
BYBLOCK
 62
     4
100
AcDbTrace
 10
492.857587
 20
559.205023
 30
0.0
 11
493.579234
 21
558.512762
 31
0.0
 12
495.295194
 22
561.023834
 32
0.0
 13
495.295194
 23
561.023834
 33
0.0
  0
LINE
  5
16B
100
AcDbEntity
  8
0
  6
BYBLOCK
 62
     4
100
AcDbLine
 10
481.225026
 20
546.356398
 30
0.0
 11
478.225026
 21
546.356398
 31
0.0
  0
LINE
  5
16C
100
AcDbEntity
  8
0
  6
BYBLOCK
 62
     4
100
AcDbLine
 10
493.21841
 20
558.858893
 30
0.0
 11
481.225026
 21
546.356398
 31
0.0
  0
DIMENSION
  5
16D
100
AcDbEntity
  8
DIMS
100
AcDbDimension
  2
*D4
 10
502.333585
 20
543.230732
 30
0.0
 11
514.405014
 21
546.230732
 31
0.0
 12
-0.023816
 22
-5.305636
 32
0.0
  3
DIM1
100
AcDbAlignedDimension
 13
496.333585
 23
559.300977
 33
0.0
 14
502.333585
 24
559.300977
 34
0.0
100
AcDbRotatedDimension
1001
ACAD
1000
DSTYLE
1002
{
1070
   144
1040
1.0
1002
}
  0
LINE
  5
17B
100
AcDbEntity
  8
DIMS
 62
     4
100
AcDbLine
 10
496.333585
 20
559.300977
 30
0.0
 11
496.333585
 21
564.911633
 31
0.0
  0
LWPOLYLINE
  5
17C
100
AcDbEntity
  8
M01
100
AcDbPolyline
 90
        2
 70
     0
 43
1.5
 10
496.333585
 20
562.856305
 42
0.414214
 10
495.583585
 20
562.106305
  0
LWPOLYLINE
  5
17D
100
AcDbEntity
  8
M01
100
AcDbPolyline
 90
        2
 70
     0
 43
1.5
 10
496.333585
 20
561.356305
 42
0.414214
 10
497.083585
 20
562.106305
  0
CIRCLE
  5
17E
100
AcDbEntity
  8
M01
100
AcDbCircle
 10
496.333585
 20
562.106305
 30
0.0
 40
1.5
  0
LINE
  5
17F
100
AcDbEntity
  8
DIMS
 62
     4
100
AcDbLine
 10
502.333585
 20
559.300977
 30
0.0
 11
502.333585
 21
564.911633
 31
0.0
  0
LWPOLYLINE
  5
180
100
AcDbEntity
  8
M01
100
AcDbPolyline
 90
        2
 70
     0
 43
1.5
 10
502.333585
 20
562.856305
 42
0.414214
 10
501.583585
 20
562.106305
  0
LWPOLYLINE
  5
181
100
AcDbEntity
  8
M01
100
AcDbPolyline
 90
        2
 70
     0
 43
1.5
 10
502.333585
 20
561.356305
 42
0.414214
 10
503.083585
 20
562.106305
  0
CIRCLE
  5
182
100
AcDbEntity
  8
M01
100
AcDbCircle
 10
502.333585
 20
562.106305
 30
0.0
 40
1.5
  0
LINE
  5
183
100
AcDbEntity
  8
M01
100
AcDbLine
 10
497.833585
 20
564.931981
 30
0.0
 11
497.833585
 21
559.356305
 31
0.0
  0
LINE
  5
184
100
AcDbEntity
  8
M01
100
AcDbLine
 10
500.833585
 20
564.931981
 30
0.0
 11
500.833585
 21
559.356305
 31
0.0
  0
LINE
  5
185
100
AcDbEntity
  8
M04
 48
0.7
100
AcDbLine
 10
493.333585
 20
605.134061
 30
0.0
 11
493.333585
 21
743.364122
 31
0.0
  0
LINE
  5
186
100
AcDbEntity
  8
M04
 48
0.7
100
AcDbLine
 10
505.333585
 20
605.134061
 30
0.0
 11
505.333585
 21
743.364122
 31
0.0
  0
LINE
  5
187
100
AcDbEntity
  8
M01
100
AcDbLine
 10
501.323585
 20
684.9705
 30
0.0
 11
501.323585
 21
604.7444
 31
0.0
  0
LINE
  5
188
100
AcDbEntity
  8
M01
100
AcDbLine
 10
497.333585
 20
684.9705
 30
0.0
 11
497.333585
 21
604.743269
 31
0.0
  0
LINE
  5
189
100
AcDbEntity
  8
M01
100
AcDbLine
 10
501.583585
 20
714.526652
 30
0.0
 11
501.583585
 21
716.026652
 31
0.0
  0
LINE
  5
18A
100
AcDbEntity
  8
M01
100
AcDbLine
 10
502.333585
 20
713.227614
 30
0.0
 11
502.333585
 21
714.727614
 31
0.0
  0
LINE
  5
18B
100
AcDbEntity
  8
M01
100
AcDbLine
 10
496.333585
 20
713.119919
 30
0.0
 11
502.333585
 21
714.727614
 31
0.0
  0
LINE
  5
18C
100
AcDbEntity
  8
M01
100
AcDbLine
 10
501.374022
 20
712.9705
 30
0.0
 11
502.333585
 21
713.227614
 31
0.0
  0
LINE
  5
18D
100
AcDbEntity
  8
M01
100
AcDbLine
 10
496.333585
 20
712.9705
 30
0.0
 11
496.333585
 21
713.119919
 31
0.0
  0
LINE
  5
18E
100
AcDbEntity
  8
M01
100
AcDbLine
 10
497.083585
 20
737.320881
 30
0.0
 11
497.083585
 21
738.058162
 31
0.0
  0
LINE
  5
18F
100
AcDbEntity
  8
M01
100
AcDbLine
 10
496.333585
 20
735.619919
 30
0.0
 11
496.333585
 21
737.119919
 31
0.0
  0
LINE
  5
190
100
AcDbEntity
  8
M01
100
AcDbLine
 10
497.083585
 20
734.320881
 30
0.0
 11
497.083585
 21
735.820881
 31
0.0
  0
LINE
  5
191
100
AcDbEntity
  8
M01
100
AcDbLine
 10
496.333585
 20
732.619919
 30
0.0
 11
496.333585
 21
734.119919
 31
0.0
  0
LINE
  5
192
100
AcDbEntity
  8
M01
100
AcDbLine
 10
497.083585
 20
731.320881
 30
0.0
 11
497.083585
 21
732.820881
 31
0.0
  0
LINE
  5
193
100
AcDbEntity
  8
M01
100
AcDbLine
 10
497.083585
 20
728.320881
 30
0.0
 11
497.083585
 21
729.820881
 31
0.0
  0
LINE
  5
194
100
AcDbEntity
  8
M01
100
AcDbLine
 10
496.333585
 20
729.619919
 30
0.0
 11
496.333585
 21
731.119919
 31
0.0
  0
LINE
  5
195
100
AcDbEntity
  8
M01
100
AcDbLine
 10
496.333585
 20
726.619919
 30
0.0
 11
496.333585
 21
728.119919
 31
0.0
  0
LINE
  5
196
100
AcDbEntity
  8
M01
100
AcDbLine
 10
497.083585
 20
725.320881
 30
0.0
 11
497.083585
 21
726.820881
 31
0.0
  0
LINE
  5
197
100
AcDbEntity
  8
M01
100
AcDbLine
 10
496.333585
 20
723.619919
 30
0.0
 11
496.333585
 21
725.119919
 31
0.0
  0
LINE
  5
198
100
AcDbEntity
  8
M01
100
AcDbLine
 10
497.083585
 20
722.320881
 30
0.0
 11
497.083585
 21
723.820881
 31
0.0
  0
LINE
  5
199
100
AcDbEntity
  8
M01
100
AcDbLine
 10
496.333585
 20
720.619919
 30
0.0
 11
496.333585
 21
722.119919
 31
0.0
  0
LINE
  5
19A
100
AcDbEntity
  8
M01
100
AcDbLine
 10
497.083585
 20
719.320881
 30
0.0
 11
497.083585
 21
720.820881
 31
0.0
  0
LINE
  5
19B
100
AcDbEntity
  8
M01
100
AcDbLine
 10
496.333585
 20
717.619919
 30
0.0
 11
496.333585
 21
719.119919
 31
0.0
  0
LINE
  5
19C
100
AcDbEntity
  8
M01
100
AcDbLine
 10
497.083585
 20
716.320881
 30
0.0
 11
497.083585
 21
717.820881
 31
0.0
  0
LINE
  5
19D
100
AcDbEntity
  8
M01
100
AcDbLine
 10
501.583585
 20
717.526652
 30
0.0
 11
501.583585
 21
719.026652
 31
0.0
  0
LINE
  5
19E
100
AcDbEntity
  8
M01
100
AcDbLine
 10
501.583585
 20
720.526652
 30
0.0
 11
501.583585
 21
722.026652
 31
0.0
  0
LINE
  5
19F
100
AcDbEntity
  8
M01
100
AcDbLine
 10
501.583585
 20
723.526652
 30
0.0
 11
501.583585
 21
725.026652
 31
0.0
  0
LINE
  5
1A0
100
AcDbEntity
  8
M01
100
AcDbLine
 10
501.583585
 20
726.526652
 30
0.0
 11
501.583585
 21
728.026652
 31
0.0
  0
LINE
  5
1A1
100
AcDbEntity
  8
M01
100
AcDbLine
 10
501.583585
 20
729.526652
 30
0.0
 11
501.583585
 21
731.026652
 31
0.0
  0
LINE
  5
1A2
100
AcDbEntity
  8
M01
100
AcDbLine
 10
501.583585
 20
732.526652
 30
0.0
 11
501.583585
 21
734.026652
 31
0.0
  0
LINE
  5
1A3
100
AcDbEntity
  8
M01
100
AcDbLine
 10
501.583585
 20
735.526652
 30
0.0
 11
501.583585
 21
737.026652
 31
0.0
  0
LINE
  5
1A4
100
AcDbEntity
  8
M01
100
AcDbLine
 10
501.583585
 20
738.526652
 30
0.0
 11
501.583585
 21
739.563154
 31
0.0
  0
LINE
  5
1A5
100
AcDbEntity
  8
M01
100
AcDbLine
 10
502.333585
 20
737.227614
 30
0.0
 11
502.333585
 21
738.727614
 31
0.0
  0
LINE
  5
1A6
100
AcDbEntity
  8
M01
100
AcDbLine
 10
502.333585
 20
734.227614
 30
0.0
 11
502.333585
 21
735.727614
 31
0.0
  0
LINE
  5
1A7
100
AcDbEntity
  8
M01
100
AcDbLine
 10
502.333585
 20
731.227614
 30
0.0
 11
502.333585
 21
732.727614
 31
0.0
  0
LINE
  5
1A8
100
AcDbEntity
  8
M01
100
AcDbLine
 10
502.333585
 20
728.227614
 30
0.0
 11
502.333585
 21
729.727614
 31
0.0
  0
LINE
  5
1A9
100
AcDbEntity
  8
M01
100
AcDbLine
 10
502.333585
 20
725.227614
 30
0.0
 11
502.333585
 21
726.727614
 31
0.0
  0
LINE
  5
1AA
100
AcDbEntity
  8
M01
100
AcDbLine
 10
502.333585
 20
722.227614
 30
0.0
 11
502.333585
 21
723.727614
 31
0.0
  0
LINE
  5
1AB
100
AcDbEntity
  8
M01
100
AcDbLine
 10
502.333585
 20
719.227614
 30
0.0
 11
502.333585
 21
720.727614
 31
0.0
  0
LINE
  5
1AC
100
AcDbEntity
  8
M01
100
AcDbLine
 10
501.583585
 20
712.9705
 30
0.0
 11
501.583585
 21
713.026652
 31
0.0
  0
LINE
  5
1AD
100
AcDbEntity
  8
M01
100
AcDbLine
 10
502.333585
 20
716.227614
 30
0.0
 11
502.333585
 21
717.727614
 31
0.0
  0
LINE
  5
1AE
100
AcDbEntity
  8
M01
100
AcDbLine
 10
496.333585
 20
737.119919
 30
0.0
 11
502.333585
 21
738.727614
 31
0.0
  0
LINE
  5
1AF
100
AcDbEntity
  8
M01
100
AcDbLine
 10
496.333585
 20
735.619919
 30
0.0
 11
502.333585
 21
737.227614
 31
0.0
  0
LINE
  5
1B0
100
AcDbEntity
  8
M01
100
AcDbLine
 10
496.333585
 20
734.119919
 30
0.0
 11
502.333585
 21
735.727614
 31
0.0
  0
LINE
  5
1B1
100
AcDbEntity
  8
M01
100
AcDbLine
 10
496.333585
 20
732.619919
 30
0.0
 11
502.333585
 21
734.227614
 31
0.0
  0
LINE
  5
1B2
100
AcDbEntity
  8
M01
100
AcDbLine
 10
496.333585
 20
731.119919
 30
0.0
 11
502.333585
 21
732.727614
 31
0.0
  0
LINE
  5
1B3
100
AcDbEntity
  8
M01
100
AcDbLine
 10
496.333585
 20
729.619919
 30
0.0
 11
502.333585
 21
731.227614
 31
0.0
  0
LINE
  5
1B4
100
AcDbEntity
  8
M01
100
AcDbLine
 10
496.333585
 20
728.119919
 30
0.0
 11
502.333585
 21
729.727614
 31
0.0
  0
LINE
  5
1B5
100
AcDbEntity
  8
M01
100
AcDbLine
 10
496.333585
 20
726.619919
 30
0.0
 11
502.333585
 21
728.227614
 31
0.0
  0
LINE
  5
1B6
100
AcDbEntity
  8
M01
100
AcDbLine
 10
496.333585
 20
725.119919
 30
0.0
 11
502.333585
 21
726.727614
 31
0.0
  0
LINE
  5
1B7
100
AcDbEntity
  8
M01
100
AcDbLine
 10
496.333585
 20
723.619919
 30
0.0
 11
502.333585
 21
725.227614
 31
0.0
  0
LINE
  5
1B8
100
AcDbEntity
  8
M01
100
AcDbLine
 10
496.333585
 20
722.119919
 30
0.0
 11
502.333585
 21
723.727614
 31
0.0
  0
LINE
  5
1B9
100
AcDbEntity
  8
M01
100
AcDbLine
 10
496.333585
 20
720.619919
 30
0.0
 11
502.333585
 21
722.227614
 31
0.0
  0
LINE
  5
1BA
100
AcDbEntity
  8
M01
100
AcDbLine
 10
496.333585
 20
719.119919
 30
0.0
 11
502.333585
 21
720.727614
 31
0.0
  0
LINE
  5
1BB
100
AcDbEntity
  8
M01
100
AcDbLine
 10
496.333585
 20
717.619919
 30
0.0
 11
502.333585
 21
719.227614
 31
0.0
  0
LINE
  5
1BC
100
AcDbEntity
  8
M01
100
AcDbLine
 10
496.333585
 20
716.119919
 30
0.0
 11
502.333585
 21
717.727614
 31
0.0
  0
LINE
  5
1BD
100
AcDbEntity
  8
M01
100
AcDbLine
 10
496.333585
 20
714.619919
 30
0.0
 11
502.333585
 21
716.227614
 31
0.0
  0
LINE
  5
1BE
100
AcDbEntity
  8
M01
100
AcDbLine
 10
497.083585
 20
713.320881
 30
0.0
 11
497.083585
 21
714.820881
 31
0.0
  0
LINE
  5
1BF
100
AcDbEntity
  8
M01
100
AcDbLine
 10
496.333585
 20
714.619919
 30
0.0
 11
496.333585
 21
716.119919
 31
0.0
  0
LINE
  5
1C0
100
AcDbEntity
  8
CENTRE
 48
0.7
100
AcDbLine
 10
499.333585
 20
552.493207
 30
0.0
 11
499.333585
 21
747.720795
 31
0.0
  0
LINE
  5
1C1
100
AcDbEntity
  8
M01
100
AcDbLine
 10
502.833585
 20
702.9705
 30
0.0
 11
495.833585
 21
702.9705
 31
0.0
  0
LINE
  5
1C2
100
AcDbEntity
  8
M01
100
AcDbLine
 10
496.333585
 20
694.895243
 30
0.0
 11
502.333585
 21
694.895243
 31
0.0
  0
LINE
  5
1C3
100
AcDbEntity
  8
M01
100
AcDbLine
 10
502.333585
 20
694.895243
 30
0.0
 11
502.333585
 21
702.9705
 31
0.0
  0
LINE
  5
1C4
100
AcDbEntity
  8
M01
100
AcDbLine
 10
496.333585
 20
694.895243
 30
0.0
 11
496.333585
 21
702.9705
 31
0.0
  0
LINE
  5
1C5
100
AcDbEntity
  8
M01
100
AcDbLine
 10
497.333585
 20
684.9705
 30
0.0
 11
496.333585
 21
694.895243
 31
0.0
  0
LINE
  5
1C6
100
AcDbEntity
  8
M01
100
AcDbLine
 10
495.833585
 20
702.9705
 30
0.0
 11
495.833585
 21
712.9705
 31
0.0
  0
LINE
  5
1C7
100
AcDbEntity
  8
M01
100
AcDbLine
 10
501.323585
 20
684.9705
 30
0.0
 11
502.333585
 21
694.895243
 31
0.0
  0
LINE
  5
1C8
100
AcDbEntity
  8
M01
100
AcDbLine
 10
502.833585
 20
702.9705
 30
0.0
 11
502.833585
 21
712.9705
 31
0.0
  0
LINE
  5
1C9
100
AcDbEntity
  8
M01
100
AcDbLine
 10
502.833585
 20
712.9705
 30
0.0
 11
495.833585
 21
712.9705
 31
0.0
  0
LINE
  5
1CA
100
AcDbEntity
  8
M01
100
AcDbLine
 10
501.323585
 20
684.9705
 30
0.0
 11
497.333585
 21
684.9705
 31
0.0
  0
CIRCLE
  5
1CB
100
AcDbEntity
  8
M03
100
AcDbCircle
 10
499.333585
 20
587.106305
 30
0.0
 40
4.75
  0
CIRCLE
  5
1CC
100
AcDbEntity
  8
M04
100
AcDbCircle
 10
499.333585
 20
587.106305
 30
0.0
 40
19.0
  0
ARC
  5
1CD
100
AcDbEntity
  8
M01
100
AcDbCircle
 10
499.333585
 20
587.106305
 30
0.0
 40
22.225
100
AcDbArc
 50
95.16296
 51
84.862924
  0
CIRCLE
  5
1CE
100
AcDbEntity
  8
M01
100
AcDbCircle
 10
499.333585
 20
587.106305
 30
0.0
 40
17.75
  0
CIRCLE
  5
1CF
100
AcDbEntity
  8
M01
100
AcDbCircle
 10
499.333585
 20
587.106305
 30
0.0
 40
12.7
  0
LINE
  5
1D0
100
AcDbEntity
  8
CENTRE
100
AcDbLine
 10
533.946683
 20
587.106305
 30
0.0
 11
464.720488
 21
587.106305
 31
0.0
  0
TEXT
  5
1D1
100
AcDbEntity
  8
DIMS
 62
     2
100
AcDbText
 10
774.948228
 20
593.413378
 30
0.0
 40
2.0
  1
-0
 50
90.0
100
AcDbText
  0
TEXT
  5
1D2
100
AcDbEntity
  8
DIMS
 62
     2
100
AcDbText
 10
771.863308
 20
593.413378
 30
0.0
 40
2.0
  1
+0.02
 50
90.0
100
AcDbText
  0
MTEXT
  5
1D3
100
AcDbEntity
  8
0
  6
BYBLOCK
 62
     2
100
AcDbMText
 10
564.339216
 20
605.11611
 30
0.0
 40
3.0
 41
0.0
 71
     5
 72
     1
  1
GATE INSERTION POINT
  0
SOLID
  5
1D4
100
AcDbEntity
  8
0
  6
BYBLOCK
 62
     4
100
AcDbTrace
 10
600.953947
 20
591.22365
 30
0.0
 11
600.030227
 21
590.840582
 31
0.0
 12
601.641291
 22
588.260955
 32
0.0
 13
601.641291
 23
588.260955
 33
0.0
  0
LINE
  5
1D5
100
AcDbEntity
  8
0
  6
BYBLOCK
 62
     4
100
AcDbLine
 10
594.727679
 20
605.11611
 30
0.0
 11
591.727679
 21
605.11611
 31
0.0
  0
LINE
  5
1D6
100
AcDbEntity
  8
0
  6
BYBLOCK
 62
     4
100
AcDbLine
 10
600.492087
 20
591.032116
 30
0.0
 11
594.727679
 21
605.11611
 31
0.0
  0
CIRCLE
  5
1D7
100
AcDbEntity
  8
M04
100
AcDbCircle
 10
602.120126
 20
587.106305
 30
0.0
 40
1.25
  0
TEXT
  5
1D8
100
AcDbEntity
  8
DIMS
 62
     2
100
AcDbText
 10
725.266632
 20
536.68078
 30
0.0
 40
2.0
  1
-0
100
AcDbText
  0
TEXT
  5
1D9
100
AcDbEntity
  8
DIMS
 62
     2
100
AcDbText
 10
725.266632
 20
539.7657
 30
0.0
 40
2.0
  1
+0.02
100
AcDbText
  0
TEXT
  5
1DA
100
AcDbEntity
  8
TEXT
100
AcDbText
 10
617.507852
 20
598.122955
 30
0.0
 40
2.0
  1
PLV375-05625
 41
0.9
100
AcDbText
  0
DIMENSION
  5
1DB
100
AcDbEntity
  8
DIMS
100
AcDbDimension
  2
*D3
 10
602.120126
 20
513.810746
 30
0.0
 11
678.320126
 21
516.810746
 31
0.0
  1
<> REF.
  3
DIM1
100
AcDbAlignedDimension
 13
754.520126
 23
547.07104
 33
0.0
 14
602.120126
 24
585.106305
 34
0.0
100
AcDbRotatedDimension
1001
ACAD
1000
DSTYLE
1002
{
1070
   144
1040
1.0
1002
}
  0
DIMENSION
  5
1E8
100
AcDbEntity
  8
DIMS
100
AcDbDimension
  2
*D2
 10
611.645126
 20
523.810746
 30
0.0
 11
683.082626
 21
527.59646
 31
0.0
  1
L1=<> (5.625")
  3
DIM1
100
AcDbAlignedDimension
 13
754.520126
 23
547.07104
 33
0.0
 14
611.645126
 24
574.906305
 34
0.0
100
AcDbRotatedDimension
1001
ACAD
1000
DSTYLE
1002
{
1070
   144
1040
1.0
1002
}
  0
DIMENSION
  5
1F5
100
AcDbEntity
  8
DIMS
100
AcDbDimension
  2
*D1
 10
739.520126
 20
534.075748
 30
0.0
 11
716.607477
 21
534.075748
 31
0.0
 12
63.5
 22
0.0
 32
0.0
 70
   128
  3
DIM1
100
AcDbAlignedDimension
 13
754.520126
 23
547.07104
 33
0.0
 14
739.520126
 24
564.881305
 34
0.0
100
AcDbRotatedDimension
1001
ACAD
1000
DSTYLE
1002
{
1070
   144
1040
1.0
1002
}
  0
DIMENSION
  5
203
100
AcDbEntity
  8
DIMS
100
AcDbDimension
  2
*D0
 10
776.770063
 20
564.881305
 30
0.0
 11
776.770063
 21
583.547244
 31
0.0
 12
-61.886504
 22
-73.804406
 32
0.0
 70
   128
  1
%%c<>
  3
DIM1
100
AcDbAlignedDimension
 13
742.320126
 23
609.331305
 33
0.0
 14
746.670126
 24
564.881305
 34
0.0
 50
90.0
100
AcDbRotatedDimension
1001
ACAD
1000
DSTYLE
1002
{
1070
   144
1040
1.0
1002
}
  0
MTEXT
  5
210
100
AcDbEntity
  8
0
  6
BYBLOCK
 62
     2
100
AcDbMText
 10
814.059364
 20
624.139621
 30
0.0
 40
3.0
 41
0.0
 71
     5
 72
     1
  1
MANIFOLD INSERTION POINT
  0
SOLID
  5
211
100
AcDbEntity
  8
0
  6
BYBLOCK
 62
     4
100
AcDbTrace
 10
756.398914
 20
590.951126
 30
0.0
 11
757.23993
 21
590.410116
 31
0.0
 12
755.196389
 22
588.157574
 32
0.0
 13
755.196389
 23
588.157574
 33
0.0
  0
LINE
  5
212
100
AcDbEntity
  8
0
  6
BYBLOCK
 62
     4
100
AcDbLine
 10
778.160947
 20
624.139621
 30
0.0
 11
781.160947
 21
624.139621
 31
0.0
  0
LINE
  5
213
100
AcDbEntity
  8
0
  6
BYBLOCK
 62
     4
100
AcDbLine
 10
756.819422
 20
590.680621
 30
0.0
 11
778.160947
 21
624.139621
 31
0.0
  0
CIRCLE
  5
214
100
AcDbEntity
  8
M04
100
AcDbCircle
 10
754.520126
 20
587.106305
 30
0.0
 40
1.25
  0
LINE
  5
215
100
AcDbEntity
  8
M01
100
AcDbLine
 10
743.510126
 20
684.9705
 30
0.0
 11
743.510126
 21
608.644258
 31
0.0
  0
LINE
  5
216
100
AcDbEntity
  8
M01
100
AcDbLine
 10
739.520126
 20
684.9705
 30
0.0
 11
739.520126
 21
608.331305
 31
0.0
  0
LINE
  5
217
100
AcDbEntity
  8
M01
100
AcDbLine
 10
743.770126
 20
714.526652
 30
0.0
 11
743.770126
 21
716.026652
 31
0.0
  0
LINE
  5
218
100
AcDbEntity
  8
M01
100
AcDbLine
 10
744.520126
 20
713.227614
 30
0.0
 11
744.520126
 21
714.727614
 31
0.0
  0
LINE
  5
219
100
AcDbEntity
  8
M01
100
AcDbLine
 10
738.520126
 20
713.119919
 30
0.0
 11
744.520126
 21
714.727614
 31
0.0
  0
LINE
  5
21A
100
AcDbEntity
  8
M01
100
AcDbLine
 10
743.560562
 20
712.9705
 30
0.0
 11
744.520126
 21
713.227614
 31
0.0
  0
LINE
  5
21B
100
AcDbEntity
  8
M01
100
AcDbLine
 10
738.520126
 20
712.9705
 30
0.0
 11
738.520126
 21
713.119919
 31
0.0
  0
LINE
  5
21C
100
AcDbEntity
  8
M01
100
AcDbLine
 10
739.270126
 20
737.320881
 30
0.0
 11
739.270126
 21
738.058162
 31
0.0
  0
LINE
  5
21D
100
AcDbEntity
  8
M01
100
AcDbLine
 10
738.520126
 20
735.619919
 30
0.0
 11
738.520126
 21
737.119919
 31
0.0
  0
LINE
  5
21E
100
AcDbEntity
  8
M01
100
AcDbLine
 10
739.270126
 20
734.320881
 30
0.0
 11
739.270126
 21
735.820881
 31
0.0
  0
LINE
  5
21F
100
AcDbEntity
  8
M01
100
AcDbLine
 10
738.520126
 20
732.619919
 30
0.0
 11
738.520126
 21
734.119919
 31
0.0
  0
LINE
  5
220
100
AcDbEntity
  8
M01
100
AcDbLine
 10
739.270126
 20
731.320881
 30
0.0
 11
739.270126
 21
732.820881
 31
0.0
  0
LINE
  5
221
100
AcDbEntity
  8
M01
100
AcDbLine
 10
739.270126
 20
728.320881
 30
0.0
 11
739.270126
 21
729.820881
 31
0.0
  0
LINE
  5
222
100
AcDbEntity
  8
M01
100
AcDbLine
 10
738.520126
 20
729.619919
 30
0.0
 11
738.520126
 21
731.119919
 31
0.0
  0
LINE
  5
223
100
AcDbEntity
  8
M01
100
AcDbLine
 10
738.520126
 20
726.619919
 30
0.0
 11
738.520126
 21
728.119919
 31
0.0
  0
LINE
  5
224
100
AcDbEntity
  8
M01
100
AcDbLine
 10
739.270126
 20
725.320881
 30
0.0
 11
739.270126
 21
726.820881
 31
0.0
  0
LINE
  5
225
100
AcDbEntity
  8
M01
100
AcDbLine
 10
738.520126
 20
723.619919
 30
0.0
 11
738.520126
 21
725.119919
 31
0.0
  0
LINE
  5
226
100
AcDbEntity
  8
M01
100
AcDbLine
 10
739.270126
 20
722.320881
 30
0.0
 11
739.270126
 21
723.820881
 31
0.0
  0
LINE
  5
227
100
AcDbEntity
  8
M01
100
AcDbLine
 10
738.520126
 20
720.619919
 30
0.0
 11
738.520126
 21
722.119919
 31
0.0
  0
LINE
  5
228
100
AcDbEntity
  8
M01
100
AcDbLine
 10
739.270126
 20
719.320881
 30
0.0
 11
739.270126
 21
720.820881
 31
0.0
  0
LINE
  5
229
100
AcDbEntity
  8
M01
100
AcDbLine
 10
738.520126
 20
717.619919
 30
0.0
 11
738.520126
 21
719.119919
 31
0.0
  0
LINE
  5
22A
100
AcDbEntity
  8
M01
100
AcDbLine
 10
739.270126
 20
716.320881
 30
0.0
 11
739.270126
 21
717.820881
 31
0.0
  0
LINE
  5
22B
100
AcDbEntity
  8
M01
100
AcDbLine
 10
743.770126
 20
717.526652
 30
0.0
 11
743.770126
 21
719.026652
 31
0.0
  0
LINE
  5
22C
100
AcDbEntity
  8
M01
100
AcDbLine
 10
743.770126
 20
720.526652
 30
0.0
 11
743.770126
 21
722.026652
 31
0.0
  0
LINE
  5
22D
100
AcDbEntity
  8
M01
100
AcDbLine
 10
743.770126
 20
723.526652
 30
0.0
 11
743.770126
 21
725.026652
 31
0.0
  0
LINE
  5
22E
100
AcDbEntity
  8
M01
100
AcDbLine
 10
743.770126
 20
726.526652
 30
0.0
 11
743.770126
 21
728.026652
 31
0.0
  0
LINE
  5
22F
100
AcDbEntity
  8
M01
100
AcDbLine
 10
743.770126
 20
729.526652
 30
0.0
 11
743.770126
 21
731.026652
 31
0.0
  0
LINE
  5
230
100
AcDbEntity
  8
M01
100
AcDbLine
 10
743.770126
 20
732.526652
 30
0.0
 11
743.770126
 21
734.026652
 31
0.0
  0
LINE
  5
231
100
AcDbEntity
  8
M01
100
AcDbLine
 10
743.770126
 20
735.526652
 30
0.0
 11
743.770126
 21
737.026652
 31
0.0
  0
LINE
  5
232
100
AcDbEntity
  8
M01
100
AcDbLine
 10
743.770126
 20
738.526652
 30
0.0
 11
743.770126
 21
739.563154
 31
0.0
  0
LINE
  5
233
100
AcDbEntity
  8
M01
100
AcDbLine
 10
744.520126
 20
737.227614
 30
0.0
 11
744.520126
 21
738.727614
 31
0.0
  0
LINE
  5
234
100
AcDbEntity
  8
M01
100
AcDbLine
 10
744.520126
 20
734.227614
 30
0.0
 11
744.520126
 21
735.727614
 31
0.0
  0
LINE
  5
235
100
AcDbEntity
  8
M01
100
AcDbLine
 10
744.520126
 20
731.227614
 30
0.0
 11
744.520126
 21
732.727614
 31
0.0
  0
LINE
  5
236
100
AcDbEntity
  8
M01
100
AcDbLine
 10
744.520126
 20
728.227614
 30
0.0
 11
744.520126
 21
729.727614
 31
0.0
  0
LINE
  5
237
100
AcDbEntity
  8
M01
100
AcDbLine
 10
744.520126
 20
725.227614
 30
0.0
 11
744.520126
 21
726.727614
 31
0.0
  0
LINE
  5
238
100
AcDbEntity
  8
M01
100
AcDbLine
 10
744.520126
 20
722.227614
 30
0.0
 11
744.520126
 21
723.727614
 31
0.0
  0
LINE
  5
239
100
AcDbEntity
  8
M01
100
AcDbLine
 10
744.520126
 20
719.227614
 30
0.0
 11
744.520126
 21
720.727614
 31
0.0
  0
LINE
  5
23A
100
AcDbEntity
  8
M01
100
AcDbLine
 10
743.770126
 20
712.9705
 30
0.0
 11
743.770126
 21
713.026652
 31
0.0
  0
LINE
  5
23B
100
AcDbEntity
  8
M01
100
AcDbLine
 10
744.520126
 20
716.227614
 30
0.0
 11
744.520126
 21
717.727614
 31
0.0
  0
LINE
  5
23C
100
AcDbEntity
  8
M01
100
AcDbLine
 10
738.520126
 20
737.119919
 30
0.0
 11
744.520126
 21
738.727614
 31
0.0
  0
LINE
  5
23D
100
AcDbEntity
  8
M01
100
AcDbLine
 10
738.520126
 20
735.619919
 30
0.0
 11
744.520126
 21
737.227614
 31
0.0
  0
LINE
  5
23E
100
AcDbEntity
  8
M01
100
AcDbLine
 10
738.520126
 20
734.119919
 30
0.0
 11
744.520126
 21
735.727614
 31
0.0
  0
LINE
  5
23F
100
AcDbEntity
  8
M01
100
AcDbLine
 10
738.520126
 20
732.619919
 30
0.0
 11
744.520126
 21
734.227614
 31
0.0
  0
LINE
  5
240
100
AcDbEntity
  8
M01
100
AcDbLine
 10
738.520126
 20
731.119919
 30
0.0
 11
744.520126
 21
732.727614
 31
0.0
  0
LINE
  5
241
100
AcDbEntity
  8
M01
100
AcDbLine
 10
738.520126
 20
729.619919
 30
0.0
 11
744.520126
 21
731.227614
 31
0.0
  0
LINE
  5
242
100
AcDbEntity
  8
M01
100
AcDbLine
 10
738.520126
 20
728.119919
 30
0.0
 11
744.520126
 21
729.727614
 31
0.0
  0
LINE
  5
243
100
AcDbEntity
  8
M01
100
AcDbLine
 10
738.520126
 20
726.619919
 30
0.0
 11
744.520126
 21
728.227614
 31
0.0
  0
LINE
  5
244
100
AcDbEntity
  8
M01
100
AcDbLine
 10
738.520126
 20
725.119919
 30
0.0
 11
744.520126
 21
726.727614
 31
0.0
  0
LINE
  5
245
100
AcDbEntity
  8
M01
100
AcDbLine
 10
738.520126
 20
723.619919
 30
0.0
 11
744.520126
 21
725.227614
 31
0.0
  0
LINE
  5
246
100
AcDbEntity
  8
M01
100
AcDbLine
 10
738.520126
 20
722.119919
 30
0.0
 11
744.520126
 21
723.727614
 31
0.0
  0
LINE
  5
247
100
AcDbEntity
  8
M01
100
AcDbLine
 10
738.520126
 20
720.619919
 30
0.0
 11
744.520126
 21
722.227614
 31
0.0
  0
LINE
  5
248
100
AcDbEntity
  8
M01
100
AcDbLine
 10
738.520126
 20
719.119919
 30
0.0
 11
744.520126
 21
720.727614
 31
0.0
  0
LINE
  5
249
100
AcDbEntity
  8
M01
100
AcDbLine
 10
738.520126
 20
717.619919
 30
0.0
 11
744.520126
 21
719.227614
 31
0.0
  0
LINE
  5
24A
100
AcDbEntity
  8
M01
100
AcDbLine
 10
738.520126
 20
716.119919
 30
0.0
 11
744.520126
 21
717.727614
 31
0.0
  0
LINE
  5
24B
100
AcDbEntity
  8
M01
100
AcDbLine
 10
738.520126
 20
714.619919
 30
0.0
 11
744.520126
 21
716.227614
 31
0.0
  0
LINE
  5
24C
100
AcDbEntity
  8
M01
100
AcDbLine
 10
739.270126
 20
713.320881
 30
0.0
 11
739.270126
 21
714.820881
 31
0.0
  0
LINE
  5
24D
100
AcDbEntity
  8
M01
100
AcDbLine
 10
738.520126
 20
714.619919
 30
0.0
 11
738.520126
 21
716.119919
 31
0.0
  0
LINE
  5
24E
100
AcDbEntity
  8
CENTRE
 48
0.7
100
AcDbLine
 10
741.520126
 20
669.083671
 30
0.0
 11
741.520126
 21
747.720795
 31
0.0
  0
LINE
  5
24F
100
AcDbEntity
  8
M01
100
AcDbLine
 10
745.020126
 20
702.9705
 30
0.0
 11
738.020126
 21
702.9705
 31
0.0
  0
LINE
  5
250
100
AcDbEntity
  8
M01
100
AcDbLine
 10
738.520126
 20
694.895243
 30
0.0
 11
744.520126
 21
694.895243
 31
0.0
  0
LINE
  5
251
100
AcDbEntity
  8
M01
100
AcDbLine
 10
744.520126
 20
694.895243
 30
0.0
 11
744.520126
 21
702.9705
 31
0.0
  0
LINE
  5
252
100
AcDbEntity
  8
M01
100
AcDbLine
 10
738.520126
 20
694.895243
 30
0.0
 11
738.520126
 21
702.9705
 31
0.0
  0
LINE
  5
253
100
AcDbEntity
  8
M01
100
AcDbLine
 10
739.520126
 20
684.9705
 30
0.0
 11
738.520126
 21
694.895243
 31
0.0
  0
LINE
  5
254
100
AcDbEntity
  8
M01
100
AcDbLine
 10
738.020126
 20
702.9705
 30
0.0
 11
738.020126
 21
712.9705
 31
0.0
  0
LINE
  5
255
100
AcDbEntity
  8
M01
100
AcDbLine
 10
743.510126
 20
684.9705
 30
0.0
 11
744.520126
 21
694.895243
 31
0.0
  0
LINE
  5
256
100
AcDbEntity
  8
M01
100
AcDbLine
 10
745.020126
 20
702.9705
 30
0.0
 11
745.020126
 21
712.9705
 31
0.0
  0
LINE
  5
257
100
AcDbEntity
  8
M01
100
AcDbLine
 10
745.020126
 20
712.9705
 30
0.0
 11
738.020126
 21
712.9705
 31
0.0
  0
LINE
  5
258
100
AcDbEntity
  8
M01
100
AcDbLine
 10
743.510126
 20
684.9705
 30
0.0
 11
739.520126
 21
684.9705
 31
0.0
  0
LINE
  5
259
100
AcDbEntity
  8
M03
 48
0.7
100
AcDbLine
 10
611.645126
 20
582.356305
 30
0.0
 11
754.520126
 21
582.356305
 31
0.0
  0
LINE
  5
25A
100
AcDbEntity
  8
M03
 48
0.7
100
AcDbLine
 10
611.645126
 20
591.856305
 30
0.0
 11
754.520126
 21
591.856305
 31
0.0
  0
LINE
  5
25B
100
AcDbEntity
  8
M03
 48
0.7
100
AcDbLine
 10
737.536151
 20
560.606305
 30
0.0
 11
737.536151
 21
563.606305
 31
0.0
  0
LINE
  5
25C
100
AcDbEntity
  8
M03
 48
0.7
100
AcDbLine
 10
737.536151
 20
560.606305
 30
0.0
 11
736.670126
 21
562.106305
 31
0.0
  0
LINE
  5
25D
100
AcDbEntity
  8
M03
 48
0.7
100
AcDbLine
 10
737.536151
 20
563.606305
 30
0.0
 11
736.670126
 21
562.106305
 31
0.0
  0
LINE
  5
25E
100
AcDbEntity
  8
M03
 48
0.7
100
AcDbLine
 10
750.520126
 20
561.106305
 30
0.0
 11
750.020126
 21
560.606305
 31
0.0
  0
LINE
  5
25F
100
AcDbEntity
  8
M03
 48
0.7
100
AcDbLine
 10
737.670126
 20
561.106305
 30
0.0
 11
738.170126
 21
560.606305
 31
0.0
  0
LINE
  5
260
100
AcDbEntity
  8
M03
 48
0.7
100
AcDbLine
 10
750.020126
 20
560.606305
 30
0.0
 11
737.536151
 21
560.606305
 31
0.0
  0
LINE
  5
261
100
AcDbEntity
  8
M03
 48
0.7
100
AcDbLine
 10
750.020126
 20
563.606305
 30
0.0
 11
750.520126
 21
563.106305
 31
0.0
  0
LINE
  5
262
100
AcDbEntity
  8
M03
 48
0.7
100
AcDbLine
 10
738.170126
 20
563.606305
 30
0.0
 11
737.670126
 21
563.106305
 31
0.0
  0
LINE
  5
263
100
AcDbEntity
  8
M03
 48
0.7
100
AcDbLine
 10
750.020126
 20
563.606305
 30
0.0
 11
737.536151
 21
563.606305
 31
0.0
  0
LINE
  5
264
100
AcDbEntity
  8
M03
 48
0.7
100
AcDbLine
 10
750.520126
 20
563.106305
 30
0.0
 11
750.520126
 21
561.106305
 31
0.0
  0
LINE
  5
265
100
AcDbEntity
  8
M03
 48
0.7
100
AcDbLine
 10
737.670126
 20
563.106305
 30
0.0
 11
737.670126
 21
561.106305
 31
0.0
  0
LINE
  5
266
100
AcDbEntity
  8
M03
 48
0.7
100
AcDbLine
 10
738.170126
 20
563.606305
 30
0.0
 11
738.170126
 21
560.606305
 31
0.0
  0
LINE
  5
267
100
AcDbEntity
  8
M03
 48
0.7
100
AcDbLine
 10
750.020126
 20
560.606305
 30
0.0
 11
750.020126
 21
563.606305
 31
0.0
  0
LINE
  5
268
100
AcDbEntity
  8
CENTRE
 48
0.7
100
AcDbLine
 10
732.498919
 20
562.106305
 30
0.0
 11
756.362729
 21
562.106305
 31
0.0
  0
LINE
  5
269
100
AcDbEntity
  8
CENTRE
100
AcDbLine
 10
748.170126
 20
552.657715
 30
0.0
 11
748.170126
 21
571.796207
 31
0.0
  0
LINE
  5
26A
100
AcDbEntity
  8
M04
100
AcDbLine
 10
745.520126
 20
564.881305
 30
0.0
 11
745.520126
 21
556.606305
 31
0.0
  0
LINE
  5
26B
100
AcDbEntity
  8
M04
 48
0.7
100
AcDbLine
 10
745.520126
 20
556.606305
 30
0.0
 11
747.520126
 21
556.606305
 31
0.0
  0
LINE
  5
26C
100
AcDbEntity
  8
M04
100
AcDbLine
 10
740.520126
 20
564.881305
 30
0.0
 11
739.520126
 21
564.881305
 31
0.0
  0
LINE
  5
26D
100
AcDbEntity
  8
M04
100
AcDbLine
 10
739.520126
 20
565.881305
 30
0.0
 11
739.520126
 21
564.881305
 31
0.0
  0
LINE
  5
26E
100
AcDbEntity
  8
M04
100
AcDbLine
 10
742.320126
 20
564.881305
 30
0.0
 11
746.670126
 21
564.881305
 31
0.0
  0
LINE
  5
26F
100
AcDbEntity
  8
M04
100
AcDbLine
 10
747.520126
 20
558.606305
 30
0.0
 11
747.520126
 21
547.07104
 31
0.0
  0
LINE
  5
270
100
AcDbEntity
  8
M04
 48
0.7
100
AcDbLine
 10
621.642546
 20
568.106305
 30
0.0
 11
739.520126
 21
568.106305
 31
0.0
  0
LINE
  5
271
100
AcDbEntity
  8
M04
 48
0.7
100
AcDbLine
 10
621.642546
 20
606.106305
 30
0.0
 11
736.520126
 21
606.106305
 31
0.0
  0
LINE
  5
272
100
AcDbEntity
  8
M04
100
AcDbLine
 10
754.520126
 20
565.881305
 30
0.0
 11
754.520126
 21
547.07104
 31
0.0
  0
LINE
  5
273
100
AcDbEntity
  8
M04
 48
0.7
100
AcDbLine
 10
754.520126
 20
625.606305
 30
0.0
 11
756.520126
 21
627.606305
 31
0.0
  0
ARC
  5
274
100
AcDbEntity
  8
M04
 48
0.7
100
AcDbCircle
 10
749.520126
 20
632.606305
 30
0.0
 40
2.0
100
AcDbArc
 50
90.0
 51
180.0
  0
LINE
  5
275
100
AcDbEntity
  8
M04
 48
0.7
100
AcDbLine
 10
749.520126
 20
634.606305
 30
0.0
 11
772.83706
 21
634.606305
 31
0.0
  0
LINE
  5
276
100
AcDbEntity
  8
M04
 48
0.7
100
AcDbLine
 10
756.520126
 20
627.606305
 30
0.0
 11
772.83706
 21
627.606305
 31
0.0
  0
LINE
  5
277
100
AcDbEntity
  8
M04
100
AcDbLine
 10
754.520126
 20
608.331305
 30
0.0
 11
754.520126
 21
625.606305
 31
0.0
  0
LINE
  5
278
100
AcDbEntity
  8
M04
100
AcDbLine
 10
747.520126
 20
746.12519
 30
0.0
 11
747.520126
 21
606.831305
 31
0.0
  0
LINE
  5
279
100
AcDbEntity
  8
M04
100
AcDbLine
 10
736.520126
 20
604.856305
 30
0.0
 11
736.520126
 21
746.12519
 31
0.0
  0
LINE
  5
27A
100
AcDbEntity
  8
M01
100
AcDbLine
 10
754.020126
 20
608.831305
 30
0.0
 11
754.520126
 21
608.331305
 31
0.0
  0
ARC
  5
27B
100
AcDbEntity
  8
M01
100
AcDbCircle
 10
750.520126
 20
607.831305
 30
0.0
 40
1.0
100
AcDbArc
 50
270.0
 51
360.0
  0
LINE
  5
27C
100
AcDbEntity
  8
M01
100
AcDbLine
 10
751.520126
 20
608.831305
 30
0.0
 11
751.520126
 21
607.831305
 31
0.0
  0
LINE
  5
27D
100
AcDbEntity
  8
M01
100
AcDbLine
 10
750.520126
 20
606.831305
 30
0.0
 11
746.650253
 21
606.831305
 31
0.0
  0
LINE
  5
27E
100
AcDbEntity
  8
M01
100
AcDbLine
 10
739.520126
 20
608.331305
 30
0.0
 11
740.520126
 21
609.331305
 31
0.0
  0
LINE
  5
27F
100
AcDbEntity
  8
M01
100
AcDbLine
 10
739.520126
 20
608.331305
 30
0.0
 11
739.520126
 21
565.881305
 31
0.0
  0
LINE
  5
280
100
AcDbEntity
  8
M01
100
AcDbLine
 10
740.520126
 20
609.331305
 30
0.0
 11
742.320126
 21
609.331305
 31
0.0
  0
LINE
  5
281
100
AcDbEntity
  8
M01
100
AcDbLine
 10
742.320126
 20
609.331305
 30
0.0
 11
746.650253
 21
606.831305
 31
0.0
  0
LINE
  5
282
100
AcDbEntity
  8
M01
100
AcDbLine
 10
751.520126
 20
608.831305
 30
0.0
 11
754.020126
 21
608.831305
 31
0.0
  0
LINE
  5
283
100
AcDbEntity
  8
M01
100
AcDbLine
 10
754.520126
 20
593.562379
 30
0.0
 11
751.520126
 21
593.562379
 31
0.0
  0
LINE
  5
284
100
AcDbEntity
  8
M01
100
AcDbLine
 10
754.020126
 20
565.381305
 30
0.0
 11
754.520126
 21
565.881305
 31
0.0
  0
LINE
  5
285
100
AcDbEntity
  8
M01
100
AcDbLine
 10
754.520126
 20
608.331305
 30
0.0
 11
754.520126
 21
565.881305
 31
0.0
  0
LINE
  5
286
100
AcDbEntity
  8
M01
100
AcDbLine
 10
751.520126
 20
565.381305
 30
0.0
 11
751.520126
 21
566.381305
 31
0.0
  0
ARC
  5
287
100
AcDbEntity
  8
M01
100
AcDbCircle
 10
750.520126
 20
566.381305
 30
0.0
 40
1.0
100
AcDbArc
 50
0.0
 51
90.0
  0
LINE
  5
288
100
AcDbEntity
  8
M01
100
AcDbLine
 10
749.670126
 20
559.356305
 30
0.0
 11
749.237113
 21
558.606305
 31
0.0
  0
LINE
  5
289
100
AcDbEntity
  8
M01
100
AcDbLine
 10
749.670126
 20
567.381305
 30
0.0
 11
749.670126
 21
559.356305
 31
0.0
  0
LINE
  5
28A
100
AcDbEntity
  8
M01
100
AcDbLine
 10
746.670126
 20
559.356305
 30
0.0
 11
747.103138
 21
558.606305
 31
0.0
  0
LINE
  5
28B
100
AcDbEntity
  8
M01
100
AcDbLine
 10
746.670126
 20
567.381305
 30
0.0
 11
746.670126
 21
559.356305
 31
0.0
  0
LINE
  5
28C
100
AcDbEntity
  8
M01
100
AcDbLine
 10
750.520126
 20
567.381305
 30
0.0
 11
746.650253
 21
567.381305
 31
0.0
  0
LINE
  5
28D
100
AcDbEntity
  8
M01
100
AcDbLine
 10
749.670126
 20
559.356305
 30
0.0
 11
746.650253
 21
559.356305
 31
0.0
  0
LINE
  5
28E
100
AcDbEntity
  8
M01
100
AcDbLine
 10
749.237113
 20
558.606305
 30
0.0
 11
747.103138
 21
558.606305
 31
0.0
  0
LINE
  5
28F
100
AcDbEntity
  8
M01
100
AcDbLine
 10
739.520126
 20
565.881305
 30
0.0
 11
740.520126
 21
564.881305
 31
0.0
  0
LINE
  5
290
100
AcDbEntity
  8
M01
100
AcDbLine
 10
740.520126
 20
564.881305
 30
0.0
 11
742.320126
 21
564.881305
 31
0.0
  0
LINE
  5
291
100
AcDbEntity
  8
M01
100
AcDbLine
 10
742.320126
 20
564.881305
 30
0.0
 11
746.650253
 21
567.381305
 31
0.0
  0
LINE
  5
292
100
AcDbEntity
  8
M01
100
AcDbLine
 10
751.520126
 20
565.381305
 30
0.0
 11
754.020126
 21
565.381305
 31
0.0
  0
LINE
  5
293
100
AcDbEntity
  8
M01
100
AcDbLine
 10
754.520126
 20
580.65023
 30
0.0
 11
751.520126
 21
580.65023
 31
0.0
  0
LINE
  5
294
100
AcDbEntity
  8
M01
100
AcDbLine
 10
754.020126
 20
608.831305
 30
0.0
 11
754.020126
 21
593.562379
 31
0.0
  0
LINE
  5
295
100
AcDbEntity
  8
M01
100
AcDbLine
 10
751.520126
 20
608.331305
 30
0.0
 11
751.520126
 21
566.381305
 31
0.0
  0
LINE
  5
296
100
AcDbEntity
  8
M01
100
AcDbLine
 10
740.520126
 20
609.331305
 30
0.0
 11
740.520126
 21
564.881305
 31
0.0
  0
LINE
  5
297
100
AcDbEntity
  8
M04
100
AcDbLine
 10
751.520126
 20
593.562379
 30
0.0
 11
754.520126
 21
580.65023
 31
0.0
  0
LINE
  5
298
100
AcDbEntity
  8
M04
100
AcDbLine
 10
754.520126
 20
593.562379
 30
0.0
 11
751.520126
 21
580.65023
 31
0.0
  0
LINE
  5
299
100
AcDbEntity
  8
M01
100
AcDbLine
 10
742.320126
 20
609.331305
 30
0.0
 11
742.320126
 21
564.881305
 31
0.0
  0
LINE
  5
29A
100
AcDbEntity
  8
M01
100
AcDbLine
 10
746.650253
 20
606.831305
 30
0.0
 11
746.650253
 21
567.381305
 31
0.0
  0
LINE
  5
29B
100
AcDbEntity
  8
M01
100
AcDbLine
 10
614.445126
 20
599.806305
 30
0.0
 11
613.945126
 21
599.806305
 31
0.0
  0
LINE
  5
29C
100
AcDbEntity
  8
M01
100
AcDbLine
 10
613.945126
 20
599.306305
 30
0.0
 11
613.945126
 21
599.806305
 31
0.0
  0
LINE
  5
29D
100
AcDbEntity
  8
M01
100
AcDbLine
 10
612.145126
 20
599.806305
 30
0.0
 11
611.645126
 21
599.306305
 31
0.0
  0
LINE
  5
29E
100
AcDbEntity
  8
M01
100
AcDbLine
 10
612.645126
 20
599.806305
 30
0.0
 11
612.145126
 21
599.806305
 31
0.0
  0
LINE
  5
29F
100
AcDbEntity
  8
M01
100
AcDbLine
 10
612.645126
 20
599.806305
 30
0.0
 11
612.645126
 21
599.306305
 31
0.0
  0
LINE
  5
2A0
100
AcDbEntity
  8
M01
100
AcDbLine
 10
612.645126
 20
599.306305
 30
0.0
 11
613.945126
 21
599.306305
 31
0.0
  0
LINE
  5
2A1
100
AcDbEntity
  8
M01
100
AcDbLine
 10
614.445126
 20
574.406305
 30
0.0
 11
613.945126
 21
574.406305
 31
0.0
  0
LINE
  5
2A2
100
AcDbEntity
  8
M01
100
AcDbLine
 10
613.945126
 20
574.906305
 30
0.0
 11
613.945126
 21
574.406305
 31
0.0
  0
LINE
  5
2A3
100
AcDbEntity
  8
M01
100
AcDbLine
 10
611.645126
 20
574.906305
 30
0.0
 11
612.145126
 21
574.406305
 31
0.0
  0
LINE
  5
2A4
100
AcDbEntity
  8
M01
100
AcDbLine
 10
611.645126
 20
574.906305
 30
0.0
 11
611.645126
 21
599.306305
 31
0.0
  0
LINE
  5
2A5
100
AcDbEntity
  8
M01
100
AcDbLine
 10
612.645126
 20
574.406305
 30
0.0
 11
612.645126
 21
574.906305
 31
0.0
  0
LINE
  5
2A6
100
AcDbEntity
  8
M01
100
AcDbLine
 10
612.645126
 20
574.406305
 30
0.0
 11
612.145126
 21
574.406305
 31
0.0
  0
LINE
  5
2A7
100
AcDbEntity
  8
M01
100
AcDbLine
 10
612.645126
 20
574.906305
 30
0.0
 11
613.945126
 21
574.906305
 31
0.0
  0
LINE
  5
2A8
100
AcDbEntity
  8
DIMS
100
AcDbLine
 10
602.120126
 20
589.106305
 30
0.0
 11
602.120126
 21
585.106305
 31
0.0
  0
LINE
  5
2A9
100
AcDbEntity
  8
M01
100
AcDbLine
 10
613.945126
 20
574.406305
 30
0.0
 11
613.945126
 21
599.806305
 31
0.0
  0
LINE
  5
2AA
100
AcDbEntity
  8
M01
100
AcDbLine
 10
613.945126
 20
599.306305
 30
0.0
 11
613.945126
 21
574.906305
 31
0.0
  0
LINE
  5
2AB
100
AcDbEntity
  8
M01
100
AcDbLine
 10
612.145126
 20
599.806305
 30
0.0
 11
612.145126
 21
574.406305
 31
0.0
  0
LINE
  5
2AC
100
AcDbEntity
  8
M01
100
AcDbLine
 10
612.645126
 20
599.306305
 30
0.0
 11
612.645126
 21
574.906305
 31
0.0
  0
LINE
  5
2AD
100
AcDbEntity
  8
M01
100
AcDbLine
 10
614.445126
 20
604.856305
 30
0.0
 11
614.445126
 21
569.356305
 31
0.0
  0
LINE
  5
2AE
100
AcDbEntity
  8
CENTRE
 48
0.7
100
AcDbLine
 10
593.591129
 20
587.106305
 30
0.0
 11
765.160351
 21
587.106305
 31
0.0
  0
LINE
  5
2AF
100
AcDbEntity
  8
M01
100
AcDbLine
 10
614.445126
 20
604.856305
 30
0.0
 11
739.520126
 21
604.856305
 31
0.0
  0
LINE
  5
2B0
100
AcDbEntity
  8
M01
100
AcDbLine
 10
614.445126
 20
569.356305
 30
0.0
 11
739.520126
 21
569.356305
 31
0.0
  0
TEXT
  5
2B1
100
AcDbEntity
  8
TEXT
100
AcDbText
 10
787.840756
 20
440.461765
 30
0.0
 40
3.0
  1
MATERIAL TO BE MOULDED AND THE PROCESS CONDITIONS - SEE CATALOGUE FOR DETAILS
100
AcDbText
  0
TEXT
  5
2B2
100
AcDbEntity
  8
TEXT
100
AcDbText
 10
788.235507
 20
445.772195
 30
0.0
 40
3.0
  1
AN ALLOWANCE FOR EXPANSION OF THE BUSHING MUST BE MADE DEPENDENT ON THE
100
AcDbText
  0
TEXT
  5
2B3
100
AcDbEntity
  8
TEXT
100
AcDbText
 10
807.808808
 20
454.212265
 30
0.0
 40
4.0
  1
%%UNOTE
100
AcDbText
  0
ENDSEC
  0
SECTION
  2
OBJECTS
  0
DICTIONARY
  5
1C
100
AcDbDictionary
  3
ACAD_GROUP
350
1A
  3
ACAD_MLINESTYLE
350
1B
  0
DICTIONARY
  5
3
100
AcDbDictionary
280
     1
  3
ACAD_SORTENTS
360
4
  0
DICTIONARY
  5
1A
102
{ACAD_REACTORS
330
1C
102
}
100
AcDbDictionary
  0
DICTIONARY
  5
1B
102
{ACAD_REACTORS
330
1C
102
}
100
AcDbDictionary
  3
STANDARD
350
1E
  0
SORTENTSTABLE
  5
4
102
{ACAD_REACTORS
330
3
102
}
100
AcDbSortentsTable
330
2
  0
MLINESTYLE
  5
1E
102
{ACAD_REACTORS
330
1B
102
}
100
AcDbMlineStyle
  2
STANDARD
 70
     0
  3

 62
   256
 51
90.0
 52
90.0
 71
     2
 49
0.5
 62
   256
  6
BYLAYER
 49
-0.5
 62
   256
  6
BYLAYER
  0
ENDSEC
  0
EOF
