  0
SECTION
  2
HEADER
  9
$ACADVER
  1
AC1014
  9
$ACADMAINTVER
 70
     9
  9
$DWGCODEPAGE
  3
ANSI_1252
  9
$INSBASE
 10
0.0
 20
0.0
 30
0.0
  9
$EXTMIN
 10
389.191565
 20
152.041051
 30
-0.222949
  9
$EXTMAX
 10
952.040756
 20
748.026431
 30
0.0
  9
$LIMMIN
 10
0.0
 20
0.0
  9
$LIMMAX
 10
1189.0
 20
841.0
  9
$ORTHOMODE
 70
     1
  9
$REGENMODE
 70
     1
  9
$FILLMODE
 70
     1
  9
$QTEXTMODE
 70
     0
  9
$MIRRTEXT
 70
     0
  9
$DRAGMODE
 70
     2
  9
$LTSCALE
 40
8.0
  9
$OSMODE
 70
     0
  9
$ATTMODE
 70
     1
  9
$TEXTSIZE
 40
2.0
  9
$TRACEWID
 40
10.0
  9
$TEXTSTYLE
  7
STANDARD
  9
$CLAYER
  8
M04
  9
$CELTYPE
  6
BYLAYER
  9
$CECOLOR
 62
   256
  9
$CELTSCALE
 40
1.0
  9
$DELOBJ
 70
     1
  9
$DISPSILH
 70
     0
  9
$DIMSCALE
 40
1.0
  9
$DIMASZ
 40
3.0
  9
$DIMEXO
 40
1.0
  9
$DIMDLI
 40
10.0
  9
$DIMRND
 40
0.01
  9
$DIMDLE
 40
1.25
  9
$DIMEXE
 40
2.5
  9
$DIMTP
 40
0.05
  9
$DIMTM
 40
0.0
  9
$DIMTXT
 40
3.0
  9
$DIMCEN
 40
-1.7
  9
$DIMTSZ
 40
0.0
  9
$DIMTOL
 70
     0
  9
$DIMLIM
 70
     0
  9
$DIMTIH
 70
     0
  9
$DIMTOH
 70
     0
  9
$DIMSE1
 70
     0
  9
$DIMSE2
 70
     0
  9
$DIMTAD
 70
     3
  9
$DIMZIN
 70
     1
  9
$DIMBLK
  1

  9
$DIMASO
 70
     1
  9
$DIMSHO
 70
     0
  9
$DIMPOST
  1

  9
$DIMAPOST
  1

  9
$DIMALT
 70
     0
  9
$DIMALTD
 70
     2
  9
$DIMALTF
 40
0.039
  9
$DIMLFAC
 40
1.0
  9
$DIMTOFL
 70
     0
  9
$DIMTVP
 40
1.5
  9
$DIMTIX
 70
     0
  9
$DIMSOXD
 70
     0
  9
$DIMSAH
 70
     0
  9
$DIMBLK1
  1

  9
$DIMBLK2
  1

  9
$DIMSTYLE
  2
DIM1
  9
$DIMCLRD
 70
     4
  9
$DIMCLRE
 70
     4
  9
$DIMCLRT
 70
     2
  9
$DIMTFAC
 40
0.7
  9
$DIMGAP
 40
1.5
  9
$DIMJUST
 70
     0
  9
$DIMSD1
 70
     0
  9
$DIMSD2
 70
     0
  9
$DIMTOLJ
 70
     1
  9
$DIMTZIN
 70
     1
  9
$DIMALTZ
 70
     1
  9
$DIMALTTZ
 70
     1
  9
$DIMFIT
 70
     0
  9
$DIMUPT
 70
     0
  9
$DIMUNIT
 70
     2
  9
$DIMDEC
 70
     2
  9
$DIMTDEC
 70
     2
  9
$DIMALTU
 70
     2
  9
$DIMALTTD
 70
     2
  9
$DIMTXSTY
  7
STANDARD
  9
$DIMAUNIT
 70
     0
  9
$LUNITS
 70
     2
  9
$LUPREC
 70
     2
  9
$SKETCHINC
 40
1.0
  9
$FILLETRAD
 40
0.0
  9
$AUNITS
 70
     0
  9
$AUPREC
 70
     3
  9
$MENU
  1
ACAD
  9
$ELEVATION
 40
0.0
  9
$PELEVATION
 40
0.0
  9
$THICKNESS
 40
0.0
  9
$LIMCHECK
 70
     0
  9
$BLIPMODE
 70
     1
  9
$CHAMFERA
 40
0.5
  9
$CHAMFERB
 40
0.5
  9
$CHAMFERC
 40
0.0
  9
$CHAMFERD
 40
0.0
  9
$SKPOLY
 70
     1
  9
$TDCREATE
 40
2449993.725698611
  9
$TDUPDATE
 40
2452115.742787916
  9
$TDINDWG
 40
1.3289277199
  9
$TDUSRTIMER
 40
1.3289277199
  9
$USRTIMER
 70
     1
  9
$ANGBASE
 50
0.0
  9
$ANGDIR
 70
     0
  9
$PDMODE
 70
     3
  9
$PDSIZE
 40
0.0
  9
$PLINEWID
 40
0.0
  9
$COORDS
 70
     2
  9
$SPLFRAME
 70
     0
  9
$SPLINETYPE
 70
     6
  9
$SPLINESEGS
 70
     6
  9
$ATTDIA
 70
     1
  9
$ATTREQ
 70
     1
  9
$HANDLING
 70
     1
  9
$HANDSEED
  5
2A9
  9
$SURFTAB1
 70
    12
  9
$SURFTAB2
 70
    12
  9
$SURFTYPE
 70
     6
  9
$SURFU
 70
    12
  9
$SURFV
 70
    12
  9
$UCSNAME
  2

  9
$UCSORG
 10
0.0
 20
0.0
 30
0.0
  9
$UCSXDIR
 10
1.0
 20
0.0
 30
0.0
  9
$UCSYDIR
 10
0.0
 20
1.0
 30
0.0
  9
$PUCSNAME
  2

  9
$PUCSORG
 10
0.0
 20
0.0
 30
0.0
  9
$PUCSXDIR
 10
1.0
 20
0.0
 30
0.0
  9
$PUCSYDIR
 10
0.0
 20
1.0
 30
0.0
  9
$USERI1
 70
     0
  9
$USERI2
 70
     0
  9
$USERI3
 70
     0
  9
$USERI4
 70
     0
  9
$USERI5
 70
     0
  9
$USERR1
 40
0.0
  9
$USERR2
 40
0.0
  9
$USERR3
 40
0.0
  9
$USERR4
 40
0.0
  9
$USERR5
 40
0.0
  9
$WORLDVIEW
 70
     0
  9
$SHADEDGE
 70
     3
  9
$SHADEDIF
 70
    70
  9
$TILEMODE
 70
     1
  9
$MAXACTVP
 70
    16
  9
$PINSBASE
 10
0.0
 20
0.0
 30
0.0
  9
$PLIMCHECK
 70
     0
  9
$PEXTMIN
 10
1.000000E+20
 20
1.000000E+20
 30
1.000000E+20
  9
$PEXTMAX
 10
-1.000000E+20
 20
-1.000000E+20
 30
-1.000000E+20
  9
$PLIMMIN
 10
0.0
 20
0.0
  9
$PLIMMAX
 10
12.0
 20
9.0
  9
$UNITMODE
 70
     0
  9
$VISRETAIN
 70
     0
  9
$PLINEGEN
 70
     0
  9
$PSLTSCALE
 70
     0
  9
$TREEDEPTH
 70
  3020
  9
$PICKSTYLE
 70
     1
  9
$CMLSTYLE
  2
STANDARD
  9
$CMLJUST
 70
     0
  9
$CMLSCALE
 40
1.0
  9
$PROXYGRAPHICS
 70
     1
  9
$MEASUREMENT
 70
     0
  0
ENDSEC
  0
SECTION
  2
CLASSES
  0
CLASS
  1
DICTIONARYVAR
  2
AcDbDictionaryVar
  3
"AutoCAD"
 90
        0
280
     0
281
     0
  0
CLASS
  1
LWPOLYLINE
  2
AcDbPolyline
  3
"AutoCAD"
 90
        0
280
     0
281
     1
  0
CLASS
  1
HATCH
  2
AcDbHatch
  3
"ACAD_SEDONA"
 90
        0
280
     0
281
     1
  0
CLASS
  1
SORTENTSTABLE
  2
AcDbSortentsTable
  3
"AutoCAD"
 90
        0
280
     0
281
     0
  0
CLASS
  1
WIPEOUTVARIABLES
  2
AcDbWipeoutVariables
  3
WIPEOUT
 90
        0
280
     0
281
     0
  0
CLASS
  1
WIPEOUT
  2
AcDbWipeout
  3
WIPEOUT
 90
      127
280
     0
281
     1
  0
ENDSEC
  0
SECTION
  2
TABLES
  0
TABLE
  2
VPORT
  5
14
100
AcDbSymbolTable
 70
     2
  0
VPORT
  5
2A8
100
AcDbSymbolTableRecord
100
AcDbViewportTableRecord
  2
*ACTIVE
 70
     0
 10
0.0
 20
0.0
 11
1.0
 21
1.0
 12
602.038644
 22
407.720885
 13
0.0
 23
0.0
 14
10.0
 24
10.0
 15
0.0
 25
0.0
 16
0.0
 26
0.0
 36
1.0
 17
16.313321
 27
12.779115
 37
0.222949
 40
841.0
 41
1.470516
 42
50.0
 43
0.0
 44
0.0
 50
0.0
 51
0.0
 71
     0
 72
  2000
 73
     1
 74
     2
 75
     0
 76
     0
 77
     0
 78
     1
  0
ENDTAB
  0
TABLE
  2
LTYPE
  5
F
100
AcDbSymbolTable
 70
     3
  0
LTYPE
  5
10
100
AcDbSymbolTableRecord
100
AcDbLinetypeTableRecord
  2
BYBLOCK
 70
     0
  3

 72
    65
 73
     0
 40
0.0
  0
LTYPE
  5
11
100
AcDbSymbolTableRecord
100
AcDbLinetypeTableRecord
  2
BYLAYER
 70
     0
  3

 72
    65
 73
     0
 40
0.0
  0
LTYPE
  5
7
100
AcDbSymbolTableRecord
100
AcDbLinetypeTableRecord
  2
CONTINUOUS
 70
     0
  3
Solid line
 72
    65
 73
     0
 40
0.0
  0
LTYPE
  5
71
100
AcDbSymbolTableRecord
100
AcDbLinetypeTableRecord
  2
CENTER
 70
     0
  3
Center ____ _ ____ _ ____ _ ____ _ ____ _ ____
 72
    65
 73
     4
 40
2.0
 49
1.25
 74
     0
 49
-0.25
 74
     0
 49
0.25
 74
     0
 49
-0.25
 74
     0
  0
LTYPE
  5
25
100
AcDbSymbolTableRecord
100
AcDbLinetypeTableRecord
  2
HIDDEN
 70
     0
  3
Hidden __ __ __ __ __ __ __ __ __ __ __ __ __ _
 72
    65
 73
     2
 40
0.375
 49
0.25
 74
     0
 49
-0.125
 74
     0
  0
ENDTAB
  0
TABLE
  2
LAYER
  5
C
100
AcDbSymbolTable
 70
     8
  0
LAYER
  5
6
100
AcDbSymbolTableRecord
100
AcDbLayerTableRecord
  2
0
 70
     0
 62
     7
  6
CONTINUOUS
  0
LAYER
  5
70
100
AcDbSymbolTableRecord
100
AcDbLayerTableRecord
  2
CENTRE
 70
     0
 62
     3
  6
CENTER
  0
LAYER
  5
30
100
AcDbSymbolTableRecord
100
AcDbLayerTableRecord
  2
M01
 70
     0
 62
     1
  6
CONTINUOUS
  0
LAYER
  5
24
100
AcDbSymbolTableRecord
100
AcDbLayerTableRecord
  2
M03
 70
     0
 62
     2
  6
HIDDEN
  0
LAYER
  5
1D
100
AcDbSymbolTableRecord
100
AcDbLayerTableRecord
  2
M04
 70
     0
 62
     7
  6
CONTINUOUS
  0
LAYER
  5
87
100
AcDbSymbolTableRecord
100
AcDbLayerTableRecord
  2
DIMS
 70
     0
 62
     4
  6
CONTINUOUS
  0
LAYER
  5
85
100
AcDbSymbolTableRecord
100
AcDbLayerTableRecord
  2
TEXT
 70
     0
 62
     2
  6
CONTINUOUS
  0
LAYER
  5
94
100
AcDbSymbolTableRecord
100
AcDbLayerTableRecord
  2
DEFPOINTS
 70
     0
 62
     7
  6
CONTINUOUS
  0
ENDTAB
  0
TABLE
  2
STYLE
  5
D
100
AcDbSymbolTable
 70
     1
  0
STYLE
  5
E
100
AcDbSymbolTableRecord
100
AcDbTextStyleTableRecord
  2
STANDARD
 70
     0
 40
0.0
 41
1.0
 50
0.0
 71
     0
 42
2.0
  3
SIMPLEX
  4

  0
ENDTAB
  0
TABLE
  2
VIEW
  5
12
100
AcDbSymbolTable
 70
     0
  0
ENDTAB
  0
TABLE
  2
UCS
  5
13
100
AcDbSymbolTable
 70
     0
  0
ENDTAB
  0
TABLE
  2
APPID
  5
16
100
AcDbSymbolTable
 70
     1
  0
APPID
  5
17
100
AcDbSymbolTableRecord
100
AcDbRegAppTableRecord
  2
ACAD
 70
     0
  0
ENDTAB
  0
TABLE
  2
DIMSTYLE
  5
18
100
AcDbSymbolTable
 70
     1
  0
DIMSTYLE
105
1F
102
{ACAD_REACTORS
330
1F3
330
1E6
330
1D9
330
1CC
330
163
330
14B
330
B3
330
A6
330
99
330
8B
102
}
100
AcDbSymbolTableRecord
100
AcDbDimStyleTableRecord
  2
DIM1
 70
     0
  3

  4

  5

  6

  7

 40
1.0
 41
3.0
 42
1.0
 43
10.0
 44
2.5
 45
0.01
 46
1.25
 47
0.05
 48
0.0
140
3.0
141
-1.7
142
0.0
143
0.039
144
0.2
145
1.5
146
0.7
147
1.5
 71
     0
 72
     0
 73
     0
 74
     0
 75
     0
 76
     0
 77
     3
 78
     1
170
     0
171
     2
172
     0
173
     0
174
     0
175
     0
176
     4
177
     4
178
     2
270
     2
271
     2
272
     2
273
     2
274
     2
340
E
275
     0
280
     0
281
     0
282
     0
283
     1
284
     1
285
     1
286
     1
287
     0
288
     0
  0
ENDTAB
  0
TABLE
  2
BLOCK_RECORD
  5
1
100
AcDbSymbolTable
 70
    10
  0
BLOCK_RECORD
  5
2
102
{ACAD_XDICTIONARY
360
3
102
}
100
AcDbSymbolTableRecord
100
AcDbBlockTableRecord
  2
*MODEL_SPACE
  0
BLOCK_RECORD
  5
9
100
AcDbSymbolTableRecord
100
AcDbBlockTableRecord
  2
*PAPER_SPACE
  0
BLOCK_RECORD
  5
1F4
100
AcDbSymbolTableRecord
100
AcDbBlockTableRecord
  2
*D0
  0
BLOCK_RECORD
  5
1E7
100
AcDbSymbolTableRecord
100
AcDbBlockTableRecord
  2
*D1
  0
BLOCK_RECORD
  5
1DA
100
AcDbSymbolTableRecord
100
AcDbBlockTableRecord
  2
*D2
  0
BLOCK_RECORD
  5
1CD
100
AcDbSymbolTableRecord
100
AcDbBlockTableRecord
  2
*D3
  0
BLOCK_RECORD
  5
164
100
AcDbSymbolTableRecord
100
AcDbBlockTableRecord
  2
*D4
  0
BLOCK_RECORD
  5
14C
100
AcDbSymbolTableRecord
100
AcDbBlockTableRecord
  2
*D5
  0
BLOCK_RECORD
  5
B4
100
AcDbSymbolTableRecord
100
AcDbBlockTableRecord
  2
*D6
  0
BLOCK_RECORD
  5
A7
100
AcDbSymbolTableRecord
100
AcDbBlockTableRecord
  2
*D7
  0
BLOCK_RECORD
  5
9A
100
AcDbSymbolTableRecord
100
AcDbBlockTableRecord
  2
*D8
  0
BLOCK_RECORD
  5
8C
100
AcDbSymbolTableRecord
100
AcDbBlockTableRecord
  2
*D9
  0
ENDTAB
  0
ENDSEC
  0
SECTION
  2
BLOCKS
  0
BLOCK
  5
5
100
AcDbEntity
  8
0
100
AcDbBlockBegin
  2
*MODEL_SPACE
 70
     0
 10
0.0
 20
0.0
 30
0.0
  3
*MODEL_SPACE
  1

  0
ENDBLK
  5
8
100
AcDbEntity
  8
0
100
AcDbBlockEnd
  0
BLOCK
  5
A
100
AcDbEntity
 67
     1
  8
0
100
AcDbBlockBegin
  2
*PAPER_SPACE
 70
     0
 10
0.0
 20
0.0
 30
0.0
  3
*PAPER_SPACE
  1

  0
ENDBLK
  5
B
100
AcDbEntity
 67
     1
  8
0
100
AcDbBlockEnd
  0
BLOCK
  5
1FF
100
AcDbEntity
  8
0
100
AcDbBlockBegin
  2
*D0
 70
     1
 10
0.0
 20
0.0
 30
0.0
  3
*D0
  1

  0
LINE
  5
1F5
100
AcDbEntity
  8
0
  6
BYBLOCK
 62
     4
100
AcDbLine
 10
668.280952
 20
557.683852
 30
0.0
 11
668.280952
 21
539.694033
 31
0.0
  0
LINE
  5
1F6
100
AcDbEntity
  8
0
  6
BYBLOCK
 62
     4
100
AcDbLine
 10
658.280952
 20
569.411941
 30
0.0
 11
658.280952
 21
539.694033
 31
0.0
  0
LINE
  5
1F7
100
AcDbEntity
  8
0
  6
BYBLOCK
 62
     4
100
AcDbLine
 10
671.280952
 20
542.194033
 30
0.0
 11
674.280952
 21
542.194033
 31
0.0
  0
LINE
  5
1F8
100
AcDbEntity
  8
0
  6
BYBLOCK
 62
     4
100
AcDbLine
 10
655.280952
 20
542.194033
 30
0.0
 11
631.020262
 21
542.194033
 31
0.0
  0
SOLID
  5
1F9
100
AcDbEntity
  8
0
  6
BYBLOCK
 62
     4
100
AcDbTrace
 10
671.280952
 20
542.694033
 30
0.0
 11
671.280952
 21
541.694033
 31
0.0
 12
668.280952
 22
542.194033
 32
0.0
 13
668.280952
 23
542.194033
 33
0.0
  0
SOLID
  5
1FA
100
AcDbEntity
  8
0
  6
BYBLOCK
 62
     4
100
AcDbTrace
 10
655.280952
 20
542.694033
 30
0.0
 11
655.280952
 21
541.694033
 31
0.0
 12
658.280952
 22
542.194033
 32
0.0
 13
658.280952
 23
542.194033
 33
0.0
  0
MTEXT
  5
1FB
100
AcDbEntity
  8
0
  6
BYBLOCK
 62
     2
100
AcDbMText
 10
638.234548
 20
545.194033
 30
0.0
 40
3.0
 41
0.0
 71
     5
 72
     1
  1
\A1;10.00
  0
POINT
  5
1FC
100
AcDbEntity
  8
DEFPOINTS
  6
BYBLOCK
 62
     0
100
AcDbPoint
 10
668.280952
 20
558.683852
 30
0.0
  0
POINT
  5
1FD
100
AcDbEntity
  8
DEFPOINTS
  6
BYBLOCK
 62
     0
100
AcDbPoint
 10
658.280952
 20
570.411941
 30
0.0
  0
POINT
  5
1FE
100
AcDbEntity
  8
DEFPOINTS
  6
BYBLOCK
 62
     0
100
AcDbPoint
 10
658.280952
 20
542.194033
 30
0.0
  0
ENDBLK
  5
200
100
AcDbEntity
  8
0
100
AcDbBlockEnd
  0
BLOCK
  5
1F1
100
AcDbEntity
  8
0
100
AcDbBlockBegin
  2
*D1
 70
     1
 10
0.0
 20
0.0
 30
0.0
  3
*D1
  1

  0
LINE
  5
1E8
100
AcDbEntity
  8
0
  6
BYBLOCK
 62
     4
100
AcDbLine
 10
693.680952
 20
557.683852
 30
0.0
 11
693.680952
 21
528.603723
 31
0.0
  0
LINE
  5
1E9
100
AcDbEntity
  8
0
  6
BYBLOCK
 62
     4
100
AcDbLine
 10
601.605952
 20
577.386941
 30
0.0
 11
601.605952
 21
528.603723
 31
0.0
  0
LINE
  5
1EA
100
AcDbEntity
  8
0
  6
BYBLOCK
 62
     4
100
AcDbLine
 10
690.680952
 20
531.103723
 30
0.0
 11
604.605952
 21
531.103723
 31
0.0
  0
SOLID
  5
1EB
100
AcDbEntity
  8
0
  6
BYBLOCK
 62
     4
100
AcDbTrace
 10
690.680952
 20
531.603723
 30
0.0
 11
690.680952
 21
530.603723
 31
0.0
 12
693.680952
 22
531.103723
 32
0.0
 13
693.680952
 23
531.103723
 33
0.0
  0
SOLID
  5
1EC
100
AcDbEntity
  8
0
  6
BYBLOCK
 62
     4
100
AcDbTrace
 10
604.605952
 20
531.603723
 30
0.0
 11
604.605952
 21
530.603723
 31
0.0
 12
601.605952
 22
531.103723
 32
0.0
 13
601.605952
 23
531.103723
 33
0.0
  0
MTEXT
  5
1ED
100
AcDbEntity
  8
0
  6
BYBLOCK
 62
     2
100
AcDbMText
 10
647.643452
 20
534.889437
 30
0.0
 40
3.0
 41
0.0
 71
     5
 72
     1
  1
\A1;L1=92.08 (3.625")
  0
POINT
  5
1EE
100
AcDbEntity
  8
DEFPOINTS
  6
BYBLOCK
 62
     0
100
AcDbPoint
 10
693.680952
 20
558.683852
 30
0.0
  0
POINT
  5
1EF
100
AcDbEntity
  8
DEFPOINTS
  6
BYBLOCK
 62
     0
100
AcDbPoint
 10
601.605952
 20
578.386941
 30
0.0
  0
POINT
  5
1F0
100
AcDbEntity
  8
DEFPOINTS
  6
BYBLOCK
 62
     0
100
AcDbPoint
 10
601.605952
 20
531.103723
 30
0.0
  0
ENDBLK
  5
1F2
100
AcDbEntity
  8
0
100
AcDbBlockEnd
  0
BLOCK
  5
1E4
100
AcDbEntity
  8
0
100
AcDbBlockBegin
  2
*D2
 70
     1
 10
0.0
 20
0.0
 30
0.0
  3
*D2
  1

  0
LINE
  5
1DB
100
AcDbEntity
  8
0
  6
BYBLOCK
 62
     4
100
AcDbLine
 10
693.680952
 20
557.683852
 30
0.0
 11
693.680952
 21
518.603723
 31
0.0
  0
LINE
  5
1DC
100
AcDbEntity
  8
0
  6
BYBLOCK
 62
     4
100
AcDbLine
 10
592.080952
 20
584.411941
 30
0.0
 11
592.080952
 21
518.603723
 31
0.0
  0
LINE
  5
1DD
100
AcDbEntity
  8
0
  6
BYBLOCK
 62
     4
100
AcDbLine
 10
690.680952
 20
521.103723
 30
0.0
 11
595.080952
 21
521.103723
 31
0.0
  0
SOLID
  5
1DE
100
AcDbEntity
  8
0
  6
BYBLOCK
 62
     4
100
AcDbTrace
 10
690.680952
 20
521.603723
 30
0.0
 11
690.680952
 21
520.603723
 31
0.0
 12
693.680952
 22
521.103723
 32
0.0
 13
693.680952
 23
521.103723
 33
0.0
  0
SOLID
  5
1DF
100
AcDbEntity
  8
0
  6
BYBLOCK
 62
     4
100
AcDbTrace
 10
595.080952
 20
521.603723
 30
0.0
 11
595.080952
 21
520.603723
 31
0.0
 12
592.080952
 22
521.103723
 32
0.0
 13
592.080952
 23
521.103723
 33
0.0
  0
MTEXT
  5
1E0
100
AcDbEntity
  8
0
  6
BYBLOCK
 62
     2
100
AcDbMText
 10
642.880952
 20
524.103723
 30
0.0
 40
3.0
 41
0.0
 71
     5
 72
     1
  1
\A1;101.60 REF.
  0
POINT
  5
1E1
100
AcDbEntity
  8
DEFPOINTS
  6
BYBLOCK
 62
     0
100
AcDbPoint
 10
693.680952
 20
558.683852
 30
0.0
  0
POINT
  5
1E2
100
AcDbEntity
  8
DEFPOINTS
  6
BYBLOCK
 62
     0
100
AcDbPoint
 10
592.080952
 20
585.411941
 30
0.0
  0
POINT
  5
1E3
100
AcDbEntity
  8
DEFPOINTS
  6
BYBLOCK
 62
     0
100
AcDbPoint
 10
592.080952
 20
521.103723
 30
0.0
  0
ENDBLK
  5
1E5
100
AcDbEntity
  8
0
100
AcDbBlockEnd
  0
BLOCK
  5
1D7
100
AcDbEntity
  8
0
100
AcDbBlockBegin
  2
*D3
 70
     1
 10
0.0
 20
0.0
 30
0.0
  3
*D3
  1

  0
LINE
  5
1CE
100
AcDbEntity
  8
0
  6
BYBLOCK
 62
     4
100
AcDbLine
 10
790.856942
 20
574.199374
 30
0.0
 11
828.306926
 21
574.199374
 31
0.0
  0
LINE
  5
1CF
100
AcDbEntity
  8
0
  6
BYBLOCK
 62
     4
100
AcDbLine
 10
791.856942
 20
540.199374
 30
0.0
 11
828.306926
 21
540.199374
 31
0.0
  0
LINE
  5
1D0
100
AcDbEntity
  8
0
  6
BYBLOCK
 62
     4
100
AcDbLine
 10
825.806926
 20
571.199374
 30
0.0
 11
825.806926
 21
543.199374
 31
0.0
  0
SOLID
  5
1D1
100
AcDbEntity
  8
0
  6
BYBLOCK
 62
     4
100
AcDbTrace
 10
825.306926
 20
571.199374
 30
0.0
 11
826.306926
 21
571.199374
 31
0.0
 12
825.806926
 22
574.199374
 32
0.0
 13
825.806926
 23
574.199374
 33
0.0
  0
SOLID
  5
1D2
100
AcDbEntity
  8
0
  6
BYBLOCK
 62
     4
100
AcDbTrace
 10
825.306926
 20
543.199374
 30
0.0
 11
826.306926
 21
543.199374
 31
0.0
 12
825.806926
 22
540.199374
 32
0.0
 13
825.806926
 23
540.199374
 33
0.0
  0
MTEXT
  5
1D3
100
AcDbEntity
  8
0
  6
BYBLOCK
 62
     2
100
AcDbMText
 10
822.806926
 20
553.971704
 30
0.0
 40
3.0
 41
0.0
 71
     5
 72
     1
  1
\A1;\U+220534.00
 11
0.0
 21
1.0
 31
0.0
  0
POINT
  5
1D4
100
AcDbEntity
  8
DEFPOINTS
  6
BYBLOCK
 62
     0
100
AcDbPoint
 10
789.856942
 20
574.199374
 30
0.0
  0
POINT
  5
1D5
100
AcDbEntity
  8
DEFPOINTS
  6
BYBLOCK
 62
     0
100
AcDbPoint
 10
790.856942
 20
540.199374
 30
0.0
  0
POINT
  5
1D6
100
AcDbEntity
  8
DEFPOINTS
  6
BYBLOCK
 62
     0
100
AcDbPoint
 10
825.806926
 20
540.199374
 30
0.0
  0
ENDBLK
  5
1D8
100
AcDbEntity
  8
0
100
AcDbBlockEnd
  0
BLOCK
  5
16F
100
AcDbEntity
  8
0
100
AcDbBlockBegin
  2
*D4
 70
     1
 10
0.0
 20
0.0
 30
0.0
  3
*D4
  1

  0
LINE
  5
165
100
AcDbEntity
  8
0
  6
BYBLOCK
 62
     4
100
AcDbLine
 10
495.420799
 20
568.05784
 30
0.0
 11
495.420799
 21
550.487595
 31
0.0
  0
LINE
  5
166
100
AcDbEntity
  8
0
  6
BYBLOCK
 62
     4
100
AcDbLine
 10
501.420799
 20
568.05784
 30
0.0
 11
501.420799
 21
550.487595
 31
0.0
  0
LINE
  5
167
100
AcDbEntity
  8
0
  6
BYBLOCK
 62
     4
100
AcDbLine
 10
492.420799
 20
552.987595
 30
0.0
 11
489.420799
 21
552.987595
 31
0.0
  0
LINE
  5
168
100
AcDbEntity
  8
0
  6
BYBLOCK
 62
     4
100
AcDbLine
 10
504.420799
 20
552.987595
 30
0.0
 11
519.563656
 21
552.987595
 31
0.0
  0
SOLID
  5
169
100
AcDbEntity
  8
0
  6
BYBLOCK
 62
     4
100
AcDbTrace
 10
492.420799
 20
553.487595
 30
0.0
 11
492.420799
 21
552.487595
 31
0.0
 12
495.420799
 22
552.987595
 32
0.0
 13
495.420799
 23
552.987595
 33
0.0
  0
SOLID
  5
16A
100
AcDbEntity
  8
0
  6
BYBLOCK
 62
     4
100
AcDbTrace
 10
504.420799
 20
553.487595
 30
0.0
 11
504.420799
 21
552.487595
 31
0.0
 12
501.420799
 22
552.987595
 32
0.0
 13
501.420799
 23
552.987595
 33
0.0
  0
MTEXT
  5
16B
100
AcDbEntity
  8
0
  6
BYBLOCK
 62
     2
100
AcDbMText
 10
513.492227
 20
555.987595
 30
0.0
 40
3.0
 41
0.0
 71
     5
 72
     1
  1
\A1;6.00
  0
POINT
  5
16C
100
AcDbEntity
  8
DEFPOINTS
  6
BYBLOCK
 62
     0
100
AcDbPoint
 10
495.420799
 20
569.05784
 30
0.0
  0
POINT
  5
16D
100
AcDbEntity
  8
DEFPOINTS
  6
BYBLOCK
 62
     0
100
AcDbPoint
 10
501.420799
 20
569.05784
 30
0.0
  0
POINT
  5
16E
100
AcDbEntity
  8
DEFPOINTS
  6
BYBLOCK
 62
     0
100
AcDbPoint
 10
501.420799
 20
552.987595
 30
0.0
  0
ENDBLK
  5
170
100
AcDbEntity
  8
0
100
AcDbBlockEnd
  0
BLOCK
  5
156
100
AcDbEntity
  8
0
100
AcDbBlockBegin
  2
*D5
 70
     1
 10
0.0
 20
0.0
 30
0.0
  3
*D5
  1

  0
LINE
  5
14D
100
AcDbEntity
  8
0
  6
BYBLOCK
 62
     4
100
AcDbLine
 10
560.247138
 20
587.411941
 30
0.0
 11
550.552877
 21
587.411941
 31
0.0
  0
LINE
  5
14E
100
AcDbEntity
  8
0
  6
BYBLOCK
 62
     4
100
AcDbLine
 10
581.013831
 20
567.411941
 30
0.0
 11
550.552877
 21
567.411941
 31
0.0
  0
LINE
  5
14F
100
AcDbEntity
  8
0
  6
BYBLOCK
 62
     4
100
AcDbLine
 10
553.052877
 20
584.411941
 30
0.0
 11
553.052877
 21
570.411941
 31
0.0
  0
SOLID
  5
150
100
AcDbEntity
  8
0
  6
BYBLOCK
 62
     4
100
AcDbTrace
 10
552.552877
 20
584.411941
 30
0.0
 11
553.552877
 21
584.411941
 31
0.0
 12
553.052877
 22
587.411941
 32
0.0
 13
553.052877
 23
587.411941
 33
0.0
  0
SOLID
  5
151
100
AcDbEntity
  8
0
  6
BYBLOCK
 62
     4
100
AcDbTrace
 10
552.552877
 20
570.411941
 30
0.0
 11
553.552877
 21
570.411941
 31
0.0
 12
553.052877
 22
567.411941
 32
0.0
 13
553.052877
 23
567.411941
 33
0.0
  0
MTEXT
  5
152
100
AcDbEntity
  8
0
  6
BYBLOCK
 62
     2
100
AcDbMText
 10
550.052877
 20
577.411941
 30
0.0
 40
3.0
 41
0.0
 71
     5
 72
     1
  1
\A1;20.00
 11
0.0
 21
1.0
 31
0.0
  0
POINT
  5
153
100
AcDbEntity
  8
DEFPOINTS
  6
BYBLOCK
 62
     0
100
AcDbPoint
 10
561.247138
 20
587.411941
 30
0.0
  0
POINT
  5
154
100
AcDbEntity
  8
DEFPOINTS
  6
BYBLOCK
 62
     0
100
AcDbPoint
 10
582.013831
 20
567.411941
 30
0.0
  0
POINT
  5
155
100
AcDbEntity
  8
DEFPOINTS
  6
BYBLOCK
 62
     0
100
AcDbPoint
 10
553.052877
 20
567.411941
 30
0.0
  0
ENDBLK
  5
157
100
AcDbEntity
  8
0
100
AcDbBlockEnd
  0
BLOCK
  5
BF
100
AcDbEntity
  8
0
100
AcDbBlockBegin
  2
*D6
 70
     1
 10
0.0
 20
0.0
 30
0.0
  3
*D6
  1

  0
LINE
  5
B5
100
AcDbEntity
  8
0
  6
BYBLOCK
 62
     4
100
AcDbLine
 10
668.280952
 20
282.690666
 30
0.0
 11
668.280952
 21
270.641563
 31
0.0
  0
LINE
  5
B6
100
AcDbEntity
  8
0
  6
BYBLOCK
 62
     4
100
AcDbLine
 10
658.280952
 20
300.359471
 30
0.0
 11
658.280952
 21
270.641563
 31
0.0
  0
LINE
  5
B7
100
AcDbEntity
  8
0
  6
BYBLOCK
 62
     4
100
AcDbLine
 10
671.280952
 20
273.141563
 30
0.0
 11
674.280952
 21
273.141563
 31
0.0
  0
LINE
  5
B8
100
AcDbEntity
  8
0
  6
BYBLOCK
 62
     4
100
AcDbLine
 10
655.280952
 20
273.141563
 30
0.0
 11
630.948479
 21
273.141563
 31
0.0
  0
SOLID
  5
B9
100
AcDbEntity
  8
0
  6
BYBLOCK
 62
     4
100
AcDbTrace
 10
671.280952
 20
273.641563
 30
0.0
 11
671.280952
 21
272.641563
 31
0.0
 12
668.280952
 22
273.141563
 32
0.0
 13
668.280952
 23
273.141563
 33
0.0
  0
SOLID
  5
BA
100
AcDbEntity
  8
0
  6
BYBLOCK
 62
     4
100
AcDbTrace
 10
655.280952
 20
273.641563
 30
0.0
 11
655.280952
 21
272.641563
 31
0.0
 12
658.280952
 22
273.141563
 32
0.0
 13
658.280952
 23
273.141563
 33
0.0
  0
MTEXT
  5
BB
100
AcDbEntity
  8
0
  6
BYBLOCK
 62
     2
100
AcDbMText
 10
638.162764
 20
276.141563
 30
0.0
 40
3.0
 41
0.0
 71
     5
 72
     1
  1
\A1;10.00
  0
POINT
  5
BC
100
AcDbEntity
  8
DEFPOINTS
  6
BYBLOCK
 62
     0
100
AcDbPoint
 10
668.280952
 20
283.690666
 30
0.0
  0
POINT
  5
BD
100
AcDbEntity
  8
DEFPOINTS
  6
BYBLOCK
 62
     0
100
AcDbPoint
 10
658.280952
 20
301.359471
 30
0.0
  0
POINT
  5
BE
100
AcDbEntity
  8
DEFPOINTS
  6
BYBLOCK
 62
     0
100
AcDbPoint
 10
658.280952
 20
273.141563
 30
0.0
  0
ENDBLK
  5
C0
100
AcDbEntity
  8
0
100
AcDbBlockEnd
  0
BLOCK
  5
B1
100
AcDbEntity
  8
0
100
AcDbBlockBegin
  2
*D7
 70
     1
 10
0.0
 20
0.0
 30
0.0
  3
*D7
  1

  0
LINE
  5
A8
100
AcDbEntity
  8
0
  6
BYBLOCK
 62
     4
100
AcDbLine
 10
693.680952
 20
282.690666
 30
0.0
 11
693.680952
 21
259.551252
 31
0.0
  0
LINE
  5
A9
100
AcDbEntity
  8
0
  6
BYBLOCK
 62
     4
100
AcDbLine
 10
601.605952
 20
308.334471
 30
0.0
 11
601.605952
 21
259.551252
 31
0.0
  0
LINE
  5
AA
100
AcDbEntity
  8
0
  6
BYBLOCK
 62
     4
100
AcDbLine
 10
690.680952
 20
262.051252
 30
0.0
 11
604.605952
 21
262.051252
 31
0.0
  0
SOLID
  5
AB
100
AcDbEntity
  8
0
  6
BYBLOCK
 62
     4
100
AcDbTrace
 10
690.680952
 20
262.551252
 30
0.0
 11
690.680952
 21
261.551252
 31
0.0
 12
693.680952
 22
262.051252
 32
0.0
 13
693.680952
 23
262.051252
 33
0.0
  0
SOLID
  5
AC
100
AcDbEntity
  8
0
  6
BYBLOCK
 62
     4
100
AcDbTrace
 10
604.605952
 20
262.551252
 30
0.0
 11
604.605952
 21
261.551252
 31
0.0
 12
601.605952
 22
262.051252
 32
0.0
 13
601.605952
 23
262.051252
 33
0.0
  0
MTEXT
  5
AD
100
AcDbEntity
  8
0
  6
BYBLOCK
 62
     2
100
AcDbMText
 10
647.643452
 20
265.836967
 30
0.0
 40
3.0
 41
0.0
 71
     5
 72
     1
  1
\A1;L1=92.08(3.625")
  0
POINT
  5
AE
100
AcDbEntity
  8
DEFPOINTS
  6
BYBLOCK
 62
     0
100
AcDbPoint
 10
693.680952
 20
283.690666
 30
0.0
  0
POINT
  5
AF
100
AcDbEntity
  8
DEFPOINTS
  6
BYBLOCK
 62
     0
100
AcDbPoint
 10
601.605952
 20
309.334471
 30
0.0
  0
POINT
  5
B0
100
AcDbEntity
  8
DEFPOINTS
  6
BYBLOCK
 62
     0
100
AcDbPoint
 10
601.605952
 20
262.051252
 30
0.0
  0
ENDBLK
  5
B2
100
AcDbEntity
  8
0
100
AcDbBlockEnd
  0
BLOCK
  5
A4
100
AcDbEntity
  8
0
100
AcDbBlockBegin
  2
*D8
 70
     1
 10
0.0
 20
0.0
 30
0.0
  3
*D8
  1

  0
LINE
  5
9B
100
AcDbEntity
  8
0
  6
BYBLOCK
 62
     4
100
AcDbLine
 10
693.680952
 20
282.690666
 30
0.0
 11
693.680952
 21
249.551252
 31
0.0
  0
LINE
  5
9C
100
AcDbEntity
  8
0
  6
BYBLOCK
 62
     4
100
AcDbLine
 10
592.080952
 20
315.359471
 30
0.0
 11
592.080952
 21
249.551252
 31
0.0
  0
LINE
  5
9D
100
AcDbEntity
  8
0
  6
BYBLOCK
 62
     4
100
AcDbLine
 10
690.680952
 20
252.051252
 30
0.0
 11
595.080952
 21
252.051252
 31
0.0
  0
SOLID
  5
9E
100
AcDbEntity
  8
0
  6
BYBLOCK
 62
     4
100
AcDbTrace
 10
690.680952
 20
252.551252
 30
0.0
 11
690.680952
 21
251.551252
 31
0.0
 12
693.680952
 22
252.051252
 32
0.0
 13
693.680952
 23
252.051252
 33
0.0
  0
SOLID
  5
9F
100
AcDbEntity
  8
0
  6
BYBLOCK
 62
     4
100
AcDbTrace
 10
595.080952
 20
252.551252
 30
0.0
 11
595.080952
 21
251.551252
 31
0.0
 12
592.080952
 22
252.051252
 32
0.0
 13
592.080952
 23
252.051252
 33
0.0
  0
MTEXT
  5
A0
100
AcDbEntity
  8
0
  6
BYBLOCK
 62
     2
100
AcDbMText
 10
642.880952
 20
255.051252
 30
0.0
 40
3.0
 41
0.0
 71
     5
 72
     1
  1
\A1;101.60 REF.
  0
POINT
  5
A1
100
AcDbEntity
  8
DEFPOINTS
  6
BYBLOCK
 62
     0
100
AcDbPoint
 10
693.680952
 20
283.690666
 30
0.0
  0
POINT
  5
A2
100
AcDbEntity
  8
DEFPOINTS
  6
BYBLOCK
 62
     0
100
AcDbPoint
 10
592.080952
 20
316.359471
 30
0.0
  0
POINT
  5
A3
100
AcDbEntity
  8
DEFPOINTS
  6
BYBLOCK
 62
     0
100
AcDbPoint
 10
592.080952
 20
252.051252
 30
0.0
  0
ENDBLK
  5
A5
100
AcDbEntity
  8
0
100
AcDbBlockEnd
  0
BLOCK
  5
97
100
AcDbEntity
  8
0
100
AcDbBlockBegin
  2
*D9
 70
     1
 10
0.0
 20
0.0
 30
0.0
  3
*D9
  1

  0
LINE
  5
8D
100
AcDbEntity
  8
0
  6
BYBLOCK
 62
     4
100
AcDbLine
 10
648.580952
 20
335.359471
 30
0.0
 11
686.030936
 21
335.359471
 31
0.0
  0
LINE
  5
8E
100
AcDbEntity
  8
0
  6
BYBLOCK
 62
     4
100
AcDbLine
 10
651.580952
 20
301.359471
 30
0.0
 11
686.030936
 21
301.359471
 31
0.0
  0
LINE
  5
8F
100
AcDbEntity
  8
0
  6
BYBLOCK
 62
     4
100
AcDbLine
 10
683.530936
 20
332.359471
 30
0.0
 11
683.530936
 21
304.359471
 31
0.0
  0
SOLID
  5
90
100
AcDbEntity
  8
0
  6
BYBLOCK
 62
     4
100
AcDbTrace
 10
683.030936
 20
332.359471
 30
0.0
 11
684.030936
 21
332.359471
 31
0.0
 12
683.530936
 22
335.359471
 32
0.0
 13
683.530936
 23
335.359471
 33
0.0
  0
SOLID
  5
91
100
AcDbEntity
  8
0
  6
BYBLOCK
 62
     4
100
AcDbTrace
 10
683.030936
 20
304.359471
 30
0.0
 11
684.030936
 21
304.359471
 31
0.0
 12
683.530936
 22
301.359471
 32
0.0
 13
683.530936
 23
301.359471
 33
0.0
  0
MTEXT
  5
92
100
AcDbEntity
  8
0
  6
BYBLOCK
 62
     2
100
AcDbMText
 10
680.530936
 20
315.131801
 30
0.0
 40
3.0
 41
0.0
 71
     5
 72
     1
  1
\A1;\U+220534.00
 11
0.0
 21
1.0
 31
0.0
  0
POINT
  5
93
100
AcDbEntity
  8
DEFPOINTS
  6
BYBLOCK
 62
     0
100
AcDbPoint
 10
647.580952
 20
335.359471
 30
0.0
  0
POINT
  5
95
100
AcDbEntity
  8
DEFPOINTS
  6
BYBLOCK
 62
     0
100
AcDbPoint
 10
650.580952
 20
301.359471
 30
0.0
  0
POINT
  5
96
100
AcDbEntity
  8
DEFPOINTS
  6
BYBLOCK
 62
     0
100
AcDbPoint
 10
683.530936
 20
301.359471
 30
0.0
  0
ENDBLK
  5
98
100
AcDbEntity
  8
0
100
AcDbBlockEnd
  0
ENDSEC
  0
SECTION
  2
ENTITIES
  0
ARC
  5
20
100
AcDbEntity
  8
M04
100
AcDbCircle
 10
499.357401
 20
294.359471
 30
0.0
 40
1.5
100
AcDbArc
 50
180.0
 51
0.0
  0
LINE
  5
21
100
AcDbEntity
  8
M04
100
AcDbLine
 10
500.857401
 20
296.306979
 30
0.0
 11
500.857401
 21
294.359471
 31
0.0
  0
LINE
  5
22
100
AcDbEntity
  8
M04
100
AcDbLine
 10
497.857401
 20
296.306979
 30
0.0
 11
497.857401
 21
294.359471
 31
0.0
  0
ARC
  5
23
100
AcDbEntity
  8
M03
100
AcDbCircle
 10
707.180952
 20
318.359471
 30
0.0
 40
15.5
100
AcDbArc
 50
150.571293
 51
209.428707
  0
LINE
  5
26
100
AcDbEntity
  8
M04
 48
0.7
100
AcDbLine
 10
686.680952
 20
294.359471
 30
0.0
 11
693.680952
 21
294.359471
 31
0.0
  0
LINE
  5
27
100
AcDbEntity
  8
M04
100
AcDbLine
 10
696.680952
 20
332.359471
 30
0.0
 11
703.75202
 21
339.430538
 31
0.0
  0
LINE
  5
28
100
AcDbEntity
  8
M04
100
AcDbLine
 10
696.680952
 20
304.359471
 30
0.0
 11
703.75202
 21
297.288403
 31
0.0
  0
LINE
  5
29
100
AcDbEntity
  8
M04
 48
0.7
100
AcDbLine
 10
693.680952
 20
332.359471
 30
0.0
 11
696.680952
 21
332.359471
 31
0.0
  0
LINE
  5
2A
100
AcDbEntity
  8
M04
 48
0.7
100
AcDbLine
 10
693.680952
 20
304.359471
 30
0.0
 11
696.680952
 21
304.359471
 31
0.0
  0
LINE
  5
2B
100
AcDbEntity
  8
M04
100
AcDbLine
 10
696.680952
 20
332.359471
 30
0.0
 11
696.680952
 21
304.359471
 31
0.0
  0
LINE
  5
2C
100
AcDbEntity
  8
M04
100
AcDbLine
 10
690.413003
 20
300.359471
 30
0.0
 11
690.413003
 21
302.859471
 31
0.0
  0
LINE
  5
2D
100
AcDbEntity
  8
M04
 48
0.7
100
AcDbLine
 10
690.413003
 20
300.359471
 30
0.0
 11
693.680952
 21
300.359471
 31
0.0
  0
LINE
  5
2E
100
AcDbEntity
  8
M04
100
AcDbLine
 10
688.680952
 20
301.359471
 30
0.0
 11
690.413003
 21
300.359471
 31
0.0
  0
LINE
  5
2F
100
AcDbEntity
  8
M01
100
AcDbLine
 10
500.857401
 20
296.306979
 30
0.0
 11
500.424388
 21
295.556979
 31
0.0
  0
LINE
  5
31
100
AcDbEntity
  8
M01
100
AcDbLine
 10
497.857401
 20
296.306979
 30
0.0
 11
498.290414
 21
295.556979
 31
0.0
  0
LINE
  5
32
100
AcDbEntity
  8
M01
100
AcDbLine
 10
497.857401
 20
296.306979
 30
0.0
 11
500.857401
 21
296.306979
 31
0.0
  0
LINE
  5
33
100
AcDbEntity
  8
M01
100
AcDbLine
 10
498.290414
 20
295.556979
 30
0.0
 11
500.424388
 21
295.556979
 31
0.0
  0
LINE
  5
34
100
AcDbEntity
  8
M01
100
AcDbLine
 10
497.857401
 20
301.425776
 30
0.0
 11
497.857401
 21
296.306979
 31
0.0
  0
LINE
  5
35
100
AcDbEntity
  8
M01
100
AcDbLine
 10
500.857401
 20
301.425776
 30
0.0
 11
500.857401
 21
296.306979
 31
0.0
  0
LINE
  5
36
100
AcDbEntity
  8
M01
100
AcDbLine
 10
501.347401
 20
416.223666
 30
0.0
 11
501.347401
 21
330.902592
 31
0.0
  0
LINE
  5
37
100
AcDbEntity
  8
M01
100
AcDbLine
 10
497.357401
 20
416.223666
 30
0.0
 11
497.357401
 21
330.901002
 31
0.0
  0
LINE
  5
38
100
AcDbEntity
  8
M01
100
AcDbLine
 10
501.607401
 20
445.779818
 30
0.0
 11
501.607401
 21
447.279818
 31
0.0
  0
LINE
  5
39
100
AcDbEntity
  8
M01
100
AcDbLine
 10
502.357401
 20
444.48078
 30
0.0
 11
502.357401
 21
445.98078
 31
0.0
  0
LINE
  5
3A
100
AcDbEntity
  8
M01
100
AcDbLine
 10
496.357401
 20
444.373085
 30
0.0
 11
502.357401
 21
445.98078
 31
0.0
  0
LINE
  5
3B
100
AcDbEntity
  8
M01
100
AcDbLine
 10
501.397837
 20
444.223666
 30
0.0
 11
502.357401
 21
444.48078
 31
0.0
  0
LINE
  5
3C
100
AcDbEntity
  8
M01
100
AcDbLine
 10
496.357401
 20
444.223666
 30
0.0
 11
496.357401
 21
444.373085
 31
0.0
  0
LINE
  5
3D
100
AcDbEntity
  8
M01
100
AcDbLine
 10
497.107401
 20
468.574047
 30
0.0
 11
497.107401
 21
469.311328
 31
0.0
  0
LINE
  5
3E
100
AcDbEntity
  8
M01
100
AcDbLine
 10
496.357401
 20
466.873085
 30
0.0
 11
496.357401
 21
468.373085
 31
0.0
  0
LINE
  5
3F
100
AcDbEntity
  8
M01
100
AcDbLine
 10
497.107401
 20
465.574047
 30
0.0
 11
497.107401
 21
467.074047
 31
0.0
  0
LINE
  5
40
100
AcDbEntity
  8
M01
100
AcDbLine
 10
496.357401
 20
463.873085
 30
0.0
 11
496.357401
 21
465.373085
 31
0.0
  0
LINE
  5
41
100
AcDbEntity
  8
M01
100
AcDbLine
 10
497.107401
 20
462.574047
 30
0.0
 11
497.107401
 21
464.074047
 31
0.0
  0
LINE
  5
42
100
AcDbEntity
  8
M01
100
AcDbLine
 10
497.107401
 20
459.574047
 30
0.0
 11
497.107401
 21
461.074047
 31
0.0
  0
LINE
  5
43
100
AcDbEntity
  8
M01
100
AcDbLine
 10
496.357401
 20
460.873085
 30
0.0
 11
496.357401
 21
462.373085
 31
0.0
  0
LINE
  5
44
100
AcDbEntity
  8
M01
100
AcDbLine
 10
496.357401
 20
457.873085
 30
0.0
 11
496.357401
 21
459.373085
 31
0.0
  0
LINE
  5
45
100
AcDbEntity
  8
M01
100
AcDbLine
 10
497.107401
 20
456.574047
 30
0.0
 11
497.107401
 21
458.074047
 31
0.0
  0
LINE
  5
46
100
AcDbEntity
  8
M01
100
AcDbLine
 10
496.357401
 20
454.873085
 30
0.0
 11
496.357401
 21
456.373085
 31
0.0
  0
LINE
  5
47
100
AcDbEntity
  8
M01
100
AcDbLine
 10
497.107401
 20
453.574047
 30
0.0
 11
497.107401
 21
455.074047
 31
0.0
  0
LINE
  5
48
100
AcDbEntity
  8
M01
100
AcDbLine
 10
496.357401
 20
451.873085
 30
0.0
 11
496.357401
 21
453.373085
 31
0.0
  0
LINE
  5
49
100
AcDbEntity
  8
M01
100
AcDbLine
 10
497.107401
 20
450.574047
 30
0.0
 11
497.107401
 21
452.074047
 31
0.0
  0
LINE
  5
4A
100
AcDbEntity
  8
M01
100
AcDbLine
 10
496.357401
 20
448.873085
 30
0.0
 11
496.357401
 21
450.373085
 31
0.0
  0
LINE
  5
4B
100
AcDbEntity
  8
M01
100
AcDbLine
 10
497.107401
 20
447.574047
 30
0.0
 11
497.107401
 21
449.074047
 31
0.0
  0
LINE
  5
4C
100
AcDbEntity
  8
M01
100
AcDbLine
 10
501.607401
 20
448.779818
 30
0.0
 11
501.607401
 21
450.279818
 31
0.0
  0
LINE
  5
4D
100
AcDbEntity
  8
M01
100
AcDbLine
 10
501.607401
 20
451.779818
 30
0.0
 11
501.607401
 21
453.279818
 31
0.0
  0
LINE
  5
4E
100
AcDbEntity
  8
M01
100
AcDbLine
 10
501.607401
 20
454.779818
 30
0.0
 11
501.607401
 21
456.279818
 31
0.0
  0
LINE
  5
4F
100
AcDbEntity
  8
M01
100
AcDbLine
 10
501.607401
 20
457.779818
 30
0.0
 11
501.607401
 21
459.279818
 31
0.0
  0
LINE
  5
50
100
AcDbEntity
  8
M01
100
AcDbLine
 10
501.607401
 20
460.779818
 30
0.0
 11
501.607401
 21
462.279818
 31
0.0
  0
LINE
  5
51
100
AcDbEntity
  8
M01
100
AcDbLine
 10
501.607401
 20
463.779818
 30
0.0
 11
501.607401
 21
465.279818
 31
0.0
  0
LINE
  5
52
100
AcDbEntity
  8
M01
100
AcDbLine
 10
501.607401
 20
466.779818
 30
0.0
 11
501.607401
 21
468.279818
 31
0.0
  0
LINE
  5
53
100
AcDbEntity
  8
M01
100
AcDbLine
 10
501.607401
 20
469.779818
 30
0.0
 11
501.607401
 21
470.81632
 31
0.0
  0
LINE
  5
54
100
AcDbEntity
  8
M01
100
AcDbLine
 10
502.357401
 20
468.48078
 30
0.0
 11
502.357401
 21
469.98078
 31
0.0
  0
LINE
  5
55
100
AcDbEntity
  8
M01
100
AcDbLine
 10
502.357401
 20
465.48078
 30
0.0
 11
502.357401
 21
466.98078
 31
0.0
  0
LINE
  5
56
100
AcDbEntity
  8
M01
100
AcDbLine
 10
502.357401
 20
462.48078
 30
0.0
 11
502.357401
 21
463.98078
 31
0.0
  0
LINE
  5
57
100
AcDbEntity
  8
M01
100
AcDbLine
 10
502.357401
 20
459.48078
 30
0.0
 11
502.357401
 21
460.98078
 31
0.0
  0
LINE
  5
58
100
AcDbEntity
  8
M01
100
AcDbLine
 10
502.357401
 20
456.48078
 30
0.0
 11
502.357401
 21
457.98078
 31
0.0
  0
LINE
  5
59
100
AcDbEntity
  8
M01
100
AcDbLine
 10
502.357401
 20
453.48078
 30
0.0
 11
502.357401
 21
454.98078
 31
0.0
  0
LINE
  5
5A
100
AcDbEntity
  8
M01
100
AcDbLine
 10
502.357401
 20
450.48078
 30
0.0
 11
502.357401
 21
451.98078
 31
0.0
  0
LINE
  5
5B
100
AcDbEntity
  8
M01
100
AcDbLine
 10
501.607401
 20
444.223666
 30
0.0
 11
501.607401
 21
444.279818
 31
0.0
  0
LINE
  5
5C
100
AcDbEntity
  8
M01
100
AcDbLine
 10
502.357401
 20
447.48078
 30
0.0
 11
502.357401
 21
448.98078
 31
0.0
  0
LINE
  5
5D
100
AcDbEntity
  8
M01
100
AcDbLine
 10
496.357401
 20
468.373085
 30
0.0
 11
502.357401
 21
469.98078
 31
0.0
  0
LINE
  5
5E
100
AcDbEntity
  8
M01
100
AcDbLine
 10
496.357401
 20
466.873085
 30
0.0
 11
502.357401
 21
468.48078
 31
0.0
  0
LINE
  5
5F
100
AcDbEntity
  8
M01
100
AcDbLine
 10
496.357401
 20
465.373085
 30
0.0
 11
502.357401
 21
466.98078
 31
0.0
  0
LINE
  5
60
100
AcDbEntity
  8
M01
100
AcDbLine
 10
496.357401
 20
463.873085
 30
0.0
 11
502.357401
 21
465.48078
 31
0.0
  0
LINE
  5
61
100
AcDbEntity
  8
M01
100
AcDbLine
 10
496.357401
 20
462.373085
 30
0.0
 11
502.357401
 21
463.98078
 31
0.0
  0
LINE
  5
62
100
AcDbEntity
  8
M01
100
AcDbLine
 10
496.357401
 20
460.873085
 30
0.0
 11
502.357401
 21
462.48078
 31
0.0
  0
LINE
  5
63
100
AcDbEntity
  8
M01
100
AcDbLine
 10
496.357401
 20
459.373085
 30
0.0
 11
502.357401
 21
460.98078
 31
0.0
  0
LINE
  5
64
100
AcDbEntity
  8
M01
100
AcDbLine
 10
496.357401
 20
457.873085
 30
0.0
 11
502.357401
 21
459.48078
 31
0.0
  0
LINE
  5
65
100
AcDbEntity
  8
M01
100
AcDbLine
 10
496.357401
 20
456.373085
 30
0.0
 11
502.357401
 21
457.98078
 31
0.0
  0
LINE
  5
66
100
AcDbEntity
  8
M01
100
AcDbLine
 10
496.357401
 20
454.873085
 30
0.0
 11
502.357401
 21
456.48078
 31
0.0
  0
LINE
  5
67
100
AcDbEntity
  8
M01
100
AcDbLine
 10
496.357401
 20
453.373085
 30
0.0
 11
502.357401
 21
454.98078
 31
0.0
  0
LINE
  5
68
100
AcDbEntity
  8
M01
100
AcDbLine
 10
496.357401
 20
451.873085
 30
0.0
 11
502.357401
 21
453.48078
 31
0.0
  0
LINE
  5
69
100
AcDbEntity
  8
M01
100
AcDbLine
 10
496.357401
 20
450.373085
 30
0.0
 11
502.357401
 21
451.98078
 31
0.0
  0
LINE
  5
6A
100
AcDbEntity
  8
M01
100
AcDbLine
 10
496.357401
 20
448.873085
 30
0.0
 11
502.357401
 21
450.48078
 31
0.0
  0
LINE
  5
6B
100
AcDbEntity
  8
M01
100
AcDbLine
 10
496.357401
 20
447.373085
 30
0.0
 11
502.357401
 21
448.98078
 31
0.0
  0
LINE
  5
6C
100
AcDbEntity
  8
M01
100
AcDbLine
 10
496.357401
 20
445.873085
 30
0.0
 11
502.357401
 21
447.48078
 31
0.0
  0
LINE
  5
6D
100
AcDbEntity
  8
M01
100
AcDbLine
 10
497.107401
 20
444.574047
 30
0.0
 11
497.107401
 21
446.074047
 31
0.0
  0
LINE
  5
6E
100
AcDbEntity
  8
M01
100
AcDbLine
 10
496.357401
 20
445.873085
 30
0.0
 11
496.357401
 21
447.373085
 31
0.0
  0
LINE
  5
6F
100
AcDbEntity
  8
CENTRE
 48
0.7
100
AcDbLine
 10
499.357401
 20
289.629596
 30
0.0
 11
499.357401
 21
478.973961
 31
0.0
  0
LINE
  5
72
100
AcDbEntity
  8
M01
100
AcDbLine
 10
502.857401
 20
434.223666
 30
0.0
 11
495.857401
 21
434.223666
 31
0.0
  0
LINE
  5
73
100
AcDbEntity
  8
M01
100
AcDbLine
 10
496.357401
 20
426.148409
 30
0.0
 11
502.357401
 21
426.148409
 31
0.0
  0
LINE
  5
74
100
AcDbEntity
  8
M01
100
AcDbLine
 10
502.357401
 20
426.148409
 30
0.0
 11
502.357401
 21
434.223666
 31
0.0
  0
LINE
  5
75
100
AcDbEntity
  8
M01
100
AcDbLine
 10
496.357401
 20
426.148409
 30
0.0
 11
496.357401
 21
434.223666
 31
0.0
  0
LINE
  5
76
100
AcDbEntity
  8
M01
100
AcDbLine
 10
497.357401
 20
416.223666
 30
0.0
 11
496.357401
 21
426.148409
 31
0.0
  0
LINE
  5
77
100
AcDbEntity
  8
M01
100
AcDbLine
 10
495.857401
 20
434.223666
 30
0.0
 11
495.857401
 21
444.223666
 31
0.0
  0
LINE
  5
78
100
AcDbEntity
  8
M01
100
AcDbLine
 10
501.347401
 20
416.223666
 30
0.0
 11
502.357401
 21
426.148409
 31
0.0
  0
LINE
  5
79
100
AcDbEntity
  8
M01
100
AcDbLine
 10
502.857401
 20
434.223666
 30
0.0
 11
502.857401
 21
444.223666
 31
0.0
  0
LINE
  5
7A
100
AcDbEntity
  8
M01
100
AcDbLine
 10
502.857401
 20
444.223666
 30
0.0
 11
495.857401
 21
444.223666
 31
0.0
  0
LINE
  5
7B
100
AcDbEntity
  8
M01
100
AcDbLine
 10
501.347401
 20
416.223666
 30
0.0
 11
497.357401
 21
416.223666
 31
0.0
  0
LINE
  5
7C
100
AcDbEntity
  8
M04
100
AcDbLine
 10
493.357401
 20
478.055163
 30
0.0
 11
493.357401
 21
331.008581
 31
0.0
  0
LINE
  5
7D
100
AcDbEntity
  8
M04
100
AcDbLine
 10
505.357401
 20
478.055163
 30
0.0
 11
505.357401
 21
331.008581
 31
0.0
  0
CIRCLE
  5
7E
100
AcDbEntity
  8
M04
100
AcDbCircle
 10
499.357401
 20
318.359471
 30
0.0
 40
14.0
  0
ARC
  5
7F
100
AcDbEntity
  8
M01
100
AcDbCircle
 10
499.357401
 20
318.359471
 30
0.0
 40
17.0
100
AcDbArc
 50
96.756327
 51
83.277611
  0
CIRCLE
  5
80
100
AcDbEntity
  8
M01
100
AcDbCircle
 10
499.357401
 20
318.359471
 30
0.0
 40
12.7
  0
CIRCLE
  5
81
100
AcDbEntity
  8
M01
100
AcDbCircle
 10
499.357401
 20
318.359471
 30
0.0
 40
9.525
  0
CIRCLE
  5
82
100
AcDbEntity
  8
M03
100
AcDbCircle
 10
499.357401
 20
318.359471
 30
0.0
 40
4.0
  0
LINE
  5
83
100
AcDbEntity
  8
CENTRE
100
AcDbLine
 10
525.929421
 20
318.359471
 30
0.0
 11
472.785381
 21
318.359471
 31
0.0
  0
TEXT
  5
84
100
AcDbEntity
  8
TEXT
100
AcDbText
 10
608.96611
 20
325.759555
 30
0.0
 40
2.0
  1
PLV250-03625
 41
0.9
100
AcDbText
  0
TEXT
  5
86
100
AcDbEntity
  8
DIMS
 62
     2
100
AcDbText
 10
673.082731
 20
274.652422
 30
0.0
 40
2.0
  1
-0
100
AcDbText
  0
TEXT
  5
88
100
AcDbEntity
  8
DIMS
 62
     2
100
AcDbText
 10
673.082731
 20
277.737343
 30
0.0
 40
2.0
  1
+0.02
100
AcDbText
  0
TEXT
  5
89
100
AcDbEntity
  8
DIMS
 62
     2
100
AcDbText
 10
719.591776
 20
324.400906
 30
0.0
 40
2.0
  1
-0
 50
90.0
100
AcDbText
  0
TEXT
  5
8A
100
AcDbEntity
  8
DIMS
 62
     2
100
AcDbText
 10
716.506855
 20
324.400906
 30
0.0
 40
2.0
  1
+0.02
 50
90.0
100
AcDbText
  0
DIMENSION
  5
8B
100
AcDbEntity
  8
DIMS
100
AcDbDimension
  2
*D9
 10
721.630936
 20
301.359471
 30
0.0
 11
721.630936
 21
315.131801
 31
0.0
 12
38.1
 22
0.0
 32
0.0
 70
   128
  1
%%c<>
  3
DIM1
100
AcDbAlignedDimension
 13
685.680952
 23
335.359471
 33
0.0
 14
688.680952
 24
301.359471
 34
0.0
 50
90.0
100
AcDbRotatedDimension
1001
ACAD
1000
DSTYLE
1002
{
1070
   144
1040
1.0
1002
}
  0
DIMENSION
  5
99
100
AcDbEntity
  8
DIMS
100
AcDbDimension
  2
*D8
 10
592.080952
 20
252.051252
 30
0.0
 11
642.880952
 21
255.051252
 31
0.0
  1
<> REF.
  3
DIM1
100
AcDbAlignedDimension
 13
693.680952
 23
283.690666
 33
0.0
 14
592.080952
 24
316.359471
 34
0.0
100
AcDbRotatedDimension
1001
ACAD
1000
DSTYLE
1002
{
1070
   144
1040
1.0
1002
}
  0
DIMENSION
  5
A6
100
AcDbEntity
  8
DIMS
100
AcDbDimension
  2
*D7
 10
601.605952
 20
262.051252
 30
0.0
 11
647.643452
 21
265.836967
 31
0.0
  1
L1=<>(3.625")
  3
DIM1
100
AcDbAlignedDimension
 13
693.680952
 23
283.690666
 33
0.0
 14
601.605952
 24
309.334471
 34
0.0
100
AcDbRotatedDimension
1001
ACAD
1000
DSTYLE
1002
{
1070
   144
1040
1.0
1002
}
  0
DIMENSION
  5
B3
100
AcDbEntity
  8
DIMS
100
AcDbDimension
  2
*D6
 10
683.680952
 20
273.141563
 30
0.0
 11
663.562764
 21
273.141563
 31
0.0
 12
25.4
 22
0.0
 32
0.0
 70
   128
  3
DIM1
100
AcDbAlignedDimension
 13
693.680952
 23
283.690666
 33
0.0
 14
683.680952
 24
301.359471
 34
0.0
100
AcDbRotatedDimension
1001
ACAD
1000
DSTYLE
1002
{
1070
   144
1040
1.0
1002
}
  0
ARC
  5
C1
100
AcDbEntity
  8
M01
100
AcDbCircle
 10
699.670952
 20
381.080023
 30
0.0
 40
16.0
100
AcDbArc
 50
180.0
 51
190.0
  0
ARC
  5
C2
100
AcDbEntity
  8
M01
100
AcDbCircle
 10
665.680952
 20
366.531154
 30
0.0
 40
16.0
100
AcDbArc
 50
0.0
 51
10.0
  0
ARC
  5
C3
100
AcDbEntity
  8
M01
100
AcDbCircle
 10
665.675157
 20
366.564022
 30
0.0
 40
20.0
100
AcDbArc
 50
0.006712
 51
10.0
  0
ARC
  5
C4
100
AcDbEntity
  8
M01
100
AcDbCircle
 10
699.680952
 20
381.02331
 30
0.0
 40
20.0
100
AcDbArc
 50
180.0
 51
190.0
  0
LINE
  5
C5
100
AcDbEntity
  8
M01
100
AcDbLine
 10
683.670952
 20
416.223666
 30
0.0
 11
683.670952
 21
381.080023
 31
0.0
  0
LINE
  5
C6
100
AcDbEntity
  8
M01
100
AcDbLine
 10
679.680952
 20
416.223666
 30
0.0
 11
679.680952
 21
381.02331
 31
0.0
  0
LINE
  5
C7
100
AcDbEntity
  8
M01
100
AcDbLine
 10
685.371312
 20
370.036986
 30
0.0
 11
683.914028
 21
378.301652
 31
0.0
  0
LINE
  5
C8
100
AcDbEntity
  8
M01
100
AcDbLine
 10
681.437876
 20
369.309525
 30
0.0
 11
679.984797
 21
377.550346
 31
0.0
  0
LINE
  5
C9
100
AcDbEntity
  8
M01
100
AcDbLine
 10
683.930952
 20
445.779818
 30
0.0
 11
683.930952
 21
447.279818
 31
0.0
  0
LINE
  5
CA
100
AcDbEntity
  8
M01
100
AcDbLine
 10
684.680952
 20
444.48078
 30
0.0
 11
684.680952
 21
445.98078
 31
0.0
  0
LINE
  5
CB
100
AcDbEntity
  8
M01
100
AcDbLine
 10
678.680952
 20
444.373085
 30
0.0
 11
684.680952
 21
445.98078
 31
0.0
  0
LINE
  5
CC
100
AcDbEntity
  8
M01
100
AcDbLine
 10
683.721388
 20
444.223666
 30
0.0
 11
684.680952
 21
444.48078
 31
0.0
  0
LINE
  5
CD
100
AcDbEntity
  8
M01
100
AcDbLine
 10
678.680952
 20
444.223666
 30
0.0
 11
678.680952
 21
444.373085
 31
0.0
  0
LINE
  5
CE
100
AcDbEntity
  8
M01
100
AcDbLine
 10
679.430952
 20
468.574047
 30
0.0
 11
679.430952
 21
469.311328
 31
0.0
  0
LINE
  5
CF
100
AcDbEntity
  8
M01
100
AcDbLine
 10
678.680952
 20
466.873085
 30
0.0
 11
678.680952
 21
468.373085
 31
0.0
  0
LINE
  5
D0
100
AcDbEntity
  8
M01
100
AcDbLine
 10
679.430952
 20
465.574047
 30
0.0
 11
679.430952
 21
467.074047
 31
0.0
  0
LINE
  5
D1
100
AcDbEntity
  8
M01
100
AcDbLine
 10
678.680952
 20
463.873085
 30
0.0
 11
678.680952
 21
465.373085
 31
0.0
  0
LINE
  5
D2
100
AcDbEntity
  8
M01
100
AcDbLine
 10
679.430952
 20
462.574047
 30
0.0
 11
679.430952
 21
464.074047
 31
0.0
  0
LINE
  5
D3
100
AcDbEntity
  8
M01
100
AcDbLine
 10
679.430952
 20
459.574047
 30
0.0
 11
679.430952
 21
461.074047
 31
0.0
  0
LINE
  5
D4
100
AcDbEntity
  8
M01
100
AcDbLine
 10
678.680952
 20
460.873085
 30
0.0
 11
678.680952
 21
462.373085
 31
0.0
  0
LINE
  5
D5
100
AcDbEntity
  8
M01
100
AcDbLine
 10
678.680952
 20
457.873085
 30
0.0
 11
678.680952
 21
459.373085
 31
0.0
  0
LINE
  5
D6
100
AcDbEntity
  8
M01
100
AcDbLine
 10
679.430952
 20
456.574047
 30
0.0
 11
679.430952
 21
458.074047
 31
0.0
  0
LINE
  5
D7
100
AcDbEntity
  8
M01
100
AcDbLine
 10
678.680952
 20
454.873085
 30
0.0
 11
678.680952
 21
456.373085
 31
0.0
  0
LINE
  5
D8
100
AcDbEntity
  8
M01
100
AcDbLine
 10
679.430952
 20
453.574047
 30
0.0
 11
679.430952
 21
455.074047
 31
0.0
  0
LINE
  5
D9
100
AcDbEntity
  8
M01
100
AcDbLine
 10
678.680952
 20
451.873085
 30
0.0
 11
678.680952
 21
453.373085
 31
0.0
  0
LINE
  5
DA
100
AcDbEntity
  8
M01
100
AcDbLine
 10
679.430952
 20
450.574047
 30
0.0
 11
679.430952
 21
452.074047
 31
0.0
  0
LINE
  5
DB
100
AcDbEntity
  8
M01
100
AcDbLine
 10
678.680952
 20
448.873085
 30
0.0
 11
678.680952
 21
450.373085
 31
0.0
  0
LINE
  5
DC
100
AcDbEntity
  8
M01
100
AcDbLine
 10
679.430952
 20
447.574047
 30
0.0
 11
679.430952
 21
449.074047
 31
0.0
  0
LINE
  5
DD
100
AcDbEntity
  8
M01
100
AcDbLine
 10
683.930952
 20
448.779818
 30
0.0
 11
683.930952
 21
450.279818
 31
0.0
  0
LINE
  5
DE
100
AcDbEntity
  8
M01
100
AcDbLine
 10
683.930952
 20
451.779818
 30
0.0
 11
683.930952
 21
453.279818
 31
0.0
  0
LINE
  5
DF
100
AcDbEntity
  8
M01
100
AcDbLine
 10
683.930952
 20
454.779818
 30
0.0
 11
683.930952
 21
456.279818
 31
0.0
  0
LINE
  5
E0
100
AcDbEntity
  8
M01
100
AcDbLine
 10
683.930952
 20
457.779818
 30
0.0
 11
683.930952
 21
459.279818
 31
0.0
  0
LINE
  5
E1
100
AcDbEntity
  8
M01
100
AcDbLine
 10
683.930952
 20
460.779818
 30
0.0
 11
683.930952
 21
462.279818
 31
0.0
  0
LINE
  5
E2
100
AcDbEntity
  8
M01
100
AcDbLine
 10
683.930952
 20
463.779818
 30
0.0
 11
683.930952
 21
465.279818
 31
0.0
  0
LINE
  5
E3
100
AcDbEntity
  8
M01
100
AcDbLine
 10
683.930952
 20
466.779818
 30
0.0
 11
683.930952
 21
468.279818
 31
0.0
  0
LINE
  5
E4
100
AcDbEntity
  8
M01
100
AcDbLine
 10
683.930952
 20
469.779818
 30
0.0
 11
683.930952
 21
470.81632
 31
0.0
  0
LINE
  5
E5
100
AcDbEntity
  8
M01
100
AcDbLine
 10
684.680952
 20
468.48078
 30
0.0
 11
684.680952
 21
469.98078
 31
0.0
  0
LINE
  5
E6
100
AcDbEntity
  8
M01
100
AcDbLine
 10
684.680952
 20
465.48078
 30
0.0
 11
684.680952
 21
466.98078
 31
0.0
  0
LINE
  5
E7
100
AcDbEntity
  8
M01
100
AcDbLine
 10
684.680952
 20
462.48078
 30
0.0
 11
684.680952
 21
463.98078
 31
0.0
  0
LINE
  5
E8
100
AcDbEntity
  8
M01
100
AcDbLine
 10
684.680952
 20
459.48078
 30
0.0
 11
684.680952
 21
460.98078
 31
0.0
  0
LINE
  5
E9
100
AcDbEntity
  8
M01
100
AcDbLine
 10
684.680952
 20
456.48078
 30
0.0
 11
684.680952
 21
457.98078
 31
0.0
  0
LINE
  5
EA
100
AcDbEntity
  8
M01
100
AcDbLine
 10
684.680952
 20
453.48078
 30
0.0
 11
684.680952
 21
454.98078
 31
0.0
  0
LINE
  5
EB
100
AcDbEntity
  8
M01
100
AcDbLine
 10
684.680952
 20
450.48078
 30
0.0
 11
684.680952
 21
451.98078
 31
0.0
  0
LINE
  5
EC
100
AcDbEntity
  8
M01
100
AcDbLine
 10
683.930952
 20
444.223666
 30
0.0
 11
683.930952
 21
444.279818
 31
0.0
  0
LINE
  5
ED
100
AcDbEntity
  8
M01
100
AcDbLine
 10
684.680952
 20
447.48078
 30
0.0
 11
684.680952
 21
448.98078
 31
0.0
  0
LINE
  5
EE
100
AcDbEntity
  8
M01
100
AcDbLine
 10
678.680952
 20
468.373085
 30
0.0
 11
684.680952
 21
469.98078
 31
0.0
  0
LINE
  5
EF
100
AcDbEntity
  8
M01
100
AcDbLine
 10
678.680952
 20
466.873085
 30
0.0
 11
684.680952
 21
468.48078
 31
0.0
  0
LINE
  5
F0
100
AcDbEntity
  8
M01
100
AcDbLine
 10
678.680952
 20
465.373085
 30
0.0
 11
684.680952
 21
466.98078
 31
0.0
  0
LINE
  5
F1
100
AcDbEntity
  8
M01
100
AcDbLine
 10
678.680952
 20
463.873085
 30
0.0
 11
684.680952
 21
465.48078
 31
0.0
  0
LINE
  5
F2
100
AcDbEntity
  8
M01
100
AcDbLine
 10
678.680952
 20
462.373085
 30
0.0
 11
684.680952
 21
463.98078
 31
0.0
  0
LINE
  5
F3
100
AcDbEntity
  8
M01
100
AcDbLine
 10
678.680952
 20
460.873085
 30
0.0
 11
684.680952
 21
462.48078
 31
0.0
  0
LINE
  5
F4
100
AcDbEntity
  8
M01
100
AcDbLine
 10
678.680952
 20
459.373085
 30
0.0
 11
684.680952
 21
460.98078
 31
0.0
  0
LINE
  5
F5
100
AcDbEntity
  8
M01
100
AcDbLine
 10
678.680952
 20
457.873085
 30
0.0
 11
684.680952
 21
459.48078
 31
0.0
  0
LINE
  5
F6
100
AcDbEntity
  8
M01
100
AcDbLine
 10
678.680952
 20
456.373085
 30
0.0
 11
684.680952
 21
457.98078
 31
0.0
  0
LINE
  5
F7
100
AcDbEntity
  8
M01
100
AcDbLine
 10
678.680952
 20
454.873085
 30
0.0
 11
684.680952
 21
456.48078
 31
0.0
  0
LINE
  5
F8
100
AcDbEntity
  8
M01
100
AcDbLine
 10
678.680952
 20
453.373085
 30
0.0
 11
684.680952
 21
454.98078
 31
0.0
  0
LINE
  5
F9
100
AcDbEntity
  8
M01
100
AcDbLine
 10
678.680952
 20
451.873085
 30
0.0
 11
684.680952
 21
453.48078
 31
0.0
  0
LINE
  5
FA
100
AcDbEntity
  8
M01
100
AcDbLine
 10
678.680952
 20
450.373085
 30
0.0
 11
684.680952
 21
451.98078
 31
0.0
  0
LINE
  5
FB
100
AcDbEntity
  8
M01
100
AcDbLine
 10
678.680952
 20
448.873085
 30
0.0
 11
684.680952
 21
450.48078
 31
0.0
  0
LINE
  5
FC
100
AcDbEntity
  8
M01
100
AcDbLine
 10
678.680952
 20
447.373085
 30
0.0
 11
684.680952
 21
448.98078
 31
0.0
  0
LINE
  5
FD
100
AcDbEntity
  8
M01
100
AcDbLine
 10
678.680952
 20
445.873085
 30
0.0
 11
684.680952
 21
447.48078
 31
0.0
  0
LINE
  5
FE
100
AcDbEntity
  8
M01
100
AcDbLine
 10
679.430952
 20
444.574047
 30
0.0
 11
679.430952
 21
446.074047
 31
0.0
  0
LINE
  5
FF
100
AcDbEntity
  8
M01
100
AcDbLine
 10
678.680952
 20
445.873085
 30
0.0
 11
678.680952
 21
447.373085
 31
0.0
  0
LINE
  5
100
100
AcDbEntity
  8
CENTRE
 48
0.7
100
AcDbLine
 10
681.680952
 20
399.237701
 30
0.0
 11
681.680952
 21
478.973961
 31
0.0
  0
LINE
  5
101
100
AcDbEntity
  8
M01
100
AcDbLine
 10
685.680425
 20
335.359471
 30
0.0
 11
685.675157
 21
366.566365
 31
0.0
  0
LINE
  5
102
100
AcDbEntity
  8
M01
100
AcDbLine
 10
681.680952
 20
331.059471
 30
0.0
 11
681.680952
 21
366.531154
 31
0.0
  0
LINE
  5
103
100
AcDbEntity
  8
M01
100
AcDbLine
 10
685.180952
 20
434.223666
 30
0.0
 11
678.180952
 21
434.223666
 31
0.0
  0
LINE
  5
104
100
AcDbEntity
  8
M01
100
AcDbLine
 10
678.680952
 20
426.148409
 30
0.0
 11
684.680952
 21
426.148409
 31
0.0
  0
LINE
  5
105
100
AcDbEntity
  8
M01
100
AcDbLine
 10
684.680952
 20
426.148409
 30
0.0
 11
684.680952
 21
434.223666
 31
0.0
  0
LINE
  5
106
100
AcDbEntity
  8
M01
100
AcDbLine
 10
678.680952
 20
426.148409
 30
0.0
 11
678.680952
 21
434.223666
 31
0.0
  0
LINE
  5
107
100
AcDbEntity
  8
M01
100
AcDbLine
 10
679.680952
 20
416.223666
 30
0.0
 11
678.680952
 21
426.148409
 31
0.0
  0
LINE
  5
108
100
AcDbEntity
  8
M01
100
AcDbLine
 10
678.180952
 20
434.223666
 30
0.0
 11
678.180952
 21
444.223666
 31
0.0
  0
LINE
  5
109
100
AcDbEntity
  8
M01
100
AcDbLine
 10
683.670952
 20
416.223666
 30
0.0
 11
684.680952
 21
426.148409
 31
0.0
  0
LINE
  5
10A
100
AcDbEntity
  8
M01
100
AcDbLine
 10
685.180952
 20
434.223666
 30
0.0
 11
685.180952
 21
444.223666
 31
0.0
  0
LINE
  5
10B
100
AcDbEntity
  8
M01
100
AcDbLine
 10
685.180952
 20
444.223666
 30
0.0
 11
678.180952
 21
444.223666
 31
0.0
  0
LINE
  5
10C
100
AcDbEntity
  8
M01
100
AcDbLine
 10
683.670952
 20
416.223666
 30
0.0
 11
679.680952
 21
416.223666
 31
0.0
  0
LINE
  5
10D
100
AcDbEntity
  8
M04
 48
0.7
100
AcDbLine
 10
611.605952
 20
304.359471
 30
0.0
 11
683.680952
 21
304.359471
 31
0.0
  0
LINE
  5
10E
100
AcDbEntity
  8
M03
 48
0.7
100
AcDbLine
 10
601.605952
 20
314.359471
 30
0.0
 11
692.205973
 21
314.359471
 31
0.0
  0
LINE
  5
10F
100
AcDbEntity
  8
M04
 48
0.7
100
AcDbLine
 10
611.605952
 20
332.359471
 30
0.0
 11
676.680952
 21
332.359471
 31
0.0
  0
LINE
  5
110
100
AcDbEntity
  8
CENTRE
 48
0.7
100
AcDbLine
 10
688.680952
 20
292.936713
 30
0.0
 11
688.680952
 21
305.740144
 31
0.0
  0
LINE
  5
111
100
AcDbEntity
  8
M03
 48
0.7
100
AcDbLine
 10
601.605952
 20
322.359471
 30
0.0
 11
692.205973
 21
322.359471
 31
0.0
  0
LINE
  5
112
100
AcDbEntity
  8
M04
100
AcDbLine
 10
693.680952
 20
302.109471
 30
0.0
 11
693.680952
 21
283.690666
 31
0.0
  0
LINE
  5
113
100
AcDbEntity
  8
M04
100
AcDbLine
 10
685.680952
 20
301.359471
 30
0.0
 11
688.680952
 21
301.359471
 31
0.0
  0
LINE
  5
114
100
AcDbEntity
  8
M04
100
AcDbLine
 10
684.430952
 20
301.359471
 30
0.0
 11
683.680952
 21
301.359471
 31
0.0
  0
LINE
  5
115
100
AcDbEntity
  8
M04
100
AcDbLine
 10
686.680952
 20
301.359471
 30
0.0
 11
686.680952
 21
294.359471
 31
0.0
  0
LINE
  5
116
100
AcDbEntity
  8
M04
100
AcDbLine
 10
683.680952
 20
302.109471
 30
0.0
 11
683.680952
 21
301.359471
 31
0.0
  0
LINE
  5
117
100
AcDbEntity
  8
M04
100
AcDbLine
 10
676.680952
 20
478.055163
 30
0.0
 11
676.680952
 21
331.059471
 31
0.0
  0
LINE
  5
118
100
AcDbEntity
  8
M04
100
AcDbLine
 10
693.680952
 20
334.609471
 30
0.0
 11
693.680952
 21
351.609471
 31
0.0
  0
MTEXT
  5
119
100
AcDbEntity
  8
0
  6
BYBLOCK
 62
     2
100
AcDbMText
 10
554.300043
 20
336.369276
 30
0.0
 40
3.0
 41
0.0
 71
     5
 72
     1
  1
GATE INSERTION POINT
  0
SOLID
  5
11A
100
AcDbEntity
  8
0
  6
BYBLOCK
 62
     4
100
AcDbTrace
 10
590.914774
 20
322.476815
 30
0.0
 11
589.991054
 21
322.093747
 31
0.0
 12
591.602117
 22
319.514121
 32
0.0
 13
591.602117
 23
319.514121
 33
0.0
  0
LINE
  5
11B
100
AcDbEntity
  8
0
  6
BYBLOCK
 62
     4
100
AcDbLine
 10
584.688505
 20
336.369276
 30
0.0
 11
581.688505
 21
336.369276
 31
0.0
  0
LINE
  5
11C
100
AcDbEntity
  8
0
  6
BYBLOCK
 62
     4
100
AcDbLine
 10
590.452914
 20
322.285281
 30
0.0
 11
584.688505
 21
336.369276
 31
0.0
  0
CIRCLE
  5
11D
100
AcDbEntity
  8
M04
100
AcDbCircle
 10
592.080952
 20
318.359471
 30
0.0
 40
1.25
  0
LINE
  5
11E
100
AcDbEntity
  8
M01
100
AcDbLine
 10
693.180952
 20
335.109471
 30
0.0
 11
693.680952
 21
334.609471
 31
0.0
  0
LINE
  5
11F
100
AcDbEntity
  8
M01
100
AcDbLine
 10
690.680952
 20
335.109471
 30
0.0
 11
693.180952
 21
335.109471
 31
0.0
  0
LINE
  5
120
100
AcDbEntity
  8
M01
100
AcDbLine
 10
686.680952
 20
335.109471
 30
0.0
 11
685.680952
 21
335.109471
 31
0.0
  0
LINE
  5
121
100
AcDbEntity
  8
M01
100
AcDbLine
 10
686.680952
 20
335.109471
 30
0.0
 11
688.846016
 21
333.859471
 31
0.0
  0
LINE
  5
122
100
AcDbEntity
  8
M01
100
AcDbLine
 10
690.680952
 20
333.859471
 30
0.0
 11
688.846016
 21
333.859471
 31
0.0
  0
LINE
  5
123
100
AcDbEntity
  8
M01
100
AcDbLine
 10
693.180952
 20
301.609471
 30
0.0
 11
693.680952
 21
302.109471
 31
0.0
  0
LINE
  5
124
100
AcDbEntity
  8
M01
100
AcDbLine
 10
690.680952
 20
301.609471
 30
0.0
 11
693.180952
 21
301.609471
 31
0.0
  0
LINE
  5
125
100
AcDbEntity
  8
M01
100
AcDbLine
 10
686.680952
 20
301.609471
 30
0.0
 11
685.680952
 21
301.609471
 31
0.0
  0
LINE
  5
126
100
AcDbEntity
  8
M01
100
AcDbLine
 10
686.680952
 20
301.609471
 30
0.0
 11
688.846016
 21
302.859471
 31
0.0
  0
LINE
  5
127
100
AcDbEntity
  8
M01
100
AcDbLine
 10
690.680952
 20
302.859471
 30
0.0
 11
688.846016
 21
302.859471
 31
0.0
  0
LINE
  5
128
100
AcDbEntity
  8
M01
100
AcDbLine
 10
690.180952
 20
296.306979
 30
0.0
 11
689.74794
 21
295.556979
 31
0.0
  0
LINE
  5
129
100
AcDbEntity
  8
M01
100
AcDbLine
 10
687.180952
 20
296.306979
 30
0.0
 11
687.613965
 21
295.556979
 31
0.0
  0
LINE
  5
12A
100
AcDbEntity
  8
M01
100
AcDbLine
 10
687.180952
 20
296.306979
 30
0.0
 11
690.180952
 21
296.306979
 31
0.0
  0
LINE
  5
12B
100
AcDbEntity
  8
M01
100
AcDbLine
 10
687.613965
 20
295.556979
 30
0.0
 11
689.74794
 21
295.556979
 31
0.0
  0
LINE
  5
12C
100
AcDbEntity
  8
M01
100
AcDbLine
 10
690.180952
 20
302.859471
 30
0.0
 11
690.180952
 21
296.306979
 31
0.0
  0
LINE
  5
12D
100
AcDbEntity
  8
M01
100
AcDbLine
 10
687.180952
 20
301.898146
 30
0.0
 11
687.180952
 21
296.306979
 31
0.0
  0
LINE
  5
12E
100
AcDbEntity
  8
M01
100
AcDbLine
 10
693.680952
 20
334.609471
 30
0.0
 11
693.680952
 21
302.109471
 31
0.0
  0
LINE
  5
12F
100
AcDbEntity
  8
M01
100
AcDbLine
 10
685.680952
 20
335.359471
 30
0.0
 11
685.680952
 21
301.359471
 31
0.0
  0
LINE
  5
130
100
AcDbEntity
  8
M01
100
AcDbLine
 10
686.680952
 20
335.109471
 30
0.0
 11
686.680952
 21
301.609471
 31
0.0
  0
LINE
  5
131
100
AcDbEntity
  8
M01
100
AcDbLine
 10
690.680952
 20
335.109471
 30
0.0
 11
690.680952
 21
301.609471
 31
0.0
  0
LINE
  5
132
100
AcDbEntity
  8
M01
100
AcDbLine
 10
693.180952
 20
335.109471
 30
0.0
 11
693.180952
 21
301.609471
 31
0.0
  0
LINE
  5
133
100
AcDbEntity
  8
M01
100
AcDbLine
 10
688.846016
 20
333.859471
 30
0.0
 11
688.846016
 21
302.859471
 31
0.0
  0
LINE
  5
134
100
AcDbEntity
  8
M01
100
AcDbLine
 10
683.680952
 20
334.609471
 30
0.0
 11
684.430952
 21
335.359471
 31
0.0
  0
LINE
  5
135
100
AcDbEntity
  8
M01
100
AcDbLine
 10
603.875952
 20
327.884471
 30
0.0
 11
604.375952
 21
327.884471
 31
0.0
  0
LINE
  5
136
100
AcDbEntity
  8
M01
100
AcDbLine
 10
602.105952
 20
327.884471
 30
0.0
 11
602.605952
 21
327.884471
 31
0.0
  0
LINE
  5
137
100
AcDbEntity
  8
M01
100
AcDbLine
 10
601.605952
 20
327.384471
 30
0.0
 11
602.105952
 21
327.884471
 31
0.0
  0
LINE
  5
138
100
AcDbEntity
  8
M01
100
AcDbLine
 10
602.605952
 20
327.384471
 30
0.0
 11
603.875952
 21
327.384471
 31
0.0
  0
LINE
  5
139
100
AcDbEntity
  8
DIMS
100
AcDbLine
 10
592.080952
 20
320.359471
 30
0.0
 11
592.080952
 21
316.359471
 31
0.0
  0
LINE
  5
13A
100
AcDbEntity
  8
M01
100
AcDbLine
 10
604.375952
 20
331.059471
 30
0.0
 11
683.680952
 21
331.059471
 31
0.0
  0
LINE
  5
13B
100
AcDbEntity
  8
M01
100
AcDbLine
 10
683.680952
 20
302.109471
 30
0.0
 11
684.430952
 21
301.359471
 31
0.0
  0
LINE
  5
13C
100
AcDbEntity
  8
M01
100
AcDbLine
 10
603.875952
 20
308.834471
 30
0.0
 11
604.375952
 21
308.834471
 31
0.0
  0
LINE
  5
13D
100
AcDbEntity
  8
M01
100
AcDbLine
 10
602.105952
 20
308.834471
 30
0.0
 11
602.605952
 21
308.834471
 31
0.0
  0
LINE
  5
13E
100
AcDbEntity
  8
M01
100
AcDbLine
 10
601.605952
 20
309.334471
 30
0.0
 11
602.105952
 21
308.834471
 31
0.0
  0
LINE
  5
13F
100
AcDbEntity
  8
M01
100
AcDbLine
 10
602.605952
 20
309.334471
 30
0.0
 11
603.875952
 21
309.334471
 31
0.0
  0
LINE
  5
140
100
AcDbEntity
  8
M01
100
AcDbLine
 10
604.375952
 20
305.659471
 30
0.0
 11
683.680952
 21
305.659471
 31
0.0
  0
LINE
  5
141
100
AcDbEntity
  8
M01
100
AcDbLine
 10
683.680952
 20
334.609471
 30
0.0
 11
683.680952
 21
302.109471
 31
0.0
  0
LINE
  5
142
100
AcDbEntity
  8
M01
100
AcDbLine
 10
601.605952
 20
327.384471
 30
0.0
 11
601.605952
 21
309.334471
 31
0.0
  0
LINE
  5
143
100
AcDbEntity
  8
M01
100
AcDbLine
 10
602.105952
 20
327.884471
 30
0.0
 11
602.105952
 21
308.834471
 31
0.0
  0
LINE
  5
144
100
AcDbEntity
  8
M01
100
AcDbLine
 10
684.430952
 20
335.359471
 30
0.0
 11
684.430952
 21
301.359471
 31
0.0
  0
LINE
  5
145
100
AcDbEntity
  8
M01
100
AcDbLine
 10
602.605952
 20
327.884471
 30
0.0
 11
602.605952
 21
308.834471
 31
0.0
  0
LINE
  5
146
100
AcDbEntity
  8
M01
100
AcDbLine
 10
603.875952
 20
327.884471
 30
0.0
 11
603.875952
 21
308.834471
 31
0.0
  0
LINE
  5
147
100
AcDbEntity
  8
M01
100
AcDbLine
 10
604.375952
 20
331.059471
 30
0.0
 11
604.375952
 21
305.659471
 31
0.0
  0
LINE
  5
148
100
AcDbEntity
  8
CENTRE
 48
0.7
100
AcDbLine
 10
587.080952
 20
318.359471
 30
0.0
 11
707.760558
 21
318.359471
 31
0.0
  0
LINE
  5
149
100
AcDbEntity
  8
M01
100
AcDbLine
 10
684.430952
 20
335.359471
 30
0.0
 11
685.680952
 21
335.359471
 31
0.0
  0
LINE
  5
14A
100
AcDbEntity
  8
M01
100
AcDbLine
 10
684.430952
 20
301.359471
 30
0.0
 11
685.680952
 21
301.359471
 31
0.0
  0
DIMENSION
  5
14B
100
AcDbEntity
  8
DIMS
100
AcDbDimension
  2
*D5
 10
464.59112
 20
567.411941
 30
0.0
 11
461.59112
 21
577.411941
 31
0.0
 12
-88.461757
 22
0.0
 32
0.0
  3
DIM1
100
AcDbAlignedDimension
 13
472.785381
 23
587.411941
 33
0.0
 14
493.552073
 24
567.411941
 34
0.0
 50
90.0
100
AcDbRotatedDimension
1001
ACAD
1000
DSTYLE
1002
{
1070
   144
1040
1.0
1002
}
  0
LINE
  5
158
100
AcDbEntity
  8
M01
100
AcDbLine
 10
500.857401
 20
565.359449
 30
0.0
 11
500.424388
 21
564.609449
 31
0.0
  0
LINE
  5
159
100
AcDbEntity
  8
M01
100
AcDbLine
 10
497.857401
 20
565.359449
 30
0.0
 11
498.290414
 21
564.609449
 31
0.0
  0
LINE
  5
15A
100
AcDbEntity
  8
M01
100
AcDbLine
 10
497.857401
 20
565.359449
 30
0.0
 11
500.857401
 21
565.359449
 31
0.0
  0
LINE
  5
15B
100
AcDbEntity
  8
M01
100
AcDbLine
 10
498.290414
 20
564.609449
 30
0.0
 11
500.424388
 21
564.609449
 31
0.0
  0
LINE
  5
15C
100
AcDbEntity
  8
DIMS
 62
     4
100
AcDbLine
 10
493.552073
 20
567.411941
 30
0.0
 11
499.162729
 21
567.411941
 31
0.0
  0
LINE
  5
15D
100
AcDbEntity
  8
DIMS
 62
     4
100
AcDbLine
 10
499.552073
 20
567.411941
 30
0.0
 11
505.162729
 21
567.411941
 31
0.0
  0
POINT
  5
15E
100
AcDbEntity
  8
DEFPOINTS
  6
BYBLOCK
 62
     0
100
AcDbPoint
 10
495.319009
 20
566.32947
 30
0.0
  0
MTEXT
  5
15F
100
AcDbEntity
  8
0
  6
BYBLOCK
 62
     2
100
AcDbMText
 10
443.961246
 20
551.662034
 30
0.0
 40
3.0
 41
0.0
 71
     5
 72
     1
  1
2 DOWELS %%C3.00 x 3.5 HIGH
  0
SOLID
  5
160
100
AcDbEntity
  8
0
  6
BYBLOCK
 62
     4
100
AcDbTrace
 10
492.881403
 20
564.510659
 30
0.0
 11
493.60305
 21
563.818398
 31
0.0
 12
495.319009
 22
566.32947
 32
0.0
 13
495.319009
 23
566.32947
 33
0.0
  0
LINE
  5
161
100
AcDbEntity
  8
0
  6
BYBLOCK
 62
     4
100
AcDbLine
 10
481.248842
 20
551.662034
 30
0.0
 11
478.248842
 21
551.662034
 31
0.0
  0
LINE
  5
162
100
AcDbEntity
  8
0
  6
BYBLOCK
 62
     4
100
AcDbLine
 10
493.242226
 20
564.164529
 30
0.0
 11
481.248842
 21
551.662034
 31
0.0
  0
DIMENSION
  5
163
100
AcDbEntity
  8
DIMS
100
AcDbDimension
  2
*D4
 10
502.357401
 20
548.536368
 30
0.0
 11
514.42883
 21
551.536368
 31
0.0
 12
0.936602
 22
-4.451227
 32
0.0
  3
DIM1
100
AcDbAlignedDimension
 13
496.357401
 23
564.606613
 33
0.0
 14
502.357401
 24
564.606613
 34
0.0
100
AcDbRotatedDimension
1001
ACAD
1000
DSTYLE
1002
{
1070
   144
1040
1.0
1002
}
  0
LINE
  5
171
100
AcDbEntity
  8
DIMS
 62
     4
100
AcDbLine
 10
496.357401
 20
564.606613
 30
0.0
 11
496.357401
 21
570.217269
 31
0.0
  0
LWPOLYLINE
  5
172
100
AcDbEntity
  8
M01
100
AcDbPolyline
 90
        2
 70
     0
 43
1.5
 10
496.357401
 20
568.161941
 42
0.414214
 10
495.607401
 20
567.411941
  0
LWPOLYLINE
  5
173
100
AcDbEntity
  8
M01
100
AcDbPolyline
 90
        2
 70
     0
 43
1.5
 10
496.357401
 20
566.661941
 42
0.414214
 10
497.107401
 20
567.411941
  0
CIRCLE
  5
174
100
AcDbEntity
  8
M01
100
AcDbCircle
 10
496.357401
 20
567.411941
 30
0.0
 40
1.5
  0
LINE
  5
175
100
AcDbEntity
  8
DIMS
 62
     4
100
AcDbLine
 10
502.357401
 20
564.606613
 30
0.0
 11
502.357401
 21
570.217269
 31
0.0
  0
LWPOLYLINE
  5
176
100
AcDbEntity
  8
M01
100
AcDbPolyline
 90
        2
 70
     0
 43
1.5
 10
502.357401
 20
568.161941
 42
0.414214
 10
501.607401
 20
567.411941
  0
LWPOLYLINE
  5
177
100
AcDbEntity
  8
M01
100
AcDbPolyline
 90
        2
 70
     0
 43
1.5
 10
502.357401
 20
566.661941
 42
0.414214
 10
503.107401
 20
567.411941
  0
CIRCLE
  5
178
100
AcDbEntity
  8
M01
100
AcDbCircle
 10
502.357401
 20
567.411941
 30
0.0
 40
1.5
  0
LINE
  5
179
100
AcDbEntity
  8
M01
100
AcDbLine
 10
497.857401
 20
570.478247
 30
0.0
 11
497.857401
 21
565.359449
 31
0.0
  0
LINE
  5
17A
100
AcDbEntity
  8
M01
100
AcDbLine
 10
500.857401
 20
570.478247
 30
0.0
 11
500.857401
 21
565.359449
 31
0.0
  0
LINE
  5
17B
100
AcDbEntity
  8
M01
100
AcDbLine
 10
501.347401
 20
685.276136
 30
0.0
 11
501.347401
 21
599.955062
 31
0.0
  0
LINE
  5
17C
100
AcDbEntity
  8
M01
100
AcDbLine
 10
497.357401
 20
685.276136
 30
0.0
 11
497.357401
 21
599.953472
 31
0.0
  0
LINE
  5
17D
100
AcDbEntity
  8
M01
100
AcDbLine
 10
501.607401
 20
714.832288
 30
0.0
 11
501.607401
 21
716.332288
 31
0.0
  0
LINE
  5
17E
100
AcDbEntity
  8
M01
100
AcDbLine
 10
502.357401
 20
713.53325
 30
0.0
 11
502.357401
 21
715.03325
 31
0.0
  0
LINE
  5
17F
100
AcDbEntity
  8
M01
100
AcDbLine
 10
496.357401
 20
713.425555
 30
0.0
 11
502.357401
 21
715.03325
 31
0.0
  0
LINE
  5
180
100
AcDbEntity
  8
M01
100
AcDbLine
 10
501.397837
 20
713.276136
 30
0.0
 11
502.357401
 21
713.53325
 31
0.0
  0
LINE
  5
181
100
AcDbEntity
  8
M01
100
AcDbLine
 10
496.357401
 20
713.276136
 30
0.0
 11
496.357401
 21
713.425555
 31
0.0
  0
LINE
  5
182
100
AcDbEntity
  8
M01
100
AcDbLine
 10
497.107401
 20
737.626517
 30
0.0
 11
497.107401
 21
738.363798
 31
0.0
  0
LINE
  5
183
100
AcDbEntity
  8
M01
100
AcDbLine
 10
496.357401
 20
735.925555
 30
0.0
 11
496.357401
 21
737.425555
 31
0.0
  0
LINE
  5
184
100
AcDbEntity
  8
M01
100
AcDbLine
 10
497.107401
 20
734.626517
 30
0.0
 11
497.107401
 21
736.126517
 31
0.0
  0
LINE
  5
185
100
AcDbEntity
  8
M01
100
AcDbLine
 10
496.357401
 20
732.925555
 30
0.0
 11
496.357401
 21
734.425555
 31
0.0
  0
LINE
  5
186
100
AcDbEntity
  8
M01
100
AcDbLine
 10
497.107401
 20
731.626517
 30
0.0
 11
497.107401
 21
733.126517
 31
0.0
  0
LINE
  5
187
100
AcDbEntity
  8
M01
100
AcDbLine
 10
497.107401
 20
728.626517
 30
0.0
 11
497.107401
 21
730.126517
 31
0.0
  0
LINE
  5
188
100
AcDbEntity
  8
M01
100
AcDbLine
 10
496.357401
 20
729.925555
 30
0.0
 11
496.357401
 21
731.425555
 31
0.0
  0
LINE
  5
189
100
AcDbEntity
  8
M01
100
AcDbLine
 10
496.357401
 20
726.925555
 30
0.0
 11
496.357401
 21
728.425555
 31
0.0
  0
LINE
  5
18A
100
AcDbEntity
  8
M01
100
AcDbLine
 10
497.107401
 20
725.626517
 30
0.0
 11
497.107401
 21
727.126517
 31
0.0
  0
LINE
  5
18B
100
AcDbEntity
  8
M01
100
AcDbLine
 10
496.357401
 20
723.925555
 30
0.0
 11
496.357401
 21
725.425555
 31
0.0
  0
LINE
  5
18C
100
AcDbEntity
  8
M01
100
AcDbLine
 10
497.107401
 20
722.626517
 30
0.0
 11
497.107401
 21
724.126517
 31
0.0
  0
LINE
  5
18D
100
AcDbEntity
  8
M01
100
AcDbLine
 10
496.357401
 20
720.925555
 30
0.0
 11
496.357401
 21
722.425555
 31
0.0
  0
LINE
  5
18E
100
AcDbEntity
  8
M01
100
AcDbLine
 10
497.107401
 20
719.626517
 30
0.0
 11
497.107401
 21
721.126517
 31
0.0
  0
LINE
  5
18F
100
AcDbEntity
  8
M01
100
AcDbLine
 10
496.357401
 20
717.925555
 30
0.0
 11
496.357401
 21
719.425555
 31
0.0
  0
LINE
  5
190
100
AcDbEntity
  8
M01
100
AcDbLine
 10
497.107401
 20
716.626517
 30
0.0
 11
497.107401
 21
718.126517
 31
0.0
  0
LINE
  5
191
100
AcDbEntity
  8
M01
100
AcDbLine
 10
501.607401
 20
717.832288
 30
0.0
 11
501.607401
 21
719.332288
 31
0.0
  0
LINE
  5
192
100
AcDbEntity
  8
M01
100
AcDbLine
 10
501.607401
 20
720.832288
 30
0.0
 11
501.607401
 21
722.332288
 31
0.0
  0
LINE
  5
193
100
AcDbEntity
  8
M01
100
AcDbLine
 10
501.607401
 20
723.832288
 30
0.0
 11
501.607401
 21
725.332288
 31
0.0
  0
LINE
  5
194
100
AcDbEntity
  8
M01
100
AcDbLine
 10
501.607401
 20
726.832288
 30
0.0
 11
501.607401
 21
728.332288
 31
0.0
  0
LINE
  5
195
100
AcDbEntity
  8
M01
100
AcDbLine
 10
501.607401
 20
729.832288
 30
0.0
 11
501.607401
 21
731.332288
 31
0.0
  0
LINE
  5
196
100
AcDbEntity
  8
M01
100
AcDbLine
 10
501.607401
 20
732.832288
 30
0.0
 11
501.607401
 21
734.332288
 31
0.0
  0
LINE
  5
197
100
AcDbEntity
  8
M01
100
AcDbLine
 10
501.607401
 20
735.832288
 30
0.0
 11
501.607401
 21
737.332288
 31
0.0
  0
LINE
  5
198
100
AcDbEntity
  8
M01
100
AcDbLine
 10
501.607401
 20
738.832288
 30
0.0
 11
501.607401
 21
739.86879
 31
0.0
  0
LINE
  5
199
100
AcDbEntity
  8
M01
100
AcDbLine
 10
502.357401
 20
737.53325
 30
0.0
 11
502.357401
 21
739.03325
 31
0.0
  0
LINE
  5
19A
100
AcDbEntity
  8
M01
100
AcDbLine
 10
502.357401
 20
734.53325
 30
0.0
 11
502.357401
 21
736.03325
 31
0.0
  0
LINE
  5
19B
100
AcDbEntity
  8
M01
100
AcDbLine
 10
502.357401
 20
731.53325
 30
0.0
 11
502.357401
 21
733.03325
 31
0.0
  0
LINE
  5
19C
100
AcDbEntity
  8
M01
100
AcDbLine
 10
502.357401
 20
728.53325
 30
0.0
 11
502.357401
 21
730.03325
 31
0.0
  0
LINE
  5
19D
100
AcDbEntity
  8
M01
100
AcDbLine
 10
502.357401
 20
725.53325
 30
0.0
 11
502.357401
 21
727.03325
 31
0.0
  0
LINE
  5
19E
100
AcDbEntity
  8
M01
100
AcDbLine
 10
502.357401
 20
722.53325
 30
0.0
 11
502.357401
 21
724.03325
 31
0.0
  0
LINE
  5
19F
100
AcDbEntity
  8
M01
100
AcDbLine
 10
502.357401
 20
719.53325
 30
0.0
 11
502.357401
 21
721.03325
 31
0.0
  0
LINE
  5
1A0
100
AcDbEntity
  8
M01
100
AcDbLine
 10
501.607401
 20
713.276136
 30
0.0
 11
501.607401
 21
713.332288
 31
0.0
  0
LINE
  5
1A1
100
AcDbEntity
  8
M01
100
AcDbLine
 10
502.357401
 20
716.53325
 30
0.0
 11
502.357401
 21
718.03325
 31
0.0
  0
LINE
  5
1A2
100
AcDbEntity
  8
M01
100
AcDbLine
 10
496.357401
 20
737.425555
 30
0.0
 11
502.357401
 21
739.03325
 31
0.0
  0
LINE
  5
1A3
100
AcDbEntity
  8
M01
100
AcDbLine
 10
496.357401
 20
735.925555
 30
0.0
 11
502.357401
 21
737.53325
 31
0.0
  0
LINE
  5
1A4
100
AcDbEntity
  8
M01
100
AcDbLine
 10
496.357401
 20
734.425555
 30
0.0
 11
502.357401
 21
736.03325
 31
0.0
  0
LINE
  5
1A5
100
AcDbEntity
  8
M01
100
AcDbLine
 10
496.357401
 20
732.925555
 30
0.0
 11
502.357401
 21
734.53325
 31
0.0
  0
LINE
  5
1A6
100
AcDbEntity
  8
M01
100
AcDbLine
 10
496.357401
 20
731.425555
 30
0.0
 11
502.357401
 21
733.03325
 31
0.0
  0
LINE
  5
1A7
100
AcDbEntity
  8
M01
100
AcDbLine
 10
496.357401
 20
729.925555
 30
0.0
 11
502.357401
 21
731.53325
 31
0.0
  0
LINE
  5
1A8
100
AcDbEntity
  8
M01
100
AcDbLine
 10
496.357401
 20
728.425555
 30
0.0
 11
502.357401
 21
730.03325
 31
0.0
  0
LINE
  5
1A9
100
AcDbEntity
  8
M01
100
AcDbLine
 10
496.357401
 20
726.925555
 30
0.0
 11
502.357401
 21
728.53325
 31
0.0
  0
LINE
  5
1AA
100
AcDbEntity
  8
M01
100
AcDbLine
 10
496.357401
 20
725.425555
 30
0.0
 11
502.357401
 21
727.03325
 31
0.0
  0
LINE
  5
1AB
100
AcDbEntity
  8
M01
100
AcDbLine
 10
496.357401
 20
723.925555
 30
0.0
 11
502.357401
 21
725.53325
 31
0.0
  0
LINE
  5
1AC
100
AcDbEntity
  8
M01
100
AcDbLine
 10
496.357401
 20
722.425555
 30
0.0
 11
502.357401
 21
724.03325
 31
0.0
  0
LINE
  5
1AD
100
AcDbEntity
  8
M01
100
AcDbLine
 10
496.357401
 20
720.925555
 30
0.0
 11
502.357401
 21
722.53325
 31
0.0
  0
LINE
  5
1AE
100
AcDbEntity
  8
M01
100
AcDbLine
 10
496.357401
 20
719.425555
 30
0.0
 11
502.357401
 21
721.03325
 31
0.0
  0
LINE
  5
1AF
100
AcDbEntity
  8
M01
100
AcDbLine
 10
496.357401
 20
717.925555
 30
0.0
 11
502.357401
 21
719.53325
 31
0.0
  0
LINE
  5
1B0
100
AcDbEntity
  8
M01
100
AcDbLine
 10
496.357401
 20
716.425555
 30
0.0
 11
502.357401
 21
718.03325
 31
0.0
  0
LINE
  5
1B1
100
AcDbEntity
  8
M01
100
AcDbLine
 10
496.357401
 20
714.925555
 30
0.0
 11
502.357401
 21
716.53325
 31
0.0
  0
LINE
  5
1B2
100
AcDbEntity
  8
M01
100
AcDbLine
 10
497.107401
 20
713.626517
 30
0.0
 11
497.107401
 21
715.126517
 31
0.0
  0
LINE
  5
1B3
100
AcDbEntity
  8
M01
100
AcDbLine
 10
496.357401
 20
714.925555
 30
0.0
 11
496.357401
 21
716.425555
 31
0.0
  0
LINE
  5
1B4
100
AcDbEntity
  8
CENTRE
 48
0.7
100
AcDbLine
 10
499.357401
 20
560.83992
 30
0.0
 11
499.357401
 21
748.026431
 31
0.0
  0
LINE
  5
1B5
100
AcDbEntity
  8
M01
100
AcDbLine
 10
502.857401
 20
703.276136
 30
0.0
 11
495.857401
 21
703.276136
 31
0.0
  0
LINE
  5
1B6
100
AcDbEntity
  8
M01
100
AcDbLine
 10
496.357401
 20
695.200879
 30
0.0
 11
502.357401
 21
695.200879
 31
0.0
  0
LINE
  5
1B7
100
AcDbEntity
  8
M01
100
AcDbLine
 10
502.357401
 20
695.200879
 30
0.0
 11
502.357401
 21
703.276136
 31
0.0
  0
LINE
  5
1B8
100
AcDbEntity
  8
M01
100
AcDbLine
 10
496.357401
 20
695.200879
 30
0.0
 11
496.357401
 21
703.276136
 31
0.0
  0
LINE
  5
1B9
100
AcDbEntity
  8
M01
100
AcDbLine
 10
497.357401
 20
685.276136
 30
0.0
 11
496.357401
 21
695.200879
 31
0.0
  0
LINE
  5
1BA
100
AcDbEntity
  8
M01
100
AcDbLine
 10
495.857401
 20
703.276136
 30
0.0
 11
495.857401
 21
713.276136
 31
0.0
  0
LINE
  5
1BB
100
AcDbEntity
  8
M01
100
AcDbLine
 10
501.347401
 20
685.276136
 30
0.0
 11
502.357401
 21
695.200879
 31
0.0
  0
LINE
  5
1BC
100
AcDbEntity
  8
M01
100
AcDbLine
 10
502.857401
 20
703.276136
 30
0.0
 11
502.857401
 21
713.276136
 31
0.0
  0
LINE
  5
1BD
100
AcDbEntity
  8
M01
100
AcDbLine
 10
502.857401
 20
713.276136
 30
0.0
 11
495.857401
 21
713.276136
 31
0.0
  0
LINE
  5
1BE
100
AcDbEntity
  8
M01
100
AcDbLine
 10
501.347401
 20
685.276136
 30
0.0
 11
497.357401
 21
685.276136
 31
0.0
  0
LINE
  5
1BF
100
AcDbEntity
  8
M04
100
AcDbLine
 10
493.357401
 20
747.107633
 30
0.0
 11
493.357401
 21
600.061051
 31
0.0
  0
LINE
  5
1C0
100
AcDbEntity
  8
M04
100
AcDbLine
 10
505.357401
 20
747.107633
 30
0.0
 11
505.357401
 21
600.061051
 31
0.0
  0
CIRCLE
  5
1C1
100
AcDbEntity
  8
M04
100
AcDbCircle
 10
499.357401
 20
587.411941
 30
0.0
 40
14.0
  0
ARC
  5
1C2
100
AcDbEntity
  8
M01
100
AcDbCircle
 10
499.357401
 20
587.411941
 30
0.0
 40
17.0
100
AcDbArc
 50
96.756327
 51
83.277611
  0
CIRCLE
  5
1C3
100
AcDbEntity
  8
M01
100
AcDbCircle
 10
499.357401
 20
587.411941
 30
0.0
 40
12.7
  0
CIRCLE
  5
1C4
100
AcDbEntity
  8
M01
100
AcDbCircle
 10
499.357401
 20
587.411941
 30
0.0
 40
9.525
  0
CIRCLE
  5
1C5
100
AcDbEntity
  8
M03
100
AcDbCircle
 10
499.357401
 20
587.411941
 30
0.0
 40
4.0
  0
LINE
  5
1C6
100
AcDbEntity
  8
CENTRE
100
AcDbLine
 10
525.929421
 20
587.411941
 30
0.0
 11
472.785381
 21
587.411941
 31
0.0
  0
TEXT
  5
1C7
100
AcDbEntity
  8
TEXT
100
AcDbText
 10
608.96611
 20
594.812025
 30
0.0
 40
2.0
  1
PLV250-03625
 41
0.9
100
AcDbText
  0
TEXT
  5
1C8
100
AcDbEntity
  8
DIMS
 62
     2
100
AcDbText
 10
673.082731
 20
543.704893
 30
0.0
 40
2.0
  1
-0
100
AcDbText
  0
TEXT
  5
1C9
100
AcDbEntity
  8
DIMS
 62
     2
100
AcDbText
 10
673.082731
 20
546.789813
 30
0.0
 40
2.0
  1
+0.02
100
AcDbText
  0
TEXT
  5
1CA
100
AcDbEntity
  8
DIMS
 62
     2
100
AcDbText
 10
719.591776
 20
593.453376
 30
0.0
 40
2.0
  1
-0
 50
90.0
100
AcDbText
  0
TEXT
  5
1CB
100
AcDbEntity
  8
DIMS
 62
     2
100
AcDbText
 10
716.506855
 20
593.453376
 30
0.0
 40
2.0
  1
+0.02
 50
90.0
100
AcDbText
  0
DIMENSION
  5
1CC
100
AcDbEntity
  8
DIMS
100
AcDbDimension
  2
*D3
 10
721.630936
 20
570.411941
 30
0.0
 11
721.630936
 21
584.184271
 31
0.0
 12
-104.17599
 22
30.212567
 32
0.0
 70
   128
  1
%%c<>
  3
DIM1
100
AcDbAlignedDimension
 13
685.680952
 23
604.411941
 33
0.0
 14
686.680952
 24
570.411941
 34
0.0
 50
90.0
100
AcDbRotatedDimension
1001
ACAD
1000
DSTYLE
1002
{
1070
   144
1040
1.0
1002
}
  0
DIMENSION
  5
1D9
100
AcDbEntity
  8
DIMS
100
AcDbDimension
  2
*D2
 10
592.080952
 20
521.103723
 30
0.0
 11
642.880952
 21
524.103723
 31
0.0
  1
<> REF.
  3
DIM1
100
AcDbAlignedDimension
 13
693.680952
 23
558.683852
 33
0.0
 14
592.080952
 24
585.411941
 34
0.0
100
AcDbRotatedDimension
1001
ACAD
1000
DSTYLE
1002
{
1070
   144
1040
1.0
1002
}
  0
DIMENSION
  5
1E6
100
AcDbEntity
  8
DIMS
100
AcDbDimension
  2
*D1
 10
601.605952
 20
531.103723
 30
0.0
 11
647.643452
 21
534.889437
 31
0.0
  1
L1=<> (3.625")
  3
DIM1
100
AcDbAlignedDimension
 13
693.680952
 23
558.683852
 33
0.0
 14
601.605952
 24
578.386941
 34
0.0
100
AcDbRotatedDimension
1001
ACAD
1000
DSTYLE
1002
{
1070
   144
1040
1.0
1002
}
  0
DIMENSION
  5
1F3
100
AcDbEntity
  8
DIMS
100
AcDbDimension
  2
*D0
 10
683.680952
 20
542.194033
 30
0.0
 11
663.634548
 21
542.194033
 31
0.0
 12
25.4
 22
0.0
 32
0.0
 70
   128
  3
DIM1
100
AcDbAlignedDimension
 13
693.680952
 23
558.683852
 33
0.0
 14
683.680952
 24
570.411941
 34
0.0
100
AcDbRotatedDimension
1001
ACAD
1000
DSTYLE
1002
{
1070
   144
1040
1.0
1002
}
  0
ARC
  5
201
100
AcDbEntity
  8
M01
100
AcDbCircle
 10
699.670952
 20
650.132493
 30
0.0
 40
16.0
100
AcDbArc
 50
180.0
 51
190.0
  0
ARC
  5
202
100
AcDbEntity
  8
M01
100
AcDbCircle
 10
665.680952
 20
635.583625
 30
0.0
 40
16.0
100
AcDbArc
 50
0.0
 51
10.0
  0
ARC
  5
203
100
AcDbEntity
  8
M01
100
AcDbCircle
 10
665.675157
 20
635.616492
 30
0.0
 40
20.0
100
AcDbArc
 50
0.006712
 51
10.0
  0
ARC
  5
204
100
AcDbEntity
  8
M01
100
AcDbCircle
 10
699.680952
 20
650.07578
 30
0.0
 40
20.0
100
AcDbArc
 50
180.0
 51
190.0
  0
LINE
  5
205
100
AcDbEntity
  8
M01
100
AcDbLine
 10
683.670952
 20
685.276136
 30
0.0
 11
683.670952
 21
650.132493
 31
0.0
  0
LINE
  5
206
100
AcDbEntity
  8
M01
100
AcDbLine
 10
679.680952
 20
685.276136
 30
0.0
 11
679.680952
 21
650.07578
 31
0.0
  0
LINE
  5
207
100
AcDbEntity
  8
M01
100
AcDbLine
 10
685.371312
 20
639.089456
 30
0.0
 11
683.914028
 21
647.354122
 31
0.0
  0
LINE
  5
208
100
AcDbEntity
  8
M01
100
AcDbLine
 10
681.437876
 20
638.361995
 30
0.0
 11
679.984797
 21
646.602817
 31
0.0
  0
LINE
  5
209
100
AcDbEntity
  8
M01
100
AcDbLine
 10
683.930952
 20
714.832288
 30
0.0
 11
683.930952
 21
716.332288
 31
0.0
  0
LINE
  5
20A
100
AcDbEntity
  8
M01
100
AcDbLine
 10
684.680952
 20
713.53325
 30
0.0
 11
684.680952
 21
715.03325
 31
0.0
  0
LINE
  5
20B
100
AcDbEntity
  8
M01
100
AcDbLine
 10
678.680952
 20
713.425555
 30
0.0
 11
684.680952
 21
715.03325
 31
0.0
  0
LINE
  5
20C
100
AcDbEntity
  8
M01
100
AcDbLine
 10
683.721388
 20
713.276136
 30
0.0
 11
684.680952
 21
713.53325
 31
0.0
  0
LINE
  5
20D
100
AcDbEntity
  8
M01
100
AcDbLine
 10
678.680952
 20
713.276136
 30
0.0
 11
678.680952
 21
713.425555
 31
0.0
  0
LINE
  5
20E
100
AcDbEntity
  8
M01
100
AcDbLine
 10
679.430952
 20
737.626517
 30
0.0
 11
679.430952
 21
738.363798
 31
0.0
  0
LINE
  5
20F
100
AcDbEntity
  8
M01
100
AcDbLine
 10
678.680952
 20
735.925555
 30
0.0
 11
678.680952
 21
737.425555
 31
0.0
  0
LINE
  5
210
100
AcDbEntity
  8
M01
100
AcDbLine
 10
679.430952
 20
734.626517
 30
0.0
 11
679.430952
 21
736.126517
 31
0.0
  0
LINE
  5
211
100
AcDbEntity
  8
M01
100
AcDbLine
 10
678.680952
 20
732.925555
 30
0.0
 11
678.680952
 21
734.425555
 31
0.0
  0
LINE
  5
212
100
AcDbEntity
  8
M01
100
AcDbLine
 10
679.430952
 20
731.626517
 30
0.0
 11
679.430952
 21
733.126517
 31
0.0
  0
LINE
  5
213
100
AcDbEntity
  8
M01
100
AcDbLine
 10
679.430952
 20
728.626517
 30
0.0
 11
679.430952
 21
730.126517
 31
0.0
  0
LINE
  5
214
100
AcDbEntity
  8
M01
100
AcDbLine
 10
678.680952
 20
729.925555
 30
0.0
 11
678.680952
 21
731.425555
 31
0.0
  0
LINE
  5
215
100
AcDbEntity
  8
M01
100
AcDbLine
 10
678.680952
 20
726.925555
 30
0.0
 11
678.680952
 21
728.425555
 31
0.0
  0
LINE
  5
216
100
AcDbEntity
  8
M01
100
AcDbLine
 10
679.430952
 20
725.626517
 30
0.0
 11
679.430952
 21
727.126517
 31
0.0
  0
LINE
  5
217
100
AcDbEntity
  8
M01
100
AcDbLine
 10
678.680952
 20
723.925555
 30
0.0
 11
678.680952
 21
725.425555
 31
0.0
  0
LINE
  5
218
100
AcDbEntity
  8
M01
100
AcDbLine
 10
679.430952
 20
722.626517
 30
0.0
 11
679.430952
 21
724.126517
 31
0.0
  0
LINE
  5
219
100
AcDbEntity
  8
M01
100
AcDbLine
 10
678.680952
 20
720.925555
 30
0.0
 11
678.680952
 21
722.425555
 31
0.0
  0
LINE
  5
21A
100
AcDbEntity
  8
M01
100
AcDbLine
 10
679.430952
 20
719.626517
 30
0.0
 11
679.430952
 21
721.126517
 31
0.0
  0
LINE
  5
21B
100
AcDbEntity
  8
M01
100
AcDbLine
 10
678.680952
 20
717.925555
 30
0.0
 11
678.680952
 21
719.425555
 31
0.0
  0
LINE
  5
21C
100
AcDbEntity
  8
M01
100
AcDbLine
 10
679.430952
 20
716.626517
 30
0.0
 11
679.430952
 21
718.126517
 31
0.0
  0
LINE
  5
21D
100
AcDbEntity
  8
M01
100
AcDbLine
 10
683.930952
 20
717.832288
 30
0.0
 11
683.930952
 21
719.332288
 31
0.0
  0
LINE
  5
21E
100
AcDbEntity
  8
M01
100
AcDbLine
 10
683.930952
 20
720.832288
 30
0.0
 11
683.930952
 21
722.332288
 31
0.0
  0
LINE
  5
21F
100
AcDbEntity
  8
M01
100
AcDbLine
 10
683.930952
 20
723.832288
 30
0.0
 11
683.930952
 21
725.332288
 31
0.0
  0
LINE
  5
220
100
AcDbEntity
  8
M01
100
AcDbLine
 10
683.930952
 20
726.832288
 30
0.0
 11
683.930952
 21
728.332288
 31
0.0
  0
LINE
  5
221
100
AcDbEntity
  8
M01
100
AcDbLine
 10
683.930952
 20
729.832288
 30
0.0
 11
683.930952
 21
731.332288
 31
0.0
  0
LINE
  5
222
100
AcDbEntity
  8
M01
100
AcDbLine
 10
683.930952
 20
732.832288
 30
0.0
 11
683.930952
 21
734.332288
 31
0.0
  0
LINE
  5
223
100
AcDbEntity
  8
M01
100
AcDbLine
 10
683.930952
 20
735.832288
 30
0.0
 11
683.930952
 21
737.332288
 31
0.0
  0
LINE
  5
224
100
AcDbEntity
  8
M01
100
AcDbLine
 10
683.930952
 20
738.832288
 30
0.0
 11
683.930952
 21
739.86879
 31
0.0
  0
LINE
  5
225
100
AcDbEntity
  8
M01
100
AcDbLine
 10
684.680952
 20
737.53325
 30
0.0
 11
684.680952
 21
739.03325
 31
0.0
  0
LINE
  5
226
100
AcDbEntity
  8
M01
100
AcDbLine
 10
684.680952
 20
734.53325
 30
0.0
 11
684.680952
 21
736.03325
 31
0.0
  0
LINE
  5
227
100
AcDbEntity
  8
M01
100
AcDbLine
 10
684.680952
 20
731.53325
 30
0.0
 11
684.680952
 21
733.03325
 31
0.0
  0
LINE
  5
228
100
AcDbEntity
  8
M01
100
AcDbLine
 10
684.680952
 20
728.53325
 30
0.0
 11
684.680952
 21
730.03325
 31
0.0
  0
LINE
  5
229
100
AcDbEntity
  8
M01
100
AcDbLine
 10
684.680952
 20
725.53325
 30
0.0
 11
684.680952
 21
727.03325
 31
0.0
  0
LINE
  5
22A
100
AcDbEntity
  8
M01
100
AcDbLine
 10
684.680952
 20
722.53325
 30
0.0
 11
684.680952
 21
724.03325
 31
0.0
  0
LINE
  5
22B
100
AcDbEntity
  8
M01
100
AcDbLine
 10
684.680952
 20
719.53325
 30
0.0
 11
684.680952
 21
721.03325
 31
0.0
  0
LINE
  5
22C
100
AcDbEntity
  8
M01
100
AcDbLine
 10
683.930952
 20
713.276136
 30
0.0
 11
683.930952
 21
713.332288
 31
0.0
  0
LINE
  5
22D
100
AcDbEntity
  8
M01
100
AcDbLine
 10
684.680952
 20
716.53325
 30
0.0
 11
684.680952
 21
718.03325
 31
0.0
  0
LINE
  5
22E
100
AcDbEntity
  8
M01
100
AcDbLine
 10
678.680952
 20
737.425555
 30
0.0
 11
684.680952
 21
739.03325
 31
0.0
  0
LINE
  5
22F
100
AcDbEntity
  8
M01
100
AcDbLine
 10
678.680952
 20
735.925555
 30
0.0
 11
684.680952
 21
737.53325
 31
0.0
  0
LINE
  5
230
100
AcDbEntity
  8
M01
100
AcDbLine
 10
678.680952
 20
734.425555
 30
0.0
 11
684.680952
 21
736.03325
 31
0.0
  0
LINE
  5
231
100
AcDbEntity
  8
M01
100
AcDbLine
 10
678.680952
 20
732.925555
 30
0.0
 11
684.680952
 21
734.53325
 31
0.0
  0
LINE
  5
232
100
AcDbEntity
  8
M01
100
AcDbLine
 10
678.680952
 20
731.425555
 30
0.0
 11
684.680952
 21
733.03325
 31
0.0
  0
LINE
  5
233
100
AcDbEntity
  8
M01
100
AcDbLine
 10
678.680952
 20
729.925555
 30
0.0
 11
684.680952
 21
731.53325
 31
0.0
  0
LINE
  5
234
100
AcDbEntity
  8
M01
100
AcDbLine
 10
678.680952
 20
728.425555
 30
0.0
 11
684.680952
 21
730.03325
 31
0.0
  0
LINE
  5
235
100
AcDbEntity
  8
M01
100
AcDbLine
 10
678.680952
 20
726.925555
 30
0.0
 11
684.680952
 21
728.53325
 31
0.0
  0
LINE
  5
236
100
AcDbEntity
  8
M01
100
AcDbLine
 10
678.680952
 20
725.425555
 30
0.0
 11
684.680952
 21
727.03325
 31
0.0
  0
LINE
  5
237
100
AcDbEntity
  8
M01
100
AcDbLine
 10
678.680952
 20
723.925555
 30
0.0
 11
684.680952
 21
725.53325
 31
0.0
  0
LINE
  5
238
100
AcDbEntity
  8
M01
100
AcDbLine
 10
678.680952
 20
722.425555
 30
0.0
 11
684.680952
 21
724.03325
 31
0.0
  0
LINE
  5
239
100
AcDbEntity
  8
M01
100
AcDbLine
 10
678.680952
 20
720.925555
 30
0.0
 11
684.680952
 21
722.53325
 31
0.0
  0
LINE
  5
23A
100
AcDbEntity
  8
M01
100
AcDbLine
 10
678.680952
 20
719.425555
 30
0.0
 11
684.680952
 21
721.03325
 31
0.0
  0
LINE
  5
23B
100
AcDbEntity
  8
M01
100
AcDbLine
 10
678.680952
 20
717.925555
 30
0.0
 11
684.680952
 21
719.53325
 31
0.0
  0
LINE
  5
23C
100
AcDbEntity
  8
M01
100
AcDbLine
 10
678.680952
 20
716.425555
 30
0.0
 11
684.680952
 21
718.03325
 31
0.0
  0
LINE
  5
23D
100
AcDbEntity
  8
M01
100
AcDbLine
 10
678.680952
 20
714.925555
 30
0.0
 11
684.680952
 21
716.53325
 31
0.0
  0
LINE
  5
23E
100
AcDbEntity
  8
M01
100
AcDbLine
 10
679.430952
 20
713.626517
 30
0.0
 11
679.430952
 21
715.126517
 31
0.0
  0
LINE
  5
23F
100
AcDbEntity
  8
M01
100
AcDbLine
 10
678.680952
 20
714.925555
 30
0.0
 11
678.680952
 21
716.425555
 31
0.0
  0
LINE
  5
240
100
AcDbEntity
  8
CENTRE
 48
0.7
100
AcDbLine
 10
681.680952
 20
668.290171
 30
0.0
 11
681.680952
 21
748.026431
 31
0.0
  0
LINE
  5
241
100
AcDbEntity
  8
M01
100
AcDbLine
 10
685.680425
 20
604.411941
 30
0.0
 11
685.675157
 21
635.618835
 31
0.0
  0
LINE
  5
242
100
AcDbEntity
  8
M01
100
AcDbLine
 10
681.680952
 20
600.111941
 30
0.0
 11
681.680952
 21
635.583625
 31
0.0
  0
LINE
  5
243
100
AcDbEntity
  8
M01
100
AcDbLine
 10
685.180952
 20
703.276136
 30
0.0
 11
678.180952
 21
703.276136
 31
0.0
  0
LINE
  5
244
100
AcDbEntity
  8
M01
100
AcDbLine
 10
678.680952
 20
695.200879
 30
0.0
 11
684.680952
 21
695.200879
 31
0.0
  0
LINE
  5
245
100
AcDbEntity
  8
M01
100
AcDbLine
 10
684.680952
 20
695.200879
 30
0.0
 11
684.680952
 21
703.276136
 31
0.0
  0
LINE
  5
246
100
AcDbEntity
  8
M01
100
AcDbLine
 10
678.680952
 20
695.200879
 30
0.0
 11
678.680952
 21
703.276136
 31
0.0
  0
LINE
  5
247
100
AcDbEntity
  8
M01
100
AcDbLine
 10
679.680952
 20
685.276136
 30
0.0
 11
678.680952
 21
695.200879
 31
0.0
  0
LINE
  5
248
100
AcDbEntity
  8
M01
100
AcDbLine
 10
678.180952
 20
703.276136
 30
0.0
 11
678.180952
 21
713.276136
 31
0.0
  0
LINE
  5
249
100
AcDbEntity
  8
M01
100
AcDbLine
 10
683.670952
 20
685.276136
 30
0.0
 11
684.680952
 21
695.200879
 31
0.0
  0
LINE
  5
24A
100
AcDbEntity
  8
M01
100
AcDbLine
 10
685.180952
 20
703.276136
 30
0.0
 11
685.180952
 21
713.276136
 31
0.0
  0
LINE
  5
24B
100
AcDbEntity
  8
M01
100
AcDbLine
 10
685.180952
 20
713.276136
 30
0.0
 11
678.180952
 21
713.276136
 31
0.0
  0
LINE
  5
24C
100
AcDbEntity
  8
M01
100
AcDbLine
 10
683.670952
 20
685.276136
 30
0.0
 11
679.680952
 21
685.276136
 31
0.0
  0
LINE
  5
24D
100
AcDbEntity
  8
M04
 48
0.7
100
AcDbLine
 10
611.605952
 20
573.411941
 30
0.0
 11
683.680952
 21
573.411941
 31
0.0
  0
LINE
  5
24E
100
AcDbEntity
  8
M03
 48
0.7
100
AcDbLine
 10
601.605952
 20
583.411941
 30
0.0
 11
693.680952
 21
583.411941
 31
0.0
  0
LINE
  5
24F
100
AcDbEntity
  8
M04
 48
0.7
100
AcDbLine
 10
611.605952
 20
601.411941
 30
0.0
 11
676.680952
 21
601.411941
 31
0.0
  0
LINE
  5
250
100
AcDbEntity
  8
M03
 48
0.7
100
AcDbLine
 10
678.046978
 20
565.911941
 30
0.0
 11
678.046978
 21
568.911941
 31
0.0
  0
LINE
  5
251
100
AcDbEntity
  8
M03
 48
0.7
100
AcDbLine
 10
678.046978
 20
565.911941
 30
0.0
 11
677.180952
 21
567.411941
 31
0.0
  0
LINE
  5
252
100
AcDbEntity
  8
M03
 48
0.7
100
AcDbLine
 10
678.046978
 20
568.911941
 30
0.0
 11
677.180952
 21
567.411941
 31
0.0
  0
LINE
  5
253
100
AcDbEntity
  8
M03
 48
0.7
100
AcDbLine
 10
690.180952
 20
566.411941
 30
0.0
 11
689.680952
 21
565.911941
 31
0.0
  0
LINE
  5
254
100
AcDbEntity
  8
M03
 48
0.7
100
AcDbLine
 10
678.180952
 20
566.411941
 30
0.0
 11
678.680952
 21
565.911941
 31
0.0
  0
LINE
  5
255
100
AcDbEntity
  8
M03
 48
0.7
100
AcDbLine
 10
689.680952
 20
565.911941
 30
0.0
 11
678.046978
 21
565.911941
 31
0.0
  0
LINE
  5
256
100
AcDbEntity
  8
M03
 48
0.7
100
AcDbLine
 10
689.680952
 20
568.911941
 30
0.0
 11
690.180952
 21
568.411941
 31
0.0
  0
LINE
  5
257
100
AcDbEntity
  8
M03
 48
0.7
100
AcDbLine
 10
678.680952
 20
568.911941
 30
0.0
 11
678.180952
 21
568.411941
 31
0.0
  0
LINE
  5
258
100
AcDbEntity
  8
M03
 48
0.7
100
AcDbLine
 10
689.680952
 20
568.911941
 30
0.0
 11
678.046978
 21
568.911941
 31
0.0
  0
LINE
  5
259
100
AcDbEntity
  8
M03
 48
0.7
100
AcDbLine
 10
690.180952
 20
568.411941
 30
0.0
 11
690.180952
 21
566.411941
 31
0.0
  0
LINE
  5
25A
100
AcDbEntity
  8
M03
 48
0.7
100
AcDbLine
 10
678.180952
 20
568.411941
 30
0.0
 11
678.180952
 21
566.411941
 31
0.0
  0
LINE
  5
25B
100
AcDbEntity
  8
M03
 48
0.7
100
AcDbLine
 10
678.680952
 20
568.911941
 30
0.0
 11
678.680952
 21
565.911941
 31
0.0
  0
LINE
  5
25C
100
AcDbEntity
  8
M03
 48
0.7
100
AcDbLine
 10
689.680952
 20
565.911941
 30
0.0
 11
689.680952
 21
568.911941
 31
0.0
  0
LINE
  5
25D
100
AcDbEntity
  8
CENTRE
 48
0.7
100
AcDbLine
 10
673.009745
 20
567.411941
 30
0.0
 11
695.00091
 21
567.411941
 31
0.0
  0
LINE
  5
25E
100
AcDbEntity
  8
CENTRE
 48
0.7
100
AcDbLine
 10
688.680952
 20
561.989184
 30
0.0
 11
688.680952
 21
574.792614
 31
0.0
  0
LINE
  5
25F
100
AcDbEntity
  8
M03
 48
0.7
100
AcDbLine
 10
601.605952
 20
591.411941
 30
0.0
 11
693.680952
 21
591.411941
 31
0.0
  0
LINE
  5
260
100
AcDbEntity
  8
M04
100
AcDbLine
 10
693.680952
 20
571.161941
 30
0.0
 11
693.680952
 21
558.683852
 31
0.0
  0
LINE
  5
261
100
AcDbEntity
  8
M04
100
AcDbLine
 10
685.680952
 20
570.411941
 30
0.0
 11
686.680952
 21
570.411941
 31
0.0
  0
LINE
  5
262
100
AcDbEntity
  8
M04
100
AcDbLine
 10
684.430952
 20
570.411941
 30
0.0
 11
683.680952
 21
570.411941
 31
0.0
  0
LINE
  5
263
100
AcDbEntity
  8
M04
100
AcDbLine
 10
686.680952
 20
570.661941
 30
0.0
 11
686.680952
 21
558.780408
 31
0.0
  0
LINE
  5
264
100
AcDbEntity
  8
M04
100
AcDbLine
 10
683.680952
 20
571.161941
 30
0.0
 11
683.680952
 21
570.411941
 31
0.0
  0
LINE
  5
265
100
AcDbEntity
  8
M04
100
AcDbLine
 10
676.680952
 20
747.107633
 30
0.0
 11
676.680952
 21
600.111941
 31
0.0
  0
LINE
  5
266
100
AcDbEntity
  8
M04
 48
0.7
100
AcDbLine
 10
693.680952
 20
620.661941
 30
0.0
 11
695.680952
 21
622.661941
 31
0.0
  0
ARC
  5
267
100
AcDbEntity
  8
M04
 48
0.7
100
AcDbCircle
 10
688.680952
 20
627.661941
 30
0.0
 40
2.0
100
AcDbArc
 50
90.0
 51
180.0
  0
LINE
  5
268
100
AcDbEntity
  8
M04
 48
0.7
100
AcDbLine
 10
688.680952
 20
629.661941
 30
0.0
 11
711.997887
 21
629.661941
 31
0.0
  0
LINE
  5
269
100
AcDbEntity
  8
M04
 48
0.7
100
AcDbLine
 10
695.680952
 20
622.661941
 30
0.0
 11
711.997887
 21
622.661941
 31
0.0
  0
LINE
  5
26A
100
AcDbEntity
  8
M04
100
AcDbLine
 10
693.680952
 20
603.661941
 30
0.0
 11
693.680952
 21
620.661941
 31
0.0
  0
LINE
  5
26B
100
AcDbEntity
  8
M04
100
AcDbLine
 10
686.680952
 20
747.107633
 30
0.0
 11
686.680952
 21
604.161941
 31
0.0
  0
MTEXT
  5
26C
100
AcDbEntity
  8
0
  6
BYBLOCK
 62
     2
100
AcDbMText
 10
746.044195
 20
613.006946
 30
0.0
 40
3.0
 41
0.0
 71
     5
 72
     1
  1
MANIFOLD INSERTION POINT
  0
SOLID
  5
26D
100
AcDbEntity
  8
0
  6
BYBLOCK
 62
     4
100
AcDbTrace
 10
695.559741
 20
591.256762
 30
0.0
 11
696.400756
 21
590.715752
 31
0.0
 12
694.357216
 22
588.46321
 32
0.0
 13
694.357216
 23
588.46321
 33
0.0
  0
LINE
  5
26E
100
AcDbEntity
  8
0
  6
BYBLOCK
 62
     4
100
AcDbLine
 10
710.145778
 20
613.006946
 30
0.0
 11
713.145778
 21
613.006946
 31
0.0
  0
LINE
  5
26F
100
AcDbEntity
  8
0
  6
BYBLOCK
 62
     4
100
AcDbLine
 10
695.980248
 20
590.986257
 30
0.0
 11
710.145778
 21
613.006946
 31
0.0
  0
CIRCLE
  5
270
100
AcDbEntity
  8
M04
100
AcDbCircle
 10
693.680952
 20
587.411941
 30
0.0
 40
1.25
  0
MTEXT
  5
271
100
AcDbEntity
  8
0
  6
BYBLOCK
 62
     2
100
AcDbMText
 10
554.300043
 20
605.421746
 30
0.0
 40
3.0
 41
0.0
 71
     5
 72
     1
  1
GATE INSERTION POINT
  0
SOLID
  5
272
100
AcDbEntity
  8
0
  6
BYBLOCK
 62
     4
100
AcDbTrace
 10
590.914774
 20
591.529285
 30
0.0
 11
589.991054
 21
591.146218
 31
0.0
 12
591.602117
 22
588.566591
 32
0.0
 13
591.602117
 23
588.566591
 33
0.0
  0
LINE
  5
273
100
AcDbEntity
  8
0
  6
BYBLOCK
 62
     4
100
AcDbLine
 10
584.688505
 20
605.421746
 30
0.0
 11
581.688505
 21
605.421746
 31
0.0
  0
LINE
  5
274
100
AcDbEntity
  8
0
  6
BYBLOCK
 62
     4
100
AcDbLine
 10
590.452914
 20
591.337752
 30
0.0
 11
584.688505
 21
605.421746
 31
0.0
  0
CIRCLE
  5
275
100
AcDbEntity
  8
M04
100
AcDbCircle
 10
592.080952
 20
587.411941
 30
0.0
 40
1.25
  0
LINE
  5
276
100
AcDbEntity
  8
M01
100
AcDbLine
 10
693.180952
 20
604.161941
 30
0.0
 11
693.680952
 21
603.661941
 31
0.0
  0
LINE
  5
277
100
AcDbEntity
  8
M01
100
AcDbLine
 10
690.680952
 20
604.161941
 30
0.0
 11
693.180952
 21
604.161941
 31
0.0
  0
LINE
  5
278
100
AcDbEntity
  8
M01
100
AcDbLine
 10
686.680952
 20
604.161941
 30
0.0
 11
685.680952
 21
604.161941
 31
0.0
  0
LINE
  5
279
100
AcDbEntity
  8
M01
100
AcDbLine
 10
686.680952
 20
604.161941
 30
0.0
 11
688.846016
 21
602.911941
 31
0.0
  0
LINE
  5
27A
100
AcDbEntity
  8
M01
100
AcDbLine
 10
690.680952
 20
602.911941
 30
0.0
 11
688.846016
 21
602.911941
 31
0.0
  0
LINE
  5
27B
100
AcDbEntity
  8
M01
100
AcDbLine
 10
693.180952
 20
570.661941
 30
0.0
 11
693.680952
 21
571.161941
 31
0.0
  0
LINE
  5
27C
100
AcDbEntity
  8
M01
100
AcDbLine
 10
690.680952
 20
570.661941
 30
0.0
 11
693.180952
 21
570.661941
 31
0.0
  0
LINE
  5
27D
100
AcDbEntity
  8
M01
100
AcDbLine
 10
686.680952
 20
570.661941
 30
0.0
 11
685.680952
 21
570.661941
 31
0.0
  0
LINE
  5
27E
100
AcDbEntity
  8
M01
100
AcDbLine
 10
686.680952
 20
570.661941
 30
0.0
 11
688.846016
 21
571.911941
 31
0.0
  0
LINE
  5
27F
100
AcDbEntity
  8
M01
100
AcDbLine
 10
690.680952
 20
571.911941
 30
0.0
 11
688.846016
 21
571.911941
 31
0.0
  0
LINE
  5
280
100
AcDbEntity
  8
M01
100
AcDbLine
 10
690.180952
 20
565.359449
 30
0.0
 11
689.74794
 21
564.609449
 31
0.0
  0
LINE
  5
281
100
AcDbEntity
  8
M01
100
AcDbLine
 10
687.180952
 20
565.359449
 30
0.0
 11
687.613965
 21
564.609449
 31
0.0
  0
LINE
  5
282
100
AcDbEntity
  8
M01
100
AcDbLine
 10
687.180952
 20
565.359449
 30
0.0
 11
690.180952
 21
565.359449
 31
0.0
  0
LINE
  5
283
100
AcDbEntity
  8
M01
100
AcDbLine
 10
687.613965
 20
564.609449
 30
0.0
 11
689.74794
 21
564.609449
 31
0.0
  0
LINE
  5
284
100
AcDbEntity
  8
M01
100
AcDbLine
 10
690.180952
 20
571.911941
 30
0.0
 11
690.180952
 21
565.359449
 31
0.0
  0
LINE
  5
285
100
AcDbEntity
  8
M01
100
AcDbLine
 10
687.180952
 20
570.950616
 30
0.0
 11
687.180952
 21
565.359449
 31
0.0
  0
LINE
  5
286
100
AcDbEntity
  8
M01
100
AcDbLine
 10
693.680952
 20
603.661941
 30
0.0
 11
693.680952
 21
571.161941
 31
0.0
  0
LINE
  5
287
100
AcDbEntity
  8
M01
100
AcDbLine
 10
685.680952
 20
604.411941
 30
0.0
 11
685.680952
 21
570.411941
 31
0.0
  0
LINE
  5
288
100
AcDbEntity
  8
M01
100
AcDbLine
 10
686.680952
 20
604.161941
 30
0.0
 11
686.680952
 21
570.661941
 31
0.0
  0
LINE
  5
289
100
AcDbEntity
  8
M01
100
AcDbLine
 10
690.680952
 20
604.161941
 30
0.0
 11
690.680952
 21
570.661941
 31
0.0
  0
LINE
  5
28A
100
AcDbEntity
  8
M01
100
AcDbLine
 10
693.180952
 20
604.161941
 30
0.0
 11
693.180952
 21
570.661941
 31
0.0
  0
LINE
  5
28B
100
AcDbEntity
  8
M01
100
AcDbLine
 10
688.846016
 20
602.911941
 30
0.0
 11
688.846016
 21
571.911941
 31
0.0
  0
LINE
  5
28C
100
AcDbEntity
  8
M01
100
AcDbLine
 10
683.680952
 20
603.661941
 30
0.0
 11
684.430952
 21
604.411941
 31
0.0
  0
LINE
  5
28D
100
AcDbEntity
  8
M01
100
AcDbLine
 10
603.875952
 20
596.936941
 30
0.0
 11
604.375952
 21
596.936941
 31
0.0
  0
LINE
  5
28E
100
AcDbEntity
  8
M01
100
AcDbLine
 10
602.105952
 20
596.936941
 30
0.0
 11
602.605952
 21
596.936941
 31
0.0
  0
LINE
  5
28F
100
AcDbEntity
  8
M01
100
AcDbLine
 10
601.605952
 20
596.436941
 30
0.0
 11
602.105952
 21
596.936941
 31
0.0
  0
LINE
  5
290
100
AcDbEntity
  8
M01
100
AcDbLine
 10
602.605952
 20
596.436941
 30
0.0
 11
603.875952
 21
596.436941
 31
0.0
  0
LINE
  5
291
100
AcDbEntity
  8
DIMS
100
AcDbLine
 10
592.080952
 20
589.411941
 30
0.0
 11
592.080952
 21
585.411941
 31
0.0
  0
LINE
  5
292
100
AcDbEntity
  8
M01
100
AcDbLine
 10
604.375952
 20
600.111941
 30
0.0
 11
683.680952
 21
600.111941
 31
0.0
  0
LINE
  5
293
100
AcDbEntity
  8
M01
100
AcDbLine
 10
683.680952
 20
571.161941
 30
0.0
 11
684.430952
 21
570.411941
 31
0.0
  0
LINE
  5
294
100
AcDbEntity
  8
M01
100
AcDbLine
 10
603.875952
 20
577.886941
 30
0.0
 11
604.375952
 21
577.886941
 31
0.0
  0
LINE
  5
295
100
AcDbEntity
  8
M01
100
AcDbLine
 10
602.105952
 20
577.886941
 30
0.0
 11
602.605952
 21
577.886941
 31
0.0
  0
LINE
  5
296
100
AcDbEntity
  8
M01
100
AcDbLine
 10
601.605952
 20
578.386941
 30
0.0
 11
602.105952
 21
577.886941
 31
0.0
  0
LINE
  5
297
100
AcDbEntity
  8
M01
100
AcDbLine
 10
602.605952
 20
578.386941
 30
0.0
 11
603.875952
 21
578.386941
 31
0.0
  0
LINE
  5
298
100
AcDbEntity
  8
M01
100
AcDbLine
 10
604.375952
 20
574.711941
 30
0.0
 11
683.680952
 21
574.711941
 31
0.0
  0
LINE
  5
299
100
AcDbEntity
  8
M01
100
AcDbLine
 10
683.680952
 20
603.661941
 30
0.0
 11
683.680952
 21
571.161941
 31
0.0
  0
LINE
  5
29A
100
AcDbEntity
  8
M01
100
AcDbLine
 10
601.605952
 20
596.436941
 30
0.0
 11
601.605952
 21
578.386941
 31
0.0
  0
LINE
  5
29B
100
AcDbEntity
  8
M01
100
AcDbLine
 10
602.105952
 20
596.936941
 30
0.0
 11
602.105952
 21
577.886941
 31
0.0
  0
LINE
  5
29C
100
AcDbEntity
  8
M01
100
AcDbLine
 10
684.430952
 20
604.411941
 30
0.0
 11
684.430952
 21
570.411941
 31
0.0
  0
LINE
  5
29D
100
AcDbEntity
  8
M01
100
AcDbLine
 10
602.605952
 20
596.936941
 30
0.0
 11
602.605952
 21
577.886941
 31
0.0
  0
LINE
  5
29E
100
AcDbEntity
  8
M01
100
AcDbLine
 10
603.875952
 20
596.936941
 30
0.0
 11
603.875952
 21
577.886941
 31
0.0
  0
LINE
  5
29F
100
AcDbEntity
  8
M01
100
AcDbLine
 10
604.375952
 20
600.111941
 30
0.0
 11
604.375952
 21
574.711941
 31
0.0
  0
LINE
  5
2A0
100
AcDbEntity
  8
CENTRE
 48
0.7
100
AcDbLine
 10
587.080952
 20
587.411941
 30
0.0
 11
698.680952
 21
587.411941
 31
0.0
  0
LINE
  5
2A1
100
AcDbEntity
  8
M01
100
AcDbLine
 10
684.430952
 20
604.411941
 30
0.0
 11
685.680952
 21
604.411941
 31
0.0
  0
LINE
  5
2A2
100
AcDbEntity
  8
M01
100
AcDbLine
 10
684.430952
 20
570.411941
 30
0.0
 11
685.680952
 21
570.411941
 31
0.0
  0
TEXT
  5
2A3
100
AcDbEntity
  8
TEXT
100
AcDbText
 10
389.791565
 20
340.099116
 30
0.0
 40
4.0
  1
%%USINGLE BUSH INSTALLATION
100
AcDbText
  0
TEXT
  5
2A4
100
AcDbEntity
  8
TEXT
100
AcDbText
 10
407.298983
 20
633.159239
 30
0.0
 40
4.0
  1
%%UMANIFOLD INSTALLATION
100
AcDbText
  0
TEXT
  5
2A5
100
AcDbEntity
  8
TEXT
100
AcDbText
 10
737.040756
 20
440.461765
 30
0.0
 40
3.0
  1
MATERIAL TO BE MOULDED AND THE PROCESS CONDITIONS - SEE CATALOGUE FOR DETAILS
100
AcDbText
  0
TEXT
  5
2A6
100
AcDbEntity
  8
TEXT
100
AcDbText
 10
737.435507
 20
445.772195
 30
0.0
 40
3.0
  1
AN ALLOWANCE FOR EXPANSION OF THE BUSHING MUST BE MADE DEPENDENT ON THE
100
AcDbText
  0
TEXT
  5
2A7
100
AcDbEntity
  8
TEXT
100
AcDbText
 10
757.008808
 20
454.212265
 30
0.0
 40
4.0
  1
%%UNOTE
100
AcDbText
  0
ENDSEC
  0
SECTION
  2
OBJECTS
  0
DICTIONARY
  5
1C
100
AcDbDictionary
  3
ACAD_GROUP
350
1A
  3
ACAD_MLINESTYLE
350
1B
  0
DICTIONARY
  5
3
100
AcDbDictionary
280
     1
  3
ACAD_SORTENTS
360
4
  0
DICTIONARY
  5
1A
102
{ACAD_REACTORS
330
1C
102
}
100
AcDbDictionary
  0
DICTIONARY
  5
1B
102
{ACAD_REACTORS
330
1C
102
}
100
AcDbDictionary
  3
STANDARD
350
1E
  0
SORTENTSTABLE
  5
4
102
{ACAD_REACTORS
330
3
102
}
100
AcDbSortentsTable
330
2
  0
MLINESTYLE
  5
1E
102
{ACAD_REACTORS
330
1B
102
}
100
AcDbMlineStyle
  2
STANDARD
 70
     0
  3

 62
   256
 51
90.0
 52
90.0
 71
     2
 49
0.5
 62
   256
  6
BYLAYER
 49
-0.5
 62
   256
  6
BYLAYER
  0
ENDSEC
  0
EOF
