  0
SECTION
  2
HEADER
  9
$ACADVER
  1
AC1014
  9
$ACADMAINTVER
 70
     9
  9
$DWGCODEPAGE
  3
ANSI_1252
  9
$INSBASE
 10
0.0
 20
0.0
 30
0.0
  9
$EXTMIN
 10
397.261291
 20
152.041051
 30
-0.222949
  9
$EXTMAX
 10
963.940756
 20
748.477658
 30
0.0
  9
$LIMMIN
 10
0.0
 20
0.0
  9
$LIMMAX
 10
1189.0
 20
841.0
  9
$ORTHOMODE
 70
     1
  9
$REGENMODE
 70
     1
  9
$FILLMODE
 70
     1
  9
$QTEXTMODE
 70
     0
  9
$MIRRTEXT
 70
     0
  9
$DRAGMODE
 70
     2
  9
$LTSCALE
 40
8.0
  9
$OSMODE
 70
     0
  9
$ATTMODE
 70
     1
  9
$TEXTSIZE
 40
2.0
  9
$TRACEWID
 40
10.0
  9
$TEXTSTYLE
  7
STANDARD
  9
$CLAYER
  8
M01
  9
$CELTYPE
  6
BYLAYER
  9
$CECOLOR
 62
   256
  9
$CELTSCALE
 40
1.0
  9
$DELOBJ
 70
     1
  9
$DISPSILH
 70
     0
  9
$DIMSCALE
 40
1.0
  9
$DIMASZ
 40
3.0
  9
$DIMEXO
 40
1.0
  9
$DIMDLI
 40
10.0
  9
$DIMRND
 40
0.01
  9
$DIMDLE
 40
1.25
  9
$DIMEXE
 40
2.5
  9
$DIMTP
 40
0.05
  9
$DIMTM
 40
0.0
  9
$DIMTXT
 40
3.0
  9
$DIMCEN
 40
-1.7
  9
$DIMTSZ
 40
0.0
  9
$DIMTOL
 70
     0
  9
$DIMLIM
 70
     0
  9
$DIMTIH
 70
     0
  9
$DIMTOH
 70
     0
  9
$DIMSE1
 70
     0
  9
$DIMSE2
 70
     0
  9
$DIMTAD
 70
     3
  9
$DIMZIN
 70
     1
  9
$DIMBLK
  1

  9
$DIMASO
 70
     1
  9
$DIMSHO
 70
     0
  9
$DIMPOST
  1

  9
$DIMAPOST
  1

  9
$DIMALT
 70
     0
  9
$DIMALTD
 70
     2
  9
$DIMALTF
 40
0.039
  9
$DIMLFAC
 40
1.0
  9
$DIMTOFL
 70
     0
  9
$DIMTVP
 40
1.5
  9
$DIMTIX
 70
     0
  9
$DIMSOXD
 70
     0
  9
$DIMSAH
 70
     0
  9
$DIMBLK1
  1

  9
$DIMBLK2
  1

  9
$DIMSTYLE
  2
DIM1
  9
$DIMCLRD
 70
     4
  9
$DIMCLRE
 70
     4
  9
$DIMCLRT
 70
     2
  9
$DIMTFAC
 40
0.7
  9
$DIMGAP
 40
1.5
  9
$DIMJUST
 70
     0
  9
$DIMSD1
 70
     0
  9
$DIMSD2
 70
     0
  9
$DIMTOLJ
 70
     1
  9
$DIMTZIN
 70
     1
  9
$DIMALTZ
 70
     1
  9
$DIMALTTZ
 70
     1
  9
$DIMFIT
 70
     0
  9
$DIMUPT
 70
     0
  9
$DIMUNIT
 70
     2
  9
$DIMDEC
 70
     2
  9
$DIMTDEC
 70
     2
  9
$DIMALTU
 70
     2
  9
$DIMALTTD
 70
     2
  9
$DIMTXSTY
  7
STANDARD
  9
$DIMAUNIT
 70
     0
  9
$LUNITS
 70
     2
  9
$LUPREC
 70
     2
  9
$SKETCHINC
 40
1.0
  9
$FILLETRAD
 40
3.0
  9
$AUNITS
 70
     0
  9
$AUPREC
 70
     3
  9
$MENU
  1
ACAD
  9
$ELEVATION
 40
0.0
  9
$PELEVATION
 40
0.0
  9
$THICKNESS
 40
0.0
  9
$LIMCHECK
 70
     0
  9
$BLIPMODE
 70
     1
  9
$CHAMFERA
 40
0.5
  9
$CHAMFERB
 40
0.5
  9
$CHAMFERC
 40
0.0
  9
$CHAMFERD
 40
0.0
  9
$SKPOLY
 70
     1
  9
$TDCREATE
 40
2449993.725698611
  9
$TDUPDATE
 40
2452115.464365810
  9
$TDINDWG
 40
1.1862438542
  9
$TDUSRTIMER
 40
1.1862438542
  9
$USRTIMER
 70
     1
  9
$ANGBASE
 50
0.0
  9
$ANGDIR
 70
     0
  9
$PDMODE
 70
     3
  9
$PDSIZE
 40
0.0
  9
$PLINEWID
 40
0.0
  9
$COORDS
 70
     2
  9
$SPLFRAME
 70
     0
  9
$SPLINETYPE
 70
     6
  9
$SPLINESEGS
 70
     6
  9
$ATTDIA
 70
     1
  9
$ATTREQ
 70
     1
  9
$HANDLING
 70
     1
  9
$HANDSEED
  5
28D
  9
$SURFTAB1
 70
    12
  9
$SURFTAB2
 70
    12
  9
$SURFTYPE
 70
     6
  9
$SURFU
 70
    12
  9
$SURFV
 70
    12
  9
$UCSNAME
  2

  9
$UCSORG
 10
0.0
 20
0.0
 30
0.0
  9
$UCSXDIR
 10
1.0
 20
0.0
 30
0.0
  9
$UCSYDIR
 10
0.0
 20
1.0
 30
0.0
  9
$PUCSNAME
  2

  9
$PUCSORG
 10
0.0
 20
0.0
 30
0.0
  9
$PUCSXDIR
 10
1.0
 20
0.0
 30
0.0
  9
$PUCSYDIR
 10
0.0
 20
1.0
 30
0.0
  9
$USERI1
 70
     0
  9
$USERI2
 70
     0
  9
$USERI3
 70
     0
  9
$USERI4
 70
     0
  9
$USERI5
 70
     0
  9
$USERR1
 40
0.0
  9
$USERR2
 40
0.0
  9
$USERR3
 40
0.0
  9
$USERR4
 40
0.0
  9
$USERR5
 40
0.0
  9
$WORLDVIEW
 70
     0
  9
$SHADEDGE
 70
     3
  9
$SHADEDIF
 70
    70
  9
$TILEMODE
 70
     1
  9
$MAXACTVP
 70
    16
  9
$PINSBASE
 10
0.0
 20
0.0
 30
0.0
  9
$PLIMCHECK
 70
     0
  9
$PEXTMIN
 10
1.000000E+20
 20
1.000000E+20
 30
1.000000E+20
  9
$PEXTMAX
 10
-1.000000E+20
 20
-1.000000E+20
 30
-1.000000E+20
  9
$PLIMMIN
 10
0.0
 20
0.0
  9
$PLIMMAX
 10
12.0
 20
9.0
  9
$UNITMODE
 70
     0
  9
$VISRETAIN
 70
     0
  9
$PLINEGEN
 70
     0
  9
$PSLTSCALE
 70
     0
  9
$TREEDEPTH
 70
  3020
  9
$PICKSTYLE
 70
     1
  9
$CMLSTYLE
  2
STANDARD
  9
$CMLJUST
 70
     0
  9
$CMLSCALE
 40
1.0
  9
$PROXYGRAPHICS
 70
     1
  9
$MEASUREMENT
 70
     0
  0
ENDSEC
  0
SECTION
  2
CLASSES
  0
CLASS
  1
DICTIONARYVAR
  2
AcDbDictionaryVar
  3
"AutoCAD"
 90
        0
280
     0
281
     0
  0
CLASS
  1
LWPOLYLINE
  2
AcDbPolyline
  3
"AutoCAD"
 90
        0
280
     0
281
     1
  0
CLASS
  1
HATCH
  2
AcDbHatch
  3
"ACAD_SEDONA"
 90
        0
280
     0
281
     1
  0
CLASS
  1
SORTENTSTABLE
  2
AcDbSortentsTable
  3
"AutoCAD"
 90
        0
280
     0
281
     0
  0
CLASS
  1
WIPEOUTVARIABLES
  2
AcDbWipeoutVariables
  3
WIPEOUT
 90
        0
280
     0
281
     0
  0
CLASS
  1
WIPEOUT
  2
AcDbWipeout
  3
WIPEOUT
 90
      127
280
     0
281
     1
  0
ENDSEC
  0
SECTION
  2
TABLES
  0
TABLE
  2
VPORT
  5
14
100
AcDbSymbolTable
 70
     2
  0
VPORT
  5
28C
100
AcDbSymbolTableRecord
100
AcDbViewportTableRecord
  2
*ACTIVE
 70
     0
 10
0.0
 20
0.0
 11
1.0
 21
1.0
 12
676.364757
 22
472.730701
 13
0.0
 23
0.0
 14
10.0
 24
10.0
 15
0.0
 25
0.0
 16
0.0
 26
0.0
 36
1.0
 17
16.313321
 27
12.779115
 37
0.222949
 40
590.247854
 41
1.470516
 42
50.0
 43
0.0
 44
0.0
 50
0.0
 51
0.0
 71
     0
 72
  2000
 73
     1
 74
     2
 75
     0
 76
     0
 77
     0
 78
     1
  0
ENDTAB
  0
TABLE
  2
LTYPE
  5
F
100
AcDbSymbolTable
 70
     3
  0
LTYPE
  5
10
100
AcDbSymbolTableRecord
100
AcDbLinetypeTableRecord
  2
BYBLOCK
 70
     0
  3

 72
    65
 73
     0
 40
0.0
  0
LTYPE
  5
11
100
AcDbSymbolTableRecord
100
AcDbLinetypeTableRecord
  2
BYLAYER
 70
     0
  3

 72
    65
 73
     0
 40
0.0
  0
LTYPE
  5
7
100
AcDbSymbolTableRecord
100
AcDbLinetypeTableRecord
  2
CONTINUOUS
 70
     0
  3
Solid line
 72
    65
 73
     0
 40
0.0
  0
LTYPE
  5
87
100
AcDbSymbolTableRecord
100
AcDbLinetypeTableRecord
  2
CENTER
 70
     0
  3
Center ____ _ ____ _ ____ _ ____ _ ____ _ ____
 72
    65
 73
     4
 40
2.0
 49
1.25
 74
     0
 49
-0.25
 74
     0
 49
0.25
 74
     0
 49
-0.25
 74
     0
  0
LTYPE
  5
2F
100
AcDbSymbolTableRecord
100
AcDbLinetypeTableRecord
  2
HIDDEN
 70
     0
  3
Hidden __ __ __ __ __ __ __ __ __ __ __ __ __ _
 72
    65
 73
     2
 40
0.375
 49
0.25
 74
     0
 49
-0.125
 74
     0
  0
ENDTAB
  0
TABLE
  2
LAYER
  5
C
100
AcDbSymbolTable
 70
     9
  0
LAYER
  5
6
100
AcDbSymbolTableRecord
100
AcDbLayerTableRecord
  2
0
 70
     0
 62
     7
  6
CONTINUOUS
  0
LAYER
  5
86
100
AcDbSymbolTableRecord
100
AcDbLayerTableRecord
  2
CENTRE
 70
     0
 62
     3
  6
CENTER
  0
LAYER
  5
1D
100
AcDbSymbolTableRecord
100
AcDbLayerTableRecord
  2
M01
 70
     0
 62
     1
  6
CONTINUOUS
  0
LAYER
  5
2E
100
AcDbSymbolTableRecord
100
AcDbLayerTableRecord
  2
M03
 70
     0
 62
     2
  6
HIDDEN
  0
LAYER
  5
2A
100
AcDbSymbolTableRecord
100
AcDbLayerTableRecord
  2
M04
 70
     0
 62
     7
  6
CONTINUOUS
  0
LAYER
  5
24
100
AcDbSymbolTableRecord
100
AcDbLayerTableRecord
  2
DIMS
 70
     0
 62
     4
  6
CONTINUOUS
  0
LAYER
  5
21
100
AcDbSymbolTableRecord
100
AcDbLayerTableRecord
  2
TEXT
 70
     0
 62
     2
  6
CONTINUOUS
  0
LAYER
  5
A8
100
AcDbSymbolTableRecord
100
AcDbLayerTableRecord
  2
DEFPOINTS
 70
     0
 62
     7
  6
CONTINUOUS
  0
LAYER
  5
28
100
AcDbSymbolTableRecord
100
AcDbLayerTableRecord
  2
HATCH
 70
     0
 62
     4
  6
CONTINUOUS
  0
ENDTAB
  0
TABLE
  2
STYLE
  5
D
100
AcDbSymbolTable
 70
     1
  0
STYLE
  5
E
100
AcDbSymbolTableRecord
100
AcDbTextStyleTableRecord
  2
STANDARD
 70
     0
 40
0.0
 41
1.0
 50
0.0
 71
     0
 42
2.0
  3
SIMPLEX
  4

  0
ENDTAB
  0
TABLE
  2
VIEW
  5
12
100
AcDbSymbolTable
 70
     0
  0
ENDTAB
  0
TABLE
  2
UCS
  5
13
100
AcDbSymbolTable
 70
     0
  0
ENDTAB
  0
TABLE
  2
APPID
  5
16
100
AcDbSymbolTable
 70
     1
  0
APPID
  5
17
100
AcDbSymbolTableRecord
100
AcDbRegAppTableRecord
  2
ACAD
 70
     0
  0
ENDTAB
  0
TABLE
  2
DIMSTYLE
  5
18
100
AcDbSymbolTable
 70
     2
  0
DIMSTYLE
105
1F
102
{ACAD_REACTORS
330
1F0
330
1E3
330
1D6
330
1C8
330
15C
330
148
330
C7
330
BA
330
AD
330
9E
102
}
100
AcDbSymbolTableRecord
100
AcDbDimStyleTableRecord
  2
DIM1
 70
     0
  3

  4

  5

  6

  7

 40
1.0
 41
3.0
 42
1.0
 43
10.0
 44
2.5
 45
0.01
 46
1.25
 47
0.05
 48
0.0
140
3.0
141
-1.7
142
0.0
143
0.039
144
0.2
145
1.5
146
0.7
147
1.5
 71
     0
 72
     0
 73
     0
 74
     0
 75
     0
 76
     0
 77
     3
 78
     1
170
     0
171
     2
172
     0
173
     0
174
     0
175
     0
176
     4
177
     4
178
     2
270
     2
271
     2
272
     2
273
     2
274
     2
340
E
275
     0
280
     0
281
     0
282
     0
283
     1
284
     1
285
     1
286
     1
287
     0
288
     0
  0
DIMSTYLE
105
26
100
AcDbSymbolTableRecord
100
AcDbDimStyleTableRecord
  2
DIM1$7
 70
     0
  3

  4

  5

  6

  7

 40
1.0
 41
3.0
 42
1.0
 43
10.0
 44
2.5
 45
0.01
 46
1.25
 47
0.0
 48
0.0
140
3.0
141
-1.7
142
0.0
143
0.039
144
1.0
145
0.0
146
1.0
147
1.5
 71
     0
 72
     0
 73
     0
 74
     0
 75
     0
 76
     0
 77
     0
 78
     1
170
     0
171
     2
172
     0
173
     0
174
     0
175
     0
176
     4
177
     4
178
     2
270
     2
271
     2
272
     2
273
     2
274
     2
340
E
275
     0
280
     0
281
     0
282
     0
283
     1
284
     1
285
     1
286
     1
287
     0
288
     0
  0
ENDTAB
  0
TABLE
  2
BLOCK_RECORD
  5
1
100
AcDbSymbolTable
 70
    10
  0
BLOCK_RECORD
  5
2
102
{ACAD_XDICTIONARY
360
3
102
}
100
AcDbSymbolTableRecord
100
AcDbBlockTableRecord
  2
*MODEL_SPACE
  0
BLOCK_RECORD
  5
9
100
AcDbSymbolTableRecord
100
AcDbBlockTableRecord
  2
*PAPER_SPACE
  0
BLOCK_RECORD
  5
1F1
100
AcDbSymbolTableRecord
100
AcDbBlockTableRecord
  2
*D0
  0
BLOCK_RECORD
  5
1E4
100
AcDbSymbolTableRecord
100
AcDbBlockTableRecord
  2
*D1
  0
BLOCK_RECORD
  5
1D7
100
AcDbSymbolTableRecord
100
AcDbBlockTableRecord
  2
*D2
  0
BLOCK_RECORD
  5
1C9
100
AcDbSymbolTableRecord
100
AcDbBlockTableRecord
  2
*D3
  0
BLOCK_RECORD
  5
15D
100
AcDbSymbolTableRecord
100
AcDbBlockTableRecord
  2
*D4
  0
BLOCK_RECORD
  5
149
100
AcDbSymbolTableRecord
100
AcDbBlockTableRecord
  2
*D5
  0
BLOCK_RECORD
  5
C8
100
AcDbSymbolTableRecord
100
AcDbBlockTableRecord
  2
*D6
  0
BLOCK_RECORD
  5
BB
100
AcDbSymbolTableRecord
100
AcDbBlockTableRecord
  2
*D7
  0
BLOCK_RECORD
  5
AE
100
AcDbSymbolTableRecord
100
AcDbBlockTableRecord
  2
*D8
  0
BLOCK_RECORD
  5
9F
100
AcDbSymbolTableRecord
100
AcDbBlockTableRecord
  2
*D9
  0
ENDTAB
  0
ENDSEC
  0
SECTION
  2
BLOCKS
  0
BLOCK
  5
5
100
AcDbEntity
  8
0
100
AcDbBlockBegin
  2
*MODEL_SPACE
 70
     0
 10
0.0
 20
0.0
 30
0.0
  3
*MODEL_SPACE
  1

  0
ENDBLK
  5
8
100
AcDbEntity
  8
0
100
AcDbBlockEnd
  0
BLOCK
  5
A
100
AcDbEntity
 67
     1
  8
0
100
AcDbBlockBegin
  2
*PAPER_SPACE
 70
     0
 10
0.0
 20
0.0
 30
0.0
  3
*PAPER_SPACE
  1

  0
ENDBLK
  5
B
100
AcDbEntity
 67
     1
  8
0
100
AcDbBlockEnd
  0
BLOCK
  5
1FC
100
AcDbEntity
  8
0
100
AcDbBlockBegin
  2
*D0
 70
     1
 10
0.0
 20
0.0
 30
0.0
  3
*D0
  1

  0
LINE
  5
1F2
100
AcDbEntity
  8
0
  6
BYBLOCK
 62
     4
100
AcDbLine
 10
664.895095
 20
559.58436
 30
0.0
 11
664.895095
 21
541.205744
 31
0.0
  0
LINE
  5
1F3
100
AcDbEntity
  8
0
  6
BYBLOCK
 62
     4
100
AcDbLine
 10
649.895095
 20
574.163168
 30
0.0
 11
649.895095
 21
541.205744
 31
0.0
  0
LINE
  5
1F4
100
AcDbEntity
  8
0
  6
BYBLOCK
 62
     4
100
AcDbLine
 10
667.895095
 20
543.705744
 30
0.0
 11
670.895095
 21
543.705744
 31
0.0
  0
LINE
  5
1F5
100
AcDbEntity
  8
0
  6
BYBLOCK
 62
     4
100
AcDbLine
 10
646.895095
 20
543.705744
 30
0.0
 11
622.8424
 21
543.705744
 31
0.0
  0
SOLID
  5
1F6
100
AcDbEntity
  8
0
  6
BYBLOCK
 62
     4
100
AcDbTrace
 10
667.895095
 20
544.205744
 30
0.0
 11
667.895095
 21
543.205744
 31
0.0
 12
664.895095
 22
543.705744
 32
0.0
 13
664.895095
 23
543.705744
 33
0.0
  0
SOLID
  5
1F7
100
AcDbEntity
  8
0
  6
BYBLOCK
 62
     4
100
AcDbTrace
 10
646.895095
 20
544.205744
 30
0.0
 11
646.895095
 21
543.205744
 31
0.0
 12
649.895095
 22
543.705744
 32
0.0
 13
649.895095
 23
543.705744
 33
0.0
  0
MTEXT
  5
1F8
100
AcDbEntity
  8
0
  6
BYBLOCK
 62
     2
100
AcDbMText
 10
630.056686
 20
546.705744
 30
0.0
 40
3.0
 41
0.0
 71
     5
 72
     1
  1
\A1;15.00
  0
POINT
  5
1F9
100
AcDbEntity
  8
DEFPOINTS
  6
BYBLOCK
 62
     0
100
AcDbPoint
 10
664.895095
 20
560.58436
 30
0.0
  0
POINT
  5
1FA
100
AcDbEntity
  8
DEFPOINTS
  6
BYBLOCK
 62
     0
100
AcDbPoint
 10
649.895095
 20
575.163168
 30
0.0
  0
POINT
  5
1FB
100
AcDbEntity
  8
DEFPOINTS
  6
BYBLOCK
 62
     0
100
AcDbPoint
 10
649.895095
 20
543.705744
 30
0.0
  0
ENDBLK
  5
1FD
100
AcDbEntity
  8
0
100
AcDbBlockEnd
  0
BLOCK
  5
1EE
100
AcDbEntity
  8
0
100
AcDbBlockBegin
  2
*D1
 70
     1
 10
0.0
 20
0.0
 30
0.0
  3
*D1
  1

  0
LINE
  5
1E5
100
AcDbEntity
  8
0
  6
BYBLOCK
 62
     4
100
AcDbLine
 10
694.895095
 20
559.58436
 30
0.0
 11
694.895095
 21
528.205744
 31
0.0
  0
LINE
  5
1E6
100
AcDbEntity
  8
0
  6
BYBLOCK
 62
     4
100
AcDbLine
 10
599.895095
 20
580.513168
 30
0.0
 11
599.895095
 21
528.205744
 31
0.0
  0
LINE
  5
1E7
100
AcDbEntity
  8
0
  6
BYBLOCK
 62
     4
100
AcDbLine
 10
691.895095
 20
530.705744
 30
0.0
 11
602.895095
 21
530.705744
 31
0.0
  0
SOLID
  5
1E8
100
AcDbEntity
  8
0
  6
BYBLOCK
 62
     4
100
AcDbTrace
 10
691.895095
 20
531.205744
 30
0.0
 11
691.895095
 21
530.205744
 31
0.0
 12
694.895095
 22
530.705744
 32
0.0
 13
694.895095
 23
530.705744
 33
0.0
  0
SOLID
  5
1E9
100
AcDbEntity
  8
0
  6
BYBLOCK
 62
     4
100
AcDbTrace
 10
602.895095
 20
531.205744
 30
0.0
 11
602.895095
 21
530.205744
 31
0.0
 12
599.895095
 22
530.705744
 32
0.0
 13
599.895095
 23
530.705744
 33
0.0
  0
MTEXT
  5
1EA
100
AcDbEntity
  8
0
  6
BYBLOCK
 62
     2
100
AcDbMText
 10
647.395095
 20
533.705744
 30
0.0
 40
3.0
 41
0.0
 71
     5
 72
     1
  1
\A1;L1=95.00
  0
POINT
  5
1EB
100
AcDbEntity
  8
DEFPOINTS
  6
BYBLOCK
 62
     0
100
AcDbPoint
 10
694.895095
 20
560.58436
 30
0.0
  0
POINT
  5
1EC
100
AcDbEntity
  8
DEFPOINTS
  6
BYBLOCK
 62
     0
100
AcDbPoint
 10
599.895095
 20
581.513168
 30
0.0
  0
POINT
  5
1ED
100
AcDbEntity
  8
DEFPOINTS
  6
BYBLOCK
 62
     0
100
AcDbPoint
 10
599.895095
 20
530.705744
 30
0.0
  0
ENDBLK
  5
1EF
100
AcDbEntity
  8
0
100
AcDbBlockEnd
  0
BLOCK
  5
1E1
100
AcDbEntity
  8
0
100
AcDbBlockBegin
  2
*D2
 70
     1
 10
0.0
 20
0.0
 30
0.0
  3
*D2
  1

  0
LINE
  5
1D8
100
AcDbEntity
  8
0
  6
BYBLOCK
 62
     4
100
AcDbLine
 10
694.895095
 20
559.58436
 30
0.0
 11
694.895095
 21
518.205744
 31
0.0
  0
LINE
  5
1D9
100
AcDbEntity
  8
0
  6
BYBLOCK
 62
     4
100
AcDbLine
 10
591.895095
 20
583.863168
 30
0.0
 11
591.895095
 21
518.205744
 31
0.0
  0
LINE
  5
1DA
100
AcDbEntity
  8
0
  6
BYBLOCK
 62
     4
100
AcDbLine
 10
691.895095
 20
520.705744
 30
0.0
 11
594.895095
 21
520.705744
 31
0.0
  0
SOLID
  5
1DB
100
AcDbEntity
  8
0
  6
BYBLOCK
 62
     4
100
AcDbTrace
 10
691.895095
 20
521.205744
 30
0.0
 11
691.895095
 21
520.205744
 31
0.0
 12
694.895095
 22
520.705744
 32
0.0
 13
694.895095
 23
520.705744
 33
0.0
  0
SOLID
  5
1DC
100
AcDbEntity
  8
0
  6
BYBLOCK
 62
     4
100
AcDbTrace
 10
594.895095
 20
521.205744
 30
0.0
 11
594.895095
 21
520.205744
 31
0.0
 12
591.895095
 22
520.705744
 32
0.0
 13
591.895095
 23
520.705744
 33
0.0
  0
MTEXT
  5
1DD
100
AcDbEntity
  8
0
  6
BYBLOCK
 62
     2
100
AcDbMText
 10
643.395095
 20
523.705744
 30
0.0
 40
3.0
 41
0.0
 71
     5
 72
     1
  1
\A1;103.00 REF.
  0
POINT
  5
1DE
100
AcDbEntity
  8
DEFPOINTS
  6
BYBLOCK
 62
     0
100
AcDbPoint
 10
694.895095
 20
560.58436
 30
0.0
  0
POINT
  5
1DF
100
AcDbEntity
  8
DEFPOINTS
  6
BYBLOCK
 62
     0
100
AcDbPoint
 10
591.895095
 20
584.863168
 30
0.0
  0
POINT
  5
1E0
100
AcDbEntity
  8
DEFPOINTS
  6
BYBLOCK
 62
     0
100
AcDbPoint
 10
591.895095
 20
520.705744
 30
0.0
  0
ENDBLK
  5
1E2
100
AcDbEntity
  8
0
100
AcDbBlockEnd
  0
BLOCK
  5
1D4
100
AcDbEntity
  8
0
100
AcDbBlockBegin
  2
*D3
 70
     1
 10
0.0
 20
0.0
 30
0.0
  3
*D3
  1

  0
LINE
  5
1CA
100
AcDbEntity
  8
0
  6
BYBLOCK
 62
     4
100
AcDbLine
 10
397.529071
 20
497.372983
 30
0.0
 11
432.685162
 21
497.372983
 31
0.0
  0
LINE
  5
1CB
100
AcDbEntity
  8
0
  6
BYBLOCK
 62
     4
100
AcDbLine
 10
398.529071
 20
471.972983
 30
0.0
 11
432.685162
 21
471.972983
 31
0.0
  0
LINE
  5
1CC
100
AcDbEntity
  8
0
  6
BYBLOCK
 62
     4
100
AcDbLine
 10
430.185162
 20
500.372983
 30
0.0
 11
430.185162
 21
503.372983
 31
0.0
  0
LINE
  5
1CD
100
AcDbEntity
  8
0
  6
BYBLOCK
 62
     4
100
AcDbLine
 10
430.185162
 20
468.972983
 30
0.0
 11
430.185162
 21
443.261587
 31
0.0
  0
SOLID
  5
1CE
100
AcDbEntity
  8
0
  6
BYBLOCK
 62
     4
100
AcDbTrace
 10
429.685162
 20
500.372983
 30
0.0
 11
430.685162
 21
500.372983
 31
0.0
 12
430.185162
 22
497.372983
 32
0.0
 13
430.185162
 23
497.372983
 33
0.0
  0
SOLID
  5
1CF
100
AcDbEntity
  8
0
  6
BYBLOCK
 62
     4
100
AcDbTrace
 10
429.685162
 20
468.972983
 30
0.0
 11
430.685162
 21
468.972983
 31
0.0
 12
430.185162
 22
471.972983
 32
0.0
 13
430.185162
 23
471.972983
 33
0.0
  0
MTEXT
  5
1D0
100
AcDbEntity
  8
0
  6
BYBLOCK
 62
     2
100
AcDbMText
 10
427.185162
 20
452.11873
 30
0.0
 40
3.0
 41
0.0
 71
     5
 72
     1
  1
\A1;\U+220525.40
 11
0.0
 21
1.0
 31
0.0
  0
POINT
  5
1D1
100
AcDbEntity
  8
DEFPOINTS
  6
BYBLOCK
 62
     0
100
AcDbPoint
 10
396.529071
 20
497.372983
 30
0.0
  0
POINT
  5
1D2
100
AcDbEntity
  8
DEFPOINTS
  6
BYBLOCK
 62
     0
100
AcDbPoint
 10
397.529071
 20
471.972983
 30
0.0
  0
POINT
  5
1D3
100
AcDbEntity
  8
DEFPOINTS
  6
BYBLOCK
 62
     0
100
AcDbPoint
 10
430.185162
 20
471.972983
 30
0.0
  0
ENDBLK
  5
1D5
100
AcDbEntity
  8
0
100
AcDbBlockEnd
  0
BLOCK
  5
168
100
AcDbEntity
  8
0
100
AcDbBlockBegin
  2
*D4
 70
     1
 10
0.0
 20
0.0
 30
0.0
  3
*D4
  1

  0
LINE
  5
15E
100
AcDbEntity
  8
0
  6
BYBLOCK
 62
     4
100
AcDbLine
 10
785.226768
 20
385.402414
 30
0.0
 11
785.226768
 21
367.832169
 31
0.0
  0
LINE
  5
15F
100
AcDbEntity
  8
0
  6
BYBLOCK
 62
     4
100
AcDbLine
 10
791.226768
 20
385.402414
 30
0.0
 11
791.226768
 21
367.832169
 31
0.0
  0
LINE
  5
160
100
AcDbEntity
  8
0
  6
BYBLOCK
 62
     4
100
AcDbLine
 10
782.226768
 20
370.332169
 30
0.0
 11
779.226768
 21
370.332169
 31
0.0
  0
LINE
  5
161
100
AcDbEntity
  8
0
  6
BYBLOCK
 62
     4
100
AcDbLine
 10
794.226768
 20
370.332169
 30
0.0
 11
809.369626
 21
370.332169
 31
0.0
  0
SOLID
  5
162
100
AcDbEntity
  8
0
  6
BYBLOCK
 62
     4
100
AcDbTrace
 10
782.226768
 20
370.832169
 30
0.0
 11
782.226768
 21
369.832169
 31
0.0
 12
785.226768
 22
370.332169
 32
0.0
 13
785.226768
 23
370.332169
 33
0.0
  0
SOLID
  5
163
100
AcDbEntity
  8
0
  6
BYBLOCK
 62
     4
100
AcDbTrace
 10
794.226768
 20
370.832169
 30
0.0
 11
794.226768
 21
369.832169
 31
0.0
 12
791.226768
 22
370.332169
 32
0.0
 13
791.226768
 23
370.332169
 33
0.0
  0
MTEXT
  5
164
100
AcDbEntity
  8
0
  6
BYBLOCK
 62
     2
100
AcDbMText
 10
803.298197
 20
373.332169
 30
0.0
 40
3.0
 41
0.0
 71
     5
 72
     1
  1
\A1;6.00
  0
POINT
  5
165
100
AcDbEntity
  8
DEFPOINTS
  6
BYBLOCK
 62
     0
100
AcDbPoint
 10
785.226768
 20
386.402414
 30
0.0
  0
POINT
  5
166
100
AcDbEntity
  8
DEFPOINTS
  6
BYBLOCK
 62
     0
100
AcDbPoint
 10
791.226768
 20
386.402414
 30
0.0
  0
POINT
  5
167
100
AcDbEntity
  8
DEFPOINTS
  6
BYBLOCK
 62
     0
100
AcDbPoint
 10
791.226768
 20
370.332169
 30
0.0
  0
ENDBLK
  5
169
100
AcDbEntity
  8
0
100
AcDbBlockEnd
  0
BLOCK
  5
153
100
AcDbEntity
  8
0
100
AcDbBlockBegin
  2
*D5
 70
     1
 10
0.0
 20
0.0
 30
0.0
  3
*D5
  1

  0
LINE
  5
14A
100
AcDbEntity
  8
0
  6
BYBLOCK
 62
     4
100
AcDbLine
 10
390.760305
 20
484.672983
 30
0.0
 11
381.250534
 21
484.672983
 31
0.0
  0
LINE
  5
14B
100
AcDbEntity
  8
0
  6
BYBLOCK
 62
     4
100
AcDbLine
 10
410.278631
 20
468.672983
 30
0.0
 11
381.250534
 21
468.672983
 31
0.0
  0
LINE
  5
14C
100
AcDbEntity
  8
0
  6
BYBLOCK
 62
     4
100
AcDbLine
 10
383.750534
 20
481.672983
 30
0.0
 11
383.750534
 21
471.672983
 31
0.0
  0
SOLID
  5
14D
100
AcDbEntity
  8
0
  6
BYBLOCK
 62
     4
100
AcDbTrace
 10
383.250534
 20
481.672983
 30
0.0
 11
384.250534
 21
481.672983
 31
0.0
 12
383.750534
 22
484.672983
 32
0.0
 13
383.750534
 23
484.672983
 33
0.0
  0
SOLID
  5
14E
100
AcDbEntity
  8
0
  6
BYBLOCK
 62
     4
100
AcDbTrace
 10
383.250534
 20
471.672983
 30
0.0
 11
384.250534
 21
471.672983
 31
0.0
 12
383.750534
 22
468.672983
 32
0.0
 13
383.750534
 23
468.672983
 33
0.0
  0
MTEXT
  5
14F
100
AcDbEntity
  8
0
  6
BYBLOCK
 62
     2
100
AcDbMText
 10
380.750534
 20
476.672983
 30
0.0
 40
3.0
 41
0.0
 71
     5
 72
     1
  1
\A1;16.00
 11
0.0
 21
1.0
 31
0.0
  0
POINT
  5
150
100
AcDbEntity
  8
DEFPOINTS
  6
BYBLOCK
 62
     0
100
AcDbPoint
 10
391.760305
 20
484.672983
 30
0.0
  0
POINT
  5
151
100
AcDbEntity
  8
DEFPOINTS
  6
BYBLOCK
 62
     0
100
AcDbPoint
 10
411.278631
 20
468.672983
 30
0.0
  0
POINT
  5
152
100
AcDbEntity
  8
DEFPOINTS
  6
BYBLOCK
 62
     0
100
AcDbPoint
 10
383.750534
 20
468.672983
 30
0.0
  0
ENDBLK
  5
154
100
AcDbEntity
  8
0
100
AcDbBlockEnd
  0
BLOCK
  5
D3
100
AcDbEntity
  8
0
100
AcDbBlockBegin
  2
*D6
 70
     1
 10
0.0
 20
0.0
 30
0.0
  3
*D6
  1

  0
LINE
  5
C9
100
AcDbEntity
  8
0
  6
BYBLOCK
 62
     4
100
AcDbLine
 10
664.895095
 20
262.693419
 30
0.0
 11
664.895095
 21
253.30513
 31
0.0
  0
LINE
  5
CA
100
AcDbEntity
  8
0
  6
BYBLOCK
 62
     4
100
AcDbLine
 10
649.895095
 20
286.262554
 30
0.0
 11
649.895095
 21
253.30513
 31
0.0
  0
LINE
  5
CB
100
AcDbEntity
  8
0
  6
BYBLOCK
 62
     4
100
AcDbLine
 10
667.895095
 20
255.80513
 30
0.0
 11
670.895095
 21
255.80513
 31
0.0
  0
LINE
  5
CC
100
AcDbEntity
  8
0
  6
BYBLOCK
 62
     4
100
AcDbLine
 10
646.895095
 20
255.80513
 30
0.0
 11
622.8424
 21
255.80513
 31
0.0
  0
SOLID
  5
CD
100
AcDbEntity
  8
0
  6
BYBLOCK
 62
     4
100
AcDbTrace
 10
667.895095
 20
256.30513
 30
0.0
 11
667.895095
 21
255.30513
 31
0.0
 12
664.895095
 22
255.80513
 32
0.0
 13
664.895095
 23
255.80513
 33
0.0
  0
SOLID
  5
CE
100
AcDbEntity
  8
0
  6
BYBLOCK
 62
     4
100
AcDbTrace
 10
646.895095
 20
256.30513
 30
0.0
 11
646.895095
 21
255.30513
 31
0.0
 12
649.895095
 22
255.80513
 32
0.0
 13
649.895095
 23
255.80513
 33
0.0
  0
MTEXT
  5
CF
100
AcDbEntity
  8
0
  6
BYBLOCK
 62
     2
100
AcDbMText
 10
630.056686
 20
258.80513
 30
0.0
 40
3.0
 41
0.0
 71
     5
 72
     1
  1
\A1;15.00
  0
POINT
  5
D0
100
AcDbEntity
  8
DEFPOINTS
  6
BYBLOCK
 62
     0
100
AcDbPoint
 10
664.895095
 20
263.693419
 30
0.0
  0
POINT
  5
D1
100
AcDbEntity
  8
DEFPOINTS
  6
BYBLOCK
 62
     0
100
AcDbPoint
 10
649.895095
 20
287.262554
 30
0.0
  0
POINT
  5
D2
100
AcDbEntity
  8
DEFPOINTS
  6
BYBLOCK
 62
     0
100
AcDbPoint
 10
649.895095
 20
255.80513
 30
0.0
  0
ENDBLK
  5
D4
100
AcDbEntity
  8
0
100
AcDbBlockEnd
  0
BLOCK
  5
C5
100
AcDbEntity
  8
0
100
AcDbBlockBegin
  2
*D7
 70
     1
 10
0.0
 20
0.0
 30
0.0
  3
*D7
  1

  0
LINE
  5
BC
100
AcDbEntity
  8
0
  6
BYBLOCK
 62
     4
100
AcDbLine
 10
694.895095
 20
262.693419
 30
0.0
 11
694.895095
 21
240.30513
 31
0.0
  0
LINE
  5
BD
100
AcDbEntity
  8
0
  6
BYBLOCK
 62
     4
100
AcDbLine
 10
599.895095
 20
292.612554
 30
0.0
 11
599.895095
 21
240.30513
 31
0.0
  0
LINE
  5
BE
100
AcDbEntity
  8
0
  6
BYBLOCK
 62
     4
100
AcDbLine
 10
691.895095
 20
242.80513
 30
0.0
 11
602.895095
 21
242.80513
 31
0.0
  0
SOLID
  5
BF
100
AcDbEntity
  8
0
  6
BYBLOCK
 62
     4
100
AcDbTrace
 10
691.895095
 20
243.30513
 30
0.0
 11
691.895095
 21
242.30513
 31
0.0
 12
694.895095
 22
242.80513
 32
0.0
 13
694.895095
 23
242.80513
 33
0.0
  0
SOLID
  5
C0
100
AcDbEntity
  8
0
  6
BYBLOCK
 62
     4
100
AcDbTrace
 10
602.895095
 20
243.30513
 30
0.0
 11
602.895095
 21
242.30513
 31
0.0
 12
599.895095
 22
242.80513
 32
0.0
 13
599.895095
 23
242.80513
 33
0.0
  0
MTEXT
  5
C1
100
AcDbEntity
  8
0
  6
BYBLOCK
 62
     2
100
AcDbMText
 10
647.395095
 20
245.80513
 30
0.0
 40
3.0
 41
0.0
 71
     5
 72
     1
  1
\A1;L1=95.00
  0
POINT
  5
C2
100
AcDbEntity
  8
DEFPOINTS
  6
BYBLOCK
 62
     0
100
AcDbPoint
 10
694.895095
 20
263.693419
 30
0.0
  0
POINT
  5
C3
100
AcDbEntity
  8
DEFPOINTS
  6
BYBLOCK
 62
     0
100
AcDbPoint
 10
599.895095
 20
293.612554
 30
0.0
  0
POINT
  5
C4
100
AcDbEntity
  8
DEFPOINTS
  6
BYBLOCK
 62
     0
100
AcDbPoint
 10
599.895095
 20
242.80513
 30
0.0
  0
ENDBLK
  5
C6
100
AcDbEntity
  8
0
100
AcDbBlockEnd
  0
BLOCK
  5
B8
100
AcDbEntity
  8
0
100
AcDbBlockBegin
  2
*D8
 70
     1
 10
0.0
 20
0.0
 30
0.0
  3
*D8
  1

  0
LINE
  5
AF
100
AcDbEntity
  8
0
  6
BYBLOCK
 62
     4
100
AcDbLine
 10
694.895095
 20
262.693419
 30
0.0
 11
694.895095
 21
230.30513
 31
0.0
  0
LINE
  5
B0
100
AcDbEntity
  8
0
  6
BYBLOCK
 62
     4
100
AcDbLine
 10
591.895095
 20
295.962554
 30
0.0
 11
591.895095
 21
230.30513
 31
0.0
  0
LINE
  5
B1
100
AcDbEntity
  8
0
  6
BYBLOCK
 62
     4
100
AcDbLine
 10
691.895095
 20
232.80513
 30
0.0
 11
594.895095
 21
232.80513
 31
0.0
  0
SOLID
  5
B2
100
AcDbEntity
  8
0
  6
BYBLOCK
 62
     4
100
AcDbTrace
 10
691.895095
 20
233.30513
 30
0.0
 11
691.895095
 21
232.30513
 31
0.0
 12
694.895095
 22
232.80513
 32
0.0
 13
694.895095
 23
232.80513
 33
0.0
  0
SOLID
  5
B3
100
AcDbEntity
  8
0
  6
BYBLOCK
 62
     4
100
AcDbTrace
 10
594.895095
 20
233.30513
 30
0.0
 11
594.895095
 21
232.30513
 31
0.0
 12
591.895095
 22
232.80513
 32
0.0
 13
591.895095
 23
232.80513
 33
0.0
  0
MTEXT
  5
B4
100
AcDbEntity
  8
0
  6
BYBLOCK
 62
     2
100
AcDbMText
 10
643.395095
 20
235.80513
 30
0.0
 40
3.0
 41
0.0
 71
     5
 72
     1
  1
\A1;103.00 REF.
  0
POINT
  5
B5
100
AcDbEntity
  8
DEFPOINTS
  6
BYBLOCK
 62
     0
100
AcDbPoint
 10
694.895095
 20
263.693419
 30
0.0
  0
POINT
  5
B6
100
AcDbEntity
  8
DEFPOINTS
  6
BYBLOCK
 62
     0
100
AcDbPoint
 10
591.895095
 20
296.962554
 30
0.0
  0
POINT
  5
B7
100
AcDbEntity
  8
DEFPOINTS
  6
BYBLOCK
 62
     0
100
AcDbPoint
 10
591.895095
 20
232.80513
 30
0.0
  0
ENDBLK
  5
B9
100
AcDbEntity
  8
0
100
AcDbBlockEnd
  0
BLOCK
  5
AB
100
AcDbEntity
  8
0
100
AcDbBlockBegin
  2
*D9
 70
     1
 10
0.0
 20
0.0
 30
0.0
  3
*D9
  1

  0
LINE
  5
A0
100
AcDbEntity
  8
0
  6
BYBLOCK
 62
     4
100
AcDbLine
 10
632.895095
 20
312.662554
 30
0.0
 11
673.025261
 21
312.662554
 31
0.0
  0
LINE
  5
A1
100
AcDbEntity
  8
0
  6
BYBLOCK
 62
     4
100
AcDbLine
 10
633.895095
 20
287.262554
 30
0.0
 11
673.025261
 21
287.262554
 31
0.0
  0
LINE
  5
A2
100
AcDbEntity
  8
0
  6
BYBLOCK
 62
     4
100
AcDbLine
 10
670.525261
 20
315.662554
 30
0.0
 11
670.525261
 21
318.662554
 31
0.0
  0
LINE
  5
A3
100
AcDbEntity
  8
0
  6
BYBLOCK
 62
     4
100
AcDbLine
 10
670.525261
 20
284.262554
 30
0.0
 11
670.525261
 21
258.551158
 31
0.0
  0
SOLID
  5
A4
100
AcDbEntity
  8
0
  6
BYBLOCK
 62
     4
100
AcDbTrace
 10
670.025261
 20
315.662554
 30
0.0
 11
671.025261
 21
315.662554
 31
0.0
 12
670.525261
 22
312.662554
 32
0.0
 13
670.525261
 23
312.662554
 33
0.0
  0
SOLID
  5
A5
100
AcDbEntity
  8
0
  6
BYBLOCK
 62
     4
100
AcDbTrace
 10
670.025261
 20
284.262554
 30
0.0
 11
671.025261
 21
284.262554
 31
0.0
 12
670.525261
 22
287.262554
 32
0.0
 13
670.525261
 23
287.262554
 33
0.0
  0
MTEXT
  5
A6
100
AcDbEntity
  8
0
  6
BYBLOCK
 62
     2
100
AcDbMText
 10
667.525261
 20
267.408301
 30
0.0
 40
3.0
 41
0.0
 71
     5
 72
     1
  1
\A1;\U+220525.40
 11
0.0
 21
1.0
 31
0.0
  0
POINT
  5
A7
100
AcDbEntity
  8
DEFPOINTS
  6
BYBLOCK
 62
     0
100
AcDbPoint
 10
631.895095
 20
312.662554
 30
0.0
  0
POINT
  5
A9
100
AcDbEntity
  8
DEFPOINTS
  6
BYBLOCK
 62
     0
100
AcDbPoint
 10
632.895095
 20
287.262554
 30
0.0
  0
POINT
  5
AA
100
AcDbEntity
  8
DEFPOINTS
  6
BYBLOCK
 62
     0
100
AcDbPoint
 10
670.525261
 20
287.262554
 30
0.0
  0
ENDBLK
  5
AC
100
AcDbEntity
  8
0
100
AcDbBlockEnd
  0
ENDSEC
  0
SECTION
  2
ENTITIES
  0
TEXT
  5
20
100
AcDbEntity
  8
TEXT
100
AcDbText
 10
397.861291
 20
340.099116
 30
0.0
 40
4.0
  1
%%USINGLE BUSH INSTALLATION
100
AcDbText
  0
TEXT
  5
22
100
AcDbEntity
  8
TEXT
100
AcDbText
 10
405.087443
 20
633.159239
 30
0.0
 40
4.0
  1
%%UMANIFOLD INSTALLATION
100
AcDbText
  0
MTEXT
  5
23
102
{ACAD_REACTORS
330
25
102
}
100
AcDbEntity
  8
DIMS
 62
     2
100
AcDbMText
 10
716.056398
 20
336.001137
 30
0.0
 40
3.0
 41
0.0
 71
     1
 72
     5
  1
MAX10027
  0
LEADER
  5
25
100
AcDbEntity
  8
DIMS
 62
     4
100
AcDbLeader
  3
DIM1$7
 73
     0
 74
     0
 75
     1
 40
3.0
 41
25.0
 76
     3
 10
696.783189
 20
321.434434
 30
0.0
 10
711.556398
 20
334.501137
 30
0.0
 10
714.556398
 20
334.501137
 30
0.0
 77
   256
340
23
213
0.0
223
-1.5
233
0.0
1001
ACAD
1000
DSTYLE
1002
{
1070
   144
1040
1.0
1002
}
  0
HATCH
  5
27
100
AcDbEntity
  8
HATCH
100
AcDbHatch
 10
0.0
 20
0.0
 30
0.0
210
0.0
220
0.0
230
1.0
  2
_U
 70
     0
 71
     1
 91
        2
 92
        7
 72
     0
 73
     1
 93
        6
 10
698.0750948938739
 20
324.7625540329209
 10
697.5750948938739
 20
325.2625540329209
 10
695.3950948938738
 20
325.2625540329209
 10
694.8950948938737
 20
324.7625540329209
 10
694.8950948938737
 20
309.9625540329209
 10
698.0750948938739
 20
309.9625540329209
 97
        6
330
3F
330
44
330
40
330
135
330
3E
330
45
 92
        7
 72
     0
 73
     1
 93
        6
 10
698.0750948938738
 20
289.9625540329208
 10
694.8950948938739
 20
289.9625540329208
 10
694.8950948938739
 20
275.1625540329208
 10
695.3950948938738
 20
274.6625540329208
 10
697.5750948938738
 20
274.6625540329208
 10
698.0750948938738
 20
275.1625540329208
 97
        6
330
3D
330
135
330
41
330
43
330
42
330
45
 75
     0
 76
     0
 52
45.0
 41
1.0
 77
     0
 78
     1
 53
45.0
 43
628.483377
 44
409.207742
 45
-0.7071067811865475
 46
0.7071067811865476
 79
     0
 47
0.234947
 98
        2
 10
696.783189
 20
323.079061
 10
697.018228
 20
279.848845
  0
ARC
  5
29
100
AcDbEntity
  8
M04
100
AcDbCircle
 10
498.420799
 20
280.462554
 30
0.0
 40
1.5
100
AcDbArc
 50
180.0
 51
0.0
  0
LINE
  5
2B
100
AcDbEntity
  8
M04
100
AcDbLine
 10
499.920799
 20
281.462554
 30
0.0
 11
499.920799
 21
280.462554
 31
0.0
  0
LINE
  5
2C
100
AcDbEntity
  8
M04
100
AcDbLine
 10
496.920799
 20
281.462554
 30
0.0
 11
496.920799
 21
280.462554
 31
0.0
  0
ARC
  5
2D
100
AcDbEntity
  8
M03
100
AcDbCircle
 10
709.395095
 20
299.962554
 30
0.0
 40
15.5
100
AcDbArc
 50
159.306459
 51
200.693541
  0
LINE
  5
30
100
AcDbEntity
  8
M04
 48
0.7
100
AcDbLine
 10
692.395095
 20
286.462554
 30
0.0
 11
694.895095
 21
286.462554
 31
0.0
  0
LINE
  5
31
100
AcDbEntity
  8
M04
 48
0.7
100
AcDbLine
 10
687.895095
 20
278.962554
 30
0.0
 11
694.895095
 21
278.962554
 31
0.0
  0
LINE
  5
32
100
AcDbEntity
  8
M04
100
AcDbLine
 10
695.395095
 20
274.662554
 30
0.0
 11
694.895095
 21
274.662554
 31
0.0
  0
LINE
  5
33
100
AcDbEntity
  8
M04
100
AcDbLine
 10
698.075095
 20
275.162554
 30
0.0
 11
698.075095
 21
274.662554
 31
0.0
  0
LINE
  5
34
100
AcDbEntity
  8
M04
100
AcDbLine
 10
697.575095
 20
274.662554
 30
0.0
 11
698.075095
 21
274.662554
 31
0.0
  0
LINE
  5
35
100
AcDbEntity
  8
M04
100
AcDbLine
 10
702.895095
 20
289.962554
 30
0.0
 11
707.835514
 21
285.022135
 31
0.0
  0
LINE
  5
36
100
AcDbEntity
  8
M04
 48
0.7
100
AcDbLine
 10
698.075095
 20
289.962554
 30
0.0
 11
702.895095
 21
289.962554
 31
0.0
  0
LINE
  5
37
100
AcDbEntity
  8
M04
100
AcDbLine
 10
695.395095
 20
325.262554
 30
0.0
 11
694.895095
 21
325.262554
 31
0.0
  0
LINE
  5
38
100
AcDbEntity
  8
M04
100
AcDbLine
 10
698.075095
 20
324.762554
 30
0.0
 11
698.075095
 21
325.262554
 31
0.0
  0
LINE
  5
39
100
AcDbEntity
  8
M04
100
AcDbLine
 10
697.575095
 20
325.262554
 30
0.0
 11
698.075095
 21
325.262554
 31
0.0
  0
LINE
  5
3A
100
AcDbEntity
  8
M04
100
AcDbLine
 10
702.895095
 20
309.962554
 30
0.0
 11
707.835514
 21
314.902973
 31
0.0
  0
LINE
  5
3B
100
AcDbEntity
  8
M04
100
AcDbLine
 10
702.895095
 20
309.962554
 30
0.0
 11
702.895095
 21
289.962554
 31
0.0
  0
LINE
  5
3C
100
AcDbEntity
  8
M04
 48
0.7
100
AcDbLine
 10
698.075095
 20
309.962554
 30
0.0
 11
702.895095
 21
309.962554
 31
0.0
  0
LINE
  5
3D
102
{ACAD_REACTORS
330
27
102
}
100
AcDbEntity
  8
M01
 48
0.7
100
AcDbLine
 10
694.895095
 20
289.962554
 30
0.0
 11
698.075095
 21
289.962554
 31
0.0
  0
LINE
  5
3E
102
{ACAD_REACTORS
330
27
102
}
100
AcDbEntity
  8
M01
 48
0.7
100
AcDbLine
 10
694.895095
 20
309.962554
 30
0.0
 11
698.075095
 21
309.962554
 31
0.0
  0
LINE
  5
3F
102
{ACAD_REACTORS
330
27
102
}
100
AcDbEntity
  8
M01
100
AcDbLine
 10
697.575095
 20
325.262554
 30
0.0
 11
698.075095
 21
324.762554
 31
0.0
  0
LINE
  5
40
102
{ACAD_REACTORS
330
27
102
}
100
AcDbEntity
  8
M01
 48
0.7
100
AcDbLine
 10
694.895095
 20
324.762554
 30
0.0
 11
695.395095
 21
325.262554
 31
0.0
  0
LINE
  5
41
102
{ACAD_REACTORS
330
27
102
}
100
AcDbEntity
  8
M01
100
AcDbLine
 10
695.395095
 20
274.662554
 30
0.0
 11
694.895095
 21
275.162554
 31
0.0
  0
LINE
  5
42
102
{ACAD_REACTORS
330
27
102
}
100
AcDbEntity
  8
M01
100
AcDbLine
 10
697.575095
 20
274.662554
 30
0.0
 11
698.075095
 21
275.162554
 31
0.0
  0
LINE
  5
43
102
{ACAD_REACTORS
330
27
102
}
100
AcDbEntity
  8
M01
 48
0.7
100
AcDbLine
 10
695.395095
 20
274.662554
 30
0.0
 11
697.575095
 21
274.662554
 31
0.0
  0
LINE
  5
44
102
{ACAD_REACTORS
330
27
102
}
100
AcDbEntity
  8
M01
 48
0.7
100
AcDbLine
 10
695.395095
 20
325.262554
 30
0.0
 11
697.575095
 21
325.262554
 31
0.0
  0
LINE
  5
45
102
{ACAD_REACTORS
330
27
102
}
100
AcDbEntity
  8
M01
100
AcDbLine
 10
698.075095
 20
324.762554
 30
0.0
 11
698.075095
 21
275.162554
 31
0.0
  0
LINE
  5
46
100
AcDbEntity
  8
M01
100
AcDbLine
 10
496.920799
 20
287.351448
 30
0.0
 11
496.920799
 21
281.462554
 31
0.0
  0
LINE
  5
47
100
AcDbEntity
  8
M01
100
AcDbLine
 10
499.420799
 20
280.962554
 30
0.0
 11
497.420799
 21
280.962554
 31
0.0
  0
LINE
  5
48
100
AcDbEntity
  8
M01
100
AcDbLine
 10
496.920799
 20
281.462554
 30
0.0
 11
497.420799
 21
280.962554
 31
0.0
  0
LINE
  5
49
100
AcDbEntity
  8
M01
100
AcDbLine
 10
496.920799
 20
281.462554
 30
0.0
 11
499.920799
 21
281.462554
 31
0.0
  0
LINE
  5
4A
100
AcDbEntity
  8
M01
100
AcDbLine
 10
499.920799
 20
281.462554
 30
0.0
 11
499.420799
 21
280.962554
 31
0.0
  0
LINE
  5
4B
100
AcDbEntity
  8
M01
100
AcDbLine
 10
499.920799
 20
287.351448
 30
0.0
 11
499.920799
 21
281.462554
 31
0.0
  0
LINE
  5
4C
100
AcDbEntity
  8
M04
 48
0.7
100
AcDbLine
 10
492.170799
 20
307.768802
 30
0.0
 11
492.170799
 21
455.908246
 31
0.0
  0
LINE
  5
4D
100
AcDbEntity
  8
M04
 48
0.7
100
AcDbLine
 10
504.670799
 20
307.768802
 30
0.0
 11
504.670799
 21
455.908246
 31
0.0
  0
LINE
  5
4E
100
AcDbEntity
  8
M01
100
AcDbLine
 10
500.670799
 20
427.382902
 30
0.0
 11
500.670799
 21
428.882902
 31
0.0
  0
LINE
  5
4F
100
AcDbEntity
  8
M01
100
AcDbLine
 10
501.420799
 20
426.083864
 30
0.0
 11
501.420799
 21
427.583864
 31
0.0
  0
LINE
  5
50
100
AcDbEntity
  8
M01
100
AcDbLine
 10
495.420799
 20
425.976168
 30
0.0
 11
501.420799
 21
427.583864
 31
0.0
  0
LINE
  5
51
100
AcDbEntity
  8
M01
100
AcDbLine
 10
500.461235
 20
425.826749
 30
0.0
 11
501.420799
 21
426.083864
 31
0.0
  0
LINE
  5
52
100
AcDbEntity
  8
M01
100
AcDbLine
 10
495.420799
 20
425.826749
 30
0.0
 11
495.420799
 21
425.976168
 31
0.0
  0
LINE
  5
53
100
AcDbEntity
  8
M01
100
AcDbLine
 10
496.170799
 20
450.17713
 30
0.0
 11
496.170799
 21
450.914411
 31
0.0
  0
LINE
  5
54
100
AcDbEntity
  8
M01
100
AcDbLine
 10
495.420799
 20
448.476168
 30
0.0
 11
495.420799
 21
449.976168
 31
0.0
  0
LINE
  5
55
100
AcDbEntity
  8
M01
100
AcDbLine
 10
496.170799
 20
447.17713
 30
0.0
 11
496.170799
 21
448.67713
 31
0.0
  0
LINE
  5
56
100
AcDbEntity
  8
M01
100
AcDbLine
 10
495.420799
 20
445.476168
 30
0.0
 11
495.420799
 21
446.976168
 31
0.0
  0
LINE
  5
57
100
AcDbEntity
  8
M01
100
AcDbLine
 10
496.170799
 20
444.17713
 30
0.0
 11
496.170799
 21
445.67713
 31
0.0
  0
LINE
  5
58
100
AcDbEntity
  8
M01
100
AcDbLine
 10
496.170799
 20
441.17713
 30
0.0
 11
496.170799
 21
442.67713
 31
0.0
  0
LINE
  5
59
100
AcDbEntity
  8
M01
100
AcDbLine
 10
495.420799
 20
442.476168
 30
0.0
 11
495.420799
 21
443.976168
 31
0.0
  0
LINE
  5
5A
100
AcDbEntity
  8
M01
100
AcDbLine
 10
495.420799
 20
439.476168
 30
0.0
 11
495.420799
 21
440.976168
 31
0.0
  0
LINE
  5
5B
100
AcDbEntity
  8
M01
100
AcDbLine
 10
496.170799
 20
438.17713
 30
0.0
 11
496.170799
 21
439.67713
 31
0.0
  0
LINE
  5
5C
100
AcDbEntity
  8
M01
100
AcDbLine
 10
495.420799
 20
436.476168
 30
0.0
 11
495.420799
 21
437.976168
 31
0.0
  0
LINE
  5
5D
100
AcDbEntity
  8
M01
100
AcDbLine
 10
496.170799
 20
435.17713
 30
0.0
 11
496.170799
 21
436.67713
 31
0.0
  0
LINE
  5
5E
100
AcDbEntity
  8
M01
100
AcDbLine
 10
495.420799
 20
433.476168
 30
0.0
 11
495.420799
 21
434.976168
 31
0.0
  0
LINE
  5
5F
100
AcDbEntity
  8
M01
100
AcDbLine
 10
496.170799
 20
432.17713
 30
0.0
 11
496.170799
 21
433.67713
 31
0.0
  0
LINE
  5
60
100
AcDbEntity
  8
M01
100
AcDbLine
 10
495.420799
 20
430.476168
 30
0.0
 11
495.420799
 21
431.976168
 31
0.0
  0
LINE
  5
61
100
AcDbEntity
  8
M01
100
AcDbLine
 10
496.170799
 20
429.17713
 30
0.0
 11
496.170799
 21
430.67713
 31
0.0
  0
LINE
  5
62
100
AcDbEntity
  8
M01
100
AcDbLine
 10
500.670799
 20
430.382902
 30
0.0
 11
500.670799
 21
431.882902
 31
0.0
  0
LINE
  5
63
100
AcDbEntity
  8
M01
100
AcDbLine
 10
500.670799
 20
433.382902
 30
0.0
 11
500.670799
 21
434.882902
 31
0.0
  0
LINE
  5
64
100
AcDbEntity
  8
M01
100
AcDbLine
 10
500.670799
 20
436.382902
 30
0.0
 11
500.670799
 21
437.882902
 31
0.0
  0
LINE
  5
65
100
AcDbEntity
  8
M01
100
AcDbLine
 10
500.670799
 20
439.382902
 30
0.0
 11
500.670799
 21
440.882902
 31
0.0
  0
LINE
  5
66
100
AcDbEntity
  8
M01
100
AcDbLine
 10
500.670799
 20
442.382902
 30
0.0
 11
500.670799
 21
443.882902
 31
0.0
  0
LINE
  5
67
100
AcDbEntity
  8
M01
100
AcDbLine
 10
500.670799
 20
445.382902
 30
0.0
 11
500.670799
 21
446.882902
 31
0.0
  0
LINE
  5
68
100
AcDbEntity
  8
M01
100
AcDbLine
 10
500.670799
 20
448.382902
 30
0.0
 11
500.670799
 21
449.882902
 31
0.0
  0
LINE
  5
69
100
AcDbEntity
  8
M01
100
AcDbLine
 10
500.670799
 20
451.382902
 30
0.0
 11
500.670799
 21
452.419403
 31
0.0
  0
LINE
  5
6A
100
AcDbEntity
  8
M01
100
AcDbLine
 10
501.420799
 20
450.083864
 30
0.0
 11
501.420799
 21
451.583864
 31
0.0
  0
LINE
  5
6B
100
AcDbEntity
  8
M01
100
AcDbLine
 10
501.420799
 20
447.083864
 30
0.0
 11
501.420799
 21
448.583864
 31
0.0
  0
LINE
  5
6C
100
AcDbEntity
  8
M01
100
AcDbLine
 10
501.420799
 20
444.083864
 30
0.0
 11
501.420799
 21
445.583864
 31
0.0
  0
LINE
  5
6D
100
AcDbEntity
  8
M01
100
AcDbLine
 10
501.420799
 20
441.083864
 30
0.0
 11
501.420799
 21
442.583864
 31
0.0
  0
LINE
  5
6E
100
AcDbEntity
  8
M01
100
AcDbLine
 10
501.420799
 20
438.083864
 30
0.0
 11
501.420799
 21
439.583864
 31
0.0
  0
LINE
  5
6F
100
AcDbEntity
  8
M01
100
AcDbLine
 10
501.420799
 20
435.083864
 30
0.0
 11
501.420799
 21
436.583864
 31
0.0
  0
LINE
  5
70
100
AcDbEntity
  8
M01
100
AcDbLine
 10
501.420799
 20
432.083864
 30
0.0
 11
501.420799
 21
433.583864
 31
0.0
  0
LINE
  5
71
100
AcDbEntity
  8
M01
100
AcDbLine
 10
500.670799
 20
425.826749
 30
0.0
 11
500.670799
 21
425.882902
 31
0.0
  0
LINE
  5
72
100
AcDbEntity
  8
M01
100
AcDbLine
 10
501.420799
 20
429.083864
 30
0.0
 11
501.420799
 21
430.583864
 31
0.0
  0
LINE
  5
73
100
AcDbEntity
  8
M01
100
AcDbLine
 10
495.420799
 20
449.976168
 30
0.0
 11
501.420799
 21
451.583864
 31
0.0
  0
LINE
  5
74
100
AcDbEntity
  8
M01
100
AcDbLine
 10
495.420799
 20
448.476168
 30
0.0
 11
501.420799
 21
450.083864
 31
0.0
  0
LINE
  5
75
100
AcDbEntity
  8
M01
100
AcDbLine
 10
495.420799
 20
446.976168
 30
0.0
 11
501.420799
 21
448.583864
 31
0.0
  0
LINE
  5
76
100
AcDbEntity
  8
M01
100
AcDbLine
 10
495.420799
 20
445.476168
 30
0.0
 11
501.420799
 21
447.083864
 31
0.0
  0
LINE
  5
77
100
AcDbEntity
  8
M01
100
AcDbLine
 10
495.420799
 20
443.976168
 30
0.0
 11
501.420799
 21
445.583864
 31
0.0
  0
LINE
  5
78
100
AcDbEntity
  8
M01
100
AcDbLine
 10
495.420799
 20
442.476168
 30
0.0
 11
501.420799
 21
444.083864
 31
0.0
  0
LINE
  5
79
100
AcDbEntity
  8
M01
100
AcDbLine
 10
495.420799
 20
440.976168
 30
0.0
 11
501.420799
 21
442.583864
 31
0.0
  0
LINE
  5
7A
100
AcDbEntity
  8
M01
100
AcDbLine
 10
495.420799
 20
439.476168
 30
0.0
 11
501.420799
 21
441.083864
 31
0.0
  0
LINE
  5
7B
100
AcDbEntity
  8
M01
100
AcDbLine
 10
495.420799
 20
437.976168
 30
0.0
 11
501.420799
 21
439.583864
 31
0.0
  0
LINE
  5
7C
100
AcDbEntity
  8
M01
100
AcDbLine
 10
495.420799
 20
436.476168
 30
0.0
 11
501.420799
 21
438.083864
 31
0.0
  0
LINE
  5
7D
100
AcDbEntity
  8
M01
100
AcDbLine
 10
495.420799
 20
434.976168
 30
0.0
 11
501.420799
 21
436.583864
 31
0.0
  0
LINE
  5
7E
100
AcDbEntity
  8
M01
100
AcDbLine
 10
495.420799
 20
433.476168
 30
0.0
 11
501.420799
 21
435.083864
 31
0.0
  0
LINE
  5
7F
100
AcDbEntity
  8
M01
100
AcDbLine
 10
495.420799
 20
431.976168
 30
0.0
 11
501.420799
 21
433.583864
 31
0.0
  0
LINE
  5
80
100
AcDbEntity
  8
M01
100
AcDbLine
 10
495.420799
 20
430.476168
 30
0.0
 11
501.420799
 21
432.083864
 31
0.0
  0
LINE
  5
81
100
AcDbEntity
  8
M01
100
AcDbLine
 10
495.420799
 20
428.976168
 30
0.0
 11
501.420799
 21
430.583864
 31
0.0
  0
LINE
  5
82
100
AcDbEntity
  8
M01
100
AcDbLine
 10
495.420799
 20
427.476168
 30
0.0
 11
501.420799
 21
429.083864
 31
0.0
  0
LINE
  5
83
100
AcDbEntity
  8
M01
100
AcDbLine
 10
496.170799
 20
426.17713
 30
0.0
 11
496.170799
 21
427.67713
 31
0.0
  0
LINE
  5
84
100
AcDbEntity
  8
M01
100
AcDbLine
 10
495.420799
 20
427.476168
 30
0.0
 11
495.420799
 21
428.976168
 31
0.0
  0
LINE
  5
85
100
AcDbEntity
  8
CENTRE
 48
0.7
100
AcDbLine
 10
498.420799
 20
274.638901
 30
0.0
 11
498.420799
 21
460.577044
 31
0.0
  0
LINE
  5
88
100
AcDbEntity
  8
M01
100
AcDbLine
 10
499.670799
 20
312.462554
 30
0.0
 11
499.670799
 21
397.826749
 31
0.0
  0
LINE
  5
89
100
AcDbEntity
  8
M01
100
AcDbLine
 10
497.170799
 20
312.462554
 30
0.0
 11
497.170799
 21
397.826749
 31
0.0
  0
LINE
  5
8A
100
AcDbEntity
  8
M01
100
AcDbLine
 10
501.920799
 20
415.826749
 30
0.0
 11
494.920799
 21
415.826749
 31
0.0
  0
LINE
  5
8B
100
AcDbEntity
  8
M01
100
AcDbLine
 10
495.420799
 20
407.751492
 30
0.0
 11
501.420799
 21
407.751492
 31
0.0
  0
LINE
  5
8C
100
AcDbEntity
  8
M01
100
AcDbLine
 10
501.420799
 20
407.751492
 30
0.0
 11
501.420799
 21
415.826749
 31
0.0
  0
LINE
  5
8D
100
AcDbEntity
  8
M01
100
AcDbLine
 10
495.420799
 20
407.751492
 30
0.0
 11
495.420799
 21
415.826749
 31
0.0
  0
LINE
  5
8E
100
AcDbEntity
  8
M01
100
AcDbLine
 10
497.170799
 20
397.826749
 30
0.0
 11
495.420799
 21
407.751492
 31
0.0
  0
LINE
  5
8F
100
AcDbEntity
  8
M01
100
AcDbLine
 10
494.920799
 20
415.826749
 30
0.0
 11
494.920799
 21
425.826749
 31
0.0
  0
LINE
  5
90
100
AcDbEntity
  8
M01
100
AcDbLine
 10
499.670799
 20
397.826749
 30
0.0
 11
501.420799
 21
407.751492
 31
0.0
  0
LINE
  5
91
100
AcDbEntity
  8
M01
100
AcDbLine
 10
501.920799
 20
415.826749
 30
0.0
 11
501.920799
 21
425.826749
 31
0.0
  0
LINE
  5
92
100
AcDbEntity
  8
M01
100
AcDbLine
 10
501.920799
 20
425.826749
 30
0.0
 11
494.920799
 21
425.826749
 31
0.0
  0
LINE
  5
93
100
AcDbEntity
  8
M01
100
AcDbLine
 10
499.670799
 20
397.826749
 30
0.0
 11
497.170799
 21
397.826749
 31
0.0
  0
CIRCLE
  5
94
100
AcDbEntity
  8
M04
100
AcDbCircle
 10
498.420799
 20
299.962554
 30
0.0
 40
10.0
  0
CIRCLE
  5
95
100
AcDbEntity
  8
M01
100
AcDbCircle
 10
498.420799
 20
299.962554
 30
0.0
 40
12.7
  0
CIRCLE
  5
96
100
AcDbEntity
  8
M01
100
AcDbCircle
 10
498.420799
 20
299.962554
 30
0.0
 40
9.5
  0
CIRCLE
  5
97
100
AcDbEntity
  8
M01
100
AcDbCircle
 10
498.420799
 20
299.962554
 30
0.0
 40
6.35
  0
CIRCLE
  5
98
100
AcDbEntity
  8
M03
100
AcDbCircle
 10
498.420799
 20
299.962554
 30
0.0
 40
2.375
  0
LINE
  5
99
100
AcDbEntity
  8
CENTRE
100
AcDbLine
 10
523.744452
 20
299.962554
 30
0.0
 11
473.097146
 21
299.962554
 31
0.0
  0
TEXT
  5
9A
100
AcDbEntity
  8
DIMS
 62
     2
100
AcDbText
 10
668.446186
 20
257.829379
 30
0.0
 40
2.0
  1
-0
100
AcDbText
  0
TEXT
  5
9B
100
AcDbEntity
  8
DIMS
 62
     2
100
AcDbText
 10
668.446186
 20
260.914299
 30
0.0
 40
2.0
  1
+0.02
100
AcDbText
  0
TEXT
  5
9C
100
AcDbEntity
  8
DIMS
 62
     2
100
AcDbText
 10
719.49166
 20
276.236195
 30
0.0
 40
2.0
  1
-0
 50
90.0
100
AcDbText
  0
TEXT
  5
9D
100
AcDbEntity
  8
DIMS
 62
     2
100
AcDbText
 10
716.406739
 20
276.236195
 30
0.0
 40
2.0
  1
+0.02
 50
90.0
100
AcDbText
  0
DIMENSION
  5
9E
100
AcDbEntity
  8
DIMS
100
AcDbDimension
  2
*D9
 10
720.525261
 20
287.262554
 30
0.0
 11
720.525261
 21
267.408301
 31
0.0
 12
50.0
 22
0.0
 32
0.0
 70
   128
  1
%%c<>
  3
DIM1
100
AcDbAlignedDimension
 13
681.895095
 23
312.662554
 33
0.0
 14
682.895095
 24
287.262554
 34
0.0
 50
90.0
100
AcDbRotatedDimension
1001
ACAD
1000
DSTYLE
1002
{
1070
   144
1040
1.0
1002
}
  0
DIMENSION
  5
AD
100
AcDbEntity
  8
DIMS
100
AcDbDimension
  2
*D8
 10
591.895095
 20
232.80513
 30
0.0
 11
643.395095
 21
235.80513
 31
0.0
  1
<> REF.
  3
DIM1
100
AcDbAlignedDimension
 13
694.895095
 23
263.693419
 33
0.0
 14
591.895095
 24
296.962554
 34
0.0
100
AcDbRotatedDimension
1001
ACAD
1000
DSTYLE
1002
{
1070
   144
1040
1.0
1002
}
  0
DIMENSION
  5
BA
100
AcDbEntity
  8
DIMS
100
AcDbDimension
  2
*D7
 10
599.895095
 20
242.80513
 30
0.0
 11
647.395095
 21
245.80513
 31
0.0
  1
L1=<>
  3
DIM1
100
AcDbAlignedDimension
 13
694.895095
 23
263.693419
 33
0.0
 14
599.895095
 24
293.612554
 34
0.0
100
AcDbRotatedDimension
1001
ACAD
1000
DSTYLE
1002
{
1070
   144
1040
1.0
1002
}
  0
DIMENSION
  5
C7
100
AcDbEntity
  8
DIMS
100
AcDbDimension
  2
*D6
 10
679.895095
 20
255.80513
 30
0.0
 11
660.056686
 21
255.80513
 31
0.0
 12
30.0
 22
0.0
 32
0.0
 70
   128
  3
DIM1
100
AcDbAlignedDimension
 13
694.895095
 23
263.693419
 33
0.0
 14
679.895095
 24
287.262554
 34
0.0
100
AcDbRotatedDimension
1001
ACAD
1000
DSTYLE
1002
{
1070
   144
1040
1.0
1002
}
  0
TEXT
  5
D5
100
AcDbEntity
  8
TEXT
100
AcDbText
 10
604.354057
 20
305.414749
 30
0.0
 40
2.0
  1
PLV187-095
 41
0.9
100
AcDbText
  0
MTEXT
  5
D6
100
AcDbEntity
  8
0
  6
BYBLOCK
 62
     2
100
AcDbMText
 10
554.114185
 20
317.972359
 30
0.0
 40
3.0
 41
0.0
 71
     5
 72
     1
  1
GATE INSERTION POINT
  0
SOLID
  5
D7
100
AcDbEntity
  8
0
  6
BYBLOCK
 62
     4
100
AcDbTrace
 10
590.728916
 20
304.079899
 30
0.0
 11
589.805196
 21
303.696831
 31
0.0
 12
591.41626
 22
301.117204
 32
0.0
 13
591.41626
 23
301.117204
 33
0.0
  0
LINE
  5
D8
100
AcDbEntity
  8
0
  6
BYBLOCK
 62
     4
100
AcDbLine
 10
584.502648
 20
317.972359
 30
0.0
 11
581.502648
 21
317.972359
 31
0.0
  0
LINE
  5
D9
100
AcDbEntity
  8
0
  6
BYBLOCK
 62
     4
100
AcDbLine
 10
590.267056
 20
303.888365
 30
0.0
 11
584.502648
 21
317.972359
 31
0.0
  0
CIRCLE
  5
DA
100
AcDbEntity
  8
M04
100
AcDbCircle
 10
591.895095
 20
299.962554
 30
0.0
 40
1.25
  0
LINE
  5
DB
100
AcDbEntity
  8
M01
100
AcDbLine
 10
685.645095
 20
427.382902
 30
0.0
 11
685.645095
 21
428.882902
 31
0.0
  0
LINE
  5
DC
100
AcDbEntity
  8
M01
100
AcDbLine
 10
686.395095
 20
426.083864
 30
0.0
 11
686.395095
 21
427.583864
 31
0.0
  0
LINE
  5
DD
100
AcDbEntity
  8
M01
100
AcDbLine
 10
680.395095
 20
425.976168
 30
0.0
 11
686.395095
 21
427.583864
 31
0.0
  0
LINE
  5
DE
100
AcDbEntity
  8
M01
100
AcDbLine
 10
685.435531
 20
425.826749
 30
0.0
 11
686.395095
 21
426.083864
 31
0.0
  0
LINE
  5
DF
100
AcDbEntity
  8
M01
100
AcDbLine
 10
680.395095
 20
425.826749
 30
0.0
 11
680.395095
 21
425.976168
 31
0.0
  0
LINE
  5
E0
100
AcDbEntity
  8
M01
100
AcDbLine
 10
681.145095
 20
450.17713
 30
0.0
 11
681.145095
 21
450.914411
 31
0.0
  0
LINE
  5
E1
100
AcDbEntity
  8
M01
100
AcDbLine
 10
680.395095
 20
448.476168
 30
0.0
 11
680.395095
 21
449.976168
 31
0.0
  0
LINE
  5
E2
100
AcDbEntity
  8
M01
100
AcDbLine
 10
681.145095
 20
447.17713
 30
0.0
 11
681.145095
 21
448.67713
 31
0.0
  0
LINE
  5
E3
100
AcDbEntity
  8
M01
100
AcDbLine
 10
680.395095
 20
445.476168
 30
0.0
 11
680.395095
 21
446.976168
 31
0.0
  0
LINE
  5
E4
100
AcDbEntity
  8
M01
100
AcDbLine
 10
681.145095
 20
444.17713
 30
0.0
 11
681.145095
 21
445.67713
 31
0.0
  0
LINE
  5
E5
100
AcDbEntity
  8
M01
100
AcDbLine
 10
681.145095
 20
441.17713
 30
0.0
 11
681.145095
 21
442.67713
 31
0.0
  0
LINE
  5
E6
100
AcDbEntity
  8
M01
100
AcDbLine
 10
680.395095
 20
442.476168
 30
0.0
 11
680.395095
 21
443.976168
 31
0.0
  0
LINE
  5
E7
100
AcDbEntity
  8
M01
100
AcDbLine
 10
680.395095
 20
439.476168
 30
0.0
 11
680.395095
 21
440.976168
 31
0.0
  0
LINE
  5
E8
100
AcDbEntity
  8
M01
100
AcDbLine
 10
681.145095
 20
438.17713
 30
0.0
 11
681.145095
 21
439.67713
 31
0.0
  0
LINE
  5
E9
100
AcDbEntity
  8
M01
100
AcDbLine
 10
680.395095
 20
436.476168
 30
0.0
 11
680.395095
 21
437.976168
 31
0.0
  0
LINE
  5
EA
100
AcDbEntity
  8
M01
100
AcDbLine
 10
681.145095
 20
435.17713
 30
0.0
 11
681.145095
 21
436.67713
 31
0.0
  0
LINE
  5
EB
100
AcDbEntity
  8
M01
100
AcDbLine
 10
680.395095
 20
433.476168
 30
0.0
 11
680.395095
 21
434.976168
 31
0.0
  0
LINE
  5
EC
100
AcDbEntity
  8
M01
100
AcDbLine
 10
681.145095
 20
432.17713
 30
0.0
 11
681.145095
 21
433.67713
 31
0.0
  0
LINE
  5
ED
100
AcDbEntity
  8
M01
100
AcDbLine
 10
680.395095
 20
430.476168
 30
0.0
 11
680.395095
 21
431.976168
 31
0.0
  0
LINE
  5
EE
100
AcDbEntity
  8
M01
100
AcDbLine
 10
681.145095
 20
429.17713
 30
0.0
 11
681.145095
 21
430.67713
 31
0.0
  0
LINE
  5
EF
100
AcDbEntity
  8
M01
100
AcDbLine
 10
685.645095
 20
430.382902
 30
0.0
 11
685.645095
 21
431.882902
 31
0.0
  0
LINE
  5
F0
100
AcDbEntity
  8
M01
100
AcDbLine
 10
685.645095
 20
433.382902
 30
0.0
 11
685.645095
 21
434.882902
 31
0.0
  0
LINE
  5
F1
100
AcDbEntity
  8
M01
100
AcDbLine
 10
685.645095
 20
436.382902
 30
0.0
 11
685.645095
 21
437.882902
 31
0.0
  0
LINE
  5
F2
100
AcDbEntity
  8
M01
100
AcDbLine
 10
685.645095
 20
439.382902
 30
0.0
 11
685.645095
 21
440.882902
 31
0.0
  0
LINE
  5
F3
100
AcDbEntity
  8
M01
100
AcDbLine
 10
685.645095
 20
442.382902
 30
0.0
 11
685.645095
 21
443.882902
 31
0.0
  0
LINE
  5
F4
100
AcDbEntity
  8
M01
100
AcDbLine
 10
685.645095
 20
445.382902
 30
0.0
 11
685.645095
 21
446.882902
 31
0.0
  0
LINE
  5
F5
100
AcDbEntity
  8
M01
100
AcDbLine
 10
685.645095
 20
448.382902
 30
0.0
 11
685.645095
 21
449.882902
 31
0.0
  0
LINE
  5
F6
100
AcDbEntity
  8
M01
100
AcDbLine
 10
685.645095
 20
451.382902
 30
0.0
 11
685.645095
 21
452.419403
 31
0.0
  0
LINE
  5
F7
100
AcDbEntity
  8
M01
100
AcDbLine
 10
686.395095
 20
450.083864
 30
0.0
 11
686.395095
 21
451.583864
 31
0.0
  0
LINE
  5
F8
100
AcDbEntity
  8
M01
100
AcDbLine
 10
686.395095
 20
447.083864
 30
0.0
 11
686.395095
 21
448.583864
 31
0.0
  0
LINE
  5
F9
100
AcDbEntity
  8
M01
100
AcDbLine
 10
686.395095
 20
444.083864
 30
0.0
 11
686.395095
 21
445.583864
 31
0.0
  0
LINE
  5
FA
100
AcDbEntity
  8
M01
100
AcDbLine
 10
686.395095
 20
441.083864
 30
0.0
 11
686.395095
 21
442.583864
 31
0.0
  0
LINE
  5
FB
100
AcDbEntity
  8
M01
100
AcDbLine
 10
686.395095
 20
438.083864
 30
0.0
 11
686.395095
 21
439.583864
 31
0.0
  0
LINE
  5
FC
100
AcDbEntity
  8
M01
100
AcDbLine
 10
686.395095
 20
435.083864
 30
0.0
 11
686.395095
 21
436.583864
 31
0.0
  0
LINE
  5
FD
100
AcDbEntity
  8
M01
100
AcDbLine
 10
686.395095
 20
432.083864
 30
0.0
 11
686.395095
 21
433.583864
 31
0.0
  0
LINE
  5
FE
100
AcDbEntity
  8
M01
100
AcDbLine
 10
685.645095
 20
425.826749
 30
0.0
 11
685.645095
 21
425.882902
 31
0.0
  0
LINE
  5
FF
100
AcDbEntity
  8
M01
100
AcDbLine
 10
686.395095
 20
429.083864
 30
0.0
 11
686.395095
 21
430.583864
 31
0.0
  0
LINE
  5
100
100
AcDbEntity
  8
M01
100
AcDbLine
 10
680.395095
 20
449.976168
 30
0.0
 11
686.395095
 21
451.583864
 31
0.0
  0
LINE
  5
101
100
AcDbEntity
  8
M01
100
AcDbLine
 10
680.395095
 20
448.476168
 30
0.0
 11
686.395095
 21
450.083864
 31
0.0
  0
LINE
  5
102
100
AcDbEntity
  8
M01
100
AcDbLine
 10
680.395095
 20
446.976168
 30
0.0
 11
686.395095
 21
448.583864
 31
0.0
  0
LINE
  5
103
100
AcDbEntity
  8
M01
100
AcDbLine
 10
680.395095
 20
445.476168
 30
0.0
 11
686.395095
 21
447.083864
 31
0.0
  0
LINE
  5
104
100
AcDbEntity
  8
M01
100
AcDbLine
 10
680.395095
 20
443.976168
 30
0.0
 11
686.395095
 21
445.583864
 31
0.0
  0
LINE
  5
105
100
AcDbEntity
  8
M01
100
AcDbLine
 10
680.395095
 20
442.476168
 30
0.0
 11
686.395095
 21
444.083864
 31
0.0
  0
LINE
  5
106
100
AcDbEntity
  8
M01
100
AcDbLine
 10
680.395095
 20
440.976168
 30
0.0
 11
686.395095
 21
442.583864
 31
0.0
  0
LINE
  5
107
100
AcDbEntity
  8
M01
100
AcDbLine
 10
680.395095
 20
439.476168
 30
0.0
 11
686.395095
 21
441.083864
 31
0.0
  0
LINE
  5
108
100
AcDbEntity
  8
M01
100
AcDbLine
 10
680.395095
 20
437.976168
 30
0.0
 11
686.395095
 21
439.583864
 31
0.0
  0
LINE
  5
109
100
AcDbEntity
  8
M01
100
AcDbLine
 10
680.395095
 20
436.476168
 30
0.0
 11
686.395095
 21
438.083864
 31
0.0
  0
LINE
  5
10A
100
AcDbEntity
  8
M01
100
AcDbLine
 10
680.395095
 20
434.976168
 30
0.0
 11
686.395095
 21
436.583864
 31
0.0
  0
LINE
  5
10B
100
AcDbEntity
  8
M01
100
AcDbLine
 10
680.395095
 20
433.476168
 30
0.0
 11
686.395095
 21
435.083864
 31
0.0
  0
LINE
  5
10C
100
AcDbEntity
  8
M01
100
AcDbLine
 10
680.395095
 20
431.976168
 30
0.0
 11
686.395095
 21
433.583864
 31
0.0
  0
LINE
  5
10D
100
AcDbEntity
  8
M01
100
AcDbLine
 10
680.395095
 20
430.476168
 30
0.0
 11
686.395095
 21
432.083864
 31
0.0
  0
LINE
  5
10E
100
AcDbEntity
  8
M01
100
AcDbLine
 10
680.395095
 20
428.976168
 30
0.0
 11
686.395095
 21
430.583864
 31
0.0
  0
LINE
  5
10F
100
AcDbEntity
  8
M01
100
AcDbLine
 10
680.395095
 20
427.476168
 30
0.0
 11
686.395095
 21
429.083864
 31
0.0
  0
LINE
  5
110
100
AcDbEntity
  8
M01
100
AcDbLine
 10
681.145095
 20
426.17713
 30
0.0
 11
681.145095
 21
427.67713
 31
0.0
  0
LINE
  5
111
100
AcDbEntity
  8
M01
100
AcDbLine
 10
680.395095
 20
427.476168
 30
0.0
 11
680.395095
 21
428.976168
 31
0.0
  0
LINE
  5
112
100
AcDbEntity
  8
CENTRE
 48
0.7
100
AcDbLine
 10
683.395095
 20
380.840784
 30
0.0
 11
683.395095
 21
460.577044
 31
0.0
  0
LINE
  5
113
100
AcDbEntity
  8
M01
100
AcDbLine
 10
684.645095
 20
312.462554
 30
0.0
 11
684.645095
 21
397.826749
 31
0.0
  0
LINE
  5
114
100
AcDbEntity
  8
M01
100
AcDbLine
 10
682.145095
 20
312.462554
 30
0.0
 11
682.145095
 21
397.826749
 31
0.0
  0
LINE
  5
115
100
AcDbEntity
  8
M01
100
AcDbLine
 10
686.895095
 20
415.826749
 30
0.0
 11
679.895095
 21
415.826749
 31
0.0
  0
LINE
  5
116
100
AcDbEntity
  8
M01
100
AcDbLine
 10
680.395095
 20
407.751492
 30
0.0
 11
686.395095
 21
407.751492
 31
0.0
  0
LINE
  5
117
100
AcDbEntity
  8
M01
100
AcDbLine
 10
686.395095
 20
407.751492
 30
0.0
 11
686.395095
 21
415.826749
 31
0.0
  0
LINE
  5
118
100
AcDbEntity
  8
M01
100
AcDbLine
 10
680.395095
 20
407.751492
 30
0.0
 11
680.395095
 21
415.826749
 31
0.0
  0
LINE
  5
119
100
AcDbEntity
  8
M01
100
AcDbLine
 10
682.145095
 20
397.826749
 30
0.0
 11
680.395095
 21
407.751492
 31
0.0
  0
LINE
  5
11A
100
AcDbEntity
  8
M01
100
AcDbLine
 10
679.895095
 20
415.826749
 30
0.0
 11
679.895095
 21
425.826749
 31
0.0
  0
LINE
  5
11B
100
AcDbEntity
  8
M01
100
AcDbLine
 10
684.645095
 20
397.826749
 30
0.0
 11
686.395095
 21
407.751492
 31
0.0
  0
LINE
  5
11C
100
AcDbEntity
  8
M01
100
AcDbLine
 10
686.895095
 20
415.826749
 30
0.0
 11
686.895095
 21
425.826749
 31
0.0
  0
LINE
  5
11D
100
AcDbEntity
  8
M01
100
AcDbLine
 10
686.895095
 20
425.826749
 30
0.0
 11
679.895095
 21
425.826749
 31
0.0
  0
LINE
  5
11E
100
AcDbEntity
  8
M01
100
AcDbLine
 10
684.645095
 20
397.826749
 30
0.0
 11
682.145095
 21
397.826749
 31
0.0
  0
LINE
  5
11F
100
AcDbEntity
  8
M04
100
AcDbLine
 10
694.895095
 20
275.162554
 30
0.0
 11
694.895095
 21
263.693419
 31
0.0
  0
LINE
  5
120
100
AcDbEntity
  8
M04
100
AcDbLine
 10
684.280736
 20
286.462554
 30
0.0
 11
684.280736
 21
287.462554
 31
0.0
  0
LINE
  5
121
100
AcDbEntity
  8
M04
 48
0.7
100
AcDbLine
 10
684.280736
 20
286.462554
 30
0.0
 11
689.395095
 21
286.462554
 31
0.0
  0
LINE
  5
122
100
AcDbEntity
  8
M04
100
AcDbLine
 10
682.895095
 20
287.262554
 30
0.0
 11
684.280736
 21
286.462554
 31
0.0
  0
LINE
  5
123
100
AcDbEntity
  8
M04
100
AcDbLine
 10
681.895095
 20
287.262554
 30
0.0
 11
682.895095
 21
287.262554
 31
0.0
  0
LINE
  5
124
100
AcDbEntity
  8
M04
100
AcDbLine
 10
682.895095
 20
287.462554
 30
0.0
 11
682.895095
 21
287.262554
 31
0.0
  0
LINE
  5
125
100
AcDbEntity
  8
M04
100
AcDbLine
 10
679.895095
 20
287.962554
 30
0.0
 11
679.895095
 21
287.262554
 31
0.0
  0
LINE
  5
126
100
AcDbEntity
  8
M04
100
AcDbLine
 10
680.595095
 20
287.262554
 30
0.0
 11
679.895095
 21
287.262554
 31
0.0
  0
LINE
  5
127
100
AcDbEntity
  8
M04
 48
0.7
100
AcDbLine
 10
609.895095
 20
289.962554
 30
0.0
 11
679.895095
 21
289.962554
 31
0.0
  0
LINE
  5
128
100
AcDbEntity
  8
M04
 48
0.7
100
AcDbLine
 10
609.895095
 20
309.962554
 30
0.0
 11
676.895095
 21
309.962554
 31
0.0
  0
LINE
  5
129
100
AcDbEntity
  8
M04
100
AcDbLine
 10
676.895095
 20
455.908246
 30
0.0
 11
676.895095
 21
309.462554
 31
0.0
  0
LINE
  5
12A
100
AcDbEntity
  8
M04
100
AcDbLine
 10
694.895095
 20
324.762554
 30
0.0
 11
694.895095
 21
338.26634
 31
0.0
  0
LINE
  5
12B
100
AcDbEntity
  8
M04
100
AcDbLine
 10
687.895095
 20
286.462554
 30
0.0
 11
687.895095
 21
278.962554
 31
0.0
  0
LINE
  5
12C
100
AcDbEntity
  8
M03
100
AcDbLine
 10
599.895095
 20
297.587554
 30
0.0
 11
694.078131
 21
297.587554
 31
0.0
  0
LINE
  5
12D
100
AcDbEntity
  8
M03
100
AcDbLine
 10
599.895095
 20
302.337554
 30
0.0
 11
694.078131
 21
302.337554
 31
0.0
  0
LINE
  5
12E
100
AcDbEntity
  8
CENTRE
 48
0.7
100
AcDbLine
 10
690.895095
 20
275.720937
 30
0.0
 11
690.895095
 21
293.61855
 31
0.0
  0
LINE
  5
12F
100
AcDbEntity
  8
M01
100
AcDbLine
 10
689.395095
 20
287.462554
 30
0.0
 11
689.395095
 21
281.462554
 31
0.0
  0
LINE
  5
130
100
AcDbEntity
  8
M01
100
AcDbLine
 10
691.895095
 20
280.962554
 30
0.0
 11
689.895095
 21
280.962554
 31
0.0
  0
LINE
  5
131
100
AcDbEntity
  8
M01
100
AcDbLine
 10
689.395095
 20
281.462554
 30
0.0
 11
689.895095
 21
280.962554
 31
0.0
  0
LINE
  5
132
100
AcDbEntity
  8
M01
100
AcDbLine
 10
689.395095
 20
281.462554
 30
0.0
 11
692.395095
 21
281.462554
 31
0.0
  0
LINE
  5
133
100
AcDbEntity
  8
M01
100
AcDbLine
 10
692.395095
 20
281.462554
 30
0.0
 11
691.895095
 21
280.962554
 31
0.0
  0
LINE
  5
134
100
AcDbEntity
  8
M01
100
AcDbLine
 10
692.395095
 20
287.462554
 30
0.0
 11
692.395095
 21
281.462554
 31
0.0
  0
LINE
  5
135
102
{ACAD_REACTORS
330
27
102
}
100
AcDbEntity
  8
M01
100
AcDbLine
 10
694.895095
 20
324.762554
 30
0.0
 11
694.895095
 21
275.162554
 31
0.0
  0
LINE
  5
136
100
AcDbEntity
  8
M01
100
AcDbLine
 10
679.895095
 20
311.962554
 30
0.0
 11
680.595095
 21
312.662554
 31
0.0
  0
LINE
  5
137
100
AcDbEntity
  8
M01
100
AcDbLine
 10
680.595095
 20
312.662554
 30
0.0
 11
681.895095
 21
312.662554
 31
0.0
  0
LINE
  5
138
100
AcDbEntity
  8
M01
100
AcDbLine
 10
679.895095
 20
287.962554
 30
0.0
 11
680.595095
 21
287.262554
 31
0.0
  0
LINE
  5
139
100
AcDbEntity
  8
M01
100
AcDbLine
 10
680.595095
 20
287.262554
 30
0.0
 11
681.895095
 21
287.262554
 31
0.0
  0
LINE
  5
13A
100
AcDbEntity
  8
M01
100
AcDbLine
 10
680.595095
 20
312.662554
 30
0.0
 11
680.595095
 21
287.262554
 31
0.0
  0
LINE
  5
13B
100
AcDbEntity
  8
M01
100
AcDbLine
 10
681.895095
 20
312.662554
 30
0.0
 11
681.895095
 21
287.262554
 31
0.0
  0
LINE
  5
13C
100
AcDbEntity
  8
M01
100
AcDbLine
 10
679.895095
 20
311.962554
 30
0.0
 11
679.895095
 21
287.962554
 31
0.0
  0
LINE
  5
13D
100
AcDbEntity
  8
M01
100
AcDbLine
 10
688.395095
 20
312.462554
 30
0.0
 11
688.395095
 21
287.462554
 31
0.0
  0
LINE
  5
13E
100
AcDbEntity
  8
M01
100
AcDbLine
 10
599.895095
 20
306.312554
 30
0.0
 11
600.895095
 21
306.312554
 31
0.0
  0
LINE
  5
13F
100
AcDbEntity
  8
M01
100
AcDbLine
 10
599.895095
 20
293.612554
 30
0.0
 11
600.895095
 21
293.612554
 31
0.0
  0
LINE
  5
140
100
AcDbEntity
  8
M01
100
AcDbLine
 10
600.895095
 20
309.462554
 30
0.0
 11
600.895095
 21
290.462554
 31
0.0
  0
LINE
  5
141
100
AcDbEntity
  8
M01
100
AcDbLine
 10
599.895095
 20
306.312554
 30
0.0
 11
599.895095
 21
293.612554
 31
0.0
  0
LINE
  5
142
100
AcDbEntity
  8
DIMS
100
AcDbLine
 10
591.895095
 20
302.962554
 30
0.0
 11
591.895095
 21
296.962554
 31
0.0
  0
LINE
  5
143
100
AcDbEntity
  8
M01
100
AcDbLine
 10
600.895095
 20
290.462554
 30
0.0
 11
679.895095
 21
290.462554
 31
0.0
  0
LINE
  5
144
100
AcDbEntity
  8
M01
100
AcDbLine
 10
600.895095
 20
309.462554
 30
0.0
 11
679.895095
 21
309.462554
 31
0.0
  0
LINE
  5
145
100
AcDbEntity
  8
M01
100
AcDbLine
 10
681.895095
 20
287.462554
 30
0.0
 11
694.895095
 21
287.462554
 31
0.0
  0
LINE
  5
146
100
AcDbEntity
  8
M01
100
AcDbLine
 10
681.895095
 20
312.462554
 30
0.0
 11
694.895095
 21
312.462554
 31
0.0
  0
LINE
  5
147
100
AcDbEntity
  8
CENTRE
 48
0.7
100
AcDbLine
 10
577.576489
 20
299.962554
 30
0.0
 11
714.36183
 21
299.962554
 31
0.0
  0
DIMENSION
  5
148
100
AcDbEntity
  8
DIMS
100
AcDbDimension
  2
*D5
 10
465.087375
 20
571.863168
 30
0.0
 11
462.087375
 21
579.863168
 31
0.0
 12
81.33684
 22
103.190186
 32
0.0
  3
DIM1
100
AcDbAlignedDimension
 13
473.097146
 23
587.863168
 33
0.0
 14
492.615471
 24
571.863168
 34
0.0
 50
90.0
100
AcDbRotatedDimension
1001
ACAD
1000
DSTYLE
1002
{
1070
   144
1040
1.0
1002
}
  0
LINE
  5
155
100
AcDbEntity
  8
DIMS
 62
     4
100
AcDbLine
 10
492.615471
 20
571.863168
 30
0.0
 11
498.226127
 21
571.863168
 31
0.0
  0
LINE
  5
156
100
AcDbEntity
  8
DIMS
 62
     4
100
AcDbLine
 10
498.615471
 20
571.863168
 30
0.0
 11
504.226127
 21
571.863168
 31
0.0
  0
POINT
  5
157
100
AcDbEntity
  8
DEFPOINTS
  6
BYBLOCK
 62
     0
100
AcDbPoint
 10
494.382407
 20
570.780698
 30
0.0
  0
MTEXT
  5
158
100
AcDbEntity
  8
0
  6
BYBLOCK
 62
     2
100
AcDbMText
 10
443.024644
 20
556.113262
 30
0.0
 40
3.0
 41
0.0
 71
     5
 72
     1
  1
2 DOWELS %%C3.00 x 3.5 HIGH
  0
SOLID
  5
159
100
AcDbEntity
  8
0
  6
BYBLOCK
 62
     4
100
AcDbTrace
 10
491.9448
 20
568.961887
 30
0.0
 11
492.666447
 21
568.269626
 31
0.0
 12
494.382407
 22
570.780698
 32
0.0
 13
494.382407
 23
570.780698
 33
0.0
  0
LINE
  5
15A
100
AcDbEntity
  8
0
  6
BYBLOCK
 62
     4
100
AcDbLine
 10
480.31224
 20
556.113262
 30
0.0
 11
477.31224
 21
556.113262
 31
0.0
  0
LINE
  5
15B
100
AcDbEntity
  8
0
  6
BYBLOCK
 62
     4
100
AcDbLine
 10
492.305624
 20
568.615756
 30
0.0
 11
480.31224
 21
556.113262
 31
0.0
  0
DIMENSION
  5
15C
100
AcDbEntity
  8
DIMS
100
AcDbDimension
  2
*D4
 10
501.420799
 20
552.987595
 30
0.0
 11
513.492227
 21
555.987595
 31
0.0
 12
-289.80597
 22
182.655426
 32
0.0
  3
DIM1
100
AcDbAlignedDimension
 13
495.420799
 23
569.05784
 33
0.0
 14
501.420799
 24
569.05784
 34
0.0
100
AcDbRotatedDimension
1001
ACAD
1000
DSTYLE
1002
{
1070
   144
1040
1.0
1002
}
  0
LINE
  5
16A
100
AcDbEntity
  8
DIMS
 62
     4
100
AcDbLine
 10
495.420799
 20
569.05784
 30
0.0
 11
495.420799
 21
574.668496
 31
0.0
  0
LWPOLYLINE
  5
16B
100
AcDbEntity
  8
M01
100
AcDbPolyline
 90
        2
 70
     0
 43
1.5
 10
495.420799
 20
572.613168
 42
0.414214
 10
494.670799
 20
571.863168
  0
LWPOLYLINE
  5
16C
100
AcDbEntity
  8
M01
100
AcDbPolyline
 90
        2
 70
     0
 43
1.5
 10
495.420799
 20
571.113168
 42
0.414214
 10
496.170799
 20
571.863168
  0
CIRCLE
  5
16D
100
AcDbEntity
  8
M01
100
AcDbCircle
 10
495.420799
 20
571.863168
 30
0.0
 40
1.5
  0
LINE
  5
16E
100
AcDbEntity
  8
DIMS
 62
     4
100
AcDbLine
 10
501.420799
 20
569.05784
 30
0.0
 11
501.420799
 21
574.668496
 31
0.0
  0
LWPOLYLINE
  5
16F
100
AcDbEntity
  8
M01
100
AcDbPolyline
 90
        2
 70
     0
 43
1.5
 10
501.420799
 20
572.613168
 42
0.414214
 10
500.670799
 20
571.863168
  0
LWPOLYLINE
  5
170
100
AcDbEntity
  8
M01
100
AcDbPolyline
 90
        2
 70
     0
 43
1.5
 10
501.420799
 20
571.113168
 42
0.414214
 10
502.170799
 20
571.863168
  0
CIRCLE
  5
171
100
AcDbEntity
  8
M01
100
AcDbCircle
 10
501.420799
 20
571.863168
 30
0.0
 40
1.5
  0
LINE
  5
172
100
AcDbEntity
  8
M01
100
AcDbLine
 10
496.920799
 20
575.252062
 30
0.0
 11
496.920799
 21
569.363168
 31
0.0
  0
LINE
  5
173
100
AcDbEntity
  8
M01
100
AcDbLine
 10
499.420799
 20
568.863168
 30
0.0
 11
497.420799
 21
568.863168
 31
0.0
  0
LINE
  5
174
100
AcDbEntity
  8
M01
100
AcDbLine
 10
496.920799
 20
569.363168
 30
0.0
 11
497.420799
 21
568.863168
 31
0.0
  0
LINE
  5
175
100
AcDbEntity
  8
M01
100
AcDbLine
 10
496.920799
 20
569.363168
 30
0.0
 11
499.920799
 21
569.363168
 31
0.0
  0
LINE
  5
176
100
AcDbEntity
  8
M01
100
AcDbLine
 10
499.920799
 20
569.363168
 30
0.0
 11
499.420799
 21
568.863168
 31
0.0
  0
LINE
  5
177
100
AcDbEntity
  8
M01
100
AcDbLine
 10
499.920799
 20
575.252062
 30
0.0
 11
499.920799
 21
569.363168
 31
0.0
  0
LINE
  5
178
100
AcDbEntity
  8
M04
 48
0.7
100
AcDbLine
 10
492.170799
 20
595.669416
 30
0.0
 11
492.170799
 21
743.808861
 31
0.0
  0
LINE
  5
179
100
AcDbEntity
  8
M04
 48
0.7
100
AcDbLine
 10
504.670799
 20
595.669416
 30
0.0
 11
504.670799
 21
743.808861
 31
0.0
  0
LINE
  5
17A
100
AcDbEntity
  8
M01
100
AcDbLine
 10
500.670799
 20
715.283516
 30
0.0
 11
500.670799
 21
716.783516
 31
0.0
  0
LINE
  5
17B
100
AcDbEntity
  8
M01
100
AcDbLine
 10
501.420799
 20
713.984478
 30
0.0
 11
501.420799
 21
715.484478
 31
0.0
  0
LINE
  5
17C
100
AcDbEntity
  8
M01
100
AcDbLine
 10
495.420799
 20
713.876783
 30
0.0
 11
501.420799
 21
715.484478
 31
0.0
  0
LINE
  5
17D
100
AcDbEntity
  8
M01
100
AcDbLine
 10
500.461235
 20
713.727363
 30
0.0
 11
501.420799
 21
713.984478
 31
0.0
  0
LINE
  5
17E
100
AcDbEntity
  8
M01
100
AcDbLine
 10
495.420799
 20
713.727363
 30
0.0
 11
495.420799
 21
713.876783
 31
0.0
  0
LINE
  5
17F
100
AcDbEntity
  8
M01
100
AcDbLine
 10
496.170799
 20
738.077745
 30
0.0
 11
496.170799
 21
738.815025
 31
0.0
  0
LINE
  5
180
100
AcDbEntity
  8
M01
100
AcDbLine
 10
495.420799
 20
736.376783
 30
0.0
 11
495.420799
 21
737.876783
 31
0.0
  0
LINE
  5
181
100
AcDbEntity
  8
M01
100
AcDbLine
 10
496.170799
 20
735.077745
 30
0.0
 11
496.170799
 21
736.577745
 31
0.0
  0
LINE
  5
182
100
AcDbEntity
  8
M01
100
AcDbLine
 10
495.420799
 20
733.376783
 30
0.0
 11
495.420799
 21
734.876783
 31
0.0
  0
LINE
  5
183
100
AcDbEntity
  8
M01
100
AcDbLine
 10
496.170799
 20
732.077745
 30
0.0
 11
496.170799
 21
733.577745
 31
0.0
  0
LINE
  5
184
100
AcDbEntity
  8
M01
100
AcDbLine
 10
496.170799
 20
729.077745
 30
0.0
 11
496.170799
 21
730.577745
 31
0.0
  0
LINE
  5
185
100
AcDbEntity
  8
M01
100
AcDbLine
 10
495.420799
 20
730.376783
 30
0.0
 11
495.420799
 21
731.876783
 31
0.0
  0
LINE
  5
186
100
AcDbEntity
  8
M01
100
AcDbLine
 10
495.420799
 20
727.376783
 30
0.0
 11
495.420799
 21
728.876783
 31
0.0
  0
LINE
  5
187
100
AcDbEntity
  8
M01
100
AcDbLine
 10
496.170799
 20
726.077745
 30
0.0
 11
496.170799
 21
727.577745
 31
0.0
  0
LINE
  5
188
100
AcDbEntity
  8
M01
100
AcDbLine
 10
495.420799
 20
724.376783
 30
0.0
 11
495.420799
 21
725.876783
 31
0.0
  0
LINE
  5
189
100
AcDbEntity
  8
M01
100
AcDbLine
 10
496.170799
 20
723.077745
 30
0.0
 11
496.170799
 21
724.577745
 31
0.0
  0
LINE
  5
18A
100
AcDbEntity
  8
M01
100
AcDbLine
 10
495.420799
 20
721.376783
 30
0.0
 11
495.420799
 21
722.876783
 31
0.0
  0
LINE
  5
18B
100
AcDbEntity
  8
M01
100
AcDbLine
 10
496.170799
 20
720.077745
 30
0.0
 11
496.170799
 21
721.577745
 31
0.0
  0
LINE
  5
18C
100
AcDbEntity
  8
M01
100
AcDbLine
 10
495.420799
 20
718.376783
 30
0.0
 11
495.420799
 21
719.876783
 31
0.0
  0
LINE
  5
18D
100
AcDbEntity
  8
M01
100
AcDbLine
 10
496.170799
 20
717.077745
 30
0.0
 11
496.170799
 21
718.577745
 31
0.0
  0
LINE
  5
18E
100
AcDbEntity
  8
M01
100
AcDbLine
 10
500.670799
 20
718.283516
 30
0.0
 11
500.670799
 21
719.783516
 31
0.0
  0
LINE
  5
18F
100
AcDbEntity
  8
M01
100
AcDbLine
 10
500.670799
 20
721.283516
 30
0.0
 11
500.670799
 21
722.783516
 31
0.0
  0
LINE
  5
190
100
AcDbEntity
  8
M01
100
AcDbLine
 10
500.670799
 20
724.283516
 30
0.0
 11
500.670799
 21
725.783516
 31
0.0
  0
LINE
  5
191
100
AcDbEntity
  8
M01
100
AcDbLine
 10
500.670799
 20
727.283516
 30
0.0
 11
500.670799
 21
728.783516
 31
0.0
  0
LINE
  5
192
100
AcDbEntity
  8
M01
100
AcDbLine
 10
500.670799
 20
730.283516
 30
0.0
 11
500.670799
 21
731.783516
 31
0.0
  0
LINE
  5
193
100
AcDbEntity
  8
M01
100
AcDbLine
 10
500.670799
 20
733.283516
 30
0.0
 11
500.670799
 21
734.783516
 31
0.0
  0
LINE
  5
194
100
AcDbEntity
  8
M01
100
AcDbLine
 10
500.670799
 20
736.283516
 30
0.0
 11
500.670799
 21
737.783516
 31
0.0
  0
LINE
  5
195
100
AcDbEntity
  8
M01
100
AcDbLine
 10
500.670799
 20
739.283516
 30
0.0
 11
500.670799
 21
740.320018
 31
0.0
  0
LINE
  5
196
100
AcDbEntity
  8
M01
100
AcDbLine
 10
501.420799
 20
737.984478
 30
0.0
 11
501.420799
 21
739.484478
 31
0.0
  0
LINE
  5
197
100
AcDbEntity
  8
M01
100
AcDbLine
 10
501.420799
 20
734.984478
 30
0.0
 11
501.420799
 21
736.484478
 31
0.0
  0
LINE
  5
198
100
AcDbEntity
  8
M01
100
AcDbLine
 10
501.420799
 20
731.984478
 30
0.0
 11
501.420799
 21
733.484478
 31
0.0
  0
LINE
  5
199
100
AcDbEntity
  8
M01
100
AcDbLine
 10
501.420799
 20
728.984478
 30
0.0
 11
501.420799
 21
730.484478
 31
0.0
  0
LINE
  5
19A
100
AcDbEntity
  8
M01
100
AcDbLine
 10
501.420799
 20
725.984478
 30
0.0
 11
501.420799
 21
727.484478
 31
0.0
  0
LINE
  5
19B
100
AcDbEntity
  8
M01
100
AcDbLine
 10
501.420799
 20
722.984478
 30
0.0
 11
501.420799
 21
724.484478
 31
0.0
  0
LINE
  5
19C
100
AcDbEntity
  8
M01
100
AcDbLine
 10
501.420799
 20
719.984478
 30
0.0
 11
501.420799
 21
721.484478
 31
0.0
  0
LINE
  5
19D
100
AcDbEntity
  8
M01
100
AcDbLine
 10
500.670799
 20
713.727363
 30
0.0
 11
500.670799
 21
713.783516
 31
0.0
  0
LINE
  5
19E
100
AcDbEntity
  8
M01
100
AcDbLine
 10
501.420799
 20
716.984478
 30
0.0
 11
501.420799
 21
718.484478
 31
0.0
  0
LINE
  5
19F
100
AcDbEntity
  8
M01
100
AcDbLine
 10
495.420799
 20
737.876783
 30
0.0
 11
501.420799
 21
739.484478
 31
0.0
  0
LINE
  5
1A0
100
AcDbEntity
  8
M01
100
AcDbLine
 10
495.420799
 20
736.376783
 30
0.0
 11
501.420799
 21
737.984478
 31
0.0
  0
LINE
  5
1A1
100
AcDbEntity
  8
M01
100
AcDbLine
 10
495.420799
 20
734.876783
 30
0.0
 11
501.420799
 21
736.484478
 31
0.0
  0
LINE
  5
1A2
100
AcDbEntity
  8
M01
100
AcDbLine
 10
495.420799
 20
733.376783
 30
0.0
 11
501.420799
 21
734.984478
 31
0.0
  0
LINE
  5
1A3
100
AcDbEntity
  8
M01
100
AcDbLine
 10
495.420799
 20
731.876783
 30
0.0
 11
501.420799
 21
733.484478
 31
0.0
  0
LINE
  5
1A4
100
AcDbEntity
  8
M01
100
AcDbLine
 10
495.420799
 20
730.376783
 30
0.0
 11
501.420799
 21
731.984478
 31
0.0
  0
LINE
  5
1A5
100
AcDbEntity
  8
M01
100
AcDbLine
 10
495.420799
 20
728.876783
 30
0.0
 11
501.420799
 21
730.484478
 31
0.0
  0
LINE
  5
1A6
100
AcDbEntity
  8
M01
100
AcDbLine
 10
495.420799
 20
727.376783
 30
0.0
 11
501.420799
 21
728.984478
 31
0.0
  0
LINE
  5
1A7
100
AcDbEntity
  8
M01
100
AcDbLine
 10
495.420799
 20
725.876783
 30
0.0
 11
501.420799
 21
727.484478
 31
0.0
  0
LINE
  5
1A8
100
AcDbEntity
  8
M01
100
AcDbLine
 10
495.420799
 20
724.376783
 30
0.0
 11
501.420799
 21
725.984478
 31
0.0
  0
LINE
  5
1A9
100
AcDbEntity
  8
M01
100
AcDbLine
 10
495.420799
 20
722.876783
 30
0.0
 11
501.420799
 21
724.484478
 31
0.0
  0
LINE
  5
1AA
100
AcDbEntity
  8
M01
100
AcDbLine
 10
495.420799
 20
721.376783
 30
0.0
 11
501.420799
 21
722.984478
 31
0.0
  0
LINE
  5
1AB
100
AcDbEntity
  8
M01
100
AcDbLine
 10
495.420799
 20
719.876783
 30
0.0
 11
501.420799
 21
721.484478
 31
0.0
  0
LINE
  5
1AC
100
AcDbEntity
  8
M01
100
AcDbLine
 10
495.420799
 20
718.376783
 30
0.0
 11
501.420799
 21
719.984478
 31
0.0
  0
LINE
  5
1AD
100
AcDbEntity
  8
M01
100
AcDbLine
 10
495.420799
 20
716.876783
 30
0.0
 11
501.420799
 21
718.484478
 31
0.0
  0
LINE
  5
1AE
100
AcDbEntity
  8
M01
100
AcDbLine
 10
495.420799
 20
715.376783
 30
0.0
 11
501.420799
 21
716.984478
 31
0.0
  0
LINE
  5
1AF
100
AcDbEntity
  8
M01
100
AcDbLine
 10
496.170799
 20
714.077745
 30
0.0
 11
496.170799
 21
715.577745
 31
0.0
  0
LINE
  5
1B0
100
AcDbEntity
  8
M01
100
AcDbLine
 10
495.420799
 20
715.376783
 30
0.0
 11
495.420799
 21
716.876783
 31
0.0
  0
LINE
  5
1B1
100
AcDbEntity
  8
CENTRE
 48
0.7
100
AcDbLine
 10
498.420799
 20
562.539515
 30
0.0
 11
498.420799
 21
748.477658
 31
0.0
  0
LINE
  5
1B2
100
AcDbEntity
  8
M01
100
AcDbLine
 10
499.670799
 20
600.363168
 30
0.0
 11
499.670799
 21
685.727363
 31
0.0
  0
LINE
  5
1B3
100
AcDbEntity
  8
M01
100
AcDbLine
 10
497.170799
 20
600.363168
 30
0.0
 11
497.170799
 21
685.727363
 31
0.0
  0
LINE
  5
1B4
100
AcDbEntity
  8
M01
100
AcDbLine
 10
501.920799
 20
703.727363
 30
0.0
 11
494.920799
 21
703.727363
 31
0.0
  0
LINE
  5
1B5
100
AcDbEntity
  8
M01
100
AcDbLine
 10
495.420799
 20
695.652107
 30
0.0
 11
501.420799
 21
695.652107
 31
0.0
  0
LINE
  5
1B6
100
AcDbEntity
  8
M01
100
AcDbLine
 10
501.420799
 20
695.652107
 30
0.0
 11
501.420799
 21
703.727363
 31
0.0
  0
LINE
  5
1B7
100
AcDbEntity
  8
M01
100
AcDbLine
 10
495.420799
 20
695.652107
 30
0.0
 11
495.420799
 21
703.727363
 31
0.0
  0
LINE
  5
1B8
100
AcDbEntity
  8
M01
100
AcDbLine
 10
497.170799
 20
685.727363
 30
0.0
 11
495.420799
 21
695.652107
 31
0.0
  0
LINE
  5
1B9
100
AcDbEntity
  8
M01
100
AcDbLine
 10
494.920799
 20
703.727363
 30
0.0
 11
494.920799
 21
713.727363
 31
0.0
  0
LINE
  5
1BA
100
AcDbEntity
  8
M01
100
AcDbLine
 10
499.670799
 20
685.727363
 30
0.0
 11
501.420799
 21
695.652107
 31
0.0
  0
LINE
  5
1BB
100
AcDbEntity
  8
M01
100
AcDbLine
 10
501.920799
 20
703.727363
 30
0.0
 11
501.920799
 21
713.727363
 31
0.0
  0
LINE
  5
1BC
100
AcDbEntity
  8
M01
100
AcDbLine
 10
501.920799
 20
713.727363
 30
0.0
 11
494.920799
 21
713.727363
 31
0.0
  0
LINE
  5
1BD
100
AcDbEntity
  8
M01
100
AcDbLine
 10
499.670799
 20
685.727363
 30
0.0
 11
497.170799
 21
685.727363
 31
0.0
  0
CIRCLE
  5
1BE
100
AcDbEntity
  8
M04
100
AcDbCircle
 10
498.420799
 20
587.863168
 30
0.0
 40
10.0
  0
CIRCLE
  5
1BF
100
AcDbEntity
  8
M01
100
AcDbCircle
 10
498.420799
 20
587.863168
 30
0.0
 40
12.7
  0
CIRCLE
  5
1C0
100
AcDbEntity
  8
M01
100
AcDbCircle
 10
498.420799
 20
587.863168
 30
0.0
 40
9.5
  0
CIRCLE
  5
1C1
100
AcDbEntity
  8
M01
100
AcDbCircle
 10
498.420799
 20
587.863168
 30
0.0
 40
6.35
  0
CIRCLE
  5
1C2
100
AcDbEntity
  8
M03
100
AcDbCircle
 10
498.420799
 20
587.863168
 30
0.0
 40
2.375
  0
LINE
  5
1C3
100
AcDbEntity
  8
CENTRE
100
AcDbLine
 10
523.744452
 20
587.863168
 30
0.0
 11
473.097146
 21
587.863168
 31
0.0
  0
TEXT
  5
1C4
100
AcDbEntity
  8
DIMS
 62
     2
100
AcDbText
 10
668.446186
 20
545.729993
 30
0.0
 40
2.0
  1
-0
100
AcDbText
  0
TEXT
  5
1C5
100
AcDbEntity
  8
DIMS
 62
     2
100
AcDbText
 10
668.446186
 20
548.814913
 30
0.0
 40
2.0
  1
+0.02
100
AcDbText
  0
TEXT
  5
1C6
100
AcDbEntity
  8
DIMS
 62
     2
100
AcDbText
 10
713.05815
 20
564.866239
 30
0.0
 40
2.0
  1
-0
 50
90.0
100
AcDbText
  0
TEXT
  5
1C7
100
AcDbEntity
  8
DIMS
 62
     2
100
AcDbText
 10
709.97323
 20
564.866239
 30
0.0
 40
2.0
  1
+0.02
 50
90.0
100
AcDbText
  0
DIMENSION
  5
1C8
100
AcDbEntity
  8
DIMS
100
AcDbDimension
  2
*D3
 10
715.551186
 20
575.163168
 30
0.0
 11
715.551186
 21
555.308915
 31
0.0
 12
285.366023
 22
103.190186
 32
0.0
 70
   128
  1
%%c<>
  3
DIM1
100
AcDbAlignedDimension
 13
681.895095
 23
600.563168
 33
0.0
 14
682.895095
 24
575.163168
 34
0.0
 50
90.0
100
AcDbRotatedDimension
1001
ACAD
1000
DSTYLE
1002
{
1070
   144
1040
1.0
1002
}
  0
DIMENSION
  5
1D6
100
AcDbEntity
  8
DIMS
100
AcDbDimension
  2
*D2
 10
591.895095
 20
520.705744
 30
0.0
 11
643.395095
 21
523.705744
 31
0.0
  1
<> REF.
  3
DIM1
100
AcDbAlignedDimension
 13
694.895095
 23
560.58436
 33
0.0
 14
591.895095
 24
584.863168
 34
0.0
100
AcDbRotatedDimension
1001
ACAD
1000
DSTYLE
1002
{
1070
   144
1040
1.0
1002
}
  0
DIMENSION
  5
1E3
100
AcDbEntity
  8
DIMS
100
AcDbDimension
  2
*D1
 10
599.895095
 20
530.705744
 30
0.0
 11
647.395095
 21
533.705744
 31
0.0
  1
L1=<>
  3
DIM1
100
AcDbAlignedDimension
 13
694.895095
 23
560.58436
 33
0.0
 14
599.895095
 24
581.513168
 34
0.0
100
AcDbRotatedDimension
1001
ACAD
1000
DSTYLE
1002
{
1070
   144
1040
1.0
1002
}
  0
DIMENSION
  5
1F0
100
AcDbEntity
  8
DIMS
100
AcDbDimension
  2
*D0
 10
679.895095
 20
543.705744
 30
0.0
 11
660.056686
 21
543.705744
 31
0.0
 12
30.0
 22
0.0
 32
0.0
 70
   128
  3
DIM1
100
AcDbAlignedDimension
 13
694.895095
 23
560.58436
 33
0.0
 14
679.895095
 24
575.163168
 34
0.0
100
AcDbRotatedDimension
1001
ACAD
1000
DSTYLE
1002
{
1070
   144
1040
1.0
1002
}
  0
TEXT
  5
1FE
100
AcDbEntity
  8
TEXT
100
AcDbText
 10
604.354057
 20
593.315363
 30
0.0
 40
2.0
  1
PLV187-095
 41
0.9
100
AcDbText
  0
MTEXT
  5
1FF
100
AcDbEntity
  8
0
  6
BYBLOCK
 62
     2
100
AcDbMText
 10
554.114185
 20
605.872973
 30
0.0
 40
3.0
 41
0.0
 71
     5
 72
     1
  1
GATE INSERTION POINT
  0
SOLID
  5
200
100
AcDbEntity
  8
0
  6
BYBLOCK
 62
     4
100
AcDbTrace
 10
590.728916
 20
591.980513
 30
0.0
 11
589.805196
 21
591.597445
 31
0.0
 12
591.41626
 22
589.017818
 32
0.0
 13
591.41626
 23
589.017818
 33
0.0
  0
LINE
  5
201
100
AcDbEntity
  8
0
  6
BYBLOCK
 62
     4
100
AcDbLine
 10
584.502648
 20
605.872973
 30
0.0
 11
581.502648
 21
605.872973
 31
0.0
  0
LINE
  5
202
100
AcDbEntity
  8
0
  6
BYBLOCK
 62
     4
100
AcDbLine
 10
590.267056
 20
591.788979
 30
0.0
 11
584.502648
 21
605.872973
 31
0.0
  0
CIRCLE
  5
203
100
AcDbEntity
  8
M04
100
AcDbCircle
 10
591.895095
 20
587.863168
 30
0.0
 40
1.25
  0
LINE
  5
204
100
AcDbEntity
  8
M01
100
AcDbLine
 10
685.645095
 20
715.283516
 30
0.0
 11
685.645095
 21
716.783516
 31
0.0
  0
LINE
  5
205
100
AcDbEntity
  8
M01
100
AcDbLine
 10
686.395095
 20
713.984478
 30
0.0
 11
686.395095
 21
715.484478
 31
0.0
  0
LINE
  5
206
100
AcDbEntity
  8
M01
100
AcDbLine
 10
680.395095
 20
713.876783
 30
0.0
 11
686.395095
 21
715.484478
 31
0.0
  0
LINE
  5
207
100
AcDbEntity
  8
M01
100
AcDbLine
 10
685.435531
 20
713.727363
 30
0.0
 11
686.395095
 21
713.984478
 31
0.0
  0
LINE
  5
208
100
AcDbEntity
  8
M01
100
AcDbLine
 10
680.395095
 20
713.727363
 30
0.0
 11
680.395095
 21
713.876783
 31
0.0
  0
LINE
  5
209
100
AcDbEntity
  8
M01
100
AcDbLine
 10
681.145095
 20
738.077745
 30
0.0
 11
681.145095
 21
738.815025
 31
0.0
  0
LINE
  5
20A
100
AcDbEntity
  8
M01
100
AcDbLine
 10
680.395095
 20
736.376783
 30
0.0
 11
680.395095
 21
737.876783
 31
0.0
  0
LINE
  5
20B
100
AcDbEntity
  8
M01
100
AcDbLine
 10
681.145095
 20
735.077745
 30
0.0
 11
681.145095
 21
736.577745
 31
0.0
  0
LINE
  5
20C
100
AcDbEntity
  8
M01
100
AcDbLine
 10
680.395095
 20
733.376783
 30
0.0
 11
680.395095
 21
734.876783
 31
0.0
  0
LINE
  5
20D
100
AcDbEntity
  8
M01
100
AcDbLine
 10
681.145095
 20
732.077745
 30
0.0
 11
681.145095
 21
733.577745
 31
0.0
  0
LINE
  5
20E
100
AcDbEntity
  8
M01
100
AcDbLine
 10
681.145095
 20
729.077745
 30
0.0
 11
681.145095
 21
730.577745
 31
0.0
  0
LINE
  5
20F
100
AcDbEntity
  8
M01
100
AcDbLine
 10
680.395095
 20
730.376783
 30
0.0
 11
680.395095
 21
731.876783
 31
0.0
  0
LINE
  5
210
100
AcDbEntity
  8
M01
100
AcDbLine
 10
680.395095
 20
727.376783
 30
0.0
 11
680.395095
 21
728.876783
 31
0.0
  0
LINE
  5
211
100
AcDbEntity
  8
M01
100
AcDbLine
 10
681.145095
 20
726.077745
 30
0.0
 11
681.145095
 21
727.577745
 31
0.0
  0
LINE
  5
212
100
AcDbEntity
  8
M01
100
AcDbLine
 10
680.395095
 20
724.376783
 30
0.0
 11
680.395095
 21
725.876783
 31
0.0
  0
LINE
  5
213
100
AcDbEntity
  8
M01
100
AcDbLine
 10
681.145095
 20
723.077745
 30
0.0
 11
681.145095
 21
724.577745
 31
0.0
  0
LINE
  5
214
100
AcDbEntity
  8
M01
100
AcDbLine
 10
680.395095
 20
721.376783
 30
0.0
 11
680.395095
 21
722.876783
 31
0.0
  0
LINE
  5
215
100
AcDbEntity
  8
M01
100
AcDbLine
 10
681.145095
 20
720.077745
 30
0.0
 11
681.145095
 21
721.577745
 31
0.0
  0
LINE
  5
216
100
AcDbEntity
  8
M01
100
AcDbLine
 10
680.395095
 20
718.376783
 30
0.0
 11
680.395095
 21
719.876783
 31
0.0
  0
LINE
  5
217
100
AcDbEntity
  8
M01
100
AcDbLine
 10
681.145095
 20
717.077745
 30
0.0
 11
681.145095
 21
718.577745
 31
0.0
  0
LINE
  5
218
100
AcDbEntity
  8
M01
100
AcDbLine
 10
685.645095
 20
718.283516
 30
0.0
 11
685.645095
 21
719.783516
 31
0.0
  0
LINE
  5
219
100
AcDbEntity
  8
M01
100
AcDbLine
 10
685.645095
 20
721.283516
 30
0.0
 11
685.645095
 21
722.783516
 31
0.0
  0
LINE
  5
21A
100
AcDbEntity
  8
M01
100
AcDbLine
 10
685.645095
 20
724.283516
 30
0.0
 11
685.645095
 21
725.783516
 31
0.0
  0
LINE
  5
21B
100
AcDbEntity
  8
M01
100
AcDbLine
 10
685.645095
 20
727.283516
 30
0.0
 11
685.645095
 21
728.783516
 31
0.0
  0
LINE
  5
21C
100
AcDbEntity
  8
M01
100
AcDbLine
 10
685.645095
 20
730.283516
 30
0.0
 11
685.645095
 21
731.783516
 31
0.0
  0
LINE
  5
21D
100
AcDbEntity
  8
M01
100
AcDbLine
 10
685.645095
 20
733.283516
 30
0.0
 11
685.645095
 21
734.783516
 31
0.0
  0
LINE
  5
21E
100
AcDbEntity
  8
M01
100
AcDbLine
 10
685.645095
 20
736.283516
 30
0.0
 11
685.645095
 21
737.783516
 31
0.0
  0
LINE
  5
21F
100
AcDbEntity
  8
M01
100
AcDbLine
 10
685.645095
 20
739.283516
 30
0.0
 11
685.645095
 21
740.320018
 31
0.0
  0
LINE
  5
220
100
AcDbEntity
  8
M01
100
AcDbLine
 10
686.395095
 20
737.984478
 30
0.0
 11
686.395095
 21
739.484478
 31
0.0
  0
LINE
  5
221
100
AcDbEntity
  8
M01
100
AcDbLine
 10
686.395095
 20
734.984478
 30
0.0
 11
686.395095
 21
736.484478
 31
0.0
  0
LINE
  5
222
100
AcDbEntity
  8
M01
100
AcDbLine
 10
686.395095
 20
731.984478
 30
0.0
 11
686.395095
 21
733.484478
 31
0.0
  0
LINE
  5
223
100
AcDbEntity
  8
M01
100
AcDbLine
 10
686.395095
 20
728.984478
 30
0.0
 11
686.395095
 21
730.484478
 31
0.0
  0
LINE
  5
224
100
AcDbEntity
  8
M01
100
AcDbLine
 10
686.395095
 20
725.984478
 30
0.0
 11
686.395095
 21
727.484478
 31
0.0
  0
LINE
  5
225
100
AcDbEntity
  8
M01
100
AcDbLine
 10
686.395095
 20
722.984478
 30
0.0
 11
686.395095
 21
724.484478
 31
0.0
  0
LINE
  5
226
100
AcDbEntity
  8
M01
100
AcDbLine
 10
686.395095
 20
719.984478
 30
0.0
 11
686.395095
 21
721.484478
 31
0.0
  0
LINE
  5
227
100
AcDbEntity
  8
M01
100
AcDbLine
 10
685.645095
 20
713.727363
 30
0.0
 11
685.645095
 21
713.783516
 31
0.0
  0
LINE
  5
228
100
AcDbEntity
  8
M01
100
AcDbLine
 10
686.395095
 20
716.984478
 30
0.0
 11
686.395095
 21
718.484478
 31
0.0
  0
LINE
  5
229
100
AcDbEntity
  8
M01
100
AcDbLine
 10
680.395095
 20
737.876783
 30
0.0
 11
686.395095
 21
739.484478
 31
0.0
  0
LINE
  5
22A
100
AcDbEntity
  8
M01
100
AcDbLine
 10
680.395095
 20
736.376783
 30
0.0
 11
686.395095
 21
737.984478
 31
0.0
  0
LINE
  5
22B
100
AcDbEntity
  8
M01
100
AcDbLine
 10
680.395095
 20
734.876783
 30
0.0
 11
686.395095
 21
736.484478
 31
0.0
  0
LINE
  5
22C
100
AcDbEntity
  8
M01
100
AcDbLine
 10
680.395095
 20
733.376783
 30
0.0
 11
686.395095
 21
734.984478
 31
0.0
  0
LINE
  5
22D
100
AcDbEntity
  8
M01
100
AcDbLine
 10
680.395095
 20
731.876783
 30
0.0
 11
686.395095
 21
733.484478
 31
0.0
  0
LINE
  5
22E
100
AcDbEntity
  8
M01
100
AcDbLine
 10
680.395095
 20
730.376783
 30
0.0
 11
686.395095
 21
731.984478
 31
0.0
  0
LINE
  5
22F
100
AcDbEntity
  8
M01
100
AcDbLine
 10
680.395095
 20
728.876783
 30
0.0
 11
686.395095
 21
730.484478
 31
0.0
  0
LINE
  5
230
100
AcDbEntity
  8
M01
100
AcDbLine
 10
680.395095
 20
727.376783
 30
0.0
 11
686.395095
 21
728.984478
 31
0.0
  0
LINE
  5
231
100
AcDbEntity
  8
M01
100
AcDbLine
 10
680.395095
 20
725.876783
 30
0.0
 11
686.395095
 21
727.484478
 31
0.0
  0
LINE
  5
232
100
AcDbEntity
  8
M01
100
AcDbLine
 10
680.395095
 20
724.376783
 30
0.0
 11
686.395095
 21
725.984478
 31
0.0
  0
LINE
  5
233
100
AcDbEntity
  8
M01
100
AcDbLine
 10
680.395095
 20
722.876783
 30
0.0
 11
686.395095
 21
724.484478
 31
0.0
  0
LINE
  5
234
100
AcDbEntity
  8
M01
100
AcDbLine
 10
680.395095
 20
721.376783
 30
0.0
 11
686.395095
 21
722.984478
 31
0.0
  0
LINE
  5
235
100
AcDbEntity
  8
M01
100
AcDbLine
 10
680.395095
 20
719.876783
 30
0.0
 11
686.395095
 21
721.484478
 31
0.0
  0
LINE
  5
236
100
AcDbEntity
  8
M01
100
AcDbLine
 10
680.395095
 20
718.376783
 30
0.0
 11
686.395095
 21
719.984478
 31
0.0
  0
LINE
  5
237
100
AcDbEntity
  8
M01
100
AcDbLine
 10
680.395095
 20
716.876783
 30
0.0
 11
686.395095
 21
718.484478
 31
0.0
  0
LINE
  5
238
100
AcDbEntity
  8
M01
100
AcDbLine
 10
680.395095
 20
715.376783
 30
0.0
 11
686.395095
 21
716.984478
 31
0.0
  0
LINE
  5
239
100
AcDbEntity
  8
M01
100
AcDbLine
 10
681.145095
 20
714.077745
 30
0.0
 11
681.145095
 21
715.577745
 31
0.0
  0
LINE
  5
23A
100
AcDbEntity
  8
M01
100
AcDbLine
 10
680.395095
 20
715.376783
 30
0.0
 11
680.395095
 21
716.876783
 31
0.0
  0
LINE
  5
23B
100
AcDbEntity
  8
CENTRE
 48
0.7
100
AcDbLine
 10
683.395095
 20
668.741399
 30
0.0
 11
683.395095
 21
748.477658
 31
0.0
  0
LINE
  5
23C
100
AcDbEntity
  8
M01
100
AcDbLine
 10
684.645095
 20
600.363168
 30
0.0
 11
684.645095
 21
685.727363
 31
0.0
  0
LINE
  5
23D
100
AcDbEntity
  8
M01
100
AcDbLine
 10
682.145095
 20
600.363168
 30
0.0
 11
682.145095
 21
685.727363
 31
0.0
  0
LINE
  5
23E
100
AcDbEntity
  8
M01
100
AcDbLine
 10
686.895095
 20
703.727363
 30
0.0
 11
679.895095
 21
703.727363
 31
0.0
  0
LINE
  5
23F
100
AcDbEntity
  8
M01
100
AcDbLine
 10
680.395095
 20
695.652107
 30
0.0
 11
686.395095
 21
695.652107
 31
0.0
  0
LINE
  5
240
100
AcDbEntity
  8
M01
100
AcDbLine
 10
686.395095
 20
695.652107
 30
0.0
 11
686.395095
 21
703.727363
 31
0.0
  0
LINE
  5
241
100
AcDbEntity
  8
M01
100
AcDbLine
 10
680.395095
 20
695.652107
 30
0.0
 11
680.395095
 21
703.727363
 31
0.0
  0
LINE
  5
242
100
AcDbEntity
  8
M01
100
AcDbLine
 10
682.145095
 20
685.727363
 30
0.0
 11
680.395095
 21
695.652107
 31
0.0
  0
LINE
  5
243
100
AcDbEntity
  8
M01
100
AcDbLine
 10
679.895095
 20
703.727363
 30
0.0
 11
679.895095
 21
713.727363
 31
0.0
  0
LINE
  5
244
100
AcDbEntity
  8
M01
100
AcDbLine
 10
684.645095
 20
685.727363
 30
0.0
 11
686.395095
 21
695.652107
 31
0.0
  0
LINE
  5
245
100
AcDbEntity
  8
M01
100
AcDbLine
 10
686.895095
 20
703.727363
 30
0.0
 11
686.895095
 21
713.727363
 31
0.0
  0
LINE
  5
246
100
AcDbEntity
  8
M01
100
AcDbLine
 10
686.895095
 20
713.727363
 30
0.0
 11
679.895095
 21
713.727363
 31
0.0
  0
LINE
  5
247
100
AcDbEntity
  8
M01
100
AcDbLine
 10
684.645095
 20
685.727363
 30
0.0
 11
682.145095
 21
685.727363
 31
0.0
  0
MTEXT
  5
248
100
AcDbEntity
  8
0
  6
BYBLOCK
 62
     2
100
AcDbMText
 10
747.258337
 20
613.458173
 30
0.0
 40
3.0
 41
0.0
 71
     5
 72
     1
  1
MANIFOLD INSERTION POINT
  0
SOLID
  5
249
100
AcDbEntity
  8
0
  6
BYBLOCK
 62
     4
100
AcDbTrace
 10
696.773883
 20
591.70799
 30
0.0
 11
697.614899
 21
591.166979
 31
0.0
 12
695.571358
 22
588.914438
 32
0.0
 13
695.571358
 23
588.914438
 33
0.0
  0
LINE
  5
24A
100
AcDbEntity
  8
0
  6
BYBLOCK
 62
     4
100
AcDbLine
 10
711.359921
 20
613.458173
 30
0.0
 11
714.359921
 21
613.458173
 31
0.0
  0
LINE
  5
24B
100
AcDbEntity
  8
0
  6
BYBLOCK
 62
     4
100
AcDbLine
 10
697.194391
 20
591.437485
 30
0.0
 11
711.359921
 21
613.458173
 31
0.0
  0
CIRCLE
  5
24C
100
AcDbEntity
  8
M04
100
AcDbCircle
 10
694.895095
 20
587.863168
 30
0.0
 40
1.25
  0
LINE
  5
24D
100
AcDbEntity
  8
M04
100
AcDbLine
 10
694.895095
 20
575.363168
 30
0.0
 11
694.895095
 21
560.58436
 31
0.0
  0
LINE
  5
24E
100
AcDbEntity
  8
M04
100
AcDbLine
 10
684.280736
 20
574.363168
 30
0.0
 11
684.280736
 21
575.363168
 31
0.0
  0
LINE
  5
24F
100
AcDbEntity
  8
M04
 48
0.7
100
AcDbLine
 10
684.280736
 20
574.363168
 30
0.0
 11
687.895095
 21
574.363168
 31
0.0
  0
LINE
  5
250
100
AcDbEntity
  8
M04
100
AcDbLine
 10
682.895095
 20
575.163168
 30
0.0
 11
684.280736
 21
574.363168
 31
0.0
  0
LINE
  5
251
100
AcDbEntity
  8
M04
100
AcDbLine
 10
681.895095
 20
575.163168
 30
0.0
 11
682.895095
 21
575.163168
 31
0.0
  0
LINE
  5
252
100
AcDbEntity
  8
M04
100
AcDbLine
 10
682.895095
 20
575.363168
 30
0.0
 11
682.895095
 21
575.163168
 31
0.0
  0
LINE
  5
253
100
AcDbEntity
  8
M04
100
AcDbLine
 10
679.895095
 20
575.863168
 30
0.0
 11
679.895095
 21
575.163168
 31
0.0
  0
LINE
  5
254
100
AcDbEntity
  8
M04
100
AcDbLine
 10
680.595095
 20
575.163168
 30
0.0
 11
679.895095
 21
575.163168
 31
0.0
  0
LINE
  5
255
100
AcDbEntity
  8
M04
 48
0.7
100
AcDbLine
 10
609.895095
 20
577.863168
 30
0.0
 11
679.895095
 21
577.863168
 31
0.0
  0
LINE
  5
256
100
AcDbEntity
  8
M04
 48
0.7
100
AcDbLine
 10
609.895095
 20
597.863168
 30
0.0
 11
676.895095
 21
597.863168
 31
0.0
  0
LINE
  5
257
100
AcDbEntity
  8
M04
100
AcDbLine
 10
676.895095
 20
743.808861
 30
0.0
 11
676.895095
 21
597.363168
 31
0.0
  0
LINE
  5
258
100
AcDbEntity
  8
M04
 48
0.7
100
AcDbLine
 10
694.895095
 20
617.363168
 30
0.0
 11
696.895095
 21
619.363168
 31
0.0
  0
ARC
  5
259
100
AcDbEntity
  8
M04
 48
0.7
100
AcDbCircle
 10
689.895095
 20
624.363168
 30
0.0
 40
2.0
100
AcDbArc
 50
90.0
 51
180.0
  0
LINE
  5
25A
100
AcDbEntity
  8
M04
 48
0.7
100
AcDbLine
 10
689.895095
 20
626.363168
 30
0.0
 11
713.212029
 21
626.363168
 31
0.0
  0
LINE
  5
25B
100
AcDbEntity
  8
M04
 48
0.7
100
AcDbLine
 10
696.895095
 20
619.363168
 30
0.0
 11
713.212029
 21
619.363168
 31
0.0
  0
LINE
  5
25C
100
AcDbEntity
  8
M04
100
AcDbLine
 10
694.895095
 20
600.363168
 30
0.0
 11
694.895095
 21
617.363168
 31
0.0
  0
LINE
  5
25D
100
AcDbEntity
  8
M04
100
AcDbLine
 10
687.895095
 20
575.363168
 30
0.0
 11
687.895095
 21
560.58436
 31
0.0
  0
LINE
  5
25E
100
AcDbEntity
  8
M04
100
AcDbLine
 10
687.895095
 20
743.808861
 30
0.0
 11
687.895095
 21
600.363168
 31
0.0
  0
LINE
  5
25F
100
AcDbEntity
  8
M03
100
AcDbLine
 10
599.895095
 20
585.488168
 30
0.0
 11
694.895095
 21
585.488168
 31
0.0
  0
LINE
  5
260
100
AcDbEntity
  8
M03
100
AcDbLine
 10
599.895095
 20
590.238168
 30
0.0
 11
694.895095
 21
590.238168
 31
0.0
  0
LINE
  5
261
100
AcDbEntity
  8
M03
 48
0.7
100
AcDbLine
 10
679.76112
 20
570.363168
 30
0.0
 11
679.76112
 21
573.363168
 31
0.0
  0
LINE
  5
262
100
AcDbEntity
  8
M03
 48
0.7
100
AcDbLine
 10
679.76112
 20
570.363168
 30
0.0
 11
678.895095
 21
571.863168
 31
0.0
  0
LINE
  5
263
100
AcDbEntity
  8
M03
 48
0.7
100
AcDbLine
 10
679.76112
 20
573.363168
 30
0.0
 11
678.895095
 21
571.863168
 31
0.0
  0
LINE
  5
264
100
AcDbEntity
  8
M03
 48
0.7
100
AcDbLine
 10
691.895095
 20
570.863168
 30
0.0
 11
691.395095
 21
570.363168
 31
0.0
  0
LINE
  5
265
100
AcDbEntity
  8
M03
 48
0.7
100
AcDbLine
 10
679.895095
 20
570.863168
 30
0.0
 11
680.395095
 21
570.363168
 31
0.0
  0
LINE
  5
266
100
AcDbEntity
  8
M03
 48
0.7
100
AcDbLine
 10
691.395095
 20
570.363168
 30
0.0
 11
679.76112
 21
570.363168
 31
0.0
  0
LINE
  5
267
100
AcDbEntity
  8
M03
 48
0.7
100
AcDbLine
 10
691.395095
 20
573.363168
 30
0.0
 11
691.895095
 21
572.863168
 31
0.0
  0
LINE
  5
268
100
AcDbEntity
  8
M03
 48
0.7
100
AcDbLine
 10
680.395095
 20
573.363168
 30
0.0
 11
679.895095
 21
572.863168
 31
0.0
  0
LINE
  5
269
100
AcDbEntity
  8
M03
 48
0.7
100
AcDbLine
 10
691.395095
 20
573.363168
 30
0.0
 11
679.76112
 21
573.363168
 31
0.0
  0
LINE
  5
26A
100
AcDbEntity
  8
M03
 48
0.7
100
AcDbLine
 10
691.895095
 20
572.863168
 30
0.0
 11
691.895095
 21
570.863168
 31
0.0
  0
LINE
  5
26B
100
AcDbEntity
  8
M03
 48
0.7
100
AcDbLine
 10
679.895095
 20
572.863168
 30
0.0
 11
679.895095
 21
570.863168
 31
0.0
  0
LINE
  5
26C
100
AcDbEntity
  8
M03
 48
0.7
100
AcDbLine
 10
680.395095
 20
573.363168
 30
0.0
 11
680.395095
 21
570.363168
 31
0.0
  0
LINE
  5
26D
100
AcDbEntity
  8
M03
 48
0.7
100
AcDbLine
 10
691.395095
 20
570.363168
 30
0.0
 11
691.395095
 21
573.363168
 31
0.0
  0
LINE
  5
26E
100
AcDbEntity
  8
CENTRE
 48
0.7
100
AcDbLine
 10
674.723888
 20
571.863168
 30
0.0
 11
699.286464
 21
571.863168
 31
0.0
  0
LINE
  5
26F
100
AcDbEntity
  8
CENTRE
 48
0.7
100
AcDbLine
 10
690.895095
 20
563.621551
 30
0.0
 11
690.895095
 21
581.519164
 31
0.0
  0
LINE
  5
270
100
AcDbEntity
  8
M01
100
AcDbLine
 10
689.395095
 20
575.363168
 30
0.0
 11
689.395095
 21
569.363168
 31
0.0
  0
LINE
  5
271
100
AcDbEntity
  8
M01
100
AcDbLine
 10
691.895095
 20
568.863168
 30
0.0
 11
689.895095
 21
568.863168
 31
0.0
  0
LINE
  5
272
100
AcDbEntity
  8
M01
100
AcDbLine
 10
689.395095
 20
569.363168
 30
0.0
 11
689.895095
 21
568.863168
 31
0.0
  0
LINE
  5
273
100
AcDbEntity
  8
M01
100
AcDbLine
 10
689.395095
 20
569.363168
 30
0.0
 11
692.395095
 21
569.363168
 31
0.0
  0
LINE
  5
274
100
AcDbEntity
  8
M01
100
AcDbLine
 10
692.395095
 20
569.363168
 30
0.0
 11
691.895095
 21
568.863168
 31
0.0
  0
LINE
  5
275
100
AcDbEntity
  8
M01
100
AcDbLine
 10
692.395095
 20
575.363168
 30
0.0
 11
692.395095
 21
569.363168
 31
0.0
  0
LINE
  5
276
100
AcDbEntity
  8
M01
100
AcDbLine
 10
694.895095
 20
600.363168
 30
0.0
 11
694.895095
 21
575.363168
 31
0.0
  0
LINE
  5
277
100
AcDbEntity
  8
M01
100
AcDbLine
 10
679.895095
 20
599.863168
 30
0.0
 11
680.595095
 21
600.563168
 31
0.0
  0
LINE
  5
278
100
AcDbEntity
  8
M01
100
AcDbLine
 10
680.595095
 20
600.563168
 30
0.0
 11
681.895095
 21
600.563168
 31
0.0
  0
LINE
  5
279
100
AcDbEntity
  8
M01
100
AcDbLine
 10
679.895095
 20
575.863168
 30
0.0
 11
680.595095
 21
575.163168
 31
0.0
  0
LINE
  5
27A
100
AcDbEntity
  8
M01
100
AcDbLine
 10
680.595095
 20
575.163168
 30
0.0
 11
681.895095
 21
575.163168
 31
0.0
  0
LINE
  5
27B
100
AcDbEntity
  8
M01
100
AcDbLine
 10
680.595095
 20
600.563168
 30
0.0
 11
680.595095
 21
575.163168
 31
0.0
  0
LINE
  5
27C
100
AcDbEntity
  8
M01
100
AcDbLine
 10
681.895095
 20
600.563168
 30
0.0
 11
681.895095
 21
575.163168
 31
0.0
  0
LINE
  5
27D
100
AcDbEntity
  8
M01
100
AcDbLine
 10
679.895095
 20
599.863168
 30
0.0
 11
679.895095
 21
575.863168
 31
0.0
  0
LINE
  5
27E
100
AcDbEntity
  8
M01
100
AcDbLine
 10
688.395095
 20
600.363168
 30
0.0
 11
688.395095
 21
575.363168
 31
0.0
  0
LINE
  5
27F
100
AcDbEntity
  8
M01
100
AcDbLine
 10
599.895095
 20
594.213168
 30
0.0
 11
600.895095
 21
594.213168
 31
0.0
  0
LINE
  5
280
100
AcDbEntity
  8
M01
100
AcDbLine
 10
599.895095
 20
581.513168
 30
0.0
 11
600.895095
 21
581.513168
 31
0.0
  0
LINE
  5
281
100
AcDbEntity
  8
M01
100
AcDbLine
 10
600.895095
 20
597.363168
 30
0.0
 11
600.895095
 21
578.363168
 31
0.0
  0
LINE
  5
282
100
AcDbEntity
  8
M01
100
AcDbLine
 10
599.895095
 20
594.213168
 30
0.0
 11
599.895095
 21
581.513168
 31
0.0
  0
LINE
  5
283
100
AcDbEntity
  8
DIMS
100
AcDbLine
 10
591.895095
 20
590.863168
 30
0.0
 11
591.895095
 21
584.863168
 31
0.0
  0
LINE
  5
284
100
AcDbEntity
  8
M01
100
AcDbLine
 10
600.895095
 20
578.363168
 30
0.0
 11
679.895095
 21
578.363168
 31
0.0
  0
LINE
  5
285
100
AcDbEntity
  8
M01
100
AcDbLine
 10
600.895095
 20
597.363168
 30
0.0
 11
679.895095
 21
597.363168
 31
0.0
  0
LINE
  5
286
100
AcDbEntity
  8
M01
100
AcDbLine
 10
681.895095
 20
575.363168
 30
0.0
 11
694.895095
 21
575.363168
 31
0.0
  0
LINE
  5
287
100
AcDbEntity
  8
M01
100
AcDbLine
 10
681.895095
 20
600.363168
 30
0.0
 11
694.895095
 21
600.363168
 31
0.0
  0
LINE
  5
288
100
AcDbEntity
  8
CENTRE
 48
0.7
100
AcDbLine
 10
577.576489
 20
587.863168
 30
0.0
 11
699.895095
 21
587.863168
 31
0.0
  0
TEXT
  5
289
100
AcDbEntity
  8
TEXT
100
AcDbText
 10
748.940756
 20
473.910579
 30
0.0
 40
3.0
  1
MATERIAL TO BE MOULDED AND THE PROCESS CONDITIONS - SEE CATALOGUE FOR DETAILS
100
AcDbText
  0
TEXT
  5
28A
100
AcDbEntity
  8
TEXT
100
AcDbText
 10
749.335507
 20
479.221009
 30
0.0
 40
3.0
  1
AN ALLOWANCE FOR EXPANSION OF THE BUSHING MUST BE MADE DEPENDENT ON THE
100
AcDbText
  0
TEXT
  5
28B
100
AcDbEntity
  8
TEXT
100
AcDbText
 10
768.908808
 20
487.66108
 30
0.0
 40
4.0
  1
%%UNOTE
100
AcDbText
  0
ENDSEC
  0
SECTION
  2
OBJECTS
  0
DICTIONARY
  5
1C
100
AcDbDictionary
  3
ACAD_GROUP
350
1A
  3
ACAD_MLINESTYLE
350
1B
  0
DICTIONARY
  5
3
100
AcDbDictionary
280
     1
  3
ACAD_SORTENTS
360
4
  0
DICTIONARY
  5
1A
102
{ACAD_REACTORS
330
1C
102
}
100
AcDbDictionary
  0
DICTIONARY
  5
1B
102
{ACAD_REACTORS
330
1C
102
}
100
AcDbDictionary
  3
STANDARD
350
1E
  0
SORTENTSTABLE
  5
4
102
{ACAD_REACTORS
330
3
102
}
100
AcDbSortentsTable
330
2
  0
MLINESTYLE
  5
1E
102
{ACAD_REACTORS
330
1B
102
}
100
AcDbMlineStyle
  2
STANDARD
 70
     0
  3

 62
   256
 51
90.0
 52
90.0
 71
     2
 49
0.5
 62
   256
  6
BYLAYER
 49
-0.5
 62
   256
  6
BYLAYER
  0
ENDSEC
  0
EOF
