  0
SECTION
  2
HEADER
  9
$ACADVER
  1
AC1014
  9
$ACADMAINTVER
 70
     9
  9
$DWGCODEPAGE
  3
ANSI_1252
  9
$INSBASE
 10
0.0
 20
0.0
 30
0.0
  9
$EXTMIN
 10
77.807604
 20
29.872378
 30
-0.222949
  9
$EXTMAX
 10
1154.759695
 20
905.430788
 30
0.0
  9
$LIMMIN
 10
0.0
 20
0.0
  9
$LIMMAX
 10
1189.0
 20
841.0
  9
$ORTHOMODE
 70
     1
  9
$REGENMODE
 70
     1
  9
$FILLMODE
 70
     1
  9
$QTEXTMODE
 70
     0
  9
$MIRRTEXT
 70
     1
  9
$DRAGMODE
 70
     2
  9
$LTSCALE
 40
8.0
  9
$OSMODE
 70
     0
  9
$ATTMODE
 70
     1
  9
$TEXTSIZE
 40
2.5
  9
$TRACEWID
 40
10.0
  9
$TEXTSTYLE
  7
STANDARD
  9
$CLAYER
  8
HATCH
  9
$CELTYPE
  6
BYLAYER
  9
$CECOLOR
 62
   256
  9
$CELTSCALE
 40
1.0
  9
$DELOBJ
 70
     1
  9
$DISPSILH
 70
     0
  9
$DIMSCALE
 40
1.0
  9
$DIMASZ
 40
3.0
  9
$DIMEXO
 40
1.0
  9
$DIMDLI
 40
10.0
  9
$DIMRND
 40
0.01
  9
$DIMDLE
 40
1.25
  9
$DIMEXE
 40
2.5
  9
$DIMTP
 40
0.05
  9
$DIMTM
 40
0.0
  9
$DIMTXT
 40
3.0
  9
$DIMCEN
 40
-1.7
  9
$DIMTSZ
 40
0.0
  9
$DIMTOL
 70
     0
  9
$DIMLIM
 70
     0
  9
$DIMTIH
 70
     0
  9
$DIMTOH
 70
     0
  9
$DIMSE1
 70
     0
  9
$DIMSE2
 70
     0
  9
$DIMTAD
 70
     3
  9
$DIMZIN
 70
     1
  9
$DIMBLK
  1

  9
$DIMASO
 70
     1
  9
$DIMSHO
 70
     0
  9
$DIMPOST
  1

  9
$DIMAPOST
  1

  9
$DIMALT
 70
     0
  9
$DIMALTD
 70
     2
  9
$DIMALTF
 40
0.039
  9
$DIMLFAC
 40
1.0
  9
$DIMTOFL
 70
     0
  9
$DIMTVP
 40
1.5
  9
$DIMTIX
 70
     0
  9
$DIMSOXD
 70
     0
  9
$DIMSAH
 70
     0
  9
$DIMBLK1
  1

  9
$DIMBLK2
  1

  9
$DIMSTYLE
  2
DIM1
  9
$DIMCLRD
 70
     4
  9
$DIMCLRE
 70
     4
  9
$DIMCLRT
 70
     2
  9
$DIMTFAC
 40
0.7
  9
$DIMGAP
 40
1.5
  9
$DIMJUST
 70
     0
  9
$DIMSD1
 70
     0
  9
$DIMSD2
 70
     0
  9
$DIMTOLJ
 70
     1
  9
$DIMTZIN
 70
     1
  9
$DIMALTZ
 70
     1
  9
$DIMALTTZ
 70
     1
  9
$DIMFIT
 70
     0
  9
$DIMUPT
 70
     0
  9
$DIMUNIT
 70
     2
  9
$DIMDEC
 70
     2
  9
$DIMTDEC
 70
     2
  9
$DIMALTU
 70
     2
  9
$DIMALTTD
 70
     2
  9
$DIMTXSTY
  7
STANDARD
  9
$DIMAUNIT
 70
     0
  9
$LUNITS
 70
     2
  9
$LUPREC
 70
     2
  9
$SKETCHINC
 40
1.0
  9
$FILLETRAD
 40
15.0
  9
$AUNITS
 70
     0
  9
$AUPREC
 70
     3
  9
$MENU
  1
ACAD
  9
$ELEVATION
 40
0.0
  9
$PELEVATION
 40
0.0
  9
$THICKNESS
 40
0.0
  9
$LIMCHECK
 70
     0
  9
$BLIPMODE
 70
     1
  9
$CHAMFERA
 40
12.0
  9
$CHAMFERB
 40
12.0
  9
$CHAMFERC
 40
0.0
  9
$CHAMFERD
 40
0.0
  9
$SKPOLY
 70
     1
  9
$TDCREATE
 40
2449993.725698611
  9
$TDUPDATE
 40
2452213.585133345
  9
$TDINDWG
 40
0.9052135880
  9
$TDUSRTIMER
 40
0.9052135880
  9
$USRTIMER
 70
     1
  9
$ANGBASE
 50
0.0
  9
$ANGDIR
 70
     0
  9
$PDMODE
 70
     3
  9
$PDSIZE
 40
0.0
  9
$PLINEWID
 40
0.0
  9
$COORDS
 70
     2
  9
$SPLFRAME
 70
     0
  9
$SPLINETYPE
 70
     6
  9
$SPLINESEGS
 70
     6
  9
$ATTDIA
 70
     1
  9
$ATTREQ
 70
     1
  9
$HANDLING
 70
     1
  9
$HANDSEED
  5
653
  9
$SURFTAB1
 70
    12
  9
$SURFTAB2
 70
    12
  9
$SURFTYPE
 70
     6
  9
$SURFU
 70
    12
  9
$SURFV
 70
    12
  9
$UCSNAME
  2

  9
$UCSORG
 10
0.0
 20
0.0
 30
0.0
  9
$UCSXDIR
 10
1.0
 20
0.0
 30
0.0
  9
$UCSYDIR
 10
0.0
 20
1.0
 30
0.0
  9
$PUCSNAME
  2

  9
$PUCSORG
 10
0.0
 20
0.0
 30
0.0
  9
$PUCSXDIR
 10
1.0
 20
0.0
 30
0.0
  9
$PUCSYDIR
 10
0.0
 20
1.0
 30
0.0
  9
$USERI1
 70
     0
  9
$USERI2
 70
     0
  9
$USERI3
 70
     0
  9
$USERI4
 70
     0
  9
$USERI5
 70
     0
  9
$USERR1
 40
0.0
  9
$USERR2
 40
0.0
  9
$USERR3
 40
0.0
  9
$USERR4
 40
0.0
  9
$USERR5
 40
0.0
  9
$WORLDVIEW
 70
     0
  9
$SHADEDGE
 70
     3
  9
$SHADEDIF
 70
    70
  9
$TILEMODE
 70
     1
  9
$MAXACTVP
 70
    16
  9
$PINSBASE
 10
0.0
 20
0.0
 30
0.0
  9
$PLIMCHECK
 70
     0
  9
$PEXTMIN
 10
1.000000E+20
 20
1.000000E+20
 30
1.000000E+20
  9
$PEXTMAX
 10
-1.000000E+20
 20
-1.000000E+20
 30
-1.000000E+20
  9
$PLIMMIN
 10
0.0
 20
0.0
  9
$PLIMMAX
 10
12.0
 20
9.0
  9
$UNITMODE
 70
     0
  9
$VISRETAIN
 70
     0
  9
$PLINEGEN
 70
     0
  9
$PSLTSCALE
 70
     0
  9
$TREEDEPTH
 70
  3020
  9
$PICKSTYLE
 70
     1
  9
$CMLSTYLE
  2
STANDARD
  9
$CMLJUST
 70
     0
  9
$CMLSCALE
 40
1.0
  9
$PROXYGRAPHICS
 70
     1
  9
$MEASUREMENT
 70
     0
  0
ENDSEC
  0
SECTION
  2
CLASSES
  0
CLASS
  1
DICTIONARYVAR
  2
AcDbDictionaryVar
  3
"AutoCAD"
 90
        0
280
     0
281
     0
  0
CLASS
  1
LWPOLYLINE
  2
AcDbPolyline
  3
"AutoCAD"
 90
        0
280
     0
281
     1
  0
CLASS
  1
HATCH
  2
AcDbHatch
  3
"ACAD_SEDONA"
 90
        0
280
     0
281
     1
  0
CLASS
  1
SORTENTSTABLE
  2
AcDbSortentsTable
  3
"AutoCAD"
 90
        0
280
     0
281
     0
  0
CLASS
  1
WIPEOUTVARIABLES
  2
AcDbWipeoutVariables
  3
WIPEOUT
 90
        0
280
     0
281
     0
  0
CLASS
  1
WIPEOUT
  2
AcDbWipeout
  3
WIPEOUT
 90
      127
280
     0
281
     1
  0
ENDSEC
  0
SECTION
  2
TABLES
  0
TABLE
  2
VPORT
  5
14
100
AcDbSymbolTable
 70
     2
  0
VPORT
  5
652
100
AcDbSymbolTableRecord
100
AcDbViewportTableRecord
  2
*ACTIVE
 70
     0
 10
0.0
 20
0.0
 11
1.0
 21
1.0
 12
578.186679
 22
439.943189
 13
0.0
 23
0.0
 14
10.0
 24
10.0
 15
0.0
 25
0.0
 16
0.0
 26
0.0
 36
1.0
 17
16.313321
 27
12.779115
 37
0.222949
 40
912.110458
 41
1.470516
 42
50.0
 43
0.0
 44
0.0
 50
0.0
 51
0.0
 71
     0
 72
  2000
 73
     1
 74
     2
 75
     0
 76
     0
 77
     0
 78
     1
  0
ENDTAB
  0
TABLE
  2
LTYPE
  5
F
100
AcDbSymbolTable
 70
     3
  0
LTYPE
  5
10
100
AcDbSymbolTableRecord
100
AcDbLinetypeTableRecord
  2
BYBLOCK
 70
     0
  3

 72
    65
 73
     0
 40
0.0
  0
LTYPE
  5
11
100
AcDbSymbolTableRecord
100
AcDbLinetypeTableRecord
  2
BYLAYER
 70
     0
  3

 72
    65
 73
     0
 40
0.0
  0
LTYPE
  5
7
100
AcDbSymbolTableRecord
100
AcDbLinetypeTableRecord
  2
CONTINUOUS
 70
     0
  3
Solid line
 72
    65
 73
     0
 40
0.0
  0
LTYPE
  5
174
100
AcDbSymbolTableRecord
100
AcDbLinetypeTableRecord
  2
CENTER
 70
     0
  3
Center ____ _ ____ _ ____ _ ____ _ ____ _ ____
 72
    65
 73
     4
 40
2.0
 49
1.25
 74
     0
 49
-0.25
 74
     0
 49
0.25
 74
     0
 49
-0.25
 74
     0
  0
LTYPE
  5
E7
100
AcDbSymbolTableRecord
100
AcDbLinetypeTableRecord
  2
HIDDEN
 70
     0
  3
Hidden __ __ __ __ __ __ __ __ __ __ __ __ __ _
 72
    65
 73
     2
 40
0.375
 49
0.25
 74
     0
 49
-0.125
 74
     0
  0
ENDTAB
  0
TABLE
  2
LAYER
  5
C
100
AcDbSymbolTable
 70
    11
  0
LAYER
  5
6
100
AcDbSymbolTableRecord
100
AcDbLayerTableRecord
  2
0
 70
     0
 62
     7
  6
CONTINUOUS
  0
LAYER
  5
173
100
AcDbSymbolTableRecord
100
AcDbLayerTableRecord
  2
CENTRE
 70
     0
 62
     3
  6
CENTER
  0
LAYER
  5
33
100
AcDbSymbolTableRecord
100
AcDbLayerTableRecord
  2
M01
 70
     0
 62
     1
  6
CONTINUOUS
  0
LAYER
  5
203
100
AcDbSymbolTableRecord
100
AcDbLayerTableRecord
  2
M02
 70
     0
 62
     2
  6
CONTINUOUS
  0
LAYER
  5
E6
100
AcDbSymbolTableRecord
100
AcDbLayerTableRecord
  2
M03
 70
     0
 62
     2
  6
HIDDEN
  0
LAYER
  5
22
100
AcDbSymbolTableRecord
100
AcDbLayerTableRecord
  2
M04
 70
     0
 62
     7
  6
CONTINUOUS
  0
LAYER
  5
218
100
AcDbSymbolTableRecord
100
AcDbLayerTableRecord
  2
M05
 70
     0
 62
     5
  6
CONTINUOUS
  0
LAYER
  5
4A
100
AcDbSymbolTableRecord
100
AcDbLayerTableRecord
  2
DIMS
 70
     0
 62
     4
  6
CONTINUOUS
  0
LAYER
  5
44
100
AcDbSymbolTableRecord
100
AcDbLayerTableRecord
  2
TEXT
 70
     0
 62
     2
  6
CONTINUOUS
  0
LAYER
  5
1D
100
AcDbSymbolTableRecord
100
AcDbLayerTableRecord
  2
HATCH
 70
     0
 62
     4
  6
CONTINUOUS
  0
LAYER
  5
53
100
AcDbSymbolTableRecord
100
AcDbLayerTableRecord
  2
DEFPOINTS
 70
     0
 62
     7
  6
CONTINUOUS
  0
ENDTAB
  0
TABLE
  2
STYLE
  5
D
100
AcDbSymbolTable
 70
     1
  0
STYLE
  5
E
100
AcDbSymbolTableRecord
100
AcDbTextStyleTableRecord
  2
STANDARD
 70
     0
 40
0.0
 41
1.0
 50
0.0
 71
     0
 42
2.5
  3
SIMPLEX
  4

  0
ENDTAB
  0
TABLE
  2
VIEW
  5
12
100
AcDbSymbolTable
 70
     0
  0
ENDTAB
  0
TABLE
  2
UCS
  5
13
100
AcDbSymbolTable
 70
     0
  0
ENDTAB
  0
TABLE
  2
APPID
  5
16
100
AcDbSymbolTable
 70
     1
  0
APPID
  5
17
100
AcDbSymbolTableRecord
100
AcDbRegAppTableRecord
  2
ACAD
 70
     0
  0
ENDTAB
  0
TABLE
  2
DIMSTYLE
  5
18
100
AcDbSymbolTable
 70
     2
  0
DIMSTYLE
105
1F
102
{ACAD_REACTORS
330
51A
330
528
330
536
330
204
330
A4
330
98
330
8C
330
7F
330
72
330
65
330
58
330
49
330
27A
330
26D
330
260
330
253
102
}
100
AcDbSymbolTableRecord
100
AcDbDimStyleTableRecord
  2
DIM1
 70
     0
  3

  4

  5

  6

  7

 40
1.0
 41
3.0
 42
1.0
 43
10.0
 44
2.5
 45
0.01
 46
1.25
 47
0.05
 48
0.0
140
3.0
141
-1.7
142
0.0
143
0.039
144
0.2
145
1.5
146
0.7
147
1.5
 71
     0
 72
     0
 73
     0
 74
     0
 75
     0
 76
     0
 77
     3
 78
     1
170
     0
171
     2
172
     0
173
     0
174
     0
175
     0
176
     4
177
     4
178
     2
270
     2
271
     2
272
     2
273
     2
274
     2
340
E
275
     0
280
     0
281
     0
282
     0
283
     1
284
     1
285
     1
286
     1
287
     0
288
     0
  0
DIMSTYLE
105
562
100
AcDbSymbolTableRecord
100
AcDbDimStyleTableRecord
  2
DIM1$7
 70
     0
  3

  4

  5

  6

  7

 40
1.0
 41
3.0
 42
1.0
 43
10.0
 44
2.5
 45
0.01
 46
1.25
 47
0.0
 48
0.0
140
3.0
141
-1.7
142
0.0
143
0.039
144
1.0
145
0.0
146
1.0
147
1.5
 71
     0
 72
     0
 73
     0
 74
     0
 75
     0
 76
     0
 77
     0
 78
     1
170
     0
171
     2
172
     0
173
     0
174
     0
175
     0
176
     4
177
     4
178
     2
270
     2
271
     2
272
     2
273
     2
274
     2
340
E
275
     0
280
     0
281
     0
282
     0
283
     1
284
     1
285
     1
286
     1
287
     0
288
     0
  0
ENDTAB
  0
TABLE
  2
BLOCK_RECORD
  5
1
100
AcDbSymbolTable
 70
    17
  0
BLOCK_RECORD
  5
2
102
{ACAD_XDICTIONARY
360
3
102
}
100
AcDbSymbolTableRecord
100
AcDbBlockTableRecord
  2
*MODEL_SPACE
  0
BLOCK_RECORD
  5
9
100
AcDbSymbolTableRecord
100
AcDbBlockTableRecord
  2
*PAPER_SPACE
  0
BLOCK_RECORD
  5
240
100
AcDbSymbolTableRecord
100
AcDbBlockTableRecord
  2
ARROW1
  0
BLOCK_RECORD
  5
51B
100
AcDbSymbolTableRecord
100
AcDbBlockTableRecord
  2
*D1
  0
BLOCK_RECORD
  5
529
100
AcDbSymbolTableRecord
100
AcDbBlockTableRecord
  2
*D2
  0
BLOCK_RECORD
  5
537
100
AcDbSymbolTableRecord
100
AcDbBlockTableRecord
  2
*D3
  0
BLOCK_RECORD
  5
27B
100
AcDbSymbolTableRecord
100
AcDbBlockTableRecord
  2
*D4
  0
BLOCK_RECORD
  5
26E
100
AcDbSymbolTableRecord
100
AcDbBlockTableRecord
  2
*D5
  0
BLOCK_RECORD
  5
261
100
AcDbSymbolTableRecord
100
AcDbBlockTableRecord
  2
*D6
  0
BLOCK_RECORD
  5
254
100
AcDbSymbolTableRecord
100
AcDbBlockTableRecord
  2
*D7
  0
BLOCK_RECORD
  5
205
100
AcDbSymbolTableRecord
100
AcDbBlockTableRecord
  2
*D8
  0
BLOCK_RECORD
  5
A5
100
AcDbSymbolTableRecord
100
AcDbBlockTableRecord
  2
*D9
  0
BLOCK_RECORD
  5
99
100
AcDbSymbolTableRecord
100
AcDbBlockTableRecord
  2
*D10
  0
BLOCK_RECORD
  5
8D
100
AcDbSymbolTableRecord
100
AcDbBlockTableRecord
  2
*D11
  0
BLOCK_RECORD
  5
80
100
AcDbSymbolTableRecord
100
AcDbBlockTableRecord
  2
*D12
  0
BLOCK_RECORD
  5
73
100
AcDbSymbolTableRecord
100
AcDbBlockTableRecord
  2
*D13
  0
BLOCK_RECORD
  5
66
100
AcDbSymbolTableRecord
100
AcDbBlockTableRecord
  2
*D14
  0
BLOCK_RECORD
  5
59
100
AcDbSymbolTableRecord
100
AcDbBlockTableRecord
  2
*D15
  0
BLOCK_RECORD
  5
4B
100
AcDbSymbolTableRecord
100
AcDbBlockTableRecord
  2
*D16
  0
ENDTAB
  0
ENDSEC
  0
SECTION
  2
BLOCKS
  0
BLOCK
  5
5
100
AcDbEntity
  8
0
100
AcDbBlockBegin
  2
*MODEL_SPACE
 70
     0
 10
0.0
 20
0.0
 30
0.0
  3
*MODEL_SPACE
  1

  0
ENDBLK
  5
8
100
AcDbEntity
  8
0
100
AcDbBlockEnd
  0
BLOCK
  5
A
100
AcDbEntity
 67
     1
  8
0
100
AcDbBlockBegin
  2
*PAPER_SPACE
 70
     0
 10
0.0
 20
0.0
 30
0.0
  3
*PAPER_SPACE
  1

  0
ENDBLK
  5
B
100
AcDbEntity
 67
     1
  8
0
100
AcDbBlockEnd
  0
BLOCK
  5
244
100
AcDbEntity
  8
0
100
AcDbBlockBegin
  2
ARROW1
 70
     0
 10
0.0
 20
0.0
 30
0.0
  3
ARROW1
  1

  0
LINE
  5
241
100
AcDbEntity
  8
0
100
AcDbLine
 10
-1.0
 20
-0.2
 30
0.0
 11
-1.0
 21
0.0
 31
0.0
  0
LINE
  5
242
100
AcDbEntity
  8
0
100
AcDbLine
 10
0.0
 20
0.0
 30
0.0
 11
-1.0
 21
-0.2
 31
0.0
  0
SOLID
  5
243
100
AcDbEntity
  8
0
100
AcDbTrace
 10
0.0
 20
0.0
 30
0.0
 11
-1.0
 21
0.2
 31
0.0
 12
-1.0
 22
0.0
 32
0.0
 13
-1.0
 23
0.0
 33
0.0
  0
ENDBLK
  5
245
100
AcDbEntity
  8
0
100
AcDbBlockEnd
  0
BLOCK
  5
526
100
AcDbEntity
  8
0
100
AcDbBlockBegin
  2
*D1
 70
     1
 10
0.0
 20
0.0
 30
0.0
  3
*D1
  1

  0
LINE
  5
51C
100
AcDbEntity
  8
0
  6
BYBLOCK
 62
     4
100
AcDbLine
 10
904.644674
 20
326.299226
 30
0.0
 11
904.644674
 21
277.377479
 31
0.0
  0
LINE
  5
51D
100
AcDbEntity
  8
0
  6
BYBLOCK
 62
     4
100
AcDbLine
 10
897.644674
 20
312.126607
 30
0.0
 11
897.644674
 21
277.377479
 31
0.0
  0
LINE
  5
51E
100
AcDbEntity
  8
0
  6
BYBLOCK
 62
     4
100
AcDbLine
 10
907.644674
 20
279.877479
 30
0.0
 11
910.644674
 21
279.877479
 31
0.0
  0
LINE
  5
51F
100
AcDbEntity
  8
0
  6
BYBLOCK
 62
     4
100
AcDbLine
 10
894.644674
 20
279.877479
 30
0.0
 11
882.358959
 21
279.877479
 31
0.0
  0
SOLID
  5
520
100
AcDbEntity
  8
0
  6
BYBLOCK
 62
     4
100
AcDbTrace
 10
907.644674
 20
280.377479
 30
0.0
 11
907.644674
 21
279.377479
 31
0.0
 12
904.644674
 22
279.877479
 32
0.0
 13
904.644674
 23
279.877479
 33
0.0
  0
SOLID
  5
521
100
AcDbEntity
  8
0
  6
BYBLOCK
 62
     4
100
AcDbTrace
 10
894.644674
 20
280.377479
 30
0.0
 11
894.644674
 21
279.377479
 31
0.0
 12
897.644674
 22
279.877479
 32
0.0
 13
897.644674
 23
279.877479
 33
0.0
  0
MTEXT
  5
522
100
AcDbEntity
  8
0
  6
BYBLOCK
 62
     2
100
AcDbMText
 10
887.001816
 20
282.877479
 30
0.0
 40
3.0
 41
0.0
 71
     5
 72
     1
  1
\A1;7.0
  0
POINT
  5
523
100
AcDbEntity
  8
DEFPOINTS
  6
BYBLOCK
 62
     0
100
AcDbPoint
 10
904.644674
 20
327.299226
 30
0.0
  0
POINT
  5
524
100
AcDbEntity
  8
DEFPOINTS
  6
BYBLOCK
 62
     0
100
AcDbPoint
 10
897.644674
 20
313.126607
 30
0.0
  0
POINT
  5
525
100
AcDbEntity
  8
DEFPOINTS
  6
BYBLOCK
 62
     0
100
AcDbPoint
 10
897.644674
 20
279.877479
 30
0.0
  0
ENDBLK
  5
527
100
AcDbEntity
  8
0
100
AcDbBlockEnd
  0
BLOCK
  5
534
100
AcDbEntity
  8
0
100
AcDbBlockBegin
  2
*D2
 70
     1
 10
0.0
 20
0.0
 30
0.0
  3
*D2
  1

  0
LINE
  5
52A
100
AcDbEntity
  8
0
  6
BYBLOCK
 62
     4
100
AcDbLine
 10
964.644674
 20
326.252807
 30
0.0
 11
964.644674
 21
277.377479
 31
0.0
  0
LINE
  5
52B
100
AcDbEntity
  8
0
  6
BYBLOCK
 62
     4
100
AcDbLine
 10
971.644674
 20
300.613216
 30
0.0
 11
971.644674
 21
277.377479
 31
0.0
  0
LINE
  5
52C
100
AcDbEntity
  8
0
  6
BYBLOCK
 62
     4
100
AcDbLine
 10
961.644674
 20
279.877479
 30
0.0
 11
958.644674
 21
279.877479
 31
0.0
  0
LINE
  5
52D
100
AcDbEntity
  8
0
  6
BYBLOCK
 62
     4
100
AcDbLine
 10
974.644674
 20
279.877479
 30
0.0
 11
986.930388
 21
279.877479
 31
0.0
  0
SOLID
  5
52E
100
AcDbEntity
  8
0
  6
BYBLOCK
 62
     4
100
AcDbTrace
 10
961.644674
 20
280.377479
 30
0.0
 11
961.644674
 21
279.377479
 31
0.0
 12
964.644674
 22
279.877479
 32
0.0
 13
964.644674
 23
279.877479
 33
0.0
  0
SOLID
  5
52F
100
AcDbEntity
  8
0
  6
BYBLOCK
 62
     4
100
AcDbTrace
 10
974.644674
 20
280.377479
 30
0.0
 11
974.644674
 21
279.377479
 31
0.0
 12
971.644674
 22
279.877479
 32
0.0
 13
971.644674
 23
279.877479
 33
0.0
  0
MTEXT
  5
530
100
AcDbEntity
  8
0
  6
BYBLOCK
 62
     2
100
AcDbMText
 10
982.287531
 20
282.877479
 30
0.0
 40
3.0
 41
0.0
 71
     5
 72
     1
  1
\A1;7.0
  0
POINT
  5
531
100
AcDbEntity
  8
DEFPOINTS
  6
BYBLOCK
 62
     0
100
AcDbPoint
 10
964.644674
 20
327.252807
 30
0.0
  0
POINT
  5
532
100
AcDbEntity
  8
DEFPOINTS
  6
BYBLOCK
 62
     0
100
AcDbPoint
 10
971.644674
 20
301.613216
 30
0.0
  0
POINT
  5
533
100
AcDbEntity
  8
DEFPOINTS
  6
BYBLOCK
 62
     0
100
AcDbPoint
 10
971.644674
 20
279.877479
 30
0.0
  0
ENDBLK
  5
535
100
AcDbEntity
  8
0
100
AcDbBlockEnd
  0
BLOCK
  5
541
100
AcDbEntity
  8
0
100
AcDbBlockBegin
  2
*D3
 70
     1
 10
0.0
 20
0.0
 30
0.0
  3
*D3
  1

  0
LINE
  5
538
100
AcDbEntity
  8
0
  6
BYBLOCK
 62
     4
100
AcDbLine
 10
904.644674
 20
326.299226
 30
0.0
 11
904.644674
 21
277.377479
 31
0.0
  0
LINE
  5
539
100
AcDbEntity
  8
0
  6
BYBLOCK
 62
     4
100
AcDbLine
 10
964.644674
 20
326.252807
 30
0.0
 11
964.644674
 21
277.377479
 31
0.0
  0
LINE
  5
53A
100
AcDbEntity
  8
0
  6
BYBLOCK
 62
     4
100
AcDbLine
 10
907.644674
 20
279.877479
 30
0.0
 11
961.644674
 21
279.877479
 31
0.0
  0
SOLID
  5
53B
100
AcDbEntity
  8
0
  6
BYBLOCK
 62
     4
100
AcDbTrace
 10
907.644674
 20
280.377479
 30
0.0
 11
907.644674
 21
279.377479
 31
0.0
 12
904.644674
 22
279.877479
 32
0.0
 13
904.644674
 23
279.877479
 33
0.0
  0
SOLID
  5
53C
100
AcDbEntity
  8
0
  6
BYBLOCK
 62
     4
100
AcDbTrace
 10
961.644674
 20
280.377479
 30
0.0
 11
961.644674
 21
279.377479
 31
0.0
 12
964.644674
 22
279.877479
 32
0.0
 13
964.644674
 23
279.877479
 33
0.0
  0
MTEXT
  5
53D
100
AcDbEntity
  8
0
  6
BYBLOCK
 62
     2
100
AcDbMText
 10
934.644674
 20
282.877479
 30
0.0
 40
3.0
 41
0.0
 71
     5
 72
     1
  1
\A1;60.00
  0
POINT
  5
53E
100
AcDbEntity
  8
DEFPOINTS
  6
BYBLOCK
 62
     0
100
AcDbPoint
 10
904.644674
 20
327.299226
 30
0.0
  0
POINT
  5
53F
100
AcDbEntity
  8
DEFPOINTS
  6
BYBLOCK
 62
     0
100
AcDbPoint
 10
964.644674
 20
327.252807
 30
0.0
  0
POINT
  5
540
100
AcDbEntity
  8
DEFPOINTS
  6
BYBLOCK
 62
     0
100
AcDbPoint
 10
964.644674
 20
279.877479
 30
0.0
  0
ENDBLK
  5
542
100
AcDbEntity
  8
0
100
AcDbBlockEnd
  0
BLOCK
  5
285
100
AcDbEntity
  8
0
100
AcDbBlockBegin
  2
*D4
 70
     1
 10
0.0
 20
0.0
 30
0.0
  3
*D4
  1

  0
LINE
  5
27C
100
AcDbEntity
  8
0
  6
BYBLOCK
 62
     4
100
AcDbLine
 10
990.762332
 20
148.37426
 30
0.0
 11
969.830536
 21
148.37426
 31
0.0
  0
LINE
  5
27D
100
AcDbEntity
  8
0
  6
BYBLOCK
 62
     4
100
AcDbLine
 10
1000.537332
 20
161.77426
 30
0.0
 11
969.830536
 21
161.77426
 31
0.0
  0
LINE
  5
27E
100
AcDbEntity
  8
0
  6
BYBLOCK
 62
     4
100
AcDbLine
 10
972.330536
 20
151.37426
 30
0.0
 11
972.330536
 21
158.77426
 31
0.0
  0
SOLID
  5
27F
100
AcDbEntity
  8
0
  6
BYBLOCK
 62
     4
100
AcDbTrace
 10
971.830536
 20
151.37426
 30
0.0
 11
972.830536
 21
151.37426
 31
0.0
 12
972.330536
 22
148.37426
 32
0.0
 13
972.330536
 23
148.37426
 33
0.0
  0
SOLID
  5
280
100
AcDbEntity
  8
0
  6
BYBLOCK
 62
     4
100
AcDbTrace
 10
971.830536
 20
158.77426
 30
0.0
 11
972.830536
 21
158.77426
 31
0.0
 12
972.330536
 22
161.77426
 32
0.0
 13
972.330536
 23
161.77426
 33
0.0
  0
MTEXT
  5
281
100
AcDbEntity
  8
0
  6
BYBLOCK
 62
     2
100
AcDbMText
 10
969.330536
 20
155.07426
 30
0.0
 40
3.0
 41
0.0
 71
     5
 72
     1
  1
\A1;13.4
 11
0.0
 21
1.0
 31
0.0
  0
POINT
  5
282
100
AcDbEntity
  8
DEFPOINTS
  6
BYBLOCK
 62
     0
100
AcDbPoint
 10
991.762332
 20
148.37426
 30
0.0
  0
POINT
  5
283
100
AcDbEntity
  8
DEFPOINTS
  6
BYBLOCK
 62
     0
100
AcDbPoint
 10
1001.537332
 20
161.77426
 30
0.0
  0
POINT
  5
284
100
AcDbEntity
  8
DEFPOINTS
  6
BYBLOCK
 62
     0
100
AcDbPoint
 10
972.330536
 20
161.77426
 30
0.0
  0
ENDBLK
  5
286
100
AcDbEntity
  8
0
100
AcDbBlockEnd
  0
BLOCK
  5
278
100
AcDbEntity
  8
0
100
AcDbBlockBegin
  2
*D5
 70
     1
 10
0.0
 20
0.0
 30
0.0
  3
*D5
  1

  0
LINE
  5
26F
100
AcDbEntity
  8
0
  6
BYBLOCK
 62
     4
100
AcDbLine
 10
547.74378
 20
182.726459
 30
0.0
 11
547.74378
 21
205.933041
 31
0.0
  0
LINE
  5
270
100
AcDbEntity
  8
0
  6
BYBLOCK
 62
     4
100
AcDbLine
 10
503.29378
 20
182.726459
 30
0.0
 11
503.29378
 21
205.933041
 31
0.0
  0
LINE
  5
271
100
AcDbEntity
  8
0
  6
BYBLOCK
 62
     4
100
AcDbLine
 10
544.74378
 20
203.433041
 30
0.0
 11
506.29378
 21
203.433041
 31
0.0
  0
SOLID
  5
272
100
AcDbEntity
  8
0
  6
BYBLOCK
 62
     4
100
AcDbTrace
 10
544.74378
 20
203.933041
 30
0.0
 11
544.74378
 21
202.933041
 31
0.0
 12
547.74378
 22
203.433041
 32
0.0
 13
547.74378
 23
203.433041
 33
0.0
  0
SOLID
  5
273
100
AcDbEntity
  8
0
  6
BYBLOCK
 62
     4
100
AcDbTrace
 10
506.29378
 20
203.933041
 30
0.0
 11
506.29378
 21
202.933041
 31
0.0
 12
503.29378
 22
203.433041
 32
0.0
 13
503.29378
 23
203.433041
 33
0.0
  0
MTEXT
  5
274
100
AcDbEntity
  8
0
  6
BYBLOCK
 62
     2
100
AcDbMText
 10
526.483991
 20
206.433041
 30
0.0
 40
3.0
 41
0.0
 71
     5
 72
     1
  1
\A1;\U+220544.45 H7
  0
POINT
  5
275
100
AcDbEntity
  8
DEFPOINTS
  6
BYBLOCK
 62
     0
100
AcDbPoint
 10
547.74378
 20
181.726459
 30
0.0
  0
POINT
  5
276
100
AcDbEntity
  8
DEFPOINTS
  6
BYBLOCK
 62
     0
100
AcDbPoint
 10
503.29378
 20
181.726459
 30
0.0
  0
POINT
  5
277
100
AcDbEntity
  8
DEFPOINTS
  6
BYBLOCK
 62
     0
100
AcDbPoint
 10
503.29378
 20
203.433041
 30
0.0
  0
ENDBLK
  5
279
100
AcDbEntity
  8
0
100
AcDbBlockEnd
  0
BLOCK
  5
26B
100
AcDbEntity
  8
0
100
AcDbBlockBegin
  2
*D6
 70
     1
 10
0.0
 20
0.0
 30
0.0
  3
*D6
  1

  0
LINE
  5
262
100
AcDbEntity
  8
0
  6
BYBLOCK
 62
     4
100
AcDbLine
 10
502.29378
 20
177.149109
 30
0.0
 11
502.29378
 21
215.974272
 31
0.0
  0
LINE
  5
263
100
AcDbEntity
  8
0
  6
BYBLOCK
 62
     4
100
AcDbLine
 10
548.74378
 20
177.149109
 30
0.0
 11
548.74378
 21
215.974272
 31
0.0
  0
LINE
  5
264
100
AcDbEntity
  8
0
  6
BYBLOCK
 62
     4
100
AcDbLine
 10
505.29378
 20
213.474272
 30
0.0
 11
545.74378
 21
213.474272
 31
0.0
  0
SOLID
  5
265
100
AcDbEntity
  8
0
  6
BYBLOCK
 62
     4
100
AcDbTrace
 10
505.29378
 20
213.974272
 30
0.0
 11
505.29378
 21
212.974272
 31
0.0
 12
502.29378
 22
213.474272
 32
0.0
 13
502.29378
 23
213.474272
 33
0.0
  0
SOLID
  5
266
100
AcDbEntity
  8
0
  6
BYBLOCK
 62
     4
100
AcDbTrace
 10
545.74378
 20
213.974272
 30
0.0
 11
545.74378
 21
212.974272
 31
0.0
 12
548.74378
 22
213.474272
 32
0.0
 13
548.74378
 23
213.474272
 33
0.0
  0
MTEXT
  5
267
100
AcDbEntity
  8
0
  6
BYBLOCK
 62
     2
100
AcDbMText
 10
526.824232
 20
216.474272
 30
0.0
 40
3.0
 41
0.0
 71
     5
 72
     1
  1
\A1;\U+220546.5
  0
POINT
  5
268
100
AcDbEntity
  8
DEFPOINTS
  6
BYBLOCK
 62
     0
100
AcDbPoint
 10
502.29378
 20
176.149109
 30
0.0
  0
POINT
  5
269
100
AcDbEntity
  8
DEFPOINTS
  6
BYBLOCK
 62
     0
100
AcDbPoint
 10
548.74378
 20
176.149109
 30
0.0
  0
POINT
  5
26A
100
AcDbEntity
  8
DEFPOINTS
  6
BYBLOCK
 62
     0
100
AcDbPoint
 10
548.74378
 20
213.474272
 30
0.0
  0
ENDBLK
  5
26C
100
AcDbEntity
  8
0
100
AcDbBlockEnd
  0
BLOCK
  5
25E
100
AcDbEntity
  8
0
100
AcDbBlockBegin
  2
*D7
 70
     1
 10
0.0
 20
0.0
 30
0.0
  3
*D7
  1

  0
LINE
  5
255
100
AcDbEntity
  8
0
  6
BYBLOCK
 62
     4
100
AcDbLine
 10
549.74378
 20
156.326459
 30
0.0
 11
573.785879
 21
156.326459
 31
0.0
  0
LINE
  5
256
100
AcDbEntity
  8
0
  6
BYBLOCK
 62
     4
100
AcDbLine
 10
548.74378
 20
181.726459
 30
0.0
 11
573.785879
 21
181.726459
 31
0.0
  0
LINE
  5
257
100
AcDbEntity
  8
0
  6
BYBLOCK
 62
     4
100
AcDbLine
 10
571.285879
 20
159.326459
 30
0.0
 11
571.285879
 21
178.726459
 31
0.0
  0
SOLID
  5
258
100
AcDbEntity
  8
0
  6
BYBLOCK
 62
     4
100
AcDbTrace
 10
570.785879
 20
159.326459
 30
0.0
 11
571.785879
 21
159.326459
 31
0.0
 12
571.285879
 22
156.326459
 32
0.0
 13
571.285879
 23
156.326459
 33
0.0
  0
SOLID
  5
259
100
AcDbEntity
  8
0
  6
BYBLOCK
 62
     4
100
AcDbTrace
 10
570.785879
 20
178.726459
 30
0.0
 11
571.785879
 21
178.726459
 31
0.0
 12
571.285879
 22
181.726459
 32
0.0
 13
571.285879
 23
181.726459
 33
0.0
  0
MTEXT
  5
25A
100
AcDbEntity
  8
0
  6
BYBLOCK
 62
     2
100
AcDbMText
 10
568.285879
 20
171.027876
 30
0.0
 40
3.0
 41
0.0
 71
     5
 72
     1
  1
\A1;25.40
 11
0.0
 21
1.0
 31
0.0
  0
POINT
  5
25B
100
AcDbEntity
  8
DEFPOINTS
  6
BYBLOCK
 62
     0
100
AcDbPoint
 10
548.74378
 20
156.326459
 30
0.0
  0
POINT
  5
25C
100
AcDbEntity
  8
DEFPOINTS
  6
BYBLOCK
 62
     0
100
AcDbPoint
 10
547.74378
 20
181.726459
 30
0.0
  0
POINT
  5
25D
100
AcDbEntity
  8
DEFPOINTS
  6
BYBLOCK
 62
     0
100
AcDbPoint
 10
571.285879
 20
181.726459
 30
0.0
  0
ENDBLK
  5
25F
100
AcDbEntity
  8
0
100
AcDbBlockEnd
  0
BLOCK
  5
210
100
AcDbEntity
  8
0
100
AcDbBlockBegin
  2
*D8
 70
     1
 10
0.0
 20
0.0
 30
0.0
  3
*D8
  1

  0
LINE
  5
206
100
AcDbEntity
  8
0
  6
BYBLOCK
 62
     4
100
AcDbLine
 10
641.524052
 20
177.326459
 30
0.0
 11
641.524052
 21
193.502624
 31
0.0
  0
LINE
  5
207
100
AcDbEntity
  8
0
  6
BYBLOCK
 62
     4
100
AcDbLine
 10
633.524052
 20
177.326459
 30
0.0
 11
633.524052
 21
193.502624
 31
0.0
  0
LINE
  5
208
100
AcDbEntity
  8
0
  6
BYBLOCK
 62
     4
100
AcDbLine
 10
644.524052
 20
191.002624
 30
0.0
 11
647.524052
 21
191.002624
 31
0.0
  0
LINE
  5
209
100
AcDbEntity
  8
0
  6
BYBLOCK
 62
     4
100
AcDbLine
 10
630.524052
 20
191.002624
 30
0.0
 11
603.952624
 21
191.002624
 31
0.0
  0
SOLID
  5
20A
100
AcDbEntity
  8
0
  6
BYBLOCK
 62
     4
100
AcDbTrace
 10
644.524052
 20
191.502624
 30
0.0
 11
644.524052
 21
190.502624
 31
0.0
 12
641.524052
 22
191.002624
 32
0.0
 13
641.524052
 23
191.002624
 33
0.0
  0
SOLID
  5
20B
100
AcDbEntity
  8
0
  6
BYBLOCK
 62
     4
100
AcDbTrace
 10
630.524052
 20
191.502624
 30
0.0
 11
630.524052
 21
190.502624
 31
0.0
 12
633.524052
 22
191.002624
 32
0.0
 13
633.524052
 23
191.002624
 33
0.0
  0
MTEXT
  5
20C
100
AcDbEntity
  8
0
  6
BYBLOCK
 62
     2
100
AcDbMText
 10
615.738338
 20
194.002624
 30
0.0
 40
3.0
 41
0.0
 71
     5
 72
     1
  1
\A1;\U+22058.00 H7
  0
POINT
  5
20D
100
AcDbEntity
  8
DEFPOINTS
  6
BYBLOCK
 62
     0
100
AcDbPoint
 10
641.524052
 20
176.326459
 30
0.0
  0
POINT
  5
20E
100
AcDbEntity
  8
DEFPOINTS
  6
BYBLOCK
 62
     0
100
AcDbPoint
 10
633.524052
 20
176.326459
 30
0.0
  0
POINT
  5
20F
100
AcDbEntity
  8
DEFPOINTS
  6
BYBLOCK
 62
     0
100
AcDbPoint
 10
633.524052
 20
191.002624
 30
0.0
  0
ENDBLK
  5
211
100
AcDbEntity
  8
0
100
AcDbBlockEnd
  0
BLOCK
  5
AF
100
AcDbEntity
  8
0
100
AcDbBlockBegin
  2
*D9
 70
     1
 10
0.0
 20
0.0
 30
0.0
  3
*D9
  1

  0
LINE
  5
A6
100
AcDbEntity
  8
0
  6
BYBLOCK
 62
     4
100
AcDbLine
 10
225.51878
 20
560.259226
 30
0.0
 11
225.51878
 21
672.5
 31
0.0
  0
LINE
  5
A7
100
AcDbEntity
  8
0
  6
BYBLOCK
 62
     4
100
AcDbLine
 10
425.51878
 20
560.259226
 30
0.0
 11
425.51878
 21
672.5
 31
0.0
  0
LINE
  5
A8
100
AcDbEntity
  8
0
  6
BYBLOCK
 62
     4
100
AcDbLine
 10
228.51878
 20
670.0
 30
0.0
 11
422.51878
 21
670.0
 31
0.0
  0
SOLID
  5
A9
100
AcDbEntity
  8
0
  6
BYBLOCK
 62
     4
100
AcDbTrace
 10
228.51878
 20
670.5
 30
0.0
 11
228.51878
 21
669.5
 31
0.0
 12
225.51878
 22
670.0
 32
0.0
 13
225.51878
 23
670.0
 33
0.0
  0
SOLID
  5
AA
100
AcDbEntity
  8
0
  6
BYBLOCK
 62
     4
100
AcDbTrace
 10
422.51878
 20
670.5
 30
0.0
 11
422.51878
 21
669.5
 31
0.0
 12
425.51878
 22
670.0
 32
0.0
 13
425.51878
 23
670.0
 33
0.0
  0
MTEXT
  5
AB
100
AcDbEntity
  8
0
  6
BYBLOCK
 62
     2
100
AcDbMText
 10
325.51878
 20
673.0
 30
0.0
 40
3.0
 41
0.0
 71
     5
 72
     1
  1
\A1;A=200.00
  0
POINT
  5
AC
100
AcDbEntity
  8
DEFPOINTS
  6
BYBLOCK
 62
     0
100
AcDbPoint
 10
225.51878
 20
559.259226
 30
0.0
  0
POINT
  5
AD
100
AcDbEntity
  8
DEFPOINTS
  6
BYBLOCK
 62
     0
100
AcDbPoint
 10
425.51878
 20
559.259226
 30
0.0
  0
POINT
  5
AE
100
AcDbEntity
  8
DEFPOINTS
  6
BYBLOCK
 62
     0
100
AcDbPoint
 10
425.51878
 20
670.0
 30
0.0
  0
ENDBLK
  5
B0
100
AcDbEntity
  8
0
100
AcDbBlockEnd
  0
BLOCK
  5
A2
100
AcDbEntity
  8
0
100
AcDbBlockBegin
  2
*D10
 70
     1
 10
0.0
 20
0.0
 30
0.0
  3
*D10
  1

  0
LINE
  5
9A
100
AcDbEntity
  8
0
  6
BYBLOCK
 62
     4
100
AcDbLine
 10
625.51878
 20
560.259226
 30
0.0
 11
625.51878
 21
672.5
 31
0.0
  0
LINE
  5
9B
100
AcDbEntity
  8
0
  6
BYBLOCK
 62
     4
100
AcDbLine
 10
428.51878
 20
670.0
 30
0.0
 11
622.51878
 21
670.0
 31
0.0
  0
SOLID
  5
9C
100
AcDbEntity
  8
0
  6
BYBLOCK
 62
     4
100
AcDbTrace
 10
428.51878
 20
670.5
 30
0.0
 11
428.51878
 21
669.5
 31
0.0
 12
425.51878
 22
670.0
 32
0.0
 13
425.51878
 23
670.0
 33
0.0
  0
SOLID
  5
9D
100
AcDbEntity
  8
0
  6
BYBLOCK
 62
     4
100
AcDbTrace
 10
622.51878
 20
670.5
 30
0.0
 11
622.51878
 21
669.5
 31
0.0
 12
625.51878
 22
670.0
 32
0.0
 13
625.51878
 23
670.0
 33
0.0
  0
MTEXT
  5
9E
100
AcDbEntity
  8
0
  6
BYBLOCK
 62
     2
100
AcDbMText
 10
525.51878
 20
673.0
 30
0.0
 40
3.0
 41
0.0
 71
     5
 72
     1
  1
\A1;B=200.00
  0
POINT
  5
9F
100
AcDbEntity
  8
DEFPOINTS
  6
BYBLOCK
 62
     0
100
AcDbPoint
 10
425.51878
 20
559.259226
 30
0.0
  0
POINT
  5
A0
100
AcDbEntity
  8
DEFPOINTS
  6
BYBLOCK
 62
     0
100
AcDbPoint
 10
625.51878
 20
559.259226
 30
0.0
  0
POINT
  5
A1
100
AcDbEntity
  8
DEFPOINTS
  6
BYBLOCK
 62
     0
100
AcDbPoint
 10
625.51878
 20
670.0
 30
0.0
  0
ENDBLK
  5
A3
100
AcDbEntity
  8
0
100
AcDbBlockEnd
  0
BLOCK
  5
96
100
AcDbEntity
  8
0
100
AcDbBlockBegin
  2
*D11
 70
     1
 10
0.0
 20
0.0
 30
0.0
  3
*D11
  1

  0
LINE
  5
8E
100
AcDbEntity
  8
0
  6
BYBLOCK
 62
     4
100
AcDbLine
 10
825.51878
 20
560.259226
 30
0.0
 11
825.51878
 21
672.5
 31
0.0
  0
LINE
  5
8F
100
AcDbEntity
  8
0
  6
BYBLOCK
 62
     4
100
AcDbLine
 10
628.51878
 20
670.0
 30
0.0
 11
822.51878
 21
670.0
 31
0.0
  0
SOLID
  5
90
100
AcDbEntity
  8
0
  6
BYBLOCK
 62
     4
100
AcDbTrace
 10
628.51878
 20
670.5
 30
0.0
 11
628.51878
 21
669.5
 31
0.0
 12
625.51878
 22
670.0
 32
0.0
 13
625.51878
 23
670.0
 33
0.0
  0
SOLID
  5
91
100
AcDbEntity
  8
0
  6
BYBLOCK
 62
     4
100
AcDbTrace
 10
822.51878
 20
670.5
 30
0.0
 11
822.51878
 21
669.5
 31
0.0
 12
825.51878
 22
670.0
 32
0.0
 13
825.51878
 23
670.0
 33
0.0
  0
MTEXT
  5
92
100
AcDbEntity
  8
0
  6
BYBLOCK
 62
     2
100
AcDbMText
 10
725.51878
 20
673.0
 30
0.0
 40
3.0
 41
0.0
 71
     5
 72
     1
  1
\A1;A=200.00
  0
POINT
  5
93
100
AcDbEntity
  8
DEFPOINTS
  6
BYBLOCK
 62
     0
100
AcDbPoint
 10
625.51878
 20
559.259226
 30
0.0
  0
POINT
  5
94
100
AcDbEntity
  8
DEFPOINTS
  6
BYBLOCK
 62
     0
100
AcDbPoint
 10
825.51878
 20
559.259226
 30
0.0
  0
POINT
  5
95
100
AcDbEntity
  8
DEFPOINTS
  6
BYBLOCK
 62
     0
100
AcDbPoint
 10
825.51878
 20
670.0
 30
0.0
  0
ENDBLK
  5
97
100
AcDbEntity
  8
0
100
AcDbBlockEnd
  0
BLOCK
  5
8A
100
AcDbEntity
  8
0
100
AcDbBlockBegin
  2
*D12
 70
     1
 10
0.0
 20
0.0
 30
0.0
  3
*D12
  1

  0
LINE
  5
81
100
AcDbEntity
  8
0
  6
BYBLOCK
 62
     4
100
AcDbLine
 10
189.51878
 20
542.816448
 30
0.0
 11
189.51878
 21
682.5
 31
0.0
  0
LINE
  5
82
100
AcDbEntity
  8
0
  6
BYBLOCK
 62
     4
100
AcDbLine
 10
861.51878
 20
542.816448
 30
0.0
 11
861.51878
 21
682.5
 31
0.0
  0
LINE
  5
83
100
AcDbEntity
  8
0
  6
BYBLOCK
 62
     4
100
AcDbLine
 10
192.51878
 20
680.0
 30
0.0
 11
858.51878
 21
680.0
 31
0.0
  0
SOLID
  5
84
100
AcDbEntity
  8
0
  6
BYBLOCK
 62
     4
100
AcDbTrace
 10
192.51878
 20
680.5
 30
0.0
 11
192.51878
 21
679.5
 31
0.0
 12
189.51878
 22
680.0
 32
0.0
 13
189.51878
 23
680.0
 33
0.0
  0
SOLID
  5
85
100
AcDbEntity
  8
0
  6
BYBLOCK
 62
     4
100
AcDbTrace
 10
858.51878
 20
680.5
 30
0.0
 11
858.51878
 21
679.5
 31
0.0
 12
861.51878
 22
680.0
 32
0.0
 13
861.51878
 23
680.0
 33
0.0
  0
MTEXT
  5
86
100
AcDbEntity
  8
0
  6
BYBLOCK
 62
     2
100
AcDbMText
 10
525.51878
 20
683.0
 30
0.0
 40
3.0
 41
0.0
 71
     5
 72
     1
  1
\A1;L=672.00
  0
POINT
  5
87
100
AcDbEntity
  8
DEFPOINTS
  6
BYBLOCK
 62
     0
100
AcDbPoint
 10
189.51878
 20
541.816448
 30
0.0
  0
POINT
  5
88
100
AcDbEntity
  8
DEFPOINTS
  6
BYBLOCK
 62
     0
100
AcDbPoint
 10
861.51878
 20
541.816448
 30
0.0
  0
POINT
  5
89
100
AcDbEntity
  8
DEFPOINTS
  6
BYBLOCK
 62
     0
100
AcDbPoint
 10
861.51878
 20
680.0
 30
0.0
  0
ENDBLK
  5
8B
100
AcDbEntity
  8
0
100
AcDbBlockEnd
  0
BLOCK
  5
7D
100
AcDbEntity
  8
0
100
AcDbBlockBegin
  2
*D13
 70
     1
 10
0.0
 20
0.0
 30
0.0
  3
*D13
  1

  0
LINE
  5
74
100
AcDbEntity
  8
0
  6
BYBLOCK
 62
     4
100
AcDbLine
 10
197.81878
 20
332.559226
 30
0.0
 11
147.5
 21
332.559226
 31
0.0
  0
LINE
  5
75
100
AcDbEntity
  8
0
  6
BYBLOCK
 62
     4
100
AcDbLine
 10
197.81878
 20
532.559226
 30
0.0
 11
147.5
 21
532.559226
 31
0.0
  0
LINE
  5
76
100
AcDbEntity
  8
0
  6
BYBLOCK
 62
     4
100
AcDbLine
 10
150.0
 20
335.559226
 30
0.0
 11
150.0
 21
529.559226
 31
0.0
  0
SOLID
  5
77
100
AcDbEntity
  8
0
  6
BYBLOCK
 62
     4
100
AcDbTrace
 10
149.5
 20
335.559226
 30
0.0
 11
150.5
 21
335.559226
 31
0.0
 12
150.0
 22
332.559226
 32
0.0
 13
150.0
 23
332.559226
 33
0.0
  0
SOLID
  5
78
100
AcDbEntity
  8
0
  6
BYBLOCK
 62
     4
100
AcDbTrace
 10
149.5
 20
529.559226
 30
0.0
 11
150.5
 21
529.559226
 31
0.0
 12
150.0
 22
532.559226
 32
0.0
 13
150.0
 23
532.559226
 33
0.0
  0
MTEXT
  5
79
100
AcDbEntity
  8
0
  6
BYBLOCK
 62
     2
100
AcDbMText
 10
147.0
 20
432.559226
 30
0.0
 40
3.0
 41
0.0
 71
     5
 72
     1
  1
\A1;C=200.00
 11
0.0
 21
1.0
 31
0.0
  0
POINT
  5
7A
100
AcDbEntity
  8
DEFPOINTS
  6
BYBLOCK
 62
     0
100
AcDbPoint
 10
198.81878
 20
332.559226
 30
0.0
  0
POINT
  5
7B
100
AcDbEntity
  8
DEFPOINTS
  6
BYBLOCK
 62
     0
100
AcDbPoint
 10
198.81878
 20
532.559226
 30
0.0
  0
POINT
  5
7C
100
AcDbEntity
  8
DEFPOINTS
  6
BYBLOCK
 62
     0
100
AcDbPoint
 10
150.0
 20
532.559226
 30
0.0
  0
ENDBLK
  5
7E
100
AcDbEntity
  8
0
100
AcDbBlockEnd
  0
BLOCK
  5
70
100
AcDbEntity
  8
0
100
AcDbBlockBegin
  2
*D14
 70
     1
 10
0.0
 20
0.0
 30
0.0
  3
*D14
  1

  0
LINE
  5
67
100
AcDbEntity
  8
0
  6
BYBLOCK
 62
     4
100
AcDbLine
 10
215.261558
 20
296.559226
 30
0.0
 11
137.5
 21
296.559226
 31
0.0
  0
LINE
  5
68
100
AcDbEntity
  8
0
  6
BYBLOCK
 62
     4
100
AcDbLine
 10
215.261558
 20
568.559226
 30
0.0
 11
137.5
 21
568.559226
 31
0.0
  0
LINE
  5
69
100
AcDbEntity
  8
0
  6
BYBLOCK
 62
     4
100
AcDbLine
 10
140.0
 20
299.559226
 30
0.0
 11
140.0
 21
565.559226
 31
0.0
  0
SOLID
  5
6A
100
AcDbEntity
  8
0
  6
BYBLOCK
 62
     4
100
AcDbTrace
 10
139.5
 20
299.559226
 30
0.0
 11
140.5
 21
299.559226
 31
0.0
 12
140.0
 22
296.559226
 32
0.0
 13
140.0
 23
296.559226
 33
0.0
  0
SOLID
  5
6B
100
AcDbEntity
  8
0
  6
BYBLOCK
 62
     4
100
AcDbTrace
 10
139.5
 20
565.559226
 30
0.0
 11
140.5
 21
565.559226
 31
0.0
 12
140.0
 22
568.559226
 32
0.0
 13
140.0
 23
568.559226
 33
0.0
  0
MTEXT
  5
6C
100
AcDbEntity
  8
0
  6
BYBLOCK
 62
     2
100
AcDbMText
 10
137.0
 20
432.559226
 30
0.0
 40
3.0
 41
0.0
 71
     5
 72
     1
  1
\A1;L1=272.00
 11
0.0
 21
1.0
 31
0.0
  0
POINT
  5
6D
100
AcDbEntity
  8
DEFPOINTS
  6
BYBLOCK
 62
     0
100
AcDbPoint
 10
216.261558
 20
296.559226
 30
0.0
  0
POINT
  5
6E
100
AcDbEntity
  8
DEFPOINTS
  6
BYBLOCK
 62
     0
100
AcDbPoint
 10
216.261558
 20
568.559226
 30
0.0
  0
POINT
  5
6F
100
AcDbEntity
  8
DEFPOINTS
  6
BYBLOCK
 62
     0
100
AcDbPoint
 10
140.0
 20
568.559226
 30
0.0
  0
ENDBLK
  5
71
100
AcDbEntity
  8
0
100
AcDbBlockEnd
  0
BLOCK
  5
63
100
AcDbEntity
  8
0
100
AcDbBlockBegin
  2
*D15
 70
     1
 10
0.0
 20
0.0
 30
0.0
  3
*D15
  1

  0
LINE
  5
5A
100
AcDbEntity
  8
0
  6
BYBLOCK
 62
     4
100
AcDbLine
 10
416.971052
 20
295.852119
 30
0.0
 11
452.217633
 21
260.605538
 31
0.0
  0
LINE
  5
5B
100
AcDbEntity
  8
0
  6
BYBLOCK
 62
     4
100
AcDbLine
 10
462.225886
 20
341.106953
 30
0.0
 11
497.472467
 21
305.860372
 31
0.0
  0
LINE
  5
5C
100
AcDbEntity
  8
0
  6
BYBLOCK
 62
     4
100
AcDbLine
 10
452.571187
 20
264.494626
 30
0.0
 11
493.58338
 21
305.506819
 31
0.0
  0
SOLID
  5
5D
100
AcDbEntity
  8
0
  6
BYBLOCK
 62
     4
100
AcDbTrace
 10
452.217633
 20
264.848179
 30
0.0
 11
452.92474
 21
264.141072
 31
0.0
 12
450.449866
 22
262.373305
 32
0.0
 13
450.449866
 23
262.373305
 33
0.0
  0
SOLID
  5
5E
100
AcDbEntity
  8
0
  6
BYBLOCK
 62
     4
100
AcDbTrace
 10
493.229827
 20
305.860372
 30
0.0
 11
493.936933
 21
305.153266
 31
0.0
 12
495.7047
 22
307.628139
 32
0.0
 13
495.7047
 23
307.628139
 33
0.0
  0
MTEXT
  5
5F
100
AcDbEntity
  8
0
  6
BYBLOCK
 62
     2
100
AcDbMText
 10
470.955963
 20
287.122043
 30
0.0
 40
3.0
 41
0.0
 71
     5
 72
     1
  1
\A1;W=64.00
 11
0.707107
 21
0.707107
 31
0.0
  0
POINT
  5
60
100
AcDbEntity
  8
DEFPOINTS
  6
BYBLOCK
 62
     0
100
AcDbPoint
 10
416.263946
 20
296.559226
 30
0.0
  0
POINT
  5
61
100
AcDbEntity
  8
DEFPOINTS
  6
BYBLOCK
 62
     0
100
AcDbPoint
 10
461.51878
 20
341.81406
 30
0.0
  0
POINT
  5
62
100
AcDbEntity
  8
DEFPOINTS
  6
BYBLOCK
 62
     0
100
AcDbPoint
 10
495.7047
 20
307.628139
 30
0.0
  0
ENDBLK
  5
64
100
AcDbEntity
  8
0
100
AcDbBlockEnd
  0
BLOCK
  5
56
100
AcDbEntity
  8
0
100
AcDbBlockBegin
  2
*D16
 70
     1
 10
0.0
 20
0.0
 30
0.0
  3
*D16
  1

  0
LINE
  5
4C
100
AcDbEntity
  8
0
  6
BYBLOCK
 62
     4
100
AcDbLine
 10
505.51878
 20
80.326459
 30
0.0
 11
505.51878
 21
36.685582
 31
0.0
  0
LINE
  5
4D
100
AcDbEntity
  8
0
  6
BYBLOCK
 62
     4
100
AcDbLine
 10
545.51878
 20
80.326459
 30
0.0
 11
545.51878
 21
36.685582
 31
0.0
  0
LINE
  5
4E
100
AcDbEntity
  8
0
  6
BYBLOCK
 62
     4
100
AcDbLine
 10
508.51878
 20
39.185582
 30
0.0
 11
542.51878
 21
39.185582
 31
0.0
  0
SOLID
  5
4F
100
AcDbEntity
  8
0
  6
BYBLOCK
 62
     4
100
AcDbTrace
 10
508.51878
 20
39.685582
 30
0.0
 11
508.51878
 21
38.685582
 31
0.0
 12
505.51878
 22
39.185582
 32
0.0
 13
505.51878
 23
39.185582
 33
0.0
  0
SOLID
  5
50
100
AcDbEntity
  8
0
  6
BYBLOCK
 62
     4
100
AcDbTrace
 10
542.51878
 20
39.685582
 30
0.0
 11
542.51878
 21
38.685582
 31
0.0
 12
545.51878
 22
39.185582
 32
0.0
 13
545.51878
 23
39.185582
 33
0.0
  0
MTEXT
  5
51
100
AcDbEntity
  8
0
  6
BYBLOCK
 62
     2
100
AcDbMText
 10
525.51878
 20
42.185582
 30
0.0
 40
3.0
 41
0.0
 71
     5
 72
     1
  1
\A1;\U+220540.00 H7
  0
POINT
  5
52
100
AcDbEntity
  8
DEFPOINTS
  6
BYBLOCK
 62
     0
100
AcDbPoint
 10
505.51878
 20
81.326459
 30
0.0
  0
POINT
  5
54
100
AcDbEntity
  8
DEFPOINTS
  6
BYBLOCK
 62
     0
100
AcDbPoint
 10
545.51878
 20
81.326459
 30
0.0
  0
POINT
  5
55
100
AcDbEntity
  8
DEFPOINTS
  6
BYBLOCK
 62
     0
100
AcDbPoint
 10
545.51878
 20
39.185582
 30
0.0
  0
ENDBLK
  5
57
100
AcDbEntity
  8
0
100
AcDbBlockEnd
  0
ENDSEC
  0
SECTION
  2
ENTITIES
  0
HATCH
  5
20
100
AcDbEntity
  8
HATCH
100
AcDbHatch
 10
0.0
 20
0.0
 30
0.0
210
0.0
220
0.0
230
1.0
  2
_U
 70
     0
 71
     1
 91
        8
 92
       23
 72
     0
 73
     1
 93
        4
 10
325.5187795381627
 20
156.3264594854135
 10
229.5187795381627
 20
156.3264594854135
 10
229.5187795381627
 20
144.8264594854134
 10
325.5187795381627
 20
144.8264594854134
 97
        4
330
43F
330
355
330
354
330
349
 92
        7
 72
     1
 73
     1
 93
       22
 10
321.5187795381627
 20
136.8264594854134
 42
0.0
 10
225.5187795381627
 20
136.8264594854134
 42
-0.4142135623730951
 10
221.5187795381627
 20
140.8264594854134
 42
0.0
 10
221.5187795381627
 20
156.3264594854135
 42
0.0
 10
206.5187795381627
 20
156.3264594854135
 42
0.0
 10
206.5187795381627
 20
152.3264594854136
 42
-1.0
 10
198.5187795381627
 20
152.3264594854136
 42
0.0
 10
198.5187795381627
 20
156.3264594854135
 42
0.0
 10
194.1687795381628
 20
156.3264594854135
 42
0.0
 10
192.1687795381627
 20
154.3264594854135
 42
0.0
 10
192.1687795381627
 20
98.32645948541358
 42
0.0
 10
194.1687795381627
 20
96.32645948541359
 42
0.0
 10
198.5187795381627
 20
96.32645948541359
 42
0.0
 10
198.5187795381627
 20
100.3264594854134
 42
-1.0
 10
206.5187795381627
 20
100.3264594854134
 42
0.0
 10
206.5187795381627
 20
97.32645948541351
 42
0.0
 10
248.8187795381626
 20
97.32645948541353
 42
0.0
 10
249.5187795381628
 20
96.62645948541351
 42
0.0
 10
249.5187795381628
 20
96.32645948541359
 42
0.0
 10
325.5187795381627
 20
96.32645948541361
 42
0.0
 10
325.5187795381627
 20
119.3264594854133
 42
-0.4142135623730951
 10
321.5187795381627
 20
123.3264594854133
 42
0.0
 97
       20
330
347
330
357
330
356
330
43F
330
380
330
382
330
381
330
43A
330
43D
330
43B
330
43E
330
378
330
379
330
377
330
3F9
330
3EE
330
3EF
330
349
330
34E
330
34D
 92
       22
 72
     0
 73
     1
 93
        4
 10
249.5187795381627
 20
96.62645948541353
 10
233.6776615256198
 20
96.62645948541353
 10
233.3776615256199
 20
96.32645948541359
 10
249.5187795381628
 20
96.32645948541359
 97
        4
330
3ED
330
3E7
330
43E
330
3EF
 92
       22
 72
     0
 73
     1
 93
        4
 10
248.8187795381628
 20
97.32645948541351
 10
234.37766152562
 20
97.32645948541353
 10
233.6776615256199
 20
96.62645948541353
 10
249.5187795381628
 20
96.62645948541353
 97
        4
330
3F9
330
3DB
330
3ED
330
3EE
 92
        7
 72
     0
 73
     1
 93
        4
 10
233.6776615256198
 20
96.62645948541353
 10
225.5187795381627
 20
96.62645948541353
 10
225.5187795381627
 20
96.32645948541359
 10
233.3776615256199
 20
96.32645948541355
 97
        4
330
3ED
330
3FB
330
43E
330
3E7
 92
       23
 72
     0
 73
     1
 93
        4
 10
225.5187795381628
 20
97.32645948541353
 10
216.6598975507055
 20
97.32645948541353
 10
217.3598975507057
 20
96.62645948541353
 10
225.5187795381627
 20
96.62645948541353
 97
        4
330
3F9
330
3DA
330
3ED
330
3FB
 92
       23
 72
     0
 73
     1
 93
        4
 10
217.3598975507057
 20
96.62645948541353
 10
206.5187795381627
 20
96.62645948541353
 10
206.5187795381627
 20
96.32645948541359
 10
217.6598975507057
 20
96.32645948541359
 97
        4
330
3ED
330
377
330
43E
330
3E5
 92
       23
 72
     0
 73
     1
 93
        4
 10
225.5187795381628
 20
96.62645948541353
 10
217.3598975507058
 20
96.62645948541355
 10
217.6598975507058
 20
96.32645948541359
 10
225.5187795381627
 20
96.32645948541359
 97
        4
330
3ED
330
3E5
330
43E
330
3FB
 75
     0
 76
     0
 52
135.0
 41
6.0
 77
     0
 78
     1
 53
135.0
 43
0.0
 44
0.0
 45
-4.242640687119285
 46
-4.242640687119284
 79
     0
 47
0.051232
 98
        8
 10
301.122412
 20
148.180235
 10
246.319063
 20
127.721586
 10
247.821965
 20
96.459761
 10
246.796922
 20
96.97208
 10
231.370029
 20
96.459761
 10
223.733462
 20
96.920849
 10
208.101564
 20
96.510993
 10
219.838301
 20
96.408528
  0
ARC
  5
21
100
AcDbEntity
  8
M04
100
AcDbCircle
 10
459.461099
 20
532.56042
 30
0.0
 40
15.0
100
AcDbArc
 50
315.0
 51
45.0
  0
ARC
  5
23
100
AcDbEntity
  8
M04
100
AcDbCircle
 10
425.519973
 20
566.501545
 30
0.0
 40
15.0
100
AcDbArc
 50
45.0
 51
135.0
  0
ARC
  5
24
100
AcDbEntity
  8
M04
100
AcDbCircle
 10
225.517586
 20
566.501545
 30
0.0
 40
15.0
100
AcDbArc
 50
45.0
 51
135.0
  0
ARC
  5
25
100
AcDbEntity
  8
M04
100
AcDbCircle
 10
191.57646
 20
532.56042
 30
0.0
 40
15.0
100
AcDbArc
 50
135.0
 51
225.0
  0
ARC
  5
26
100
AcDbEntity
  8
M04
100
AcDbCircle
 10
191.57646
 20
332.558032
 30
0.0
 40
15.0
100
AcDbArc
 50
135.0
 51
225.0
  0
ARC
  5
27
100
AcDbEntity
  8
M04
100
AcDbCircle
 10
225.517586
 20
298.616907
 30
0.0
 40
15.0
100
AcDbArc
 50
225.0
 51
315.0
  0
ARC
  5
28
100
AcDbEntity
  8
M04
100
AcDbCircle
 10
459.461099
 20
332.558032
 30
0.0
 40
15.0
100
AcDbArc
 50
315.0
 51
45.0
  0
ARC
  5
29
100
AcDbEntity
  8
M04
100
AcDbCircle
 10
425.519973
 20
298.616907
 30
0.0
 40
15.0
100
AcDbArc
 50
225.0
 51
315.0
  0
ARC
  5
2A
100
AcDbEntity
  8
M04
100
AcDbCircle
 10
591.57646
 20
532.56042
 30
0.0
 40
15.0
100
AcDbArc
 50
135.0
 51
225.0
  0
ARC
  5
2B
100
AcDbEntity
  8
M04
100
AcDbCircle
 10
625.517586
 20
566.501545
 30
0.0
 40
15.0
100
AcDbArc
 50
45.0
 51
135.0
  0
ARC
  5
2C
100
AcDbEntity
  8
M04
100
AcDbCircle
 10
825.519973
 20
566.501545
 30
0.0
 40
15.0
100
AcDbArc
 50
45.0
 51
135.0
  0
ARC
  5
2D
100
AcDbEntity
  8
M04
100
AcDbCircle
 10
859.461099
 20
532.56042
 30
0.0
 40
15.0
100
AcDbArc
 50
315.0
 51
45.0
  0
ARC
  5
2E
100
AcDbEntity
  8
M04
100
AcDbCircle
 10
859.461099
 20
332.558032
 30
0.0
 40
15.0
100
AcDbArc
 50
315.0
 51
45.0
  0
ARC
  5
2F
100
AcDbEntity
  8
M04
100
AcDbCircle
 10
825.519974
 20
298.616907
 30
0.0
 40
15.0
100
AcDbArc
 50
225.0
 51
315.0
  0
ARC
  5
30
100
AcDbEntity
  8
M04
100
AcDbCircle
 10
625.517586
 20
298.616907
 30
0.0
 40
15.0
100
AcDbArc
 50
225.0
 51
315.0
  0
ARC
  5
31
100
AcDbEntity
  8
M04
100
AcDbCircle
 10
591.57646
 20
332.558032
 30
0.0
 40
15.0
100
AcDbArc
 50
135.0
 51
225.0
  0
LINE
  5
32
100
AcDbEntity
  8
M01
100
AcDbLine
 10
616.261558
 20
568.559226
 30
0.0
 11
589.51878
 21
541.816448
 31
0.0
  0
LINE
  5
34
100
AcDbEntity
  8
M01
100
AcDbLine
 10
434.776001
 20
296.559226
 30
0.0
 11
461.51878
 21
323.302005
 31
0.0
  0
LINE
  5
35
100
AcDbEntity
  8
M04
100
AcDbLine
 10
436.126575
 20
288.010305
 30
0.0
 11
470.067701
 21
321.951431
 31
0.0
  0
LINE
  5
36
100
AcDbEntity
  8
M01
100
AcDbLine
 10
216.261558
 20
296.559226
 30
0.0
 11
189.51878
 21
323.302005
 31
0.0
  0
LINE
  5
37
100
AcDbEntity
  8
M04
100
AcDbLine
 10
214.910984
 20
288.010305
 30
0.0
 11
180.969859
 21
321.951431
 31
0.0
  0
LINE
  5
38
100
AcDbEntity
  8
M01
100
AcDbLine
 10
216.261558
 20
568.559226
 30
0.0
 11
189.51878
 21
541.816448
 31
0.0
  0
LINE
  5
39
100
AcDbEntity
  8
M04
100
AcDbLine
 10
214.910984
 20
577.108147
 30
0.0
 11
180.969859
 21
543.167022
 31
0.0
  0
LINE
  5
3A
100
AcDbEntity
  8
M01
100
AcDbLine
 10
434.776001
 20
568.559226
 30
0.0
 11
461.51878
 21
541.816448
 31
0.0
  0
LINE
  5
3B
100
AcDbEntity
  8
M04
100
AcDbLine
 10
436.126575
 20
577.108147
 30
0.0
 11
470.067701
 21
543.167022
 31
0.0
  0
LINE
  5
3C
100
AcDbEntity
  8
M04
100
AcDbLine
 10
614.910984
 20
577.108147
 30
0.0
 11
580.969859
 21
543.167022
 31
0.0
  0
LINE
  5
3D
100
AcDbEntity
  8
M01
100
AcDbLine
 10
616.261558
 20
296.559226
 30
0.0
 11
589.51878
 21
323.302005
 31
0.0
  0
LINE
  5
3E
100
AcDbEntity
  8
M04
100
AcDbLine
 10
614.910984
 20
288.010305
 30
0.0
 11
580.969859
 21
321.951431
 31
0.0
  0
LINE
  5
3F
100
AcDbEntity
  8
M01
100
AcDbLine
 10
834.776001
 20
296.559226
 30
0.0
 11
861.51878
 21
323.302005
 31
0.0
  0
LINE
  5
40
100
AcDbEntity
  8
M04
100
AcDbLine
 10
836.126575
 20
288.010305
 30
0.0
 11
870.067701
 21
321.95143
 31
0.0
  0
LINE
  5
41
100
AcDbEntity
  8
M04
100
AcDbLine
 10
836.126575
 20
577.108147
 30
0.0
 11
870.067701
 21
543.167022
 31
0.0
  0
LINE
  5
42
100
AcDbEntity
  8
M01
100
AcDbLine
 10
834.776001
 20
568.559226
 30
0.0
 11
861.51878
 21
541.816448
 31
0.0
  0
TEXT
  5
43
100
AcDbEntity
  8
TEXT
100
AcDbText
 10
101.482591
 20
31.872378
 30
0.0
 40
6.0
  1
design may vary from this example !
100
AcDbText
  0
TEXT
  5
45
100
AcDbEntity
  8
TEXT
100
AcDbText
 10
101.101724
 20
41.968786
 30
0.0
 40
6.0
  1
you finalize your tool design, as our final system
100
AcDbText
  0
TEXT
  5
46
100
AcDbEntity
  8
TEXT
100
AcDbText
 10
77.807604
 20
52.065194
 30
0.0
 40
6.0
  1
N.B. ALL designs MUST be approved by Fast Heat BEFORE
100
AcDbText
  0
TEXT
  5
47
100
AcDbEntity
  8
TEXT
100
AcDbText
 10
928.8964
 20
661.980069
 30
0.0
 40
6.0
  1
depending on the bush size to be used.
100
AcDbText
  0
TEXT
  5
48
100
AcDbEntity
  8
TEXT
100
AcDbText
 10
896.230444
 20
672.076477
 30
0.0
 40
6.0
  1
NOTE: Manifold width `W' can be 50mm or 64mm
100
AcDbText
  0
DIMENSION
  5
49
100
AcDbEntity
  8
DIMS
100
AcDbDimension
  2
*D16
 10
545.51878
 20
39.185582
 30
0.0
 11
525.51878
 21
42.185582
 31
0.0
  1
%%c<> H7
  3
DIM1
100
AcDbAlignedDimension
 13
505.51878
 23
81.326459
 33
0.0
 14
545.51878
 24
81.326459
 34
0.0
100
AcDbRotatedDimension
1001
ACAD
1000
DSTYLE
1002
{
1070
   144
1040
1.0
1002
}
  0
DIMENSION
  5
58
100
AcDbEntity
  8
DIMS
100
AcDbDimension
  2
*D15
 10
495.7047
 20
307.628139
 30
0.0
 11
470.955963
 21
287.122043
 31
0.0
 70
     1
  1
W=<>
  3
DIM1
100
AcDbAlignedDimension
 13
416.263946
 23
296.559226
 33
0.0
 14
461.51878
 24
341.81406
 34
0.0
1001
ACAD
1000
DSTYLE
1002
{
1070
   144
1040
1.0
1002
}
  0
DIMENSION
  5
65
100
AcDbEntity
  8
DIMS
100
AcDbDimension
  2
*D14
 10
140.0
 20
568.559226
 30
0.0
 11
137.0
 21
432.559226
 31
0.0
  1
L1=<>
  3
DIM1
100
AcDbAlignedDimension
 13
216.261558
 23
296.559226
 33
0.0
 14
216.261558
 24
568.559226
 34
0.0
 50
90.0
100
AcDbRotatedDimension
1001
ACAD
1000
DSTYLE
1002
{
1070
   144
1040
1.0
1002
}
  0
DIMENSION
  5
72
100
AcDbEntity
  8
DIMS
100
AcDbDimension
  2
*D13
 10
150.0
 20
532.559226
 30
0.0
 11
147.0
 21
432.559226
 31
0.0
  1
C=<>
  3
DIM1
100
AcDbAlignedDimension
 13
198.81878
 23
332.559226
 33
0.0
 14
198.81878
 24
532.559226
 34
0.0
 50
90.0
100
AcDbRotatedDimension
1001
ACAD
1000
DSTYLE
1002
{
1070
   144
1040
1.0
1002
}
  0
DIMENSION
  5
7F
100
AcDbEntity
  8
DIMS
100
AcDbDimension
  2
*D12
 10
861.51878
 20
680.0
 30
0.0
 11
525.51878
 21
683.0
 31
0.0
  1
L=<>
  3
DIM1
100
AcDbAlignedDimension
 13
189.51878
 23
541.816448
 33
0.0
 14
861.51878
 24
541.816448
 34
0.0
100
AcDbRotatedDimension
1001
ACAD
1000
DSTYLE
1002
{
1070
   144
1040
1.0
1002
}
  0
DIMENSION
  5
8C
100
AcDbEntity
  8
DIMS
100
AcDbDimension
  2
*D11
 10
825.51878
 20
670.0
 30
0.0
 11
725.51878
 21
673.0
 31
0.0
  1
A=<>
  3
DIM1
100
AcDbAlignedDimension
 13
625.51878
 23
559.259226
 33
0.0
 14
825.51878
 24
559.259226
 34
0.0
100
AcDbRotatedDimension
1001
ACAD
1000
DSTYLE
1002
{
1070
    75
1070
     1
1070
   144
1040
1.0
1070
   287
1070
     4
1002
}
  0
DIMENSION
  5
98
100
AcDbEntity
  8
DIMS
100
AcDbDimension
  2
*D10
 10
625.51878
 20
670.0
 30
0.0
 11
525.51878
 21
673.0
 31
0.0
  1
B=<>
  3
DIM1
100
AcDbAlignedDimension
 13
425.51878
 23
559.259226
 33
0.0
 14
625.51878
 24
559.259226
 34
0.0
100
AcDbRotatedDimension
1001
ACAD
1000
DSTYLE
1002
{
1070
    75
1070
     1
1070
   144
1040
1.0
1070
   287
1070
     4
1002
}
  0
DIMENSION
  5
A4
100
AcDbEntity
  8
DIMS
100
AcDbDimension
  2
*D9
 10
425.51878
 20
670.0
 30
0.0
 11
325.51878
 21
673.0
 31
0.0
  1
A=<>
  3
DIM1
100
AcDbAlignedDimension
 13
225.51878
 23
559.259226
 33
0.0
 14
425.51878
 24
559.259226
 34
0.0
100
AcDbRotatedDimension
1001
ACAD
1000
DSTYLE
1002
{
1070
   144
1040
1.0
1002
}
  0
HATCH
  5
B1
100
AcDbEntity
  8
DIMS
100
AcDbHatch
 10
0.0
 20
0.0
 30
0.0
210
0.0
220
0.0
230
1.0
  2
_U
 70
     0
 71
     1
 91
        2
 92
        7
 72
     0
 73
     1
 93
       11
 10
233.3776615256199
 20
96.32645948541359
 10
229.0187795381628
 20
91.96757749795645
 10
229.0187795381628
 20
89.32645948541352
 10
232.0187795381635
 20
89.32645948541352
 10
233.0187795381632
 20
90.32645948541356
 10
245.0187795381627
 20
90.32645948541341
 10
246.0187795381626
 20
89.32645948541351
 10
248.8187795381626
 20
89.32645948541351
 10
249.5187795381626
 20
90.0264594854134
 10
249.5187795381628
 20
95.62645948541357
 10
248.8187795381627
 20
96.32645948541359
 97
       10
330
3F0
330
43E
330
3E7
330
3E2
330
3CA
330
36B
330
36C
330
36A
330
3F1
330
3F2
 92
        7
 72
     0
 73
     1
 93
       11
 10
202.2187795381628
 20
96.32645948541359
 10
201.5187795381628
 20
95.6264594854136
 10
201.5187795381629
 20
90.0264594854134
 10
202.2187795381628
 20
89.32645948541352
 10
205.018779538163
 20
89.32645948541352
 10
206.0187795381628
 20
90.32645948541341
 10
218.0187795381623
 20
90.32645948541352
 10
219.0187795381621
 20
89.32645948541352
 10
222.0187795381626
 20
89.32645948541352
 10
222.0187795381626
 20
91.96757749795656
 10
217.6598975507057
 20
96.32645948541359
 97
       10
330
43E
330
3F5
330
3FA
330
3F6
330
444
330
36D
330
36F
330
36E
330
3E3
330
3E5
 75
     0
 76
     0
 52
135.0
 41
1.5
 77
     0
 78
     1
 53
135.0
 43
0.0
 44
0.0
 45
-1.060660171779821
 46
-1.060660171779821
 79
     0
 47
0.096225
 98
        2
 10
241.181523
 20
93.399694
 10
215.190438
 20
93.592145
  0
HATCH
  5
B2
100
AcDbEntity
  8
DIMS
100
AcDbHatch
 10
0.0
 20
0.0
 30
0.0
210
0.0
220
0.0
230
1.0
  2
_U
 70
     0
 71
     1
 91
        2
 92
        7
 72
     0
 73
     1
 93
       11
 10
1033.344777265474
 20
352.0592260810632
 10
1034.344777265474
 20
353.0592260810634
 10
1034.344777265474
 20
355.859226081063
 10
1033.644777265474
 20
356.5592260810631
 10
1028.044777265474
 20
356.5592260810632
 10
1027.344777265474
 20
355.8592260810634
 10
1027.344777265474
 20
340.4181080685201
 10
1031.70365925293
 20
336.0592260810632
 10
1034.344777265474
 20
336.0592260810632
 10
1034.344777265474
 20
339.0592260810635
 10
1033.344777265474
 20
340.0592260810636
 97
       10
330
552
330
643
330
620
330
621
330
61F
330
64E
330
616
330
611
330
553
330
554
 92
        7
 72
     0
 73
     1
 93
       11
 10
1033.344777265474
 20
325.0592260810627
 10
1034.344777265474
 20
326.0592260810625
 10
1034.344777265473
 20
329.0592260810631
 10
1031.70365925293
 20
329.0592260810631
 10
1027.344777265474
 20
324.7003440936062
 10
1027.344777265474
 20
309.2592260810628
 10
1028.044777265474
 20
308.5592260810632
 10
1033.644777265474
 20
308.5592260810634
 10
1034.344777265474
 20
309.2592260810632
 10
1034.344777265474
 20
312.0592260810632
 10
1033.344777265474
 20
313.0592260810634
 97
       10
330
550
330
5FA
330
612
330
614
330
64E
330
624
330
629
330
625
330
54F
330
551
 75
     0
 76
     0
 52
135.0
 41
1.5
 77
     0
 78
     1
 53
135.0
 43
0.0
 44
0.0
 45
-1.060660171779821
 46
-1.060660171779821
 79
     0
 47
0.154148
 98
        2
 10
1030.085262
 20
347.00897
 10
1029.776847
 20
320.341431
  0
HATCH
  5
B3
100
AcDbEntity
  8
DIMS
100
AcDbHatch
 10
0.0
 20
0.0
 30
0.0
210
0.0
220
0.0
230
1.0
  2
_U
 70
     0
 71
     1
 91
        1
 92
        7
 72
     0
 73
     1
 93
        4
 10
1030.344777265474
 20
307.5592260810631
 10
1027.344777265474
 20
307.5592260810631
 10
1027.344777265474
 20
302.2992260810632
 10
1030.344777265474
 20
302.2992260810632
 97
        4
330
627
330
64E
330
62A
330
62B
 75
     0
 76
     0
 52
135.0
 41
0.8
 77
     0
 78
     1
 53
135.0
 43
0.0
 44
0.0
 45
-0.5656854249492382
 46
-0.565685424949238
 79
     0
 47
0.154148
 98
        1
 10
1029.468429
 20
305.234965
  0
HATCH
  5
B4
100
AcDbEntity
  8
DIMS
100
AcDbHatch
 10
0.0
 20
0.0
 30
0.0
210
0.0
220
0.0
230
1.0
  2
_U
 70
     0
 71
     1
 91
        1
 92
        7
 72
     0
 73
     1
 93
        4
 10
194.1687795381628
 20
96.32645948541357
 10
194.1687795381627
 20
93.32645948541358
 10
200.5187795381627
 20
93.32645948541356
 10
200.5187795381627
 20
96.32645948541357
 97
        4
330
43E
330
434
330
432
330
3F8
 75
     0
 76
     0
 52
135.0
 41
0.8
 77
     0
 78
     1
 53
135.0
 43
0.0
 44
0.0
 45
-0.5656854249492382
 46
-0.565685424949238
 79
     0
 47
0.088752
 98
        1
 10
197.921927
 20
95.682011
  0
LINE
  5
B5
100
AcDbEntity
  8
DIMS
 62
     4
100
AcDbLine
 10
225.51878
 20
335.959226
 30
0.0
 11
225.51878
 21
359.259226
 31
0.0
  0
LINE
  5
B6
100
AcDbEntity
  8
DIMS
 62
     4
100
AcDbLine
 10
225.51878
 20
329.159226
 30
0.0
 11
225.51878
 21
305.859226
 31
0.0
  0
LINE
  5
B7
100
AcDbEntity
  8
DIMS
 62
     4
100
AcDbLine
 10
228.91878
 20
332.559226
 30
0.0
 11
252.21878
 21
332.559226
 31
0.0
  0
LINE
  5
B8
100
AcDbEntity
  8
DIMS
 62
     4
100
AcDbLine
 10
222.11878
 20
332.559226
 30
0.0
 11
198.81878
 21
332.559226
 31
0.0
  0
LINE
  5
B9
100
AcDbEntity
  8
DIMS
 62
     4
100
AcDbLine
 10
225.51878
 20
330.859226
 30
0.0
 11
225.51878
 21
334.259226
 31
0.0
  0
LINE
  5
BA
100
AcDbEntity
  8
DIMS
 62
     4
100
AcDbLine
 10
223.81878
 20
332.559226
 30
0.0
 11
227.21878
 21
332.559226
 31
0.0
  0
LINE
  5
BB
100
AcDbEntity
  8
DIMS
 62
     4
100
AcDbLine
 10
425.51878
 20
335.959226
 30
0.0
 11
425.51878
 21
359.259226
 31
0.0
  0
LINE
  5
BC
100
AcDbEntity
  8
DIMS
 62
     4
100
AcDbLine
 10
425.51878
 20
329.159226
 30
0.0
 11
425.51878
 21
305.859226
 31
0.0
  0
LINE
  5
BD
100
AcDbEntity
  8
DIMS
 62
     4
100
AcDbLine
 10
428.91878
 20
332.559226
 30
0.0
 11
452.21878
 21
332.559226
 31
0.0
  0
LINE
  5
BE
100
AcDbEntity
  8
DIMS
 62
     4
100
AcDbLine
 10
422.11878
 20
332.559226
 30
0.0
 11
398.81878
 21
332.559226
 31
0.0
  0
LINE
  5
BF
100
AcDbEntity
  8
DIMS
 62
     4
100
AcDbLine
 10
425.51878
 20
330.859226
 30
0.0
 11
425.51878
 21
334.259226
 31
0.0
  0
LINE
  5
C0
100
AcDbEntity
  8
DIMS
 62
     4
100
AcDbLine
 10
423.81878
 20
332.559226
 30
0.0
 11
427.21878
 21
332.559226
 31
0.0
  0
LINE
  5
C1
100
AcDbEntity
  8
DIMS
 62
     4
100
AcDbLine
 10
225.51878
 20
535.959226
 30
0.0
 11
225.51878
 21
559.259226
 31
0.0
  0
LINE
  5
C2
100
AcDbEntity
  8
DIMS
 62
     4
100
AcDbLine
 10
225.51878
 20
529.159226
 30
0.0
 11
225.51878
 21
505.859226
 31
0.0
  0
LINE
  5
C3
100
AcDbEntity
  8
DIMS
 62
     4
100
AcDbLine
 10
228.91878
 20
532.559226
 30
0.0
 11
252.21878
 21
532.559226
 31
0.0
  0
LINE
  5
C4
100
AcDbEntity
  8
DIMS
 62
     4
100
AcDbLine
 10
222.11878
 20
532.559226
 30
0.0
 11
198.81878
 21
532.559226
 31
0.0
  0
LINE
  5
C5
100
AcDbEntity
  8
DIMS
 62
     4
100
AcDbLine
 10
225.51878
 20
530.859226
 30
0.0
 11
225.51878
 21
534.259226
 31
0.0
  0
LINE
  5
C6
100
AcDbEntity
  8
DIMS
 62
     4
100
AcDbLine
 10
223.81878
 20
532.559226
 30
0.0
 11
227.21878
 21
532.559226
 31
0.0
  0
LINE
  5
C7
100
AcDbEntity
  8
DIMS
 62
     4
100
AcDbLine
 10
425.51878
 20
535.959226
 30
0.0
 11
425.51878
 21
559.259226
 31
0.0
  0
LINE
  5
C8
100
AcDbEntity
  8
DIMS
 62
     4
100
AcDbLine
 10
425.51878
 20
529.159226
 30
0.0
 11
425.51878
 21
505.859226
 31
0.0
  0
LINE
  5
C9
100
AcDbEntity
  8
DIMS
 62
     4
100
AcDbLine
 10
428.91878
 20
532.559226
 30
0.0
 11
452.21878
 21
532.559226
 31
0.0
  0
LINE
  5
CA
100
AcDbEntity
  8
DIMS
 62
     4
100
AcDbLine
 10
422.11878
 20
532.559226
 30
0.0
 11
398.81878
 21
532.559226
 31
0.0
  0
LINE
  5
CB
100
AcDbEntity
  8
DIMS
 62
     4
100
AcDbLine
 10
425.51878
 20
530.859226
 30
0.0
 11
425.51878
 21
534.259226
 31
0.0
  0
LINE
  5
CC
100
AcDbEntity
  8
DIMS
 62
     4
100
AcDbLine
 10
423.81878
 20
532.559226
 30
0.0
 11
427.21878
 21
532.559226
 31
0.0
  0
LINE
  5
CD
100
AcDbEntity
  8
DIMS
 62
     4
100
AcDbLine
 10
625.51878
 20
335.959226
 30
0.0
 11
625.51878
 21
359.259226
 31
0.0
  0
LINE
  5
CE
100
AcDbEntity
  8
DIMS
 62
     4
100
AcDbLine
 10
625.51878
 20
329.159226
 30
0.0
 11
625.51878
 21
305.859226
 31
0.0
  0
LINE
  5
CF
100
AcDbEntity
  8
DIMS
 62
     4
100
AcDbLine
 10
628.91878
 20
332.559226
 30
0.0
 11
652.21878
 21
332.559226
 31
0.0
  0
LINE
  5
D0
100
AcDbEntity
  8
DIMS
 62
     4
100
AcDbLine
 10
622.11878
 20
332.559226
 30
0.0
 11
598.81878
 21
332.559226
 31
0.0
  0
LINE
  5
D1
100
AcDbEntity
  8
DIMS
 62
     4
100
AcDbLine
 10
625.51878
 20
330.859226
 30
0.0
 11
625.51878
 21
334.259226
 31
0.0
  0
LINE
  5
D2
100
AcDbEntity
  8
DIMS
 62
     4
100
AcDbLine
 10
623.81878
 20
332.559226
 30
0.0
 11
627.21878
 21
332.559226
 31
0.0
  0
LINE
  5
D3
100
AcDbEntity
  8
DIMS
 62
     4
100
AcDbLine
 10
825.51878
 20
335.959226
 30
0.0
 11
825.51878
 21
359.259226
 31
0.0
  0
LINE
  5
D4
100
AcDbEntity
  8
DIMS
 62
     4
100
AcDbLine
 10
825.51878
 20
329.159226
 30
0.0
 11
825.51878
 21
305.859226
 31
0.0
  0
LINE
  5
D5
100
AcDbEntity
  8
DIMS
 62
     4
100
AcDbLine
 10
828.91878
 20
332.559226
 30
0.0
 11
852.21878
 21
332.559226
 31
0.0
  0
LINE
  5
D6
100
AcDbEntity
  8
DIMS
 62
     4
100
AcDbLine
 10
822.11878
 20
332.559226
 30
0.0
 11
798.81878
 21
332.559226
 31
0.0
  0
LINE
  5
D7
100
AcDbEntity
  8
DIMS
 62
     4
100
AcDbLine
 10
825.51878
 20
330.859226
 30
0.0
 11
825.51878
 21
334.259226
 31
0.0
  0
LINE
  5
D8
100
AcDbEntity
  8
DIMS
 62
     4
100
AcDbLine
 10
823.81878
 20
332.559226
 30
0.0
 11
827.21878
 21
332.559226
 31
0.0
  0
LINE
  5
D9
100
AcDbEntity
  8
DIMS
 62
     4
100
AcDbLine
 10
625.51878
 20
535.959226
 30
0.0
 11
625.51878
 21
559.259226
 31
0.0
  0
LINE
  5
DA
100
AcDbEntity
  8
DIMS
 62
     4
100
AcDbLine
 10
625.51878
 20
529.159226
 30
0.0
 11
625.51878
 21
505.859226
 31
0.0
  0
LINE
  5
DB
100
AcDbEntity
  8
DIMS
 62
     4
100
AcDbLine
 10
628.91878
 20
532.559226
 30
0.0
 11
652.21878
 21
532.559226
 31
0.0
  0
LINE
  5
DC
100
AcDbEntity
  8
DIMS
 62
     4
100
AcDbLine
 10
622.11878
 20
532.559226
 30
0.0
 11
598.81878
 21
532.559226
 31
0.0
  0
LINE
  5
DD
100
AcDbEntity
  8
DIMS
 62
     4
100
AcDbLine
 10
625.51878
 20
530.859226
 30
0.0
 11
625.51878
 21
534.259226
 31
0.0
  0
LINE
  5
DE
100
AcDbEntity
  8
DIMS
 62
     4
100
AcDbLine
 10
623.81878
 20
532.559226
 30
0.0
 11
627.21878
 21
532.559226
 31
0.0
  0
LINE
  5
DF
100
AcDbEntity
  8
DIMS
 62
     4
100
AcDbLine
 10
825.51878
 20
535.959226
 30
0.0
 11
825.51878
 21
559.259226
 31
0.0
  0
LINE
  5
E0
100
AcDbEntity
  8
DIMS
 62
     4
100
AcDbLine
 10
825.51878
 20
529.159226
 30
0.0
 11
825.51878
 21
505.859226
 31
0.0
  0
LINE
  5
E1
100
AcDbEntity
  8
DIMS
 62
     4
100
AcDbLine
 10
828.91878
 20
532.559226
 30
0.0
 11
852.21878
 21
532.559226
 31
0.0
  0
LINE
  5
E2
100
AcDbEntity
  8
DIMS
 62
     4
100
AcDbLine
 10
822.11878
 20
532.559226
 30
0.0
 11
798.81878
 21
532.559226
 31
0.0
  0
LINE
  5
E3
100
AcDbEntity
  8
DIMS
 62
     4
100
AcDbLine
 10
825.51878
 20
530.859226
 30
0.0
 11
825.51878
 21
534.259226
 31
0.0
  0
LINE
  5
E4
100
AcDbEntity
  8
DIMS
 62
     4
100
AcDbLine
 10
823.81878
 20
532.559226
 30
0.0
 11
827.21878
 21
532.559226
 31
0.0
  0
CIRCLE
  5
E5
100
AcDbEntity
  8
M03
100
AcDbCircle
 10
425.51878
 20
332.559226
 30
0.0
 40
25.0
  0
CIRCLE
  5
E8
100
AcDbEntity
  8
M03
100
AcDbCircle
 10
425.51878
 20
332.559226
 30
0.0
 40
24.0
  0
CIRCLE
  5
E9
100
AcDbEntity
  8
M03
100
AcDbCircle
 10
225.51878
 20
332.559226
 30
0.0
 40
25.0
  0
CIRCLE
  5
EA
100
AcDbEntity
  8
M03
100
AcDbCircle
 10
225.51878
 20
332.559226
 30
0.0
 40
24.0
  0
CIRCLE
  5
EB
100
AcDbEntity
  8
M03
100
AcDbCircle
 10
425.51878
 20
532.559226
 30
0.0
 40
25.0
  0
CIRCLE
  5
EC
100
AcDbEntity
  8
M03
100
AcDbCircle
 10
425.51878
 20
532.559226
 30
0.0
 40
24.0
  0
CIRCLE
  5
ED
100
AcDbEntity
  8
M03
100
AcDbCircle
 10
225.51878
 20
532.559226
 30
0.0
 40
25.0
  0
CIRCLE
  5
EE
100
AcDbEntity
  8
M03
100
AcDbCircle
 10
225.51878
 20
532.559226
 30
0.0
 40
24.0
  0
CIRCLE
  5
EF
100
AcDbEntity
  8
M03
100
AcDbCircle
 10
625.51878
 20
332.559226
 30
0.0
 40
25.0
  0
CIRCLE
  5
F0
100
AcDbEntity
  8
M03
100
AcDbCircle
 10
625.51878
 20
332.559226
 30
0.0
 40
24.0
  0
CIRCLE
  5
F1
100
AcDbEntity
  8
M03
100
AcDbCircle
 10
825.51878
 20
332.559226
 30
0.0
 40
25.0
  0
CIRCLE
  5
F2
100
AcDbEntity
  8
M03
100
AcDbCircle
 10
825.51878
 20
332.559226
 30
0.0
 40
24.0
  0
CIRCLE
  5
F3
100
AcDbEntity
  8
M03
100
AcDbCircle
 10
625.51878
 20
532.559226
 30
0.0
 40
25.0
  0
CIRCLE
  5
F4
100
AcDbEntity
  8
M03
100
AcDbCircle
 10
625.51878
 20
532.559226
 30
0.0
 40
24.0
  0
LINE
  5
F5
100
AcDbEntity
  8
M03
100
AcDbLine
 10
319.861925
 20
432.559226
 30
0.0
 11
222.690352
 21
335.387653
 31
0.0
  0
LINE
  5
F6
100
AcDbEntity
  8
M03
100
AcDbLine
 10
325.51878
 20
426.902372
 30
0.0
 11
228.347207
 21
329.730799
 31
0.0
  0
LINE
  5
F7
100
AcDbEntity
  8
M03
100
AcDbLine
 10
428.347207
 20
529.730799
 30
0.0
 11
331.175634
 21
432.559226
 31
0.0
  0
LINE
  5
F8
100
AcDbEntity
  8
M03
100
AcDbLine
 10
422.690352
 20
535.387653
 30
0.0
 11
325.51878
 21
438.21608
 31
0.0
  0
LINE
  5
F9
100
AcDbEntity
  8
DIMS
 62
     4
100
AcDbLine
 10
460.874119
 20
493.803887
 30
0.0
 11
460.874119
 21
489.003887
 31
0.0
  0
LINE
  5
FA
100
AcDbEntity
  8
DIMS
 62
     4
100
AcDbLine
 10
460.874119
 20
500.603887
 30
0.0
 11
460.874119
 21
505.403887
 31
0.0
  0
LINE
  5
FB
100
AcDbEntity
  8
DIMS
 62
     4
100
AcDbLine
 10
464.274119
 20
497.203887
 30
0.0
 11
469.074119
 21
497.203887
 31
0.0
  0
LINE
  5
FC
100
AcDbEntity
  8
DIMS
 62
     4
100
AcDbLine
 10
457.474119
 20
497.203887
 30
0.0
 11
452.674119
 21
497.203887
 31
0.0
  0
LINE
  5
FD
100
AcDbEntity
  8
DIMS
 62
     4
100
AcDbLine
 10
460.874119
 20
498.903887
 30
0.0
 11
460.874119
 21
495.503887
 31
0.0
  0
LINE
  5
FE
100
AcDbEntity
  8
DIMS
 62
     4
100
AcDbLine
 10
459.174119
 20
497.203887
 30
0.0
 11
462.574119
 21
497.203887
 31
0.0
  0
LINE
  5
FF
100
AcDbEntity
  8
DIMS
 62
     4
100
AcDbLine
 10
390.163441
 20
564.514565
 30
0.0
 11
390.163441
 21
559.714565
 31
0.0
  0
LINE
  5
100
100
AcDbEntity
  8
DIMS
 62
     4
100
AcDbLine
 10
390.163441
 20
571.314565
 30
0.0
 11
390.163441
 21
576.114565
 31
0.0
  0
LINE
  5
101
100
AcDbEntity
  8
DIMS
 62
     4
100
AcDbLine
 10
393.563441
 20
567.914565
 30
0.0
 11
398.363441
 21
567.914565
 31
0.0
  0
LINE
  5
102
100
AcDbEntity
  8
DIMS
 62
     4
100
AcDbLine
 10
386.763441
 20
567.914565
 30
0.0
 11
381.963441
 21
567.914565
 31
0.0
  0
LINE
  5
103
100
AcDbEntity
  8
DIMS
 62
     4
100
AcDbLine
 10
390.163441
 20
569.614565
 30
0.0
 11
390.163441
 21
566.214565
 31
0.0
  0
LINE
  5
104
100
AcDbEntity
  8
DIMS
 62
     4
100
AcDbLine
 10
388.463441
 20
567.914565
 30
0.0
 11
391.863441
 21
567.914565
 31
0.0
  0
CIRCLE
  5
105
100
AcDbEntity
  8
M04
100
AcDbCircle
 10
460.874119
 20
497.203887
 30
0.0
 40
6.5
  0
CIRCLE
  5
106
100
AcDbEntity
  8
M04
100
AcDbCircle
 10
390.163441
 20
567.914565
 30
0.0
 40
6.5
  0
LINE
  5
107
100
AcDbEntity
  8
DIMS
 62
     4
100
AcDbLine
 10
190.163441
 20
493.803887
 30
0.0
 11
190.163441
 21
489.003887
 31
0.0
  0
LINE
  5
108
100
AcDbEntity
  8
DIMS
 62
     4
100
AcDbLine
 10
190.163441
 20
500.603887
 30
0.0
 11
190.163441
 21
505.403887
 31
0.0
  0
LINE
  5
109
100
AcDbEntity
  8
DIMS
 62
     4
100
AcDbLine
 10
186.763441
 20
497.203887
 30
0.0
 11
181.963441
 21
497.203887
 31
0.0
  0
LINE
  5
10A
100
AcDbEntity
  8
DIMS
 62
     4
100
AcDbLine
 10
193.563441
 20
497.203887
 30
0.0
 11
198.363441
 21
497.203887
 31
0.0
  0
LINE
  5
10B
100
AcDbEntity
  8
DIMS
 62
     4
100
AcDbLine
 10
190.163441
 20
498.903887
 30
0.0
 11
190.163441
 21
495.503887
 31
0.0
  0
LINE
  5
10C
100
AcDbEntity
  8
DIMS
 62
     4
100
AcDbLine
 10
191.863441
 20
497.203887
 30
0.0
 11
188.463441
 21
497.203887
 31
0.0
  0
LINE
  5
10D
100
AcDbEntity
  8
DIMS
 62
     4
100
AcDbLine
 10
260.874119
 20
564.514565
 30
0.0
 11
260.874119
 21
559.714565
 31
0.0
  0
LINE
  5
10E
100
AcDbEntity
  8
DIMS
 62
     4
100
AcDbLine
 10
260.874119
 20
571.314565
 30
0.0
 11
260.874119
 21
576.114565
 31
0.0
  0
LINE
  5
10F
100
AcDbEntity
  8
DIMS
 62
     4
100
AcDbLine
 10
257.474119
 20
567.914565
 30
0.0
 11
252.674119
 21
567.914565
 31
0.0
  0
LINE
  5
110
100
AcDbEntity
  8
DIMS
 62
     4
100
AcDbLine
 10
264.274119
 20
567.914565
 30
0.0
 11
269.074119
 21
567.914565
 31
0.0
  0
LINE
  5
111
100
AcDbEntity
  8
DIMS
 62
     4
100
AcDbLine
 10
260.874119
 20
569.614565
 30
0.0
 11
260.874119
 21
566.214565
 31
0.0
  0
LINE
  5
112
100
AcDbEntity
  8
DIMS
 62
     4
100
AcDbLine
 10
262.574119
 20
567.914565
 30
0.0
 11
259.174119
 21
567.914565
 31
0.0
  0
CIRCLE
  5
113
100
AcDbEntity
  8
M04
100
AcDbCircle
 10
190.163441
 20
497.203887
 30
0.0
 40
6.5
  0
CIRCLE
  5
114
100
AcDbEntity
  8
M04
100
AcDbCircle
 10
260.874119
 20
567.914565
 30
0.0
 40
6.5
  0
LINE
  5
115
100
AcDbEntity
  8
DIMS
 62
     4
100
AcDbLine
 10
460.874119
 20
371.314565
 30
0.0
 11
460.874119
 21
376.114565
 31
0.0
  0
LINE
  5
116
100
AcDbEntity
  8
DIMS
 62
     4
100
AcDbLine
 10
460.874119
 20
364.514565
 30
0.0
 11
460.874119
 21
359.714565
 31
0.0
  0
LINE
  5
117
100
AcDbEntity
  8
DIMS
 62
     4
100
AcDbLine
 10
464.274119
 20
367.914565
 30
0.0
 11
469.074119
 21
367.914565
 31
0.0
  0
LINE
  5
118
100
AcDbEntity
  8
DIMS
 62
     4
100
AcDbLine
 10
457.474119
 20
367.914565
 30
0.0
 11
452.674119
 21
367.914565
 31
0.0
  0
LINE
  5
119
100
AcDbEntity
  8
DIMS
 62
     4
100
AcDbLine
 10
460.874119
 20
366.214565
 30
0.0
 11
460.874119
 21
369.614565
 31
0.0
  0
LINE
  5
11A
100
AcDbEntity
  8
DIMS
 62
     4
100
AcDbLine
 10
459.174119
 20
367.914565
 30
0.0
 11
462.574119
 21
367.914565
 31
0.0
  0
LINE
  5
11B
100
AcDbEntity
  8
DIMS
 62
     4
100
AcDbLine
 10
390.163441
 20
300.603887
 30
0.0
 11
390.163441
 21
305.403887
 31
0.0
  0
LINE
  5
11C
100
AcDbEntity
  8
DIMS
 62
     4
100
AcDbLine
 10
390.163441
 20
293.803887
 30
0.0
 11
390.163441
 21
289.003887
 31
0.0
  0
LINE
  5
11D
100
AcDbEntity
  8
DIMS
 62
     4
100
AcDbLine
 10
393.563441
 20
297.203887
 30
0.0
 11
398.363441
 21
297.203887
 31
0.0
  0
LINE
  5
11E
100
AcDbEntity
  8
DIMS
 62
     4
100
AcDbLine
 10
386.763441
 20
297.203887
 30
0.0
 11
381.963441
 21
297.203887
 31
0.0
  0
LINE
  5
11F
100
AcDbEntity
  8
DIMS
 62
     4
100
AcDbLine
 10
390.163441
 20
295.503887
 30
0.0
 11
390.163441
 21
298.903887
 31
0.0
  0
LINE
  5
120
100
AcDbEntity
  8
DIMS
 62
     4
100
AcDbLine
 10
388.463441
 20
297.203887
 30
0.0
 11
391.863441
 21
297.203887
 31
0.0
  0
CIRCLE
  5
121
100
AcDbEntity
  8
M04
100
AcDbCircle
 10
460.874119
 20
367.914565
 30
0.0
 40
6.5
  0
CIRCLE
  5
122
100
AcDbEntity
  8
M04
100
AcDbCircle
 10
390.163441
 20
297.203887
 30
0.0
 40
6.5
  0
ARC
  5
123
100
AcDbEntity
  8
M04
100
AcDbCircle
 10
434.744176
 20
385.559226
 30
0.0
 40
5.0
100
AcDbArc
 50
90.0
 51
225.0
  0
ARC
  5
124
100
AcDbEntity
  8
M04
100
AcDbCircle
 10
325.518779
 20
370.333829
 30
0.0
 40
5.0
100
AcDbArc
 50
45.0
 51
135.0
  0
ARC
  5
125
100
AcDbEntity
  8
M04
100
AcDbCircle
 10
263.293383
 20
432.559226
 30
0.0
 40
5.0
100
AcDbArc
 50
315.0
 51
45.0
  0
ARC
  5
126
100
AcDbEntity
  8
M04
100
AcDbCircle
 10
288.51878
 20
531.784623
 30
0.0
 40
5.0
100
AcDbArc
 50
225.0
 51
0.0
  0
ARC
  5
127
100
AcDbEntity
  8
M04
100
AcDbCircle
 10
362.51878
 20
531.784623
 30
0.0
 40
5.0
100
AcDbArc
 50
180.0
 51
315.0
  0
ARC
  5
128
100
AcDbEntity
  8
M04
100
AcDbCircle
 10
434.744176
 20
479.559226
 30
0.0
 40
5.0
100
AcDbArc
 50
135.0
 51
270.0
  0
ARC
  5
129
100
AcDbEntity
  8
M01
100
AcDbCircle
 10
434.744176
 20
479.559226
 30
0.0
 40
12.0
100
AcDbArc
 50
135.0
 51
270.0
  0
ARC
  5
12A
100
AcDbEntity
  8
M01
100
AcDbCircle
 10
434.744176
 20
385.559226
 30
0.0
 40
12.0
100
AcDbArc
 50
90.0
 51
225.0
  0
ARC
  5
12B
100
AcDbEntity
  8
M01
100
AcDbCircle
 10
325.518779
 20
370.333829
 30
0.0
 40
12.0
100
AcDbArc
 50
45.0
 51
135.0
  0
ARC
  5
12C
100
AcDbEntity
  8
M01
100
AcDbCircle
 10
263.293383
 20
432.559226
 30
0.0
 40
12.0
100
AcDbArc
 50
315.0
 51
45.0
  0
ARC
  5
12D
100
AcDbEntity
  8
M01
100
AcDbCircle
 10
291.51878
 20
528.784623
 30
0.0
 40
12.0
100
AcDbArc
 50
225.0
 51
360.0
  0
ARC
  5
12E
100
AcDbEntity
  8
M01
100
AcDbCircle
 10
359.51878
 20
528.784623
 30
0.0
 40
12.0
100
AcDbArc
 50
180.0
 51
315.0
  0
LINE
  5
12F
100
AcDbEntity
  8
M01
100
AcDbLine
 10
416.263946
 20
296.559226
 30
0.0
 11
434.776001
 21
296.559226
 31
0.0
  0
LINE
  5
130
100
AcDbEntity
  8
M01
100
AcDbLine
 10
461.51878
 20
323.302005
 30
0.0
 11
461.51878
 21
341.81406
 31
0.0
  0
LINE
  5
131
100
AcDbEntity
  8
M01
100
AcDbLine
 10
426.258895
 20
377.073945
 30
0.0
 11
461.51878
 21
341.81406
 31
0.0
  0
LINE
  5
132
100
AcDbEntity
  8
M01
100
AcDbLine
 10
334.004061
 20
378.819111
 30
0.0
 11
416.263946
 21
296.559226
 31
0.0
  0
LINE
  5
133
100
AcDbEntity
  8
M04
100
AcDbLine
 10
329.054313
 20
373.869363
 30
0.0
 11
414.913372
 21
288.010305
 31
0.0
  0
LINE
  5
134
100
AcDbEntity
  8
M04
100
AcDbLine
 10
431.208642
 20
382.023692
 30
0.0
 11
470.067701
 21
343.164634
 31
0.0
  0
LINE
  5
135
100
AcDbEntity
  8
M01
100
AcDbLine
 10
234.773614
 20
296.559226
 30
0.0
 11
216.261558
 21
296.559226
 31
0.0
  0
LINE
  5
136
100
AcDbEntity
  8
M01
100
AcDbLine
 10
189.51878
 20
323.302005
 30
0.0
 11
189.51878
 21
341.81406
 31
0.0
  0
LINE
  5
137
100
AcDbEntity
  8
M01
100
AcDbLine
 10
271.778664
 20
424.073945
 30
0.0
 11
189.51878
 21
341.81406
 31
0.0
  0
LINE
  5
138
100
AcDbEntity
  8
M01
100
AcDbLine
 10
317.033498
 20
378.819111
 30
0.0
 11
234.773614
 21
296.559226
 31
0.0
  0
LINE
  5
139
100
AcDbEntity
  8
M04
100
AcDbLine
 10
321.983246
 20
373.869363
 30
0.0
 11
236.124187
 21
288.010305
 31
0.0
  0
LINE
  5
13A
100
AcDbEntity
  8
M04
100
AcDbLine
 10
266.828917
 20
429.023692
 30
0.0
 11
180.969859
 21
343.164634
 31
0.0
  0
LINE
  5
13B
100
AcDbEntity
  8
M01
100
AcDbLine
 10
416.263946
 20
568.559226
 30
0.0
 11
434.776001
 21
568.559226
 31
0.0
  0
LINE
  5
13C
100
AcDbEntity
  8
M01
100
AcDbLine
 10
461.51878
 20
541.816448
 30
0.0
 11
461.51878
 21
523.304392
 31
0.0
  0
LINE
  5
13D
100
AcDbEntity
  8
M01
100
AcDbLine
 10
426.258895
 20
488.044507
 30
0.0
 11
461.51878
 21
523.304392
 31
0.0
  0
LINE
  5
13E
100
AcDbEntity
  8
M01
100
AcDbLine
 10
368.004061
 20
520.299341
 30
0.0
 11
416.263946
 21
568.559226
 31
0.0
  0
LINE
  5
13F
100
AcDbEntity
  8
M04
100
AcDbLine
 10
366.054313
 20
528.249089
 30
0.0
 11
414.913372
 21
577.108147
 31
0.0
  0
LINE
  5
140
100
AcDbEntity
  8
M04
100
AcDbLine
 10
431.208642
 20
483.09476
 30
0.0
 11
470.067701
 21
521.953818
 31
0.0
  0
LINE
  5
141
100
AcDbEntity
  8
M01
100
AcDbLine
 10
234.773614
 20
568.559226
 30
0.0
 11
216.261558
 21
568.559226
 31
0.0
  0
LINE
  5
142
100
AcDbEntity
  8
M01
100
AcDbLine
 10
189.51878
 20
541.816448
 30
0.0
 11
189.51878
 21
523.304392
 31
0.0
  0
LINE
  5
143
100
AcDbEntity
  8
M01
100
AcDbLine
 10
271.778664
 20
441.044508
 30
0.0
 11
189.51878
 21
523.304392
 31
0.0
  0
LINE
  5
144
100
AcDbEntity
  8
M01
100
AcDbLine
 10
283.033498
 20
520.299341
 30
0.0
 11
234.773614
 21
568.559226
 31
0.0
  0
LINE
  5
145
100
AcDbEntity
  8
M04
100
AcDbLine
 10
284.983246
 20
528.249089
 30
0.0
 11
236.124187
 21
577.108147
 31
0.0
  0
LINE
  5
146
100
AcDbEntity
  8
M04
100
AcDbLine
 10
266.828917
 20
436.09476
 30
0.0
 11
180.969859
 21
521.953818
 31
0.0
  0
LINE
  5
147
100
AcDbEntity
  8
DIMS
 62
     4
100
AcDbLine
 10
190.163441
 20
371.314565
 30
0.0
 11
190.163441
 21
376.114565
 31
0.0
  0
LINE
  5
148
100
AcDbEntity
  8
DIMS
 62
     4
100
AcDbLine
 10
190.163441
 20
364.514565
 30
0.0
 11
190.163441
 21
359.714565
 31
0.0
  0
LINE
  5
149
100
AcDbEntity
  8
DIMS
 62
     4
100
AcDbLine
 10
186.763441
 20
367.914565
 30
0.0
 11
181.963441
 21
367.914565
 31
0.0
  0
LINE
  5
14A
100
AcDbEntity
  8
DIMS
 62
     4
100
AcDbLine
 10
193.563441
 20
367.914565
 30
0.0
 11
198.363441
 21
367.914565
 31
0.0
  0
LINE
  5
14B
100
AcDbEntity
  8
DIMS
 62
     4
100
AcDbLine
 10
190.163441
 20
366.214565
 30
0.0
 11
190.163441
 21
369.614565
 31
0.0
  0
LINE
  5
14C
100
AcDbEntity
  8
DIMS
 62
     4
100
AcDbLine
 10
191.863441
 20
367.914565
 30
0.0
 11
188.463441
 21
367.914565
 31
0.0
  0
LINE
  5
14D
100
AcDbEntity
  8
DIMS
 62
     4
100
AcDbLine
 10
260.874119
 20
300.603887
 30
0.0
 11
260.874119
 21
305.403887
 31
0.0
  0
LINE
  5
14E
100
AcDbEntity
  8
DIMS
 62
     4
100
AcDbLine
 10
260.874119
 20
293.803887
 30
0.0
 11
260.874119
 21
289.003887
 31
0.0
  0
LINE
  5
14F
100
AcDbEntity
  8
DIMS
 62
     4
100
AcDbLine
 10
257.474119
 20
297.203887
 30
0.0
 11
252.674119
 21
297.203887
 31
0.0
  0
LINE
  5
150
100
AcDbEntity
  8
DIMS
 62
     4
100
AcDbLine
 10
264.274119
 20
297.203887
 30
0.0
 11
269.074119
 21
297.203887
 31
0.0
  0
LINE
  5
151
100
AcDbEntity
  8
DIMS
 62
     4
100
AcDbLine
 10
260.874119
 20
295.503887
 30
0.0
 11
260.874119
 21
298.903887
 31
0.0
  0
LINE
  5
152
100
AcDbEntity
  8
DIMS
 62
     4
100
AcDbLine
 10
262.574119
 20
297.203887
 30
0.0
 11
259.174119
 21
297.203887
 31
0.0
  0
CIRCLE
  5
153
100
AcDbEntity
  8
M04
100
AcDbCircle
 10
190.163441
 20
367.914565
 30
0.0
 40
6.5
  0
CIRCLE
  5
154
100
AcDbEntity
  8
M04
100
AcDbCircle
 10
260.874119
 20
297.203887
 30
0.0
 40
6.5
  0
HATCH
  5
155
100
AcDbEntity
  8
M03
100
AcDbHatch
 10
0.0
 20
0.0
 30
0.0
210
0.0
220
0.0
230
1.0
  2
_U
 70
     0
 71
     0
 91
        1
 92
        7
 72
     0
 73
     1
 93
        4
 10
213.2568085907873
 20
505.0817959257544
 10
192.5820956672509
 20
525.7565088492908
 10
191.2385927829966
 20
524.4130059650363
 10
211.913305706533
 20
503.7382930415001
 97
        0
 75
     0
 76
     0
 52
285.0
 41
0.7
 77
     0
 78
     1
 53
285.0
 43
-420.027603
 44
566.374485
 45
0.676148078402348
 46
0.181173331571764
 79
     0
 47
0.060863
 98
        1
 10
209.807115
 20
506.852208
  0
HATCH
  5
156
100
AcDbEntity
  8
M03
100
AcDbHatch
 10
0.0
 20
0.0
 30
0.0
210
0.0
220
0.0
230
1.0
  2
_U
 70
     0
 71
     0
 91
        1
 92
        7
 72
     0
 73
     1
 93
        4
 10
213.2568085907873
 20
505.0817959257543
 10
192.5820956672509
 20
525.7565088492908
 10
191.2385927829964
 20
524.4130059650363
 10
211.913305706533
 20
503.7382930415
 97
        0
 75
     0
 76
     0
 52
-15.0
 41
0.7
 77
     0
 78
     1
 53
345.0
 43
-420.027603
 44
566.374485
 45
0.1811733315717648
 46
0.6761480784023477
 79
     0
 47
0.060863
 98
        1
 10
209.850099
 20
507.153518
  0
LINE
  5
157
100
AcDbEntity
  8
M03
100
AcDbLine
 10
234.616428
 20
502.955481
 30
0.0
 11
233.929053
 21
505.520798
 31
0.0
  0
LINE
  5
158
100
AcDbEntity
  8
M03
100
AcDbLine
 10
231.363736
 20
506.208173
 30
0.0
 11
233.929053
 21
505.520798
 31
0.0
  0
LINE
  5
159
100
AcDbEntity
  8
M03
100
AcDbLine
 10
231.363736
 20
506.208173
 30
0.0
 11
234.616428
 21
502.955481
 31
0.0
  0
LINE
  5
15A
100
AcDbEntity
  8
M03
100
AcDbLine
 10
229.808101
 20
505.642487
 30
0.0
 11
234.050742
 21
501.399847
 31
0.0
  0
LINE
  5
15B
100
AcDbEntity
  8
M03
100
AcDbLine
 10
213.256809
 20
505.081796
 30
0.0
 11
192.582096
 21
525.756509
 31
0.0
  0
LINE
  5
15C
100
AcDbEntity
  8
M03
100
AcDbLine
 10
211.913306
 20
503.738293
 30
0.0
 11
191.238593
 21
524.413006
 31
0.0
  0
LINE
  5
15D
100
AcDbEntity
  8
M03
100
AcDbLine
 10
218.418688
 20
500.34418
 30
0.0
 11
228.535309
 21
490.227559
 31
0.0
  0
LINE
  5
15E
100
AcDbEntity
  8
M03
100
AcDbLine
 10
218.245614
 20
501.648626
 30
0.0
 11
217.679928
 21
501.08294
 31
0.0
  0
LINE
  5
15F
100
AcDbEntity
  8
M03
100
AcDbLine
 10
213.468941
 20
505.293928
 30
0.0
 11
211.701174
 21
503.526161
 31
0.0
  0
LINE
  5
160
100
AcDbEntity
  8
M03
100
AcDbLine
 10
211.701174
 20
503.526161
 30
0.0
 11
216.650921
 21
498.576414
 31
0.0
  0
LINE
  5
161
100
AcDbEntity
  8
M03
100
AcDbLine
 10
218.418688
 20
500.34418
 30
0.0
 11
216.650921
 21
498.576414
 31
0.0
  0
LINE
  5
162
100
AcDbEntity
  8
M03
100
AcDbLine
 10
229.100995
 20
490.793245
 30
0.0
 11
228.535309
 21
490.227559
 31
0.0
  0
ARC
  5
163
100
AcDbEntity
  8
M03
100
AcDbCircle
 10
225.37181
 20
496.963555
 30
0.0
 40
5.826136
100
AcDbArc
 50
160.69541
 51
289.30459
  0
LINE
  5
164
100
AcDbEntity
  8
M03
100
AcDbLine
 10
232.282975
 20
499.63208
 30
0.0
 11
232.282975
 21
500.622029
 31
0.0
  0
LINE
  5
165
100
AcDbEntity
  8
M03
100
AcDbLine
 10
228.040334
 20
503.87472
 30
0.0
 11
229.030284
 21
503.87472
 31
0.0
  0
LINE
  5
166
100
AcDbEntity
  8
M03
100
AcDbLine
 10
228.040334
 20
503.87472
 30
0.0
 11
232.282975
 21
499.63208
 31
0.0
  0
LINE
  5
167
100
AcDbEntity
  8
M03
100
AcDbLine
 10
229.030284
 20
503.87472
 30
0.0
 11
232.282975
 21
500.622029
 31
0.0
  0
LINE
  5
168
100
AcDbEntity
  8
M03
100
AcDbLine
 10
226.272568
 20
493.621672
 30
0.0
 11
231.222315
 21
488.671924
 31
0.0
  0
LINE
  5
169
100
AcDbEntity
  8
M03
100
AcDbLine
 10
214.463884
 20
505.430355
 30
0.0
 11
213.898199
 21
504.86467
 31
0.0
  0
LINE
  5
16A
100
AcDbEntity
  8
M03
100
AcDbLine
 10
226.767542
 20
493.126697
 30
0.0
 11
226.201857
 21
492.561012
 31
0.0
  0
LINE
  5
16B
100
AcDbEntity
  8
M03
100
AcDbLine
 10
234.616428
 20
502.955481
 30
0.0
 11
225.211907
 21
493.550961
 31
0.0
  0
LINE
  5
16C
100
AcDbEntity
  8
M03
100
AcDbLine
 10
231.363736
 20
506.208173
 30
0.0
 11
221.959216
 21
496.803652
 31
0.0
  0
LINE
  5
16D
100
AcDbEntity
  8
M03
100
AcDbLine
 10
229.808101
 20
505.642487
 30
0.0
 11
221.464241
 21
497.298627
 31
0.0
  0
LINE
  5
16E
100
AcDbEntity
  8
M03
100
AcDbLine
 10
234.050742
 20
501.399847
 30
0.0
 11
225.706882
 21
493.055986
 31
0.0
  0
LINE
  5
16F
100
AcDbEntity
  8
M03
100
AcDbLine
 10
213.468941
 20
505.293928
 30
0.0
 11
217.679928
 21
501.08294
 31
0.0
  0
LINE
  5
170
100
AcDbEntity
  8
M03
100
AcDbLine
 10
231.222315
 20
488.671924
 30
0.0
 11
227.686781
 21
485.136391
 31
0.0
  0
LINE
  5
171
100
AcDbEntity
  8
M03
100
AcDbLine
 10
189.51878
 20
530.37546
 30
0.0
 11
222.029927
 21
497.864313
 31
0.0
  0
LINE
  5
172
100
AcDbEntity
  8
CENTRE
100
AcDbLine
 10
237.019652
 20
508.611397
 30
0.0
 11
217.814526
 21
489.406271
 31
0.0
  0
CIRCLE
  5
175
100
AcDbEntity
  8
M03
100
AcDbCircle
 10
225.51878
 20
332.559226
 30
0.0
 40
2.3
  0
ARC
  5
176
100
AcDbEntity
  8
M03
100
AcDbCircle
 10
225.51878
 20
332.559226
 30
0.0
 40
3.0
100
AcDbArc
 50
83.076897
 51
12.215364
  0
LINE
  5
177
100
AcDbEntity
  8
M03
100
AcDbLine
 10
226.06878
 20
338.533965
 30
0.0
 11
226.06878
 21
326.584488
 31
0.0
  0
LINE
  5
178
100
AcDbEntity
  8
M03
100
AcDbLine
 10
224.96878
 20
338.533965
 30
0.0
 11
224.96878
 21
326.584488
 31
0.0
  0
CIRCLE
  5
179
100
AcDbEntity
  8
M03
100
AcDbCircle
 10
225.51878
 20
332.559226
 30
0.0
 40
7.858882
  0
CIRCLE
  5
17A
100
AcDbEntity
  8
M03
100
AcDbCircle
 10
225.51878
 20
332.559226
 30
0.0
 40
6.0
  0
CIRCLE
  5
17B
100
AcDbEntity
  8
M03
100
AcDbCircle
 10
425.51878
 20
332.559226
 30
0.0
 40
2.3
  0
ARC
  5
17C
100
AcDbEntity
  8
M03
100
AcDbCircle
 10
425.51878
 20
332.559226
 30
0.0
 40
3.0
100
AcDbArc
 50
77.784636
 51
6.923103
  0
LINE
  5
17D
100
AcDbEntity
  8
M03
100
AcDbLine
 10
424.96878
 20
338.533965
 30
0.0
 11
424.96878
 21
326.584488
 31
0.0
  0
LINE
  5
17E
100
AcDbEntity
  8
M03
100
AcDbLine
 10
426.06878
 20
338.533965
 30
0.0
 11
426.06878
 21
326.584488
 31
0.0
  0
CIRCLE
  5
17F
100
AcDbEntity
  8
M03
100
AcDbCircle
 10
425.51878
 20
332.559226
 30
0.0
 40
7.858882
  0
CIRCLE
  5
180
100
AcDbEntity
  8
M03
100
AcDbCircle
 10
425.51878
 20
332.559226
 30
0.0
 40
6.0
  0
CIRCLE
  5
181
100
AcDbEntity
  8
M03
100
AcDbCircle
 10
225.51878
 20
532.559226
 30
0.0
 40
2.3
  0
ARC
  5
182
100
AcDbEntity
  8
M03
100
AcDbCircle
 10
225.51878
 20
532.559226
 30
0.0
 40
3.0
100
AcDbArc
 50
77.784636
 51
6.923103
  0
LINE
  5
183
100
AcDbEntity
  8
M03
100
AcDbLine
 10
226.06878
 20
526.584488
 30
0.0
 11
226.06878
 21
538.533965
 31
0.0
  0
LINE
  5
184
100
AcDbEntity
  8
M03
100
AcDbLine
 10
224.96878
 20
526.584488
 30
0.0
 11
224.96878
 21
538.533965
 31
0.0
  0
CIRCLE
  5
185
100
AcDbEntity
  8
M03
100
AcDbCircle
 10
225.51878
 20
532.559226
 30
0.0
 40
7.858882
  0
CIRCLE
  5
186
100
AcDbEntity
  8
M03
100
AcDbCircle
 10
225.51878
 20
532.559226
 30
0.0
 40
6.0
  0
CIRCLE
  5
187
100
AcDbEntity
  8
M03
100
AcDbCircle
 10
425.51878
 20
532.559226
 30
0.0
 40
2.3
  0
ARC
  5
188
100
AcDbEntity
  8
M03
100
AcDbCircle
 10
425.51878
 20
532.559226
 30
0.0
 40
3.0
100
AcDbArc
 50
83.076897
 51
12.215364
  0
LINE
  5
189
100
AcDbEntity
  8
M03
100
AcDbLine
 10
424.96878
 20
526.584488
 30
0.0
 11
424.96878
 21
538.533965
 31
0.0
  0
LINE
  5
18A
100
AcDbEntity
  8
M03
100
AcDbLine
 10
426.06878
 20
526.584488
 30
0.0
 11
426.06878
 21
538.533965
 31
0.0
  0
CIRCLE
  5
18B
100
AcDbEntity
  8
M03
100
AcDbCircle
 10
425.51878
 20
532.559226
 30
0.0
 40
7.858882
  0
CIRCLE
  5
18C
100
AcDbEntity
  8
M03
100
AcDbCircle
 10
425.51878
 20
532.559226
 30
0.0
 40
6.0
  0
LINE
  5
18D
100
AcDbEntity
  8
M03
100
AcDbLine
 10
325.51878
 20
438.21608
 30
0.0
 11
228.347207
 21
535.387653
 31
0.0
  0
LINE
  5
18E
100
AcDbEntity
  8
M03
100
AcDbLine
 10
319.861925
 20
432.559226
 30
0.0
 11
222.690352
 21
529.730799
 31
0.0
  0
LINE
  5
18F
100
AcDbEntity
  8
M03
100
AcDbLine
 10
422.690352
 20
329.730799
 30
0.0
 11
325.51878
 21
426.902372
 31
0.0
  0
LINE
  5
190
100
AcDbEntity
  8
M03
100
AcDbLine
 10
428.347207
 20
335.387653
 30
0.0
 11
331.175634
 21
432.559226
 31
0.0
  0
CIRCLE
  5
191
100
AcDbEntity
  8
M01
100
AcDbCircle
 10
425.51878
 20
332.559226
 30
0.0
 40
4.0
  0
CIRCLE
  5
192
100
AcDbEntity
  8
M01
100
AcDbCircle
 10
225.51878
 20
332.559226
 30
0.0
 40
4.0
  0
CIRCLE
  5
193
100
AcDbEntity
  8
M01
100
AcDbCircle
 10
225.51878
 20
532.559226
 30
0.0
 40
4.0
  0
CIRCLE
  5
194
100
AcDbEntity
  8
M01
100
AcDbCircle
 10
425.51878
 20
532.559226
 30
0.0
 40
4.0
  0
LINE
  5
195
100
AcDbEntity
  8
M04
100
AcDbLine
 10
357.51878
 20
602.559226
 30
0.0
 11
357.51878
 21
531.784623
 31
0.0
  0
LINE
  5
196
100
AcDbEntity
  8
M04
100
AcDbLine
 10
293.51878
 20
602.559226
 30
0.0
 11
293.51878
 21
531.784623
 31
0.0
  0
LINE
  5
197
100
AcDbEntity
  8
M01
100
AcDbLine
 10
303.51878
 20
555.559226
 30
0.0
 11
303.51878
 21
528.784623
 31
0.0
  0
LINE
  5
198
100
AcDbEntity
  8
M01
100
AcDbLine
 10
347.51878
 20
555.559226
 30
0.0
 11
347.51878
 21
528.784623
 31
0.0
  0
LINE
  5
199
100
AcDbEntity
  8
DIMS
 62
     4
100
AcDbLine
 10
590.163441
 20
493.803887
 30
0.0
 11
590.163441
 21
489.003887
 31
0.0
  0
LINE
  5
19A
100
AcDbEntity
  8
DIMS
 62
     4
100
AcDbLine
 10
590.163441
 20
500.603887
 30
0.0
 11
590.163441
 21
505.403887
 31
0.0
  0
LINE
  5
19B
100
AcDbEntity
  8
DIMS
 62
     4
100
AcDbLine
 10
586.763441
 20
497.203887
 30
0.0
 11
581.963441
 21
497.203887
 31
0.0
  0
LINE
  5
19C
100
AcDbEntity
  8
DIMS
 62
     4
100
AcDbLine
 10
593.563441
 20
497.203887
 30
0.0
 11
598.363441
 21
497.203887
 31
0.0
  0
LINE
  5
19D
100
AcDbEntity
  8
DIMS
 62
     4
100
AcDbLine
 10
590.163441
 20
498.903887
 30
0.0
 11
590.163441
 21
495.503887
 31
0.0
  0
LINE
  5
19E
100
AcDbEntity
  8
DIMS
 62
     4
100
AcDbLine
 10
591.863441
 20
497.203887
 30
0.0
 11
588.463441
 21
497.203887
 31
0.0
  0
LINE
  5
19F
100
AcDbEntity
  8
DIMS
 62
     4
100
AcDbLine
 10
660.874119
 20
564.514565
 30
0.0
 11
660.874119
 21
559.714565
 31
0.0
  0
LINE
  5
1A0
100
AcDbEntity
  8
DIMS
 62
     4
100
AcDbLine
 10
660.874119
 20
571.314565
 30
0.0
 11
660.874119
 21
576.114565
 31
0.0
  0
LINE
  5
1A1
100
AcDbEntity
  8
DIMS
 62
     4
100
AcDbLine
 10
657.474119
 20
567.914565
 30
0.0
 11
652.674119
 21
567.914565
 31
0.0
  0
LINE
  5
1A2
100
AcDbEntity
  8
DIMS
 62
     4
100
AcDbLine
 10
664.274119
 20
567.914565
 30
0.0
 11
669.074119
 21
567.914565
 31
0.0
  0
LINE
  5
1A3
100
AcDbEntity
  8
DIMS
 62
     4
100
AcDbLine
 10
660.874119
 20
569.614565
 30
0.0
 11
660.874119
 21
566.214565
 31
0.0
  0
LINE
  5
1A4
100
AcDbEntity
  8
DIMS
 62
     4
100
AcDbLine
 10
662.574119
 20
567.914565
 30
0.0
 11
659.174119
 21
567.914565
 31
0.0
  0
CIRCLE
  5
1A5
100
AcDbEntity
  8
M04
100
AcDbCircle
 10
590.163441
 20
497.203887
 30
0.0
 40
6.5
  0
CIRCLE
  5
1A6
100
AcDbEntity
  8
M04
100
AcDbCircle
 10
660.874119
 20
567.914565
 30
0.0
 40
6.5
  0
LINE
  5
1A7
100
AcDbEntity
  8
DIMS
 62
     4
100
AcDbLine
 10
860.874119
 20
493.803887
 30
0.0
 11
860.874119
 21
489.003887
 31
0.0
  0
LINE
  5
1A8
100
AcDbEntity
  8
DIMS
 62
     4
100
AcDbLine
 10
860.874119
 20
500.603887
 30
0.0
 11
860.874119
 21
505.403887
 31
0.0
  0
LINE
  5
1A9
100
AcDbEntity
  8
DIMS
 62
     4
100
AcDbLine
 10
864.274119
 20
497.203887
 30
0.0
 11
869.074119
 21
497.203887
 31
0.0
  0
LINE
  5
1AA
100
AcDbEntity
  8
DIMS
 62
     4
100
AcDbLine
 10
857.474119
 20
497.203887
 30
0.0
 11
852.674119
 21
497.203887
 31
0.0
  0
LINE
  5
1AB
100
AcDbEntity
  8
DIMS
 62
     4
100
AcDbLine
 10
860.874119
 20
498.903887
 30
0.0
 11
860.874119
 21
495.503887
 31
0.0
  0
LINE
  5
1AC
100
AcDbEntity
  8
DIMS
 62
     4
100
AcDbLine
 10
859.174119
 20
497.203887
 30
0.0
 11
862.574119
 21
497.203887
 31
0.0
  0
LINE
  5
1AD
100
AcDbEntity
  8
DIMS
 62
     4
100
AcDbLine
 10
790.163441
 20
564.514565
 30
0.0
 11
790.163441
 21
559.714565
 31
0.0
  0
LINE
  5
1AE
100
AcDbEntity
  8
DIMS
 62
     4
100
AcDbLine
 10
790.163441
 20
571.314565
 30
0.0
 11
790.163441
 21
576.114565
 31
0.0
  0
LINE
  5
1AF
100
AcDbEntity
  8
DIMS
 62
     4
100
AcDbLine
 10
793.563441
 20
567.914565
 30
0.0
 11
798.363441
 21
567.914565
 31
0.0
  0
LINE
  5
1B0
100
AcDbEntity
  8
DIMS
 62
     4
100
AcDbLine
 10
786.763441
 20
567.914565
 30
0.0
 11
781.963441
 21
567.914565
 31
0.0
  0
LINE
  5
1B1
100
AcDbEntity
  8
DIMS
 62
     4
100
AcDbLine
 10
790.163441
 20
569.614565
 30
0.0
 11
790.163441
 21
566.214565
 31
0.0
  0
LINE
  5
1B2
100
AcDbEntity
  8
DIMS
 62
     4
100
AcDbLine
 10
788.463441
 20
567.914565
 30
0.0
 11
791.863441
 21
567.914565
 31
0.0
  0
CIRCLE
  5
1B3
100
AcDbEntity
  8
M04
100
AcDbCircle
 10
860.874119
 20
497.203887
 30
0.0
 40
6.5
  0
CIRCLE
  5
1B4
100
AcDbEntity
  8
M04
100
AcDbCircle
 10
790.163441
 20
567.914565
 30
0.0
 40
6.5
  0
LINE
  5
1B5
100
AcDbEntity
  8
DIMS
 62
     4
100
AcDbLine
 10
590.163441
 20
371.314565
 30
0.0
 11
590.163441
 21
376.114565
 31
0.0
  0
LINE
  5
1B6
100
AcDbEntity
  8
DIMS
 62
     4
100
AcDbLine
 10
590.163441
 20
364.514565
 30
0.0
 11
590.163441
 21
359.714565
 31
0.0
  0
LINE
  5
1B7
100
AcDbEntity
  8
DIMS
 62
     4
100
AcDbLine
 10
586.763441
 20
367.914565
 30
0.0
 11
581.963441
 21
367.914565
 31
0.0
  0
LINE
  5
1B8
100
AcDbEntity
  8
DIMS
 62
     4
100
AcDbLine
 10
593.563441
 20
367.914565
 30
0.0
 11
598.363441
 21
367.914565
 31
0.0
  0
LINE
  5
1B9
100
AcDbEntity
  8
DIMS
 62
     4
100
AcDbLine
 10
590.163441
 20
366.214565
 30
0.0
 11
590.163441
 21
369.614565
 31
0.0
  0
LINE
  5
1BA
100
AcDbEntity
  8
DIMS
 62
     4
100
AcDbLine
 10
591.863441
 20
367.914565
 30
0.0
 11
588.463441
 21
367.914565
 31
0.0
  0
LINE
  5
1BB
100
AcDbEntity
  8
DIMS
 62
     4
100
AcDbLine
 10
660.874119
 20
300.603887
 30
0.0
 11
660.874119
 21
305.403887
 31
0.0
  0
LINE
  5
1BC
100
AcDbEntity
  8
DIMS
 62
     4
100
AcDbLine
 10
660.874119
 20
293.803887
 30
0.0
 11
660.874119
 21
289.003887
 31
0.0
  0
LINE
  5
1BD
100
AcDbEntity
  8
DIMS
 62
     4
100
AcDbLine
 10
657.474119
 20
297.203887
 30
0.0
 11
652.674119
 21
297.203887
 31
0.0
  0
LINE
  5
1BE
100
AcDbEntity
  8
DIMS
 62
     4
100
AcDbLine
 10
664.274119
 20
297.203887
 30
0.0
 11
669.074119
 21
297.203887
 31
0.0
  0
LINE
  5
1BF
100
AcDbEntity
  8
DIMS
 62
     4
100
AcDbLine
 10
660.874119
 20
295.503887
 30
0.0
 11
660.874119
 21
298.903887
 31
0.0
  0
LINE
  5
1C0
100
AcDbEntity
  8
DIMS
 62
     4
100
AcDbLine
 10
662.574119
 20
297.203887
 30
0.0
 11
659.174119
 21
297.203887
 31
0.0
  0
CIRCLE
  5
1C1
100
AcDbEntity
  8
M04
100
AcDbCircle
 10
590.163441
 20
367.914565
 30
0.0
 40
6.5
  0
CIRCLE
  5
1C2
100
AcDbEntity
  8
M04
100
AcDbCircle
 10
660.874119
 20
297.203887
 30
0.0
 40
6.5
  0
ARC
  5
1C3
100
AcDbEntity
  8
M04
100
AcDbCircle
 10
616.293383
 20
385.559226
 30
0.0
 40
5.0
100
AcDbArc
 50
315.0
 51
90.0
  0
ARC
  5
1C4
100
AcDbEntity
  8
M04
100
AcDbCircle
 10
725.51878
 20
370.333829
 30
0.0
 40
5.0
100
AcDbArc
 50
45.0
 51
135.0
  0
ARC
  5
1C5
100
AcDbEntity
  8
M04
100
AcDbCircle
 10
787.744176
 20
432.559226
 30
0.0
 40
5.0
100
AcDbArc
 50
135.0
 51
225.0
  0
ARC
  5
1C6
100
AcDbEntity
  8
M04
100
AcDbCircle
 10
762.51878
 20
531.784623
 30
0.0
 40
5.0
100
AcDbArc
 50
180.0
 51
315.0
  0
ARC
  5
1C7
100
AcDbEntity
  8
M04
100
AcDbCircle
 10
688.51878
 20
531.784623
 30
0.0
 40
5.0
100
AcDbArc
 50
225.0
 51
0.0
  0
ARC
  5
1C8
100
AcDbEntity
  8
M04
100
AcDbCircle
 10
616.293383
 20
479.559226
 30
0.0
 40
5.0
100
AcDbArc
 50
270.0
 51
45.0
  0
ARC
  5
1C9
100
AcDbEntity
  8
M01
100
AcDbCircle
 10
616.293383
 20
479.559226
 30
0.0
 40
12.0
100
AcDbArc
 50
270.0
 51
45.0
  0
ARC
  5
1CA
100
AcDbEntity
  8
M01
100
AcDbCircle
 10
616.293383
 20
385.559226
 30
0.0
 40
12.0
100
AcDbArc
 50
315.0
 51
90.0
  0
ARC
  5
1CB
100
AcDbEntity
  8
M01
100
AcDbCircle
 10
725.51878
 20
370.333829
 30
0.0
 40
12.0
100
AcDbArc
 50
45.0
 51
135.0
  0
ARC
  5
1CC
100
AcDbEntity
  8
M01
100
AcDbCircle
 10
787.744176
 20
432.559226
 30
0.0
 40
12.0
100
AcDbArc
 50
135.0
 51
225.0
  0
ARC
  5
1CD
100
AcDbEntity
  8
M01
100
AcDbCircle
 10
759.51878
 20
528.784623
 30
0.0
 40
12.0
100
AcDbArc
 50
180.0
 51
315.0
  0
ARC
  5
1CE
100
AcDbEntity
  8
M01
100
AcDbCircle
 10
691.51878
 20
528.784623
 30
0.0
 40
12.0
100
AcDbArc
 50
225.0
 51
360.0
  0
LINE
  5
1CF
100
AcDbEntity
  8
M01
100
AcDbLine
 10
634.773614
 20
296.559226
 30
0.0
 11
616.261558
 21
296.559226
 31
0.0
  0
LINE
  5
1D0
100
AcDbEntity
  8
M01
100
AcDbLine
 10
589.51878
 20
323.302005
 30
0.0
 11
589.51878
 21
341.81406
 31
0.0
  0
LINE
  5
1D1
100
AcDbEntity
  8
M01
100
AcDbLine
 10
624.778664
 20
377.073945
 30
0.0
 11
589.51878
 21
341.81406
 31
0.0
  0
LINE
  5
1D2
100
AcDbEntity
  8
M01
100
AcDbLine
 10
717.033498
 20
378.819111
 30
0.0
 11
634.773614
 21
296.559226
 31
0.0
  0
LINE
  5
1D3
100
AcDbEntity
  8
M04
100
AcDbLine
 10
721.983246
 20
373.869363
 30
0.0
 11
636.124187
 21
288.010305
 31
0.0
  0
LINE
  5
1D4
100
AcDbEntity
  8
M04
100
AcDbLine
 10
619.828917
 20
382.023692
 30
0.0
 11
580.969859
 21
343.164634
 31
0.0
  0
LINE
  5
1D5
100
AcDbEntity
  8
M01
100
AcDbLine
 10
816.263946
 20
296.559226
 30
0.0
 11
834.776001
 21
296.559226
 31
0.0
  0
LINE
  5
1D6
100
AcDbEntity
  8
M01
100
AcDbLine
 10
861.51878
 20
323.302005
 30
0.0
 11
861.51878
 21
341.81406
 31
0.0
  0
LINE
  5
1D7
100
AcDbEntity
  8
M01
100
AcDbLine
 10
779.258895
 20
424.073945
 30
0.0
 11
861.51878
 21
341.81406
 31
0.0
  0
LINE
  5
1D8
100
AcDbEntity
  8
M01
100
AcDbLine
 10
734.004061
 20
378.819111
 30
0.0
 11
816.263946
 21
296.559226
 31
0.0
  0
LINE
  5
1D9
100
AcDbEntity
  8
M04
100
AcDbLine
 10
729.054313
 20
373.869363
 30
0.0
 11
814.913372
 21
288.010305
 31
0.0
  0
LINE
  5
1DA
100
AcDbEntity
  8
M04
100
AcDbLine
 10
784.208642
 20
429.023692
 30
0.0
 11
870.067701
 21
343.164634
 31
0.0
  0
LINE
  5
1DB
100
AcDbEntity
  8
M01
100
AcDbLine
 10
634.773614
 20
568.559226
 30
0.0
 11
616.261558
 21
568.559226
 31
0.0
  0
LINE
  5
1DC
100
AcDbEntity
  8
M01
100
AcDbLine
 10
589.51878
 20
541.816448
 30
0.0
 11
589.51878
 21
523.304392
 31
0.0
  0
LINE
  5
1DD
100
AcDbEntity
  8
M01
100
AcDbLine
 10
624.778664
 20
488.044507
 30
0.0
 11
589.51878
 21
523.304392
 31
0.0
  0
LINE
  5
1DE
100
AcDbEntity
  8
M01
100
AcDbLine
 10
683.033498
 20
520.299341
 30
0.0
 11
634.773614
 21
568.559226
 31
0.0
  0
LINE
  5
1DF
100
AcDbEntity
  8
M04
100
AcDbLine
 10
684.983246
 20
528.249089
 30
0.0
 11
636.124187
 21
577.108147
 31
0.0
  0
LINE
  5
1E0
100
AcDbEntity
  8
M04
100
AcDbLine
 10
619.828917
 20
483.09476
 30
0.0
 11
580.969859
 21
521.953818
 31
0.0
  0
LINE
  5
1E1
100
AcDbEntity
  8
M01
100
AcDbLine
 10
816.263946
 20
568.559226
 30
0.0
 11
834.776001
 21
568.559226
 31
0.0
  0
LINE
  5
1E2
100
AcDbEntity
  8
M01
100
AcDbLine
 10
861.51878
 20
541.816448
 30
0.0
 11
861.51878
 21
523.304392
 31
0.0
  0
LINE
  5
1E3
100
AcDbEntity
  8
M01
100
AcDbLine
 10
779.258895
 20
441.044508
 30
0.0
 11
861.51878
 21
523.304392
 31
0.0
  0
LINE
  5
1E4
100
AcDbEntity
  8
M01
100
AcDbLine
 10
768.004061
 20
520.299341
 30
0.0
 11
816.263946
 21
568.559226
 31
0.0
  0
LINE
  5
1E5
100
AcDbEntity
  8
M04
100
AcDbLine
 10
766.054313
 20
528.249089
 30
0.0
 11
814.913372
 21
577.108147
 31
0.0
  0
LINE
  5
1E6
100
AcDbEntity
  8
M04
100
AcDbLine
 10
784.208642
 20
436.09476
 30
0.0
 11
870.067701
 21
521.953818
 31
0.0
  0
LINE
  5
1E7
100
AcDbEntity
  8
DIMS
 62
     4
100
AcDbLine
 10
860.874119
 20
371.314565
 30
0.0
 11
860.874119
 21
376.114565
 31
0.0
  0
LINE
  5
1E8
100
AcDbEntity
  8
DIMS
 62
     4
100
AcDbLine
 10
860.874119
 20
364.514565
 30
0.0
 11
860.874119
 21
359.714565
 31
0.0
  0
LINE
  5
1E9
100
AcDbEntity
  8
DIMS
 62
     4
100
AcDbLine
 10
864.274119
 20
367.914565
 30
0.0
 11
869.074119
 21
367.914565
 31
0.0
  0
LINE
  5
1EA
100
AcDbEntity
  8
DIMS
 62
     4
100
AcDbLine
 10
857.474119
 20
367.914565
 30
0.0
 11
852.674119
 21
367.914565
 31
0.0
  0
LINE
  5
1EB
100
AcDbEntity
  8
DIMS
 62
     4
100
AcDbLine
 10
860.874119
 20
366.214565
 30
0.0
 11
860.874119
 21
369.614565
 31
0.0
  0
LINE
  5
1EC
100
AcDbEntity
  8
DIMS
 62
     4
100
AcDbLine
 10
859.174119
 20
367.914565
 30
0.0
 11
862.574119
 21
367.914565
 31
0.0
  0
LINE
  5
1ED
100
AcDbEntity
  8
DIMS
 62
     4
100
AcDbLine
 10
790.163441
 20
300.603887
 30
0.0
 11
790.163441
 21
305.403887
 31
0.0
  0
LINE
  5
1EE
100
AcDbEntity
  8
DIMS
 62
     4
100
AcDbLine
 10
790.163441
 20
293.803887
 30
0.0
 11
790.163441
 21
289.003887
 31
0.0
  0
LINE
  5
1EF
100
AcDbEntity
  8
DIMS
 62
     4
100
AcDbLine
 10
793.563441
 20
297.203887
 30
0.0
 11
798.363441
 21
297.203887
 31
0.0
  0
LINE
  5
1F0
100
AcDbEntity
  8
DIMS
 62
     4
100
AcDbLine
 10
786.763441
 20
297.203887
 30
0.0
 11
781.963441
 21
297.203887
 31
0.0
  0
LINE
  5
1F1
100
AcDbEntity
  8
DIMS
 62
     4
100
AcDbLine
 10
790.163441
 20
295.503887
 30
0.0
 11
790.163441
 21
298.903887
 31
0.0
  0
LINE
  5
1F2
100
AcDbEntity
  8
DIMS
 62
     4
100
AcDbLine
 10
788.463441
 20
297.203887
 30
0.0
 11
791.863441
 21
297.203887
 31
0.0
  0
CIRCLE
  5
1F3
100
AcDbEntity
  8
M04
100
AcDbCircle
 10
860.874119
 20
367.914565
 30
0.0
 40
6.5
  0
CIRCLE
  5
1F4
100
AcDbEntity
  8
M04
100
AcDbCircle
 10
790.163441
 20
297.203887
 30
0.0
 40
6.5
  0
HATCH
  5
1F5
100
AcDbEntity
  8
DIMS
100
AcDbHatch
 10
0.0
 20
0.0
 30
0.0
210
0.0
220
0.0
230
1.0
  2
_U
 70
     0
 71
     1
 91
        1
 92
        7
 72
     0
 73
     1
 93
        4
 10
548.7437795381628
 20
159.3264594854135
 10
548.7437795381628
 20
156.3264594854135
 10
679.5240520922637
 20
156.3264594854135
 10
679.5240520922637
 20
159.3264594854136
 97
        4
330
431
330
344
330
43F
330
22A
 75
     0
 76
     0
 52
135.0
 41
0.8
 77
     0
 78
     1
 53
135.0
 43
25.0
 44
0.0
 45
-0.5656854249492382
 46
-0.565685424949238
 79
     0
 47
0.233369
 98
        1
 10
581.974651
 20
158.006238
  0
HATCH
  5
1F6
100
AcDbEntity
  8
DIMS
100
AcDbHatch
 10
0.0
 20
0.0
 30
0.0
210
0.0
220
0.0
230
1.0
  2
_U
 70
     0
 71
     1
 91
        2
 92
        7
 72
     0
 73
     1
 93
        4
 10
1027.344777265474
 20
357.5592260810632
 10
1030.344777265474
 20
357.5592260810632
 10
1030.344777265474
 20
432.5592260810631
 10
1027.344777265474
 20
432.559226081063
 97
        4
330
642
330
64E
330
626
330
648
 92
        7
 72
     0
 73
     1
 93
        4
 10
1027.344777265474
 20
432.5592260810632
 10
1030.344777265474
 20
432.5592260810631
 10
1030.344777265474
 20
555.5592260810631
 10
1027.344777265474
 20
555.5592260810631
 97
        4
330
646
330
64E
330
642
330
648
 75
     0
 76
     0
 52
135.0
 41
0.8
 77
     0
 78
     1
 53
135.0
 43
62.700104
 44
0.0
 45
-0.5656854249492382
 46
-0.565685424949238
 79
     0
 47
0.398893
 98
        2
 10
1028.427435
 20
429.642783
 10
1028.427435
 20
434.4295
  0
HATCH
  5
1F7
100
AcDbEntity
  8
DIMS
100
AcDbHatch
 10
0.0
 20
0.0
 30
0.0
210
0.0
220
0.0
230
1.0
  2
_U
 70
     0
 71
     1
 91
        1
 92
        7
 72
     0
 73
     1
 93
        4
 10
967.3447772654743
 20
314.559226081063
 10
964.344777265475
 20
314.5592260810631
 10
964.3447772654749
 20
302.2992260810632
 10
967.3447772654746
 20
302.2992260810632
 97
        4
330
519
330
649
330
647
330
651
 75
     0
 76
     0
 52
135.0
 41
0.8
 77
     0
 78
     1
 53
135.0
 43
62.700104
 44
-25.0
 45
-0.5656854249492382
 46
-0.565685424949238
 79
     0
 47
0.398893
 98
        1
 10
966.175669
 20
312.498471
  0
HATCH
  5
1F8
100
AcDbEntity
  8
DIMS
100
AcDbHatch
 10
0.0
 20
0.0
 30
0.0
210
0.0
220
0.0
230
1.0
  2
_U
 70
     0
 71
     1
 91
        2
 92
        7
 72
     0
 73
     1
 93
        4
 10
964.3447772654749
 20
350.5592260810632
 10
967.3447772654746
 20
350.5592260810633
 10
967.3447772654744
 20
432.5592260810632
 10
964.3447772654749
 20
432.5592260810632
 97
        4
330
642
330
649
330
62C
330
651
 92
        7
 72
     0
 73
     1
 93
        4
 10
967.3447772654746
 20
555.5592260810633
 10
964.3447772654743
 20
555.5592260810634
 10
964.3447772654745
 20
432.5592260810631
 10
967.3447772654744
 20
432.559226081063
 97
        4
330
645
330
649
330
642
330
651
 75
     0
 76
     0
 52
135.0
 41
0.8
 77
     0
 78
     1
 53
135.0
 43
62.700104
 44
0.0
 45
-0.5656854249492382
 46
-0.565685424949238
 79
     0
 47
0.398893
 98
        2
 10
965.77662
 20
382.1745
 10
966.175669
 20
435.227286
  0
HATCH
  5
1F9
100
AcDbEntity
  8
DIMS
100
AcDbHatch
 10
0.0
 20
0.0
 30
0.0
210
0.0
220
0.0
230
1.0
  2
_U
 70
     0
 71
     1
 91
        1
 92
        7
 72
     0
 73
     1
 93
        4
 10
207.5187795381627
 20
156.3264594854135
 10
207.5187795381628
 20
159.3264594854136
 10
194.1687795381628
 20
159.3264594854135
 10
194.1687795381628
 20
156.3264594854135
 97
        4
330
435
330
437
330
43F
330
350
 75
     0
 76
     0
 52
135.0
 41
0.8
 77
     0
 78
     1
 53
135.0
 43
-75.0
 44
0.0
 45
-0.5656854249492382
 46
-0.565685424949238
 79
     0
 47
0.322883
 98
        1
 10
204.956154
 20
157.227324
  0
HATCH
  5
1FA
100
AcDbEntity
  8
DIMS
100
AcDbHatch
 10
0.0
 20
0.0
 30
0.0
210
0.0
220
0.0
230
1.0
  2
_U
 70
     0
 71
     1
 91
        2
 92
        7
 72
     0
 73
     1
 93
        4
 10
325.5187795381627
 20
159.3264594854135
 10
325.5187795381627
 20
156.3264594854135
 10
502.2937795381628
 20
156.3264594854135
 10
502.2937795381627
 20
159.3264594854135
 97
        4
330
435
330
349
330
43F
330
323
 92
        7
 72
     0
 73
     1
 93
        4
 10
243.5187795381628
 20
156.3264594854135
 10
325.5187795381627
 20
156.3264594854135
 10
325.5187795381627
 20
159.3264594854135
 10
243.5187795381628
 20
159.3264594854135
 97
        4
330
435
330
34F
330
43F
330
349
 75
     0
 76
     0
 52
135.0
 41
0.8
 77
     0
 78
     1
 53
135.0
 43
0.0
 44
0.0
 45
-0.5656854249492382
 46
-0.565685424949238
 79
     0
 47
0.322883
 98
        2
 10
380.735346
 20
157.873092
 10
372.33708
 20
157.550208
  0
HATCH
  5
1FB
100
AcDbEntity
  8
DIMS
100
AcDbHatch
 10
0.0
 20
0.0
 30
0.0
210
0.0
220
0.0
230
1.0
  2
_U
 70
     0
 71
     1
 91
        2
 92
        7
 72
     0
 73
     1
 93
        4
 10
325.5187795381628
 20
96.32645948541361
 10
325.5187795381629
 20
93.3264594854136
 10
490.5187795381626
 20
93.32645948541358
 10
490.5187795381625
 20
96.32645948541362
 97
        4
330
43E
330
349
330
3CB
330
402
 92
        7
 72
     0
 73
     1
 93
        4
 10
250.5187795381627
 20
96.32645948541359
 10
250.5187795381627
 20
93.32645948541358
 10
325.5187795381627
 20
93.32645948541358
 10
325.5187795381627
 20
96.32645948541361
 97
        4
330
43E
330
3F7
330
3CB
330
349
 75
     0
 76
     0
 52
135.0
 41
0.8
 77
     0
 78
     1
 53
135.0
 43
-50.0
 44
0.0
 45
-0.5656854249492382
 46
-0.565685424949238
 79
     0
 47
0.322883
 98
        2
 10
390.815252
 20
94.910825
 10
292.94315
 20
94.910825
  0
HATCH
  5
1FC
100
AcDbEntity
  8
DIMS
100
AcDbHatch
 10
0.0
 20
0.0
 30
0.0
210
0.0
220
0.0
230
1.0
  2
_U
 70
     0
 71
     1
 91
        1
 92
        7
 72
     0
 73
     1
 93
        4
 10
560.518779538163
 20
96.32645948541364
 10
560.5187795381628
 20
93.32645948541355
 10
773.7441762825787
 20
93.3264594854136
 10
773.7441762825789
 20
96.32645948541352
 97
        4
330
424
330
31F
330
433
330
3AF
 75
     0
 76
     0
 52
135.0
 41
0.8
 77
     0
 78
     1
 53
135.0
 43
50.0
 44
0.0
 45
-0.5656854249492382
 46
-0.565685424949238
 79
     0
 47
0.348279
 98
        1
 10
691.063815
 20
95.497093
  0
HATCH
  5
1FD
100
AcDbEntity
  8
DIMS
100
AcDbHatch
 10
0.0
 20
0.0
 30
0.0
210
0.0
220
0.0
230
1.0
  2
_U
 70
     0
 71
     1
 91
        1
 92
        7
 72
     0
 73
     1
 93
        4
 10
695.5240520922634
 20
159.3264594854135
 10
695.5240520922635
 20
156.3264594854136
 10
773.7441762825787
 20
156.3264594854136
 10
773.7441762825787
 20
159.3264594854135
 97
        4
330
202
330
22B
330
200
330
436
 75
     0
 76
     0
 52
135.0
 41
0.8
 77
     0
 78
     1
 53
135.0
 43
50.0
 44
0.0
 45
-0.5656854249492382
 46
-0.565685424949238
 79
     0
 47
0.348279
 98
        1
 10
708.484591
 20
157.83899
  0
HATCH
  5
1FE
100
AcDbEntity
  8
DIMS
100
AcDbHatch
 10
0.0
 20
0.0
 30
0.0
210
0.0
220
0.0
230
1.0
  2
_U
 70
     0
 71
     1
 91
        4
 92
        7
 72
     1
 73
     1
 93
       11
 10
525.5187795381629
 20
127.3264594854133
 42
0.0
 10
525.5187795381629
 20
151.3264594854136
 42
0.0
 10
517.0187795381629
 20
151.3264594854135
 42
0.0
 10
516.0187795381629
 20
151.3264594854135
 42
0.0
 10
516.0187795381629
 20
152.3264594854135
 42
0.0
 10
516.0187795381629
 20
155.6264594854136
 42
0.0
 10
515.3187795381628
 20
156.3264594854135
 42
0.0
 10
325.5187795381627
 20
156.3264594854135
 42
0.0
 10
325.5187795381627
 20
144.8264594854134
 42
-0.4142135623730951
 10
329.5187795381627
 20
140.8264594854134
 42
0.0
 10
329.5187795381628
 20
127.3264594854133
 42
0.0
 97
       11
330
365
330
35F
330
360
330
320
330
367
330
43F
330
349
330
247
330
34C
330
35A
330
441
 92
        7
 72
     1
 73
     1
 93
       46
 10
535.0187795381629
 20
151.3264594854135
 42
0.0
 10
534.0187795381629
 20
151.3264594854135
 42
0.0
 10
525.5187795381628
 20
151.3264594854135
 42
0.0
 10
525.5187795381628
 20
127.3264594854133
 42
0.0
 10
721.5187795381628
 20
127.3264594854133
 42
0.0
 10
721.5187795381628
 20
140.8264594854134
 42
-1.0
 10
729.5187795381628
 20
140.8264594854134
 42
0.0
 10
729.5187795381628
 20
123.3264594854133
 42
-0.4142135623730951
 10
725.5187795381628
 20
119.3264594854133
 42
0.0
 10
529.5187795381628
 20
119.3264594854133
 42
0.0
 10
529.5187795381628
 20
106.3264594854133
 42
0.0
 10
534.5187795381626
 20
106.3264594854133
 42
0.0
 10
535.5187795381625
 20
106.3264594854133
 42
0.0
 10
535.5187795381627
 20
105.3264594854133
 42
0.0
 10
535.5187795381627
 20
96.82645948541328
 42
0.0
 10
536.0187795381627
 20
96.32645948541366
 42
0.0
 10
548.5187795381627
 20
96.32645948541364
 42
0.0
 10
548.5187795381627
 20
103.6264594854135
 42
0.0
 10
548.5187795381627
 20
106.1264594854134
 42
0.0
 10
549.2187795381629
 20
106.1264594854134
 42
0.0
 10
549.2187795381628
 20
107.6264594854134
 42
0.0
 10
551.5187795381628
 20
108.9543651045495
 42
0.0
 10
553.8187795381627
 20
107.6264594854133
 42
0.0
 10
553.8187795381627
 20
106.1264594854134
 42
0.0
 10
554.5187795381628
 20
106.1264594854134
 42
0.0
 10
554.5187795381628
 20
103.6264594854136
 42
0.0
 10
554.5187795381628
 20
96.32645948541362
 42
0.0
 10
762.7441762825789
 20
96.32645948541352
 42
0.0
 10
762.744176282579
 20
100.3264594854135
 42
-1.0
 10
770.744176282579
 20
100.3264594854134
 42
0.0
 10
770.7441762825791
 20
96.32645948541352
 42
0.0
 10
773.7441762825789
 20
96.32645948541352
 42
0.0
 10
775.7441762825789
 20
98.32645948541347
 42
0.0
 10
775.744176282579
 20
154.3264594854136
 42
0.0
 10
773.7441762825787
 20
156.3264594854135
 42
0.0
 10
770.744176282579
 20
156.3264594854135
 42
0.0
 10
770.744176282579
 20
152.3264594854136
 42
-1.0
 10
762.744176282579
 20
152.3264594854136
 42
0.0
 10
762.7441762825789
 20
156.3264594854135
 42
0.0
 10
695.5240520922635
 20
156.3264594854136
 42
0.0
 10
695.5240520922634
 20
150.3264594854135
 42
0.0
 10
679.5240520922635
 20
150.3264594854135
 42
0.0
 10
679.5240520922635
 20
156.3264594854135
 42
0.0
 10
535.718779538163
 20
156.3264594854135
 42
0.0
 10
535.0187795381629
 20
155.6264594854134
 42
0.0
 10
535.0187795381629
 20
152.3264594854135
 42
0.0
 97
       43
330
35D
330
35E
330
35B
330
40E
330
42D
330
42A
330
429
330
42F
330
41F
330
403
330
3C6
330
3B0
330
3BC
330
3B1
330
3BA
330
3B9
330
3B3
330
3B2
330
3C7
330
3AF
330
389
330
38B
330
38A
330
438
330
43C
330
439
330
200
330
393
330
394
330
392
330
22D
330
22C
330
22E
330
43F
330
368
330
321
330
362
330
361
330
365
330
441
330
35A
330
35C
330
23E
 92
        7
 72
     0
 73
     1
 93
       20
 10
325.5187795381627
 20
119.3264594854133
 10
325.5187795381627
 20
96.32645948541359
 10
496.5187795381628
 20
96.32645948541364
 10
496.5187795381628
 20
103.6264594854135
 10
496.5187795381628
 20
106.1264594854134
 10
497.2187795381628
 20
106.1264594854134
 10
497.2187795381628
 20
107.6264594854134
 10
499.5187795381628
 20
108.9543651045495
 10
501.8187795381627
 20
107.6264594854134
 10
501.8187795381627
 20
106.1264594854134
 10
502.5187795381628
 20
106.1264594854134
 10
502.5187795381627
 20
103.6264594854136
 10
502.5187795381627
 20
96.32645948541366
 10
515.0187795381628
 20
96.32645948541364
 10
515.5187795381627
 20
96.8264594854132
 10
515.5187795381627
 20
105.3264594854134
 10
515.518779538163
 20
106.3264594854134
 10
516.5187795381629
 20
106.3264594854134
 10
521.5187795381628
 20
106.3264594854134
 10
521.5187795381628
 20
119.3264594854133
 97
       18
330
34B
330
349
330
43E
330
3AC
330
397
330
3A1
330
398
330
39E
330
39F
330
396
330
395
330
3AB
330
41E
330
42E
330
427
330
428
330
42D
330
40A
 92
       24
 93
        4
 72
     1
 10
720.377306
 20
105.698025
 11
734.491591
 21
105.698025
 72
     1
 10
734.491591
 20
105.698025
 11
734.491591
 21
108.698025
 72
     1
 10
734.491591
 20
108.698025
 11
720.377306
 21
108.698025
 72
     1
 10
720.377306
 20
108.698025
 11
720.377306
 21
105.698025
 97
        1
330
23C
 75
     0
 76
     0
 52
45.0
 41
6.0
 77
     0
 78
     1
 53
45.0
 43
0.0
 44
0.0
 45
-4.242640687119284
 46
4.242640687119285
 79
     0
 47
0.348279
 98
        3
 10
494.032458
 20
137.638823
 10
543.855881
 20
141.469889
 10
457.448827
 20
111.866195
  0
HATCH
  5
1FF
100
AcDbEntity
  8
DIMS
100
AcDbHatch
 10
0.0
 20
0.0
 30
0.0
210
0.0
220
0.0
230
1.0
  2
_U
 70
     0
 71
     1
 91
        1
 92
        7
 72
     1
 73
     1
 93
       10
 10
1027.344777265474
 20
555.5592260810631
 42
0.0
 10
1025.344777265474
 20
557.5592260810631
 42
0.0
 10
969.3447772654742
 20
557.5592260810631
 42
0.0
 10
967.3447772654748
 20
555.5592260810633
 42
0.0
 10
967.3447772654746
 20
432.5592260810631
 42
0.0
 10
978.8447772654743
 20
432.5592260810631
 42
-0.4142135623731034
 10
982.8447772654742
 20
436.5592260810632
 42
0.0
 10
1000.344777265474
 20
436.5592260810631
 42
-0.4142135623730909
 10
1004.344777265474
 20
432.5592260810632
 42
0.0
 10
1027.344777265474
 20
432.5592260810632
 42
0.0
 97
        9
330
64B
330
650
330
64C
330
651
330
642
330
24D
330
640
330
24B
330
64E
 75
     0
 76
     0
 52
45.0
 41
6.0
 77
     0
 78
     1
 53
45.0
 43
62.700104
 44
0.0
 45
-4.242640687119284
 46
4.242640687119285
 79
     0
 47
0.246375
 98
        1
 10
1003.091508
 20
517.907485
  0
LINE
  5
200
102
{ACAD_REACTORS
330
1FE
330
1FD
102
}
100
AcDbEntity
  8
M01
100
AcDbLine
 10
691.524052
 20
156.326459
 30
0.0
 11
773.744176
 21
156.326459
 31
0.0
  0
LINE
  5
201
100
AcDbEntity
  8
M04
100
AcDbLine
 10
691.524052
 20
163.326459
 30
0.0
 11
782.744176
 21
163.326459
 31
0.0
  0
LINE
  5
202
102
{ACAD_REACTORS
330
1FD
102
}
100
AcDbEntity
  8
M02
100
AcDbLine
 10
691.524052
 20
159.326459
 30
0.0
 11
773.744176
 21
159.326459
 31
0.0
  0
DIMENSION
  5
204
100
AcDbEntity
  8
DIMS
100
AcDbDimension
  2
*D8
 10
683.524052
 20
191.002624
 30
0.0
 11
615.738338
 21
194.002624
 31
0.0
 12
50.0
 22
0.0
 32
0.0
  1
%%c<> H7
  3
DIM1
100
AcDbAlignedDimension
 13
691.524052
 23
176.326459
 33
0.0
 14
683.524052
 24
176.326459
 34
0.0
100
AcDbRotatedDimension
1001
ACAD
1000
DSTYLE
1002
{
1070
   144
1040
1.0
1002
}
  0
LINE
  5
212
100
AcDbEntity
  8
M04
100
AcDbLine
 10
687.524052
 20
178.635861
 30
0.0
 11
691.524052
 21
176.326459
 31
0.0
  0
LINE
  5
213
100
AcDbEntity
  8
M04
100
AcDbLine
 10
683.524052
 20
176.326459
 30
0.0
 11
687.524052
 21
178.635861
 31
0.0
  0
LINE
  5
214
100
AcDbEntity
  8
M04
100
AcDbLine
 10
683.524052
 20
173.326459
 30
0.0
 11
683.524052
 21
176.326459
 31
0.0
  0
LINE
  5
215
100
AcDbEntity
  8
M04
100
AcDbLine
 10
691.524052
 20
176.326459
 30
0.0
 11
683.524052
 21
176.326459
 31
0.0
  0
LINE
  5
216
100
AcDbEntity
  8
M04
100
AcDbLine
 10
691.524052
 20
173.326459
 30
0.0
 11
691.524052
 21
176.326459
 31
0.0
  0
ARC
  5
217
100
AcDbEntity
  8
M05
100
AcDbCircle
 10
687.524052
 20
163.988755
 30
0.0
 40
10.837705
100
AcDbArc
 50
71.372238
 51
108.627762
  0
LINE
  5
219
100
AcDbEntity
  8
M05
100
AcDbLine
 10
683.524052
 20
173.326459
 30
0.0
 11
684.062289
 21
174.258713
 31
0.0
  0
LINE
  5
21A
100
AcDbEntity
  8
M05
100
AcDbLine
 10
690.985815
 20
174.258713
 30
0.0
 11
684.062289
 21
174.258713
 31
0.0
  0
LINE
  5
21B
100
AcDbEntity
  8
M05
100
AcDbLine
 10
691.524052
 20
173.326459
 30
0.0
 11
690.985815
 21
174.258713
 31
0.0
  0
LINE
  5
21C
100
AcDbEntity
  8
M05
100
AcDbLine
 10
691.524052
 20
173.326459
 30
0.0
 11
683.524052
 21
173.326459
 31
0.0
  0
LINE
  5
21D
100
AcDbEntity
  8
M04
100
AcDbLine
 10
683.524052
 20
163.826459
 30
0.0
 11
683.024052
 21
163.326459
 31
0.0
  0
LINE
  5
21E
100
AcDbEntity
  8
M04
100
AcDbLine
 10
691.524052
 20
163.826459
 30
0.0
 11
692.024052
 21
163.326459
 31
0.0
  0
ARC
  5
21F
100
AcDbEntity
  8
M05
100
AcDbCircle
 10
687.524052
 20
164.459793
 30
0.0
 40
13.633333
100
AcDbArc
 50
252.938469
 51
287.061531
  0
LINE
  5
220
100
AcDbEntity
  8
M05
100
AcDbLine
 10
691.524052
 20
151.426459
 30
0.0
 11
683.524052
 21
151.426459
 31
0.0
  0
LINE
  5
221
100
AcDbEntity
  8
M05
100
AcDbLine
 10
683.524052
 20
173.326459
 30
0.0
 11
683.524052
 21
151.426459
 31
0.0
  0
LINE
  5
222
100
AcDbEntity
  8
M05
100
AcDbLine
 10
691.524052
 20
173.326459
 30
0.0
 11
691.524052
 21
151.426459
 31
0.0
  0
LINE
  5
223
100
AcDbEntity
  8
CENTRE
100
AcDbLine
 10
687.524052
 20
183.672577
 30
0.0
 11
687.524052
 21
145.582878
 31
0.0
  0
LINE
  5
224
100
AcDbEntity
  8
DIMS
 62
     4
100
AcDbLine
 10
1000.344777
 20
435.959226
 30
0.0
 11
1000.344777
 21
438.259226
 31
0.0
  0
LINE
  5
225
100
AcDbEntity
  8
DIMS
 62
     4
100
AcDbLine
 10
1000.344777
 20
429.159226
 30
0.0
 11
1000.344777
 21
426.859226
 31
0.0
  0
LINE
  5
226
100
AcDbEntity
  8
DIMS
 62
     4
100
AcDbLine
 10
1000.344777
 20
430.859226
 30
0.0
 11
1000.344777
 21
434.259226
 31
0.0
  0
LINE
  5
227
100
AcDbEntity
  8
DIMS
 62
     4
100
AcDbLine
 10
728.91878
 20
140.826459
 30
0.0
 11
731.21878
 21
140.826459
 31
0.0
  0
LINE
  5
228
100
AcDbEntity
  8
DIMS
 62
     4
100
AcDbLine
 10
722.11878
 20
140.826459
 30
0.0
 11
719.81878
 21
140.826459
 31
0.0
  0
LINE
  5
229
100
AcDbEntity
  8
DIMS
 62
     4
100
AcDbLine
 10
723.81878
 20
140.826459
 30
0.0
 11
727.21878
 21
140.826459
 31
0.0
  0
LINE
  5
22A
102
{ACAD_REACTORS
330
1F5
102
}
100
AcDbEntity
  8
M02
100
AcDbLine
 10
679.524052
 20
156.326459
 30
0.0
 11
679.524052
 21
159.326459
 31
0.0
  0
LINE
  5
22B
102
{ACAD_REACTORS
330
1FD
102
}
100
AcDbEntity
  8
M02
100
AcDbLine
 10
695.524052
 20
156.326459
 30
0.0
 11
695.524052
 21
159.326459
 31
0.0
  0
LINE
  5
22C
102
{ACAD_REACTORS
330
1FE
102
}
100
AcDbEntity
  8
M01
100
AcDbLine
 10
679.524052
 20
150.326459
 30
0.0
 11
695.524052
 21
150.326459
 31
0.0
  0
LINE
  5
22D
102
{ACAD_REACTORS
330
1FE
102
}
100
AcDbEntity
  8
M01
100
AcDbLine
 10
695.524052
 20
156.326459
 30
0.0
 11
695.524052
 21
150.326459
 31
0.0
  0
LINE
  5
22E
102
{ACAD_REACTORS
330
1FE
102
}
100
AcDbEntity
  8
M01
100
AcDbLine
 10
679.524052
 20
156.326459
 30
0.0
 11
679.524052
 21
150.326459
 31
0.0
  0
ARC
  5
22F
100
AcDbEntity
  8
M01
100
AcDbCircle
 10
691.514052
 20
432.559226
 30
0.0
 40
4.0
100
AcDbArc
 50
270.0
 51
90.0
  0
LINE
  5
230
100
AcDbEntity
  8
DIMS
 62
     4
100
AcDbLine
 10
687.514052
 20
429.159226
 30
0.0
 11
687.514052
 21
426.859226
 31
0.0
  0
LINE
  5
231
100
AcDbEntity
  8
DIMS
 62
     4
100
AcDbLine
 10
687.514052
 20
435.959226
 30
0.0
 11
687.514052
 21
438.259226
 31
0.0
  0
LINE
  5
232
100
AcDbEntity
  8
DIMS
 62
     4
100
AcDbLine
 10
687.514052
 20
434.259226
 30
0.0
 11
687.514052
 21
430.859226
 31
0.0
  0
LWPOLYLINE
  5
233
100
AcDbEntity
  8
M01
100
AcDbPolyline
 90
        2
 70
     0
 43
4.0
 10
687.514052
 20
434.559226
 42
0.414214
 10
685.514052
 20
432.559226
  0
LWPOLYLINE
  5
234
100
AcDbEntity
  8
M01
100
AcDbPolyline
 90
        2
 70
     0
 43
4.0
 10
687.514052
 20
430.559226
 42
0.414214
 10
689.514052
 20
432.559226
  0
CIRCLE
  5
235
100
AcDbEntity
  8
M01
100
AcDbCircle
 10
687.514052
 20
432.559226
 30
0.0
 40
4.0
  0
LINE
  5
236
100
AcDbEntity
  8
M01
100
AcDbLine
 10
683.514052
 20
428.559226
 30
0.0
 11
691.514052
 21
428.559226
 31
0.0
  0
LINE
  5
237
100
AcDbEntity
  8
M01
100
AcDbLine
 10
683.514052
 20
436.559226
 30
0.0
 11
691.514052
 21
436.559226
 31
0.0
  0
ARC
  5
238
100
AcDbEntity
  8
M01
100
AcDbCircle
 10
683.514052
 20
432.559226
 30
0.0
 40
4.0
100
AcDbArc
 50
90.0
 51
270.0
  0
WIPEOUT
  5
239
100
AcDbEntity
  8
TEXT
 92
      140
310
8C00000001000000840000000600000005000000525F62E7DB008F40A0214A06F49B7340000000000000000009CD3D9E49748F409F214A06F49B7340000000000000000009CD3D9E49748F409F214A06F4DB73400000000000000000525F62E7DB008F409F214A06F4DB73400000000000000000525F62E7DB008F40A0214A
310
06F49B73400000000000000000
100
AcDbWipeout
 90
        0
 10
992.107375
 20
313.747076
 30
0.0
 11
22.357143
 21
0.0
 31
0.0
 12
0.0
 22
22.357143
 32
0.0
 13
0.0
 23
0.0
340
0
 70
     7
280
     1
281
    50
282
    50
283
     0
360
0
 71
     2
 91
        5
 14
-0.5
 24
0.5
 14
0.145367
 24
0.5
 14
0.145367
 24
0.321086
 14
-0.5
 24
0.321086
 14
-0.5
 24
0.5
  0
TEXT
  5
23A
100
AcDbEntity
  8
TEXT
100
AcDbText
 10
993.107375
 20
314.747076
 30
0.0
 40
2.0
  1
MM010136
 41
0.9
100
AcDbText
  0
WIPEOUT
  5
23B
100
AcDbEntity
  8
TEXT
 92
      140
310
8C00000001000000840000000600000005000000BB3CE0B8047F8640AD3E9D6FAC4C5A40000000000000000072AABB6F72F28640AC3E9D6FAC4C5A40000000000000000072AABB6F72F28640AB3E9D6FAC4C5B400000000000000000BB3CE0B8047F8640AC3E9D6FAC4C5B400000000000000000BB3CE0B8047F8640AD3E9D
310
6FAC4C5A400000000000000000
100
AcDbWipeout
 90
        0
 10
693.198734
 20
68.090882
 30
0.0
 11
41.107143
 21
0.0
 31
0.0
 12
0.0
 22
41.107143
 32
0.0
 13
0.0
 23
0.0
340
0
 70
     7
280
     1
281
    50
282
    50
283
     0
360
0
 71
     2
 91
        5
 14
0.149001
 24
-0.402693
 14
0.5
 24
-0.402693
 14
0.5
 24
-0.5
 14
0.149001
 24
-0.5
 14
0.149001
 24
-0.402693
  0
TEXT
  5
23C
102
{ACAD_REACTORS
330
1FE
102
}
100
AcDbEntity
  8
TEXT
100
AcDbText
 10
720.877306
 20
106.198025
 30
0.0
 40
2.0
  1
MM010136
 41
0.9
100
AcDbText
  0
HATCH
  5
23D
100
AcDbEntity
  8
HATCH
100
AcDbHatch
 10
0.0
 20
0.0
 30
0.0
210
0.0
220
0.0
230
1.0
  2
_U
 70
     0
 71
     0
 91
       10
 92
       23
 72
     0
 73
     1
 93
        4
 10
978.8447772654743
 20
432.5592260810631
 10
967.3447772654746
 20
432.5592260810632
 10
967.3447772654744
 20
336.5592260810632
 10
978.8447772654739
 20
336.5592260810632
 97
        0
 92
        7
 72
     1
 73
     1
 93
       27
 10
986.8447772654743
 20
332.5592260810632
 42
-0.4142135623730951
 10
982.8447772654742
 20
328.5592260810632
 42
0.0
 10
967.3447772654743
 20
328.5592260810632
 42
0.0
 10
967.3447772654743
 20
313.5592260810633
 42
0.0
 10
971.3447772654742
 20
313.5592260810632
 42
-0.4142135623730868
 10
975.3447772654741
 20
309.5592260810632
 42
-0.4142135623730951
 10
971.3447772654742
 20
305.5592260810632
 42
0.0
 10
967.3447772654744
 20
305.5592260810632
 42
0.0
 10
967.3447772654743
 20
302.2992260810632
 42
0.0
 10
969.3447772654744
 20
300.2992260810632
 42
0.0
 10
1025.344777265474
 20
300.2992260810632
 42
0.0
 10
1027.344777265474
 20
302.2992260810632
 42
0.0
 10
1027.344777265474
 20
305.5592260810632
 42
0.0
 10
1023.344777265474
 20
305.5592260810632
 42
-0.4142135623730951
 10
1019.344777265474
 20
309.5592260810632
 42
-0.4142135623730951
 10
1023.344777265474
 20
313.5592260810632
 42
0.0
 10
1027.344777265474
 20
313.5592260810632
 42
0.0
 10
1027.344777265474
 20
318.5592260810632
 42
0.0
 10
1027.044777265474
 20
318.5592260810632
 42
0.0
 10
1026.344777265474
 20
319.2592260810629
 42
0.0
 10
1026.344777265474
 20
355.8592260810633
 42
0.0
 10
1027.044777265474
 20
356.5592260810632
 42
0.0
 10
1027.344777265474
 20
356.5592260810633
 42
0.0
 10
1027.344777265474
 20
432.5592260810631
 42
0.0
 10
1004.344777265474
 20
432.5592260810631
 42
-0.4142135623730909
 10
1000.344777265474
 20
428.5592260810632
 42
0.0
 10
986.8447772654743
 20
428.5592260810632
 42
0.0
 97
        0
 92
       22
 72
     0
 73
     1
 93
        4
 10
1026.344777265474
 20
341.4181080685202
 10
1027.044777265474
 20
340.7181080685203
 10
1027.044777265474
 20
356.5592260810632
 10
1026.344777265474
 20
355.8592260810632
 97
        0
 92
       22
 72
     0
 73
     1
 93
        4
 10
1027.344777265474
 20
356.5592260810632
 10
1027.044777265474
 20
356.5592260810632
 10
1027.044777265474
 20
340.7181080685201
 10
1027.344777265474
 20
340.4181080685201
 97
        0
 92
       22
 72
     0
 73
     1
 93
        4
 10
1026.344777265474
 20
332.5592260810632
 10
1027.044777265474
 20
332.5592260810632
 10
1027.044777265474
 20
340.7181080685202
 10
1026.344777265474
 20
341.4181080685203
 97
        0
 92
       23
 72
     0
 73
     1
 93
        4
 10
1027.344777265474
 20
340.4181080685202
 10
1027.044777265474
 20
340.7181080685202
 10
1027.044777265474
 20
332.5592260810632
 10
1027.344777265474
 20
332.5592260810631
 97
        0
 92
       23
 72
     0
 73
     1
 93
        4
 10
1027.044777265474
 20
332.5592260810632
 10
1026.344777265474
 20
332.5592260810632
 10
1026.344777265474
 20
323.700344093606
 10
1027.044777265474
 20
324.4003440936062
 97
        0
 92
       23
 72
     0
 73
     1
 93
        4
 10
1027.044777265474
 20
324.4003440936063
 10
1027.344777265474
 20
324.7003440936061
 10
1027.344777265474
 20
332.5592260810631
 10
1027.044777265474
 20
332.5592260810631
 97
        0
 92
       22
 72
     0
 73
     1
 93
        4
 10
1026.344777265474
 20
319.2592260810633
 10
1027.044777265474
 20
318.5592260810631
 10
1027.044777265474
 20
324.4003440936062
 10
1026.344777265474
 20
323.7003440936061
 97
        0
 92
       23
 72
     0
 73
     1
 93
        4
 10
1027.344777265474
 20
324.7003440936062
 10
1027.044777265474
 20
324.4003440936062
 10
1027.044777265474
 20
318.5592260810632
 10
1027.344777265474
 20
318.5592260810632
 97
        0
 75
     0
 76
     0
 52
135.0
 41
6.0
 77
     0
 78
     1
 53
135.0
 43
62.700104
 44
-25.0
 45
-4.242640687119285
 46
-4.242640687119284
 79
     0
 47
0.056741
 98
       10
 10
975.425833
 20
388.802248
 10
999.426438
 20
381.152885
 10
1026.602794
 20
343.333338
 10
1027.283952
 20
343.44682
 10
1026.659557
 20
339.531694
 10
1027.283952
 20
339.701917
 10
1026.773084
 20
327.95654
 10
1027.170425
 20
328.126764
 10
1026.659557
 20
321.374589
 10
1027.283952
 20
321.885259
  0
CIRCLE
  5
23E
102
{ACAD_REACTORS
330
1FE
102
}
100
AcDbEntity
  8
M01
100
AcDbCircle
 10
725.51878
 20
140.826459
 30
0.0
 40
4.0
  0
INSERT
  5
23F
100
AcDbEntity
  8
DIMS
100
AcDbBlockReference
  2
ARROW1
 10
858.503974
 20
457.461469
 30
0.0
 41
10.0
 42
10.0
 43
10.0
 50
90.0
  0
LINE
  5
246
100
AcDbEntity
  8
DIMS
100
AcDbLine
 10
858.503974
 20
457.461469
 30
0.0
 11
858.503974
 21
432.559226
 31
0.0
  0
ARC
  5
247
102
{ACAD_REACTORS
330
1FE
102
}
100
AcDbEntity
  8
M01
100
AcDbCircle
 10
325.51878
 20
140.826459
 30
0.0
 40
4.0
100
AcDbArc
 50
0.0
 51
90.0
  0
LINE
  5
248
100
AcDbEntity
  8
CENTRE
100
AcDbLine
 10
1019.04695
 20
332.559226
 30
0.0
 11
1056.088045
 21
332.559226
 31
0.0
  0
LINE
  5
249
100
AcDbEntity
  8
DIMS
100
AcDbLine
 10
172.936784
 20
610.043464
 30
0.0
 11
172.936784
 21
585.141221
 31
0.0
  0
INSERT
  5
24A
100
AcDbEntity
  8
DIMS
100
AcDbBlockReference
  2
ARROW1
 10
172.936784
 20
610.043464
 30
0.0
 41
10.0
 42
10.0
 43
10.0
 50
90.0
  0
CIRCLE
  5
24B
102
{ACAD_REACTORS
330
1FF
102
}
100
AcDbEntity
  8
M01
100
AcDbCircle
 10
1000.344777
 20
432.559226
 30
0.0
 40
4.0
  0
LINE
  5
24C
100
AcDbEntity
  8
M01
100
AcDbLine
 10
982.844777
 20
432.559226
 30
0.0
 11
986.844777
 21
428.559226
 31
0.0
  0
ARC
  5
24D
102
{ACAD_REACTORS
330
1FF
102
}
100
AcDbEntity
  8
M01
100
AcDbCircle
 10
982.844777
 20
432.559226
 30
0.0
 40
4.0
100
AcDbArc
 50
90.0
 51
180.0
  0
LINE
  5
24E
100
AcDbEntity
  8
M01
100
AcDbLine
 10
978.844777
 20
336.559226
 30
0.0
 11
982.844777
 21
332.559226
 31
0.0
  0
ARC
  5
24F
100
AcDbEntity
  8
M01
100
AcDbCircle
 10
982.844777
 20
332.559226
 30
0.0
 40
4.0
100
AcDbArc
 50
270.0
 51
0.0
  0
LINE
  5
250
100
AcDbEntity
  8
CENTRE
100
AcDbLine
 10
982.844777
 20
440.559226
 30
0.0
 11
982.844777
 21
324.559226
 31
0.0
  0
LINE
  5
251
100
AcDbEntity
  8
M01
100
AcDbLine
 10
986.844777
 20
428.559226
 30
0.0
 11
986.844777
 21
332.559226
 31
0.0
  0
LINE
  5
252
100
AcDbEntity
  8
M01
100
AcDbLine
 10
978.844777
 20
432.559226
 30
0.0
 11
978.844777
 21
336.559226
 31
0.0
  0
DIMENSION
  5
253
100
AcDbEntity
  8
DIMS
100
AcDbDimension
  2
*D7
 10
571.285879
 20
181.726459
 30
0.0
 11
571.285879
 21
171.027876
 31
0.0
 70
   128
  3
DIM1
100
AcDbAlignedDimension
 13
548.74378
 23
156.326459
 33
0.0
 14
547.74378
 24
181.726459
 34
0.0
 50
270.0
100
AcDbRotatedDimension
1001
ACAD
1000
DSTYLE
1002
{
1070
   288
1070
     1
1070
   144
1040
1.0
1002
}
  0
DIMENSION
  5
260
100
AcDbEntity
  8
DIMS
100
AcDbDimension
  2
*D6
 10
548.74378
 20
213.474272
 30
0.0
 11
526.824232
 21
213.474272
 31
0.0
 70
   128
  1
%%c46.5
  3
DIM1
100
AcDbAlignedDimension
 13
502.29378
 23
176.149109
 33
0.0
 14
548.74378
 24
176.149109
 34
0.0
100
AcDbRotatedDimension
1001
ACAD
1000
DSTYLE
1002
{
1070
   288
1070
     1
1070
   144
1040
1.0
1002
}
  0
DIMENSION
  5
26D
100
AcDbEntity
  8
DIMS
100
AcDbDimension
  2
*D5
 10
503.29378
 20
203.433041
 30
0.0
 11
526.483991
 21
203.433041
 31
0.0
 70
   128
  1
%%c<> H7
  3
DIM1
100
AcDbAlignedDimension
 13
547.74378
 23
181.726459
 33
0.0
 14
503.29378
 24
181.726459
 34
0.0
100
AcDbRotatedDimension
1001
ACAD
1000
DSTYLE
1002
{
1070
   288
1070
     1
1070
   144
1040
1.0
1002
}
  0
DIMENSION
  5
27A
100
AcDbEntity
  8
DIMS
100
AcDbDimension
  2
*D4
 10
474.086984
 20
176.726459
 30
0.0
 11
474.086984
 21
170.026459
 31
0.0
 12
-498.243552
 22
14.952199
 32
0.0
 70
   128
  1
13.4
  3
DIM1
100
AcDbAlignedDimension
 13
493.51878
 23
163.326459
 33
0.0
 14
503.29378
 24
176.726459
 34
0.0
 50
270.0
100
AcDbRotatedDimension
1001
ACAD
1000
DSTYLE
1002
{
1070
   288
1070
     1
1070
   144
1040
1.0
1002
}
  0
HATCH
  5
287
100
AcDbEntity
  8
HATCH
100
AcDbHatch
 10
0.0
 20
0.0
 30
0.0
210
0.0
220
0.0
230
1.0
  2
_U
 70
     0
 71
     1
 91
        1
 92
        7
 72
     1
 73
     1
 93
        2
 10
1019.344777265474
 20
309.5592260810632
 42
1.0
 10
1027.344777265474
 20
309.5592260810632
 42
1.0
 97
        1
330
559
 75
     0
 76
     0
 52
45.0
 41
0.8
 77
     0
 78
     1
 53
45.0
 43
-48.141344
 44
-25.0
 45
-0.565685424949238
 46
0.565685424949238
 79
     0
 47
0.31172
 98
        1
 10
1024.63691
 20
311.204284
  0
HATCH
  5
288
100
AcDbEntity
  8
HATCH
100
AcDbHatch
 10
0.0
 20
0.0
 30
0.0
210
0.0
220
0.0
230
1.0
  2
_U
 70
     0
 71
     0
 91
        1
 92
        7
 72
     1
 73
     1
 93
        2
 10
967.3447772654741
 20
309.5592260810632
 42
1.0
 10
975.3447772654741
 20
309.5592260810632
 42
1.0
 97
        0
 75
     0
 76
     0
 52
45.0
 41
0.8
 77
     0
 78
     1
 53
45.0
 43
-48.141344
 44
-25.0
 45
-0.565685424949238
 46
0.565685424949238
 79
     0
 47
0.31172
 98
        1
 10
969.752637
 20
311.204284
  0
LINE
  5
289
100
AcDbEntity
  8
M01
100
AcDbLine
 10
1021.332789
 20
615.794894
 30
0.0
 11
1023.312497
 21
617.001623
 31
0.0
  0
LINE
  5
28A
100
AcDbEntity
  8
M01
100
AcDbLine
 10
1029.066756
 20
627.248121
 30
0.0
 11
1029.066756
 21
635.822933
 31
0.0
  0
LINE
  5
28B
100
AcDbEntity
  8
M01
100
AcDbLine
 10
1025.066756
 20
627.248121
 30
0.0
 11
1025.066756
 21
635.822933
 31
0.0
  0
ARC
  5
28C
100
AcDbEntity
  8
M01
100
AcDbCircle
 10
1017.066756
 20
627.248121
 30
0.0
 40
12.0
100
AcDbArc
 50
301.364349
 51
0.0
  0
ARC
  5
28D
100
AcDbEntity
  8
M01
100
AcDbCircle
 10
1017.066756
 20
627.248121
 30
0.0
 40
8.0
100
AcDbArc
 50
308.846454
 51
0.0
  0
LINE
  5
28E
100
AcDbEntity
  8
M01
100
AcDbLine
 10
1007.701428
 20
612.170441
 30
0.0
 11
1017.92884
 21
618.404549
 31
0.0
  0
LINE
  5
28F
100
AcDbEntity
  8
M01
100
AcDbLine
 10
1009.783342
 20
608.754942
 30
0.0
 11
1010.106874
 21
608.952151
 31
0.0
  0
LINE
  5
290
100
AcDbEntity
  8
M01
100
AcDbLine
 10
1008.344777
 20
601.752534
 30
0.0
 11
1008.344777
 21
601.159226
 31
0.0
  0
LINE
  5
291
100
AcDbEntity
  8
M01
100
AcDbLine
 10
1004.344777
 20
606.193317
 30
0.0
 11
1004.344777
 21
603.467473
 31
0.0
  0
ARC
  5
292
100
AcDbEntity
  8
M01
100
AcDbCircle
 10
1011.344777
 20
606.193317
 30
0.0
 40
3.0
100
AcDbArc
 50
121.364349
 51
151.672691
  0
ARC
  5
293
100
AcDbEntity
  8
M01
100
AcDbCircle
 10
1011.344777
 20
606.193317
 30
0.0
 40
7.0
100
AcDbArc
 50
121.364349
 51
180.0
  0
ARC
  5
294
100
AcDbEntity
  8
M01
100
AcDbCircle
 10
1011.344777
 20
601.159226
 30
0.0
 40
7.0
100
AcDbArc
 50
202.678679
 51
270.0
  0
ARC
  5
295
100
AcDbEntity
  8
M01
100
AcDbCircle
 10
1011.344777
 20
601.159226
 30
0.0
 40
3.0
100
AcDbArc
 50
180.0
 51
270.0
  0
ARC
  5
296
100
AcDbEntity
  8
M01
100
AcDbCircle
 10
1010.08464
 20
619.975701
 30
0.0
 40
12.0
100
AcDbArc
 50
313.586993
 51
0.0
  0
ARC
  5
297
100
AcDbEntity
  8
M01
100
AcDbCircle
 10
1010.08464
 20
619.975701
 30
0.0
 40
8.0
100
AcDbArc
 50
313.586993
 51
0.0
  0
LINE
  5
298
100
AcDbEntity
  8
M01
100
AcDbLine
 10
1011.344777
 20
598.159226
 30
0.0
 11
1016.344777
 21
598.159226
 31
0.0
  0
LINE
  5
299
100
AcDbEntity
  8
M01
100
AcDbLine
 10
1012.344777
 20
598.159226
 30
0.0
 11
1012.344777
 21
594.159226
 31
0.0
  0
LINE
  5
29A
100
AcDbEntity
  8
M01
100
AcDbLine
 10
1016.344777
 20
598.159226
 30
0.0
 11
1016.344777
 21
594.159226
 31
0.0
  0
LINE
  5
29B
100
AcDbEntity
  8
M01
100
AcDbLine
 10
968.344777
 20
594.159226
 30
0.0
 11
995.569316
 21
594.159226
 31
0.0
  0
LINE
  5
29C
100
AcDbEntity
  8
M01
100
AcDbLine
 10
995.569316
 20
598.159226
 30
0.0
 11
978.344777
 21
598.159226
 31
0.0
  0
ARC
  5
29D
100
AcDbEntity
  8
M01
100
AcDbCircle
 10
995.569316
 20
606.159226
 30
0.0
 40
12.0
100
AcDbArc
 50
270.0
 51
313.586993
  0
ARC
  5
29E
100
AcDbEntity
  8
M01
100
AcDbCircle
 10
995.569316
 20
606.159226
 30
0.0
 40
8.0
100
AcDbArc
 50
270.0
 51
313.586993
  0
LINE
  5
29F
100
AcDbEntity
  8
M01
100
AcDbLine
 10
982.344777
 20
598.159226
 30
0.0
 11
982.344777
 21
594.159226
 31
0.0
  0
LINE
  5
2A0
100
AcDbEntity
  8
M01
100
AcDbLine
 10
978.344777
 20
598.159226
 30
0.0
 11
978.344777
 21
594.159226
 31
0.0
  0
LINE
  5
2A1
100
AcDbEntity
  8
M01
100
AcDbLine
 10
1018.358102
 20
611.28376
 30
0.0
 11
1003.842777
 21
597.467285
 31
0.0
  0
LINE
  5
2A2
100
AcDbEntity
  8
M01
100
AcDbLine
 10
1015.600281
 20
614.181074
 30
0.0
 11
1001.084957
 21
600.364599
 31
0.0
  0
LINE
  5
2A3
100
AcDbEntity
  8
M01
100
AcDbLine
 10
1022.08464
 20
635.814191
 30
0.0
 11
1022.08464
 21
619.975701
 31
0.0
  0
LINE
  5
2A4
100
AcDbEntity
  8
M01
100
AcDbLine
 10
1018.08464
 20
635.814191
 30
0.0
 11
1018.08464
 21
619.975701
 31
0.0
  0
LINE
  5
2A5
100
AcDbEntity
  8
M01
100
AcDbLine
 10
1018.094777
 20
579.503326
 30
0.0
 11
1024.594777
 21
579.503326
 31
0.0
  0
LINE
  5
2A6
100
AcDbEntity
  8
M01
100
AcDbLine
 10
1018.094777
 20
587.615126
 30
0.0
 11
1024.594777
 21
587.615126
 31
0.0
  0
LINE
  5
2A7
100
AcDbEntity
  8
M01
100
AcDbLine
 10
1018.094777
 20
579.503326
 30
0.0
 11
1018.094777
 21
577.559226
 31
0.0
  0
ARC
  5
2A8
100
AcDbEntity
  8
M01
100
AcDbCircle
 10
1016.844777
 20
581.064576
 30
0.0
 40
2.0
100
AcDbArc
 50
308.682187
 51
0.0
  0
ARC
  5
2A9
100
AcDbEntity
  8
M01
100
AcDbCircle
 10
1016.844777
 20
586.053876
 30
0.0
 40
2.0
100
AcDbArc
 50
0.0
 51
51.317813
  0
LINE
  5
2AA
100
AcDbEntity
  8
M01
100
AcDbLine
 10
1018.094777
 20
589.559226
 30
0.0
 11
1018.094777
 21
587.615126
 31
0.0
  0
LINE
  5
2AB
100
AcDbEntity
  8
M01
100
AcDbLine
 10
1018.844777
 20
586.053876
 30
0.0
 11
1018.844777
 21
581.064576
 31
0.0
  0
LINE
  5
2AC
100
AcDbEntity
  8
M01
100
AcDbLine
 10
1024.594777
 20
579.503326
 30
0.0
 11
1024.594777
 21
577.559226
 31
0.0
  0
ARC
  5
2AD
100
AcDbEntity
  8
M01
100
AcDbCircle
 10
1025.844777
 20
581.064576
 30
0.0
 40
2.0
100
AcDbArc
 50
180.0
 51
231.317813
  0
ARC
  5
2AE
100
AcDbEntity
  8
M01
100
AcDbCircle
 10
1025.844777
 20
586.053876
 30
0.0
 40
2.0
100
AcDbArc
 50
128.682187
 51
180.0
  0
LINE
  5
2AF
100
AcDbEntity
  8
M01
100
AcDbLine
 10
1024.594777
 20
589.559226
 30
0.0
 11
1024.594777
 21
587.615126
 31
0.0
  0
LINE
  5
2B0
100
AcDbEntity
  8
M01
100
AcDbLine
 10
1023.844777
 20
586.053876
 30
0.0
 11
1023.844777
 21
581.064576
 31
0.0
  0
LINE
  5
2B1
100
AcDbEntity
  8
M01
100
AcDbLine
 10
1016.344777
 20
572.559226
 30
0.0
 11
1026.344777
 21
572.559226
 31
0.0
  0
LINE
  5
2B2
100
AcDbEntity
  8
M01
100
AcDbLine
 10
970.094777
 20
579.503326
 30
0.0
 11
976.594777
 21
579.503326
 31
0.0
  0
LINE
  5
2B3
100
AcDbEntity
  8
M01
100
AcDbLine
 10
970.094777
 20
587.615126
 30
0.0
 11
976.594777
 21
587.615126
 31
0.0
  0
LINE
  5
2B4
100
AcDbEntity
  8
M01
100
AcDbLine
 10
970.094777
 20
579.503326
 30
0.0
 11
970.094777
 21
577.559226
 31
0.0
  0
ARC
  5
2B5
100
AcDbEntity
  8
M01
100
AcDbCircle
 10
968.844777
 20
581.064576
 30
0.0
 40
2.0
100
AcDbArc
 50
308.682187
 51
0.0
  0
ARC
  5
2B6
100
AcDbEntity
  8
M01
100
AcDbCircle
 10
968.844777
 20
586.053876
 30
0.0
 40
2.0
100
AcDbArc
 50
0.0
 51
51.317813
  0
LINE
  5
2B7
100
AcDbEntity
  8
M01
100
AcDbLine
 10
970.094777
 20
589.559226
 30
0.0
 11
970.094777
 21
587.615126
 31
0.0
  0
LINE
  5
2B8
100
AcDbEntity
  8
M01
100
AcDbLine
 10
970.844777
 20
586.053876
 30
0.0
 11
970.844777
 21
581.064576
 31
0.0
  0
LINE
  5
2B9
100
AcDbEntity
  8
M01
100
AcDbLine
 10
976.594777
 20
579.503326
 30
0.0
 11
976.594777
 21
577.559226
 31
0.0
  0
ARC
  5
2BA
100
AcDbEntity
  8
M01
100
AcDbCircle
 10
977.844777
 20
581.064576
 30
0.0
 40
2.0
100
AcDbArc
 50
180.0
 51
231.317813
  0
ARC
  5
2BB
100
AcDbEntity
  8
M01
100
AcDbCircle
 10
977.844777
 20
586.053876
 30
0.0
 40
2.0
100
AcDbArc
 50
128.682187
 51
180.0
  0
LINE
  5
2BC
100
AcDbEntity
  8
M01
100
AcDbLine
 10
976.594777
 20
589.559226
 30
0.0
 11
976.594777
 21
587.615126
 31
0.0
  0
LINE
  5
2BD
100
AcDbEntity
  8
M01
100
AcDbLine
 10
975.844777
 20
586.053876
 30
0.0
 11
975.844777
 21
581.064576
 31
0.0
  0
LINE
  5
2BE
100
AcDbEntity
  8
M01
100
AcDbLine
 10
968.344777
 20
572.559226
 30
0.0
 11
978.344777
 21
572.559226
 31
0.0
  0
LINE
  5
2BF
100
AcDbEntity
  8
M01
100
AcDbLine
 10
1026.344777
 20
577.559226
 30
0.0
 11
1026.344777
 21
556.559226
 31
0.0
  0
LINE
  5
2C0
100
AcDbEntity
  8
M01
100
AcDbLine
 10
1016.344777
 20
577.559226
 30
0.0
 11
1016.344777
 21
557.559226
 31
0.0
  0
LINE
  5
2C1
100
AcDbEntity
  8
M01
100
AcDbLine
 10
968.344777
 20
577.559226
 30
0.0
 11
968.344777
 21
556.559226
 31
0.0
  0
LINE
  5
2C2
100
AcDbEntity
  8
M01
100
AcDbLine
 10
978.344777
 20
577.559226
 30
0.0
 11
978.344777
 21
557.559226
 31
0.0
  0
LINE
  5
2C3
100
AcDbEntity
  8
M01
100
AcDbLine
 10
1018.313688
 20
599.459226
 30
0.0
 11
1024.375866
 21
599.459226
 31
0.0
  0
ARC
  5
2C4
100
AcDbEntity
  8
M01
100
AcDbCircle
 10
1024.375866
 20
597.609921
 30
0.0
 40
1.150694
100
AcDbArc
 50
208.592423
 51
331.407577
  0
ARC
  5
2C5
100
AcDbEntity
  8
M01
100
AcDbCircle
 10
1021.344777
 20
600.162004
 30
0.0
 40
3.702778
100
AcDbArc
 50
236.92527
 51
303.07473
  0
ARC
  5
2C6
100
AcDbEntity
  8
M01
100
AcDbCircle
 10
1018.313688
 20
597.609921
 30
0.0
 40
1.150694
100
AcDbArc
 50
208.592423
 51
331.407577
  0
ARC
  5
2C7
100
AcDbEntity
  8
M01
100
AcDbCircle
 10
1024.375866
 20
598.308532
 30
0.0
 40
1.150694
100
AcDbArc
 50
28.592423
 51
151.407577
  0
ARC
  5
2C8
100
AcDbEntity
  8
M01
100
AcDbCircle
 10
1021.344777
 20
595.756448
 30
0.0
 40
3.702778
100
AcDbArc
 50
56.92527
 51
123.07473
  0
LINE
  5
2C9
100
AcDbEntity
  8
M01
100
AcDbLine
 10
1023.365503
 20
598.859226
 30
0.0
 11
1023.365503
 21
597.059226
 31
0.0
  0
LINE
  5
2CA
100
AcDbEntity
  8
M01
100
AcDbLine
 10
1025.386229
 20
598.859226
 30
0.0
 11
1025.386229
 21
597.059226
 31
0.0
  0
ARC
  5
2CB
100
AcDbEntity
  8
M01
100
AcDbCircle
 10
1018.313688
 20
598.308532
 30
0.0
 40
1.150694
100
AcDbArc
 50
28.592423
 51
151.407577
  0
LINE
  5
2CC
100
AcDbEntity
  8
M01
100
AcDbLine
 10
1019.324051
 20
598.859226
 30
0.0
 11
1019.324051
 21
597.059226
 31
0.0
  0
LINE
  5
2CD
100
AcDbEntity
  8
M01
100
AcDbLine
 10
1017.303325
 20
598.859226
 30
0.0
 11
1017.303325
 21
597.059226
 31
0.0
  0
LINE
  5
2CE
100
AcDbEntity
  8
M01
100
AcDbLine
 10
1026.344777
 20
594.159226
 30
0.0
 11
1026.344777
 21
595.659226
 31
0.0
  0
LINE
  5
2CF
100
AcDbEntity
  8
M01
100
AcDbLine
 10
1016.344777
 20
594.159226
 30
0.0
 11
1016.344777
 21
595.659226
 31
0.0
  0
LINE
  5
2D0
100
AcDbEntity
  8
M01
100
AcDbLine
 10
1025.844777
 20
595.659226
 30
0.0
 11
1025.844777
 21
596.459226
 31
0.0
  0
LINE
  5
2D1
100
AcDbEntity
  8
M01
100
AcDbLine
 10
1016.844777
 20
595.659226
 30
0.0
 11
1016.844777
 21
596.459226
 31
0.0
  0
LINE
  5
2D2
100
AcDbEntity
  8
M01
100
AcDbLine
 10
1016.844777
 20
596.459226
 30
0.0
 11
1025.844777
 21
596.459226
 31
0.0
  0
LINE
  5
2D3
100
AcDbEntity
  8
M01
100
AcDbLine
 10
1016.344777
 20
595.659226
 30
0.0
 11
1026.344777
 21
595.659226
 31
0.0
  0
LINE
  5
2D4
100
AcDbEntity
  8
M01
100
AcDbLine
 10
1025.844777
 20
593.359226
 30
0.0
 11
1025.844777
 21
594.159226
 31
0.0
  0
LINE
  5
2D5
100
AcDbEntity
  8
M01
100
AcDbLine
 10
1016.844777
 20
593.359226
 30
0.0
 11
1016.844777
 21
594.159226
 31
0.0
  0
LINE
  5
2D6
100
AcDbEntity
  8
M01
100
AcDbLine
 10
1011.344777
 20
594.159226
 30
0.0
 11
1026.344777
 21
594.159226
 31
0.0
  0
ARC
  5
2D7
100
AcDbEntity
  8
M01
100
AcDbCircle
 10
1024.375866
 20
591.509921
 30
0.0
 40
1.150694
100
AcDbArc
 50
208.592423
 51
331.407577
  0
ARC
  5
2D8
100
AcDbEntity
  8
M01
100
AcDbCircle
 10
1021.344777
 20
594.062004
 30
0.0
 40
3.702778
100
AcDbArc
 50
236.92527
 51
303.07473
  0
ARC
  5
2D9
100
AcDbEntity
  8
M01
100
AcDbCircle
 10
1018.313688
 20
591.509921
 30
0.0
 40
1.150694
100
AcDbArc
 50
208.592423
 51
331.407577
  0
ARC
  5
2DA
100
AcDbEntity
  8
M01
100
AcDbCircle
 10
1024.375866
 20
592.208532
 30
0.0
 40
1.150694
100
AcDbArc
 50
28.592423
 51
151.407577
  0
ARC
  5
2DB
100
AcDbEntity
  8
M01
100
AcDbCircle
 10
1021.344777
 20
589.656448
 30
0.0
 40
3.702778
100
AcDbArc
 50
56.92527
 51
123.07473
  0
LINE
  5
2DC
100
AcDbEntity
  8
M01
100
AcDbLine
 10
1023.365503
 20
592.759226
 30
0.0
 11
1023.365503
 21
590.959226
 31
0.0
  0
LINE
  5
2DD
100
AcDbEntity
  8
M01
100
AcDbLine
 10
1025.386229
 20
592.759226
 30
0.0
 11
1025.386229
 21
590.959226
 31
0.0
  0
ARC
  5
2DE
100
AcDbEntity
  8
M01
100
AcDbCircle
 10
1018.313688
 20
592.208532
 30
0.0
 40
1.150694
100
AcDbArc
 50
28.592423
 51
151.407577
  0
LINE
  5
2DF
100
AcDbEntity
  8
M01
100
AcDbLine
 10
1019.324051
 20
592.759226
 30
0.0
 11
1019.324051
 21
590.959226
 31
0.0
  0
LINE
  5
2E0
100
AcDbEntity
  8
M01
100
AcDbLine
 10
1017.303325
 20
592.759226
 30
0.0
 11
1017.303325
 21
590.959226
 31
0.0
  0
LINE
  5
2E1
100
AcDbEntity
  8
M01
100
AcDbLine
 10
1016.844777
 20
593.359226
 30
0.0
 11
1025.844777
 21
593.359226
 31
0.0
  0
LINE
  5
2E2
100
AcDbEntity
  8
M01
100
AcDbLine
 10
1016.844777
 20
590.359226
 30
0.0
 11
1025.844777
 21
590.359226
 31
0.0
  0
LINE
  5
2E3
100
AcDbEntity
  8
M01
100
AcDbLine
 10
1016.844777
 20
589.559226
 30
0.0
 11
1025.844777
 21
589.559226
 31
0.0
  0
LINE
  5
2E4
100
AcDbEntity
  8
M01
100
AcDbLine
 10
1022.844777
 20
602.559226
 30
0.0
 11
1023.344777
 21
602.059226
 31
0.0
  0
LINE
  5
2E5
100
AcDbEntity
  8
M01
100
AcDbLine
 10
1019.344777
 20
602.059226
 30
0.0
 11
1019.844777
 21
602.559226
 31
0.0
  0
LINE
  5
2E6
100
AcDbEntity
  8
M01
100
AcDbLine
 10
1019.344777
 20
602.059226
 30
0.0
 11
1023.344777
 21
602.059226
 31
0.0
  0
LINE
  5
2E7
100
AcDbEntity
  8
M01
100
AcDbLine
 10
1022.844777
 20
602.559226
 30
0.0
 11
1022.844777
 21
599.459226
 31
0.0
  0
LINE
  5
2E8
100
AcDbEntity
  8
M01
100
AcDbLine
 10
1019.844777
 20
602.559226
 30
0.0
 11
1019.844777
 21
599.459226
 31
0.0
  0
LINE
  5
2E9
100
AcDbEntity
  8
M01
100
AcDbLine
 10
1019.344777
 20
602.059226
 30
0.0
 11
1019.344777
 21
599.459226
 31
0.0
  0
LINE
  5
2EA
100
AcDbEntity
  8
M01
100
AcDbLine
 10
1023.344777
 20
602.059226
 30
0.0
 11
1023.344777
 21
599.459226
 31
0.0
  0
LINE
  5
2EB
100
AcDbEntity
  8
M01
100
AcDbLine
 10
1019.844777
 20
602.559226
 30
0.0
 11
1022.844777
 21
602.559226
 31
0.0
  0
LINE
  5
2EC
100
AcDbEntity
  8
M01
100
AcDbLine
 10
1016.344777
 20
577.559226
 30
0.0
 11
1026.344777
 21
577.559226
 31
0.0
  0
LINE
  5
2ED
100
AcDbEntity
  8
M01
100
AcDbLine
 10
1025.844777
 20
590.359226
 30
0.0
 11
1025.844777
 21
589.559226
 31
0.0
  0
LINE
  5
2EE
100
AcDbEntity
  8
M01
100
AcDbLine
 10
1016.844777
 20
590.359226
 30
0.0
 11
1016.844777
 21
589.559226
 31
0.0
  0
LINE
  5
2EF
100
AcDbEntity
  8
CENTRE
100
AcDbLine
 10
1021.344777
 20
608.720115
 30
0.0
 11
1021.344777
 21
545.126684
 31
0.0
  0
LINE
  5
2F0
100
AcDbEntity
  8
M01
100
AcDbLine
 10
976.375866
 20
599.459226
 30
0.0
 11
970.313688
 21
599.459226
 31
0.0
  0
ARC
  5
2F1
100
AcDbEntity
  8
M01
100
AcDbCircle
 10
970.313688
 20
597.609921
 30
0.0
 40
1.150694
100
AcDbArc
 50
208.592423
 51
331.407577
  0
ARC
  5
2F2
100
AcDbEntity
  8
M01
100
AcDbCircle
 10
973.344777
 20
600.162004
 30
0.0
 40
3.702778
100
AcDbArc
 50
236.92527
 51
303.07473
  0
ARC
  5
2F3
100
AcDbEntity
  8
M01
100
AcDbCircle
 10
976.375866
 20
597.609921
 30
0.0
 40
1.150694
100
AcDbArc
 50
208.592423
 51
331.407577
  0
ARC
  5
2F4
100
AcDbEntity
  8
M01
100
AcDbCircle
 10
970.313688
 20
598.308532
 30
0.0
 40
1.150694
100
AcDbArc
 50
28.592423
 51
151.407577
  0
ARC
  5
2F5
100
AcDbEntity
  8
M01
100
AcDbCircle
 10
973.344777
 20
595.756448
 30
0.0
 40
3.702778
100
AcDbArc
 50
56.92527
 51
123.07473
  0
LINE
  5
2F6
100
AcDbEntity
  8
M01
100
AcDbLine
 10
971.324051
 20
598.859226
 30
0.0
 11
971.324051
 21
597.059226
 31
0.0
  0
LINE
  5
2F7
100
AcDbEntity
  8
M01
100
AcDbLine
 10
969.303325
 20
598.859226
 30
0.0
 11
969.303325
 21
597.059226
 31
0.0
  0
ARC
  5
2F8
100
AcDbEntity
  8
M01
100
AcDbCircle
 10
976.375866
 20
598.308532
 30
0.0
 40
1.150694
100
AcDbArc
 50
28.592423
 51
151.407577
  0
LINE
  5
2F9
100
AcDbEntity
  8
M01
100
AcDbLine
 10
975.365503
 20
598.859226
 30
0.0
 11
975.365503
 21
597.059226
 31
0.0
  0
LINE
  5
2FA
100
AcDbEntity
  8
M01
100
AcDbLine
 10
977.386229
 20
598.859226
 30
0.0
 11
977.386229
 21
597.059226
 31
0.0
  0
LINE
  5
2FB
100
AcDbEntity
  8
M01
100
AcDbLine
 10
968.344777
 20
594.159226
 30
0.0
 11
968.344777
 21
595.659226
 31
0.0
  0
LINE
  5
2FC
100
AcDbEntity
  8
M01
100
AcDbLine
 10
968.844777
 20
595.659226
 30
0.0
 11
968.844777
 21
596.459226
 31
0.0
  0
LINE
  5
2FD
100
AcDbEntity
  8
M01
100
AcDbLine
 10
977.844777
 20
595.659226
 30
0.0
 11
977.844777
 21
596.459226
 31
0.0
  0
LINE
  5
2FE
100
AcDbEntity
  8
M01
100
AcDbLine
 10
977.844777
 20
596.459226
 30
0.0
 11
968.844777
 21
596.459226
 31
0.0
  0
LINE
  5
2FF
100
AcDbEntity
  8
M01
100
AcDbLine
 10
978.344777
 20
595.659226
 30
0.0
 11
968.344777
 21
595.659226
 31
0.0
  0
LINE
  5
300
100
AcDbEntity
  8
M01
100
AcDbLine
 10
968.844777
 20
593.359226
 30
0.0
 11
968.844777
 21
594.159226
 31
0.0
  0
LINE
  5
301
100
AcDbEntity
  8
M01
100
AcDbLine
 10
977.844777
 20
593.359226
 30
0.0
 11
977.844777
 21
594.159226
 31
0.0
  0
ARC
  5
302
100
AcDbEntity
  8
M01
100
AcDbCircle
 10
970.313688
 20
591.509921
 30
0.0
 40
1.150694
100
AcDbArc
 50
208.592423
 51
331.407577
  0
ARC
  5
303
100
AcDbEntity
  8
M01
100
AcDbCircle
 10
973.344777
 20
594.062004
 30
0.0
 40
3.702778
100
AcDbArc
 50
236.92527
 51
303.07473
  0
ARC
  5
304
100
AcDbEntity
  8
M01
100
AcDbCircle
 10
976.375866
 20
591.509921
 30
0.0
 40
1.150694
100
AcDbArc
 50
208.592423
 51
331.407577
  0
ARC
  5
305
100
AcDbEntity
  8
M01
100
AcDbCircle
 10
970.313688
 20
592.208532
 30
0.0
 40
1.150694
100
AcDbArc
 50
28.592423
 51
151.407577
  0
ARC
  5
306
100
AcDbEntity
  8
M01
100
AcDbCircle
 10
973.344777
 20
589.656448
 30
0.0
 40
3.702778
100
AcDbArc
 50
56.92527
 51
123.07473
  0
LINE
  5
307
100
AcDbEntity
  8
M01
100
AcDbLine
 10
971.324051
 20
592.759226
 30
0.0
 11
971.324051
 21
590.959226
 31
0.0
  0
LINE
  5
308
100
AcDbEntity
  8
M01
100
AcDbLine
 10
969.303325
 20
592.759226
 30
0.0
 11
969.303325
 21
590.959226
 31
0.0
  0
ARC
  5
309
100
AcDbEntity
  8
M01
100
AcDbCircle
 10
976.375866
 20
592.208532
 30
0.0
 40
1.150694
100
AcDbArc
 50
28.592423
 51
151.407577
  0
LINE
  5
30A
100
AcDbEntity
  8
M01
100
AcDbLine
 10
975.365503
 20
592.759226
 30
0.0
 11
975.365503
 21
590.959226
 31
0.0
  0
LINE
  5
30B
100
AcDbEntity
  8
M01
100
AcDbLine
 10
977.386229
 20
592.759226
 30
0.0
 11
977.386229
 21
590.959226
 31
0.0
  0
LINE
  5
30C
100
AcDbEntity
  8
M01
100
AcDbLine
 10
977.844777
 20
593.359226
 30
0.0
 11
968.844777
 21
593.359226
 31
0.0
  0
LINE
  5
30D
100
AcDbEntity
  8
M01
100
AcDbLine
 10
977.844777
 20
590.359226
 30
0.0
 11
968.844777
 21
590.359226
 31
0.0
  0
LINE
  5
30E
100
AcDbEntity
  8
M01
100
AcDbLine
 10
977.844777
 20
589.559226
 30
0.0
 11
968.844777
 21
589.559226
 31
0.0
  0
LINE
  5
30F
100
AcDbEntity
  8
M01
100
AcDbLine
 10
971.844777
 20
602.559226
 30
0.0
 11
971.344777
 21
602.059226
 31
0.0
  0
LINE
  5
310
100
AcDbEntity
  8
M01
100
AcDbLine
 10
975.344777
 20
602.059226
 30
0.0
 11
974.844777
 21
602.559226
 31
0.0
  0
LINE
  5
311
100
AcDbEntity
  8
M01
100
AcDbLine
 10
975.344777
 20
602.059226
 30
0.0
 11
971.344777
 21
602.059226
 31
0.0
  0
LINE
  5
312
100
AcDbEntity
  8
M01
100
AcDbLine
 10
971.844777
 20
602.559226
 30
0.0
 11
971.844777
 21
599.459226
 31
0.0
  0
LINE
  5
313
100
AcDbEntity
  8
M01
100
AcDbLine
 10
974.844777
 20
602.559226
 30
0.0
 11
974.844777
 21
599.459226
 31
0.0
  0
LINE
  5
314
100
AcDbEntity
  8
M01
100
AcDbLine
 10
975.344777
 20
602.059226
 30
0.0
 11
975.344777
 21
599.459226
 31
0.0
  0
LINE
  5
315
100
AcDbEntity
  8
M01
100
AcDbLine
 10
971.344777
 20
602.059226
 30
0.0
 11
971.344777
 21
599.459226
 31
0.0
  0
LINE
  5
316
100
AcDbEntity
  8
M01
100
AcDbLine
 10
974.844777
 20
602.559226
 30
0.0
 11
971.844777
 21
602.559226
 31
0.0
  0
LINE
  5
317
100
AcDbEntity
  8
M01
100
AcDbLine
 10
978.344777
 20
577.559226
 30
0.0
 11
968.344777
 21
577.559226
 31
0.0
  0
LINE
  5
318
100
AcDbEntity
  8
M01
100
AcDbLine
 10
968.844777
 20
590.359226
 30
0.0
 11
968.844777
 21
589.559226
 31
0.0
  0
LINE
  5
319
100
AcDbEntity
  8
M01
100
AcDbLine
 10
977.844777
 20
590.359226
 30
0.0
 11
977.844777
 21
589.559226
 31
0.0
  0
LINE
  5
31A
100
AcDbEntity
  8
CENTRE
100
AcDbLine
 10
973.344777
 20
608.720115
 30
0.0
 11
973.344777
 21
545.126684
 31
0.0
  0
LINE
  5
31B
100
AcDbEntity
  8
M03
100
AcDbLine
 10
325.51878
 20
428.559226
 30
0.0
 11
725.51878
 21
428.559226
 31
0.0
  0
LINE
  5
31C
100
AcDbEntity
  8
M03
100
AcDbLine
 10
325.51878
 20
436.559226
 30
0.0
 11
725.51878
 21
436.559226
 31
0.0
  0
CIRCLE
  5
31D
100
AcDbEntity
  8
M03
100
AcDbCircle
 10
325.51878
 20
432.559226
 30
0.0
 40
4.0
  0
CIRCLE
  5
31E
100
AcDbEntity
  8
M03
100
AcDbCircle
 10
725.51878
 20
432.559226
 30
0.0
 40
4.0
  0
LINE
  5
31F
102
{ACAD_REACTORS
330
1FC
102
}
100
AcDbEntity
  8
M02
100
AcDbLine
 10
559.51878
 20
93.326459
 30
0.0
 11
773.744176
 21
93.326459
 31
0.0
  0
LINE
  5
320
102
{ACAD_REACTORS
330
1FE
102
}
100
AcDbEntity
  8
M05
100
AcDbLine
 10
516.01878
 20
156.326459
 30
0.0
 11
516.01878
 21
152.326459
 31
0.0
  0
LINE
  5
321
102
{ACAD_REACTORS
330
1FE
102
}
100
AcDbEntity
  8
M05
100
AcDbLine
 10
535.01878
 20
156.326459
 30
0.0
 11
535.01878
 21
152.326459
 31
0.0
  0
TEXT
  5
322
100
AcDbEntity
  8
TEXT
100
AcDbText
 10
531.230153
 20
159.047186
 30
0.0
 40
2.0
  1
MA010002
 41
0.9
100
AcDbText
  0
LINE
  5
323
102
{ACAD_REACTORS
330
1FA
102
}
100
AcDbEntity
  8
M02
100
AcDbLine
 10
502.29378
 20
159.326459
 30
0.0
 11
502.29378
 21
156.326459
 31
0.0
  0
LINE
  5
324
100
AcDbEntity
  8
M03
100
AcDbLine
 10
527.81878
 20
163.726459
 30
0.0
 11
527.81878
 21
151.326459
 31
0.0
  0
LINE
  5
325
100
AcDbEntity
  8
M03
100
AcDbLine
 10
523.21878
 20
163.726459
 30
0.0
 11
523.21878
 21
151.326459
 31
0.0
  0
LINE
  5
326
100
AcDbEntity
  8
M03
100
AcDbLine
 10
522.51878
 20
163.726459
 30
0.0
 11
522.51878
 21
151.326459
 31
0.0
  0
LINE
  5
327
100
AcDbEntity
  8
M03
100
AcDbLine
 10
528.51878
 20
163.726459
 30
0.0
 11
528.51878
 21
151.326459
 31
0.0
  0
ARC
  5
328
100
AcDbEntity
  8
M03
100
AcDbCircle
 10
514.01878
 20
168.726459
 30
0.0
 40
5.0
100
AcDbArc
 50
180.0
 51
270.0
  0
ARC
  5
329
100
AcDbEntity
  8
M03
100
AcDbCircle
 10
537.01878
 20
168.726459
 30
0.0
 40
5.0
100
AcDbArc
 50
270.0
 51
0.0
  0
LINE
  5
32A
100
AcDbEntity
  8
M03
100
AcDbLine
 10
509.01878
 20
181.726459
 30
0.0
 11
509.01878
 21
168.726459
 31
0.0
  0
LINE
  5
32B
100
AcDbEntity
  8
M03
100
AcDbLine
 10
542.01878
 20
181.726459
 30
0.0
 11
542.01878
 21
168.726459
 31
0.0
  0
LINE
  5
32C
100
AcDbEntity
  8
M03
100
AcDbLine
 10
537.01878
 20
163.726459
 30
0.0
 11
514.01878
 21
163.726459
 31
0.0
  0
LINE
  5
32D
100
AcDbEntity
  8
M05
100
AcDbLine
 10
503.79378
 20
157.026459
 30
0.0
 11
547.24378
 21
157.026459
 31
0.0
  0
LINE
  5
32E
100
AcDbEntity
  8
M05
100
AcDbLine
 10
546.54378
 20
156.326459
 30
0.0
 11
547.24378
 21
157.026459
 31
0.0
  0
LINE
  5
32F
100
AcDbEntity
  8
M05
100
AcDbLine
 10
503.79378
 20
157.026459
 30
0.0
 11
504.49378
 21
156.326459
 31
0.0
  0
LINE
  5
330
100
AcDbEntity
  8
M05
100
AcDbLine
 10
503.79378
 20
176.726459
 30
0.0
 11
503.79378
 21
157.026459
 31
0.0
  0
LINE
  5
331
100
AcDbEntity
  8
M04
100
AcDbLine
 10
502.29378
 20
176.149109
 30
0.0
 11
503.79378
 21
176.149109
 31
0.0
  0
LINE
  5
332
100
AcDbEntity
  8
M04
100
AcDbLine
 10
502.29378
 20
176.149109
 30
0.0
 11
502.29378
 21
163.326459
 31
0.0
  0
LINE
  5
333
100
AcDbEntity
  8
M04
100
AcDbLine
 10
503.29378
 20
176.726459
 30
0.0
 11
502.29378
 21
176.149109
 31
0.0
  0
LINE
  5
334
100
AcDbEntity
  8
M04
100
AcDbLine
 10
503.29378
 20
180.726459
 30
0.0
 11
503.29378
 21
181.726459
 31
0.0
  0
LINE
  5
335
100
AcDbEntity
  8
M04
100
AcDbLine
 10
504.29378
 20
181.726459
 30
0.0
 11
503.29378
 21
181.726459
 31
0.0
  0
LINE
  5
336
100
AcDbEntity
  8
M05
100
AcDbLine
 10
504.29378
 20
181.726459
 30
0.0
 11
503.29378
 21
180.726459
 31
0.0
  0
LINE
  5
337
100
AcDbEntity
  8
M05
100
AcDbLine
 10
503.29378
 20
180.726459
 30
0.0
 11
503.29378
 21
176.726459
 31
0.0
  0
LINE
  5
338
100
AcDbEntity
  8
M05
100
AcDbLine
 10
547.24378
 20
176.726459
 30
0.0
 11
547.24378
 21
157.026459
 31
0.0
  0
LINE
  5
339
100
AcDbEntity
  8
M04
100
AcDbLine
 10
548.74378
 20
176.149109
 30
0.0
 11
547.24378
 21
176.149109
 31
0.0
  0
LINE
  5
33A
100
AcDbEntity
  8
M04
100
AcDbLine
 10
548.74378
 20
176.149109
 30
0.0
 11
548.74378
 21
163.326459
 31
0.0
  0
LINE
  5
33B
100
AcDbEntity
  8
M04
100
AcDbLine
 10
547.74378
 20
176.726459
 30
0.0
 11
548.74378
 21
176.149109
 31
0.0
  0
LINE
  5
33C
100
AcDbEntity
  8
M04
100
AcDbLine
 10
547.74378
 20
180.726459
 30
0.0
 11
547.74378
 21
181.726459
 31
0.0
  0
LINE
  5
33D
100
AcDbEntity
  8
M04
100
AcDbLine
 10
546.74378
 20
181.726459
 30
0.0
 11
547.74378
 21
181.726459
 31
0.0
  0
LINE
  5
33E
100
AcDbEntity
  8
M05
100
AcDbLine
 10
516.01878
 20
152.326459
 30
0.0
 11
535.01878
 21
152.326459
 31
0.0
  0
LINE
  5
33F
100
AcDbEntity
  8
M05
100
AcDbLine
 10
503.29378
 20
180.726459
 30
0.0
 11
547.74378
 21
180.726459
 31
0.0
  0
LINE
  5
340
100
AcDbEntity
  8
M05
100
AcDbLine
 10
546.74378
 20
181.726459
 30
0.0
 11
547.74378
 21
180.726459
 31
0.0
  0
LINE
  5
341
100
AcDbEntity
  8
M05
100
AcDbLine
 10
547.74378
 20
180.726459
 30
0.0
 11
547.74378
 21
176.726459
 31
0.0
  0
LINE
  5
342
100
AcDbEntity
  8
M05
100
AcDbLine
 10
547.74378
 20
176.726459
 30
0.0
 11
503.29378
 21
176.726459
 31
0.0
  0
LINE
  5
343
100
AcDbEntity
  8
M05
100
AcDbLine
 10
546.74378
 20
181.726459
 30
0.0
 11
504.29378
 21
181.726459
 31
0.0
  0
LINE
  5
344
102
{ACAD_REACTORS
330
1F5
102
}
100
AcDbEntity
  8
M02
100
AcDbLine
 10
548.74378
 20
159.326459
 30
0.0
 11
548.74378
 21
156.326459
 31
0.0
  0
LINE
  5
345
100
AcDbEntity
  8
CENTRE
100
AcDbLine
 10
733.51878
 20
123.326459
 30
0.0
 11
317.51878
 21
123.326459
 31
0.0
  0
HATCH
  5
346
100
AcDbEntity
  8
HATCH
100
AcDbHatch
 10
0.0
 20
0.0
 30
0.0
210
0.0
220
0.0
230
1.0
  2
_U
 70
     0
 71
     1
 91
        2
 92
        7
 72
     1
 73
     1
 93
        2
 10
762.744176282579
 20
152.3264594854136
 42
1.0
 10
770.744176282579
 20
152.3264594854136
 42
1.0
 97
        1
330
394
 92
        7
 72
     1
 73
     1
 93
        2
 10
762.744176282579
 20
100.3264594854134
 42
1.0
 10
770.744176282579
 20
100.3264594854134
 42
1.0
 97
        1
330
38B
 75
     0
 76
     0
 52
45.0
 41
0.8
 77
     0
 78
     1
 53
45.0
 43
232.978642
 44
-123.687426
 45
-0.565685424949238
 46
0.565685424949238
 79
     0
 47
0.270666
 98
        2
 10
765.751149
 20
153.58254
 10
767.917368
 20
102.156039
  0
LINE
  5
347
102
{ACAD_REACTORS
330
20
102
}
100
AcDbEntity
  8
M01
100
AcDbLine
 10
321.51878
 20
136.826459
 30
0.0
 11
225.51878
 21
136.826459
 31
0.0
  0
LINE
  5
348
100
AcDbEntity
  8
M01
100
AcDbLine
 10
325.51878
 20
140.826459
 30
0.0
 11
321.51878
 21
136.826459
 31
0.0
  0
LINE
  5
349
102
{ACAD_REACTORS
330
1FE
330
1FB
330
1FA
330
20
102
}
100
AcDbEntity
  8
CENTRE
100
AcDbLine
 10
325.51878
 20
77.326459
 30
0.0
 11
325.51878
 21
175.326459
 31
0.0
  0
LINE
  5
34A
100
AcDbEntity
  8
M01
100
AcDbLine
 10
329.51878
 20
127.326459
 30
0.0
 11
325.51878
 21
123.326459
 31
0.0
  0
LINE
  5
34B
102
{ACAD_REACTORS
330
1FE
102
}
100
AcDbEntity
  8
M01
100
AcDbLine
 10
521.51878
 20
119.326459
 30
0.0
 11
325.51878
 21
119.326459
 31
0.0
  0
LINE
  5
34C
102
{ACAD_REACTORS
330
1FE
102
}
100
AcDbEntity
  8
M01
100
AcDbLine
 10
329.51878
 20
127.326459
 30
0.0
 11
329.51878
 21
140.826459
 31
0.0
  0
LINE
  5
34D
102
{ACAD_REACTORS
330
20
102
}
100
AcDbEntity
  8
M01
100
AcDbLine
 10
321.51878
 20
123.326459
 30
0.0
 11
321.51878
 21
136.826459
 31
0.0
  0
ARC
  5
34E
102
{ACAD_REACTORS
330
20
102
}
100
AcDbEntity
  8
M01
100
AcDbCircle
 10
325.51878
 20
123.326459
 30
0.0
 40
4.0
100
AcDbArc
 50
180.0
 51
270.0
  0
LINE
  5
34F
102
{ACAD_REACTORS
330
1FA
102
}
100
AcDbEntity
  8
M02
100
AcDbLine
 10
243.51878
 20
156.326459
 30
0.0
 11
243.51878
 21
159.326459
 31
0.0
  0
LINE
  5
350
102
{ACAD_REACTORS
330
1F9
102
}
100
AcDbEntity
  8
M02
100
AcDbLine
 10
207.51878
 20
156.326459
 30
0.0
 11
207.51878
 21
159.326459
 31
0.0
  0
LINE
  5
351
100
AcDbEntity
  8
CENTRE
100
AcDbLine
 10
333.635538
 20
140.826459
 30
0.0
 11
217.51878
 21
140.826459
 31
0.0
  0
LINE
  5
352
100
AcDbEntity
  8
CENTRE
100
AcDbLine
 10
225.51878
 20
132.709701
 30
0.0
 11
225.51878
 21
166.674757
 31
0.0
  0
LINE
  5
353
100
AcDbEntity
  8
M01
100
AcDbLine
 10
229.51878
 20
144.826459
 30
0.0
 11
225.51878
 21
140.826459
 31
0.0
  0
LINE
  5
354
102
{ACAD_REACTORS
330
20
102
}
100
AcDbEntity
  8
M01
100
AcDbLine
 10
325.51878
 20
144.826459
 30
0.0
 11
229.51878
 21
144.826459
 31
0.0
  0
LINE
  5
355
102
{ACAD_REACTORS
330
20
102
}
100
AcDbEntity
  8
M01
100
AcDbLine
 10
229.51878
 20
144.826459
 30
0.0
 11
229.51878
 21
156.326459
 31
0.0
  0
LINE
  5
356
102
{ACAD_REACTORS
330
20
102
}
100
AcDbEntity
  8
M01
100
AcDbLine
 10
221.51878
 20
140.826459
 30
0.0
 11
221.51878
 21
156.326459
 31
0.0
  0
ARC
  5
357
102
{ACAD_REACTORS
330
20
102
}
100
AcDbEntity
  8
M01
100
AcDbCircle
 10
225.51878
 20
140.826459
 30
0.0
 40
4.0
100
AcDbArc
 50
180.0
 51
270.0
  0
LINE
  5
358
100
AcDbEntity
  8
CENTRE
100
AcDbLine
 10
725.51878
 20
115.209701
 30
0.0
 11
725.51878
 21
148.943218
 31
0.0
  0
LINE
  5
359
100
AcDbEntity
  8
M01
100
AcDbLine
 10
721.51878
 20
127.326459
 30
0.0
 11
725.51878
 21
123.326459
 31
0.0
  0
LINE
  5
35A
102
{ACAD_REACTORS
330
1FE
102
}
100
AcDbEntity
  8
M01
100
AcDbLine
 10
329.51878
 20
127.326459
 30
0.0
 11
721.51878
 21
127.326459
 31
0.0
  0
LINE
  5
35B
102
{ACAD_REACTORS
330
1FE
102
}
100
AcDbEntity
  8
M01
100
AcDbLine
 10
529.51878
 20
119.326459
 30
0.0
 11
725.51878
 21
119.326459
 31
0.0
  0
LINE
  5
35C
102
{ACAD_REACTORS
330
1FE
102
}
100
AcDbEntity
  8
M01
100
AcDbLine
 10
721.51878
 20
127.326459
 30
0.0
 11
721.51878
 21
140.826459
 31
0.0
  0
LINE
  5
35D
102
{ACAD_REACTORS
330
1FE
102
}
100
AcDbEntity
  8
M01
100
AcDbLine
 10
729.51878
 20
123.326459
 30
0.0
 11
729.51878
 21
140.826459
 31
0.0
  0
ARC
  5
35E
102
{ACAD_REACTORS
330
1FE
102
}
100
AcDbEntity
  8
M01
100
AcDbCircle
 10
725.51878
 20
123.326459
 30
0.0
 40
4.0
100
AcDbArc
 50
270.0
 51
0.0
  0
LINE
  5
35F
102
{ACAD_REACTORS
330
1FE
102
}
100
AcDbEntity
  8
M04
100
AcDbLine
 10
517.01878
 20
151.326459
 30
0.0
 11
516.01878
 21
151.326459
 31
0.0
  0
LINE
  5
360
102
{ACAD_REACTORS
330
1FE
102
}
100
AcDbEntity
  8
M04
100
AcDbLine
 10
516.01878
 20
152.326459
 30
0.0
 11
516.01878
 21
151.326459
 31
0.0
  0
LINE
  5
361
102
{ACAD_REACTORS
330
1FE
102
}
100
AcDbEntity
  8
M04
100
AcDbLine
 10
534.01878
 20
151.326459
 30
0.0
 11
535.01878
 21
151.326459
 31
0.0
  0
LINE
  5
362
102
{ACAD_REACTORS
330
1FE
102
}
100
AcDbEntity
  8
M04
100
AcDbLine
 10
535.01878
 20
152.326459
 30
0.0
 11
535.01878
 21
151.326459
 31
0.0
  0
LINE
  5
363
100
AcDbEntity
  8
M05
100
AcDbLine
 10
517.01878
 20
151.326459
 30
0.0
 11
516.01878
 21
152.326459
 31
0.0
  0
LINE
  5
364
100
AcDbEntity
  8
M05
100
AcDbLine
 10
535.01878
 20
152.326459
 30
0.0
 11
534.01878
 21
151.326459
 31
0.0
  0
LINE
  5
365
102
{ACAD_REACTORS
330
1FE
102
}
100
AcDbEntity
  8
M05
100
AcDbLine
 10
534.01878
 20
151.326459
 30
0.0
 11
517.01878
 21
151.326459
 31
0.0
  0
POINT
  5
366
100
AcDbEntity
  8
DEFPOINTS
  6
BYBLOCK
 62
     0
100
AcDbPoint
 10
525.51878
 20
156.326459
 30
0.0
  0
LINE
  5
367
102
{ACAD_REACTORS
330
1FE
102
}
100
AcDbEntity
  8
M04
100
AcDbLine
 10
515.31878
 20
156.326459
 30
0.0
 11
516.01878
 21
155.626459
 31
0.0
  0
LINE
  5
368
102
{ACAD_REACTORS
330
1FE
102
}
100
AcDbEntity
  8
M04
100
AcDbLine
 10
535.71878
 20
156.326459
 30
0.0
 11
535.01878
 21
155.626459
 31
0.0
  0
HATCH
  5
369
100
AcDbEntity
  8
HATCH
100
AcDbHatch
 10
0.0
 20
0.0
 30
0.0
210
0.0
220
0.0
230
1.0
  2
_U
 70
     0
 71
     1
 91
        2
 92
        7
 72
     1
 73
     1
 93
        2
 10
198.5187795381627
 20
152.3264594854136
 42
1.0
 10
206.5187795381627
 20
152.3264594854136
 42
1.0
 97
        1
330
382
 92
        7
 72
     1
 73
     1
 93
        2
 10
206.5187795381627
 20
100.3264594854134
 42
1.0
 10
198.5187795381627
 20
100.3264594854134
 42
1.0
 97
        1
330
379
 75
     0
 76
     0
 52
45.0
 41
0.8
 77
     0
 78
     1
 53
45.0
 43
-242.428461
 44
-138.160015
 45
-0.565685424949238
 46
0.565685424949238
 79
     0
 47
0.251927
 98
        2
 10
201.055677
 20
154.09752
 10
204.080051
 20
115.300722
  0
LINE
  5
36A
102
{ACAD_REACTORS
330
B1
102
}
100
AcDbEntity
  8
M05
100
AcDbLine
 10
245.01878
 20
90.326459
 30
0.0
 11
246.01878
 21
89.326459
 31
0.0
  0
LINE
  5
36B
102
{ACAD_REACTORS
330
B1
102
}
100
AcDbEntity
  8
M05
100
AcDbLine
 10
233.01878
 20
90.326459
 30
0.0
 11
232.01878
 21
89.326459
 31
0.0
  0
LINE
  5
36C
102
{ACAD_REACTORS
330
B1
102
}
100
AcDbEntity
  8
M05
100
AcDbLine
 10
245.01878
 20
90.326459
 30
0.0
 11
233.01878
 21
90.326459
 31
0.0
  0
LINE
  5
36D
102
{ACAD_REACTORS
330
B1
102
}
100
AcDbEntity
  8
M05
100
AcDbLine
 10
206.01878
 20
90.326459
 30
0.0
 11
205.01878
 21
89.326459
 31
0.0
  0
LINE
  5
36E
102
{ACAD_REACTORS
330
B1
102
}
100
AcDbEntity
  8
M05
100
AcDbLine
 10
218.01878
 20
90.326459
 30
0.0
 11
219.01878
 21
89.326459
 31
0.0
  0
LINE
  5
36F
102
{ACAD_REACTORS
330
B1
102
}
100
AcDbEntity
  8
M05
100
AcDbLine
 10
206.01878
 20
90.326459
 30
0.0
 11
218.01878
 21
90.326459
 31
0.0
  0
HATCH
  5
370
100
AcDbEntity
  8
DIMS
100
AcDbHatch
 10
0.0
 20
0.0
 30
0.0
210
0.0
220
0.0
230
1.0
  2
_U
 70
     0
 71
     1
 91
        5
 92
        7
 72
     0
 73
     1
 93
        9
 10
557.0187795381627
 20
94.32645948541335
 10
557.0187795381627
 20
90.32645948541347
 10
558.8187795381629
 20
90.32645948541347
 10
559.518779538163
 20
91.02645948541354
 10
559.518779538163
 20
95.62645948541346
 10
558.8187795381629
 20
96.32645948541364
 10
555.2187795381628
 20
96.32645948541364
 10
555.2187795381627
 20
94.32645948541347
 10
556.768779538163
 20
94.32645948541347
 97
        9
330
422
330
3AF
330
3C3
330
3B4
330
3C8
330
3B6
330
425
330
423
330
426
 92
        7
 72
     1
 73
     1
 93
       16
 10
544.8187795381627
 20
85.32645948541347
 42
0.0
 10
545.5187795381629
 20
86.02645948541352
 42
0.0
 10
545.5187795381627
 20
87.32645948541359
 42
0.0
 10
545.0187795381627
 20
87.32645948541348
 42
0.0
 10
545.0187795381627
 20
90.32645948541347
 42
0.0
 10
546.0187795381629
 20
90.32645948541347
 42
0.0
 10
546.0187795381629
 20
94.32645948541347
 42
0.0
 10
546.2687795381628
 20
94.32645948541347
 42
0.0
 10
547.8187795381627
 20
94.32645948541347
 42
0.0
 10
547.8187795381628
 20
96.32645948541366
 42
0.0
 10
535.5187795381627
 20
96.32645948541366
 42
0.0
 10
535.5187795381627
 20
105.3264594854134
 42
0.0
 10
534.5187795381628
 20
106.3264594854133
 42
0.0
 10
529.5187795381628
 20
106.3264594854133
 42
0.0
 10
528.5596535360586
 20
88.02524513851462
 42
-0.1092323044357264
 10
534.6839309280742
 20
85.32645948541338
 42
0.0
 97
       16
330
425
330
3B7
330
3B5
330
3B4
330
3C2
330
403
330
42F
330
42B
330
42D
330
40C
330
40D
330
41B
330
41A
330
41D
330
418
330
417
 92
        7
 72
     1
 73
     1
 93
       16
 10
522.4779055402666
 20
88.02524513851457
 42
0.0
 10
521.5187795381628
 20
106.3264594854134
 42
0.0
 10
516.5187795381627
 20
106.3264594854134
 42
0.0
 10
515.5187795381627
 20
105.3264594854135
 42
0.0
 10
515.5187795381627
 20
96.32645948541366
 42
0.0
 10
503.2187795381627
 20
96.32645948541364
 42
0.0
 10
503.2187795381628
 20
94.32645948541347
 42
0.0
 10
504.7687795381627
 20
94.32645948541347
 42
0.0
 10
505.0187795381626
 20
94.32645948541347
 42
0.0
 10
505.0187795381626
 20
90.32645948541357
 42
0.0
 10
506.0187795381628
 20
90.32645948541359
 42
0.0
 10
506.0187795381628
 20
87.32645948541323
 42
0.0
 10
505.5187795381628
 20
87.32645948541323
 42
0.0
 10
505.5187795381628
 20
86.0264594854132
 42
0.0
 10
506.2187795381628
 20
85.32645948541313
 42
0.0
 10
516.3536281482511
 20
85.32645948541322
 42
-0.1092323044357263
 97
       16
330
42D
330
42C
330
42E
330
43E
330
3A7
330
399
330
39A
330
39C
330
415
330
416
330
414
330
41C
330
419
330
41B
330
409
330
40B
 92
        7
 72
     0
 73
     1
 93
        9
 10
494.0187795381627
 20
94.32645948541335
 10
494.2687795381625
 20
94.32645948541335
 10
495.8187795381626
 20
94.32645948541336
 10
495.8187795381627
 20
96.32645948541364
 10
492.2187795381626
 20
96.32645948541362
 10
491.5187795381625
 20
95.6264594854135
 10
491.5187795381626
 20
91.02645948541347
 10
492.2187795381625
 20
90.32645948541356
 10
494.0187795381627
 20
90.32645948541356
 97
        9
330
43E
330
420
330
421
330
401
330
415
330
39B
330
3AD
330
399
330
3A8
 92
       24
 93
        4
 72
     1
 10
530.09286
 20
91.393947
 11
544.464289
 21
91.393947
 72
     1
 10
544.464289
 20
91.393947
 11
544.464289
 21
94.393947
 72
     1
 10
544.464289
 20
94.393947
 11
530.09286
 21
94.393947
 72
     1
 10
530.09286
 20
94.393947
 11
530.09286
 21
91.393947
 97
        1
330
3FE
 75
     0
 76
     0
 52
135.0
 41
2.5
 77
     0
 78
     1
 53
135.0
 43
-29.928461
 44
-151.160015
 45
-1.767766952966368
 46
-1.767766952966368
 79
     0
 47
0.085632
 98
        4
 10
558.015742
 20
94.684444
 10
540.368297
 20
88.690214
 10
517.580818
 20
89.889061
 10
493.336999
 20
94.684444
  0
LINE
  5
371
100
AcDbEntity
  8
DIMS
 62
     4
100
AcDbLine
 10
199.11878
 20
100.326459
 30
0.0
 11
196.81878
 21
100.326459
 31
0.0
  0
LINE
  5
372
100
AcDbEntity
  8
DIMS
 62
     4
100
AcDbLine
 10
205.91878
 20
100.326459
 30
0.0
 11
208.21878
 21
100.326459
 31
0.0
  0
LINE
  5
373
100
AcDbEntity
  8
DIMS
 62
     4
100
AcDbLine
 10
202.51878
 20
103.726459
 30
0.0
 11
202.51878
 21
106.026459
 31
0.0
  0
LINE
  5
374
100
AcDbEntity
  8
DIMS
 62
     4
100
AcDbLine
 10
202.51878
 20
96.926459
 30
0.0
 11
202.51878
 21
94.626459
 31
0.0
  0
LINE
  5
375
100
AcDbEntity
  8
DIMS
 62
     4
100
AcDbLine
 10
204.21878
 20
100.326459
 30
0.0
 11
200.81878
 21
100.326459
 31
0.0
  0
LINE
  5
376
100
AcDbEntity
  8
DIMS
 62
     4
100
AcDbLine
 10
202.51878
 20
98.626459
 30
0.0
 11
202.51878
 21
102.026459
 31
0.0
  0
LINE
  5
377
102
{ACAD_REACTORS
330
20
102
}
100
AcDbEntity
  8
M01
100
AcDbLine
 10
206.51878
 20
100.326459
 30
0.0
 11
206.51878
 21
96.326459
 31
0.0
  0
LINE
  5
378
102
{ACAD_REACTORS
330
20
102
}
100
AcDbEntity
  8
M01
100
AcDbLine
 10
198.51878
 20
100.326459
 30
0.0
 11
198.51878
 21
96.326459
 31
0.0
  0
CIRCLE
  5
379
102
{ACAD_REACTORS
330
369
330
20
102
}
100
AcDbEntity
  8
M01
100
AcDbCircle
 10
202.51878
 20
100.326459
 30
0.0
 40
4.0
  0
LINE
  5
37A
100
AcDbEntity
  8
DIMS
 62
     4
100
AcDbLine
 10
199.11878
 20
152.326459
 30
0.0
 11
196.81878
 21
152.326459
 31
0.0
  0
LINE
  5
37B
100
AcDbEntity
  8
DIMS
 62
     4
100
AcDbLine
 10
205.91878
 20
152.326459
 30
0.0
 11
208.21878
 21
152.326459
 31
0.0
  0
LINE
  5
37C
100
AcDbEntity
  8
DIMS
 62
     4
100
AcDbLine
 10
202.51878
 20
148.926459
 30
0.0
 11
202.51878
 21
146.626459
 31
0.0
  0
LINE
  5
37D
100
AcDbEntity
  8
DIMS
 62
     4
100
AcDbLine
 10
202.51878
 20
155.726459
 30
0.0
 11
202.51878
 21
158.026459
 31
0.0
  0
LINE
  5
37E
100
AcDbEntity
  8
DIMS
 62
     4
100
AcDbLine
 10
204.21878
 20
152.326459
 30
0.0
 11
200.81878
 21
152.326459
 31
0.0
  0
LINE
  5
37F
100
AcDbEntity
  8
DIMS
 62
     4
100
AcDbLine
 10
202.51878
 20
154.026459
 30
0.0
 11
202.51878
 21
150.626459
 31
0.0
  0
LINE
  5
380
102
{ACAD_REACTORS
330
20
102
}
100
AcDbEntity
  8
M01
100
AcDbLine
 10
206.51878
 20
152.326459
 30
0.0
 11
206.51878
 21
156.326459
 31
0.0
  0
LINE
  5
381
102
{ACAD_REACTORS
330
20
102
}
100
AcDbEntity
  8
M01
100
AcDbLine
 10
198.51878
 20
152.326459
 30
0.0
 11
198.51878
 21
156.326459
 31
0.0
  0
CIRCLE
  5
382
102
{ACAD_REACTORS
330
369
330
20
102
}
100
AcDbEntity
  8
M01
100
AcDbCircle
 10
202.51878
 20
152.326459
 30
0.0
 40
4.0
  0
LINE
  5
383
100
AcDbEntity
  8
DIMS
 62
     4
100
AcDbLine
 10
770.144176
 20
100.326459
 30
0.0
 11
772.444176
 21
100.326459
 31
0.0
  0
LINE
  5
384
100
AcDbEntity
  8
DIMS
 62
     4
100
AcDbLine
 10
763.344176
 20
100.326459
 30
0.0
 11
761.044176
 21
100.326459
 31
0.0
  0
LINE
  5
385
100
AcDbEntity
  8
DIMS
 62
     4
100
AcDbLine
 10
766.744176
 20
103.726459
 30
0.0
 11
766.744176
 21
106.026459
 31
0.0
  0
LINE
  5
386
100
AcDbEntity
  8
DIMS
 62
     4
100
AcDbLine
 10
766.744176
 20
96.926459
 30
0.0
 11
766.744176
 21
94.626459
 31
0.0
  0
LINE
  5
387
100
AcDbEntity
  8
DIMS
 62
     4
100
AcDbLine
 10
765.044176
 20
100.326459
 30
0.0
 11
768.444176
 21
100.326459
 31
0.0
  0
LINE
  5
388
100
AcDbEntity
  8
DIMS
 62
     4
100
AcDbLine
 10
766.744176
 20
98.626459
 30
0.0
 11
766.744176
 21
102.026459
 31
0.0
  0
LINE
  5
389
102
{ACAD_REACTORS
330
1FE
102
}
100
AcDbEntity
  8
M01
100
AcDbLine
 10
762.744176
 20
100.326459
 30
0.0
 11
762.744176
 21
96.326459
 31
0.0
  0
LINE
  5
38A
102
{ACAD_REACTORS
330
1FE
102
}
100
AcDbEntity
  8
M01
100
AcDbLine
 10
770.744176
 20
100.326459
 30
0.0
 11
770.744176
 21
96.326459
 31
0.0
  0
CIRCLE
  5
38B
102
{ACAD_REACTORS
330
346
330
1FE
102
}
100
AcDbEntity
  8
M01
100
AcDbCircle
 10
766.744176
 20
100.326459
 30
0.0
 40
4.0
  0
LINE
  5
38C
100
AcDbEntity
  8
DIMS
 62
     4
100
AcDbLine
 10
770.144176
 20
152.326459
 30
0.0
 11
772.444176
 21
152.326459
 31
0.0
  0
LINE
  5
38D
100
AcDbEntity
  8
DIMS
 62
     4
100
AcDbLine
 10
763.344176
 20
152.326459
 30
0.0
 11
761.044176
 21
152.326459
 31
0.0
  0
LINE
  5
38E
100
AcDbEntity
  8
DIMS
 62
     4
100
AcDbLine
 10
766.744176
 20
148.926459
 30
0.0
 11
766.744176
 21
146.626459
 31
0.0
  0
LINE
  5
38F
100
AcDbEntity
  8
DIMS
 62
     4
100
AcDbLine
 10
766.744176
 20
155.726459
 30
0.0
 11
766.744176
 21
158.026459
 31
0.0
  0
LINE
  5
390
100
AcDbEntity
  8
DIMS
 62
     4
100
AcDbLine
 10
765.044176
 20
152.326459
 30
0.0
 11
768.444176
 21
152.326459
 31
0.0
  0
LINE
  5
391
100
AcDbEntity
  8
DIMS
 62
     4
100
AcDbLine
 10
766.744176
 20
154.026459
 30
0.0
 11
766.744176
 21
150.626459
 31
0.0
  0
LINE
  5
392
102
{ACAD_REACTORS
330
1FE
102
}
100
AcDbEntity
  8
M01
100
AcDbLine
 10
762.744176
 20
152.326459
 30
0.0
 11
762.744176
 21
156.326459
 31
0.0
  0
LINE
  5
393
102
{ACAD_REACTORS
330
1FE
102
}
100
AcDbEntity
  8
M01
100
AcDbLine
 10
770.744176
 20
152.326459
 30
0.0
 11
770.744176
 21
156.326459
 31
0.0
  0
CIRCLE
  5
394
102
{ACAD_REACTORS
330
346
330
1FE
102
}
100
AcDbEntity
  8
M01
100
AcDbCircle
 10
766.744176
 20
152.326459
 30
0.0
 40
4.0
  0
LINE
  5
395
102
{ACAD_REACTORS
330
1FE
102
}
100
AcDbEntity
  8
M04
100
AcDbLine
 10
502.51878
 20
103.626459
 30
0.0
 11
502.51878
 21
106.126459
 31
0.0
  0
LINE
  5
396
102
{ACAD_REACTORS
330
1FE
102
}
100
AcDbEntity
  8
M04
100
AcDbLine
 10
501.81878
 20
104.326459
 30
0.0
 11
501.81878
 21
107.626459
 31
0.0
  0
LINE
  5
397
102
{ACAD_REACTORS
330
1FE
102
}
100
AcDbEntity
  8
M04
100
AcDbLine
 10
496.51878
 20
103.626459
 30
0.0
 11
496.51878
 21
106.126459
 31
0.0
  0
LINE
  5
398
102
{ACAD_REACTORS
330
1FE
102
}
100
AcDbEntity
  8
M04
100
AcDbLine
 10
497.21878
 20
104.326459
 30
0.0
 11
497.21878
 21
107.626459
 31
0.0
  0
LINE
  5
399
102
{ACAD_REACTORS
330
370
102
}
100
AcDbEntity
  8
M05
100
AcDbLine
 10
494.26878
 20
94.326459
 30
0.0
 11
504.76878
 21
94.326459
 31
0.0
  0
LINE
  5
39A
102
{ACAD_REACTORS
330
370
102
}
100
AcDbEntity
  8
M04
100
AcDbLine
 10
504.76878
 20
94.326459
 30
0.0
 11
505.01878
 21
94.326459
 31
0.0
  0
LINE
  5
39B
102
{ACAD_REACTORS
330
370
102
}
100
AcDbEntity
  8
M04
100
AcDbLine
 10
494.01878
 20
94.326459
 30
0.0
 11
494.01878
 21
90.326459
 31
0.0
  0
LINE
  5
39C
102
{ACAD_REACTORS
330
370
102
}
100
AcDbEntity
  8
M04
100
AcDbLine
 10
505.01878
 20
94.326459
 30
0.0
 11
505.01878
 21
90.326459
 31
0.0
  0
LINE
  5
39D
100
AcDbEntity
  8
M05
100
AcDbLine
 10
502.51878
 20
95.326459
 30
0.0
 11
496.51878
 21
95.326459
 31
0.0
  0
LINE
  5
39E
102
{ACAD_REACTORS
330
1FE
102
}
100
AcDbEntity
  8
M04
100
AcDbLine
 10
497.21878
 20
107.626459
 30
0.0
 11
499.51878
 21
108.954365
 31
0.0
  0
LINE
  5
39F
102
{ACAD_REACTORS
330
1FE
102
}
100
AcDbEntity
  8
M04
100
AcDbLine
 10
501.81878
 20
107.626459
 30
0.0
 11
499.51878
 21
108.954365
 31
0.0
  0
LINE
  5
3A0
100
AcDbEntity
  8
M04
100
AcDbLine
 10
501.81878
 20
107.626459
 30
0.0
 11
497.21878
 21
107.626459
 31
0.0
  0
LINE
  5
3A1
102
{ACAD_REACTORS
330
1FE
102
}
100
AcDbEntity
  8
M04
100
AcDbLine
 10
502.51878
 20
106.126459
 30
0.0
 11
496.51878
 21
106.126459
 31
0.0
  0
ARC
  5
3A2
100
AcDbEntity
  8
M05
100
AcDbCircle
 10
499.51878
 20
96.852596
 30
0.0
 40
5.826136
100
AcDbArc
 50
205.69541
 51
334.30459
  0
LINE
  5
3A3
100
AcDbEntity
  8
M05
100
AcDbLine
 10
496.51878
 20
103.626459
 30
0.0
 11
497.21878
 21
104.326459
 31
0.0
  0
LINE
  5
3A4
100
AcDbEntity
  8
M05
100
AcDbLine
 10
502.51878
 20
103.626459
 30
0.0
 11
501.81878
 21
104.326459
 31
0.0
  0
LINE
  5
3A5
100
AcDbEntity
  8
M05
100
AcDbLine
 10
502.51878
 20
103.626459
 30
0.0
 11
496.51878
 21
103.626459
 31
0.0
  0
LINE
  5
3A6
100
AcDbEntity
  8
M05
100
AcDbLine
 10
501.81878
 20
104.326459
 30
0.0
 11
497.21878
 21
104.326459
 31
0.0
  0
LINE
  5
3A7
102
{ACAD_REACTORS
330
370
102
}
100
AcDbEntity
  8
M04
100
AcDbLine
 10
503.21878
 20
96.326459
 30
0.0
 11
503.21878
 21
94.326459
 31
0.0
  0
LINE
  5
3A8
102
{ACAD_REACTORS
330
370
102
}
100
AcDbEntity
  8
M04
100
AcDbLine
 10
495.81878
 20
96.326459
 30
0.0
 11
495.81878
 21
94.326459
 31
0.0
  0
LINE
  5
3A9
100
AcDbEntity
  8
M05
100
AcDbLine
 10
497.21878
 20
104.326459
 30
0.0
 11
497.21878
 21
95.326459
 31
0.0
  0
LINE
  5
3AA
100
AcDbEntity
  8
M05
100
AcDbLine
 10
501.81878
 20
104.326459
 30
0.0
 11
501.81878
 21
95.326459
 31
0.0
  0
LINE
  5
3AB
102
{ACAD_REACTORS
330
1FE
102
}
100
AcDbEntity
  8
M05
100
AcDbLine
 10
502.51878
 20
103.626459
 30
0.0
 11
502.51878
 21
94.326459
 31
0.0
  0
LINE
  5
3AC
102
{ACAD_REACTORS
330
1FE
102
}
100
AcDbEntity
  8
M05
100
AcDbLine
 10
496.51878
 20
103.626459
 30
0.0
 11
496.51878
 21
94.326459
 31
0.0
  0
LINE
  5
3AD
102
{ACAD_REACTORS
330
370
102
}
100
AcDbEntity
  8
M04
100
AcDbLine
 10
494.01878
 20
94.326459
 30
0.0
 11
494.26878
 21
94.326459
 31
0.0
  0
LINE
  5
3AE
100
AcDbEntity
  8
CENTRE
100
AcDbLine
 10
499.51878
 20
111.59296
 30
0.0
 11
499.51878
 21
86.680271
 31
0.0
  0
LINE
  5
3AF
102
{ACAD_REACTORS
330
370
330
1FE
330
1FC
102
}
100
AcDbEntity
  8
M01
100
AcDbLine
 10
554.51878
 20
96.326459
 30
0.0
 11
773.744176
 21
96.326459
 31
0.0
  0
LINE
  5
3B0
102
{ACAD_REACTORS
330
1FE
102
}
100
AcDbEntity
  8
M04
100
AcDbLine
 10
548.51878
 20
103.626459
 30
0.0
 11
548.51878
 21
106.126459
 31
0.0
  0
LINE
  5
3B1
102
{ACAD_REACTORS
330
1FE
102
}
100
AcDbEntity
  8
M04
100
AcDbLine
 10
549.21878
 20
104.326459
 30
0.0
 11
549.21878
 21
107.626459
 31
0.0
  0
LINE
  5
3B2
102
{ACAD_REACTORS
330
1FE
102
}
100
AcDbEntity
  8
M04
100
AcDbLine
 10
554.51878
 20
103.626459
 30
0.0
 11
554.51878
 21
106.126459
 31
0.0
  0
LINE
  5
3B3
102
{ACAD_REACTORS
330
1FE
102
}
100
AcDbEntity
  8
M04
100
AcDbLine
 10
553.81878
 20
104.326459
 30
0.0
 11
553.81878
 21
107.626459
 31
0.0
  0
LINE
  5
3B4
102
{ACAD_REACTORS
330
370
102
}
100
AcDbEntity
  8
M05
100
AcDbLine
 10
556.76878
 20
94.326459
 30
0.0
 11
546.26878
 21
94.326459
 31
0.0
  0
LINE
  5
3B5
102
{ACAD_REACTORS
330
370
102
}
100
AcDbEntity
  8
M04
100
AcDbLine
 10
546.26878
 20
94.326459
 30
0.0
 11
546.01878
 21
94.326459
 31
0.0
  0
LINE
  5
3B6
102
{ACAD_REACTORS
330
370
102
}
100
AcDbEntity
  8
M04
100
AcDbLine
 10
557.01878
 20
94.326459
 30
0.0
 11
557.01878
 21
90.326459
 31
0.0
  0
LINE
  5
3B7
102
{ACAD_REACTORS
330
370
102
}
100
AcDbEntity
  8
M04
100
AcDbLine
 10
546.01878
 20
94.326459
 30
0.0
 11
546.01878
 21
90.326459
 31
0.0
  0
LINE
  5
3B8
100
AcDbEntity
  8
M05
100
AcDbLine
 10
548.51878
 20
95.326459
 30
0.0
 11
554.51878
 21
95.326459
 31
0.0
  0
LINE
  5
3B9
102
{ACAD_REACTORS
330
1FE
102
}
100
AcDbEntity
  8
M04
100
AcDbLine
 10
553.81878
 20
107.626459
 30
0.0
 11
551.51878
 21
108.954365
 31
0.0
  0
LINE
  5
3BA
102
{ACAD_REACTORS
330
1FE
102
}
100
AcDbEntity
  8
M04
100
AcDbLine
 10
549.21878
 20
107.626459
 30
0.0
 11
551.51878
 21
108.954365
 31
0.0
  0
LINE
  5
3BB
100
AcDbEntity
  8
M04
100
AcDbLine
 10
549.21878
 20
107.626459
 30
0.0
 11
553.81878
 21
107.626459
 31
0.0
  0
LINE
  5
3BC
102
{ACAD_REACTORS
330
1FE
102
}
100
AcDbEntity
  8
M04
100
AcDbLine
 10
548.51878
 20
106.126459
 30
0.0
 11
554.51878
 21
106.126459
 31
0.0
  0
ARC
  5
3BD
100
AcDbEntity
  8
M05
100
AcDbCircle
 10
551.51878
 20
96.852596
 30
0.0
 40
5.826136
100
AcDbArc
 50
205.69541
 51
334.30459
  0
LINE
  5
3BE
100
AcDbEntity
  8
M05
100
AcDbLine
 10
554.51878
 20
103.626459
 30
0.0
 11
553.81878
 21
104.326459
 31
0.0
  0
LINE
  5
3BF
100
AcDbEntity
  8
M05
100
AcDbLine
 10
548.51878
 20
103.626459
 30
0.0
 11
549.21878
 21
104.326459
 31
0.0
  0
LINE
  5
3C0
100
AcDbEntity
  8
M05
100
AcDbLine
 10
548.51878
 20
103.626459
 30
0.0
 11
554.51878
 21
103.626459
 31
0.0
  0
LINE
  5
3C1
100
AcDbEntity
  8
M05
100
AcDbLine
 10
549.21878
 20
104.326459
 30
0.0
 11
553.81878
 21
104.326459
 31
0.0
  0
LINE
  5
3C2
102
{ACAD_REACTORS
330
370
102
}
100
AcDbEntity
  8
M04
100
AcDbLine
 10
547.81878
 20
96.326459
 30
0.0
 11
547.81878
 21
94.326459
 31
0.0
  0
LINE
  5
3C3
102
{ACAD_REACTORS
330
370
102
}
100
AcDbEntity
  8
M04
100
AcDbLine
 10
555.21878
 20
96.326459
 30
0.0
 11
555.21878
 21
94.326459
 31
0.0
  0
LINE
  5
3C4
100
AcDbEntity
  8
M05
100
AcDbLine
 10
553.81878
 20
104.326459
 30
0.0
 11
553.81878
 21
95.326459
 31
0.0
  0
LINE
  5
3C5
100
AcDbEntity
  8
M05
100
AcDbLine
 10
549.21878
 20
104.326459
 30
0.0
 11
549.21878
 21
95.326459
 31
0.0
  0
LINE
  5
3C6
102
{ACAD_REACTORS
330
1FE
102
}
100
AcDbEntity
  8
M05
100
AcDbLine
 10
548.51878
 20
103.626459
 30
0.0
 11
548.51878
 21
94.326459
 31
0.0
  0
LINE
  5
3C7
102
{ACAD_REACTORS
330
1FE
102
}
100
AcDbEntity
  8
M05
100
AcDbLine
 10
554.51878
 20
103.626459
 30
0.0
 11
554.51878
 21
94.326459
 31
0.0
  0
LINE
  5
3C8
102
{ACAD_REACTORS
330
370
102
}
100
AcDbEntity
  8
M04
100
AcDbLine
 10
557.01878
 20
94.326459
 30
0.0
 11
556.76878
 21
94.326459
 31
0.0
  0
LINE
  5
3C9
100
AcDbEntity
  8
CENTRE
100
AcDbLine
 10
551.51878
 20
111.59296
 30
0.0
 11
551.51878
 21
86.680271
 31
0.0
  0
LINE
  5
3CA
102
{ACAD_REACTORS
330
B1
102
}
100
AcDbEntity
  8
M04
100
AcDbLine
 10
228.51878
 20
89.326459
 30
0.0
 11
506.01878
 21
89.326459
 31
0.0
  0
LINE
  5
3CB
102
{ACAD_REACTORS
330
1FB
102
}
100
AcDbEntity
  8
M02
100
AcDbLine
 10
249.51878
 20
93.326459
 30
0.0
 11
491.51878
 21
93.326459
 31
0.0
  0
LINE
  5
3CC
100
AcDbEntity
  8
M04
100
AcDbLine
 10
225.51878
 20
71.498554
 30
0.0
 11
227.81878
 21
72.826459
 31
0.0
  0
LINE
  5
3CD
100
AcDbEntity
  8
M04
100
AcDbLine
 10
223.21878
 20
72.826459
 30
0.0
 11
225.51878
 21
71.498554
 31
0.0
  0
LINE
  5
3CE
100
AcDbEntity
  8
M04
100
AcDbLine
 10
223.21878
 20
72.826459
 30
0.0
 11
227.81878
 21
72.826459
 31
0.0
  0
LINE
  5
3CF
100
AcDbEntity
  8
M04
100
AcDbLine
 10
222.51878
 20
77.887577
 30
0.0
 11
222.51878
 21
74.326459
 31
0.0
  0
LINE
  5
3D0
100
AcDbEntity
  8
M04
100
AcDbLine
 10
223.21878
 20
77.187577
 30
0.0
 11
223.21878
 21
72.826459
 31
0.0
  0
LINE
  5
3D1
100
AcDbEntity
  8
M04
100
AcDbLine
 10
228.51878
 20
77.887577
 30
0.0
 11
228.51878
 21
74.326459
 31
0.0
  0
LINE
  5
3D2
100
AcDbEntity
  8
M04
100
AcDbLine
 10
227.81878
 20
77.187577
 30
0.0
 11
227.81878
 21
72.826459
 31
0.0
  0
LINE
  5
3D3
100
AcDbEntity
  8
M05
100
AcDbLine
 10
227.81878
 20
77.187577
 30
0.0
 11
228.51878
 21
77.887577
 31
0.0
  0
LINE
  5
3D4
100
AcDbEntity
  8
M05
100
AcDbLine
 10
222.51878
 20
77.887577
 30
0.0
 11
223.21878
 21
77.187577
 31
0.0
  0
LINE
  5
3D5
100
AcDbEntity
  8
M05
100
AcDbLine
 10
227.81878
 20
89.967577
 30
0.0
 11
227.81878
 21
77.187577
 31
0.0
  0
LINE
  5
3D6
100
AcDbEntity
  8
M05
100
AcDbLine
 10
223.21878
 20
89.967577
 30
0.0
 11
223.21878
 21
77.187577
 31
0.0
  0
LINE
  5
3D7
100
AcDbEntity
  8
M05
100
AcDbLine
 10
222.51878
 20
77.887577
 30
0.0
 11
228.51878
 21
77.887577
 31
0.0
  0
LINE
  5
3D8
100
AcDbEntity
  8
M04
100
AcDbLine
 10
222.51878
 20
74.326459
 30
0.0
 11
228.51878
 21
74.326459
 31
0.0
  0
LINE
  5
3D9
100
AcDbEntity
  8
M05
100
AcDbLine
 10
223.21878
 20
77.187577
 30
0.0
 11
227.81878
 21
77.187577
 31
0.0
  0
LINE
  5
3DA
102
{ACAD_REACTORS
330
20
102
}
100
AcDbEntity
  8
M05
  6
HIDDEN
100
AcDbLine
 10
217.359898
 20
96.626459
 30
0.0
 11
216.659898
 21
97.326459
 31
0.0
  0
LINE
  5
3DB
102
{ACAD_REACTORS
330
20
102
}
100
AcDbEntity
  8
M05
  6
HIDDEN
100
AcDbLine
 10
233.677662
 20
96.626459
 30
0.0
 11
234.377662
 21
97.326459
 31
0.0
  0
LINE
  5
3DC
100
AcDbEntity
  8
M05
100
AcDbLine
 10
222.51878
 20
89.967577
 30
0.0
 11
228.51878
 21
89.967577
 31
0.0
  0
LINE
  5
3DD
100
AcDbEntity
  8
M05
100
AcDbLine
 10
226.06878
 20
94.467577
 30
0.0
 11
231.51878
 21
94.467577
 31
0.0
  0
LINE
  5
3DE
100
AcDbEntity
  8
M05
100
AcDbLine
 10
226.06878
 20
95.187577
 30
0.0
 11
231.51878
 21
95.187577
 31
0.0
  0
LINE
  5
3DF
100
AcDbEntity
  8
M05
100
AcDbLine
 10
226.06878
 20
95.187577
 30
0.0
 11
226.06878
 21
93.687577
 31
0.0
  0
LINE
  5
3E0
100
AcDbEntity
  8
M05
100
AcDbLine
 10
224.96878
 20
95.187577
 30
0.0
 11
224.96878
 21
93.687577
 31
0.0
  0
LINE
  5
3E1
100
AcDbEntity
  8
M05
100
AcDbLine
 10
224.96878
 20
93.687577
 30
0.0
 11
226.06878
 21
93.687577
 31
0.0
  0
LINE
  5
3E2
102
{ACAD_REACTORS
330
B1
102
}
100
AcDbEntity
  8
M05
100
AcDbLine
 10
229.01878
 20
91.967577
 30
0.0
 11
229.01878
 21
89.326459
 31
0.0
  0
LINE
  5
3E3
102
{ACAD_REACTORS
330
B1
102
}
100
AcDbEntity
  8
M05
100
AcDbLine
 10
222.01878
 20
91.967577
 30
0.0
 11
222.01878
 21
89.326459
 31
0.0
  0
LINE
  5
3E4
100
AcDbEntity
  8
M05
100
AcDbLine
 10
219.51878
 20
94.467577
 30
0.0
 11
224.96878
 21
94.467577
 31
0.0
  0
LINE
  5
3E5
102
{ACAD_REACTORS
330
B1
330
20
102
}
100
AcDbEntity
  8
M05
100
AcDbLine
 10
222.51878
 20
91.467577
 30
0.0
 11
217.359898
 21
96.626459
 31
0.0
  0
LINE
  5
3E6
100
AcDbEntity
  8
M05
100
AcDbLine
 10
219.51878
 20
95.187577
 30
0.0
 11
219.51878
 21
94.467577
 31
0.0
  0
LINE
  5
3E7
102
{ACAD_REACTORS
330
B1
330
20
102
}
100
AcDbEntity
  8
M05
100
AcDbLine
 10
228.51878
 20
91.467577
 30
0.0
 11
233.677662
 21
96.626459
 31
0.0
  0
LINE
  5
3E8
100
AcDbEntity
  8
M05
100
AcDbLine
 10
222.51878
 20
91.467577
 30
0.0
 11
228.51878
 21
91.467577
 31
0.0
  0
LINE
  5
3E9
100
AcDbEntity
  8
M05
100
AcDbLine
 10
222.51878
 20
91.467577
 30
0.0
 11
222.51878
 21
77.887577
 31
0.0
  0
LINE
  5
3EA
100
AcDbEntity
  8
M05
100
AcDbLine
 10
228.51878
 20
91.467577
 30
0.0
 11
228.51878
 21
77.887577
 31
0.0
  0
LINE
  5
3EB
100
AcDbEntity
  8
M05
100
AcDbLine
 10
231.51878
 20
95.187577
 30
0.0
 11
231.51878
 21
94.467577
 31
0.0
  0
LINE
  5
3EC
100
AcDbEntity
  8
M05
100
AcDbLine
 10
219.51878
 20
95.187577
 30
0.0
 11
224.96878
 21
95.187577
 31
0.0
  0
LINE
  5
3ED
102
{ACAD_REACTORS
330
20
102
}
100
AcDbEntity
  8
M05
  6
HIDDEN
100
AcDbLine
 10
201.51878
 20
96.626459
 30
0.0
 11
249.51878
 21
96.626459
 31
0.0
  0
LINE
  5
3EE
102
{ACAD_REACTORS
330
20
102
}
100
AcDbEntity
  8
M05
  6
HIDDEN
100
AcDbLine
 10
249.51878
 20
96.626459
 30
0.0
 11
248.81878
 21
97.326459
 31
0.0
  0
LINE
  5
3EF
102
{ACAD_REACTORS
330
20
102
}
100
AcDbEntity
  8
M05
  6
HIDDEN
100
AcDbLine
 10
249.51878
 20
95.626459
 30
0.0
 11
249.51878
 21
96.626459
 31
0.0
  0
LINE
  5
3F0
102
{ACAD_REACTORS
330
B1
102
}
100
AcDbEntity
  8
M05
100
AcDbLine
 10
249.51878
 20
95.626459
 30
0.0
 11
248.81878
 21
96.326459
 31
0.0
  0
LINE
  5
3F1
102
{ACAD_REACTORS
330
B1
102
}
100
AcDbEntity
  8
M05
100
AcDbLine
 10
249.51878
 20
90.026459
 30
0.0
 11
248.81878
 21
89.326459
 31
0.0
  0
LINE
  5
3F2
102
{ACAD_REACTORS
330
B1
102
}
100
AcDbEntity
  8
M05
100
AcDbLine
 10
249.51878
 20
95.626459
 30
0.0
 11
249.51878
 21
90.026459
 31
0.0
  0
LINE
  5
3F3
100
AcDbEntity
  8
M05
  6
HIDDEN
100
AcDbLine
 10
201.51878
 20
96.626459
 30
0.0
 11
202.21878
 21
97.326459
 31
0.0
  0
LINE
  5
3F4
100
AcDbEntity
  8
M05
  6
HIDDEN
100
AcDbLine
 10
201.51878
 20
95.626459
 30
0.0
 11
201.51878
 21
96.626459
 31
0.0
  0
LINE
  5
3F5
102
{ACAD_REACTORS
330
B1
102
}
100
AcDbEntity
  8
M05
100
AcDbLine
 10
201.51878
 20
95.626459
 30
0.0
 11
202.21878
 21
96.326459
 31
0.0
  0
LINE
  5
3F6
102
{ACAD_REACTORS
330
B1
102
}
100
AcDbEntity
  8
M05
100
AcDbLine
 10
201.51878
 20
90.026459
 30
0.0
 11
202.21878
 21
89.326459
 31
0.0
  0
LINE
  5
3F7
102
{ACAD_REACTORS
330
1FB
102
}
100
AcDbEntity
  8
M02
100
AcDbLine
 10
250.51878
 20
96.326459
 30
0.0
 11
250.51878
 21
93.326459
 31
0.0
  0
LINE
  5
3F8
102
{ACAD_REACTORS
330
B4
102
}
100
AcDbEntity
  8
M02
100
AcDbLine
 10
200.51878
 20
96.326459
 30
0.0
 11
200.51878
 21
93.326459
 31
0.0
  0
LINE
  5
3F9
102
{ACAD_REACTORS
330
20
102
}
100
AcDbEntity
  8
M05
  6
HIDDEN
100
AcDbLine
 10
202.21878
 20
97.326459
 30
0.0
 11
248.81878
 21
97.326459
 31
0.0
  0
LINE
  5
3FA
102
{ACAD_REACTORS
330
B1
102
}
100
AcDbEntity
  8
M05
100
AcDbLine
 10
201.51878
 20
95.626459
 30
0.0
 11
201.51878
 21
90.026459
 31
0.0
  0
LINE
  5
3FB
102
{ACAD_REACTORS
330
20
102
}
100
AcDbEntity
  8
CENTRE
100
AcDbLine
 10
225.51878
 20
101.83557
 30
0.0
 11
225.51878
 21
68.757232
 31
0.0
  0
LINE
  5
3FC
100
AcDbEntity
  8
M01
100
AcDbLine
 10
521.51878
 20
119.326459
 30
0.0
 11
525.51878
 21
123.326459
 31
0.0
  0
LINE
  5
3FD
100
AcDbEntity
  8
M01
100
AcDbLine
 10
529.51878
 20
119.326459
 30
0.0
 11
525.51878
 21
123.326459
 31
0.0
  0
TEXT
  5
3FE
102
{ACAD_REACTORS
330
370
102
}
100
AcDbEntity
  8
TEXT
100
AcDbText
 10
530.59286
 20
91.893947
 30
0.0
 40
2.0
  1
MA010000
 41
0.9
100
AcDbText
  0
LINE
  5
3FF
100
AcDbEntity
  8
M04
100
AcDbLine
 10
495.51878
 20
71.326459
 30
0.0
 11
495.51878
 21
62.326459
 31
0.0
  0
LINE
  5
400
100
AcDbEntity
  8
M04
100
AcDbLine
 10
545.01878
 20
89.326459
 30
0.0
 11
800.294958
 21
89.326459
 31
0.0
  0
LINE
  5
401
102
{ACAD_REACTORS
330
370
102
}
100
AcDbEntity
  8
M05
100
AcDbLine
 10
491.51878
 20
91.026459
 30
0.0
 11
492.21878
 21
90.326459
 31
0.0
  0
LINE
  5
402
102
{ACAD_REACTORS
330
1FB
102
}
100
AcDbEntity
  8
M02
100
AcDbLine
 10
490.51878
 20
96.326459
 30
0.0
 11
490.51878
 21
93.326459
 31
0.0
  0
LINE
  5
403
102
{ACAD_REACTORS
330
370
330
1FE
102
}
100
AcDbEntity
  8
M01
100
AcDbLine
 10
535.51878
 20
96.326459
 30
0.0
 11
548.51878
 21
96.326459
 31
0.0
  0
LINE
  5
404
100
AcDbEntity
  8
M04
100
AcDbLine
 10
495.51878
 20
71.326459
 30
0.0
 11
555.51878
 21
71.326459
 31
0.0
  0
LINE
  5
405
100
AcDbEntity
  8
M04
100
AcDbLine
 10
505.51878
 20
81.326459
 30
0.0
 11
495.51878
 21
71.326459
 31
0.0
  0
LINE
  5
406
100
AcDbEntity
  8
M04
100
AcDbLine
 10
555.51878
 20
71.326459
 30
0.0
 11
555.51878
 21
62.326459
 31
0.0
  0
LINE
  5
407
100
AcDbEntity
  8
M04
100
AcDbLine
 10
545.51878
 20
81.326459
 30
0.0
 11
555.51878
 21
71.326459
 31
0.0
  0
LINE
  5
408
100
AcDbEntity
  8
M05
100
AcDbLine
 10
522.477906
 20
88.025245
 30
0.0
 11
528.559654
 21
88.025245
 31
0.0
  0
ARC
  5
409
102
{ACAD_REACTORS
330
370
102
}
100
AcDbEntity
  8
M05
100
AcDbCircle
 10
525.51878
 20
72.826459
 30
0.0
 40
15.5
100
AcDbArc
 50
101.313981
 51
126.249321
  0
LINE
  5
40A
102
{ACAD_REACTORS
330
1FE
102
}
100
AcDbEntity
  8
M01
100
AcDbLine
 10
521.51878
 20
119.326459
 30
0.0
 11
521.51878
 21
106.326459
 31
0.0
  0
LINE
  5
40B
102
{ACAD_REACTORS
330
370
102
}
100
AcDbEntity
  8
M05
100
AcDbLine
 10
521.51878
 20
106.326459
 30
0.0
 11
522.477906
 21
88.025245
 31
0.0
  0
LINE
  5
40C
102
{ACAD_REACTORS
330
370
102
}
100
AcDbEntity
  8
M05
100
AcDbLine
 10
529.51878
 20
106.326459
 30
0.0
 11
528.559654
 21
88.025245
 31
0.0
  0
ARC
  5
40D
102
{ACAD_REACTORS
330
370
102
}
100
AcDbEntity
  8
M05
100
AcDbCircle
 10
525.51878
 20
72.826459
 30
0.0
 40
15.5
100
AcDbArc
 50
53.750679
 51
78.686019
  0
LINE
  5
40E
102
{ACAD_REACTORS
330
1FE
102
}
100
AcDbEntity
  8
M01
100
AcDbLine
 10
529.51878
 20
119.326459
 30
0.0
 11
529.51878
 21
106.326459
 31
0.0
  0
LINE
  5
40F
100
AcDbEntity
  8
M04
100
AcDbLine
 10
505.51878
 20
87.326459
 30
0.0
 11
505.51878
 21
89.326459
 31
0.0
  0
LINE
  5
410
100
AcDbEntity
  8
M04
100
AcDbLine
 10
505.51878
 20
86.026459
 30
0.0
 11
505.51878
 21
81.326459
 31
0.0
  0
LINE
  5
411
100
AcDbEntity
  8
M04
100
AcDbLine
 10
545.51878
 20
87.326459
 30
0.0
 11
545.51878
 21
89.326459
 31
0.0
  0
LINE
  5
412
100
AcDbEntity
  8
M04
100
AcDbLine
 10
545.51878
 20
86.026459
 30
0.0
 11
545.51878
 21
81.326459
 31
0.0
  0
LINE
  5
413
100
AcDbEntity
  8
M04
100
AcDbLine
 10
545.51878
 20
81.326459
 30
0.0
 11
505.51878
 21
81.326459
 31
0.0
  0
LINE
  5
414
102
{ACAD_REACTORS
330
370
102
}
100
AcDbEntity
  8
M05
100
AcDbLine
 10
506.01878
 20
87.326459
 30
0.0
 11
505.51878
 21
87.326459
 31
0.0
  0
LINE
  5
415
102
{ACAD_REACTORS
330
370
102
}
100
AcDbEntity
  8
M05
100
AcDbLine
 10
506.01878
 20
90.326459
 30
0.0
 11
492.21878
 21
90.326459
 31
0.0
  0
LINE
  5
416
102
{ACAD_REACTORS
330
370
102
}
100
AcDbEntity
  8
M05
100
AcDbLine
 10
506.01878
 20
90.326459
 30
0.0
 11
506.01878
 21
87.326459
 31
0.0
  0
LINE
  5
417
102
{ACAD_REACTORS
330
370
102
}
100
AcDbEntity
  8
M05
100
AcDbLine
 10
545.01878
 20
90.326459
 30
0.0
 11
545.01878
 21
87.326459
 31
0.0
  0
LINE
  5
418
102
{ACAD_REACTORS
330
370
102
}
100
AcDbEntity
  8
M05
100
AcDbLine
 10
545.51878
 20
87.326459
 30
0.0
 11
545.01878
 21
87.326459
 31
0.0
  0
LINE
  5
419
102
{ACAD_REACTORS
330
370
102
}
100
AcDbEntity
  8
M05
100
AcDbLine
 10
506.21878
 20
85.326459
 30
0.0
 11
505.51878
 21
86.026459
 31
0.0
  0
LINE
  5
41A
102
{ACAD_REACTORS
330
370
102
}
100
AcDbEntity
  8
M05
100
AcDbLine
 10
544.81878
 20
85.326459
 30
0.0
 11
545.51878
 21
86.026459
 31
0.0
  0
LINE
  5
41B
102
{ACAD_REACTORS
330
370
102
}
100
AcDbEntity
  8
M05
100
AcDbLine
 10
544.81878
 20
85.326459
 30
0.0
 11
506.21878
 21
85.326459
 31
0.0
  0
LINE
  5
41C
102
{ACAD_REACTORS
330
370
102
}
100
AcDbEntity
  8
M05
100
AcDbLine
 10
505.51878
 20
87.326459
 30
0.0
 11
505.51878
 21
86.026459
 31
0.0
  0
LINE
  5
41D
102
{ACAD_REACTORS
330
370
102
}
100
AcDbEntity
  8
M05
100
AcDbLine
 10
545.51878
 20
87.326459
 30
0.0
 11
545.51878
 21
86.026459
 31
0.0
  0
LINE
  5
41E
102
{ACAD_REACTORS
330
1FE
102
}
100
AcDbEntity
  8
M04
100
AcDbLine
 10
515.51878
 20
96.826459
 30
0.0
 11
515.01878
 21
96.326459
 31
0.0
  0
LINE
  5
41F
102
{ACAD_REACTORS
330
1FE
102
}
100
AcDbEntity
  8
M04
100
AcDbLine
 10
535.51878
 20
96.826459
 30
0.0
 11
536.01878
 21
96.326459
 31
0.0
  0
LINE
  5
420
102
{ACAD_REACTORS
330
370
102
}
100
AcDbEntity
  8
M05
100
AcDbLine
 10
491.51878
 20
95.626459
 30
0.0
 11
492.21878
 21
96.326459
 31
0.0
  0
LINE
  5
421
102
{ACAD_REACTORS
330
370
102
}
100
AcDbEntity
  8
M05
100
AcDbLine
 10
491.51878
 20
95.626459
 30
0.0
 11
491.51878
 21
91.026459
 31
0.0
  0
LINE
  5
422
102
{ACAD_REACTORS
330
370
102
}
100
AcDbEntity
  8
M05
100
AcDbLine
 10
559.51878
 20
95.626459
 30
0.0
 11
558.81878
 21
96.326459
 31
0.0
  0
LINE
  5
423
102
{ACAD_REACTORS
330
370
102
}
100
AcDbEntity
  8
M05
100
AcDbLine
 10
559.51878
 20
91.026459
 30
0.0
 11
558.81878
 21
90.326459
 31
0.0
  0
LINE
  5
424
102
{ACAD_REACTORS
330
1FC
102
}
100
AcDbEntity
  8
M02
100
AcDbLine
 10
560.51878
 20
96.326459
 30
0.0
 11
560.51878
 21
93.326459
 31
0.0
  0
LINE
  5
425
102
{ACAD_REACTORS
330
370
102
}
100
AcDbEntity
  8
M05
100
AcDbLine
 10
558.81878
 20
90.326459
 30
0.0
 11
545.01878
 21
90.326459
 31
0.0
  0
LINE
  5
426
102
{ACAD_REACTORS
330
370
102
}
100
AcDbEntity
  8
M05
100
AcDbLine
 10
559.51878
 20
95.626459
 30
0.0
 11
559.51878
 21
91.026459
 31
0.0
  0
LINE
  5
427
102
{ACAD_REACTORS
330
1FE
102
}
100
AcDbEntity
  8
M04
100
AcDbLine
 10
515.51878
 20
105.326459
 30
0.0
 11
515.51878
 21
106.326459
 31
0.0
  0
LINE
  5
428
102
{ACAD_REACTORS
330
1FE
102
}
100
AcDbEntity
  8
M04
100
AcDbLine
 10
516.51878
 20
106.326459
 30
0.0
 11
515.51878
 21
106.326459
 31
0.0
  0
LINE
  5
429
102
{ACAD_REACTORS
330
1FE
102
}
100
AcDbEntity
  8
M04
100
AcDbLine
 10
535.51878
 20
105.326459
 30
0.0
 11
535.51878
 21
106.326459
 31
0.0
  0
LINE
  5
42A
102
{ACAD_REACTORS
330
1FE
102
}
100
AcDbEntity
  8
M04
100
AcDbLine
 10
534.51878
 20
106.326459
 30
0.0
 11
535.51878
 21
106.326459
 31
0.0
  0
LINE
  5
42B
102
{ACAD_REACTORS
330
370
102
}
100
AcDbEntity
  8
M05
100
AcDbLine
 10
534.51878
 20
106.326459
 30
0.0
 11
535.51878
 21
105.326459
 31
0.0
  0
LINE
  5
42C
102
{ACAD_REACTORS
330
370
102
}
100
AcDbEntity
  8
M05
100
AcDbLine
 10
515.51878
 20
105.326459
 30
0.0
 11
516.51878
 21
106.326459
 31
0.0
  0
LINE
  5
42D
102
{ACAD_REACTORS
330
370
330
1FE
102
}
100
AcDbEntity
  8
M05
100
AcDbLine
 10
534.51878
 20
106.326459
 30
0.0
 11
516.51878
 21
106.326459
 31
0.0
  0
LINE
  5
42E
102
{ACAD_REACTORS
330
370
330
1FE
102
}
100
AcDbEntity
  8
M05
100
AcDbLine
 10
515.51878
 20
105.326459
 30
0.0
 11
515.51878
 21
96.326459
 31
0.0
  0
LINE
  5
42F
102
{ACAD_REACTORS
330
370
330
1FE
102
}
100
AcDbEntity
  8
M05
100
AcDbLine
 10
535.51878
 20
105.326459
 30
0.0
 11
535.51878
 21
96.326459
 31
0.0
  0
LINE
  5
430
100
AcDbEntity
  8
M04
100
AcDbLine
 10
547.24378
 20
163.326459
 30
0.0
 11
683.524052
 21
163.326459
 31
0.0
  0
LINE
  5
431
102
{ACAD_REACTORS
330
1F5
102
}
100
AcDbEntity
  8
M02
100
AcDbLine
 10
547.24378
 20
159.326459
 30
0.0
 11
683.524052
 21
159.326459
 31
0.0
  0
LINE
  5
432
102
{ACAD_REACTORS
330
B4
102
}
100
AcDbEntity
  8
M02
100
AcDbLine
 10
194.16878
 20
93.326459
 30
0.0
 11
201.51878
 21
93.326459
 31
0.0
  0
LINE
  5
433
102
{ACAD_REACTORS
330
1FC
102
}
100
AcDbEntity
  8
M02
100
AcDbLine
 10
773.744176
 20
96.326459
 30
0.0
 11
773.744176
 21
93.326459
 31
0.0
  0
LINE
  5
434
102
{ACAD_REACTORS
330
B4
102
}
100
AcDbEntity
  8
M02
100
AcDbLine
 10
194.16878
 20
96.326459
 30
0.0
 11
194.16878
 21
93.326459
 31
0.0
  0
LINE
  5
435
102
{ACAD_REACTORS
330
1FA
330
1F9
102
}
100
AcDbEntity
  8
M02
100
AcDbLine
 10
194.16878
 20
159.326459
 30
0.0
 11
503.79378
 21
159.326459
 31
0.0
  0
LINE
  5
436
102
{ACAD_REACTORS
330
1FD
102
}
100
AcDbEntity
  8
M02
100
AcDbLine
 10
773.744176
 20
156.326459
 30
0.0
 11
773.744176
 21
159.326459
 31
0.0
  0
LINE
  5
437
102
{ACAD_REACTORS
330
1F9
102
}
100
AcDbEntity
  8
M02
100
AcDbLine
 10
194.16878
 20
156.326459
 30
0.0
 11
194.16878
 21
159.326459
 31
0.0
  0
LINE
  5
438
102
{ACAD_REACTORS
330
1FE
102
}
100
AcDbEntity
  8
M01
100
AcDbLine
 10
775.744176
 20
98.326459
 30
0.0
 11
773.744176
 21
96.326459
 31
0.0
  0
LINE
  5
439
102
{ACAD_REACTORS
330
1FE
102
}
100
AcDbEntity
  8
M01
100
AcDbLine
 10
773.744176
 20
156.326459
 30
0.0
 11
775.744176
 21
154.326459
 31
0.0
  0
LINE
  5
43A
102
{ACAD_REACTORS
330
20
102
}
100
AcDbEntity
  8
M01
100
AcDbLine
 10
192.16878
 20
154.326459
 30
0.0
 11
194.16878
 21
156.326459
 31
0.0
  0
LINE
  5
43B
102
{ACAD_REACTORS
330
20
102
}
100
AcDbEntity
  8
M01
100
AcDbLine
 10
194.16878
 20
96.326459
 30
0.0
 11
192.16878
 21
98.326459
 31
0.0
  0
LINE
  5
43C
102
{ACAD_REACTORS
330
1FE
102
}
100
AcDbEntity
  8
M01
100
AcDbLine
 10
775.744176
 20
154.326459
 30
0.0
 11
775.744176
 21
98.326459
 31
0.0
  0
LINE
  5
43D
102
{ACAD_REACTORS
330
20
102
}
100
AcDbEntity
  8
M01
100
AcDbLine
 10
192.16878
 20
154.326459
 30
0.0
 11
192.16878
 21
98.326459
 31
0.0
  0
LINE
  5
43E
102
{ACAD_REACTORS
330
370
330
1FE
330
1FB
330
B4
330
B1
330
20
102
}
100
AcDbEntity
  8
M01
100
AcDbLine
 10
194.16878
 20
96.326459
 30
0.0
 11
515.51878
 21
96.326459
 31
0.0
  0
LINE
  5
43F
102
{ACAD_REACTORS
330
1FE
330
1FA
330
1F9
330
1F5
330
20
102
}
100
AcDbEntity
  8
M01
100
AcDbLine
 10
194.16878
 20
156.326459
 30
0.0
 11
683.524052
 21
156.326459
 31
0.0
  0
LINE
  5
440
100
AcDbEntity
  8
M04
100
AcDbLine
 10
185.16878
 20
163.326459
 30
0.0
 11
503.79378
 21
163.326459
 31
0.0
  0
LINE
  5
441
102
{ACAD_REACTORS
330
1FE
102
}
100
AcDbEntity
  8
CENTRE
100
AcDbLine
 10
525.51878
 20
193.961206
 30
0.0
 11
525.51878
 21
53.006517
 31
0.0
  0
LINE
  5
442
100
AcDbEntity
  8
M04
100
AcDbLine
 10
782.744176
 20
163.326459
 30
0.0
 11
782.744176
 21
89.326459
 31
0.0
  0
LINE
  5
443
100
AcDbEntity
  8
M04
100
AcDbLine
 10
185.16878
 20
163.326459
 30
0.0
 11
185.16878
 21
89.326459
 31
0.0
  0
LINE
  5
444
102
{ACAD_REACTORS
330
B1
102
}
100
AcDbEntity
  8
M04
100
AcDbLine
 10
167.617998
 20
89.326459
 30
0.0
 11
222.51878
 21
89.326459
 31
0.0
  0
LINE
  5
445
100
AcDbEntity
  8
M04
100
AcDbLine
 10
434.744176
 20
390.559226
 30
0.0
 11
616.293383
 21
390.559226
 31
0.0
  0
LINE
  5
446
100
AcDbEntity
  8
M04
100
AcDbLine
 10
434.744176
 20
474.559226
 30
0.0
 11
616.293383
 21
474.559226
 31
0.0
  0
LINE
  5
447
100
AcDbEntity
  8
M01
100
AcDbLine
 10
434.744176
 20
397.559226
 30
0.0
 11
616.293383
 21
397.559226
 31
0.0
  0
LINE
  5
448
100
AcDbEntity
  8
M01
100
AcDbLine
 10
434.744176
 20
467.559226
 30
0.0
 11
616.293383
 21
467.559226
 31
0.0
  0
LINE
  5
449
100
AcDbEntity
  8
CENTRE
100
AcDbLine
 10
325.51878
 20
652.003033
 30
0.0
 11
325.51878
 21
312.074032
 31
0.0
  0
CIRCLE
  5
44A
100
AcDbEntity
  8
M03
100
AcDbCircle
 10
825.51878
 20
532.559226
 30
0.0
 40
25.0
  0
CIRCLE
  5
44B
100
AcDbEntity
  8
M03
100
AcDbCircle
 10
825.51878
 20
532.559226
 30
0.0
 40
24.0
  0
LINE
  5
44C
100
AcDbEntity
  8
M01
100
AcDbLine
 10
740.76878
 20
579.503326
 30
0.0
 11
734.26878
 21
579.503326
 31
0.0
  0
LINE
  5
44D
100
AcDbEntity
  8
M01
100
AcDbLine
 10
740.76878
 20
587.615126
 30
0.0
 11
734.26878
 21
587.615126
 31
0.0
  0
LINE
  5
44E
100
AcDbEntity
  8
M01
100
AcDbLine
 10
740.76878
 20
579.503326
 30
0.0
 11
740.76878
 21
577.559226
 31
0.0
  0
ARC
  5
44F
100
AcDbEntity
  8
M01
100
AcDbCircle
 10
742.01878
 20
581.064576
 30
0.0
 40
2.0
100
AcDbArc
 50
180.0
 51
231.317813
  0
ARC
  5
450
100
AcDbEntity
  8
M01
100
AcDbCircle
 10
742.01878
 20
586.053876
 30
0.0
 40
2.0
100
AcDbArc
 50
128.682187
 51
180.0
  0
LINE
  5
451
100
AcDbEntity
  8
M01
100
AcDbLine
 10
740.76878
 20
589.559226
 30
0.0
 11
740.76878
 21
587.615126
 31
0.0
  0
LINE
  5
452
100
AcDbEntity
  8
M01
100
AcDbLine
 10
740.01878
 20
586.053876
 30
0.0
 11
740.01878
 21
581.064576
 31
0.0
  0
LINE
  5
453
100
AcDbEntity
  8
M01
100
AcDbLine
 10
734.26878
 20
579.503326
 30
0.0
 11
734.26878
 21
577.559226
 31
0.0
  0
ARC
  5
454
100
AcDbEntity
  8
M01
100
AcDbCircle
 10
733.01878
 20
581.064576
 30
0.0
 40
2.0
100
AcDbArc
 50
308.682187
 51
0.0
  0
ARC
  5
455
100
AcDbEntity
  8
M01
100
AcDbCircle
 10
733.01878
 20
586.053876
 30
0.0
 40
2.0
100
AcDbArc
 50
0.0
 51
51.317813
  0
LINE
  5
456
100
AcDbEntity
  8
M01
100
AcDbLine
 10
734.26878
 20
589.559226
 30
0.0
 11
734.26878
 21
587.615126
 31
0.0
  0
LINE
  5
457
100
AcDbEntity
  8
M01
100
AcDbLine
 10
735.01878
 20
586.053876
 30
0.0
 11
735.01878
 21
581.064576
 31
0.0
  0
LINE
  5
458
100
AcDbEntity
  8
M01
100
AcDbLine
 10
733.01878
 20
589.559226
 30
0.0
 11
742.01878
 21
589.559226
 31
0.0
  0
LINE
  5
459
100
AcDbEntity
  8
M01
100
AcDbLine
 10
742.01878
 20
590.359226
 30
0.0
 11
742.01878
 21
589.559226
 31
0.0
  0
LINE
  5
45A
100
AcDbEntity
  8
M01
100
AcDbLine
 10
733.01878
 20
590.359226
 30
0.0
 11
733.01878
 21
589.559226
 31
0.0
  0
LINE
  5
45B
100
AcDbEntity
  8
M01
100
AcDbLine
 10
710.26878
 20
579.503326
 30
0.0
 11
716.76878
 21
579.503326
 31
0.0
  0
LINE
  5
45C
100
AcDbEntity
  8
M01
100
AcDbLine
 10
710.26878
 20
587.615126
 30
0.0
 11
716.76878
 21
587.615126
 31
0.0
  0
LINE
  5
45D
100
AcDbEntity
  8
M01
100
AcDbLine
 10
710.26878
 20
579.503326
 30
0.0
 11
710.26878
 21
577.559226
 31
0.0
  0
ARC
  5
45E
100
AcDbEntity
  8
M01
100
AcDbCircle
 10
709.01878
 20
581.064576
 30
0.0
 40
2.0
100
AcDbArc
 50
308.682187
 51
0.0
  0
ARC
  5
45F
100
AcDbEntity
  8
M01
100
AcDbCircle
 10
709.01878
 20
586.053876
 30
0.0
 40
2.0
100
AcDbArc
 50
0.0
 51
51.317813
  0
LINE
  5
460
100
AcDbEntity
  8
M01
100
AcDbLine
 10
710.26878
 20
589.559226
 30
0.0
 11
710.26878
 21
587.615126
 31
0.0
  0
LINE
  5
461
100
AcDbEntity
  8
M01
100
AcDbLine
 10
711.01878
 20
586.053876
 30
0.0
 11
711.01878
 21
581.064576
 31
0.0
  0
LINE
  5
462
100
AcDbEntity
  8
M01
100
AcDbLine
 10
716.76878
 20
579.503326
 30
0.0
 11
716.76878
 21
577.559226
 31
0.0
  0
ARC
  5
463
100
AcDbEntity
  8
M01
100
AcDbCircle
 10
718.01878
 20
581.064576
 30
0.0
 40
2.0
100
AcDbArc
 50
180.0
 51
231.317813
  0
ARC
  5
464
100
AcDbEntity
  8
M01
100
AcDbCircle
 10
718.01878
 20
586.053876
 30
0.0
 40
2.0
100
AcDbArc
 50
128.682187
 51
180.0
  0
LINE
  5
465
100
AcDbEntity
  8
M01
100
AcDbLine
 10
716.76878
 20
589.559226
 30
0.0
 11
716.76878
 21
587.615126
 31
0.0
  0
LINE
  5
466
100
AcDbEntity
  8
M01
100
AcDbLine
 10
716.01878
 20
586.053876
 30
0.0
 11
716.01878
 21
581.064576
 31
0.0
  0
LINE
  5
467
100
AcDbEntity
  8
M01
100
AcDbLine
 10
742.51878
 20
572.559226
 30
0.0
 11
732.51878
 21
572.559226
 31
0.0
  0
LINE
  5
468
100
AcDbEntity
  8
M01
100
AcDbLine
 10
708.51878
 20
572.559226
 30
0.0
 11
718.51878
 21
572.559226
 31
0.0
  0
LINE
  5
469
100
AcDbEntity
  8
M01
100
AcDbLine
 10
708.51878
 20
577.559226
 30
0.0
 11
708.51878
 21
557.559226
 31
0.0
  0
LINE
  5
46A
100
AcDbEntity
  8
M01
100
AcDbLine
 10
718.51878
 20
577.559226
 30
0.0
 11
718.51878
 21
557.559226
 31
0.0
  0
LINE
  5
46B
100
AcDbEntity
  8
M01
100
AcDbLine
 10
732.51878
 20
577.559226
 30
0.0
 11
732.51878
 21
557.559226
 31
0.0
  0
LINE
  5
46C
100
AcDbEntity
  8
M01
100
AcDbLine
 10
742.51878
 20
577.559226
 30
0.0
 11
742.51878
 21
557.559226
 31
0.0
  0
LINE
  5
46D
100
AcDbEntity
  8
M01
100
AcDbLine
 10
740.549868
 20
599.459226
 30
0.0
 11
734.487691
 21
599.459226
 31
0.0
  0
ARC
  5
46E
100
AcDbEntity
  8
M01
100
AcDbCircle
 10
734.487691
 20
597.609921
 30
0.0
 40
1.150694
100
AcDbArc
 50
208.592423
 51
331.407577
  0
ARC
  5
46F
100
AcDbEntity
  8
M01
100
AcDbCircle
 10
737.51878
 20
600.162004
 30
0.0
 40
3.702778
100
AcDbArc
 50
236.92527
 51
303.07473
  0
ARC
  5
470
100
AcDbEntity
  8
M01
100
AcDbCircle
 10
740.549868
 20
597.609921
 30
0.0
 40
1.150694
100
AcDbArc
 50
208.592423
 51
331.407577
  0
ARC
  5
471
100
AcDbEntity
  8
M01
100
AcDbCircle
 10
734.487691
 20
598.308532
 30
0.0
 40
1.150694
100
AcDbArc
 50
28.592423
 51
151.407577
  0
ARC
  5
472
100
AcDbEntity
  8
M01
100
AcDbCircle
 10
737.51878
 20
595.756448
 30
0.0
 40
3.702778
100
AcDbArc
 50
56.92527
 51
123.07473
  0
LINE
  5
473
100
AcDbEntity
  8
M01
100
AcDbLine
 10
735.498054
 20
598.859226
 30
0.0
 11
735.498054
 21
597.059226
 31
0.0
  0
LINE
  5
474
100
AcDbEntity
  8
M01
100
AcDbLine
 10
733.477328
 20
598.859226
 30
0.0
 11
733.477328
 21
597.059226
 31
0.0
  0
ARC
  5
475
100
AcDbEntity
  8
M01
100
AcDbCircle
 10
740.549868
 20
598.308532
 30
0.0
 40
1.150694
100
AcDbArc
 50
28.592423
 51
151.407577
  0
LINE
  5
476
100
AcDbEntity
  8
M01
100
AcDbLine
 10
739.539505
 20
598.859226
 30
0.0
 11
739.539505
 21
597.059226
 31
0.0
  0
LINE
  5
477
100
AcDbEntity
  8
M01
100
AcDbLine
 10
741.560231
 20
598.859226
 30
0.0
 11
741.560231
 21
597.059226
 31
0.0
  0
LINE
  5
478
100
AcDbEntity
  8
M01
100
AcDbLine
 10
732.51878
 20
594.159226
 30
0.0
 11
732.51878
 21
595.659226
 31
0.0
  0
LINE
  5
479
100
AcDbEntity
  8
M01
100
AcDbLine
 10
742.51878
 20
594.159226
 30
0.0
 11
742.51878
 21
595.659226
 31
0.0
  0
LINE
  5
47A
100
AcDbEntity
  8
M01
100
AcDbLine
 10
733.01878
 20
595.659226
 30
0.0
 11
733.01878
 21
596.459226
 31
0.0
  0
LINE
  5
47B
100
AcDbEntity
  8
M01
100
AcDbLine
 10
742.01878
 20
595.659226
 30
0.0
 11
742.01878
 21
596.459226
 31
0.0
  0
LINE
  5
47C
100
AcDbEntity
  8
M01
100
AcDbLine
 10
742.01878
 20
596.459226
 30
0.0
 11
733.01878
 21
596.459226
 31
0.0
  0
LINE
  5
47D
100
AcDbEntity
  8
M01
100
AcDbLine
 10
742.51878
 20
595.659226
 30
0.0
 11
732.51878
 21
595.659226
 31
0.0
  0
LINE
  5
47E
100
AcDbEntity
  8
M01
100
AcDbLine
 10
733.01878
 20
593.359226
 30
0.0
 11
733.01878
 21
594.159226
 31
0.0
  0
LINE
  5
47F
100
AcDbEntity
  8
M01
100
AcDbLine
 10
742.01878
 20
593.359226
 30
0.0
 11
742.01878
 21
594.159226
 31
0.0
  0
LINE
  5
480
100
AcDbEntity
  8
M01
100
AcDbLine
 10
742.51878
 20
594.159226
 30
0.0
 11
732.51878
 21
594.159226
 31
0.0
  0
ARC
  5
481
100
AcDbEntity
  8
M01
100
AcDbCircle
 10
734.487691
 20
591.509921
 30
0.0
 40
1.150694
100
AcDbArc
 50
208.592423
 51
331.407577
  0
ARC
  5
482
100
AcDbEntity
  8
M01
100
AcDbCircle
 10
737.51878
 20
594.062004
 30
0.0
 40
3.702778
100
AcDbArc
 50
236.92527
 51
303.07473
  0
ARC
  5
483
100
AcDbEntity
  8
M01
100
AcDbCircle
 10
740.549868
 20
591.509921
 30
0.0
 40
1.150694
100
AcDbArc
 50
208.592423
 51
331.407577
  0
ARC
  5
484
100
AcDbEntity
  8
M01
100
AcDbCircle
 10
734.487691
 20
592.208532
 30
0.0
 40
1.150694
100
AcDbArc
 50
28.592423
 51
151.407577
  0
ARC
  5
485
100
AcDbEntity
  8
M01
100
AcDbCircle
 10
737.51878
 20
589.656448
 30
0.0
 40
3.702778
100
AcDbArc
 50
56.92527
 51
123.07473
  0
LINE
  5
486
100
AcDbEntity
  8
M01
100
AcDbLine
 10
735.498054
 20
592.759226
 30
0.0
 11
735.498054
 21
590.959226
 31
0.0
  0
LINE
  5
487
100
AcDbEntity
  8
M01
100
AcDbLine
 10
733.477328
 20
592.759226
 30
0.0
 11
733.477328
 21
590.959226
 31
0.0
  0
ARC
  5
488
100
AcDbEntity
  8
M01
100
AcDbCircle
 10
740.549868
 20
592.208532
 30
0.0
 40
1.150694
100
AcDbArc
 50
28.592423
 51
151.407577
  0
LINE
  5
489
100
AcDbEntity
  8
M01
100
AcDbLine
 10
739.539505
 20
592.759226
 30
0.0
 11
739.539505
 21
590.959226
 31
0.0
  0
LINE
  5
48A
100
AcDbEntity
  8
M01
100
AcDbLine
 10
741.560231
 20
592.759226
 30
0.0
 11
741.560231
 21
590.959226
 31
0.0
  0
LINE
  5
48B
100
AcDbEntity
  8
M01
100
AcDbLine
 10
742.01878
 20
593.359226
 30
0.0
 11
733.01878
 21
593.359226
 31
0.0
  0
LINE
  5
48C
100
AcDbEntity
  8
M01
100
AcDbLine
 10
742.01878
 20
590.359226
 30
0.0
 11
733.01878
 21
590.359226
 31
0.0
  0
LINE
  5
48D
100
AcDbEntity
  8
M01
100
AcDbLine
 10
736.01878
 20
602.559226
 30
0.0
 11
735.51878
 21
602.059226
 31
0.0
  0
LINE
  5
48E
100
AcDbEntity
  8
M01
100
AcDbLine
 10
739.51878
 20
602.059226
 30
0.0
 11
739.01878
 21
602.559226
 31
0.0
  0
LINE
  5
48F
100
AcDbEntity
  8
M01
100
AcDbLine
 10
739.51878
 20
602.059226
 30
0.0
 11
735.51878
 21
602.059226
 31
0.0
  0
LINE
  5
490
100
AcDbEntity
  8
M01
100
AcDbLine
 10
736.01878
 20
602.559226
 30
0.0
 11
736.01878
 21
599.459226
 31
0.0
  0
LINE
  5
491
100
AcDbEntity
  8
M01
100
AcDbLine
 10
739.01878
 20
602.559226
 30
0.0
 11
739.01878
 21
599.459226
 31
0.0
  0
LINE
  5
492
100
AcDbEntity
  8
M01
100
AcDbLine
 10
739.51878
 20
602.059226
 30
0.0
 11
739.51878
 21
599.459226
 31
0.0
  0
LINE
  5
493
100
AcDbEntity
  8
M01
100
AcDbLine
 10
735.51878
 20
602.059226
 30
0.0
 11
735.51878
 21
599.459226
 31
0.0
  0
LINE
  5
494
100
AcDbEntity
  8
M01
100
AcDbLine
 10
739.01878
 20
602.559226
 30
0.0
 11
736.01878
 21
602.559226
 31
0.0
  0
LINE
  5
495
100
AcDbEntity
  8
M01
100
AcDbLine
 10
742.51878
 20
577.559226
 30
0.0
 11
732.51878
 21
577.559226
 31
0.0
  0
LINE
  5
496
100
AcDbEntity
  8
CENTRE
100
AcDbLine
 10
737.51878
 20
608.720115
 30
0.0
 11
737.51878
 21
545.126684
 31
0.0
  0
LINE
  5
497
100
AcDbEntity
  8
M01
100
AcDbLine
 10
710.487691
 20
599.459226
 30
0.0
 11
716.549868
 21
599.459226
 31
0.0
  0
ARC
  5
498
100
AcDbEntity
  8
M01
100
AcDbCircle
 10
716.549868
 20
597.609921
 30
0.0
 40
1.150694
100
AcDbArc
 50
208.592423
 51
331.407577
  0
ARC
  5
499
100
AcDbEntity
  8
M01
100
AcDbCircle
 10
713.51878
 20
600.162004
 30
0.0
 40
3.702778
100
AcDbArc
 50
236.92527
 51
303.07473
  0
ARC
  5
49A
100
AcDbEntity
  8
M01
100
AcDbCircle
 10
710.487691
 20
597.609921
 30
0.0
 40
1.150694
100
AcDbArc
 50
208.592423
 51
331.407577
  0
ARC
  5
49B
100
AcDbEntity
  8
M01
100
AcDbCircle
 10
716.549868
 20
598.308532
 30
0.0
 40
1.150694
100
AcDbArc
 50
28.592423
 51
151.407577
  0
ARC
  5
49C
100
AcDbEntity
  8
M01
100
AcDbCircle
 10
713.51878
 20
595.756448
 30
0.0
 40
3.702778
100
AcDbArc
 50
56.92527
 51
123.07473
  0
LINE
  5
49D
100
AcDbEntity
  8
M01
100
AcDbLine
 10
715.539505
 20
598.859226
 30
0.0
 11
715.539505
 21
597.059226
 31
0.0
  0
LINE
  5
49E
100
AcDbEntity
  8
M01
100
AcDbLine
 10
717.560231
 20
598.859226
 30
0.0
 11
717.560231
 21
597.059226
 31
0.0
  0
ARC
  5
49F
100
AcDbEntity
  8
M01
100
AcDbCircle
 10
710.487691
 20
598.308532
 30
0.0
 40
1.150694
100
AcDbArc
 50
28.592423
 51
151.407577
  0
LINE
  5
4A0
100
AcDbEntity
  8
M01
100
AcDbLine
 10
711.498054
 20
598.859226
 30
0.0
 11
711.498054
 21
597.059226
 31
0.0
  0
LINE
  5
4A1
100
AcDbEntity
  8
M01
100
AcDbLine
 10
709.477328
 20
598.859226
 30
0.0
 11
709.477328
 21
597.059226
 31
0.0
  0
LINE
  5
4A2
100
AcDbEntity
  8
M01
100
AcDbLine
 10
718.51878
 20
594.159226
 30
0.0
 11
718.51878
 21
595.659226
 31
0.0
  0
LINE
  5
4A3
100
AcDbEntity
  8
M01
100
AcDbLine
 10
708.51878
 20
594.159226
 30
0.0
 11
708.51878
 21
595.659226
 31
0.0
  0
LINE
  5
4A4
100
AcDbEntity
  8
M01
100
AcDbLine
 10
718.01878
 20
595.659226
 30
0.0
 11
718.01878
 21
596.459226
 31
0.0
  0
LINE
  5
4A5
100
AcDbEntity
  8
M01
100
AcDbLine
 10
709.01878
 20
595.659226
 30
0.0
 11
709.01878
 21
596.459226
 31
0.0
  0
LINE
  5
4A6
100
AcDbEntity
  8
M01
100
AcDbLine
 10
709.01878
 20
596.459226
 30
0.0
 11
718.01878
 21
596.459226
 31
0.0
  0
LINE
  5
4A7
100
AcDbEntity
  8
M01
100
AcDbLine
 10
708.51878
 20
595.659226
 30
0.0
 11
718.51878
 21
595.659226
 31
0.0
  0
LINE
  5
4A8
100
AcDbEntity
  8
M01
100
AcDbLine
 10
718.01878
 20
593.359226
 30
0.0
 11
718.01878
 21
594.159226
 31
0.0
  0
LINE
  5
4A9
100
AcDbEntity
  8
M01
100
AcDbLine
 10
709.01878
 20
593.359226
 30
0.0
 11
709.01878
 21
594.159226
 31
0.0
  0
LINE
  5
4AA
100
AcDbEntity
  8
M01
100
AcDbLine
 10
708.51878
 20
594.159226
 30
0.0
 11
718.51878
 21
594.159226
 31
0.0
  0
ARC
  5
4AB
100
AcDbEntity
  8
M01
100
AcDbCircle
 10
716.549868
 20
591.509921
 30
0.0
 40
1.150694
100
AcDbArc
 50
208.592423
 51
331.407577
  0
ARC
  5
4AC
100
AcDbEntity
  8
M01
100
AcDbCircle
 10
713.51878
 20
594.062004
 30
0.0
 40
3.702778
100
AcDbArc
 50
236.92527
 51
303.07473
  0
ARC
  5
4AD
100
AcDbEntity
  8
M01
100
AcDbCircle
 10
710.487691
 20
591.509921
 30
0.0
 40
1.150694
100
AcDbArc
 50
208.592423
 51
331.407577
  0
ARC
  5
4AE
100
AcDbEntity
  8
M01
100
AcDbCircle
 10
716.549868
 20
592.208532
 30
0.0
 40
1.150694
100
AcDbArc
 50
28.592423
 51
151.407577
  0
ARC
  5
4AF
100
AcDbEntity
  8
M01
100
AcDbCircle
 10
713.51878
 20
589.656448
 30
0.0
 40
3.702778
100
AcDbArc
 50
56.92527
 51
123.07473
  0
LINE
  5
4B0
100
AcDbEntity
  8
M01
100
AcDbLine
 10
715.539505
 20
592.759226
 30
0.0
 11
715.539505
 21
590.959226
 31
0.0
  0
LINE
  5
4B1
100
AcDbEntity
  8
M01
100
AcDbLine
 10
717.560231
 20
592.759226
 30
0.0
 11
717.560231
 21
590.959226
 31
0.0
  0
ARC
  5
4B2
100
AcDbEntity
  8
M01
100
AcDbCircle
 10
710.487691
 20
592.208532
 30
0.0
 40
1.150694
100
AcDbArc
 50
28.592423
 51
151.407577
  0
LINE
  5
4B3
100
AcDbEntity
  8
M01
100
AcDbLine
 10
711.498054
 20
592.759226
 30
0.0
 11
711.498054
 21
590.959226
 31
0.0
  0
LINE
  5
4B4
100
AcDbEntity
  8
M01
100
AcDbLine
 10
709.477328
 20
592.759226
 30
0.0
 11
709.477328
 21
590.959226
 31
0.0
  0
LINE
  5
4B5
100
AcDbEntity
  8
M01
100
AcDbLine
 10
709.01878
 20
593.359226
 30
0.0
 11
718.01878
 21
593.359226
 31
0.0
  0
LINE
  5
4B6
100
AcDbEntity
  8
M01
100
AcDbLine
 10
709.01878
 20
590.359226
 30
0.0
 11
718.01878
 21
590.359226
 31
0.0
  0
LINE
  5
4B7
100
AcDbEntity
  8
M01
100
AcDbLine
 10
709.01878
 20
589.559226
 30
0.0
 11
718.01878
 21
589.559226
 31
0.0
  0
LINE
  5
4B8
100
AcDbEntity
  8
M01
100
AcDbLine
 10
715.01878
 20
602.559226
 30
0.0
 11
715.51878
 21
602.059226
 31
0.0
  0
LINE
  5
4B9
100
AcDbEntity
  8
M01
100
AcDbLine
 10
711.51878
 20
602.059226
 30
0.0
 11
712.01878
 21
602.559226
 31
0.0
  0
LINE
  5
4BA
100
AcDbEntity
  8
M01
100
AcDbLine
 10
711.51878
 20
602.059226
 30
0.0
 11
715.51878
 21
602.059226
 31
0.0
  0
LINE
  5
4BB
100
AcDbEntity
  8
M01
100
AcDbLine
 10
715.01878
 20
602.559226
 30
0.0
 11
715.01878
 21
599.459226
 31
0.0
  0
LINE
  5
4BC
100
AcDbEntity
  8
M01
100
AcDbLine
 10
712.01878
 20
602.559226
 30
0.0
 11
712.01878
 21
599.459226
 31
0.0
  0
LINE
  5
4BD
100
AcDbEntity
  8
M01
100
AcDbLine
 10
711.51878
 20
602.059226
 30
0.0
 11
711.51878
 21
599.459226
 31
0.0
  0
LINE
  5
4BE
100
AcDbEntity
  8
M01
100
AcDbLine
 10
715.51878
 20
602.059226
 30
0.0
 11
715.51878
 21
599.459226
 31
0.0
  0
LINE
  5
4BF
100
AcDbEntity
  8
M01
100
AcDbLine
 10
712.01878
 20
602.559226
 30
0.0
 11
715.01878
 21
602.559226
 31
0.0
  0
LINE
  5
4C0
100
AcDbEntity
  8
M01
100
AcDbLine
 10
708.51878
 20
577.559226
 30
0.0
 11
718.51878
 21
577.559226
 31
0.0
  0
LINE
  5
4C1
100
AcDbEntity
  8
M01
100
AcDbLine
 10
718.01878
 20
590.359226
 30
0.0
 11
718.01878
 21
589.559226
 31
0.0
  0
LINE
  5
4C2
100
AcDbEntity
  8
M01
100
AcDbLine
 10
709.01878
 20
590.359226
 30
0.0
 11
709.01878
 21
589.559226
 31
0.0
  0
LINE
  5
4C3
100
AcDbEntity
  8
CENTRE
100
AcDbLine
 10
713.51878
 20
608.720115
 30
0.0
 11
713.51878
 21
545.126684
 31
0.0
  0
HATCH
  5
4C4
100
AcDbEntity
  8
M03
100
AcDbHatch
 10
0.0
 20
0.0
 30
0.0
210
0.0
220
0.0
230
1.0
  2
_U
 70
     0
 71
     0
 91
        1
 92
        7
 72
     0
 73
     1
 93
        4
 10
837.7807504855381
 20
505.0817959257544
 10
858.4554634090746
 20
525.7565088492908
 10
859.7989662933288
 20
524.4130059650363
 10
839.1242533697925
 20
503.7382930415001
 97
        0
 75
     0
 76
     0
 52
285.0
 41
0.7
 77
     0
 78
     1
 53
255.0
 43
1471.065162
 44
566.374485
 45
-0.676148078402348
 46
0.181173331571764
 79
     0
 47
0.060863
 98
        1
 10
841.230444
 20
506.852208
  0
HATCH
  5
4C5
100
AcDbEntity
  8
M03
100
AcDbHatch
 10
0.0
 20
0.0
 30
0.0
210
0.0
220
0.0
230
1.0
  2
_U
 70
     0
 71
     0
 91
        1
 92
        7
 72
     0
 73
     1
 93
        4
 10
837.7807504855381
 20
505.0817959257543
 10
858.4554634090746
 20
525.7565088492908
 10
859.7989662933292
 20
524.4130059650363
 10
839.1242533697925
 20
503.7382930415
 97
        0
 75
     0
 76
     0
 52
-15.0
 41
0.7
 77
     0
 78
     1
 53
195.0
 43
1471.065162
 44
566.374485
 45
-0.1811733315717648
 46
0.6761480784023477
 79
     0
 47
0.060863
 98
        1
 10
841.18746
 20
507.153518
  0
LINE
  5
4C6
100
AcDbEntity
  8
M03
100
AcDbLine
 10
816.421132
 20
502.955481
 30
0.0
 11
817.108506
 21
505.520798
 31
0.0
  0
LINE
  5
4C7
100
AcDbEntity
  8
M03
100
AcDbLine
 10
819.673823
 20
506.208173
 30
0.0
 11
817.108506
 21
505.520798
 31
0.0
  0
LINE
  5
4C8
100
AcDbEntity
  8
M03
100
AcDbLine
 10
819.673823
 20
506.208173
 30
0.0
 11
816.421132
 21
502.955481
 31
0.0
  0
LINE
  5
4C9
100
AcDbEntity
  8
M03
100
AcDbLine
 10
821.229458
 20
505.642487
 30
0.0
 11
816.986817
 21
501.399847
 31
0.0
  0
LINE
  5
4CA
100
AcDbEntity
  8
M03
100
AcDbLine
 10
837.78075
 20
505.081796
 30
0.0
 11
858.455463
 21
525.756509
 31
0.0
  0
LINE
  5
4CB
100
AcDbEntity
  8
M03
100
AcDbLine
 10
839.124253
 20
503.738293
 30
0.0
 11
859.798966
 21
524.413006
 31
0.0
  0
LINE
  5
4CC
100
AcDbEntity
  8
M03
100
AcDbLine
 10
832.618871
 20
500.34418
 30
0.0
 11
822.50225
 21
490.227559
 31
0.0
  0
LINE
  5
4CD
100
AcDbEntity
  8
M03
100
AcDbLine
 10
832.791945
 20
501.648626
 30
0.0
 11
833.357631
 21
501.08294
 31
0.0
  0
LINE
  5
4CE
100
AcDbEntity
  8
M03
100
AcDbLine
 10
837.568618
 20
505.293928
 30
0.0
 11
839.336385
 21
503.526161
 31
0.0
  0
LINE
  5
4CF
100
AcDbEntity
  8
M03
100
AcDbLine
 10
839.336385
 20
503.526161
 30
0.0
 11
834.386638
 21
498.576414
 31
0.0
  0
LINE
  5
4D0
100
AcDbEntity
  8
M03
100
AcDbLine
 10
832.618871
 20
500.34418
 30
0.0
 11
834.386638
 21
498.576414
 31
0.0
  0
LINE
  5
4D1
100
AcDbEntity
  8
M03
100
AcDbLine
 10
821.936564
 20
490.793245
 30
0.0
 11
822.50225
 21
490.227559
 31
0.0
  0
ARC
  5
4D2
100
AcDbEntity
  8
M03
100
AcDbCircle
 10
825.665749
 20
496.963555
 30
0.0
 40
5.826136
100
AcDbArc
 50
250.69541
 51
19.30459
  0
LINE
  5
4D3
100
AcDbEntity
  8
M03
100
AcDbLine
 10
818.754584
 20
499.63208
 30
0.0
 11
818.754584
 21
500.622029
 31
0.0
  0
LINE
  5
4D4
100
AcDbEntity
  8
M03
100
AcDbLine
 10
822.997225
 20
503.87472
 30
0.0
 11
822.007275
 21
503.87472
 31
0.0
  0
LINE
  5
4D5
100
AcDbEntity
  8
M03
100
AcDbLine
 10
822.997225
 20
503.87472
 30
0.0
 11
818.754584
 21
499.63208
 31
0.0
  0
LINE
  5
4D6
100
AcDbEntity
  8
M03
100
AcDbLine
 10
822.007275
 20
503.87472
 30
0.0
 11
818.754584
 21
500.622029
 31
0.0
  0
LINE
  5
4D7
100
AcDbEntity
  8
M03
100
AcDbLine
 10
824.764992
 20
493.621672
 30
0.0
 11
819.815244
 21
488.671924
 31
0.0
  0
LINE
  5
4D8
100
AcDbEntity
  8
M03
100
AcDbLine
 10
836.573675
 20
505.430355
 30
0.0
 11
837.13936
 21
504.86467
 31
0.0
  0
LINE
  5
4D9
100
AcDbEntity
  8
M03
100
AcDbLine
 10
824.270017
 20
493.126697
 30
0.0
 11
824.835702
 21
492.561012
 31
0.0
  0
LINE
  5
4DA
100
AcDbEntity
  8
M03
100
AcDbLine
 10
816.421132
 20
502.955481
 30
0.0
 11
825.825652
 21
493.550961
 31
0.0
  0
LINE
  5
4DB
100
AcDbEntity
  8
M03
100
AcDbLine
 10
819.673823
 20
506.208173
 30
0.0
 11
829.078343
 21
496.803652
 31
0.0
  0
LINE
  5
4DC
100
AcDbEntity
  8
M03
100
AcDbLine
 10
821.229458
 20
505.642487
 30
0.0
 11
829.573318
 21
497.298627
 31
0.0
  0
LINE
  5
4DD
100
AcDbEntity
  8
M03
100
AcDbLine
 10
816.986817
 20
501.399847
 30
0.0
 11
825.330677
 21
493.055986
 31
0.0
  0
LINE
  5
4DE
100
AcDbEntity
  8
M03
100
AcDbLine
 10
837.568618
 20
505.293928
 30
0.0
 11
833.357631
 21
501.08294
 31
0.0
  0
LINE
  5
4DF
100
AcDbEntity
  8
M03
100
AcDbLine
 10
819.815244
 20
488.671924
 30
0.0
 11
823.350778
 21
485.136391
 31
0.0
  0
LINE
  5
4E0
100
AcDbEntity
  8
M03
100
AcDbLine
 10
861.51878
 20
530.37546
 30
0.0
 11
829.007632
 21
497.864313
 31
0.0
  0
LINE
  5
4E1
100
AcDbEntity
  8
CENTRE
100
AcDbLine
 10
814.017907
 20
508.611397
 30
0.0
 11
833.223033
 21
489.406271
 31
0.0
  0
CIRCLE
  5
4E2
100
AcDbEntity
  8
M03
100
AcDbCircle
 10
825.51878
 20
332.559226
 30
0.0
 40
2.3
  0
ARC
  5
4E3
100
AcDbEntity
  8
M03
100
AcDbCircle
 10
825.51878
 20
332.559226
 30
0.0
 40
3.0
100
AcDbArc
 50
167.784636
 51
96.923103
  0
LINE
  5
4E4
100
AcDbEntity
  8
M03
100
AcDbLine
 10
824.96878
 20
338.533965
 30
0.0
 11
824.96878
 21
326.584488
 31
0.0
  0
LINE
  5
4E5
100
AcDbEntity
  8
M03
100
AcDbLine
 10
826.06878
 20
338.533965
 30
0.0
 11
826.06878
 21
326.584488
 31
0.0
  0
CIRCLE
  5
4E6
100
AcDbEntity
  8
M03
100
AcDbCircle
 10
825.51878
 20
332.559226
 30
0.0
 40
7.858882
  0
CIRCLE
  5
4E7
100
AcDbEntity
  8
M03
100
AcDbCircle
 10
825.51878
 20
332.559226
 30
0.0
 40
6.0
  0
CIRCLE
  5
4E8
100
AcDbEntity
  8
M03
100
AcDbCircle
 10
625.51878
 20
332.559226
 30
0.0
 40
2.3
  0
ARC
  5
4E9
100
AcDbEntity
  8
M03
100
AcDbCircle
 10
625.51878
 20
332.559226
 30
0.0
 40
3.0
100
AcDbArc
 50
173.076897
 51
102.215364
  0
LINE
  5
4EA
100
AcDbEntity
  8
M03
100
AcDbLine
 10
626.06878
 20
338.533965
 30
0.0
 11
626.06878
 21
326.584488
 31
0.0
  0
LINE
  5
4EB
100
AcDbEntity
  8
M03
100
AcDbLine
 10
624.96878
 20
338.533965
 30
0.0
 11
624.96878
 21
326.584488
 31
0.0
  0
CIRCLE
  5
4EC
100
AcDbEntity
  8
M03
100
AcDbCircle
 10
625.51878
 20
332.559226
 30
0.0
 40
7.858882
  0
CIRCLE
  5
4ED
100
AcDbEntity
  8
M03
100
AcDbCircle
 10
625.51878
 20
332.559226
 30
0.0
 40
6.0
  0
CIRCLE
  5
4EE
100
AcDbEntity
  8
M03
100
AcDbCircle
 10
825.51878
 20
532.559226
 30
0.0
 40
2.3
  0
ARC
  5
4EF
100
AcDbEntity
  8
M03
100
AcDbCircle
 10
825.51878
 20
532.559226
 30
0.0
 40
3.0
100
AcDbArc
 50
173.076897
 51
102.215364
  0
LINE
  5
4F0
100
AcDbEntity
  8
M03
100
AcDbLine
 10
824.96878
 20
526.584488
 30
0.0
 11
824.96878
 21
538.533965
 31
0.0
  0
LINE
  5
4F1
100
AcDbEntity
  8
M03
100
AcDbLine
 10
826.06878
 20
526.584488
 30
0.0
 11
826.06878
 21
538.533965
 31
0.0
  0
CIRCLE
  5
4F2
100
AcDbEntity
  8
M03
100
AcDbCircle
 10
825.51878
 20
532.559226
 30
0.0
 40
7.858882
  0
CIRCLE
  5
4F3
100
AcDbEntity
  8
M03
100
AcDbCircle
 10
825.51878
 20
532.559226
 30
0.0
 40
6.0
  0
CIRCLE
  5
4F4
100
AcDbEntity
  8
M03
100
AcDbCircle
 10
625.51878
 20
532.559226
 30
0.0
 40
2.3
  0
ARC
  5
4F5
100
AcDbEntity
  8
M03
100
AcDbCircle
 10
625.51878
 20
532.559226
 30
0.0
 40
3.0
100
AcDbArc
 50
167.784636
 51
96.923103
  0
LINE
  5
4F6
100
AcDbEntity
  8
M03
100
AcDbLine
 10
626.06878
 20
526.584488
 30
0.0
 11
626.06878
 21
538.533965
 31
0.0
  0
LINE
  5
4F7
100
AcDbEntity
  8
M03
100
AcDbLine
 10
624.96878
 20
526.584488
 30
0.0
 11
624.96878
 21
538.533965
 31
0.0
  0
CIRCLE
  5
4F8
100
AcDbEntity
  8
M03
100
AcDbCircle
 10
625.51878
 20
532.559226
 30
0.0
 40
7.858882
  0
CIRCLE
  5
4F9
100
AcDbEntity
  8
M03
100
AcDbCircle
 10
625.51878
 20
532.559226
 30
0.0
 40
6.0
  0
LINE
  5
4FA
100
AcDbEntity
  8
CENTRE
100
AcDbLine
 10
604.305576
 20
553.77243
 30
0.0
 11
846.731983
 21
311.346023
 31
0.0
  0
LINE
  5
4FB
100
AcDbEntity
  8
CENTRE
100
AcDbLine
 10
604.305576
 20
311.346023
 30
0.0
 11
846.731983
 21
553.77243
 31
0.0
  0
LINE
  5
4FC
100
AcDbEntity
  8
M03
100
AcDbLine
 10
731.175634
 20
432.559226
 30
0.0
 11
828.347207
 21
335.387653
 31
0.0
  0
LINE
  5
4FD
100
AcDbEntity
  8
M03
100
AcDbLine
 10
725.51878
 20
438.21608
 30
0.0
 11
822.690352
 21
535.387653
 31
0.0
  0
LINE
  5
4FE
100
AcDbEntity
  8
M03
100
AcDbLine
 10
731.175634
 20
432.559226
 30
0.0
 11
828.347207
 21
529.730799
 31
0.0
  0
LINE
  5
4FF
100
AcDbEntity
  8
M03
100
AcDbLine
 10
725.51878
 20
426.902372
 30
0.0
 11
822.690352
 21
329.730799
 31
0.0
  0
LINE
  5
500
100
AcDbEntity
  8
M03
100
AcDbLine
 10
622.690352
 20
529.730799
 30
0.0
 11
719.861925
 21
432.559226
 31
0.0
  0
LINE
  5
501
100
AcDbEntity
  8
M03
100
AcDbLine
 10
628.347207
 20
535.387653
 30
0.0
 11
725.51878
 21
438.21608
 31
0.0
  0
LINE
  5
502
100
AcDbEntity
  8
M03
100
AcDbLine
 10
628.347207
 20
329.730799
 30
0.0
 11
725.51878
 21
426.902372
 31
0.0
  0
LINE
  5
503
100
AcDbEntity
  8
M03
100
AcDbLine
 10
622.690352
 20
335.387653
 30
0.0
 11
719.861925
 21
432.559226
 31
0.0
  0
CIRCLE
  5
504
100
AcDbEntity
  8
M01
100
AcDbCircle
 10
625.51878
 20
332.559226
 30
0.0
 40
4.0
  0
CIRCLE
  5
505
100
AcDbEntity
  8
M01
100
AcDbCircle
 10
825.51878
 20
332.559226
 30
0.0
 40
4.0
  0
CIRCLE
  5
506
100
AcDbEntity
  8
M01
100
AcDbCircle
 10
825.51878
 20
532.559226
 30
0.0
 40
4.0
  0
CIRCLE
  5
507
100
AcDbEntity
  8
M01
100
AcDbCircle
 10
625.51878
 20
532.559226
 30
0.0
 40
4.0
  0
LINE
  5
508
100
AcDbEntity
  8
M04
100
AcDbLine
 10
742.51878
 20
617.559226
 30
0.0
 11
742.51878
 21
638.230704
 31
0.0
  0
LINE
  5
509
100
AcDbEntity
  8
M04
100
AcDbLine
 10
708.51878
 20
617.559226
 30
0.0
 11
708.51878
 21
638.230704
 31
0.0
  0
ARC
  5
50A
100
AcDbEntity
  8
M04
100
AcDbCircle
 10
742.51878
 20
602.559226
 30
0.0
 40
15.0
100
AcDbArc
 50
360.0
 51
90.0
  0
ARC
  5
50B
100
AcDbEntity
  8
M04
100
AcDbCircle
 10
708.51878
 20
602.559226
 30
0.0
 40
15.0
100
AcDbArc
 50
90.0
 51
180.0
  0
LINE
  5
50C
100
AcDbEntity
  8
M04
100
AcDbLine
 10
708.51878
 20
617.559226
 30
0.0
 11
742.51878
 21
617.559226
 31
0.0
  0
LINE
  5
50D
100
AcDbEntity
  8
M04
100
AcDbLine
 10
693.51878
 20
602.559226
 30
0.0
 11
693.51878
 21
531.784623
 31
0.0
  0
LINE
  5
50E
100
AcDbEntity
  8
M04
100
AcDbLine
 10
757.51878
 20
602.559226
 30
0.0
 11
757.51878
 21
531.784623
 31
0.0
  0
LINE
  5
50F
100
AcDbEntity
  8
M01
100
AcDbLine
 10
745.51878
 20
557.559226
 30
0.0
 11
747.51878
 21
555.559226
 31
0.0
  0
LINE
  5
510
100
AcDbEntity
  8
M01
100
AcDbLine
 10
703.51878
 20
555.559226
 30
0.0
 11
705.51878
 21
557.559226
 31
0.0
  0
LINE
  5
511
100
AcDbEntity
  8
M01
100
AcDbLine
 10
705.51878
 20
557.559226
 30
0.0
 11
745.51878
 21
557.559226
 31
0.0
  0
LINE
  5
512
100
AcDbEntity
  8
M01
100
AcDbLine
 10
747.51878
 20
555.559226
 30
0.0
 11
747.51878
 21
528.784623
 31
0.0
  0
LINE
  5
513
100
AcDbEntity
  8
M01
100
AcDbLine
 10
703.51878
 20
555.559226
 30
0.0
 11
703.51878
 21
528.784623
 31
0.0
  0
LINE
  5
514
100
AcDbEntity
  8
CENTRE
100
AcDbLine
 10
725.51878
 20
652.003033
 30
0.0
 11
725.51878
 21
312.074032
 31
0.0
  0
HATCH
  5
515
100
AcDbEntity
  8
HATCH
100
AcDbHatch
 10
0.0
 20
0.0
 30
0.0
210
0.0
220
0.0
230
1.0
  2
_U
 70
     0
 71
     0
 91
       16
 92
        7
 72
     1
 73
     1
 93
        5
 10
525.5187795381628
 20
452.5592260810632
 42
0.0
 10
525.5187795381628
 20
453.0592260810632
 42
-0.1856631955229143
 10
521.8334407935956
 20
454.4765457926017
 42
0.3157147729334966
 10
503.6566976382155
 20
436.5592260810632
 42
0.0
 10
505.9228615958975
 20
436.5592260810632
 42
-0.3563939586925999
 97
        0
 92
       22
 72
     1
 73
     1
 93
        4
 10
525.5187795381628
 20
452.5592260810632
 42
0.3563939586925999
 10
505.9228615958975
 20
436.5592260810632
 42
0.0
 10
516.9019355683558
 20
436.5592260810632
 42
-0.2919418509678903
 10
525.5187795381628
 20
442.0592260810632
 42
0.0
 97
        0
 92
        6
 72
     1
 73
     1
 93
        3
 10
525.5187795381628
 20
442.0592260810632
 42
0.2919418509678903
 10
516.9019355683558
 20
436.5592260810632
 42
0.0
 10
525.5187795381628
 20
436.5592260810632
 42
0.0
 97
        0
 92
        7
 72
     1
 73
     1
 93
        4
 10
525.5187795381628
 20
436.5592260810632
 42
0.0
 10
516.9019355683558
 20
436.5592260810632
 42
0.1090809576248918
 10
516.0187795381627
 20
432.5592260810632
 42
0.0
 10
521.5187795381628
 20
432.5592260810632
 42
-0.4142135623730992
 97
        0
 92
       22
 72
     1
 73
     1
 93
        3
 10
525.5187795381628
 20
436.5592260810632
 42
0.4142135623730992
 10
521.5187795381628
 20
432.5592260810632
 42
0.0
 10
525.518779538163
 20
432.5592260810631
 42
0.0
 97
        0
 92
        7
 72
     1
 73
     1
 93
        4
 10
516.9019355683558
 20
436.5592260810632
 42
0.0
 10
505.9228615958975
 20
436.5592260810632
 42
0.0503820444848851
 10
505.5187795381628
 20
432.5592260810632
 42
0.0
 10
516.0187795381627
 20
432.5592260810632
 42
-0.1090809576248918
 97
        0
 92
        7
 72
     1
 73
     1
 93
        5
 10
505.9228615958975
 20
436.5592260810632
 42
0.0
 10
503.6566976382155
 20
436.5592260810632
 42
0.003593667114849
 10
503.6014598266245
 20
436.2445648256303
 42
-0.1856631955229133
 10
505.0187795381628
 20
432.5592260810632
 42
0.0
 10
505.5187795381628
 20
432.5592260810632
 42
-0.0503820444848851
 97
        0
 92
        7
 72
     1
 73
     1
 93
        3
 10
503.6014598266245
 20
436.2445648256303
 42
0.0416713391594355
 10
503.2937795381628
 20
432.5592260810632
 42
0.0
 10
505.0187795381628
 20
432.5592260810632
 42
0.1856631955229133
 97
        0
 92
       22
 72
     1
 73
     1
 93
        3
 10
529.5187795381628
 20
432.5592260810632
 42
0.0
 10
525.518779538163
 20
432.5592260810632
 42
0.0
 10
525.518779538163
 20
428.5592260810632
 42
0.4142135623730826
 97
        0
 92
        7
 72
     1
 73
     1
 93
        4
 10
535.0187795381628
 20
432.5592260810632
 42
0.0
 10
529.5187795381628
 20
432.5592260810632
 42
-0.4142135623730909
 10
525.5187795381628
 20
428.5592260810632
 42
0.0
 10
534.1356235079699
 20
428.5592260810632
 42
0.1090809576248888
 97
        0
 92
        6
 72
     1
 73
     1
 93
        3
 10
534.1356235079699
 20
428.5592260810632
 42
0.0
 10
525.5187795381628
 20
428.5592260810632
 42
0.0
 10
525.5187795381628
 20
423.0592260810632
 42
0.2919418509678903
 97
        0
 92
       22
 72
     1
 73
     1
 93
        4
 10
545.1146974804283
 20
428.5592260810632
 42
0.0
 10
534.1356235079699
 20
428.5592260810632
 42
-0.2919418509678903
 10
525.5187795381628
 20
423.0592260810632
 42
0.0
 10
525.5187795381628
 20
412.5592260810632
 42
0.3563939586925999
 97
        0
 92
        7
 72
     1
 73
     1
 93
        4
 10
545.5187795381627
 20
432.5592260810632
 42
0.0
 10
535.0187795381628
 20
432.5592260810632
 42
-0.1090809576248888
 10
534.1356235079699
 20
428.5592260810632
 42
0.0
 10
545.1146974804283
 20
428.5592260810632
 42
0.0503820444848837
 97
        0
 92
        7
 72
     1
 73
     1
 93
        5
 10
546.0187795381627
 20
432.5592260810632
 42
0.0
 10
545.5187795381627
 20
432.5592260810632
 42
-0.0503820444848837
 10
545.1146974804283
 20
428.5592260810632
 42
0.0
 10
547.38086143811
 20
428.5592260810632
 42
0.003593667114849
 10
547.4360992497013
 20
428.8738873364961
 42
-0.185663195522908
 97
        0
 92
        7
 72
     1
 73
     1
 93
        3
 10
547.7437795381629
 20
432.5592260810632
 42
0.0
 10
546.0187795381627
 20
432.5592260810632
 42
0.185663195522908
 10
547.4360992497013
 20
428.8738873364961
 42
0.0416713391594342
 97
        0
 92
        7
 72
     1
 73
     1
 93
        4
 10
547.38086143811
 20
428.5592260810632
 42
0.0
 10
545.1146974804283
 20
428.5592260810632
 42
-0.3563939586925999
 10
525.5187795381628
 20
412.5592260810632
 42
0.0
 10
525.5187795381628
 20
410.3342260810632
 42
0.3621506593782504
 97
        0
 75
     0
 76
     0
 52
45.0
 41
2.0
 77
     1
 78
     2
 53
45.0
 43
-29.928461
 44
0.0
 45
-1.414213562373094
 46
1.414213562373095
 79
     0
 53
135.0
 43
-29.928461
 44
0.0
 45
-1.414213562373095
 46
-1.414213562373094
 79
     0
 47
0.113412
 98
       16
 10
513.202625
 20
449.879146
 10
514.904501
 20
446.023152
 10
523.073505
 20
439.672104
 10
520.010128
 20
435.022228
 10
524.208089
 20
434.681993
 10
512.975708
 20
434.568582
 10
504.920162
 20
435.929521
 10
504.352871
 20
433.888112
 10
527.838758
 20
430.485764
 10
531.809801
 20
430.599175
 10
528.519508
 20
426.176123
 10
535.553928
 20
424.47495
 10
539.298055
 20
430.258941
 10
545.878642
 20
429.691883
 10
547.353601
 20
430.939411
 10
545.992101
 20
424.928596
  0
CIRCLE
  5
516
100
AcDbEntity
  8
M03
100
AcDbCircle
 10
525.51878
 20
432.559226
 30
0.0
 40
20.0
  0
CIRCLE
  5
517
100
AcDbEntity
  8
M01
100
AcDbCircle
 10
525.51878
 20
432.559226
 30
0.0
 40
22.225
  0
CIRCLE
  5
518
100
AcDbEntity
  8
M03
100
AcDbCircle
 10
525.51878
 20
432.559226
 30
0.0
 40
9.5
  0
LINE
  5
519
102
{ACAD_REACTORS
330
1F7
102
}
100
AcDbEntity
  8
M02
100
AcDbLine
 10
964.344777
 20
314.559226
 30
0.0
 11
967.344777
 21
314.559226
 31
0.0
  0
DIMENSION
  5
51A
100
AcDbEntity
  8
DIMS
100
AcDbDimension
  2
*D1
 10
960.344777
 20
254.877479
 30
0.0
 11
949.70192
 21
282.877479
 31
0.0
 12
62.700104
 22
-25.0
 32
0.0
  1
7.0
  3
DIM1
100
AcDbAlignedDimension
 13
967.344777
 23
302.299226
 33
0.0
 14
960.344777
 24
288.126607
 34
0.0
100
AcDbRotatedDimension
1001
ACAD
1000
DSTYLE
1002
{
1070
   144
1040
1.0
1002
}
  0
DIMENSION
  5
528
100
AcDbEntity
  8
DIMS
100
AcDbDimension
  2
*D2
 10
1034.344777
 20
254.877479
 30
0.0
 11
1044.987634
 21
282.877479
 31
0.0
 12
62.700104
 22
-25.0
 32
0.0
  1
7.0
  3
DIM1
100
AcDbAlignedDimension
 13
1027.344777
 23
302.252807
 33
0.0
 14
1034.344777
 24
276.613216
 34
0.0
100
AcDbRotatedDimension
1001
ACAD
1000
DSTYLE
1002
{
1070
   144
1040
1.0
1002
}
  0
DIMENSION
  5
536
100
AcDbEntity
  8
DIMS
100
AcDbDimension
  2
*D3
 10
1027.344777
 20
254.877479
 30
0.0
 11
997.344777
 21
282.877479
 31
0.0
 12
62.700104
 22
-25.0
 32
0.0
  3
DIM1
100
AcDbAlignedDimension
 13
967.344777
 23
302.299226
 33
0.0
 14
1027.344777
 24
302.252807
 34
0.0
100
AcDbRotatedDimension
1001
ACAD
1000
DSTYLE
1002
{
1070
   144
1040
1.0
1002
}
  0
LINE
  5
543
100
AcDbEntity
  8
DIMS
 62
     4
100
AcDbLine
 10
971.344777
 20
312.959226
 30
0.0
 11
971.344777
 21
315.259226
 31
0.0
  0
LINE
  5
544
100
AcDbEntity
  8
DIMS
 62
     4
100
AcDbLine
 10
971.344777
 20
306.159226
 30
0.0
 11
971.344777
 21
303.859226
 31
0.0
  0
LINE
  5
545
100
AcDbEntity
  8
DIMS
 62
     4
100
AcDbLine
 10
974.744777
 20
309.559226
 30
0.0
 11
977.044777
 21
309.559226
 31
0.0
  0
LINE
  5
546
100
AcDbEntity
  8
DIMS
 62
     4
100
AcDbLine
 10
967.944777
 20
309.559226
 30
0.0
 11
965.644777
 21
309.559226
 31
0.0
  0
LINE
  5
547
100
AcDbEntity
  8
DIMS
 62
     4
100
AcDbLine
 10
971.344777
 20
307.859226
 30
0.0
 11
971.344777
 21
311.259226
 31
0.0
  0
LINE
  5
548
100
AcDbEntity
  8
DIMS
 62
     4
100
AcDbLine
 10
969.644777
 20
309.559226
 30
0.0
 11
973.044777
 21
309.559226
 31
0.0
  0
LINE
  5
549
100
AcDbEntity
  8
DIMS
 62
     4
100
AcDbLine
 10
1023.344777
 20
312.959226
 30
0.0
 11
1023.344777
 21
315.259226
 31
0.0
  0
LINE
  5
54A
100
AcDbEntity
  8
DIMS
 62
     4
100
AcDbLine
 10
1023.344777
 20
306.159226
 30
0.0
 11
1023.344777
 21
303.859226
 31
0.0
  0
LINE
  5
54B
100
AcDbEntity
  8
DIMS
 62
     4
100
AcDbLine
 10
1026.744777
 20
309.559226
 30
0.0
 11
1029.044777
 21
309.559226
 31
0.0
  0
LINE
  5
54C
100
AcDbEntity
  8
DIMS
 62
     4
100
AcDbLine
 10
1019.944777
 20
309.559226
 30
0.0
 11
1017.644777
 21
309.559226
 31
0.0
  0
LINE
  5
54D
100
AcDbEntity
  8
DIMS
 62
     4
100
AcDbLine
 10
1023.344777
 20
307.859226
 30
0.0
 11
1023.344777
 21
311.259226
 31
0.0
  0
LINE
  5
54E
100
AcDbEntity
  8
DIMS
 62
     4
100
AcDbLine
 10
1021.644777
 20
309.559226
 30
0.0
 11
1025.044777
 21
309.559226
 31
0.0
  0
LINE
  5
54F
102
{ACAD_REACTORS
330
B2
102
}
100
AcDbEntity
  8
M05
100
AcDbLine
 10
1033.344777
 20
313.059226
 30
0.0
 11
1034.344777
 21
312.059226
 31
0.0
  0
LINE
  5
550
102
{ACAD_REACTORS
330
B2
102
}
100
AcDbEntity
  8
M05
100
AcDbLine
 10
1033.344777
 20
325.059226
 30
0.0
 11
1034.344777
 21
326.059226
 31
0.0
  0
LINE
  5
551
102
{ACAD_REACTORS
330
B2
102
}
100
AcDbEntity
  8
M05
100
AcDbLine
 10
1033.344777
 20
313.059226
 30
0.0
 11
1033.344777
 21
325.059226
 31
0.0
  0
LINE
  5
552
102
{ACAD_REACTORS
330
B2
102
}
100
AcDbEntity
  8
M05
100
AcDbLine
 10
1033.344777
 20
352.059226
 30
0.0
 11
1034.344777
 21
353.059226
 31
0.0
  0
LINE
  5
553
102
{ACAD_REACTORS
330
B2
102
}
100
AcDbEntity
  8
M05
100
AcDbLine
 10
1033.344777
 20
340.059226
 30
0.0
 11
1034.344777
 21
339.059226
 31
0.0
  0
LINE
  5
554
102
{ACAD_REACTORS
330
B2
102
}
100
AcDbEntity
  8
M05
100
AcDbLine
 10
1033.344777
 20
352.059226
 30
0.0
 11
1033.344777
 21
340.059226
 31
0.0
  0
LINE
  5
555
100
AcDbEntity
  8
M01
100
AcDbLine
 10
1023.344777
 20
305.559226
 30
0.0
 11
1027.344777
 21
305.559226
 31
0.0
  0
LINE
  5
556
100
AcDbEntity
  8
M01
100
AcDbLine
 10
1023.344777
 20
313.559226
 30
0.0
 11
1027.344777
 21
313.559226
 31
0.0
  0
LINE
  5
557
100
AcDbEntity
  8
M01
100
AcDbLine
 10
971.344777
 20
305.559226
 30
0.0
 11
967.344777
 21
305.559226
 31
0.0
  0
LINE
  5
558
100
AcDbEntity
  8
M01
100
AcDbLine
 10
971.344777
 20
313.559226
 30
0.0
 11
967.344777
 21
313.559226
 31
0.0
  0
CIRCLE
  5
559
102
{ACAD_REACTORS
330
287
102
}
100
AcDbEntity
  8
M01
100
AcDbCircle
 10
1023.344777
 20
309.559226
 30
0.0
 40
4.0
  0
CIRCLE
  5
55A
100
AcDbEntity
  8
M01
100
AcDbCircle
 10
971.344777
 20
309.559226
 30
0.0
 40
4.0
  0
LINE
  5
55B
100
AcDbEntity
  8
M01
100
AcDbLine
 10
982.844777
 20
328.559226
 30
0.0
 11
967.344777
 21
328.559226
 31
0.0
  0
LINE
  5
55C
100
AcDbEntity
  8
M01
100
AcDbLine
 10
978.844777
 20
336.559226
 30
0.0
 11
967.344777
 21
336.559226
 31
0.0
  0
SOLID
  5
55D
100
AcDbEntity
  8
0
  6
BYBLOCK
 62
     4
100
AcDbTrace
 10
383.979578
 20
289.982921
 30
0.0
 11
384.89318
 21
289.576312
 31
0.0
 12
385.656206
 22
292.520423
 32
0.0
 13
385.656206
 23
292.520423
 33
0.0
  0
LINE
  5
55E
100
AcDbEntity
  8
0
  6
BYBLOCK
 62
     4
100
AcDbLine
 10
384.436379
 20
289.779616
 30
0.0
 11
375.979469
 21
270.283711
 31
0.0
  0
MTEXT
  5
55F
100
AcDbEntity
  8
0
  6
BYBLOCK
 62
     2
100
AcDbMText
 10
270.198034
 20
264.056557
 30
-0.222949
 40
3.0
 41
0.0
 71
     4
 72
     1
  1
M12 PLATE RETAINING SCREWS SHOULD ALSO BE FITTED.\PMINIMUM 2 PER DROP & ALSO AROUND MANIFOLD POCKET.
  0
MTEXT
  5
560
102
{ACAD_REACTORS
330
561
102
}
100
AcDbEntity
  8
DIMS
 62
     2
100
AcDbMText
 10
206.090481
 20
471.79654
 30
-0.222949
 40
3.0
 41
0.0
 71
     9
 72
     5
  1
HGX10037 (x2)
  0
LEADER
  5
561
100
AcDbEntity
  8
DIMS
 62
     4
100
AcDbLeader
  3
DIM1$7
 73
     0
 75
     1
 40
4.571429
 41
33.714286
 76
     3
 10
223.160932
 20
493.649678
 30
-0.222949
 10
210.590481
 20
473.29654
 30
-0.222949
 10
207.590481
 20
473.29654
 30
-0.222949
 77
   256
340
560
213
0.0
223
1.5
233
0.0
1001
ACAD
1000
DSTYLE
1002
{
1070
   288
1070
     1
1070
   144
1040
1.0
1002
}
  0
LINE
  5
563
100
AcDbEntity
  8
M01
100
AcDbLine
 10
340.76878
 20
579.503326
 30
0.0
 11
334.26878
 21
579.503326
 31
0.0
  0
LINE
  5
564
100
AcDbEntity
  8
M01
100
AcDbLine
 10
340.76878
 20
587.615126
 30
0.0
 11
334.26878
 21
587.615126
 31
0.0
  0
LINE
  5
565
100
AcDbEntity
  8
M01
100
AcDbLine
 10
340.76878
 20
579.503326
 30
0.0
 11
340.76878
 21
577.559226
 31
0.0
  0
ARC
  5
566
100
AcDbEntity
  8
M01
100
AcDbCircle
 10
342.01878
 20
581.064576
 30
0.0
 40
2.0
100
AcDbArc
 50
180.0
 51
231.317813
  0
ARC
  5
567
100
AcDbEntity
  8
M01
100
AcDbCircle
 10
342.01878
 20
586.053876
 30
0.0
 40
2.0
100
AcDbArc
 50
128.682187
 51
180.0
  0
LINE
  5
568
100
AcDbEntity
  8
M01
100
AcDbLine
 10
340.76878
 20
589.559226
 30
0.0
 11
340.76878
 21
587.615126
 31
0.0
  0
LINE
  5
569
100
AcDbEntity
  8
M01
100
AcDbLine
 10
340.01878
 20
586.053876
 30
0.0
 11
340.01878
 21
581.064576
 31
0.0
  0
LINE
  5
56A
100
AcDbEntity
  8
M01
100
AcDbLine
 10
334.26878
 20
579.503326
 30
0.0
 11
334.26878
 21
577.559226
 31
0.0
  0
ARC
  5
56B
100
AcDbEntity
  8
M01
100
AcDbCircle
 10
333.01878
 20
581.064576
 30
0.0
 40
2.0
100
AcDbArc
 50
308.682187
 51
0.0
  0
ARC
  5
56C
100
AcDbEntity
  8
M01
100
AcDbCircle
 10
333.01878
 20
586.053876
 30
0.0
 40
2.0
100
AcDbArc
 50
0.0
 51
51.317813
  0
LINE
  5
56D
100
AcDbEntity
  8
M01
100
AcDbLine
 10
334.26878
 20
589.559226
 30
0.0
 11
334.26878
 21
587.615126
 31
0.0
  0
LINE
  5
56E
100
AcDbEntity
  8
M01
100
AcDbLine
 10
335.01878
 20
586.053876
 30
0.0
 11
335.01878
 21
581.064576
 31
0.0
  0
LINE
  5
56F
100
AcDbEntity
  8
M01
100
AcDbLine
 10
333.01878
 20
589.559226
 30
0.0
 11
342.01878
 21
589.559226
 31
0.0
  0
LINE
  5
570
100
AcDbEntity
  8
M01
100
AcDbLine
 10
342.01878
 20
590.359226
 30
0.0
 11
342.01878
 21
589.559226
 31
0.0
  0
LINE
  5
571
100
AcDbEntity
  8
M01
100
AcDbLine
 10
333.01878
 20
590.359226
 30
0.0
 11
333.01878
 21
589.559226
 31
0.0
  0
LINE
  5
572
100
AcDbEntity
  8
M01
100
AcDbLine
 10
310.26878
 20
579.503326
 30
0.0
 11
316.76878
 21
579.503326
 31
0.0
  0
LINE
  5
573
100
AcDbEntity
  8
M01
100
AcDbLine
 10
310.26878
 20
587.615126
 30
0.0
 11
316.76878
 21
587.615126
 31
0.0
  0
LINE
  5
574
100
AcDbEntity
  8
M01
100
AcDbLine
 10
310.26878
 20
579.503326
 30
0.0
 11
310.26878
 21
577.559226
 31
0.0
  0
ARC
  5
575
100
AcDbEntity
  8
M01
100
AcDbCircle
 10
309.01878
 20
581.064576
 30
0.0
 40
2.0
100
AcDbArc
 50
308.682187
 51
0.0
  0
ARC
  5
576
100
AcDbEntity
  8
M01
100
AcDbCircle
 10
309.01878
 20
586.053876
 30
0.0
 40
2.0
100
AcDbArc
 50
0.0
 51
51.317813
  0
LINE
  5
577
100
AcDbEntity
  8
M01
100
AcDbLine
 10
310.26878
 20
589.559226
 30
0.0
 11
310.26878
 21
587.615126
 31
0.0
  0
LINE
  5
578
100
AcDbEntity
  8
M01
100
AcDbLine
 10
311.01878
 20
586.053876
 30
0.0
 11
311.01878
 21
581.064576
 31
0.0
  0
LINE
  5
579
100
AcDbEntity
  8
M01
100
AcDbLine
 10
316.76878
 20
579.503326
 30
0.0
 11
316.76878
 21
577.559226
 31
0.0
  0
ARC
  5
57A
100
AcDbEntity
  8
M01
100
AcDbCircle
 10
318.01878
 20
581.064576
 30
0.0
 40
2.0
100
AcDbArc
 50
180.0
 51
231.317813
  0
ARC
  5
57B
100
AcDbEntity
  8
M01
100
AcDbCircle
 10
318.01878
 20
586.053876
 30
0.0
 40
2.0
100
AcDbArc
 50
128.682187
 51
180.0
  0
LINE
  5
57C
100
AcDbEntity
  8
M01
100
AcDbLine
 10
316.76878
 20
589.559226
 30
0.0
 11
316.76878
 21
587.615126
 31
0.0
  0
LINE
  5
57D
100
AcDbEntity
  8
M01
100
AcDbLine
 10
316.01878
 20
586.053876
 30
0.0
 11
316.01878
 21
581.064576
 31
0.0
  0
LINE
  5
57E
100
AcDbEntity
  8
M01
100
AcDbLine
 10
342.51878
 20
572.559226
 30
0.0
 11
332.51878
 21
572.559226
 31
0.0
  0
LINE
  5
57F
100
AcDbEntity
  8
M01
100
AcDbLine
 10
308.51878
 20
572.559226
 30
0.0
 11
318.51878
 21
572.559226
 31
0.0
  0
LINE
  5
580
100
AcDbEntity
  8
M01
100
AcDbLine
 10
308.51878
 20
577.559226
 30
0.0
 11
308.51878
 21
557.559226
 31
0.0
  0
LINE
  5
581
100
AcDbEntity
  8
M01
100
AcDbLine
 10
318.51878
 20
577.559226
 30
0.0
 11
318.51878
 21
557.559226
 31
0.0
  0
LINE
  5
582
100
AcDbEntity
  8
M01
100
AcDbLine
 10
332.51878
 20
577.559226
 30
0.0
 11
332.51878
 21
557.559226
 31
0.0
  0
LINE
  5
583
100
AcDbEntity
  8
M01
100
AcDbLine
 10
342.51878
 20
577.559226
 30
0.0
 11
342.51878
 21
557.559226
 31
0.0
  0
LINE
  5
584
100
AcDbEntity
  8
M01
100
AcDbLine
 10
340.549868
 20
599.459226
 30
0.0
 11
334.487691
 21
599.459226
 31
0.0
  0
ARC
  5
585
100
AcDbEntity
  8
M01
100
AcDbCircle
 10
334.487691
 20
597.609921
 30
0.0
 40
1.150694
100
AcDbArc
 50
208.592423
 51
331.407577
  0
ARC
  5
586
100
AcDbEntity
  8
M01
100
AcDbCircle
 10
337.51878
 20
600.162004
 30
0.0
 40
3.702778
100
AcDbArc
 50
236.92527
 51
303.07473
  0
ARC
  5
587
100
AcDbEntity
  8
M01
100
AcDbCircle
 10
340.549868
 20
597.609921
 30
0.0
 40
1.150694
100
AcDbArc
 50
208.592423
 51
331.407577
  0
ARC
  5
588
100
AcDbEntity
  8
M01
100
AcDbCircle
 10
334.487691
 20
598.308532
 30
0.0
 40
1.150694
100
AcDbArc
 50
28.592423
 51
151.407577
  0
ARC
  5
589
100
AcDbEntity
  8
M01
100
AcDbCircle
 10
337.51878
 20
595.756448
 30
0.0
 40
3.702778
100
AcDbArc
 50
56.92527
 51
123.07473
  0
LINE
  5
58A
100
AcDbEntity
  8
M01
100
AcDbLine
 10
335.498054
 20
598.859226
 30
0.0
 11
335.498054
 21
597.059226
 31
0.0
  0
LINE
  5
58B
100
AcDbEntity
  8
M01
100
AcDbLine
 10
333.477328
 20
598.859226
 30
0.0
 11
333.477328
 21
597.059226
 31
0.0
  0
ARC
  5
58C
100
AcDbEntity
  8
M01
100
AcDbCircle
 10
340.549868
 20
598.308532
 30
0.0
 40
1.150694
100
AcDbArc
 50
28.592423
 51
151.407577
  0
LINE
  5
58D
100
AcDbEntity
  8
M01
100
AcDbLine
 10
339.539505
 20
598.859226
 30
0.0
 11
339.539505
 21
597.059226
 31
0.0
  0
LINE
  5
58E
100
AcDbEntity
  8
M01
100
AcDbLine
 10
341.560231
 20
598.859226
 30
0.0
 11
341.560231
 21
597.059226
 31
0.0
  0
LINE
  5
58F
100
AcDbEntity
  8
M01
100
AcDbLine
 10
332.51878
 20
594.159226
 30
0.0
 11
332.51878
 21
595.659226
 31
0.0
  0
LINE
  5
590
100
AcDbEntity
  8
M01
100
AcDbLine
 10
342.51878
 20
594.159226
 30
0.0
 11
342.51878
 21
595.659226
 31
0.0
  0
LINE
  5
591
100
AcDbEntity
  8
M01
100
AcDbLine
 10
333.01878
 20
595.659226
 30
0.0
 11
333.01878
 21
596.459226
 31
0.0
  0
LINE
  5
592
100
AcDbEntity
  8
M01
100
AcDbLine
 10
342.01878
 20
595.659226
 30
0.0
 11
342.01878
 21
596.459226
 31
0.0
  0
LINE
  5
593
100
AcDbEntity
  8
M01
100
AcDbLine
 10
342.01878
 20
596.459226
 30
0.0
 11
333.01878
 21
596.459226
 31
0.0
  0
LINE
  5
594
100
AcDbEntity
  8
M01
100
AcDbLine
 10
342.51878
 20
595.659226
 30
0.0
 11
332.51878
 21
595.659226
 31
0.0
  0
LINE
  5
595
100
AcDbEntity
  8
M01
100
AcDbLine
 10
333.01878
 20
593.359226
 30
0.0
 11
333.01878
 21
594.159226
 31
0.0
  0
LINE
  5
596
100
AcDbEntity
  8
M01
100
AcDbLine
 10
342.01878
 20
593.359226
 30
0.0
 11
342.01878
 21
594.159226
 31
0.0
  0
LINE
  5
597
100
AcDbEntity
  8
M01
100
AcDbLine
 10
342.51878
 20
594.159226
 30
0.0
 11
332.51878
 21
594.159226
 31
0.0
  0
ARC
  5
598
100
AcDbEntity
  8
M01
100
AcDbCircle
 10
334.487691
 20
591.509921
 30
0.0
 40
1.150694
100
AcDbArc
 50
208.592423
 51
331.407577
  0
ARC
  5
599
100
AcDbEntity
  8
M01
100
AcDbCircle
 10
337.51878
 20
594.062004
 30
0.0
 40
3.702778
100
AcDbArc
 50
236.92527
 51
303.07473
  0
ARC
  5
59A
100
AcDbEntity
  8
M01
100
AcDbCircle
 10
340.549868
 20
591.509921
 30
0.0
 40
1.150694
100
AcDbArc
 50
208.592423
 51
331.407577
  0
ARC
  5
59B
100
AcDbEntity
  8
M01
100
AcDbCircle
 10
334.487691
 20
592.208532
 30
0.0
 40
1.150694
100
AcDbArc
 50
28.592423
 51
151.407577
  0
ARC
  5
59C
100
AcDbEntity
  8
M01
100
AcDbCircle
 10
337.51878
 20
589.656448
 30
0.0
 40
3.702778
100
AcDbArc
 50
56.92527
 51
123.07473
  0
LINE
  5
59D
100
AcDbEntity
  8
M01
100
AcDbLine
 10
335.498054
 20
592.759226
 30
0.0
 11
335.498054
 21
590.959226
 31
0.0
  0
LINE
  5
59E
100
AcDbEntity
  8
M01
100
AcDbLine
 10
333.477328
 20
592.759226
 30
0.0
 11
333.477328
 21
590.959226
 31
0.0
  0
ARC
  5
59F
100
AcDbEntity
  8
M01
100
AcDbCircle
 10
340.549868
 20
592.208532
 30
0.0
 40
1.150694
100
AcDbArc
 50
28.592423
 51
151.407577
  0
LINE
  5
5A0
100
AcDbEntity
  8
M01
100
AcDbLine
 10
339.539505
 20
592.759226
 30
0.0
 11
339.539505
 21
590.959226
 31
0.0
  0
LINE
  5
5A1
100
AcDbEntity
  8
M01
100
AcDbLine
 10
341.560231
 20
592.759226
 30
0.0
 11
341.560231
 21
590.959226
 31
0.0
  0
LINE
  5
5A2
100
AcDbEntity
  8
M01
100
AcDbLine
 10
342.01878
 20
593.359226
 30
0.0
 11
333.01878
 21
593.359226
 31
0.0
  0
LINE
  5
5A3
100
AcDbEntity
  8
M01
100
AcDbLine
 10
342.01878
 20
590.359226
 30
0.0
 11
333.01878
 21
590.359226
 31
0.0
  0
LINE
  5
5A4
100
AcDbEntity
  8
M01
100
AcDbLine
 10
336.01878
 20
602.559226
 30
0.0
 11
335.51878
 21
602.059226
 31
0.0
  0
LINE
  5
5A5
100
AcDbEntity
  8
M01
100
AcDbLine
 10
339.51878
 20
602.059226
 30
0.0
 11
339.01878
 21
602.559226
 31
0.0
  0
LINE
  5
5A6
100
AcDbEntity
  8
M01
100
AcDbLine
 10
339.51878
 20
602.059226
 30
0.0
 11
335.51878
 21
602.059226
 31
0.0
  0
LINE
  5
5A7
100
AcDbEntity
  8
M01
100
AcDbLine
 10
336.01878
 20
602.559226
 30
0.0
 11
336.01878
 21
599.459226
 31
0.0
  0
LINE
  5
5A8
100
AcDbEntity
  8
M01
100
AcDbLine
 10
339.01878
 20
602.559226
 30
0.0
 11
339.01878
 21
599.459226
 31
0.0
  0
LINE
  5
5A9
100
AcDbEntity
  8
M01
100
AcDbLine
 10
339.51878
 20
602.059226
 30
0.0
 11
339.51878
 21
599.459226
 31
0.0
  0
LINE
  5
5AA
100
AcDbEntity
  8
M01
100
AcDbLine
 10
335.51878
 20
602.059226
 30
0.0
 11
335.51878
 21
599.459226
 31
0.0
  0
LINE
  5
5AB
100
AcDbEntity
  8
M01
100
AcDbLine
 10
339.01878
 20
602.559226
 30
0.0
 11
336.01878
 21
602.559226
 31
0.0
  0
LINE
  5
5AC
100
AcDbEntity
  8
M01
100
AcDbLine
 10
342.51878
 20
577.559226
 30
0.0
 11
332.51878
 21
577.559226
 31
0.0
  0
LINE
  5
5AD
100
AcDbEntity
  8
CENTRE
100
AcDbLine
 10
337.51878
 20
608.720115
 30
0.0
 11
337.51878
 21
545.126684
 31
0.0
  0
LINE
  5
5AE
100
AcDbEntity
  8
M01
100
AcDbLine
 10
310.487691
 20
599.459226
 30
0.0
 11
316.549868
 21
599.459226
 31
0.0
  0
ARC
  5
5AF
100
AcDbEntity
  8
M01
100
AcDbCircle
 10
316.549868
 20
597.609921
 30
0.0
 40
1.150694
100
AcDbArc
 50
208.592423
 51
331.407577
  0
ARC
  5
5B0
100
AcDbEntity
  8
M01
100
AcDbCircle
 10
313.51878
 20
600.162004
 30
0.0
 40
3.702778
100
AcDbArc
 50
236.92527
 51
303.07473
  0
ARC
  5
5B1
100
AcDbEntity
  8
M01
100
AcDbCircle
 10
310.487691
 20
597.609921
 30
0.0
 40
1.150694
100
AcDbArc
 50
208.592423
 51
331.407577
  0
ARC
  5
5B2
100
AcDbEntity
  8
M01
100
AcDbCircle
 10
316.549868
 20
598.308532
 30
0.0
 40
1.150694
100
AcDbArc
 50
28.592423
 51
151.407577
  0
ARC
  5
5B3
100
AcDbEntity
  8
M01
100
AcDbCircle
 10
313.51878
 20
595.756448
 30
0.0
 40
3.702778
100
AcDbArc
 50
56.92527
 51
123.07473
  0
LINE
  5
5B4
100
AcDbEntity
  8
M01
100
AcDbLine
 10
315.539505
 20
598.859226
 30
0.0
 11
315.539505
 21
597.059226
 31
0.0
  0
LINE
  5
5B5
100
AcDbEntity
  8
M01
100
AcDbLine
 10
317.560231
 20
598.859226
 30
0.0
 11
317.560231
 21
597.059226
 31
0.0
  0
ARC
  5
5B6
100
AcDbEntity
  8
M01
100
AcDbCircle
 10
310.487691
 20
598.308532
 30
0.0
 40
1.150694
100
AcDbArc
 50
28.592423
 51
151.407577
  0
LINE
  5
5B7
100
AcDbEntity
  8
M01
100
AcDbLine
 10
311.498054
 20
598.859226
 30
0.0
 11
311.498054
 21
597.059226
 31
0.0
  0
LINE
  5
5B8
100
AcDbEntity
  8
M01
100
AcDbLine
 10
309.477328
 20
598.859226
 30
0.0
 11
309.477328
 21
597.059226
 31
0.0
  0
LINE
  5
5B9
100
AcDbEntity
  8
M01
100
AcDbLine
 10
318.51878
 20
594.159226
 30
0.0
 11
318.51878
 21
595.659226
 31
0.0
  0
LINE
  5
5BA
100
AcDbEntity
  8
M01
100
AcDbLine
 10
308.51878
 20
594.159226
 30
0.0
 11
308.51878
 21
595.659226
 31
0.0
  0
LINE
  5
5BB
100
AcDbEntity
  8
M01
100
AcDbLine
 10
318.01878
 20
595.659226
 30
0.0
 11
318.01878
 21
596.459226
 31
0.0
  0
LINE
  5
5BC
100
AcDbEntity
  8
M01
100
AcDbLine
 10
309.01878
 20
595.659226
 30
0.0
 11
309.01878
 21
596.459226
 31
0.0
  0
LINE
  5
5BD
100
AcDbEntity
  8
M01
100
AcDbLine
 10
309.01878
 20
596.459226
 30
0.0
 11
318.01878
 21
596.459226
 31
0.0
  0
LINE
  5
5BE
100
AcDbEntity
  8
M01
100
AcDbLine
 10
308.51878
 20
595.659226
 30
0.0
 11
318.51878
 21
595.659226
 31
0.0
  0
LINE
  5
5BF
100
AcDbEntity
  8
M01
100
AcDbLine
 10
318.01878
 20
593.359226
 30
0.0
 11
318.01878
 21
594.159226
 31
0.0
  0
LINE
  5
5C0
100
AcDbEntity
  8
M01
100
AcDbLine
 10
309.01878
 20
593.359226
 30
0.0
 11
309.01878
 21
594.159226
 31
0.0
  0
LINE
  5
5C1
100
AcDbEntity
  8
M01
100
AcDbLine
 10
308.51878
 20
594.159226
 30
0.0
 11
318.51878
 21
594.159226
 31
0.0
  0
ARC
  5
5C2
100
AcDbEntity
  8
M01
100
AcDbCircle
 10
316.549868
 20
591.509921
 30
0.0
 40
1.150694
100
AcDbArc
 50
208.592423
 51
331.407577
  0
ARC
  5
5C3
100
AcDbEntity
  8
M01
100
AcDbCircle
 10
313.51878
 20
594.062004
 30
0.0
 40
3.702778
100
AcDbArc
 50
236.92527
 51
303.07473
  0
ARC
  5
5C4
100
AcDbEntity
  8
M01
100
AcDbCircle
 10
310.487691
 20
591.509921
 30
0.0
 40
1.150694
100
AcDbArc
 50
208.592423
 51
331.407577
  0
ARC
  5
5C5
100
AcDbEntity
  8
M01
100
AcDbCircle
 10
316.549868
 20
592.208532
 30
0.0
 40
1.150694
100
AcDbArc
 50
28.592423
 51
151.407577
  0
ARC
  5
5C6
100
AcDbEntity
  8
M01
100
AcDbCircle
 10
313.51878
 20
589.656448
 30
0.0
 40
3.702778
100
AcDbArc
 50
56.92527
 51
123.07473
  0
LINE
  5
5C7
100
AcDbEntity
  8
M01
100
AcDbLine
 10
315.539505
 20
592.759226
 30
0.0
 11
315.539505
 21
590.959226
 31
0.0
  0
LINE
  5
5C8
100
AcDbEntity
  8
M01
100
AcDbLine
 10
317.560231
 20
592.759226
 30
0.0
 11
317.560231
 21
590.959226
 31
0.0
  0
ARC
  5
5C9
100
AcDbEntity
  8
M01
100
AcDbCircle
 10
310.487691
 20
592.208532
 30
0.0
 40
1.150694
100
AcDbArc
 50
28.592423
 51
151.407577
  0
LINE
  5
5CA
100
AcDbEntity
  8
M01
100
AcDbLine
 10
311.498054
 20
592.759226
 30
0.0
 11
311.498054
 21
590.959226
 31
0.0
  0
LINE
  5
5CB
100
AcDbEntity
  8
M01
100
AcDbLine
 10
309.477328
 20
592.759226
 30
0.0
 11
309.477328
 21
590.959226
 31
0.0
  0
LINE
  5
5CC
100
AcDbEntity
  8
M01
100
AcDbLine
 10
309.01878
 20
593.359226
 30
0.0
 11
318.01878
 21
593.359226
 31
0.0
  0
LINE
  5
5CD
100
AcDbEntity
  8
M01
100
AcDbLine
 10
309.01878
 20
590.359226
 30
0.0
 11
318.01878
 21
590.359226
 31
0.0
  0
LINE
  5
5CE
100
AcDbEntity
  8
M01
100
AcDbLine
 10
309.01878
 20
589.559226
 30
0.0
 11
318.01878
 21
589.559226
 31
0.0
  0
LINE
  5
5CF
100
AcDbEntity
  8
M01
100
AcDbLine
 10
315.01878
 20
602.559226
 30
0.0
 11
315.51878
 21
602.059226
 31
0.0
  0
LINE
  5
5D0
100
AcDbEntity
  8
M01
100
AcDbLine
 10
311.51878
 20
602.059226
 30
0.0
 11
312.01878
 21
602.559226
 31
0.0
  0
LINE
  5
5D1
100
AcDbEntity
  8
M01
100
AcDbLine
 10
311.51878
 20
602.059226
 30
0.0
 11
315.51878
 21
602.059226
 31
0.0
  0
LINE
  5
5D2
100
AcDbEntity
  8
M01
100
AcDbLine
 10
315.01878
 20
602.559226
 30
0.0
 11
315.01878
 21
599.459226
 31
0.0
  0
LINE
  5
5D3
100
AcDbEntity
  8
M01
100
AcDbLine
 10
312.01878
 20
602.559226
 30
0.0
 11
312.01878
 21
599.459226
 31
0.0
  0
LINE
  5
5D4
100
AcDbEntity
  8
M01
100
AcDbLine
 10
311.51878
 20
602.059226
 30
0.0
 11
311.51878
 21
599.459226
 31
0.0
  0
LINE
  5
5D5
100
AcDbEntity
  8
M01
100
AcDbLine
 10
315.51878
 20
602.059226
 30
0.0
 11
315.51878
 21
599.459226
 31
0.0
  0
LINE
  5
5D6
100
AcDbEntity
  8
M01
100
AcDbLine
 10
312.01878
 20
602.559226
 30
0.0
 11
315.01878
 21
602.559226
 31
0.0
  0
LINE
  5
5D7
100
AcDbEntity
  8
M01
100
AcDbLine
 10
308.51878
 20
577.559226
 30
0.0
 11
318.51878
 21
577.559226
 31
0.0
  0
LINE
  5
5D8
100
AcDbEntity
  8
M01
100
AcDbLine
 10
318.01878
 20
590.359226
 30
0.0
 11
318.01878
 21
589.559226
 31
0.0
  0
LINE
  5
5D9
100
AcDbEntity
  8
M01
100
AcDbLine
 10
309.01878
 20
590.359226
 30
0.0
 11
309.01878
 21
589.559226
 31
0.0
  0
LINE
  5
5DA
100
AcDbEntity
  8
CENTRE
100
AcDbLine
 10
313.51878
 20
608.720115
 30
0.0
 11
313.51878
 21
545.126684
 31
0.0
  0
LINE
  5
5DB
100
AcDbEntity
  8
DIMS
 62
     4
100
AcDbLine
 10
528.91878
 20
406.559226
 30
0.0
 11
532.71878
 21
406.559226
 31
0.0
  0
LINE
  5
5DC
100
AcDbEntity
  8
DIMS
 62
     4
100
AcDbLine
 10
522.11878
 20
406.559226
 30
0.0
 11
518.31878
 21
406.559226
 31
0.0
  0
LINE
  5
5DD
100
AcDbEntity
  8
DIMS
 62
     4
100
AcDbLine
 10
523.81878
 20
406.559226
 30
0.0
 11
527.21878
 21
406.559226
 31
0.0
  0
CIRCLE
  5
5DE
100
AcDbEntity
  8
M03
100
AcDbCircle
 10
525.51878
 20
406.559226
 30
0.0
 40
2.3
  0
ARC
  5
5DF
100
AcDbEntity
  8
M03
100
AcDbCircle
 10
525.51878
 20
406.559226
 30
0.0
 40
3.0
100
AcDbArc
 50
167.784636
 51
96.923103
  0
CIRCLE
  5
5E0
100
AcDbEntity
  8
M03
100
AcDbCircle
 10
525.51878
 20
406.559226
 30
0.0
 40
5.5
  0
LINE
  5
5E1
100
AcDbEntity
  8
DIMS
 62
     4
100
AcDbLine
 10
499.51878
 20
435.959226
 30
0.0
 11
499.51878
 21
439.759226
 31
0.0
  0
LINE
  5
5E2
100
AcDbEntity
  8
DIMS
 62
     4
100
AcDbLine
 10
499.51878
 20
429.159226
 30
0.0
 11
499.51878
 21
425.359226
 31
0.0
  0
LINE
  5
5E3
100
AcDbEntity
  8
DIMS
 62
     4
100
AcDbLine
 10
499.51878
 20
430.859226
 30
0.0
 11
499.51878
 21
434.259226
 31
0.0
  0
LINE
  5
5E4
100
AcDbEntity
  8
DIMS
 62
     4
100
AcDbLine
 10
551.51878
 20
435.959226
 30
0.0
 11
551.51878
 21
439.759226
 31
0.0
  0
LINE
  5
5E5
100
AcDbEntity
  8
DIMS
 62
     4
100
AcDbLine
 10
551.51878
 20
429.159226
 30
0.0
 11
551.51878
 21
425.359226
 31
0.0
  0
LINE
  5
5E6
100
AcDbEntity
  8
DIMS
 62
     4
100
AcDbLine
 10
551.51878
 20
430.859226
 30
0.0
 11
551.51878
 21
434.259226
 31
0.0
  0
LINE
  5
5E7
100
AcDbEntity
  8
DIMS
 62
     4
100
AcDbLine
 10
528.91878
 20
458.559226
 30
0.0
 11
532.71878
 21
458.559226
 31
0.0
  0
LINE
  5
5E8
100
AcDbEntity
  8
DIMS
 62
     4
100
AcDbLine
 10
522.11878
 20
458.559226
 30
0.0
 11
518.31878
 21
458.559226
 31
0.0
  0
LINE
  5
5E9
100
AcDbEntity
  8
DIMS
 62
     4
100
AcDbLine
 10
523.81878
 20
458.559226
 30
0.0
 11
527.21878
 21
458.559226
 31
0.0
  0
CIRCLE
  5
5EA
100
AcDbEntity
  8
M03
100
AcDbCircle
 10
551.51878
 20
432.559226
 30
0.0
 40
2.3
  0
ARC
  5
5EB
100
AcDbEntity
  8
M03
100
AcDbCircle
 10
551.51878
 20
432.559226
 30
0.0
 40
3.0
100
AcDbArc
 50
167.784636
 51
96.923103
  0
CIRCLE
  5
5EC
100
AcDbEntity
  8
M03
100
AcDbCircle
 10
551.51878
 20
432.559226
 30
0.0
 40
5.5
  0
CIRCLE
  5
5ED
100
AcDbEntity
  8
M03
100
AcDbCircle
 10
499.51878
 20
432.559226
 30
0.0
 40
2.3
  0
ARC
  5
5EE
100
AcDbEntity
  8
M03
100
AcDbCircle
 10
499.51878
 20
432.559226
 30
0.0
 40
3.0
100
AcDbArc
 50
167.784636
 51
96.923103
  0
CIRCLE
  5
5EF
100
AcDbEntity
  8
M03
100
AcDbCircle
 10
499.51878
 20
432.559226
 30
0.0
 40
5.5
  0
CIRCLE
  5
5F0
100
AcDbEntity
  8
M03
100
AcDbCircle
 10
525.51878
 20
458.559226
 30
0.0
 40
2.3
  0
ARC
  5
5F1
100
AcDbEntity
  8
M03
100
AcDbCircle
 10
525.51878
 20
458.559226
 30
0.0
 40
3.0
100
AcDbArc
 50
167.784636
 51
96.923103
  0
CIRCLE
  5
5F2
100
AcDbEntity
  8
M03
100
AcDbCircle
 10
525.51878
 20
458.559226
 30
0.0
 40
5.5
  0
LINE
  5
5F3
100
AcDbEntity
  8
DIMS
100
AcDbLine
 10
300.616537
 20
652.003033
 30
0.0
 11
325.51878
 21
652.003033
 31
0.0
  0
INSERT
  5
5F4
100
AcDbEntity
  8
DIMS
100
AcDbBlockReference
  2
ARROW1
 10
300.616537
 20
652.003033
 30
0.0
 41
10.0
 42
10.0
 43
10.0
 50
180.0
  0
LINE
  5
5F5
100
AcDbEntity
  8
DIMS
100
AcDbLine
 10
148.034541
 20
279.977231
 30
0.0
 11
172.936784
 21
279.977231
 31
0.0
  0
INSERT
  5
5F6
100
AcDbEntity
  8
DIMS
100
AcDbBlockReference
  2
ARROW1
 10
148.034541
 20
279.977231
 30
0.0
 41
10.0
 42
10.0
 43
10.0
 50
180.0
  0
POINT
  5
5F7
100
AcDbEntity
  8
DEFPOINTS
  6
BYBLOCK
 62
     0
100
AcDbPoint
 10
325.51878
 20
432.559226
 30
0.0
  0
MTEXT
  5
5F8
102
{ACAD_REACTORS
330
5F9
102
}
100
AcDbEntity
  8
HATCH
 62
     2
100
AcDbMText
 10
1053.884319
 20
306.761073
 30
0.0
 40
3.0
 41
0.0
 71
     1
 72
     5
  1
MAO10004 (x8)
  0
LEADER
  5
5F9
100
AcDbEntity
  8
HATCH
 62
     4
100
AcDbLeader
  3
DIM1$7
 73
     0
 74
     0
 75
     1
 40
4.571429
 41
34.428571
 76
     3
 10
1030.739685
 20
316.186552
 30
0.0
 10
1049.384319
 20
305.261073
 30
0.0
 10
1052.384319
 20
305.261073
 30
0.0
 77
   256
340
5F8
213
0.0
223
-1.5
233
0.0
1001
ACAD
1000
DSTYLE
1002
{
1070
   144
1040
1.0
1002
}
  0
LINE
  5
5FA
102
{ACAD_REACTORS
330
B2
102
}
100
AcDbEntity
  8
M04
100
AcDbLine
 10
1034.344777
 20
329.559226
 30
0.0
 11
1034.344777
 21
276.613216
 31
0.0
  0
LINE
  5
5FB
100
AcDbEntity
  8
M04
100
AcDbLine
 10
1052.172683
 20
332.559226
 30
0.0
 11
1050.844777
 21
334.859226
 31
0.0
  0
LINE
  5
5FC
100
AcDbEntity
  8
M04
100
AcDbLine
 10
1050.844777
 20
330.259226
 30
0.0
 11
1052.172683
 21
332.559226
 31
0.0
  0
LINE
  5
5FD
100
AcDbEntity
  8
M04
100
AcDbLine
 10
1050.844777
 20
330.259226
 30
0.0
 11
1050.844777
 21
334.859226
 31
0.0
  0
LINE
  5
5FE
100
AcDbEntity
  8
M04
100
AcDbLine
 10
1045.783659
 20
329.559226
 30
0.0
 11
1049.344777
 21
329.559226
 31
0.0
  0
LINE
  5
5FF
100
AcDbEntity
  8
M04
100
AcDbLine
 10
1046.483659
 20
330.259226
 30
0.0
 11
1050.844777
 21
330.259226
 31
0.0
  0
LINE
  5
600
100
AcDbEntity
  8
M04
100
AcDbLine
 10
1045.783659
 20
335.559226
 30
0.0
 11
1049.344777
 21
335.559226
 31
0.0
  0
LINE
  5
601
100
AcDbEntity
  8
M04
100
AcDbLine
 10
1046.483659
 20
334.859226
 30
0.0
 11
1050.844777
 21
334.859226
 31
0.0
  0
LINE
  5
602
100
AcDbEntity
  8
M05
100
AcDbLine
 10
1046.483659
 20
334.859226
 30
0.0
 11
1045.783659
 21
335.559226
 31
0.0
  0
LINE
  5
603
100
AcDbEntity
  8
M05
100
AcDbLine
 10
1045.783659
 20
329.559226
 30
0.0
 11
1046.483659
 21
330.259226
 31
0.0
  0
LINE
  5
604
100
AcDbEntity
  8
M05
100
AcDbLine
 10
1033.703659
 20
334.859226
 30
0.0
 11
1046.483659
 21
334.859226
 31
0.0
  0
LINE
  5
605
100
AcDbEntity
  8
M05
100
AcDbLine
 10
1033.703659
 20
330.259226
 30
0.0
 11
1046.483659
 21
330.259226
 31
0.0
  0
LINE
  5
606
100
AcDbEntity
  8
M05
100
AcDbLine
 10
1045.783659
 20
329.559226
 30
0.0
 11
1045.783659
 21
335.559226
 31
0.0
  0
LINE
  5
607
100
AcDbEntity
  8
M04
100
AcDbLine
 10
1049.344777
 20
329.559226
 30
0.0
 11
1049.344777
 21
335.559226
 31
0.0
  0
LINE
  5
608
100
AcDbEntity
  8
M05
100
AcDbLine
 10
1046.483659
 20
330.259226
 30
0.0
 11
1046.483659
 21
334.859226
 31
0.0
  0
LINE
  5
609
100
AcDbEntity
  8
M05
  6
HIDDEN
100
AcDbLine
 10
1027.044777
 20
324.400344
 30
0.0
 11
1026.344777
 21
323.700344
 31
0.0
  0
LINE
  5
60A
100
AcDbEntity
  8
M05
  6
HIDDEN
100
AcDbLine
 10
1027.044777
 20
340.718108
 30
0.0
 11
1026.344777
 21
341.418108
 31
0.0
  0
LINE
  5
60B
100
AcDbEntity
  8
M05
100
AcDbLine
 10
1033.703659
 20
329.559226
 30
0.0
 11
1033.703659
 21
335.559226
 31
0.0
  0
LINE
  5
60C
100
AcDbEntity
  8
M05
100
AcDbLine
 10
1029.203659
 20
333.109226
 30
0.0
 11
1029.203659
 21
338.559226
 31
0.0
  0
LINE
  5
60D
100
AcDbEntity
  8
M05
100
AcDbLine
 10
1028.483659
 20
333.109226
 30
0.0
 11
1028.483659
 21
338.559226
 31
0.0
  0
LINE
  5
60E
100
AcDbEntity
  8
M05
100
AcDbLine
 10
1028.483659
 20
333.109226
 30
0.0
 11
1029.983659
 21
333.109226
 31
0.0
  0
LINE
  5
60F
100
AcDbEntity
  8
M05
100
AcDbLine
 10
1028.483659
 20
332.009226
 30
0.0
 11
1029.983659
 21
332.009226
 31
0.0
  0
LINE
  5
610
100
AcDbEntity
  8
M05
100
AcDbLine
 10
1029.983659
 20
332.009226
 30
0.0
 11
1029.983659
 21
333.109226
 31
0.0
  0
LINE
  5
611
102
{ACAD_REACTORS
330
B2
102
}
100
AcDbEntity
  8
M05
100
AcDbLine
 10
1031.703659
 20
336.059226
 30
0.0
 11
1034.344777
 21
336.059226
 31
0.0
  0
LINE
  5
612
102
{ACAD_REACTORS
330
B2
102
}
100
AcDbEntity
  8
M05
100
AcDbLine
 10
1031.703659
 20
329.059226
 30
0.0
 11
1034.344777
 21
329.059226
 31
0.0
  0
LINE
  5
613
100
AcDbEntity
  8
M05
100
AcDbLine
 10
1029.203659
 20
326.559226
 30
0.0
 11
1029.203659
 21
332.009226
 31
0.0
  0
LINE
  5
614
102
{ACAD_REACTORS
330
B2
102
}
100
AcDbEntity
  8
M05
100
AcDbLine
 10
1032.203659
 20
329.559226
 30
0.0
 11
1027.044777
 21
324.400344
 31
0.0
  0
LINE
  5
615
100
AcDbEntity
  8
M05
100
AcDbLine
 10
1028.483659
 20
326.559226
 30
0.0
 11
1029.203659
 21
326.559226
 31
0.0
  0
LINE
  5
616
102
{ACAD_REACTORS
330
B2
102
}
100
AcDbEntity
  8
M05
100
AcDbLine
 10
1032.203659
 20
335.559226
 30
0.0
 11
1027.044777
 21
340.718108
 31
0.0
  0
LINE
  5
617
100
AcDbEntity
  8
M05
100
AcDbLine
 10
1032.203659
 20
329.559226
 30
0.0
 11
1032.203659
 21
335.559226
 31
0.0
  0
LINE
  5
618
100
AcDbEntity
  8
M05
100
AcDbLine
 10
1032.203659
 20
329.559226
 30
0.0
 11
1045.783659
 21
329.559226
 31
0.0
  0
LINE
  5
619
100
AcDbEntity
  8
M05
100
AcDbLine
 10
1032.203659
 20
335.559226
 30
0.0
 11
1045.783659
 21
335.559226
 31
0.0
  0
LINE
  5
61A
100
AcDbEntity
  8
M05
100
AcDbLine
 10
1028.483659
 20
338.559226
 30
0.0
 11
1029.203659
 21
338.559226
 31
0.0
  0
LINE
  5
61B
100
AcDbEntity
  8
M05
100
AcDbLine
 10
1028.483659
 20
326.559226
 30
0.0
 11
1028.483659
 21
332.009226
 31
0.0
  0
LINE
  5
61C
100
AcDbEntity
  8
M05
  6
HIDDEN
100
AcDbLine
 10
1027.044777
 20
308.559226
 30
0.0
 11
1027.044777
 21
356.559226
 31
0.0
  0
LINE
  5
61D
100
AcDbEntity
  8
M05
  6
HIDDEN
100
AcDbLine
 10
1027.044777
 20
356.559226
 30
0.0
 11
1026.344777
 21
355.859226
 31
0.0
  0
LINE
  5
61E
100
AcDbEntity
  8
M05
  6
HIDDEN
100
AcDbLine
 10
1028.044777
 20
356.559226
 30
0.0
 11
1027.044777
 21
356.559226
 31
0.0
  0
LINE
  5
61F
102
{ACAD_REACTORS
330
B2
102
}
100
AcDbEntity
  8
M05
100
AcDbLine
 10
1028.044777
 20
356.559226
 30
0.0
 11
1027.344777
 21
355.859226
 31
0.0
  0
LINE
  5
620
102
{ACAD_REACTORS
330
B2
102
}
100
AcDbEntity
  8
M05
100
AcDbLine
 10
1033.644777
 20
356.559226
 30
0.0
 11
1034.344777
 21
355.859226
 31
0.0
  0
LINE
  5
621
102
{ACAD_REACTORS
330
B2
102
}
100
AcDbEntity
  8
M05
100
AcDbLine
 10
1028.044777
 20
356.559226
 30
0.0
 11
1033.644777
 21
356.559226
 31
0.0
  0
LINE
  5
622
100
AcDbEntity
  8
M05
  6
HIDDEN
100
AcDbLine
 10
1027.044777
 20
308.559226
 30
0.0
 11
1026.344777
 21
309.259226
 31
0.0
  0
LINE
  5
623
100
AcDbEntity
  8
M05
  6
HIDDEN
100
AcDbLine
 10
1028.044777
 20
308.559226
 30
0.0
 11
1027.044777
 21
308.559226
 31
0.0
  0
LINE
  5
624
102
{ACAD_REACTORS
330
B2
102
}
100
AcDbEntity
  8
M05
100
AcDbLine
 10
1028.044777
 20
308.559226
 30
0.0
 11
1027.344777
 21
309.259226
 31
0.0
  0
LINE
  5
625
102
{ACAD_REACTORS
330
B2
102
}
100
AcDbEntity
  8
M05
100
AcDbLine
 10
1033.644777
 20
308.559226
 30
0.0
 11
1034.344777
 21
309.259226
 31
0.0
  0
LINE
  5
626
102
{ACAD_REACTORS
330
1F6
102
}
100
AcDbEntity
  8
M02
100
AcDbLine
 10
1027.344777
 20
357.559226
 30
0.0
 11
1030.344777
 21
357.559226
 31
0.0
  0
LINE
  5
627
102
{ACAD_REACTORS
330
B3
102
}
100
AcDbEntity
  8
M02
100
AcDbLine
 10
1027.344777
 20
307.559226
 30
0.0
 11
1030.344777
 21
307.559226
 31
0.0
  0
LINE
  5
628
100
AcDbEntity
  8
M05
  6
HIDDEN
100
AcDbLine
 10
1026.344777
 20
309.259226
 30
0.0
 11
1026.344777
 21
355.859226
 31
0.0
  0
LINE
  5
629
102
{ACAD_REACTORS
330
B2
102
}
100
AcDbEntity
  8
M05
100
AcDbLine
 10
1028.044777
 20
308.559226
 30
0.0
 11
1033.644777
 21
308.559226
 31
0.0
  0
LINE
  5
62A
102
{ACAD_REACTORS
330
B3
102
}
100
AcDbEntity
  8
M02
100
AcDbLine
 10
1027.344777
 20
302.299226
 30
0.0
 11
1030.344777
 21
302.299226
 31
0.0
  0
LINE
  5
62B
102
{ACAD_REACTORS
330
B3
102
}
100
AcDbEntity
  8
M02
100
AcDbLine
 10
1030.344777
 20
302.299226
 30
0.0
 11
1030.344777
 21
308.559226
 31
0.0
  0
LINE
  5
62C
102
{ACAD_REACTORS
330
1F8
102
}
100
AcDbEntity
  8
M02
100
AcDbLine
 10
964.344777
 20
350.559226
 30
0.0
 11
967.344777
 21
350.559226
 31
0.0
  0
LINE
  5
62D
100
AcDbEntity
  8
CENTRE
100
AcDbLine
 10
956.250054
 20
332.559226
 30
0.0
 11
990.844777
 21
332.559226
 31
0.0
  0
LINE
  5
62E
100
AcDbEntity
  8
CENTRE
100
AcDbLine
 10
172.936784
 20
585.141221
 30
0.0
 11
446.731983
 21
311.346023
 31
0.0
  0
LINE
  5
62F
100
AcDbEntity
  8
CENTRE
100
AcDbLine
 10
172.936784
 20
279.977231
 30
0.0
 11
446.731983
 21
553.77243
 31
0.0
  0
CIRCLE
  5
630
100
AcDbEntity
  8
M03
100
AcDbCircle
 10
525.51878
 20
432.559226
 30
0.0
 40
34.0
  0
CIRCLE
  5
631
100
AcDbEntity
  8
M03
100
AcDbCircle
 10
525.51878
 20
432.559226
 30
0.0
 40
4.0
  0
LINE
  5
632
100
AcDbEntity
  8
M04
100
AcDbLine
 10
342.51878
 20
617.559226
 30
0.0
 11
342.51878
 21
638.230704
 31
0.0
  0
LINE
  5
633
100
AcDbEntity
  8
M04
100
AcDbLine
 10
308.51878
 20
617.559226
 30
0.0
 11
308.51878
 21
638.230704
 31
0.0
  0
ARC
  5
634
100
AcDbEntity
  8
M04
100
AcDbCircle
 10
342.51878
 20
602.559226
 30
0.0
 40
15.0
100
AcDbArc
 50
360.0
 51
90.0
  0
ARC
  5
635
100
AcDbEntity
  8
M04
100
AcDbCircle
 10
308.51878
 20
602.559226
 30
0.0
 40
15.0
100
AcDbArc
 50
90.0
 51
180.0
  0
LINE
  5
636
100
AcDbEntity
  8
M04
100
AcDbLine
 10
308.51878
 20
617.559226
 30
0.0
 11
342.51878
 21
617.559226
 31
0.0
  0
LINE
  5
637
100
AcDbEntity
  8
M01
100
AcDbLine
 10
345.51878
 20
557.559226
 30
0.0
 11
347.51878
 21
555.559226
 31
0.0
  0
LINE
  5
638
100
AcDbEntity
  8
M01
100
AcDbLine
 10
303.51878
 20
555.559226
 30
0.0
 11
305.51878
 21
557.559226
 31
0.0
  0
LINE
  5
639
100
AcDbEntity
  8
M01
100
AcDbLine
 10
305.51878
 20
557.559226
 30
0.0
 11
345.51878
 21
557.559226
 31
0.0
  0
LINE
  5
63A
100
AcDbEntity
  8
CENTRE
100
AcDbLine
 10
525.51878
 20
603.044421
 30
0.0
 11
525.51878
 21
262.074032
 31
0.0
  0
LINE
  5
63B
100
AcDbEntity
  8
CENTRE
100
AcDbLine
 10
205.033585
 20
432.559226
 30
0.0
 11
858.503974
 21
432.559226
 31
0.0
  0
LINE
  5
63C
100
AcDbEntity
  8
M04
100
AcDbLine
 10
1006.344777
 20
617.559226
 30
0.0
 11
1016.344777
 21
627.559226
 31
0.0
  0
LINE
  5
63D
100
AcDbEntity
  8
M04
100
AcDbLine
 10
1016.344777
 20
638.230704
 30
0.0
 11
1016.344777
 21
627.559226
 31
0.0
  0
LINE
  5
63E
100
AcDbEntity
  8
M04
100
AcDbLine
 10
960.344777
 20
617.559226
 30
0.0
 11
1034.344777
 21
617.559226
 31
0.0
  0
LINE
  5
63F
100
AcDbEntity
  8
M01
100
AcDbLine
 10
986.844777
 20
428.559226
 30
0.0
 11
1000.344777
 21
428.559226
 31
0.0
  0
LINE
  5
640
102
{ACAD_REACTORS
330
1FF
102
}
100
AcDbEntity
  8
M01
100
AcDbLine
 10
982.844777
 20
436.559226
 30
0.0
 11
1000.344777
 21
436.559226
 31
0.0
  0
LINE
  5
641
100
AcDbEntity
  8
M04
100
AcDbLine
 10
960.344777
 20
617.559226
 30
0.0
 11
960.344777
 21
288.126607
 31
0.0
  0
LINE
  5
642
102
{ACAD_REACTORS
330
1FF
330
1F8
330
1F6
102
}
100
AcDbEntity
  8
CENTRE
100
AcDbLine
 10
948.344777
 20
432.559226
 30
0.0
 11
1046.344777
 21
432.559226
 31
0.0
  0
LINE
  5
643
102
{ACAD_REACTORS
330
B2
102
}
100
AcDbEntity
  8
M04
100
AcDbLine
 10
1034.344777
 20
638.230704
 30
0.0
 11
1034.344777
 21
335.559226
 31
0.0
  0
LINE
  5
644
100
AcDbEntity
  8
M04
100
AcDbLine
 10
960.344777
 20
288.126607
 30
0.0
 11
1034.344777
 21
288.126607
 31
0.0
  0
LINE
  5
645
102
{ACAD_REACTORS
330
1F8
102
}
100
AcDbEntity
  8
M02
100
AcDbLine
 10
967.344777
 20
555.559226
 30
0.0
 11
964.344777
 21
555.559226
 31
0.0
  0
LINE
  5
646
102
{ACAD_REACTORS
330
1F6
102
}
100
AcDbEntity
  8
M02
100
AcDbLine
 10
1027.344777
 20
555.559226
 30
0.0
 11
1030.344777
 21
555.559226
 31
0.0
  0
LINE
  5
647
102
{ACAD_REACTORS
330
1F7
102
}
100
AcDbEntity
  8
M02
100
AcDbLine
 10
967.344777
 20
302.299226
 30
0.0
 11
964.344777
 21
302.299226
 31
0.0
  0
LINE
  5
648
102
{ACAD_REACTORS
330
1F6
102
}
100
AcDbEntity
  8
M02
100
AcDbLine
 10
1030.344777
 20
555.559226
 30
0.0
 11
1030.344777
 21
356.559226
 31
0.0
  0
LINE
  5
649
102
{ACAD_REACTORS
330
1F8
330
1F7
102
}
100
AcDbEntity
  8
M02
100
AcDbLine
 10
964.344777
 20
555.559226
 30
0.0
 11
964.344777
 21
302.299226
 31
0.0
  0
LINE
  5
64A
100
AcDbEntity
  8
M01
100
AcDbLine
 10
1027.344777
 20
302.299226
 30
0.0
 11
1025.344777
 21
300.299226
 31
0.0
  0
LINE
  5
64B
102
{ACAD_REACTORS
330
1FF
102
}
100
AcDbEntity
  8
M01
100
AcDbLine
 10
1025.344777
 20
557.559226
 30
0.0
 11
1027.344777
 21
555.559226
 31
0.0
  0
LINE
  5
64C
102
{ACAD_REACTORS
330
1FF
102
}
100
AcDbEntity
  8
M01
100
AcDbLine
 10
967.344777
 20
555.559226
 30
0.0
 11
969.344777
 21
557.559226
 31
0.0
  0
LINE
  5
64D
100
AcDbEntity
  8
M01
100
AcDbLine
 10
969.344777
 20
300.299226
 30
0.0
 11
967.344777
 21
302.299226
 31
0.0
  0
LINE
  5
64E
102
{ACAD_REACTORS
330
1FF
330
1F6
330
B3
330
B2
102
}
100
AcDbEntity
  8
M01
100
AcDbLine
 10
1027.344777
 20
555.559226
 30
0.0
 11
1027.344777
 21
302.299226
 31
0.0
  0
LINE
  5
64F
100
AcDbEntity
  8
M01
100
AcDbLine
 10
969.344777
 20
300.299226
 30
0.0
 11
1025.344777
 21
300.299226
 31
0.0
  0
LINE
  5
650
102
{ACAD_REACTORS
330
1FF
102
}
100
AcDbEntity
  8
M01
100
AcDbLine
 10
969.344777
 20
557.559226
 30
0.0
 11
1025.344777
 21
557.559226
 31
0.0
  0
LINE
  5
651
102
{ACAD_REACTORS
330
1FF
330
1F8
330
1F7
102
}
100
AcDbEntity
  8
M01
100
AcDbLine
 10
967.344777
 20
555.559226
 30
0.0
 11
967.344777
 21
302.299226
 31
0.0
  0
ENDSEC
  0
SECTION
  2
OBJECTS
  0
DICTIONARY
  5
1C
100
AcDbDictionary
  3
ACAD_GROUP
350
1A
  3
ACAD_MLINESTYLE
350
1B
  0
DICTIONARY
  5
3
100
AcDbDictionary
280
     1
  3
ACAD_SORTENTS
360
4
  0
DICTIONARY
  5
1A
102
{ACAD_REACTORS
330
1C
102
}
100
AcDbDictionary
  0
DICTIONARY
  5
1B
102
{ACAD_REACTORS
330
1C
102
}
100
AcDbDictionary
  3
STANDARD
350
1E
  0
SORTENTSTABLE
  5
4
102
{ACAD_REACTORS
330
3
102
}
100
AcDbSortentsTable
330
2
  0
MLINESTYLE
  5
1E
102
{ACAD_REACTORS
330
1B
102
}
100
AcDbMlineStyle
  2
STANDARD
 70
     0
  3

 62
   256
 51
90.0
 52
90.0
 71
     2
 49
0.5
 62
   256
  6
BYLAYER
 49
-0.5
 62
   256
  6
BYLAYER
  0
ENDSEC
  0
EOF
