  0
SECTION
  2
HEADER
  9
$ACADVER
  1
AC1014
  9
$ACADMAINTVER
 70
     9
  9
$DWGCODEPAGE
  3
ANSI_1252
  9
$INSBASE
 10
0.0
 20
0.0
 30
0.0
  9
$EXTMIN
 10
140.484058
 20
27.636352
 30
-0.222949
  9
$EXTMAX
 10
1154.759695
 20
905.430788
 30
0.0
  9
$LIMMIN
 10
0.0
 20
0.0
  9
$LIMMAX
 10
1189.0
 20
841.0
  9
$ORTHOMODE
 70
     1
  9
$REGENMODE
 70
     1
  9
$FILLMODE
 70
     1
  9
$QTEXTMODE
 70
     0
  9
$MIRRTEXT
 70
     1
  9
$DRAGMODE
 70
     2
  9
$LTSCALE
 40
8.0
  9
$OSMODE
 70
     0
  9
$ATTMODE
 70
     1
  9
$TEXTSIZE
 40
2.5
  9
$TRACEWID
 40
10.0
  9
$TEXTSTYLE
  7
STANDARD
  9
$CLAYER
  8
DIMS
  9
$CELTYPE
  6
BYLAYER
  9
$CECOLOR
 62
   256
  9
$CELTSCALE
 40
1.0
  9
$DELOBJ
 70
     1
  9
$DISPSILH
 70
     0
  9
$DIMSCALE
 40
1.0
  9
$DIMASZ
 40
3.0
  9
$DIMEXO
 40
1.0
  9
$DIMDLI
 40
10.0
  9
$DIMRND
 40
0.01
  9
$DIMDLE
 40
1.25
  9
$DIMEXE
 40
2.5
  9
$DIMTP
 40
0.05
  9
$DIMTM
 40
0.0
  9
$DIMTXT
 40
3.0
  9
$DIMCEN
 40
-1.7
  9
$DIMTSZ
 40
0.0
  9
$DIMTOL
 70
     0
  9
$DIMLIM
 70
     0
  9
$DIMTIH
 70
     0
  9
$DIMTOH
 70
     0
  9
$DIMSE1
 70
     0
  9
$DIMSE2
 70
     0
  9
$DIMTAD
 70
     3
  9
$DIMZIN
 70
     1
  9
$DIMBLK
  1

  9
$DIMASO
 70
     1
  9
$DIMSHO
 70
     0
  9
$DIMPOST
  1

  9
$DIMAPOST
  1

  9
$DIMALT
 70
     0
  9
$DIMALTD
 70
     2
  9
$DIMALTF
 40
0.039
  9
$DIMLFAC
 40
1.0
  9
$DIMTOFL
 70
     0
  9
$DIMTVP
 40
1.5
  9
$DIMTIX
 70
     0
  9
$DIMSOXD
 70
     0
  9
$DIMSAH
 70
     0
  9
$DIMBLK1
  1

  9
$DIMBLK2
  1

  9
$DIMSTYLE
  2
DIM1
  9
$DIMCLRD
 70
     4
  9
$DIMCLRE
 70
     4
  9
$DIMCLRT
 70
     2
  9
$DIMTFAC
 40
0.7
  9
$DIMGAP
 40
1.5
  9
$DIMJUST
 70
     0
  9
$DIMSD1
 70
     0
  9
$DIMSD2
 70
     0
  9
$DIMTOLJ
 70
     1
  9
$DIMTZIN
 70
     1
  9
$DIMALTZ
 70
     1
  9
$DIMALTTZ
 70
     1
  9
$DIMFIT
 70
     0
  9
$DIMUPT
 70
     0
  9
$DIMUNIT
 70
     2
  9
$DIMDEC
 70
     2
  9
$DIMTDEC
 70
     2
  9
$DIMALTU
 70
     2
  9
$DIMALTTD
 70
     2
  9
$DIMTXSTY
  7
STANDARD
  9
$DIMAUNIT
 70
     0
  9
$LUNITS
 70
     2
  9
$LUPREC
 70
     2
  9
$SKETCHINC
 40
1.0
  9
$FILLETRAD
 40
0.0
  9
$AUNITS
 70
     0
  9
$AUPREC
 70
     3
  9
$MENU
  1
ACAD
  9
$ELEVATION
 40
0.0
  9
$PELEVATION
 40
0.0
  9
$THICKNESS
 40
0.0
  9
$LIMCHECK
 70
     0
  9
$BLIPMODE
 70
     1
  9
$CHAMFERA
 40
12.0
  9
$CHAMFERB
 40
12.0
  9
$CHAMFERC
 40
0.0
  9
$CHAMFERD
 40
0.0
  9
$SKPOLY
 70
     1
  9
$TDCREATE
 40
2449993.725698611
  9
$TDUPDATE
 40
2452213.563463981
  9
$TDINDWG
 40
0.9616164352
  9
$TDUSRTIMER
 40
0.9616164352
  9
$USRTIMER
 70
     1
  9
$ANGBASE
 50
0.0
  9
$ANGDIR
 70
     0
  9
$PDMODE
 70
     3
  9
$PDSIZE
 40
0.0
  9
$PLINEWID
 40
0.0
  9
$COORDS
 70
     2
  9
$SPLFRAME
 70
     0
  9
$SPLINETYPE
 70
     6
  9
$SPLINESEGS
 70
     6
  9
$ATTDIA
 70
     1
  9
$ATTREQ
 70
     1
  9
$HANDLING
 70
     1
  9
$HANDSEED
  5
653
  9
$SURFTAB1
 70
    12
  9
$SURFTAB2
 70
    12
  9
$SURFTYPE
 70
     6
  9
$SURFU
 70
    12
  9
$SURFV
 70
    12
  9
$UCSNAME
  2

  9
$UCSORG
 10
0.0
 20
0.0
 30
0.0
  9
$UCSXDIR
 10
1.0
 20
0.0
 30
0.0
  9
$UCSYDIR
 10
0.0
 20
1.0
 30
0.0
  9
$PUCSNAME
  2

  9
$PUCSORG
 10
0.0
 20
0.0
 30
0.0
  9
$PUCSXDIR
 10
1.0
 20
0.0
 30
0.0
  9
$PUCSYDIR
 10
0.0
 20
1.0
 30
0.0
  9
$USERI1
 70
     0
  9
$USERI2
 70
     0
  9
$USERI3
 70
     0
  9
$USERI4
 70
     0
  9
$USERI5
 70
     0
  9
$USERR1
 40
0.0
  9
$USERR2
 40
0.0
  9
$USERR3
 40
0.0
  9
$USERR4
 40
0.0
  9
$USERR5
 40
0.0
  9
$WORLDVIEW
 70
     0
  9
$SHADEDGE
 70
     3
  9
$SHADEDIF
 70
    70
  9
$TILEMODE
 70
     1
  9
$MAXACTVP
 70
    16
  9
$PINSBASE
 10
0.0
 20
0.0
 30
0.0
  9
$PLIMCHECK
 70
     0
  9
$PEXTMIN
 10
1.000000E+20
 20
1.000000E+20
 30
1.000000E+20
  9
$PEXTMAX
 10
-1.000000E+20
 20
-1.000000E+20
 30
-1.000000E+20
  9
$PLIMMIN
 10
0.0
 20
0.0
  9
$PLIMMAX
 10
12.0
 20
9.0
  9
$UNITMODE
 70
     0
  9
$VISRETAIN
 70
     0
  9
$PLINEGEN
 70
     0
  9
$PSLTSCALE
 70
     0
  9
$TREEDEPTH
 70
  3020
  9
$PICKSTYLE
 70
     1
  9
$CMLSTYLE
  2
STANDARD
  9
$CMLJUST
 70
     0
  9
$CMLSCALE
 40
1.0
  9
$PROXYGRAPHICS
 70
     1
  9
$MEASUREMENT
 70
     0
  0
ENDSEC
  0
SECTION
  2
CLASSES
  0
CLASS
  1
DICTIONARYVAR
  2
AcDbDictionaryVar
  3
"AutoCAD"
 90
        0
280
     0
281
     0
  0
CLASS
  1
LWPOLYLINE
  2
AcDbPolyline
  3
"AutoCAD"
 90
        0
280
     0
281
     1
  0
CLASS
  1
HATCH
  2
AcDbHatch
  3
"ACAD_SEDONA"
 90
        0
280
     0
281
     1
  0
CLASS
  1
SORTENTSTABLE
  2
AcDbSortentsTable
  3
"AutoCAD"
 90
        0
280
     0
281
     0
  0
CLASS
  1
WIPEOUTVARIABLES
  2
AcDbWipeoutVariables
  3
WIPEOUT
 90
        0
280
     0
281
     0
  0
CLASS
  1
WIPEOUT
  2
AcDbWipeout
  3
WIPEOUT
 90
      127
280
     0
281
     1
  0
ENDSEC
  0
SECTION
  2
TABLES
  0
TABLE
  2
VPORT
  5
14
100
AcDbSymbolTable
 70
     2
  0
VPORT
  5
652
100
AcDbSymbolTableRecord
100
AcDbViewportTableRecord
  2
*ACTIVE
 70
     0
 10
0.0
 20
0.0
 11
1.0
 21
1.0
 12
578.186679
 22
439.950096
 13
0.0
 23
0.0
 14
10.0
 24
10.0
 15
0.0
 25
0.0
 16
0.0
 26
0.0
 36
1.0
 17
16.313321
 27
12.779115
 37
0.222949
 40
912.124373
 41
1.470516
 42
50.0
 43
0.0
 44
0.0
 50
0.0
 51
0.0
 71
     0
 72
  2000
 73
     1
 74
     2
 75
     0
 76
     0
 77
     0
 78
     1
  0
ENDTAB
  0
TABLE
  2
LTYPE
  5
F
100
AcDbSymbolTable
 70
     3
  0
LTYPE
  5
10
100
AcDbSymbolTableRecord
100
AcDbLinetypeTableRecord
  2
BYBLOCK
 70
     0
  3

 72
    65
 73
     0
 40
0.0
  0
LTYPE
  5
11
100
AcDbSymbolTableRecord
100
AcDbLinetypeTableRecord
  2
BYLAYER
 70
     0
  3

 72
    65
 73
     0
 40
0.0
  0
LTYPE
  5
7
100
AcDbSymbolTableRecord
100
AcDbLinetypeTableRecord
  2
CONTINUOUS
 70
     0
  3
Solid line
 72
    65
 73
     0
 40
0.0
  0
LTYPE
  5
129
100
AcDbSymbolTableRecord
100
AcDbLinetypeTableRecord
  2
CENTER
 70
     0
  3
Center ____ _ ____ _ ____ _ ____ _ ____ _ ____
 72
    65
 73
     4
 40
2.0
 49
1.25
 74
     0
 49
-0.25
 74
     0
 49
0.25
 74
     0
 49
-0.25
 74
     0
  0
LTYPE
  5
8E
100
AcDbSymbolTableRecord
100
AcDbLinetypeTableRecord
  2
HIDDEN
 70
     0
  3
Hidden __ __ __ __ __ __ __ __ __ __ __ __ __ _
 72
    65
 73
     2
 40
0.375
 49
0.25
 74
     0
 49
-0.125
 74
     0
  0
ENDTAB
  0
TABLE
  2
LAYER
  5
C
100
AcDbSymbolTable
 70
    11
  0
LAYER
  5
6
100
AcDbSymbolTableRecord
100
AcDbLayerTableRecord
  2
0
 70
     0
 62
     7
  6
CONTINUOUS
  0
LAYER
  5
128
100
AcDbSymbolTableRecord
100
AcDbLayerTableRecord
  2
CENTRE
 70
     0
 62
     3
  6
CENTER
  0
LAYER
  5
104
100
AcDbSymbolTableRecord
100
AcDbLayerTableRecord
  2
M01
 70
     0
 62
     1
  6
CONTINUOUS
  0
LAYER
  5
107
100
AcDbSymbolTableRecord
100
AcDbLayerTableRecord
  2
M02
 70
     0
 62
     2
  6
CONTINUOUS
  0
LAYER
  5
8D
100
AcDbSymbolTableRecord
100
AcDbLayerTableRecord
  2
M03
 70
     0
 62
     2
  6
HIDDEN
  0
LAYER
  5
EB
100
AcDbSymbolTableRecord
100
AcDbLayerTableRecord
  2
M04
 70
     0
 62
     7
  6
CONTINUOUS
  0
LAYER
  5
11C
100
AcDbSymbolTableRecord
100
AcDbLayerTableRecord
  2
M05
 70
     0
 62
     5
  6
CONTINUOUS
  0
LAYER
  5
1D
100
AcDbSymbolTableRecord
100
AcDbLayerTableRecord
  2
DIMS
 70
     0
 62
     4
  6
CONTINUOUS
  0
LAYER
  5
21
100
AcDbSymbolTableRecord
100
AcDbLayerTableRecord
  2
TEXT
 70
     0
 62
     2
  6
CONTINUOUS
  0
LAYER
  5
144
100
AcDbSymbolTableRecord
100
AcDbLayerTableRecord
  2
HATCH
 70
     0
 62
     4
  6
CONTINUOUS
  0
LAYER
  5
2F
100
AcDbSymbolTableRecord
100
AcDbLayerTableRecord
  2
DEFPOINTS
 70
     0
 62
     7
  6
CONTINUOUS
  0
ENDTAB
  0
TABLE
  2
STYLE
  5
D
100
AcDbSymbolTable
 70
     1
  0
STYLE
  5
E
100
AcDbSymbolTableRecord
100
AcDbTextStyleTableRecord
  2
STANDARD
 70
     0
 40
0.0
 41
1.0
 50
0.0
 71
     0
 42
2.5
  3
SIMPLEX
  4

  0
ENDTAB
  0
TABLE
  2
VIEW
  5
12
100
AcDbSymbolTable
 70
     0
  0
ENDTAB
  0
TABLE
  2
UCS
  5
13
100
AcDbSymbolTable
 70
     0
  0
ENDTAB
  0
TABLE
  2
APPID
  5
16
100
AcDbSymbolTable
 70
     1
  0
APPID
  5
17
100
AcDbSymbolTableRecord
100
AcDbRegAppTableRecord
  2
ACAD
 70
     0
  0
ENDTAB
  0
TABLE
  2
DIMSTYLE
  5
18
100
AcDbSymbolTable
 70
     2
  0
DIMSTYLE
105
1F
102
{ACAD_REACTORS
330
493
330
4A1
330
4AF
330
5AE
330
5C3
330
463
330
34E
330
108
330
4F
330
43
330
37
330
26
330
182
330
175
330
168
330
15B
102
}
100
AcDbSymbolTableRecord
100
AcDbDimStyleTableRecord
  2
DIM1
 70
     0
  3

  4

  5

  6

  7

 40
1.0
 41
3.0
 42
1.0
 43
10.0
 44
2.5
 45
0.01
 46
1.25
 47
0.05
 48
0.0
140
3.0
141
-1.7
142
0.0
143
0.039
144
0.2
145
1.5
146
0.7
147
1.5
 71
     0
 72
     0
 73
     0
 74
     0
 75
     0
 76
     0
 77
     3
 78
     1
170
     0
171
     2
172
     0
173
     0
174
     0
175
     0
176
     4
177
     4
178
     2
270
     2
271
     2
272
     2
273
     2
274
     2
340
E
275
     0
280
     0
281
     0
282
     0
283
     1
284
     1
285
     1
286
     1
287
     0
288
     0
  0
DIMSTYLE
105
4E2
100
AcDbSymbolTableRecord
100
AcDbDimStyleTableRecord
  2
DIM1$7
 70
     0
  3

  4

  5

  6

  7

 40
1.0
 41
3.0
 42
1.0
 43
10.0
 44
2.5
 45
0.01
 46
1.25
 47
0.0
 48
0.0
140
3.0
141
-1.7
142
0.0
143
0.039
144
1.0
145
0.0
146
1.0
147
1.5
 71
     0
 72
     0
 73
     0
 74
     0
 75
     0
 76
     0
 77
     0
 78
     1
170
     0
171
     2
172
     0
173
     0
174
     0
175
     0
176
     4
177
     4
178
     2
270
     2
271
     2
272
     2
273
     2
274
     2
340
E
275
     0
280
     0
281
     0
282
     0
283
     1
284
     1
285
     1
286
     1
287
     0
288
     0
  0
ENDTAB
  0
TABLE
  2
BLOCK_RECORD
  5
1
100
AcDbSymbolTable
 70
    17
  0
BLOCK_RECORD
  5
2
102
{ACAD_XDICTIONARY
360
3
102
}
100
AcDbSymbolTableRecord
100
AcDbBlockTableRecord
  2
*MODEL_SPACE
  0
BLOCK_RECORD
  5
9
100
AcDbSymbolTableRecord
100
AcDbBlockTableRecord
  2
*PAPER_SPACE
  0
BLOCK_RECORD
  5
148
100
AcDbSymbolTableRecord
100
AcDbBlockTableRecord
  2
ARROW1
  0
BLOCK_RECORD
  5
494
100
AcDbSymbolTableRecord
100
AcDbBlockTableRecord
  2
*D1
  0
BLOCK_RECORD
  5
4A2
100
AcDbSymbolTableRecord
100
AcDbBlockTableRecord
  2
*D2
  0
BLOCK_RECORD
  5
4B0
100
AcDbSymbolTableRecord
100
AcDbBlockTableRecord
  2
*D3
  0
BLOCK_RECORD
  5
5AF
100
AcDbSymbolTableRecord
100
AcDbBlockTableRecord
  2
*D4
  0
BLOCK_RECORD
  5
5C4
100
AcDbSymbolTableRecord
100
AcDbBlockTableRecord
  2
*D5
  0
BLOCK_RECORD
  5
464
100
AcDbSymbolTableRecord
100
AcDbBlockTableRecord
  2
*D6
  0
BLOCK_RECORD
  5
34F
100
AcDbSymbolTableRecord
100
AcDbBlockTableRecord
  2
*D7
  0
BLOCK_RECORD
  5
183
100
AcDbSymbolTableRecord
100
AcDbBlockTableRecord
  2
*D8
  0
BLOCK_RECORD
  5
176
100
AcDbSymbolTableRecord
100
AcDbBlockTableRecord
  2
*D9
  0
BLOCK_RECORD
  5
169
100
AcDbSymbolTableRecord
100
AcDbBlockTableRecord
  2
*D10
  0
BLOCK_RECORD
  5
15C
100
AcDbSymbolTableRecord
100
AcDbBlockTableRecord
  2
*D11
  0
BLOCK_RECORD
  5
109
100
AcDbSymbolTableRecord
100
AcDbBlockTableRecord
  2
*D12
  0
BLOCK_RECORD
  5
50
100
AcDbSymbolTableRecord
100
AcDbBlockTableRecord
  2
*D13
  0
BLOCK_RECORD
  5
44
100
AcDbSymbolTableRecord
100
AcDbBlockTableRecord
  2
*D14
  0
BLOCK_RECORD
  5
38
100
AcDbSymbolTableRecord
100
AcDbBlockTableRecord
  2
*D15
  0
BLOCK_RECORD
  5
27
100
AcDbSymbolTableRecord
100
AcDbBlockTableRecord
  2
*D16
  0
ENDTAB
  0
ENDSEC
  0
SECTION
  2
BLOCKS
  0
BLOCK
  5
5
100
AcDbEntity
  8
0
100
AcDbBlockBegin
  2
*MODEL_SPACE
 70
     0
 10
0.0
 20
0.0
 30
0.0
  3
*MODEL_SPACE
  1

  0
ENDBLK
  5
8
100
AcDbEntity
  8
0
100
AcDbBlockEnd
  0
BLOCK
  5
A
100
AcDbEntity
 67
     1
  8
0
100
AcDbBlockBegin
  2
*PAPER_SPACE
 70
     0
 10
0.0
 20
0.0
 30
0.0
  3
*PAPER_SPACE
  1

  0
ENDBLK
  5
B
100
AcDbEntity
 67
     1
  8
0
100
AcDbBlockEnd
  0
BLOCK
  5
14C
100
AcDbEntity
  8
0
100
AcDbBlockBegin
  2
ARROW1
 70
     0
 10
0.0
 20
0.0
 30
0.0
  3
ARROW1
  1

  0
LINE
  5
149
100
AcDbEntity
  8
0
100
AcDbLine
 10
-1.0
 20
-0.2
 30
0.0
 11
-1.0
 21
0.0
 31
0.0
  0
LINE
  5
14A
100
AcDbEntity
  8
0
100
AcDbLine
 10
0.0
 20
0.0
 30
0.0
 11
-1.0
 21
-0.2
 31
0.0
  0
SOLID
  5
14B
100
AcDbEntity
  8
0
100
AcDbTrace
 10
0.0
 20
0.0
 30
0.0
 11
-1.0
 21
0.2
 31
0.0
 12
-1.0
 22
0.0
 32
0.0
 13
-1.0
 23
0.0
 33
0.0
  0
ENDBLK
  5
14D
100
AcDbEntity
  8
0
100
AcDbBlockEnd
  0
BLOCK
  5
49F
100
AcDbEntity
  8
0
100
AcDbBlockBegin
  2
*D1
 70
     1
 10
0.0
 20
0.0
 30
0.0
  3
*D1
  1

  0
LINE
  5
495
100
AcDbEntity
  8
0
  6
BYBLOCK
 62
     4
100
AcDbLine
 10
904.644674
 20
326.299226
 30
0.0
 11
904.644674
 21
277.377479
 31
0.0
  0
LINE
  5
496
100
AcDbEntity
  8
0
  6
BYBLOCK
 62
     4
100
AcDbLine
 10
897.644674
 20
312.126607
 30
0.0
 11
897.644674
 21
277.377479
 31
0.0
  0
LINE
  5
497
100
AcDbEntity
  8
0
  6
BYBLOCK
 62
     4
100
AcDbLine
 10
907.644674
 20
279.877479
 30
0.0
 11
910.644674
 21
279.877479
 31
0.0
  0
LINE
  5
498
100
AcDbEntity
  8
0
  6
BYBLOCK
 62
     4
100
AcDbLine
 10
894.644674
 20
279.877479
 30
0.0
 11
882.358959
 21
279.877479
 31
0.0
  0
SOLID
  5
499
100
AcDbEntity
  8
0
  6
BYBLOCK
 62
     4
100
AcDbTrace
 10
907.644674
 20
280.377479
 30
0.0
 11
907.644674
 21
279.377479
 31
0.0
 12
904.644674
 22
279.877479
 32
0.0
 13
904.644674
 23
279.877479
 33
0.0
  0
SOLID
  5
49A
100
AcDbEntity
  8
0
  6
BYBLOCK
 62
     4
100
AcDbTrace
 10
894.644674
 20
280.377479
 30
0.0
 11
894.644674
 21
279.377479
 31
0.0
 12
897.644674
 22
279.877479
 32
0.0
 13
897.644674
 23
279.877479
 33
0.0
  0
MTEXT
  5
49B
100
AcDbEntity
  8
0
  6
BYBLOCK
 62
     2
100
AcDbMText
 10
887.001816
 20
282.877479
 30
0.0
 40
3.0
 41
0.0
 71
     5
 72
     1
  1
\A1;7.0
  0
POINT
  5
49C
100
AcDbEntity
  8
DEFPOINTS
  6
BYBLOCK
 62
     0
100
AcDbPoint
 10
904.644674
 20
327.299226
 30
0.0
  0
POINT
  5
49D
100
AcDbEntity
  8
DEFPOINTS
  6
BYBLOCK
 62
     0
100
AcDbPoint
 10
897.644674
 20
313.126607
 30
0.0
  0
POINT
  5
49E
100
AcDbEntity
  8
DEFPOINTS
  6
BYBLOCK
 62
     0
100
AcDbPoint
 10
897.644674
 20
279.877479
 30
0.0
  0
ENDBLK
  5
4A0
100
AcDbEntity
  8
0
100
AcDbBlockEnd
  0
BLOCK
  5
4AD
100
AcDbEntity
  8
0
100
AcDbBlockBegin
  2
*D2
 70
     1
 10
0.0
 20
0.0
 30
0.0
  3
*D2
  1

  0
LINE
  5
4A3
100
AcDbEntity
  8
0
  6
BYBLOCK
 62
     4
100
AcDbLine
 10
964.644674
 20
326.252807
 30
0.0
 11
964.644674
 21
277.377479
 31
0.0
  0
LINE
  5
4A4
100
AcDbEntity
  8
0
  6
BYBLOCK
 62
     4
100
AcDbLine
 10
971.644674
 20
300.613216
 30
0.0
 11
971.644674
 21
277.377479
 31
0.0
  0
LINE
  5
4A5
100
AcDbEntity
  8
0
  6
BYBLOCK
 62
     4
100
AcDbLine
 10
961.644674
 20
279.877479
 30
0.0
 11
958.644674
 21
279.877479
 31
0.0
  0
LINE
  5
4A6
100
AcDbEntity
  8
0
  6
BYBLOCK
 62
     4
100
AcDbLine
 10
974.644674
 20
279.877479
 30
0.0
 11
986.930388
 21
279.877479
 31
0.0
  0
SOLID
  5
4A7
100
AcDbEntity
  8
0
  6
BYBLOCK
 62
     4
100
AcDbTrace
 10
961.644674
 20
280.377479
 30
0.0
 11
961.644674
 21
279.377479
 31
0.0
 12
964.644674
 22
279.877479
 32
0.0
 13
964.644674
 23
279.877479
 33
0.0
  0
SOLID
  5
4A8
100
AcDbEntity
  8
0
  6
BYBLOCK
 62
     4
100
AcDbTrace
 10
974.644674
 20
280.377479
 30
0.0
 11
974.644674
 21
279.377479
 31
0.0
 12
971.644674
 22
279.877479
 32
0.0
 13
971.644674
 23
279.877479
 33
0.0
  0
MTEXT
  5
4A9
100
AcDbEntity
  8
0
  6
BYBLOCK
 62
     2
100
AcDbMText
 10
982.287531
 20
282.877479
 30
0.0
 40
3.0
 41
0.0
 71
     5
 72
     1
  1
\A1;7.0
  0
POINT
  5
4AA
100
AcDbEntity
  8
DEFPOINTS
  6
BYBLOCK
 62
     0
100
AcDbPoint
 10
964.644674
 20
327.252807
 30
0.0
  0
POINT
  5
4AB
100
AcDbEntity
  8
DEFPOINTS
  6
BYBLOCK
 62
     0
100
AcDbPoint
 10
971.644674
 20
301.613216
 30
0.0
  0
POINT
  5
4AC
100
AcDbEntity
  8
DEFPOINTS
  6
BYBLOCK
 62
     0
100
AcDbPoint
 10
971.644674
 20
279.877479
 30
0.0
  0
ENDBLK
  5
4AE
100
AcDbEntity
  8
0
100
AcDbBlockEnd
  0
BLOCK
  5
4BA
100
AcDbEntity
  8
0
100
AcDbBlockBegin
  2
*D3
 70
     1
 10
0.0
 20
0.0
 30
0.0
  3
*D3
  1

  0
LINE
  5
4B1
100
AcDbEntity
  8
0
  6
BYBLOCK
 62
     4
100
AcDbLine
 10
904.644674
 20
326.299226
 30
0.0
 11
904.644674
 21
277.377479
 31
0.0
  0
LINE
  5
4B2
100
AcDbEntity
  8
0
  6
BYBLOCK
 62
     4
100
AcDbLine
 10
964.644674
 20
326.252807
 30
0.0
 11
964.644674
 21
277.377479
 31
0.0
  0
LINE
  5
4B3
100
AcDbEntity
  8
0
  6
BYBLOCK
 62
     4
100
AcDbLine
 10
907.644674
 20
279.877479
 30
0.0
 11
961.644674
 21
279.877479
 31
0.0
  0
SOLID
  5
4B4
100
AcDbEntity
  8
0
  6
BYBLOCK
 62
     4
100
AcDbTrace
 10
907.644674
 20
280.377479
 30
0.0
 11
907.644674
 21
279.377479
 31
0.0
 12
904.644674
 22
279.877479
 32
0.0
 13
904.644674
 23
279.877479
 33
0.0
  0
SOLID
  5
4B5
100
AcDbEntity
  8
0
  6
BYBLOCK
 62
     4
100
AcDbTrace
 10
961.644674
 20
280.377479
 30
0.0
 11
961.644674
 21
279.377479
 31
0.0
 12
964.644674
 22
279.877479
 32
0.0
 13
964.644674
 23
279.877479
 33
0.0
  0
MTEXT
  5
4B6
100
AcDbEntity
  8
0
  6
BYBLOCK
 62
     2
100
AcDbMText
 10
934.644674
 20
282.877479
 30
0.0
 40
3.0
 41
0.0
 71
     5
 72
     1
  1
\A1;60.00
  0
POINT
  5
4B7
100
AcDbEntity
  8
DEFPOINTS
  6
BYBLOCK
 62
     0
100
AcDbPoint
 10
904.644674
 20
327.299226
 30
0.0
  0
POINT
  5
4B8
100
AcDbEntity
  8
DEFPOINTS
  6
BYBLOCK
 62
     0
100
AcDbPoint
 10
964.644674
 20
327.252807
 30
0.0
  0
POINT
  5
4B9
100
AcDbEntity
  8
DEFPOINTS
  6
BYBLOCK
 62
     0
100
AcDbPoint
 10
964.644674
 20
279.877479
 30
0.0
  0
ENDBLK
  5
4BB
100
AcDbEntity
  8
0
100
AcDbBlockEnd
  0
BLOCK
  5
5B9
100
AcDbEntity
  8
0
100
AcDbBlockBegin
  2
*D4
 70
     1
 10
0.0
 20
0.0
 30
0.0
  3
*D4
  1

  0
LINE
  5
5B0
100
AcDbEntity
  8
0
  6
BYBLOCK
 62
     4
100
AcDbLine
 10
248.401464
 20
313.059226
 30
0.0
 11
171.463447
 21
313.059226
 31
0.0
  0
LINE
  5
5B1
100
AcDbEntity
  8
0
  6
BYBLOCK
 62
     4
100
AcDbLine
 10
248.401464
 20
552.059226
 30
0.0
 11
171.463447
 21
552.059226
 31
0.0
  0
LINE
  5
5B2
100
AcDbEntity
  8
0
  6
BYBLOCK
 62
     4
100
AcDbLine
 10
173.963447
 20
316.059226
 30
0.0
 11
173.963447
 21
549.059226
 31
0.0
  0
SOLID
  5
5B3
100
AcDbEntity
  8
0
  6
BYBLOCK
 62
     4
100
AcDbTrace
 10
173.463447
 20
316.059226
 30
0.0
 11
174.463447
 21
316.059226
 31
0.0
 12
173.963447
 22
313.059226
 32
0.0
 13
173.963447
 23
313.059226
 33
0.0
  0
SOLID
  5
5B4
100
AcDbEntity
  8
0
  6
BYBLOCK
 62
     4
100
AcDbTrace
 10
173.463447
 20
549.059226
 30
0.0
 11
174.463447
 21
549.059226
 31
0.0
 12
173.963447
 22
552.059226
 32
0.0
 13
173.963447
 23
552.059226
 33
0.0
  0
MTEXT
  5
5B5
100
AcDbEntity
  8
0
  6
BYBLOCK
 62
     2
100
AcDbMText
 10
170.963447
 20
432.559226
 30
0.0
 40
3.0
 41
0.0
 71
     5
 72
     1
  1
\A1;L1=239.00
 11
0.0
 21
1.0
 31
0.0
  0
POINT
  5
5B6
100
AcDbEntity
  8
DEFPOINTS
  6
BYBLOCK
 62
     0
100
AcDbPoint
 10
249.401464
 20
313.059226
 30
0.0
  0
POINT
  5
5B7
100
AcDbEntity
  8
DEFPOINTS
  6
BYBLOCK
 62
     0
100
AcDbPoint
 10
249.401464
 20
552.059226
 30
0.0
  0
POINT
  5
5B8
100
AcDbEntity
  8
DEFPOINTS
  6
BYBLOCK
 62
     0
100
AcDbPoint
 10
173.963447
 20
552.059226
 30
0.0
  0
ENDBLK
  5
5BA
100
AcDbEntity
  8
0
100
AcDbBlockEnd
  0
BLOCK
  5
5CE
100
AcDbEntity
  8
0
100
AcDbBlockBegin
  2
*D5
 70
     1
 10
0.0
 20
0.0
 30
0.0
  3
*D5
  1

  0
LINE
  5
5C5
100
AcDbEntity
  8
0
  6
BYBLOCK
 62
     4
100
AcDbLine
 10
235.31878
 20
345.059226
 30
0.0
 11
181.750076
 21
345.059226
 31
0.0
  0
LINE
  5
5C6
100
AcDbEntity
  8
0
  6
BYBLOCK
 62
     4
100
AcDbLine
 10
235.31878
 20
520.059226
 30
0.0
 11
181.750076
 21
520.059226
 31
0.0
  0
LINE
  5
5C7
100
AcDbEntity
  8
0
  6
BYBLOCK
 62
     4
100
AcDbLine
 10
184.250076
 20
348.059226
 30
0.0
 11
184.250076
 21
517.059226
 31
0.0
  0
SOLID
  5
5C8
100
AcDbEntity
  8
0
  6
BYBLOCK
 62
     4
100
AcDbTrace
 10
183.750076
 20
348.059226
 30
0.0
 11
184.750076
 21
348.059226
 31
0.0
 12
184.250076
 22
345.059226
 32
0.0
 13
184.250076
 23
345.059226
 33
0.0
  0
SOLID
  5
5C9
100
AcDbEntity
  8
0
  6
BYBLOCK
 62
     4
100
AcDbTrace
 10
183.750076
 20
517.059226
 30
0.0
 11
184.750076
 21
517.059226
 31
0.0
 12
184.250076
 22
520.059226
 32
0.0
 13
184.250076
 23
520.059226
 33
0.0
  0
MTEXT
  5
5CA
100
AcDbEntity
  8
0
  6
BYBLOCK
 62
     2
100
AcDbMText
 10
181.250076
 20
432.559226
 30
0.0
 40
3.0
 41
0.0
 71
     5
 72
     1
  1
\A1;C=175.00
 11
0.0
 21
1.0
 31
0.0
  0
POINT
  5
5CB
100
AcDbEntity
  8
DEFPOINTS
  6
BYBLOCK
 62
     0
100
AcDbPoint
 10
236.31878
 20
345.059226
 30
0.0
  0
POINT
  5
5CC
100
AcDbEntity
  8
DEFPOINTS
  6
BYBLOCK
 62
     0
100
AcDbPoint
 10
236.31878
 20
520.059226
 30
0.0
  0
POINT
  5
5CD
100
AcDbEntity
  8
DEFPOINTS
  6
BYBLOCK
 62
     0
100
AcDbPoint
 10
184.250076
 20
520.059226
 30
0.0
  0
ENDBLK
  5
5CF
100
AcDbEntity
  8
0
100
AcDbBlockEnd
  0
BLOCK
  5
46E
100
AcDbEntity
  8
0
100
AcDbBlockBegin
  2
*D6
 70
     1
 10
0.0
 20
0.0
 30
0.0
  3
*D6
  1

  0
LINE
  5
465
100
AcDbEntity
  8
0
  6
BYBLOCK
 62
     4
100
AcDbLine
 10
602.398087
 20
325.078995
 30
0.0
 11
634.653156
 21
292.823926
 31
0.0
  0
LINE
  5
466
100
AcDbEntity
  8
0
  6
BYBLOCK
 62
     4
100
AcDbLine
 10
637.753426
 20
360.434334
 30
0.0
 11
670.008495
 21
328.179265
 31
0.0
  0
LINE
  5
467
100
AcDbEntity
  8
0
  6
BYBLOCK
 62
     4
100
AcDbLine
 10
635.00671
 20
296.713013
 30
0.0
 11
666.119408
 21
327.825711
 31
0.0
  0
SOLID
  5
468
100
AcDbEntity
  8
0
  6
BYBLOCK
 62
     4
100
AcDbTrace
 10
634.653156
 20
297.066566
 30
0.0
 11
635.360263
 21
296.35946
 31
0.0
 12
632.885389
 22
294.591693
 32
0.0
 13
632.885389
 23
294.591693
 33
0.0
  0
SOLID
  5
469
100
AcDbEntity
  8
0
  6
BYBLOCK
 62
     4
100
AcDbTrace
 10
665.765855
 20
328.179265
 30
0.0
 11
666.472961
 21
327.472158
 31
0.0
 12
668.240728
 22
329.947032
 32
0.0
 13
668.240728
 23
329.947032
 33
0.0
  0
MTEXT
  5
46A
100
AcDbEntity
  8
0
  6
BYBLOCK
 62
     2
100
AcDbMText
 10
648.441739
 20
314.390682
 30
0.0
 40
3.0
 41
0.0
 71
     5
 72
     1
  1
\A1;W=50.00
 11
0.707107
 21
0.707107
 31
0.0
  0
POINT
  5
46B
100
AcDbEntity
  8
DEFPOINTS
  6
BYBLOCK
 62
     0
100
AcDbPoint
 10
601.69098
 20
325.786102
 30
0.0
  0
POINT
  5
46C
100
AcDbEntity
  8
DEFPOINTS
  6
BYBLOCK
 62
     0
100
AcDbPoint
 10
637.046319
 20
361.141441
 30
0.0
  0
POINT
  5
46D
100
AcDbEntity
  8
DEFPOINTS
  6
BYBLOCK
 62
     0
100
AcDbPoint
 10
668.240728
 20
329.947032
 30
0.0
  0
ENDBLK
  5
46F
100
AcDbEntity
  8
0
100
AcDbBlockEnd
  0
BLOCK
  5
359
100
AcDbEntity
  8
0
100
AcDbBlockBegin
  2
*D7
 70
     1
 10
0.0
 20
0.0
 30
0.0
  3
*D7
  1

  0
LINE
  5
350
100
AcDbEntity
  8
0
  6
BYBLOCK
 62
     4
100
AcDbLine
 10
231.01878
 20
534.676542
 30
0.0
 11
231.01878
 21
683.411124
 31
0.0
  0
LINE
  5
351
100
AcDbEntity
  8
0
  6
BYBLOCK
 62
     4
100
AcDbLine
 10
820.01878
 20
534.676542
 30
0.0
 11
820.01878
 21
683.411124
 31
0.0
  0
LINE
  5
352
100
AcDbEntity
  8
0
  6
BYBLOCK
 62
     4
100
AcDbLine
 10
234.01878
 20
680.911124
 30
0.0
 11
817.01878
 21
680.911124
 31
0.0
  0
SOLID
  5
353
100
AcDbEntity
  8
0
  6
BYBLOCK
 62
     4
100
AcDbTrace
 10
234.01878
 20
681.411124
 30
0.0
 11
234.01878
 21
680.411124
 31
0.0
 12
231.01878
 22
680.911124
 32
0.0
 13
231.01878
 23
680.911124
 33
0.0
  0
SOLID
  5
354
100
AcDbEntity
  8
0
  6
BYBLOCK
 62
     4
100
AcDbTrace
 10
817.01878
 20
681.411124
 30
0.0
 11
817.01878
 21
680.411124
 31
0.0
 12
820.01878
 22
680.911124
 32
0.0
 13
820.01878
 23
680.911124
 33
0.0
  0
MTEXT
  5
355
100
AcDbEntity
  8
0
  6
BYBLOCK
 62
     2
100
AcDbMText
 10
525.51878
 20
683.911124
 30
0.0
 40
3.0
 41
0.0
 71
     5
 72
     1
  1
\A1;L=589.00
  0
POINT
  5
356
100
AcDbEntity
  8
DEFPOINTS
  6
BYBLOCK
 62
     0
100
AcDbPoint
 10
231.01878
 20
533.676542
 30
0.0
  0
POINT
  5
357
100
AcDbEntity
  8
DEFPOINTS
  6
BYBLOCK
 62
     0
100
AcDbPoint
 10
820.01878
 20
533.676542
 30
0.0
  0
POINT
  5
358
100
AcDbEntity
  8
DEFPOINTS
  6
BYBLOCK
 62
     0
100
AcDbPoint
 10
820.01878
 20
680.911124
 30
0.0
  0
ENDBLK
  5
35A
100
AcDbEntity
  8
0
100
AcDbBlockEnd
  0
BLOCK
  5
18D
100
AcDbEntity
  8
0
100
AcDbBlockBegin
  2
*D8
 70
     1
 10
0.0
 20
0.0
 30
0.0
  3
*D8
  1

  0
LINE
  5
184
100
AcDbEntity
  8
0
  6
BYBLOCK
 62
     4
100
AcDbLine
 10
990.762332
 20
148.37426
 30
0.0
 11
969.830536
 21
148.37426
 31
0.0
  0
LINE
  5
185
100
AcDbEntity
  8
0
  6
BYBLOCK
 62
     4
100
AcDbLine
 10
1000.537332
 20
161.77426
 30
0.0
 11
969.830536
 21
161.77426
 31
0.0
  0
LINE
  5
186
100
AcDbEntity
  8
0
  6
BYBLOCK
 62
     4
100
AcDbLine
 10
972.330536
 20
151.37426
 30
0.0
 11
972.330536
 21
158.77426
 31
0.0
  0
SOLID
  5
187
100
AcDbEntity
  8
0
  6
BYBLOCK
 62
     4
100
AcDbTrace
 10
971.830536
 20
151.37426
 30
0.0
 11
972.830536
 21
151.37426
 31
0.0
 12
972.330536
 22
148.37426
 32
0.0
 13
972.330536
 23
148.37426
 33
0.0
  0
SOLID
  5
188
100
AcDbEntity
  8
0
  6
BYBLOCK
 62
     4
100
AcDbTrace
 10
971.830536
 20
158.77426
 30
0.0
 11
972.830536
 21
158.77426
 31
0.0
 12
972.330536
 22
161.77426
 32
0.0
 13
972.330536
 23
161.77426
 33
0.0
  0
MTEXT
  5
189
100
AcDbEntity
  8
0
  6
BYBLOCK
 62
     2
100
AcDbMText
 10
969.330536
 20
155.07426
 30
0.0
 40
3.0
 41
0.0
 71
     5
 72
     1
  1
\A1;13.4
 11
0.0
 21
1.0
 31
0.0
  0
POINT
  5
18A
100
AcDbEntity
  8
DEFPOINTS
  6
BYBLOCK
 62
     0
100
AcDbPoint
 10
991.762332
 20
148.37426
 30
0.0
  0
POINT
  5
18B
100
AcDbEntity
  8
DEFPOINTS
  6
BYBLOCK
 62
     0
100
AcDbPoint
 10
1001.537332
 20
161.77426
 30
0.0
  0
POINT
  5
18C
100
AcDbEntity
  8
DEFPOINTS
  6
BYBLOCK
 62
     0
100
AcDbPoint
 10
972.330536
 20
161.77426
 30
0.0
  0
ENDBLK
  5
18E
100
AcDbEntity
  8
0
100
AcDbBlockEnd
  0
BLOCK
  5
180
100
AcDbEntity
  8
0
100
AcDbBlockBegin
  2
*D9
 70
     1
 10
0.0
 20
0.0
 30
0.0
  3
*D9
  1

  0
LINE
  5
177
100
AcDbEntity
  8
0
  6
BYBLOCK
 62
     4
100
AcDbLine
 10
547.74378
 20
182.726459
 30
0.0
 11
547.74378
 21
205.933041
 31
0.0
  0
LINE
  5
178
100
AcDbEntity
  8
0
  6
BYBLOCK
 62
     4
100
AcDbLine
 10
503.29378
 20
182.726459
 30
0.0
 11
503.29378
 21
205.933041
 31
0.0
  0
LINE
  5
179
100
AcDbEntity
  8
0
  6
BYBLOCK
 62
     4
100
AcDbLine
 10
544.74378
 20
203.433041
 30
0.0
 11
506.29378
 21
203.433041
 31
0.0
  0
SOLID
  5
17A
100
AcDbEntity
  8
0
  6
BYBLOCK
 62
     4
100
AcDbTrace
 10
544.74378
 20
203.933041
 30
0.0
 11
544.74378
 21
202.933041
 31
0.0
 12
547.74378
 22
203.433041
 32
0.0
 13
547.74378
 23
203.433041
 33
0.0
  0
SOLID
  5
17B
100
AcDbEntity
  8
0
  6
BYBLOCK
 62
     4
100
AcDbTrace
 10
506.29378
 20
203.933041
 30
0.0
 11
506.29378
 21
202.933041
 31
0.0
 12
503.29378
 22
203.433041
 32
0.0
 13
503.29378
 23
203.433041
 33
0.0
  0
MTEXT
  5
17C
100
AcDbEntity
  8
0
  6
BYBLOCK
 62
     2
100
AcDbMText
 10
526.483991
 20
206.433041
 30
0.0
 40
3.0
 41
0.0
 71
     5
 72
     1
  1
\A1;\U+220544.45 H7
  0
POINT
  5
17D
100
AcDbEntity
  8
DEFPOINTS
  6
BYBLOCK
 62
     0
100
AcDbPoint
 10
547.74378
 20
181.726459
 30
0.0
  0
POINT
  5
17E
100
AcDbEntity
  8
DEFPOINTS
  6
BYBLOCK
 62
     0
100
AcDbPoint
 10
503.29378
 20
181.726459
 30
0.0
  0
POINT
  5
17F
100
AcDbEntity
  8
DEFPOINTS
  6
BYBLOCK
 62
     0
100
AcDbPoint
 10
503.29378
 20
203.433041
 30
0.0
  0
ENDBLK
  5
181
100
AcDbEntity
  8
0
100
AcDbBlockEnd
  0
BLOCK
  5
173
100
AcDbEntity
  8
0
100
AcDbBlockBegin
  2
*D10
 70
     1
 10
0.0
 20
0.0
 30
0.0
  3
*D10
  1

  0
LINE
  5
16A
100
AcDbEntity
  8
0
  6
BYBLOCK
 62
     4
100
AcDbLine
 10
502.29378
 20
177.149109
 30
0.0
 11
502.29378
 21
215.974272
 31
0.0
  0
LINE
  5
16B
100
AcDbEntity
  8
0
  6
BYBLOCK
 62
     4
100
AcDbLine
 10
548.74378
 20
177.149109
 30
0.0
 11
548.74378
 21
215.974272
 31
0.0
  0
LINE
  5
16C
100
AcDbEntity
  8
0
  6
BYBLOCK
 62
     4
100
AcDbLine
 10
505.29378
 20
213.474272
 30
0.0
 11
545.74378
 21
213.474272
 31
0.0
  0
SOLID
  5
16D
100
AcDbEntity
  8
0
  6
BYBLOCK
 62
     4
100
AcDbTrace
 10
505.29378
 20
213.974272
 30
0.0
 11
505.29378
 21
212.974272
 31
0.0
 12
502.29378
 22
213.474272
 32
0.0
 13
502.29378
 23
213.474272
 33
0.0
  0
SOLID
  5
16E
100
AcDbEntity
  8
0
  6
BYBLOCK
 62
     4
100
AcDbTrace
 10
545.74378
 20
213.974272
 30
0.0
 11
545.74378
 21
212.974272
 31
0.0
 12
548.74378
 22
213.474272
 32
0.0
 13
548.74378
 23
213.474272
 33
0.0
  0
MTEXT
  5
16F
100
AcDbEntity
  8
0
  6
BYBLOCK
 62
     2
100
AcDbMText
 10
526.824232
 20
216.474272
 30
0.0
 40
3.0
 41
0.0
 71
     5
 72
     1
  1
\A1;\U+220546.5
  0
POINT
  5
170
100
AcDbEntity
  8
DEFPOINTS
  6
BYBLOCK
 62
     0
100
AcDbPoint
 10
502.29378
 20
176.149109
 30
0.0
  0
POINT
  5
171
100
AcDbEntity
  8
DEFPOINTS
  6
BYBLOCK
 62
     0
100
AcDbPoint
 10
548.74378
 20
176.149109
 30
0.0
  0
POINT
  5
172
100
AcDbEntity
  8
DEFPOINTS
  6
BYBLOCK
 62
     0
100
AcDbPoint
 10
548.74378
 20
213.474272
 30
0.0
  0
ENDBLK
  5
174
100
AcDbEntity
  8
0
100
AcDbBlockEnd
  0
BLOCK
  5
166
100
AcDbEntity
  8
0
100
AcDbBlockBegin
  2
*D11
 70
     1
 10
0.0
 20
0.0
 30
0.0
  3
*D11
  1

  0
LINE
  5
15D
100
AcDbEntity
  8
0
  6
BYBLOCK
 62
     4
100
AcDbLine
 10
549.74378
 20
156.326459
 30
0.0
 11
573.785879
 21
156.326459
 31
0.0
  0
LINE
  5
15E
100
AcDbEntity
  8
0
  6
BYBLOCK
 62
     4
100
AcDbLine
 10
548.74378
 20
181.726459
 30
0.0
 11
573.785879
 21
181.726459
 31
0.0
  0
LINE
  5
15F
100
AcDbEntity
  8
0
  6
BYBLOCK
 62
     4
100
AcDbLine
 10
571.285879
 20
159.326459
 30
0.0
 11
571.285879
 21
178.726459
 31
0.0
  0
SOLID
  5
160
100
AcDbEntity
  8
0
  6
BYBLOCK
 62
     4
100
AcDbTrace
 10
570.785879
 20
159.326459
 30
0.0
 11
571.785879
 21
159.326459
 31
0.0
 12
571.285879
 22
156.326459
 32
0.0
 13
571.285879
 23
156.326459
 33
0.0
  0
SOLID
  5
161
100
AcDbEntity
  8
0
  6
BYBLOCK
 62
     4
100
AcDbTrace
 10
570.785879
 20
178.726459
 30
0.0
 11
571.785879
 21
178.726459
 31
0.0
 12
571.285879
 22
181.726459
 32
0.0
 13
571.285879
 23
181.726459
 33
0.0
  0
MTEXT
  5
162
100
AcDbEntity
  8
0
  6
BYBLOCK
 62
     2
100
AcDbMText
 10
568.285879
 20
171.027876
 30
0.0
 40
3.0
 41
0.0
 71
     5
 72
     1
  1
\A1;25.40
 11
0.0
 21
1.0
 31
0.0
  0
POINT
  5
163
100
AcDbEntity
  8
DEFPOINTS
  6
BYBLOCK
 62
     0
100
AcDbPoint
 10
548.74378
 20
156.326459
 30
0.0
  0
POINT
  5
164
100
AcDbEntity
  8
DEFPOINTS
  6
BYBLOCK
 62
     0
100
AcDbPoint
 10
547.74378
 20
181.726459
 30
0.0
  0
POINT
  5
165
100
AcDbEntity
  8
DEFPOINTS
  6
BYBLOCK
 62
     0
100
AcDbPoint
 10
571.285879
 20
181.726459
 30
0.0
  0
ENDBLK
  5
167
100
AcDbEntity
  8
0
100
AcDbBlockEnd
  0
BLOCK
  5
114
100
AcDbEntity
  8
0
100
AcDbBlockBegin
  2
*D12
 70
     1
 10
0.0
 20
0.0
 30
0.0
  3
*D12
  1

  0
LINE
  5
10A
100
AcDbEntity
  8
0
  6
BYBLOCK
 62
     4
100
AcDbLine
 10
641.524052
 20
177.326459
 30
0.0
 11
641.524052
 21
193.502624
 31
0.0
  0
LINE
  5
10B
100
AcDbEntity
  8
0
  6
BYBLOCK
 62
     4
100
AcDbLine
 10
633.524052
 20
177.326459
 30
0.0
 11
633.524052
 21
193.502624
 31
0.0
  0
LINE
  5
10C
100
AcDbEntity
  8
0
  6
BYBLOCK
 62
     4
100
AcDbLine
 10
644.524052
 20
191.002624
 30
0.0
 11
647.524052
 21
191.002624
 31
0.0
  0
LINE
  5
10D
100
AcDbEntity
  8
0
  6
BYBLOCK
 62
     4
100
AcDbLine
 10
630.524052
 20
191.002624
 30
0.0
 11
603.952624
 21
191.002624
 31
0.0
  0
SOLID
  5
10E
100
AcDbEntity
  8
0
  6
BYBLOCK
 62
     4
100
AcDbTrace
 10
644.524052
 20
191.502624
 30
0.0
 11
644.524052
 21
190.502624
 31
0.0
 12
641.524052
 22
191.002624
 32
0.0
 13
641.524052
 23
191.002624
 33
0.0
  0
SOLID
  5
10F
100
AcDbEntity
  8
0
  6
BYBLOCK
 62
     4
100
AcDbTrace
 10
630.524052
 20
191.502624
 30
0.0
 11
630.524052
 21
190.502624
 31
0.0
 12
633.524052
 22
191.002624
 32
0.0
 13
633.524052
 23
191.002624
 33
0.0
  0
MTEXT
  5
110
100
AcDbEntity
  8
0
  6
BYBLOCK
 62
     2
100
AcDbMText
 10
615.738338
 20
194.002624
 30
0.0
 40
3.0
 41
0.0
 71
     5
 72
     1
  1
\A1;\U+22058.00 H7
  0
POINT
  5
111
100
AcDbEntity
  8
DEFPOINTS
  6
BYBLOCK
 62
     0
100
AcDbPoint
 10
641.524052
 20
176.326459
 30
0.0
  0
POINT
  5
112
100
AcDbEntity
  8
DEFPOINTS
  6
BYBLOCK
 62
     0
100
AcDbPoint
 10
633.524052
 20
176.326459
 30
0.0
  0
POINT
  5
113
100
AcDbEntity
  8
DEFPOINTS
  6
BYBLOCK
 62
     0
100
AcDbPoint
 10
633.524052
 20
191.002624
 30
0.0
  0
ENDBLK
  5
115
100
AcDbEntity
  8
0
100
AcDbBlockEnd
  0
BLOCK
  5
5A
100
AcDbEntity
  8
0
100
AcDbBlockBegin
  2
*D13
 70
     1
 10
0.0
 20
0.0
 30
0.0
  3
*D13
  1

  0
LINE
  5
51
100
AcDbEntity
  8
0
  6
BYBLOCK
 62
     4
100
AcDbLine
 10
263.01878
 20
547.759226
 30
0.0
 11
263.01878
 21
672.768682
 31
0.0
  0
LINE
  5
52
100
AcDbEntity
  8
0
  6
BYBLOCK
 62
     4
100
AcDbLine
 10
438.01878
 20
547.759226
 30
0.0
 11
438.01878
 21
672.768682
 31
0.0
  0
LINE
  5
53
100
AcDbEntity
  8
0
  6
BYBLOCK
 62
     4
100
AcDbLine
 10
266.01878
 20
670.268682
 30
0.0
 11
435.01878
 21
670.268682
 31
0.0
  0
SOLID
  5
54
100
AcDbEntity
  8
0
  6
BYBLOCK
 62
     4
100
AcDbTrace
 10
266.01878
 20
670.768682
 30
0.0
 11
266.01878
 21
669.768682
 31
0.0
 12
263.01878
 22
670.268682
 32
0.0
 13
263.01878
 23
670.268682
 33
0.0
  0
SOLID
  5
55
100
AcDbEntity
  8
0
  6
BYBLOCK
 62
     4
100
AcDbTrace
 10
435.01878
 20
670.768682
 30
0.0
 11
435.01878
 21
669.768682
 31
0.0
 12
438.01878
 22
670.268682
 32
0.0
 13
438.01878
 23
670.268682
 33
0.0
  0
MTEXT
  5
56
100
AcDbEntity
  8
0
  6
BYBLOCK
 62
     2
100
AcDbMText
 10
350.51878
 20
673.268682
 30
0.0
 40
3.0
 41
0.0
 71
     5
 72
     1
  1
\A1;A=175.00
  0
POINT
  5
57
100
AcDbEntity
  8
DEFPOINTS
  6
BYBLOCK
 62
     0
100
AcDbPoint
 10
263.01878
 20
546.759226
 30
0.0
  0
POINT
  5
58
100
AcDbEntity
  8
DEFPOINTS
  6
BYBLOCK
 62
     0
100
AcDbPoint
 10
438.01878
 20
546.759226
 30
0.0
  0
POINT
  5
59
100
AcDbEntity
  8
DEFPOINTS
  6
BYBLOCK
 62
     0
100
AcDbPoint
 10
438.01878
 20
670.268682
 30
0.0
  0
ENDBLK
  5
5B
100
AcDbEntity
  8
0
100
AcDbBlockEnd
  0
BLOCK
  5
4D
100
AcDbEntity
  8
0
100
AcDbBlockBegin
  2
*D14
 70
     1
 10
0.0
 20
0.0
 30
0.0
  3
*D14
  1

  0
LINE
  5
45
100
AcDbEntity
  8
0
  6
BYBLOCK
 62
     4
100
AcDbLine
 10
613.01878
 20
547.759226
 30
0.0
 11
613.01878
 21
672.768682
 31
0.0
  0
LINE
  5
46
100
AcDbEntity
  8
0
  6
BYBLOCK
 62
     4
100
AcDbLine
 10
441.01878
 20
670.268682
 30
0.0
 11
610.01878
 21
670.268682
 31
0.0
  0
SOLID
  5
47
100
AcDbEntity
  8
0
  6
BYBLOCK
 62
     4
100
AcDbTrace
 10
441.01878
 20
670.768682
 30
0.0
 11
441.01878
 21
669.768682
 31
0.0
 12
438.01878
 22
670.268682
 32
0.0
 13
438.01878
 23
670.268682
 33
0.0
  0
SOLID
  5
48
100
AcDbEntity
  8
0
  6
BYBLOCK
 62
     4
100
AcDbTrace
 10
610.01878
 20
670.768682
 30
0.0
 11
610.01878
 21
669.768682
 31
0.0
 12
613.01878
 22
670.268682
 32
0.0
 13
613.01878
 23
670.268682
 33
0.0
  0
MTEXT
  5
49
100
AcDbEntity
  8
0
  6
BYBLOCK
 62
     2
100
AcDbMText
 10
525.51878
 20
673.268682
 30
0.0
 40
3.0
 41
0.0
 71
     5
 72
     1
  1
\A1;B=175.00
  0
POINT
  5
4A
100
AcDbEntity
  8
DEFPOINTS
  6
BYBLOCK
 62
     0
100
AcDbPoint
 10
438.01878
 20
546.759226
 30
0.0
  0
POINT
  5
4B
100
AcDbEntity
  8
DEFPOINTS
  6
BYBLOCK
 62
     0
100
AcDbPoint
 10
613.01878
 20
546.759226
 30
0.0
  0
POINT
  5
4C
100
AcDbEntity
  8
DEFPOINTS
  6
BYBLOCK
 62
     0
100
AcDbPoint
 10
613.01878
 20
670.268682
 30
0.0
  0
ENDBLK
  5
4E
100
AcDbEntity
  8
0
100
AcDbBlockEnd
  0
BLOCK
  5
41
100
AcDbEntity
  8
0
100
AcDbBlockBegin
  2
*D15
 70
     1
 10
0.0
 20
0.0
 30
0.0
  3
*D15
  1

  0
LINE
  5
39
100
AcDbEntity
  8
0
  6
BYBLOCK
 62
     4
100
AcDbLine
 10
788.01878
 20
547.759226
 30
0.0
 11
788.01878
 21
672.768682
 31
0.0
  0
LINE
  5
3A
100
AcDbEntity
  8
0
  6
BYBLOCK
 62
     4
100
AcDbLine
 10
616.01878
 20
670.268682
 30
0.0
 11
785.01878
 21
670.268682
 31
0.0
  0
SOLID
  5
3B
100
AcDbEntity
  8
0
  6
BYBLOCK
 62
     4
100
AcDbTrace
 10
616.01878
 20
670.768682
 30
0.0
 11
616.01878
 21
669.768682
 31
0.0
 12
613.01878
 22
670.268682
 32
0.0
 13
613.01878
 23
670.268682
 33
0.0
  0
SOLID
  5
3C
100
AcDbEntity
  8
0
  6
BYBLOCK
 62
     4
100
AcDbTrace
 10
785.01878
 20
670.768682
 30
0.0
 11
785.01878
 21
669.768682
 31
0.0
 12
788.01878
 22
670.268682
 32
0.0
 13
788.01878
 23
670.268682
 33
0.0
  0
MTEXT
  5
3D
100
AcDbEntity
  8
0
  6
BYBLOCK
 62
     2
100
AcDbMText
 10
700.51878
 20
673.268682
 30
0.0
 40
3.0
 41
0.0
 71
     5
 72
     1
  1
\A1;A=175.00
  0
POINT
  5
3E
100
AcDbEntity
  8
DEFPOINTS
  6
BYBLOCK
 62
     0
100
AcDbPoint
 10
613.01878
 20
546.759226
 30
0.0
  0
POINT
  5
3F
100
AcDbEntity
  8
DEFPOINTS
  6
BYBLOCK
 62
     0
100
AcDbPoint
 10
788.01878
 20
546.759226
 30
0.0
  0
POINT
  5
40
100
AcDbEntity
  8
DEFPOINTS
  6
BYBLOCK
 62
     0
100
AcDbPoint
 10
788.01878
 20
670.268682
 30
0.0
  0
ENDBLK
  5
42
100
AcDbEntity
  8
0
100
AcDbBlockEnd
  0
BLOCK
  5
32
100
AcDbEntity
  8
0
100
AcDbBlockBegin
  2
*D16
 70
     1
 10
0.0
 20
0.0
 30
0.0
  3
*D16
  1

  0
LINE
  5
28
100
AcDbEntity
  8
0
  6
BYBLOCK
 62
     4
100
AcDbLine
 10
505.51878
 20
80.326459
 30
0.0
 11
505.51878
 21
41.181012
 31
0.0
  0
LINE
  5
29
100
AcDbEntity
  8
0
  6
BYBLOCK
 62
     4
100
AcDbLine
 10
545.51878
 20
80.326459
 30
0.0
 11
545.51878
 21
41.181012
 31
0.0
  0
LINE
  5
2A
100
AcDbEntity
  8
0
  6
BYBLOCK
 62
     4
100
AcDbLine
 10
508.51878
 20
43.681012
 30
0.0
 11
542.51878
 21
43.681012
 31
0.0
  0
SOLID
  5
2B
100
AcDbEntity
  8
0
  6
BYBLOCK
 62
     4
100
AcDbTrace
 10
508.51878
 20
44.181012
 30
0.0
 11
508.51878
 21
43.181012
 31
0.0
 12
505.51878
 22
43.681012
 32
0.0
 13
505.51878
 23
43.681012
 33
0.0
  0
SOLID
  5
2C
100
AcDbEntity
  8
0
  6
BYBLOCK
 62
     4
100
AcDbTrace
 10
542.51878
 20
44.181012
 30
0.0
 11
542.51878
 21
43.181012
 31
0.0
 12
545.51878
 22
43.681012
 32
0.0
 13
545.51878
 23
43.681012
 33
0.0
  0
MTEXT
  5
2D
100
AcDbEntity
  8
0
  6
BYBLOCK
 62
     2
100
AcDbMText
 10
525.51878
 20
46.681012
 30
0.0
 40
3.0
 41
0.0
 71
     5
 72
     1
  1
\A1;\U+220540.00 H7
  0
POINT
  5
2E
100
AcDbEntity
  8
DEFPOINTS
  6
BYBLOCK
 62
     0
100
AcDbPoint
 10
505.51878
 20
81.326459
 30
0.0
  0
POINT
  5
30
100
AcDbEntity
  8
DEFPOINTS
  6
BYBLOCK
 62
     0
100
AcDbPoint
 10
545.51878
 20
81.326459
 30
0.0
  0
POINT
  5
31
100
AcDbEntity
  8
DEFPOINTS
  6
BYBLOCK
 62
     0
100
AcDbPoint
 10
545.51878
 20
43.681012
 30
0.0
  0
ENDBLK
  5
33
100
AcDbEntity
  8
0
100
AcDbBlockEnd
  0
ENDSEC
  0
SECTION
  2
ENTITIES
  0
TEXT
  5
20
100
AcDbEntity
  8
TEXT
100
AcDbText
 10
164.159045
 20
29.636352
 30
0.0
 40
6.0
  1
design may vary from this example !
100
AcDbText
  0
TEXT
  5
22
100
AcDbEntity
  8
TEXT
100
AcDbText
 10
163.778177
 20
39.73276
 30
0.0
 40
6.0
  1
you finalize your tool design, as our final system
100
AcDbText
  0
TEXT
  5
23
100
AcDbEntity
  8
TEXT
100
AcDbText
 10
140.484058
 20
49.829168
 30
0.0
 40
6.0
  1
N.B. ALL designs MUST be approved by Fast Heat BEFORE
100
AcDbText
  0
TEXT
  5
24
100
AcDbEntity
  8
TEXT
100
AcDbText
 10
870.688685
 20
666.487654
 30
0.0
 40
6.0
  1
depending on the bush size to be used.
100
AcDbText
  0
TEXT
  5
25
100
AcDbEntity
  8
TEXT
100
AcDbText
 10
838.02273
 20
676.584062
 30
0.0
 40
6.0
  1
NOTE: Manifold width `W' can be 50mm or 64mm
100
AcDbText
  0
DIMENSION
  5
26
100
AcDbEntity
  8
DIMS
100
AcDbDimension
  2
*D16
 10
545.51878
 20
43.681012
 30
0.0
 11
525.51878
 21
46.681012
 31
0.0
  1
%%c<> H7
  3
DIM1
100
AcDbAlignedDimension
 13
505.51878
 23
81.326459
 33
0.0
 14
545.51878
 24
81.326459
 34
0.0
100
AcDbRotatedDimension
1001
ACAD
1000
DSTYLE
1002
{
1070
   144
1040
1.0
1002
}
  0
HATCH
  5
34
100
AcDbEntity
  8
DIMS
100
AcDbHatch
 10
0.0
 20
0.0
 30
0.0
210
0.0
220
0.0
230
1.0
  2
_U
 70
     0
 71
     1
 91
        1
 92
        7
 72
     0
 73
     1
 93
        4
 10
967.6446736139773
 20
320.0592260810631
 10
964.6446736139775
 20
320.0592260810632
 10
964.6446736139775
 20
314.7992260810632
 10
967.6446736139773
 20
314.7992260810633
 97
        4
330
5FF
330
64E
330
602
330
603
 75
     0
 76
     0
 52
135.0
 41
0.8
 77
     0
 78
     1
 53
135.0
 43
0.0
 44
0.0
 45
-0.5656854249492382
 46
-0.565685424949238
 79
     0
 47
0.183109
 98
        1
 10
966.867858
 20
317.312663
  0
HATCH
  5
35
100
AcDbEntity
  8
DIMS
100
AcDbHatch
 10
0.0
 20
0.0
 30
0.0
210
0.0
220
0.0
230
1.0
  2
_U
 70
     0
 71
     1
 91
        1
 92
        7
 72
     0
 73
     1
 93
        4
 10
238.0187795381627
 20
96.32645948541359
 10
232.7587795381627
 20
96.32645948541359
 10
232.7587795381627
 20
93.32645948541358
 10
238.0187795381626
 20
93.32645948541358
 97
        4
330
347
330
33D
330
33B
330
301
 75
     0
 76
     0
 52
135.0
 41
0.8
 77
     0
 78
     1
 53
135.0
 43
0.0
 44
0.0
 45
-0.5656854249492382
 46
-0.565685424949238
 79
     0
 47
0.104634
 98
        1
 10
235.012729
 20
94.692666
  0
HATCH
  5
36
100
AcDbEntity
  8
DIMS
100
AcDbHatch
 10
0.0
 20
0.0
 30
0.0
210
0.0
220
0.0
230
1.0
  2
_U
 70
     0
 71
     1
 91
        2
 92
        7
 72
     0
 73
     1
 93
       11
 10
971.6446736139783
 20
368.3592260810625
 10
970.944673613978
 20
369.059226081063
 10
965.3446736139773
 20
369.0592260810632
 10
964.6446736139775
 20
368.3592260810633
 10
964.6446736139775
 20
352.9181080685203
 10
969.0035556014345
 20
348.5592260810632
 10
971.6446736139781
 20
348.5592260810631
 10
971.6446736139781
 20
351.5592260810633
 10
970.6446736139776
 20
352.5592260810637
 10
970.6446736139776
 20
364.5592260810632
 10
971.6446736139781
 20
365.5592260810634
 97
       10
330
5F8
330
5F9
330
5F7
330
64E
330
5EE
330
5E9
330
643
330
4CC
330
4CD
330
4CB
 92
        7
 72
     0
 73
     1
 93
       11
 10
970.6446736139776
 20
337.5592260810626
 10
971.6446736139776
 20
338.5592260810625
 10
971.6446736139776
 20
341.5592260810631
 10
969.0035556014343
 20
341.5592260810631
 10
964.6446736139777
 20
337.2003440936062
 10
964.6446736139775
 20
321.759226081063
 10
965.3446736139775
 20
321.0592260810631
 10
970.9446736139778
 20
321.0592260810634
 10
971.6446736139777
 20
321.7592260810633
 10
971.6446736139774
 20
324.5592260810632
 10
970.6446736139778
 20
325.5592260810633
 97
       10
330
4C9
330
5D2
330
5EA
330
5EC
330
64E
330
5FC
330
601
330
5FD
330
4C8
330
4CA
 75
     0
 76
     0
 52
135.0
 41
1.5
 77
     0
 78
     1
 53
135.0
 43
0.0
 44
0.0
 45
-1.060660171779821
 46
-1.060660171779821
 79
     0
 47
0.10837
 98
        2
 10
966.690285
 20
366.280225
 10
968.424892
 20
331.60168
  0
DIMENSION
  5
37
100
AcDbEntity
  8
DIMS
100
AcDbDimension
  2
*D15
 10
788.01878
 20
670.268682
 30
0.0
 11
700.51878
 21
673.268682
 31
0.0
  1
A=<>
  3
DIM1
100
AcDbAlignedDimension
 13
613.01878
 23
546.759226
 33
0.0
 14
788.01878
 24
546.759226
 34
0.0
100
AcDbRotatedDimension
1001
ACAD
1000
DSTYLE
1002
{
1070
    75
1070
     1
1070
   144
1040
1.0
1070
   287
1070
     4
1002
}
  0
DIMENSION
  5
43
100
AcDbEntity
  8
DIMS
100
AcDbDimension
  2
*D14
 10
613.01878
 20
670.268682
 30
0.0
 11
525.51878
 21
673.268682
 31
0.0
  1
B=<>
  3
DIM1
100
AcDbAlignedDimension
 13
438.01878
 23
546.759226
 33
0.0
 14
613.01878
 24
546.759226
 34
0.0
100
AcDbRotatedDimension
1001
ACAD
1000
DSTYLE
1002
{
1070
    75
1070
     1
1070
   144
1040
1.0
1070
   287
1070
     4
1002
}
  0
DIMENSION
  5
4F
100
AcDbEntity
  8
DIMS
100
AcDbDimension
  2
*D13
 10
438.01878
 20
670.268682
 30
0.0
 11
350.51878
 21
673.268682
 31
0.0
  1
A=<>
  3
DIM1
100
AcDbAlignedDimension
 13
263.01878
 23
546.759226
 33
0.0
 14
438.01878
 24
546.759226
 34
0.0
100
AcDbRotatedDimension
1001
ACAD
1000
DSTYLE
1002
{
1070
   144
1040
1.0
1002
}
  0
LINE
  5
5C
100
AcDbEntity
  8
DIMS
 62
     4
100
AcDbLine
 10
263.01878
 20
523.459226
 30
0.0
 11
263.01878
 21
546.759226
 31
0.0
  0
LINE
  5
5D
100
AcDbEntity
  8
DIMS
 62
     4
100
AcDbLine
 10
263.01878
 20
516.659226
 30
0.0
 11
263.01878
 21
493.359226
 31
0.0
  0
LINE
  5
5E
100
AcDbEntity
  8
DIMS
 62
     4
100
AcDbLine
 10
266.41878
 20
520.059226
 30
0.0
 11
289.71878
 21
520.059226
 31
0.0
  0
LINE
  5
5F
100
AcDbEntity
  8
DIMS
 62
     4
100
AcDbLine
 10
259.61878
 20
520.059226
 30
0.0
 11
236.31878
 21
520.059226
 31
0.0
  0
LINE
  5
60
100
AcDbEntity
  8
DIMS
 62
     4
100
AcDbLine
 10
263.01878
 20
518.359226
 30
0.0
 11
263.01878
 21
521.759226
 31
0.0
  0
LINE
  5
61
100
AcDbEntity
  8
DIMS
 62
     4
100
AcDbLine
 10
261.31878
 20
520.059226
 30
0.0
 11
264.71878
 21
520.059226
 31
0.0
  0
LINE
  5
62
100
AcDbEntity
  8
DIMS
 62
     4
100
AcDbLine
 10
263.01878
 20
348.459226
 30
0.0
 11
263.01878
 21
371.759226
 31
0.0
  0
LINE
  5
63
100
AcDbEntity
  8
DIMS
 62
     4
100
AcDbLine
 10
263.01878
 20
341.659226
 30
0.0
 11
263.01878
 21
318.359226
 31
0.0
  0
LINE
  5
64
100
AcDbEntity
  8
DIMS
 62
     4
100
AcDbLine
 10
266.41878
 20
345.059226
 30
0.0
 11
289.71878
 21
345.059226
 31
0.0
  0
LINE
  5
65
100
AcDbEntity
  8
DIMS
 62
     4
100
AcDbLine
 10
259.61878
 20
345.059226
 30
0.0
 11
236.31878
 21
345.059226
 31
0.0
  0
LINE
  5
66
100
AcDbEntity
  8
DIMS
 62
     4
100
AcDbLine
 10
263.01878
 20
343.359226
 30
0.0
 11
263.01878
 21
346.759226
 31
0.0
  0
LINE
  5
67
100
AcDbEntity
  8
DIMS
 62
     4
100
AcDbLine
 10
261.31878
 20
345.059226
 30
0.0
 11
264.71878
 21
345.059226
 31
0.0
  0
LINE
  5
68
100
AcDbEntity
  8
DIMS
 62
     4
100
AcDbLine
 10
438.01878
 20
348.459226
 30
0.0
 11
438.01878
 21
371.759226
 31
0.0
  0
LINE
  5
69
100
AcDbEntity
  8
DIMS
 62
     4
100
AcDbLine
 10
438.01878
 20
341.659226
 30
0.0
 11
438.01878
 21
318.359226
 31
0.0
  0
LINE
  5
6A
100
AcDbEntity
  8
DIMS
 62
     4
100
AcDbLine
 10
441.41878
 20
345.059226
 30
0.0
 11
464.71878
 21
345.059226
 31
0.0
  0
LINE
  5
6B
100
AcDbEntity
  8
DIMS
 62
     4
100
AcDbLine
 10
434.61878
 20
345.059226
 30
0.0
 11
411.31878
 21
345.059226
 31
0.0
  0
LINE
  5
6C
100
AcDbEntity
  8
DIMS
 62
     4
100
AcDbLine
 10
438.01878
 20
343.359226
 30
0.0
 11
438.01878
 21
346.759226
 31
0.0
  0
LINE
  5
6D
100
AcDbEntity
  8
DIMS
 62
     4
100
AcDbLine
 10
436.31878
 20
345.059226
 30
0.0
 11
439.71878
 21
345.059226
 31
0.0
  0
LINE
  5
6E
100
AcDbEntity
  8
DIMS
 62
     4
100
AcDbLine
 10
438.01878
 20
523.459226
 30
0.0
 11
438.01878
 21
546.759226
 31
0.0
  0
LINE
  5
6F
100
AcDbEntity
  8
DIMS
 62
     4
100
AcDbLine
 10
438.01878
 20
516.659226
 30
0.0
 11
438.01878
 21
493.359226
 31
0.0
  0
LINE
  5
70
100
AcDbEntity
  8
DIMS
 62
     4
100
AcDbLine
 10
441.41878
 20
520.059226
 30
0.0
 11
464.71878
 21
520.059226
 31
0.0
  0
LINE
  5
71
100
AcDbEntity
  8
DIMS
 62
     4
100
AcDbLine
 10
434.61878
 20
520.059226
 30
0.0
 11
411.31878
 21
520.059226
 31
0.0
  0
LINE
  5
72
100
AcDbEntity
  8
DIMS
 62
     4
100
AcDbLine
 10
438.01878
 20
518.359226
 30
0.0
 11
438.01878
 21
521.759226
 31
0.0
  0
LINE
  5
73
100
AcDbEntity
  8
DIMS
 62
     4
100
AcDbLine
 10
436.31878
 20
520.059226
 30
0.0
 11
439.71878
 21
520.059226
 31
0.0
  0
LINE
  5
74
100
AcDbEntity
  8
DIMS
 62
     4
100
AcDbLine
 10
788.01878
 20
348.459226
 30
0.0
 11
788.01878
 21
371.759226
 31
0.0
  0
LINE
  5
75
100
AcDbEntity
  8
DIMS
 62
     4
100
AcDbLine
 10
788.01878
 20
341.659226
 30
0.0
 11
788.01878
 21
318.359226
 31
0.0
  0
LINE
  5
76
100
AcDbEntity
  8
DIMS
 62
     4
100
AcDbLine
 10
791.41878
 20
345.059226
 30
0.0
 11
814.71878
 21
345.059226
 31
0.0
  0
LINE
  5
77
100
AcDbEntity
  8
DIMS
 62
     4
100
AcDbLine
 10
784.61878
 20
345.059226
 30
0.0
 11
761.31878
 21
345.059226
 31
0.0
  0
LINE
  5
78
100
AcDbEntity
  8
DIMS
 62
     4
100
AcDbLine
 10
788.01878
 20
343.359226
 30
0.0
 11
788.01878
 21
346.759226
 31
0.0
  0
LINE
  5
79
100
AcDbEntity
  8
DIMS
 62
     4
100
AcDbLine
 10
786.31878
 20
345.059226
 30
0.0
 11
789.71878
 21
345.059226
 31
0.0
  0
LINE
  5
7A
100
AcDbEntity
  8
DIMS
 62
     4
100
AcDbLine
 10
613.01878
 20
348.459226
 30
0.0
 11
613.01878
 21
371.759226
 31
0.0
  0
LINE
  5
7B
100
AcDbEntity
  8
DIMS
 62
     4
100
AcDbLine
 10
613.01878
 20
341.659226
 30
0.0
 11
613.01878
 21
318.359226
 31
0.0
  0
LINE
  5
7C
100
AcDbEntity
  8
DIMS
 62
     4
100
AcDbLine
 10
616.41878
 20
345.059226
 30
0.0
 11
639.71878
 21
345.059226
 31
0.0
  0
LINE
  5
7D
100
AcDbEntity
  8
DIMS
 62
     4
100
AcDbLine
 10
609.61878
 20
345.059226
 30
0.0
 11
586.31878
 21
345.059226
 31
0.0
  0
LINE
  5
7E
100
AcDbEntity
  8
DIMS
 62
     4
100
AcDbLine
 10
613.01878
 20
343.359226
 30
0.0
 11
613.01878
 21
346.759226
 31
0.0
  0
LINE
  5
7F
100
AcDbEntity
  8
DIMS
 62
     4
100
AcDbLine
 10
611.31878
 20
345.059226
 30
0.0
 11
614.71878
 21
345.059226
 31
0.0
  0
LINE
  5
80
100
AcDbEntity
  8
DIMS
 62
     4
100
AcDbLine
 10
613.01878
 20
523.459226
 30
0.0
 11
613.01878
 21
546.759226
 31
0.0
  0
LINE
  5
81
100
AcDbEntity
  8
DIMS
 62
     4
100
AcDbLine
 10
613.01878
 20
516.659226
 30
0.0
 11
613.01878
 21
493.359226
 31
0.0
  0
LINE
  5
82
100
AcDbEntity
  8
DIMS
 62
     4
100
AcDbLine
 10
616.41878
 20
520.059226
 30
0.0
 11
639.71878
 21
520.059226
 31
0.0
  0
LINE
  5
83
100
AcDbEntity
  8
DIMS
 62
     4
100
AcDbLine
 10
609.61878
 20
520.059226
 30
0.0
 11
586.31878
 21
520.059226
 31
0.0
  0
LINE
  5
84
100
AcDbEntity
  8
DIMS
 62
     4
100
AcDbLine
 10
613.01878
 20
518.359226
 30
0.0
 11
613.01878
 21
521.759226
 31
0.0
  0
LINE
  5
85
100
AcDbEntity
  8
DIMS
 62
     4
100
AcDbLine
 10
611.31878
 20
520.059226
 30
0.0
 11
614.71878
 21
520.059226
 31
0.0
  0
LINE
  5
86
100
AcDbEntity
  8
DIMS
 62
     4
100
AcDbLine
 10
788.01878
 20
523.459226
 30
0.0
 11
788.01878
 21
546.759226
 31
0.0
  0
LINE
  5
87
100
AcDbEntity
  8
DIMS
 62
     4
100
AcDbLine
 10
788.01878
 20
516.659226
 30
0.0
 11
788.01878
 21
493.359226
 31
0.0
  0
LINE
  5
88
100
AcDbEntity
  8
DIMS
 62
     4
100
AcDbLine
 10
791.41878
 20
520.059226
 30
0.0
 11
814.71878
 21
520.059226
 31
0.0
  0
LINE
  5
89
100
AcDbEntity
  8
DIMS
 62
     4
100
AcDbLine
 10
784.61878
 20
520.059226
 30
0.0
 11
761.31878
 21
520.059226
 31
0.0
  0
LINE
  5
8A
100
AcDbEntity
  8
DIMS
 62
     4
100
AcDbLine
 10
788.01878
 20
518.359226
 30
0.0
 11
788.01878
 21
521.759226
 31
0.0
  0
LINE
  5
8B
100
AcDbEntity
  8
DIMS
 62
     4
100
AcDbLine
 10
786.31878
 20
520.059226
 30
0.0
 11
789.71878
 21
520.059226
 31
0.0
  0
CIRCLE
  5
8C
100
AcDbEntity
  8
M03
100
AcDbCircle
 10
263.01878
 20
345.059226
 30
0.0
 40
25.0
  0
CIRCLE
  5
8F
100
AcDbEntity
  8
M03
100
AcDbCircle
 10
263.01878
 20
345.059226
 30
0.0
 40
24.0
  0
CIRCLE
  5
90
100
AcDbEntity
  8
M03
100
AcDbCircle
 10
438.01878
 20
345.059226
 30
0.0
 40
25.0
  0
CIRCLE
  5
91
100
AcDbEntity
  8
M03
100
AcDbCircle
 10
438.01878
 20
345.059226
 30
0.0
 40
24.0
  0
CIRCLE
  5
92
100
AcDbEntity
  8
M03
100
AcDbCircle
 10
263.01878
 20
520.059226
 30
0.0
 40
25.0
  0
CIRCLE
  5
93
100
AcDbEntity
  8
M03
100
AcDbCircle
 10
263.01878
 20
520.059226
 30
0.0
 40
24.0
  0
CIRCLE
  5
94
100
AcDbEntity
  8
M03
100
AcDbCircle
 10
438.01878
 20
520.059226
 30
0.0
 40
25.0
  0
CIRCLE
  5
95
100
AcDbEntity
  8
M03
100
AcDbCircle
 10
438.01878
 20
520.059226
 30
0.0
 40
24.0
  0
CIRCLE
  5
96
100
AcDbEntity
  8
M03
100
AcDbCircle
 10
613.01878
 20
345.059226
 30
0.0
 40
25.0
  0
CIRCLE
  5
97
100
AcDbEntity
  8
M03
100
AcDbCircle
 10
613.01878
 20
345.059226
 30
0.0
 40
24.0
  0
CIRCLE
  5
98
100
AcDbEntity
  8
M03
100
AcDbCircle
 10
788.01878
 20
345.059226
 30
0.0
 40
25.0
  0
CIRCLE
  5
99
100
AcDbEntity
  8
M03
100
AcDbCircle
 10
788.01878
 20
345.059226
 30
0.0
 40
24.0
  0
CIRCLE
  5
9A
100
AcDbEntity
  8
M03
100
AcDbCircle
 10
613.01878
 20
520.059226
 30
0.0
 40
25.0
  0
CIRCLE
  5
9B
100
AcDbEntity
  8
M03
100
AcDbCircle
 10
613.01878
 20
520.059226
 30
0.0
 40
24.0
  0
LINE
  5
9C
100
AcDbEntity
  8
DIMS
 62
     4
100
AcDbLine
 10
757.613188
 20
553.864818
 30
0.0
 11
757.613188
 21
558.664818
 31
0.0
  0
LINE
  5
9D
100
AcDbEntity
  8
DIMS
 62
     4
100
AcDbLine
 10
757.613188
 20
547.064818
 30
0.0
 11
757.613188
 21
542.264818
 31
0.0
  0
LINE
  5
9E
100
AcDbEntity
  8
DIMS
 62
     4
100
AcDbLine
 10
761.013188
 20
550.464818
 30
0.0
 11
765.813188
 21
550.464818
 31
0.0
  0
LINE
  5
9F
100
AcDbEntity
  8
DIMS
 62
     4
100
AcDbLine
 10
754.213188
 20
550.464818
 30
0.0
 11
749.413188
 21
550.464818
 31
0.0
  0
LINE
  5
A0
100
AcDbEntity
  8
DIMS
 62
     4
100
AcDbLine
 10
757.613188
 20
548.764818
 30
0.0
 11
757.613188
 21
552.164818
 31
0.0
  0
LINE
  5
A1
100
AcDbEntity
  8
DIMS
 62
     4
100
AcDbLine
 10
755.913188
 20
550.464818
 30
0.0
 11
759.313188
 21
550.464818
 31
0.0
  0
LINE
  5
A2
100
AcDbEntity
  8
DIMS
 62
     4
100
AcDbLine
 10
818.424371
 20
493.053634
 30
0.0
 11
818.424371
 21
497.853634
 31
0.0
  0
LINE
  5
A3
100
AcDbEntity
  8
DIMS
 62
     4
100
AcDbLine
 10
818.424371
 20
486.253634
 30
0.0
 11
818.424371
 21
481.453634
 31
0.0
  0
LINE
  5
A4
100
AcDbEntity
  8
DIMS
 62
     4
100
AcDbLine
 10
821.824371
 20
489.653634
 30
0.0
 11
826.624371
 21
489.653634
 31
0.0
  0
LINE
  5
A5
100
AcDbEntity
  8
DIMS
 62
     4
100
AcDbLine
 10
815.024371
 20
489.653634
 30
0.0
 11
810.224371
 21
489.653634
 31
0.0
  0
LINE
  5
A6
100
AcDbEntity
  8
DIMS
 62
     4
100
AcDbLine
 10
818.424371
 20
487.953634
 30
0.0
 11
818.424371
 21
491.353634
 31
0.0
  0
LINE
  5
A7
100
AcDbEntity
  8
DIMS
 62
     4
100
AcDbLine
 10
816.724371
 20
489.653634
 30
0.0
 11
820.124371
 21
489.653634
 31
0.0
  0
LINE
  5
A8
100
AcDbEntity
  8
DIMS
 62
     4
100
AcDbLine
 10
818.424371
 20
378.864818
 30
0.0
 11
818.424371
 21
383.664818
 31
0.0
  0
LINE
  5
A9
100
AcDbEntity
  8
DIMS
 62
     4
100
AcDbLine
 10
818.424371
 20
372.064818
 30
0.0
 11
818.424371
 21
367.264818
 31
0.0
  0
LINE
  5
AA
100
AcDbEntity
  8
DIMS
 62
     4
100
AcDbLine
 10
821.824371
 20
375.464818
 30
0.0
 11
826.624371
 21
375.464818
 31
0.0
  0
LINE
  5
AB
100
AcDbEntity
  8
DIMS
 62
     4
100
AcDbLine
 10
815.024371
 20
375.464818
 30
0.0
 11
810.224371
 21
375.464818
 31
0.0
  0
LINE
  5
AC
100
AcDbEntity
  8
DIMS
 62
     4
100
AcDbLine
 10
818.424371
 20
373.764818
 30
0.0
 11
818.424371
 21
377.164818
 31
0.0
  0
LINE
  5
AD
100
AcDbEntity
  8
DIMS
 62
     4
100
AcDbLine
 10
816.724371
 20
375.464818
 30
0.0
 11
820.124371
 21
375.464818
 31
0.0
  0
LINE
  5
AE
100
AcDbEntity
  8
DIMS
 62
     4
100
AcDbLine
 10
757.613188
 20
318.053634
 30
0.0
 11
757.613188
 21
322.853634
 31
0.0
  0
LINE
  5
AF
100
AcDbEntity
  8
DIMS
 62
     4
100
AcDbLine
 10
757.613188
 20
311.253634
 30
0.0
 11
757.613188
 21
306.453634
 31
0.0
  0
LINE
  5
B0
100
AcDbEntity
  8
DIMS
 62
     4
100
AcDbLine
 10
761.013188
 20
314.653634
 30
0.0
 11
765.813188
 21
314.653634
 31
0.0
  0
LINE
  5
B1
100
AcDbEntity
  8
DIMS
 62
     4
100
AcDbLine
 10
754.213188
 20
314.653634
 30
0.0
 11
749.413188
 21
314.653634
 31
0.0
  0
LINE
  5
B2
100
AcDbEntity
  8
DIMS
 62
     4
100
AcDbLine
 10
757.613188
 20
312.953634
 30
0.0
 11
757.613188
 21
316.353634
 31
0.0
  0
LINE
  5
B3
100
AcDbEntity
  8
DIMS
 62
     4
100
AcDbLine
 10
755.913188
 20
314.653634
 30
0.0
 11
759.313188
 21
314.653634
 31
0.0
  0
LINE
  5
B4
100
AcDbEntity
  8
DIMS
 62
     4
100
AcDbLine
 10
643.424371
 20
318.053634
 30
0.0
 11
643.424371
 21
322.853634
 31
0.0
  0
LINE
  5
B5
100
AcDbEntity
  8
DIMS
 62
     4
100
AcDbLine
 10
643.424371
 20
311.253634
 30
0.0
 11
643.424371
 21
306.453634
 31
0.0
  0
LINE
  5
B6
100
AcDbEntity
  8
DIMS
 62
     4
100
AcDbLine
 10
646.824371
 20
314.653634
 30
0.0
 11
651.624371
 21
314.653634
 31
0.0
  0
LINE
  5
B7
100
AcDbEntity
  8
DIMS
 62
     4
100
AcDbLine
 10
640.024371
 20
314.653634
 30
0.0
 11
635.224371
 21
314.653634
 31
0.0
  0
LINE
  5
B8
100
AcDbEntity
  8
DIMS
 62
     4
100
AcDbLine
 10
643.424371
 20
312.953634
 30
0.0
 11
643.424371
 21
316.353634
 31
0.0
  0
LINE
  5
B9
100
AcDbEntity
  8
DIMS
 62
     4
100
AcDbLine
 10
641.724371
 20
314.653634
 30
0.0
 11
645.124371
 21
314.653634
 31
0.0
  0
LINE
  5
BA
100
AcDbEntity
  8
DIMS
 62
     4
100
AcDbLine
 10
643.424371
 20
553.864818
 30
0.0
 11
643.424371
 21
558.664818
 31
0.0
  0
LINE
  5
BB
100
AcDbEntity
  8
DIMS
 62
     4
100
AcDbLine
 10
643.424371
 20
547.064818
 30
0.0
 11
643.424371
 21
542.264818
 31
0.0
  0
LINE
  5
BC
100
AcDbEntity
  8
DIMS
 62
     4
100
AcDbLine
 10
646.824371
 20
550.464818
 30
0.0
 11
651.624371
 21
550.464818
 31
0.0
  0
LINE
  5
BD
100
AcDbEntity
  8
DIMS
 62
     4
100
AcDbLine
 10
640.024371
 20
550.464818
 30
0.0
 11
635.224371
 21
550.464818
 31
0.0
  0
LINE
  5
BE
100
AcDbEntity
  8
DIMS
 62
     4
100
AcDbLine
 10
643.424371
 20
548.764818
 30
0.0
 11
643.424371
 21
552.164818
 31
0.0
  0
LINE
  5
BF
100
AcDbEntity
  8
DIMS
 62
     4
100
AcDbLine
 10
641.724371
 20
550.464818
 30
0.0
 11
645.124371
 21
550.464818
 31
0.0
  0
LINE
  5
C0
100
AcDbEntity
  8
DIMS
 62
     4
100
AcDbLine
 10
582.613188
 20
493.053634
 30
0.0
 11
582.613188
 21
497.853634
 31
0.0
  0
LINE
  5
C1
100
AcDbEntity
  8
DIMS
 62
     4
100
AcDbLine
 10
582.613188
 20
486.253634
 30
0.0
 11
582.613188
 21
481.453634
 31
0.0
  0
LINE
  5
C2
100
AcDbEntity
  8
DIMS
 62
     4
100
AcDbLine
 10
586.013188
 20
489.653634
 30
0.0
 11
590.813188
 21
489.653634
 31
0.0
  0
LINE
  5
C3
100
AcDbEntity
  8
DIMS
 62
     4
100
AcDbLine
 10
579.213188
 20
489.653634
 30
0.0
 11
574.413188
 21
489.653634
 31
0.0
  0
LINE
  5
C4
100
AcDbEntity
  8
DIMS
 62
     4
100
AcDbLine
 10
582.613188
 20
487.953634
 30
0.0
 11
582.613188
 21
491.353634
 31
0.0
  0
LINE
  5
C5
100
AcDbEntity
  8
DIMS
 62
     4
100
AcDbLine
 10
580.913188
 20
489.653634
 30
0.0
 11
584.313188
 21
489.653634
 31
0.0
  0
LINE
  5
C6
100
AcDbEntity
  8
DIMS
 62
     4
100
AcDbLine
 10
582.613188
 20
378.864818
 30
0.0
 11
582.613188
 21
383.664818
 31
0.0
  0
LINE
  5
C7
100
AcDbEntity
  8
DIMS
 62
     4
100
AcDbLine
 10
582.613188
 20
372.064818
 30
0.0
 11
582.613188
 21
367.264818
 31
0.0
  0
LINE
  5
C8
100
AcDbEntity
  8
DIMS
 62
     4
100
AcDbLine
 10
586.013188
 20
375.464818
 30
0.0
 11
590.813188
 21
375.464818
 31
0.0
  0
LINE
  5
C9
100
AcDbEntity
  8
DIMS
 62
     4
100
AcDbLine
 10
579.213188
 20
375.464818
 30
0.0
 11
574.413188
 21
375.464818
 31
0.0
  0
LINE
  5
CA
100
AcDbEntity
  8
DIMS
 62
     4
100
AcDbLine
 10
582.613188
 20
373.764818
 30
0.0
 11
582.613188
 21
377.164818
 31
0.0
  0
LINE
  5
CB
100
AcDbEntity
  8
DIMS
 62
     4
100
AcDbLine
 10
580.913188
 20
375.464818
 30
0.0
 11
584.313188
 21
375.464818
 31
0.0
  0
LINE
  5
CC
100
AcDbEntity
  8
DIMS
 62
     4
100
AcDbLine
 10
468.424371
 20
378.864818
 30
0.0
 11
468.424371
 21
383.664818
 31
0.0
  0
LINE
  5
CD
100
AcDbEntity
  8
DIMS
 62
     4
100
AcDbLine
 10
468.424371
 20
372.064818
 30
0.0
 11
468.424371
 21
367.264818
 31
0.0
  0
LINE
  5
CE
100
AcDbEntity
  8
DIMS
 62
     4
100
AcDbLine
 10
471.824371
 20
375.464818
 30
0.0
 11
476.624371
 21
375.464818
 31
0.0
  0
LINE
  5
CF
100
AcDbEntity
  8
DIMS
 62
     4
100
AcDbLine
 10
465.024371
 20
375.464818
 30
0.0
 11
460.224371
 21
375.464818
 31
0.0
  0
LINE
  5
D0
100
AcDbEntity
  8
DIMS
 62
     4
100
AcDbLine
 10
468.424371
 20
373.764818
 30
0.0
 11
468.424371
 21
377.164818
 31
0.0
  0
LINE
  5
D1
100
AcDbEntity
  8
DIMS
 62
     4
100
AcDbLine
 10
466.724371
 20
375.464818
 30
0.0
 11
470.124371
 21
375.464818
 31
0.0
  0
LINE
  5
D2
100
AcDbEntity
  8
DIMS
 62
     4
100
AcDbLine
 10
232.613188
 20
378.864818
 30
0.0
 11
232.613188
 21
383.664818
 31
0.0
  0
LINE
  5
D3
100
AcDbEntity
  8
DIMS
 62
     4
100
AcDbLine
 10
232.613188
 20
372.064818
 30
0.0
 11
232.613188
 21
367.264818
 31
0.0
  0
LINE
  5
D4
100
AcDbEntity
  8
DIMS
 62
     4
100
AcDbLine
 10
236.013188
 20
375.464818
 30
0.0
 11
240.813188
 21
375.464818
 31
0.0
  0
LINE
  5
D5
100
AcDbEntity
  8
DIMS
 62
     4
100
AcDbLine
 10
229.213188
 20
375.464818
 30
0.0
 11
224.413188
 21
375.464818
 31
0.0
  0
LINE
  5
D6
100
AcDbEntity
  8
DIMS
 62
     4
100
AcDbLine
 10
232.613188
 20
373.764818
 30
0.0
 11
232.613188
 21
377.164818
 31
0.0
  0
LINE
  5
D7
100
AcDbEntity
  8
DIMS
 62
     4
100
AcDbLine
 10
230.913188
 20
375.464818
 30
0.0
 11
234.313188
 21
375.464818
 31
0.0
  0
LINE
  5
D8
100
AcDbEntity
  8
DIMS
 62
     4
100
AcDbLine
 10
468.424371
 20
493.053634
 30
0.0
 11
468.424371
 21
497.853634
 31
0.0
  0
LINE
  5
D9
100
AcDbEntity
  8
DIMS
 62
     4
100
AcDbLine
 10
468.424371
 20
486.253634
 30
0.0
 11
468.424371
 21
481.453634
 31
0.0
  0
LINE
  5
DA
100
AcDbEntity
  8
DIMS
 62
     4
100
AcDbLine
 10
471.824371
 20
489.653634
 30
0.0
 11
476.624371
 21
489.653634
 31
0.0
  0
LINE
  5
DB
100
AcDbEntity
  8
DIMS
 62
     4
100
AcDbLine
 10
465.024371
 20
489.653634
 30
0.0
 11
460.224371
 21
489.653634
 31
0.0
  0
LINE
  5
DC
100
AcDbEntity
  8
DIMS
 62
     4
100
AcDbLine
 10
468.424371
 20
487.953634
 30
0.0
 11
468.424371
 21
491.353634
 31
0.0
  0
LINE
  5
DD
100
AcDbEntity
  8
DIMS
 62
     4
100
AcDbLine
 10
466.724371
 20
489.653634
 30
0.0
 11
470.124371
 21
489.653634
 31
0.0
  0
LINE
  5
DE
100
AcDbEntity
  8
DIMS
 62
     4
100
AcDbLine
 10
407.613188
 20
553.864818
 30
0.0
 11
407.613188
 21
558.664818
 31
0.0
  0
LINE
  5
DF
100
AcDbEntity
  8
DIMS
 62
     4
100
AcDbLine
 10
407.613188
 20
547.064818
 30
0.0
 11
407.613188
 21
542.264818
 31
0.0
  0
LINE
  5
E0
100
AcDbEntity
  8
DIMS
 62
     4
100
AcDbLine
 10
411.013188
 20
550.464818
 30
0.0
 11
415.813188
 21
550.464818
 31
0.0
  0
LINE
  5
E1
100
AcDbEntity
  8
DIMS
 62
     4
100
AcDbLine
 10
404.213188
 20
550.464818
 30
0.0
 11
399.413188
 21
550.464818
 31
0.0
  0
LINE
  5
E2
100
AcDbEntity
  8
DIMS
 62
     4
100
AcDbLine
 10
407.613188
 20
548.764818
 30
0.0
 11
407.613188
 21
552.164818
 31
0.0
  0
LINE
  5
E3
100
AcDbEntity
  8
DIMS
 62
     4
100
AcDbLine
 10
405.913188
 20
550.464818
 30
0.0
 11
409.313188
 21
550.464818
 31
0.0
  0
LINE
  5
E4
100
AcDbEntity
  8
DIMS
 62
     4
100
AcDbLine
 10
293.424371
 20
553.864818
 30
0.0
 11
293.424371
 21
558.664818
 31
0.0
  0
LINE
  5
E5
100
AcDbEntity
  8
DIMS
 62
     4
100
AcDbLine
 10
293.424371
 20
547.064818
 30
0.0
 11
293.424371
 21
542.264818
 31
0.0
  0
LINE
  5
E6
100
AcDbEntity
  8
DIMS
 62
     4
100
AcDbLine
 10
296.824371
 20
550.464818
 30
0.0
 11
301.624371
 21
550.464818
 31
0.0
  0
LINE
  5
E7
100
AcDbEntity
  8
DIMS
 62
     4
100
AcDbLine
 10
290.024371
 20
550.464818
 30
0.0
 11
285.224371
 21
550.464818
 31
0.0
  0
LINE
  5
E8
100
AcDbEntity
  8
DIMS
 62
     4
100
AcDbLine
 10
293.424371
 20
548.764818
 30
0.0
 11
293.424371
 21
552.164818
 31
0.0
  0
LINE
  5
E9
100
AcDbEntity
  8
DIMS
 62
     4
100
AcDbLine
 10
291.724371
 20
550.464818
 30
0.0
 11
295.124371
 21
550.464818
 31
0.0
  0
CIRCLE
  5
EA
100
AcDbEntity
  8
M04
100
AcDbCircle
 10
582.613188
 20
489.653634
 30
0.0
 40
6.5
  0
CIRCLE
  5
EC
100
AcDbEntity
  8
M04
100
AcDbCircle
 10
643.424371
 20
550.464818
 30
0.0
 40
6.5
  0
CIRCLE
  5
ED
100
AcDbEntity
  8
M04
100
AcDbCircle
 10
757.613188
 20
550.464818
 30
0.0
 40
6.5
  0
CIRCLE
  5
EE
100
AcDbEntity
  8
M04
100
AcDbCircle
 10
818.424371
 20
375.464818
 30
0.0
 40
6.5
  0
CIRCLE
  5
EF
100
AcDbEntity
  8
M04
100
AcDbCircle
 10
582.613188
 20
375.464818
 30
0.0
 40
6.5
  0
CIRCLE
  5
F0
100
AcDbEntity
  8
M04
100
AcDbCircle
 10
643.424371
 20
314.653634
 30
0.0
 40
6.5
  0
CIRCLE
  5
F1
100
AcDbEntity
  8
M04
100
AcDbCircle
 10
757.613188
 20
314.653634
 30
0.0
 40
6.5
  0
CIRCLE
  5
F2
100
AcDbEntity
  8
M04
100
AcDbCircle
 10
818.424371
 20
489.653634
 30
0.0
 40
6.5
  0
HATCH
  5
F3
100
AcDbEntity
  8
DIMS
100
AcDbHatch
 10
0.0
 20
0.0
 30
0.0
210
0.0
220
0.0
230
1.0
  2
_U
 70
     0
 71
     1
 91
        1
 92
        7
 72
     0
 73
     1
 93
        4
 10
654.5240520922635
 20
159.3264594854135
 10
548.7437795381628
 20
159.3264594854135
 10
548.7437795381628
 20
156.3264594854135
 10
654.5240520922635
 20
156.3264594854135
 97
        4
330
33A
330
24C
330
348
330
130
 75
     0
 76
     0
 52
135.0
 41
0.8
 77
     0
 78
     1
 53
135.0
 43
0.0
 44
0.0
 45
-0.5656854249492382
 46
-0.565685424949238
 79
     0
 47
0.233369
 98
        1
 10
556.974651
 20
158.006238
  0
CIRCLE
  5
F4
100
AcDbEntity
  8
M04
100
AcDbCircle
 10
468.424371
 20
489.653634
 30
0.0
 40
6.5
  0
CIRCLE
  5
F5
100
AcDbEntity
  8
M04
100
AcDbCircle
 10
407.613188
 20
550.464818
 30
0.0
 40
6.5
  0
CIRCLE
  5
F6
100
AcDbEntity
  8
M04
100
AcDbCircle
 10
293.424371
 20
550.464818
 30
0.0
 40
6.5
  0
CIRCLE
  5
F7
100
AcDbEntity
  8
M04
100
AcDbCircle
 10
232.613188
 20
375.464818
 30
0.0
 40
6.5
  0
CIRCLE
  5
F8
100
AcDbEntity
  8
M04
100
AcDbCircle
 10
468.424371
 20
375.464818
 30
0.0
 40
6.5
  0
HATCH
  5
F9
100
AcDbEntity
  8
DIMS
100
AcDbHatch
 10
0.0
 20
0.0
 30
0.0
210
0.0
220
0.0
230
1.0
  2
_U
 70
     0
 71
     1
 91
        2
 92
        7
 72
     0
 73
     1
 93
        4
 10
964.6446736139777
 20
370.0592260810631
 10
967.6446736139777
 20
370.0592260810631
 10
967.6446736139777
 20
432.5592260810631
 10
964.6446736139775
 20
432.5592260810631
 97
        4
330
642
330
64E
330
5FE
330
648
 92
        7
 72
     0
 73
     1
 93
        4
 10
964.6446736139775
 20
432.5592260810631
 10
967.6446736139778
 20
432.5592260810632
 10
967.6446736139777
 20
555.5592260810631
 10
964.6446736139775
 20
555.5592260810631
 97
        4
330
646
330
64E
330
642
330
648
 75
     0
 76
     0
 52
135.0
 41
0.8
 77
     0
 78
     1
 53
135.0
 43
0.0
 44
0.0
 45
-0.5656854249492382
 46
-0.565685424949238
 79
     0
 47
0.398893
 98
        2
 10
965.727332
 20
429.642783
 10
965.727332
 20
434.4295
  0
HATCH
  5
FA
100
AcDbEntity
  8
DIMS
100
AcDbHatch
 10
0.0
 20
0.0
 30
0.0
210
0.0
220
0.0
230
1.0
  2
_U
 70
     0
 71
     1
 91
        1
 92
        7
 72
     0
 73
     1
 93
        4
 10
904.6446736139776
 20
327.059226081063
 10
901.6446736139782
 20
327.059226081063
 10
901.6446736139782
 20
314.7992260810632
 10
904.6446736139778
 20
314.7992260810632
 97
        4
330
480
330
649
330
647
330
651
 75
     0
 76
     0
 52
135.0
 41
0.8
 77
     0
 78
     1
 53
135.0
 43
0.0
 44
-12.5
 45
-0.5656854249492382
 46
-0.565685424949238
 79
     0
 47
0.398893
 98
        1
 10
903.475565
 20
324.998471
  0
HATCH
  5
FB
100
AcDbEntity
  8
DIMS
100
AcDbHatch
 10
0.0
 20
0.0
 30
0.0
210
0.0
220
0.0
230
1.0
  2
_U
 70
     0
 71
     1
 91
        2
 92
        7
 72
     0
 73
     1
 93
        4
 10
901.644673613978
 20
363.0592260810631
 10
904.6446736139778
 20
363.0592260810633
 10
904.6446736139779
 20
432.5592260810632
 10
901.644673613978
 20
432.5592260810632
 97
        4
330
642
330
649
330
604
330
651
 92
        7
 72
     0
 73
     1
 93
        4
 10
904.6446736139778
 20
555.5592260810633
 10
901.6446736139776
 20
555.5592260810634
 10
901.644673613978
 20
432.5592260810632
 10
904.6446736139778
 20
432.5592260810632
 97
        4
330
645
330
649
330
642
330
651
 75
     0
 76
     0
 52
135.0
 41
0.8
 77
     0
 78
     1
 53
135.0
 43
0.0
 44
0.0
 45
-0.5656854249492382
 46
-0.565685424949238
 79
     0
 47
0.398893
 98
        2
 10
903.076516
 20
382.1745
 10
903.475565
 20
435.227286
  0
HATCH
  5
FC
100
AcDbEntity
  8
DIMS
100
AcDbHatch
 10
0.0
 20
0.0
 30
0.0
210
0.0
220
0.0
230
1.0
  2
_U
 70
     0
 71
     1
 91
        1
 92
        7
 72
     0
 73
     1
 93
        4
 10
245.0187795381628
 20
156.3264594854135
 10
245.0187795381627
 20
159.3264594854135
 10
232.7587795381627
 20
159.3264594854135
 10
232.7587795381628
 20
156.3264594854135
 97
        4
330
33E
330
340
330
348
330
258
 75
     0
 76
     0
 52
135.0
 41
0.8
 77
     0
 78
     1
 53
135.0
 43
-37.5
 44
0.0
 45
-0.5656854249492382
 46
-0.565685424949238
 79
     0
 47
0.322883
 98
        1
 10
242.456154
 20
157.227324
  0
HATCH
  5
FD
100
AcDbEntity
  8
DIMS
100
AcDbHatch
 10
0.0
 20
0.0
 30
0.0
210
0.0
220
0.0
230
1.0
  2
_U
 70
     0
 71
     1
 91
        2
 92
        7
 72
     0
 73
     1
 93
        4
 10
350.5187795381627
 20
159.3264594854135
 10
350.5187795381627
 20
156.3264594854135
 10
502.2937795381628
 20
156.3264594854135
 10
502.2937795381626
 20
159.3264594854135
 97
        4
330
33E
330
251
330
348
330
22B
 92
        7
 72
     0
 73
     1
 93
        4
 10
281.0187795381628
 20
156.3264594854135
 10
350.5187795381627
 20
156.3264594854135
 10
350.5187795381627
 20
159.3264594854135
 10
281.0187795381628
 20
159.3264594854136
 97
        4
330
33E
330
257
330
348
330
251
 75
     0
 76
     0
 52
135.0
 41
0.8
 77
     0
 78
     1
 53
135.0
 43
0.0
 44
0.0
 45
-0.5656854249492382
 46
-0.565685424949238
 79
     0
 47
0.322883
 98
        2
 10
380.735346
 20
157.873092
 10
372.33708
 20
157.550208
  0
HATCH
  5
FE
100
AcDbEntity
  8
DIMS
100
AcDbHatch
 10
0.0
 20
0.0
 30
0.0
210
0.0
220
0.0
230
1.0
  2
_U
 70
     0
 71
     1
 91
        2
 92
        7
 72
     0
 73
     1
 93
        4
 10
350.5187795381628
 20
96.32645948541359
 10
350.5187795381629
 20
93.3264594854136
 10
490.5187795381626
 20
93.3264594854136
 10
490.5187795381626
 20
96.32645948541364
 97
        4
330
347
330
251
330
2D4
330
30B
 92
        7
 72
     0
 73
     1
 93
        4
 10
288.0187795381628
 20
96.32645948541359
 10
288.0187795381627
 20
93.32645948541358
 10
350.5187795381628
 20
93.32645948541358
 10
350.5187795381628
 20
96.32645948541361
 97
        4
330
347
330
300
330
2D4
330
251
 75
     0
 76
     0
 52
135.0
 41
0.8
 77
     0
 78
     1
 53
135.0
 43
-25.0
 44
0.0
 45
-0.5656854249492382
 46
-0.565685424949238
 79
     0
 47
0.322883
 98
        2
 10
415.815252
 20
94.910825
 10
317.94315
 20
94.910825
  0
HATCH
  5
FF
100
AcDbEntity
  8
DIMS
100
AcDbHatch
 10
0.0
 20
0.0
 30
0.0
210
0.0
220
0.0
230
1.0
  2
_U
 70
     0
 71
     1
 91
        1
 92
        7
 72
     0
 73
     1
 93
        4
 10
560.518779538163
 20
96.32645948541362
 10
560.5187795381628
 20
93.32645948541353
 10
738.8446813459672
 20
93.32645948541356
 10
738.8446813459673
 20
96.32645948541352
 97
        4
330
32D
330
227
330
33C
330
2B8
 75
     0
 76
     0
 52
135.0
 41
0.8
 77
     0
 78
     1
 53
135.0
 43
25.0
 44
0.0
 45
-0.5656854249492382
 46
-0.565685424949238
 79
     0
 47
0.348279
 98
        1
 10
666.063815
 20
95.497093
  0
HATCH
  5
100
100
AcDbEntity
  8
DIMS
100
AcDbHatch
 10
0.0
 20
0.0
 30
0.0
210
0.0
220
0.0
230
1.0
  2
_U
 70
     0
 71
     1
 91
        1
 92
        7
 72
     0
 73
     1
 93
        4
 10
670.5240520922634
 20
159.3264594854135
 10
670.5240520922635
 20
156.3264594854135
 10
738.8446813459674
 20
156.3264594854135
 10
738.844681345967
 20
159.3264594854135
 97
        4
330
106
330
131
330
103
330
33F
 75
     0
 76
     0
 52
135.0
 41
0.8
 77
     0
 78
     1
 53
135.0
 43
25.0
 44
0.0
 45
-0.5656854249492382
 46
-0.565685424949238
 79
     0
 47
0.348279
 98
        1
 10
683.484591
 20
157.83899
  0
HATCH
  5
101
100
AcDbEntity
  8
DIMS
100
AcDbHatch
 10
0.0
 20
0.0
 30
0.0
210
0.0
220
0.0
230
1.0
  2
_U
 70
     0
 71
     1
 91
        4
 92
        7
 72
     1
 73
     1
 93
       11
 10
525.5187795381628
 20
127.3264594854133
 42
0.0
 10
525.5187795381629
 20
151.3264594854136
 42
0.0
 10
517.0187795381629
 20
151.3264594854135
 42
0.0
 10
516.0187795381629
 20
151.3264594854135
 42
0.0
 10
516.0187795381629
 20
152.3264594854135
 42
0.0
 10
516.0187795381629
 20
155.6264594854136
 42
0.0
 10
515.3187795381629
 20
156.3264594854135
 42
0.0
 10
350.5187795381627
 20
156.3264594854136
 42
0.0
 10
350.5187795381627
 20
144.8264594854134
 42
-0.4142135623730951
 10
354.5187795381627
 20
140.8264594854134
 42
0.0
 10
354.5187795381627
 20
127.3264594854133
 42
0.0
 97
       11
330
26D
330
267
330
268
330
228
330
26F
330
348
330
251
330
14F
330
254
330
262
330
34A
 92
        7
 72
     1
 73
     1
 93
       46
 10
535.0187795381629
 20
151.3264594854135
 42
0.0
 10
534.0187795381629
 20
151.3264594854135
 42
0.0
 10
525.5187795381628
 20
151.3264594854135
 42
0.0
 10
525.5187795381628
 20
127.3264594854133
 42
0.0
 10
696.5187795381628
 20
127.3264594854133
 42
0.0
 10
696.5187795381628
 20
140.8264594854134
 42
-1.0
 10
704.5187795381628
 20
140.8264594854134
 42
0.0
 10
704.5187795381628
 20
123.3264594854133
 42
-0.4142135623730951
 10
700.5187795381628
 20
119.3264594854133
 42
0.0
 10
529.5187795381628
 20
119.3264594854133
 42
0.0
 10
529.5187795381628
 20
106.3264594854133
 42
0.0
 10
534.5187795381626
 20
106.3264594854133
 42
0.0
 10
535.5187795381625
 20
106.3264594854133
 42
0.0
 10
535.5187795381627
 20
105.3264594854133
 42
0.0
 10
535.5187795381627
 20
96.82645948541328
 42
0.0
 10
536.0187795381627
 20
96.32645948541366
 42
0.0
 10
548.5187795381627
 20
96.32645948541364
 42
0.0
 10
548.5187795381627
 20
103.6264594854135
 42
0.0
 10
548.5187795381627
 20
106.1264594854134
 42
0.0
 10
549.2187795381629
 20
106.1264594854134
 42
0.0
 10
549.2187795381628
 20
107.6264594854134
 42
0.0
 10
551.5187795381628
 20
108.9543651045495
 42
0.0
 10
553.8187795381627
 20
107.6264594854133
 42
0.0
 10
553.8187795381627
 20
106.1264594854134
 42
0.0
 10
554.5187795381628
 20
106.1264594854134
 42
0.0
 10
554.5187795381628
 20
103.6264594854136
 42
0.0
 10
554.5187795381628
 20
96.32645948541364
 42
0.0
 10
727.8446813459673
 20
96.32645948541352
 42
0.0
 10
727.8446813459673
 20
100.3264594854134
 42
-1.0
 10
735.8446813459673
 20
100.3264594854134
 42
0.0
 10
735.8446813459673
 20
96.32645948541352
 42
0.0
 10
738.8446813459673
 20
96.32645948541352
 42
0.0
 10
740.8446813459674
 20
98.32645948541347
 42
0.0
 10
740.8446813459675
 20
154.3264594854135
 42
0.0
 10
738.8446813459676
 20
156.3264594854135
 42
0.0
 10
735.8446813459673
 20
156.3264594854135
 42
0.0
 10
735.8446813459673
 20
152.3264594854136
 42
-1.0
 10
727.8446813459673
 20
152.3264594854136
 42
0.0
 10
727.8446813459675
 20
156.3264594854135
 42
0.0
 10
670.5240520922635
 20
156.3264594854135
 42
0.0
 10
670.5240520922635
 20
150.3264594854135
 42
0.0
 10
654.5240520922635
 20
150.3264594854135
 42
0.0
 10
654.5240520922635
 20
156.3264594854135
 42
0.0
 10
535.7187795381629
 20
156.3264594854135
 42
0.0
 10
535.0187795381629
 20
155.6264594854135
 42
0.0
 10
535.0187795381629
 20
152.3264594854135
 42
0.0
 97
       43
330
265
330
266
330
263
330
317
330
336
330
333
330
332
330
338
330
328
330
30C
330
2CF
330
2B9
330
2C5
330
2BA
330
2C3
330
2C2
330
2BC
330
2BB
330
2D0
330
2B8
330
292
330
294
330
293
330
341
330
345
330
342
330
103
330
29C
330
29D
330
29B
330
133
330
132
330
134
330
348
330
270
330
229
330
26A
330
269
330
26D
330
34A
330
262
330
264
330
146
 92
        7
 72
     0
 73
     1
 93
       20
 10
350.5187795381627
 20
119.3264594854133
 10
350.5187795381627
 20
96.32645948541361
 10
496.5187795381627
 20
96.32645948541364
 10
496.5187795381628
 20
103.6264594854135
 10
496.5187795381628
 20
106.1264594854134
 10
497.2187795381628
 20
106.1264594854134
 10
497.2187795381628
 20
107.6264594854134
 10
499.5187795381628
 20
108.9543651045495
 10
501.8187795381627
 20
107.6264594854134
 10
501.8187795381627
 20
106.1264594854134
 10
502.5187795381628
 20
106.1264594854134
 10
502.5187795381627
 20
103.6264594854136
 10
502.5187795381627
 20
96.32645948541362
 10
515.0187795381628
 20
96.32645948541364
 10
515.5187795381627
 20
96.8264594854132
 10
515.5187795381627
 20
105.3264594854134
 10
515.518779538163
 20
106.3264594854134
 10
516.5187795381629
 20
106.3264594854134
 10
521.5187795381628
 20
106.3264594854134
 10
521.5187795381626
 20
119.3264594854133
 97
       18
330
253
330
251
330
347
330
2B5
330
2A0
330
2AA
330
2A1
330
2A7
330
2A8
330
29F
330
29E
330
2B4
330
327
330
337
330
330
330
331
330
336
330
313
 92
       24
 93
        4
 72
     1
 10
695.377306
 20
105.698025
 11
709.577306
 21
105.698025
 72
     1
 10
709.577306
 20
105.698025
 11
709.577306
 21
108.698025
 72
     1
 10
709.577306
 20
108.698025
 11
695.377306
 21
108.698025
 72
     1
 10
695.377306
 20
108.698025
 11
695.377306
 21
105.698025
 97
        1
330
142
 75
     0
 76
     0
 52
45.0
 41
6.0
 77
     0
 78
     1
 53
45.0
 43
0.0
 44
0.0
 45
-4.242640687119284
 46
4.242640687119285
 79
     0
 47
0.348279
 98
        3
 10
494.032458
 20
137.638823
 10
543.855881
 20
141.469889
 10
457.448827
 20
111.866195
  0
HATCH
  5
102
100
AcDbEntity
  8
DIMS
100
AcDbHatch
 10
0.0
 20
0.0
 30
0.0
210
0.0
220
0.0
230
1.0
  2
_U
 70
     0
 71
     1
 91
        1
 92
        7
 72
     1
 73
     1
 93
       10
 10
964.6446736139777
 20
555.5592260810631
 42
0.0
 10
962.6446736139774
 20
557.5592260810631
 42
0.0
 10
906.6446736139775
 20
557.5592260810631
 42
0.0
 10
904.6446736139779
 20
555.5592260810633
 42
0.0
 10
904.6446736139781
 20
432.5592260810632
 42
0.0
 10
916.1446736139776
 20
432.5592260810632
 42
-0.4142135623730992
 10
920.1446736139775
 20
436.5592260810632
 42
0.0
 10
937.6446736139776
 20
436.5592260810631
 42
-0.4142135623730909
 10
941.6446736139775
 20
432.5592260810632
 42
0.0
 10
964.6446736139775
 20
432.5592260810632
 42
0.0
 97
        9
330
64B
330
650
330
64C
330
651
330
642
330
155
330
640
330
153
330
64E
 75
     0
 76
     0
 52
45.0
 41
6.0
 77
     0
 78
     1
 53
45.0
 43
0.0
 44
0.0
 45
-4.242640687119284
 46
4.242640687119285
 79
     0
 47
0.246375
 98
        1
 10
940.391405
 20
517.907485
  0
LINE
  5
103
102
{ACAD_REACTORS
330
101
330
100
102
}
100
AcDbEntity
  8
M01
100
AcDbLine
 10
666.524052
 20
156.326459
 30
0.0
 11
738.844681
 21
156.326459
 31
0.0
  0
LINE
  5
105
100
AcDbEntity
  8
M04
100
AcDbLine
 10
666.524052
 20
163.326459
 30
0.0
 11
747.844681
 21
163.326459
 31
0.0
  0
LINE
  5
106
102
{ACAD_REACTORS
330
100
102
}
100
AcDbEntity
  8
M02
100
AcDbLine
 10
666.524052
 20
159.326459
 30
0.0
 11
738.844681
 21
159.326459
 31
0.0
  0
DIMENSION
  5
108
100
AcDbEntity
  8
DIMS
100
AcDbDimension
  2
*D12
 10
658.524052
 20
191.002624
 30
0.0
 11
615.738338
 21
194.002624
 31
0.0
 12
25.0
 22
0.0
 32
0.0
  1
%%c<> H7
  3
DIM1
100
AcDbAlignedDimension
 13
666.524052
 23
176.326459
 33
0.0
 14
658.524052
 24
176.326459
 34
0.0
100
AcDbRotatedDimension
1001
ACAD
1000
DSTYLE
1002
{
1070
   144
1040
1.0
1002
}
  0
LINE
  5
116
100
AcDbEntity
  8
M04
100
AcDbLine
 10
662.524052
 20
178.635861
 30
0.0
 11
666.524052
 21
176.326459
 31
0.0
  0
LINE
  5
117
100
AcDbEntity
  8
M04
100
AcDbLine
 10
658.524052
 20
176.326459
 30
0.0
 11
662.524052
 21
178.635861
 31
0.0
  0
LINE
  5
118
100
AcDbEntity
  8
M04
100
AcDbLine
 10
658.524052
 20
173.326459
 30
0.0
 11
658.524052
 21
176.326459
 31
0.0
  0
LINE
  5
119
100
AcDbEntity
  8
M04
100
AcDbLine
 10
666.524052
 20
176.326459
 30
0.0
 11
658.524052
 21
176.326459
 31
0.0
  0
LINE
  5
11A
100
AcDbEntity
  8
M04
100
AcDbLine
 10
666.524052
 20
173.326459
 30
0.0
 11
666.524052
 21
176.326459
 31
0.0
  0
ARC
  5
11B
100
AcDbEntity
  8
M05
100
AcDbCircle
 10
662.524052
 20
163.988755
 30
0.0
 40
10.837705
100
AcDbArc
 50
71.372238
 51
108.627762
  0
LINE
  5
11D
100
AcDbEntity
  8
M05
100
AcDbLine
 10
658.524052
 20
173.326459
 30
0.0
 11
659.062289
 21
174.258713
 31
0.0
  0
LINE
  5
11E
100
AcDbEntity
  8
M05
100
AcDbLine
 10
665.985815
 20
174.258713
 30
0.0
 11
659.062289
 21
174.258713
 31
0.0
  0
LINE
  5
11F
100
AcDbEntity
  8
M05
100
AcDbLine
 10
666.524052
 20
173.326459
 30
0.0
 11
665.985815
 21
174.258713
 31
0.0
  0
LINE
  5
120
100
AcDbEntity
  8
M05
100
AcDbLine
 10
666.524052
 20
173.326459
 30
0.0
 11
658.524052
 21
173.326459
 31
0.0
  0
LINE
  5
121
100
AcDbEntity
  8
M04
100
AcDbLine
 10
658.524052
 20
163.826459
 30
0.0
 11
658.024052
 21
163.326459
 31
0.0
  0
LINE
  5
122
100
AcDbEntity
  8
M04
100
AcDbLine
 10
666.524052
 20
163.826459
 30
0.0
 11
667.024052
 21
163.326459
 31
0.0
  0
ARC
  5
123
100
AcDbEntity
  8
M05
100
AcDbCircle
 10
662.524052
 20
164.459793
 30
0.0
 40
13.633333
100
AcDbArc
 50
252.938469
 51
287.061531
  0
LINE
  5
124
100
AcDbEntity
  8
M05
100
AcDbLine
 10
666.524052
 20
151.426459
 30
0.0
 11
658.524052
 21
151.426459
 31
0.0
  0
LINE
  5
125
100
AcDbEntity
  8
M05
100
AcDbLine
 10
658.524052
 20
173.326459
 30
0.0
 11
658.524052
 21
151.426459
 31
0.0
  0
LINE
  5
126
100
AcDbEntity
  8
M05
100
AcDbLine
 10
666.524052
 20
173.326459
 30
0.0
 11
666.524052
 21
151.426459
 31
0.0
  0
LINE
  5
127
100
AcDbEntity
  8
CENTRE
100
AcDbLine
 10
662.524052
 20
183.672577
 30
0.0
 11
662.524052
 21
145.582878
 31
0.0
  0
LINE
  5
12A
100
AcDbEntity
  8
DIMS
 62
     4
100
AcDbLine
 10
937.644674
 20
435.959226
 30
0.0
 11
937.644674
 21
438.259226
 31
0.0
  0
LINE
  5
12B
100
AcDbEntity
  8
DIMS
 62
     4
100
AcDbLine
 10
937.644674
 20
429.159226
 30
0.0
 11
937.644674
 21
426.859226
 31
0.0
  0
LINE
  5
12C
100
AcDbEntity
  8
DIMS
 62
     4
100
AcDbLine
 10
937.644674
 20
430.859226
 30
0.0
 11
937.644674
 21
434.259226
 31
0.0
  0
LINE
  5
12D
100
AcDbEntity
  8
DIMS
 62
     4
100
AcDbLine
 10
703.91878
 20
140.826459
 30
0.0
 11
706.21878
 21
140.826459
 31
0.0
  0
LINE
  5
12E
100
AcDbEntity
  8
DIMS
 62
     4
100
AcDbLine
 10
697.11878
 20
140.826459
 30
0.0
 11
694.81878
 21
140.826459
 31
0.0
  0
LINE
  5
12F
100
AcDbEntity
  8
DIMS
 62
     4
100
AcDbLine
 10
698.81878
 20
140.826459
 30
0.0
 11
702.21878
 21
140.826459
 31
0.0
  0
LINE
  5
130
102
{ACAD_REACTORS
330
F3
102
}
100
AcDbEntity
  8
M02
100
AcDbLine
 10
654.524052
 20
156.326459
 30
0.0
 11
654.524052
 21
159.326459
 31
0.0
  0
LINE
  5
131
102
{ACAD_REACTORS
330
100
102
}
100
AcDbEntity
  8
M02
100
AcDbLine
 10
670.524052
 20
156.326459
 30
0.0
 11
670.524052
 21
159.326459
 31
0.0
  0
LINE
  5
132
102
{ACAD_REACTORS
330
101
102
}
100
AcDbEntity
  8
M01
100
AcDbLine
 10
654.524052
 20
150.326459
 30
0.0
 11
670.524052
 21
150.326459
 31
0.0
  0
LINE
  5
133
102
{ACAD_REACTORS
330
101
102
}
100
AcDbEntity
  8
M01
100
AcDbLine
 10
670.524052
 20
156.326459
 30
0.0
 11
670.524052
 21
150.326459
 31
0.0
  0
LINE
  5
134
102
{ACAD_REACTORS
330
101
102
}
100
AcDbEntity
  8
M01
100
AcDbLine
 10
654.524052
 20
156.326459
 30
0.0
 11
654.524052
 21
150.326459
 31
0.0
  0
ARC
  5
135
100
AcDbEntity
  8
M01
100
AcDbCircle
 10
666.514052
 20
432.559226
 30
0.0
 40
4.0
100
AcDbArc
 50
270.0
 51
90.0
  0
LINE
  5
136
100
AcDbEntity
  8
DIMS
 62
     4
100
AcDbLine
 10
662.514052
 20
429.159226
 30
0.0
 11
662.514052
 21
426.859226
 31
0.0
  0
LINE
  5
137
100
AcDbEntity
  8
DIMS
 62
     4
100
AcDbLine
 10
662.514052
 20
435.959226
 30
0.0
 11
662.514052
 21
438.259226
 31
0.0
  0
LINE
  5
138
100
AcDbEntity
  8
DIMS
 62
     4
100
AcDbLine
 10
662.514052
 20
434.259226
 30
0.0
 11
662.514052
 21
430.859226
 31
0.0
  0
LWPOLYLINE
  5
139
100
AcDbEntity
  8
M01
100
AcDbPolyline
 90
        2
 70
     0
 43
4.0
 10
662.514052
 20
434.559226
 42
0.414214
 10
660.514052
 20
432.559226
  0
LWPOLYLINE
  5
13A
100
AcDbEntity
  8
M01
100
AcDbPolyline
 90
        2
 70
     0
 43
4.0
 10
662.514052
 20
430.559226
 42
0.414214
 10
664.514052
 20
432.559226
  0
CIRCLE
  5
13B
100
AcDbEntity
  8
M01
100
AcDbCircle
 10
662.514052
 20
432.559226
 30
0.0
 40
4.0
  0
LINE
  5
13C
100
AcDbEntity
  8
M01
100
AcDbLine
 10
658.514052
 20
428.559226
 30
0.0
 11
666.514052
 21
428.559226
 31
0.0
  0
LINE
  5
13D
100
AcDbEntity
  8
M01
100
AcDbLine
 10
658.514052
 20
436.559226
 30
0.0
 11
666.514052
 21
436.559226
 31
0.0
  0
ARC
  5
13E
100
AcDbEntity
  8
M01
100
AcDbCircle
 10
658.514052
 20
432.559226
 30
0.0
 40
4.0
100
AcDbArc
 50
90.0
 51
270.0
  0
WIPEOUT
  5
13F
100
AcDbEntity
  8
TEXT
 92
      140
310
8C000000010000008400000006000000050000006AE77017420B8D409F214A06F4637440000000000000000021554CCEAF7E8D409E214A06F4637440000000000000000021554CCEAF7E8D409E214A06F4A3744000000000000000006AE77017420B8D409F214A06F4A3744000000000000000006AE77017420B8D409F214A
310
06F46374400000000000000000
100
AcDbWipeout
 90
        0
 10
929.407271
 20
326.247076
 30
0.0
 11
19.714286
 21
0.0
 31
0.0
 12
0.0
 22
19.714286
 32
0.0
 13
0.0
 23
0.0
340
0
 70
     7
280
     1
281
    50
282
    50
283
     0
360
0
 71
     2
 91
        5
 14
-0.5
 24
0.5
 14
0.231884
 24
0.5
 14
0.231884
 24
0.297101
 14
-0.5
 24
0.297101
 14
-0.5
 24
0.5
  0
TEXT
  5
140
100
AcDbEntity
  8
TEXT
100
AcDbText
 10
930.407271
 20
327.247076
 30
0.0
 40
2.0
  1
MM010135
 41
0.9
100
AcDbText
  0
WIPEOUT
  5
141
100
AcDbEntity
  8
TEXT
 92
      140
310
8C00000001000000840000000600000005000000BB3CE0B804B78540AD3E9D6FAC4C5A40000000000000000072AABB6F722A8640AB3E9D6FAC4C5A40000000000000000072AABB6F722A8640AB3E9D6FAC4C5B400000000000000000BB3CE0B804B78540AC3E9D6FAC4C5B400000000000000000BB3CE0B804B78540AD3E9D
310
6FAC4C5A400000000000000000
100
AcDbWipeout
 90
        0
 10
677.091591
 20
80.198025
 30
0.0
 11
32.214286
 21
0.0
 31
0.0
 12
0.0
 22
32.214286
 32
0.0
 13
0.0
 23
0.0
340
0
 70
     7
280
     1
281
    50
282
    50
283
     0
360
0
 71
     2
 91
        5
 14
0.052106
 24
-0.276053
 14
0.5
 24
-0.276053
 14
0.5
 24
-0.400222
 14
0.052106
 24
-0.400222
 14
0.052106
 24
-0.276053
  0
TEXT
  5
142
102
{ACAD_REACTORS
330
101
102
}
100
AcDbEntity
  8
TEXT
100
AcDbText
 10
695.877306
 20
106.198025
 30
0.0
 40
2.0
  1
MM010135
 41
0.9
100
AcDbText
  0
HATCH
  5
143
100
AcDbEntity
  8
HATCH
100
AcDbHatch
 10
0.0
 20
0.0
 30
0.0
210
0.0
220
0.0
230
1.0
  2
_U
 70
     0
 71
     0
 91
       10
 92
        7
 72
     1
 73
     1
 93
       25
 10
263.0187795381627
 20
136.8264594854134
 42
-0.4142135623730951
 10
259.0187795381627
 20
140.8264594854134
 42
0.0
 10
259.0187795381627
 20
156.3264594854135
 42
0.0
 10
244.0187795381627
 20
156.3264594854135
 42
0.0
 10
244.0187795381627
 20
152.3264594854136
 42
-1.0
 10
236.0187795381627
 20
152.3264594854136
 42
0.0
 10
236.0187795381627
 20
156.3264594854135
 42
0.0
 10
232.7587795381628
 20
156.3264594854135
 42
0.0
 10
230.7587795381627
 20
154.3264594854136
 42
0.0
 10
230.7587795381627
 20
98.3264594854136
 42
0.0
 10
232.7587795381628
 20
96.32645948541359
 42
0.0
 10
236.0187795381627
 20
96.32645948541359
 42
0.0
 10
236.0187795381627
 20
100.3264594854134
 42
-1.0
 10
244.0187795381627
 20
100.3264594854134
 42
0.0
 10
244.0187795381627
 20
96.32645948541357
 42
0.0
 10
249.0187795381628
 20
96.32645948541359
 42
0.0
 10
249.0187795381627
 20
96.62645948541358
 42
0.0
 10
249.7187795381628
 20
97.32645948541353
 42
0.0
 10
286.3187795381627
 20
97.32645948541353
 42
0.0
 10
287.0187795381627
 20
96.62645948541353
 42
0.0
 10
287.0187795381627
 20
96.32645948541357
 42
0.0
 10
350.5187795381627
 20
96.32645948541357
 42
0.0
 10
350.5187795381627
 20
119.3264594854133
 42
-0.4142135623730951
 10
346.5187795381627
 20
123.3264594854133
 42
0.0
 10
346.5187795381627
 20
136.8264594854134
 42
0.0
 97
        0
 92
        7
 72
     0
 73
     1
 93
        4
 10
350.5187795381627
 20
144.8264594854134
 10
350.5187795381627
 20
156.3264594854135
 10
267.0187795381627
 20
156.3264594854136
 10
267.0187795381627
 20
144.8264594854134
 97
        0
 92
       23
 72
     0
 73
     1
 93
        4
 10
255.1598975507058
 20
96.32645948541359
 10
254.8598975507057
 20
96.62645948541355
 10
249.0187795381628
 20
96.62645948541353
 10
249.0187795381628
 20
96.32645948541359
 97
        0
 92
       23
 72
     0
 73
     1
 93
        4
 10
254.8598975507057
 20
96.62645948541353
 10
254.1598975507056
 20
97.32645948541351
 10
249.7187795381628
 20
97.32645948541353
 10
249.0187795381627
 20
96.62645948541353
 97
        0
 92
       23
 72
     0
 73
     1
 93
        4
 10
263.0187795381627
 20
96.62645948541353
 10
263.0187795381627
 20
97.32645948541353
 10
254.1598975507056
 20
97.32645948541353
 10
254.8598975507057
 20
96.62645948541353
 97
        0
 92
       23
 72
     0
 73
     1
 93
        4
 10
263.0187795381627
 20
96.32645948541359
 10
263.0187795381627
 20
96.62645948541353
 10
254.8598975507058
 20
96.62645948541353
 10
255.1598975507058
 20
96.32645948541359
 97
        0
 92
       23
 72
     0
 73
     1
 93
        4
 10
271.1776615256199
 20
96.62645948541355
 10
271.87766152562
 20
97.32645948541353
 10
263.0187795381627
 20
97.3264594854135
 10
263.0187795381627
 20
96.62645948541353
 97
        0
 92
       23
 72
     0
 73
     1
 93
        4
 10
270.8776615256199
 20
96.32645948541359
 10
271.1776615256198
 20
96.62645948541353
 10
263.0187795381628
 20
96.62645948541355
 10
263.0187795381628
 20
96.32645948541359
 97
        0
 92
       22
 72
     0
 73
     1
 93
        4
 10
287.0187795381628
 20
96.62645948541353
 10
286.3187795381627
 20
97.32645948541353
 10
271.8776615256199
 20
97.32645948541351
 10
271.1776615256198
 20
96.62645948541353
 97
        0
 92
       22
 72
     0
 73
     1
 93
        4
 10
287.0187795381628
 20
96.32645948541359
 10
287.0187795381628
 20
96.62645948541355
 10
271.1776615256198
 20
96.62645948541356
 10
270.8776615256198
 20
96.32645948541359
 97
        0
 75
     0
 76
     0
 52
135.0
 41
6.0
 77
     0
 78
     1
 53
135.0
 43
-37.5
 44
0.0
 45
-4.242640687119285
 46
-4.242640687119284
 79
     0
 47
0.037627
 98
       10
 10
270.57619
 20
129.777881
 10
311.70229
 20
149.972244
 10
253.647944
 20
96.391019
 10
253.271531
 20
96.84254
 10
255.605298
 20
96.84254
 10
255.642941
 20
96.428646
 10
266.822437
 20
96.84254
 10
266.483667
 20
96.428646
 10
272.468651
 20
96.804913
 10
271.904029
 20
96.428646
  0
HATCH
  5
145
100
AcDbEntity
  8
HATCH
100
AcDbHatch
 10
0.0
 20
0.0
 30
0.0
210
0.0
220
0.0
230
1.0
  2
_U
 70
     0
 71
     0
 91
       10
 92
       23
 72
     0
 73
     1
 93
        4
 10
916.1446736139776
 20
432.5592260810632
 10
904.6446736139778
 20
432.5592260810632
 10
904.6446736139778
 20
349.0592260810632
 10
916.1446736139774
 20
349.0592260810632
 97
        0
 92
        7
 72
     1
 73
     1
 93
       27
 10
924.1446736139776
 20
345.0592260810632
 42
-0.4142135623730951
 10
920.1446736139775
 20
341.0592260810632
 42
0.0
 10
904.6446736139778
 20
341.0592260810632
 42
0.0
 10
904.6446736139778
 20
326.0592260810633
 42
0.0
 10
908.6446736139775
 20
326.0592260810632
 42
-0.4142135623730868
 10
912.6446736139774
 20
322.0592260810632
 42
-0.4142135623730951
 10
908.6446736139775
 20
318.0592260810632
 42
0.0
 10
904.6446736139778
 20
318.0592260810632
 42
0.0
 10
904.6446736139776
 20
314.7992260810634
 42
0.0
 10
906.6446736139775
 20
312.7992260810632
 42
0.0
 10
962.6446736139776
 20
312.7992260810632
 42
0.0
 10
964.6446736139775
 20
314.7992260810632
 42
0.0
 10
964.6446736139775
 20
318.0592260810634
 42
0.0
 10
960.6446736139774
 20
318.0592260810632
 42
-0.4142135623731034
 10
956.6446736139774
 20
322.0592260810632
 42
-0.4142135623730951
 10
960.6446736139773
 20
326.0592260810632
 42
0.0
 10
964.6446736139775
 20
326.0592260810632
 42
0.0
 10
964.6446736139775
 20
331.0592260810632
 42
0.0
 10
964.3446736139777
 20
331.0592260810632
 42
0.0
 10
963.6446736139777
 20
331.7592260810631
 42
0.0
 10
963.6446736139777
 20
368.3592260810631
 42
0.0
 10
964.3446736139777
 20
369.0592260810632
 42
0.0
 10
964.6446736139775
 20
369.0592260810632
 42
0.0
 10
964.6446736139775
 20
432.5592260810631
 42
0.0
 10
941.6446736139775
 20
432.5592260810631
 42
-0.4142135623730909
 10
937.6446736139776
 20
428.5592260810632
 42
0.0
 10
924.1446736139774
 20
428.5592260810632
 42
0.0
 97
        0
 92
       22
 72
     0
 73
     1
 93
        4
 10
963.6446736139777
 20
353.9181080685204
 10
964.3446736139777
 20
353.2181080685203
 10
964.3446736139777
 20
369.0592260810631
 10
963.6446736139777
 20
368.3592260810633
 97
        0
 92
       22
 72
     0
 73
     1
 93
        4
 10
964.6446736139775
 20
369.0592260810632
 10
964.3446736139777
 20
369.0592260810632
 10
964.3446736139777
 20
353.2181080685203
 10
964.6446736139775
 20
352.9181080685202
 97
        0
 92
       22
 72
     0
 73
     1
 93
        4
 10
963.6446736139776
 20
345.0592260810631
 10
964.3446736139775
 20
345.0592260810632
 10
964.3446736139777
 20
353.2181080685206
 10
963.6446736139777
 20
353.9181080685203
 97
        0
 92
        7
 72
     0
 73
     1
 93
        4
 10
964.6446736139777
 20
352.9181080685205
 10
964.3446736139777
 20
353.2181080685202
 10
964.3446736139777
 20
345.0592260810631
 10
964.6446736139775
 20
345.0592260810631
 97
        0
 92
       23
 72
     0
 73
     1
 93
        4
 10
964.3446736139775
 20
345.0592260810631
 10
963.6446736139777
 20
345.0592260810632
 10
963.6446736139777
 20
336.2003440936059
 10
964.3446736139777
 20
336.9003440936061
 97
        0
 92
       23
 72
     0
 73
     1
 93
        4
 10
964.3446736139775
 20
336.9003440936062
 10
964.6446736139775
 20
337.2003440936063
 10
964.6446736139775
 20
345.0592260810631
 10
964.3446736139777
 20
345.0592260810632
 97
        0
 92
       22
 72
     0
 73
     1
 93
        4
 10
963.6446736139774
 20
331.7592260810634
 10
964.3446736139777
 20
331.059226081063
 10
964.3446736139777
 20
336.900344093606
 10
963.6446736139777
 20
336.2003440936061
 97
        0
 92
       23
 72
     0
 73
     1
 93
        4
 10
964.6446736139775
 20
337.200344093606
 10
964.3446736139777
 20
336.9003440936062
 10
964.3446736139777
 20
331.0592260810632
 10
964.6446736139775
 20
331.0592260810632
 97
        0
 75
     0
 76
     0
 52
135.0
 41
6.0
 77
     0
 78
     1
 53
135.0
 43
0.0
 44
-12.5
 45
-4.242640687119285
 46
-4.242640687119284
 79
     0
 47
0.056741
 98
       10
 10
912.725729
 20
401.302248
 10
936.726334
 20
393.652885
 10
963.90269
 20
355.833338
 10
964.583848
 20
355.94682
 10
963.959453
 20
352.031694
 10
964.583848
 20
352.201917
 10
964.07298
 20
340.45654
 10
964.470321
 20
340.626764
 10
963.959453
 20
333.874589
 10
964.583848
 20
334.385259
  0
CIRCLE
  5
146
102
{ACAD_REACTORS
330
101
102
}
100
AcDbEntity
  8
M01
100
AcDbCircle
 10
700.51878
 20
140.826459
 30
0.0
 40
4.0
  0
INSERT
  5
147
100
AcDbEntity
  8
DIMS
100
AcDbBlockReference
  2
ARROW1
 10
821.003974
 20
457.461469
 30
0.0
 41
10.0
 42
10.0
 43
10.0
 50
90.0
  0
LINE
  5
14E
100
AcDbEntity
  8
DIMS
100
AcDbLine
 10
821.003974
 20
457.461469
 30
0.0
 11
821.003974
 21
432.559226
 31
0.0
  0
ARC
  5
14F
102
{ACAD_REACTORS
330
101
102
}
100
AcDbEntity
  8
M01
100
AcDbCircle
 10
350.51878
 20
140.826459
 30
0.0
 40
4.0
100
AcDbArc
 50
0.0
 51
90.0
  0
LINE
  5
150
100
AcDbEntity
  8
CENTRE
100
AcDbLine
 10
956.346847
 20
345.059226
 30
0.0
 11
993.387941
 21
345.059226
 31
0.0
  0
LINE
  5
151
100
AcDbEntity
  8
DIMS
100
AcDbLine
 10
222.936784
 20
585.043464
 30
0.0
 11
222.936784
 21
560.141221
 31
0.0
  0
INSERT
  5
152
100
AcDbEntity
  8
DIMS
100
AcDbBlockReference
  2
ARROW1
 10
222.936784
 20
585.043464
 30
0.0
 41
10.0
 42
10.0
 43
10.0
 50
90.0
  0
CIRCLE
  5
153
102
{ACAD_REACTORS
330
102
102
}
100
AcDbEntity
  8
M01
100
AcDbCircle
 10
937.644674
 20
432.559226
 30
0.0
 40
4.0
  0
LINE
  5
154
100
AcDbEntity
  8
M01
100
AcDbLine
 10
920.144674
 20
432.559226
 30
0.0
 11
924.144674
 21
428.559226
 31
0.0
  0
ARC
  5
155
102
{ACAD_REACTORS
330
102
102
}
100
AcDbEntity
  8
M01
100
AcDbCircle
 10
920.144674
 20
432.559226
 30
0.0
 40
4.0
100
AcDbArc
 50
90.0
 51
180.0
  0
LINE
  5
156
100
AcDbEntity
  8
M01
100
AcDbLine
 10
916.144674
 20
349.059226
 30
0.0
 11
920.144674
 21
345.059226
 31
0.0
  0
ARC
  5
157
100
AcDbEntity
  8
M01
100
AcDbCircle
 10
920.144674
 20
345.059226
 30
0.0
 40
4.0
100
AcDbArc
 50
270.0
 51
0.0
  0
LINE
  5
158
100
AcDbEntity
  8
CENTRE
100
AcDbLine
 10
920.144674
 20
440.559226
 30
0.0
 11
920.144674
 21
337.059226
 31
0.0
  0
LINE
  5
159
100
AcDbEntity
  8
M01
100
AcDbLine
 10
924.144674
 20
428.559226
 30
0.0
 11
924.144674
 21
345.059226
 31
0.0
  0
LINE
  5
15A
100
AcDbEntity
  8
M01
100
AcDbLine
 10
916.144674
 20
432.559226
 30
0.0
 11
916.144674
 21
349.059226
 31
0.0
  0
DIMENSION
  5
15B
100
AcDbEntity
  8
DIMS
100
AcDbDimension
  2
*D11
 10
571.285879
 20
181.726459
 30
0.0
 11
571.285879
 21
171.027876
 31
0.0
 70
   128
  3
DIM1
100
AcDbAlignedDimension
 13
548.74378
 23
156.326459
 33
0.0
 14
547.74378
 24
181.726459
 34
0.0
 50
270.0
100
AcDbRotatedDimension
1001
ACAD
1000
DSTYLE
1002
{
1070
   288
1070
     1
1070
   144
1040
1.0
1002
}
  0
DIMENSION
  5
168
100
AcDbEntity
  8
DIMS
100
AcDbDimension
  2
*D10
 10
548.74378
 20
213.474272
 30
0.0
 11
526.824232
 21
213.474272
 31
0.0
 70
   128
  1
%%c46.5
  3
DIM1
100
AcDbAlignedDimension
 13
502.29378
 23
176.149109
 33
0.0
 14
548.74378
 24
176.149109
 34
0.0
100
AcDbRotatedDimension
1001
ACAD
1000
DSTYLE
1002
{
1070
   288
1070
     1
1070
   144
1040
1.0
1002
}
  0
DIMENSION
  5
175
100
AcDbEntity
  8
DIMS
100
AcDbDimension
  2
*D9
 10
503.29378
 20
203.433041
 30
0.0
 11
526.483991
 21
203.433041
 31
0.0
 70
   128
  1
%%c<> H7
  3
DIM1
100
AcDbAlignedDimension
 13
547.74378
 23
181.726459
 33
0.0
 14
503.29378
 24
181.726459
 34
0.0
100
AcDbRotatedDimension
1001
ACAD
1000
DSTYLE
1002
{
1070
   288
1070
     1
1070
   144
1040
1.0
1002
}
  0
DIMENSION
  5
182
100
AcDbEntity
  8
DIMS
100
AcDbDimension
  2
*D8
 10
474.086984
 20
176.726459
 30
0.0
 11
474.086984
 21
170.026459
 31
0.0
 12
-498.243552
 22
14.952199
 32
0.0
 70
   128
  1
13.4
  3
DIM1
100
AcDbAlignedDimension
 13
493.51878
 23
163.326459
 33
0.0
 14
503.29378
 24
176.726459
 34
0.0
 50
270.0
100
AcDbRotatedDimension
1001
ACAD
1000
DSTYLE
1002
{
1070
   288
1070
     1
1070
   144
1040
1.0
1002
}
  0
HATCH
  5
18F
100
AcDbEntity
  8
HATCH
100
AcDbHatch
 10
0.0
 20
0.0
 30
0.0
210
0.0
220
0.0
230
1.0
  2
_U
 70
     0
 71
     1
 91
        1
 92
        7
 72
     1
 73
     1
 93
        2
 10
956.6446736139774
 20
322.0592260810632
 42
1.0
 10
964.6446736139774
 20
322.0592260810632
 42
1.0
 97
        1
330
4D2
 75
     0
 76
     0
 52
45.0
 41
0.8
 77
     0
 78
     1
 53
45.0
 43
-110.841447
 44
-12.5
 45
-0.565685424949238
 46
0.565685424949238
 79
     0
 47
0.31172
 98
        1
 10
961.936806
 20
323.704284
  0
HATCH
  5
190
100
AcDbEntity
  8
HATCH
100
AcDbHatch
 10
0.0
 20
0.0
 30
0.0
210
0.0
220
0.0
230
1.0
  2
_U
 70
     0
 71
     0
 91
        1
 92
        7
 72
     1
 73
     1
 93
        2
 10
904.6446736139774
 20
322.0592260810632
 42
1.0
 10
912.6446736139774
 20
322.0592260810632
 42
1.0
 97
        0
 75
     0
 76
     0
 52
45.0
 41
0.8
 77
     0
 78
     1
 53
45.0
 43
-110.841447
 44
-12.5
 45
-0.565685424949238
 46
0.565685424949238
 79
     0
 47
0.31172
 98
        1
 10
907.052533
 20
323.704284
  0
LINE
  5
191
100
AcDbEntity
  8
M01
100
AcDbLine
 10
958.632685
 20
615.794894
 30
0.0
 11
960.612394
 21
617.001623
 31
0.0
  0
LINE
  5
192
100
AcDbEntity
  8
M01
100
AcDbLine
 10
966.366653
 20
627.248121
 30
0.0
 11
966.366653
 21
635.822933
 31
0.0
  0
LINE
  5
193
100
AcDbEntity
  8
M01
100
AcDbLine
 10
962.366653
 20
627.248121
 30
0.0
 11
962.366653
 21
635.822933
 31
0.0
  0
ARC
  5
194
100
AcDbEntity
  8
M01
100
AcDbCircle
 10
954.366653
 20
627.248121
 30
0.0
 40
12.0
100
AcDbArc
 50
301.364349
 51
0.0
  0
ARC
  5
195
100
AcDbEntity
  8
M01
100
AcDbCircle
 10
954.366653
 20
627.248121
 30
0.0
 40
8.0
100
AcDbArc
 50
308.846454
 51
0.0
  0
LINE
  5
196
100
AcDbEntity
  8
M01
100
AcDbLine
 10
945.001325
 20
612.170441
 30
0.0
 11
955.228737
 21
618.404549
 31
0.0
  0
LINE
  5
197
100
AcDbEntity
  8
M01
100
AcDbLine
 10
947.083238
 20
608.754942
 30
0.0
 11
947.406771
 21
608.952151
 31
0.0
  0
LINE
  5
198
100
AcDbEntity
  8
M01
100
AcDbLine
 10
945.644674
 20
601.752534
 30
0.0
 11
945.644674
 21
601.159226
 31
0.0
  0
LINE
  5
199
100
AcDbEntity
  8
M01
100
AcDbLine
 10
941.644674
 20
606.193317
 30
0.0
 11
941.644674
 21
603.467473
 31
0.0
  0
ARC
  5
19A
100
AcDbEntity
  8
M01
100
AcDbCircle
 10
948.644674
 20
606.193317
 30
0.0
 40
3.0
100
AcDbArc
 50
121.364349
 51
151.672691
  0
ARC
  5
19B
100
AcDbEntity
  8
M01
100
AcDbCircle
 10
948.644674
 20
606.193317
 30
0.0
 40
7.0
100
AcDbArc
 50
121.364349
 51
180.0
  0
ARC
  5
19C
100
AcDbEntity
  8
M01
100
AcDbCircle
 10
948.644674
 20
601.159226
 30
0.0
 40
7.0
100
AcDbArc
 50
202.678679
 51
270.0
  0
ARC
  5
19D
100
AcDbEntity
  8
M01
100
AcDbCircle
 10
948.644674
 20
601.159226
 30
0.0
 40
3.0
100
AcDbArc
 50
180.0
 51
270.0
  0
ARC
  5
19E
100
AcDbEntity
  8
M01
100
AcDbCircle
 10
947.384536
 20
619.975701
 30
0.0
 40
12.0
100
AcDbArc
 50
313.586993
 51
0.0
  0
ARC
  5
19F
100
AcDbEntity
  8
M01
100
AcDbCircle
 10
947.384536
 20
619.975701
 30
0.0
 40
8.0
100
AcDbArc
 50
313.586993
 51
0.0
  0
LINE
  5
1A0
100
AcDbEntity
  8
M01
100
AcDbLine
 10
948.644674
 20
598.159226
 30
0.0
 11
953.644674
 21
598.159226
 31
0.0
  0
LINE
  5
1A1
100
AcDbEntity
  8
M01
100
AcDbLine
 10
949.644674
 20
598.159226
 30
0.0
 11
949.644674
 21
594.159226
 31
0.0
  0
LINE
  5
1A2
100
AcDbEntity
  8
M01
100
AcDbLine
 10
953.644674
 20
598.159226
 30
0.0
 11
953.644674
 21
594.159226
 31
0.0
  0
LINE
  5
1A3
100
AcDbEntity
  8
M01
100
AcDbLine
 10
905.644674
 20
594.159226
 30
0.0
 11
932.869212
 21
594.159226
 31
0.0
  0
LINE
  5
1A4
100
AcDbEntity
  8
M01
100
AcDbLine
 10
932.869212
 20
598.159226
 30
0.0
 11
915.644674
 21
598.159226
 31
0.0
  0
ARC
  5
1A5
100
AcDbEntity
  8
M01
100
AcDbCircle
 10
932.869212
 20
606.159226
 30
0.0
 40
12.0
100
AcDbArc
 50
270.0
 51
313.586993
  0
ARC
  5
1A6
100
AcDbEntity
  8
M01
100
AcDbCircle
 10
932.869212
 20
606.159226
 30
0.0
 40
8.0
100
AcDbArc
 50
270.0
 51
313.586993
  0
LINE
  5
1A7
100
AcDbEntity
  8
M01
100
AcDbLine
 10
919.644674
 20
598.159226
 30
0.0
 11
919.644674
 21
594.159226
 31
0.0
  0
LINE
  5
1A8
100
AcDbEntity
  8
M01
100
AcDbLine
 10
915.644674
 20
598.159226
 30
0.0
 11
915.644674
 21
594.159226
 31
0.0
  0
LINE
  5
1A9
100
AcDbEntity
  8
M01
100
AcDbLine
 10
955.657998
 20
611.28376
 30
0.0
 11
941.142674
 21
597.467285
 31
0.0
  0
LINE
  5
1AA
100
AcDbEntity
  8
M01
100
AcDbLine
 10
952.900177
 20
614.181074
 30
0.0
 11
938.384853
 21
600.364599
 31
0.0
  0
LINE
  5
1AB
100
AcDbEntity
  8
M01
100
AcDbLine
 10
959.384536
 20
635.814191
 30
0.0
 11
959.384536
 21
619.975701
 31
0.0
  0
LINE
  5
1AC
100
AcDbEntity
  8
M01
100
AcDbLine
 10
955.384536
 20
635.814191
 30
0.0
 11
955.384536
 21
619.975701
 31
0.0
  0
LINE
  5
1AD
100
AcDbEntity
  8
M01
100
AcDbLine
 10
955.394674
 20
579.503326
 30
0.0
 11
961.894674
 21
579.503326
 31
0.0
  0
LINE
  5
1AE
100
AcDbEntity
  8
M01
100
AcDbLine
 10
955.394674
 20
587.615126
 30
0.0
 11
961.894674
 21
587.615126
 31
0.0
  0
LINE
  5
1AF
100
AcDbEntity
  8
M01
100
AcDbLine
 10
955.394674
 20
579.503326
 30
0.0
 11
955.394674
 21
577.559226
 31
0.0
  0
ARC
  5
1B0
100
AcDbEntity
  8
M01
100
AcDbCircle
 10
954.144674
 20
581.064576
 30
0.0
 40
2.0
100
AcDbArc
 50
308.682187
 51
0.0
  0
ARC
  5
1B1
100
AcDbEntity
  8
M01
100
AcDbCircle
 10
954.144674
 20
586.053876
 30
0.0
 40
2.0
100
AcDbArc
 50
0.0
 51
51.317813
  0
LINE
  5
1B2
100
AcDbEntity
  8
M01
100
AcDbLine
 10
955.394674
 20
589.559226
 30
0.0
 11
955.394674
 21
587.615126
 31
0.0
  0
LINE
  5
1B3
100
AcDbEntity
  8
M01
100
AcDbLine
 10
956.144674
 20
586.053876
 30
0.0
 11
956.144674
 21
581.064576
 31
0.0
  0
LINE
  5
1B4
100
AcDbEntity
  8
M01
100
AcDbLine
 10
961.894674
 20
579.503326
 30
0.0
 11
961.894674
 21
577.559226
 31
0.0
  0
ARC
  5
1B5
100
AcDbEntity
  8
M01
100
AcDbCircle
 10
963.144674
 20
581.064576
 30
0.0
 40
2.0
100
AcDbArc
 50
180.0
 51
231.317813
  0
ARC
  5
1B6
100
AcDbEntity
  8
M01
100
AcDbCircle
 10
963.144674
 20
586.053876
 30
0.0
 40
2.0
100
AcDbArc
 50
128.682187
 51
180.0
  0
LINE
  5
1B7
100
AcDbEntity
  8
M01
100
AcDbLine
 10
961.894674
 20
589.559226
 30
0.0
 11
961.894674
 21
587.615126
 31
0.0
  0
LINE
  5
1B8
100
AcDbEntity
  8
M01
100
AcDbLine
 10
961.144674
 20
586.053876
 30
0.0
 11
961.144674
 21
581.064576
 31
0.0
  0
LINE
  5
1B9
100
AcDbEntity
  8
M01
100
AcDbLine
 10
953.644674
 20
572.559226
 30
0.0
 11
963.644674
 21
572.559226
 31
0.0
  0
LINE
  5
1BA
100
AcDbEntity
  8
M01
100
AcDbLine
 10
907.394674
 20
579.503326
 30
0.0
 11
913.894674
 21
579.503326
 31
0.0
  0
LINE
  5
1BB
100
AcDbEntity
  8
M01
100
AcDbLine
 10
907.394674
 20
587.615126
 30
0.0
 11
913.894674
 21
587.615126
 31
0.0
  0
LINE
  5
1BC
100
AcDbEntity
  8
M01
100
AcDbLine
 10
907.394674
 20
579.503326
 30
0.0
 11
907.394674
 21
577.559226
 31
0.0
  0
ARC
  5
1BD
100
AcDbEntity
  8
M01
100
AcDbCircle
 10
906.144674
 20
581.064576
 30
0.0
 40
2.0
100
AcDbArc
 50
308.682187
 51
0.0
  0
ARC
  5
1BE
100
AcDbEntity
  8
M01
100
AcDbCircle
 10
906.144674
 20
586.053876
 30
0.0
 40
2.0
100
AcDbArc
 50
0.0
 51
51.317813
  0
LINE
  5
1BF
100
AcDbEntity
  8
M01
100
AcDbLine
 10
907.394674
 20
589.559226
 30
0.0
 11
907.394674
 21
587.615126
 31
0.0
  0
LINE
  5
1C0
100
AcDbEntity
  8
M01
100
AcDbLine
 10
908.144674
 20
586.053876
 30
0.0
 11
908.144674
 21
581.064576
 31
0.0
  0
LINE
  5
1C1
100
AcDbEntity
  8
M01
100
AcDbLine
 10
913.894674
 20
579.503326
 30
0.0
 11
913.894674
 21
577.559226
 31
0.0
  0
ARC
  5
1C2
100
AcDbEntity
  8
M01
100
AcDbCircle
 10
915.144674
 20
581.064576
 30
0.0
 40
2.0
100
AcDbArc
 50
180.0
 51
231.317813
  0
ARC
  5
1C3
100
AcDbEntity
  8
M01
100
AcDbCircle
 10
915.144674
 20
586.053876
 30
0.0
 40
2.0
100
AcDbArc
 50
128.682187
 51
180.0
  0
LINE
  5
1C4
100
AcDbEntity
  8
M01
100
AcDbLine
 10
913.894674
 20
589.559226
 30
0.0
 11
913.894674
 21
587.615126
 31
0.0
  0
LINE
  5
1C5
100
AcDbEntity
  8
M01
100
AcDbLine
 10
913.144674
 20
586.053876
 30
0.0
 11
913.144674
 21
581.064576
 31
0.0
  0
LINE
  5
1C6
100
AcDbEntity
  8
M01
100
AcDbLine
 10
905.644674
 20
572.559226
 30
0.0
 11
915.644674
 21
572.559226
 31
0.0
  0
LINE
  5
1C7
100
AcDbEntity
  8
M01
100
AcDbLine
 10
963.644674
 20
577.559226
 30
0.0
 11
963.644674
 21
556.559226
 31
0.0
  0
LINE
  5
1C8
100
AcDbEntity
  8
M01
100
AcDbLine
 10
953.644674
 20
577.559226
 30
0.0
 11
953.644674
 21
557.559226
 31
0.0
  0
LINE
  5
1C9
100
AcDbEntity
  8
M01
100
AcDbLine
 10
905.644674
 20
577.559226
 30
0.0
 11
905.644674
 21
556.559226
 31
0.0
  0
LINE
  5
1CA
100
AcDbEntity
  8
M01
100
AcDbLine
 10
915.644674
 20
577.559226
 30
0.0
 11
915.644674
 21
557.559226
 31
0.0
  0
LINE
  5
1CB
100
AcDbEntity
  8
M01
100
AcDbLine
 10
955.613585
 20
599.459226
 30
0.0
 11
961.675763
 21
599.459226
 31
0.0
  0
ARC
  5
1CC
100
AcDbEntity
  8
M01
100
AcDbCircle
 10
961.675763
 20
597.609921
 30
0.0
 40
1.150694
100
AcDbArc
 50
208.592423
 51
331.407577
  0
ARC
  5
1CD
100
AcDbEntity
  8
M01
100
AcDbCircle
 10
958.644674
 20
600.162004
 30
0.0
 40
3.702778
100
AcDbArc
 50
236.92527
 51
303.07473
  0
ARC
  5
1CE
100
AcDbEntity
  8
M01
100
AcDbCircle
 10
955.613585
 20
597.609921
 30
0.0
 40
1.150694
100
AcDbArc
 50
208.592423
 51
331.407577
  0
ARC
  5
1CF
100
AcDbEntity
  8
M01
100
AcDbCircle
 10
961.675763
 20
598.308532
 30
0.0
 40
1.150694
100
AcDbArc
 50
28.592423
 51
151.407577
  0
ARC
  5
1D0
100
AcDbEntity
  8
M01
100
AcDbCircle
 10
958.644674
 20
595.756448
 30
0.0
 40
3.702778
100
AcDbArc
 50
56.92527
 51
123.07473
  0
LINE
  5
1D1
100
AcDbEntity
  8
M01
100
AcDbLine
 10
960.6654
 20
598.859226
 30
0.0
 11
960.6654
 21
597.059226
 31
0.0
  0
LINE
  5
1D2
100
AcDbEntity
  8
M01
100
AcDbLine
 10
962.686125
 20
598.859226
 30
0.0
 11
962.686125
 21
597.059226
 31
0.0
  0
ARC
  5
1D3
100
AcDbEntity
  8
M01
100
AcDbCircle
 10
955.613585
 20
598.308532
 30
0.0
 40
1.150694
100
AcDbArc
 50
28.592423
 51
151.407577
  0
LINE
  5
1D4
100
AcDbEntity
  8
M01
100
AcDbLine
 10
956.623948
 20
598.859226
 30
0.0
 11
956.623948
 21
597.059226
 31
0.0
  0
LINE
  5
1D5
100
AcDbEntity
  8
M01
100
AcDbLine
 10
954.603222
 20
598.859226
 30
0.0
 11
954.603222
 21
597.059226
 31
0.0
  0
LINE
  5
1D6
100
AcDbEntity
  8
M01
100
AcDbLine
 10
963.644674
 20
594.159226
 30
0.0
 11
963.644674
 21
595.659226
 31
0.0
  0
LINE
  5
1D7
100
AcDbEntity
  8
M01
100
AcDbLine
 10
953.644674
 20
594.159226
 30
0.0
 11
953.644674
 21
595.659226
 31
0.0
  0
LINE
  5
1D8
100
AcDbEntity
  8
M01
100
AcDbLine
 10
963.144674
 20
595.659226
 30
0.0
 11
963.144674
 21
596.459226
 31
0.0
  0
LINE
  5
1D9
100
AcDbEntity
  8
M01
100
AcDbLine
 10
954.144674
 20
595.659226
 30
0.0
 11
954.144674
 21
596.459226
 31
0.0
  0
LINE
  5
1DA
100
AcDbEntity
  8
M01
100
AcDbLine
 10
954.144674
 20
596.459226
 30
0.0
 11
963.144674
 21
596.459226
 31
0.0
  0
LINE
  5
1DB
100
AcDbEntity
  8
M01
100
AcDbLine
 10
953.644674
 20
595.659226
 30
0.0
 11
963.644674
 21
595.659226
 31
0.0
  0
LINE
  5
1DC
100
AcDbEntity
  8
M01
100
AcDbLine
 10
963.144674
 20
593.359226
 30
0.0
 11
963.144674
 21
594.159226
 31
0.0
  0
LINE
  5
1DD
100
AcDbEntity
  8
M01
100
AcDbLine
 10
954.144674
 20
593.359226
 30
0.0
 11
954.144674
 21
594.159226
 31
0.0
  0
LINE
  5
1DE
100
AcDbEntity
  8
M01
100
AcDbLine
 10
948.644674
 20
594.159226
 30
0.0
 11
963.644674
 21
594.159226
 31
0.0
  0
ARC
  5
1DF
100
AcDbEntity
  8
M01
100
AcDbCircle
 10
961.675763
 20
591.509921
 30
0.0
 40
1.150694
100
AcDbArc
 50
208.592423
 51
331.407577
  0
ARC
  5
1E0
100
AcDbEntity
  8
M01
100
AcDbCircle
 10
958.644674
 20
594.062004
 30
0.0
 40
3.702778
100
AcDbArc
 50
236.92527
 51
303.07473
  0
ARC
  5
1E1
100
AcDbEntity
  8
M01
100
AcDbCircle
 10
955.613585
 20
591.509921
 30
0.0
 40
1.150694
100
AcDbArc
 50
208.592423
 51
331.407577
  0
ARC
  5
1E2
100
AcDbEntity
  8
M01
100
AcDbCircle
 10
961.675763
 20
592.208532
 30
0.0
 40
1.150694
100
AcDbArc
 50
28.592423
 51
151.407577
  0
ARC
  5
1E3
100
AcDbEntity
  8
M01
100
AcDbCircle
 10
958.644674
 20
589.656448
 30
0.0
 40
3.702778
100
AcDbArc
 50
56.92527
 51
123.07473
  0
LINE
  5
1E4
100
AcDbEntity
  8
M01
100
AcDbLine
 10
960.6654
 20
592.759226
 30
0.0
 11
960.6654
 21
590.959226
 31
0.0
  0
LINE
  5
1E5
100
AcDbEntity
  8
M01
100
AcDbLine
 10
962.686125
 20
592.759226
 30
0.0
 11
962.686125
 21
590.959226
 31
0.0
  0
ARC
  5
1E6
100
AcDbEntity
  8
M01
100
AcDbCircle
 10
955.613585
 20
592.208532
 30
0.0
 40
1.150694
100
AcDbArc
 50
28.592423
 51
151.407577
  0
LINE
  5
1E7
100
AcDbEntity
  8
M01
100
AcDbLine
 10
956.623948
 20
592.759226
 30
0.0
 11
956.623948
 21
590.959226
 31
0.0
  0
LINE
  5
1E8
100
AcDbEntity
  8
M01
100
AcDbLine
 10
954.603222
 20
592.759226
 30
0.0
 11
954.603222
 21
590.959226
 31
0.0
  0
LINE
  5
1E9
100
AcDbEntity
  8
M01
100
AcDbLine
 10
954.144674
 20
593.359226
 30
0.0
 11
963.144674
 21
593.359226
 31
0.0
  0
LINE
  5
1EA
100
AcDbEntity
  8
M01
100
AcDbLine
 10
954.144674
 20
590.359226
 30
0.0
 11
963.144674
 21
590.359226
 31
0.0
  0
LINE
  5
1EB
100
AcDbEntity
  8
M01
100
AcDbLine
 10
954.144674
 20
589.559226
 30
0.0
 11
963.144674
 21
589.559226
 31
0.0
  0
LINE
  5
1EC
100
AcDbEntity
  8
M01
100
AcDbLine
 10
960.144674
 20
602.559226
 30
0.0
 11
960.644674
 21
602.059226
 31
0.0
  0
LINE
  5
1ED
100
AcDbEntity
  8
M01
100
AcDbLine
 10
956.644674
 20
602.059226
 30
0.0
 11
957.144674
 21
602.559226
 31
0.0
  0
LINE
  5
1EE
100
AcDbEntity
  8
M01
100
AcDbLine
 10
956.644674
 20
602.059226
 30
0.0
 11
960.644674
 21
602.059226
 31
0.0
  0
LINE
  5
1EF
100
AcDbEntity
  8
M01
100
AcDbLine
 10
960.144674
 20
602.559226
 30
0.0
 11
960.144674
 21
599.459226
 31
0.0
  0
LINE
  5
1F0
100
AcDbEntity
  8
M01
100
AcDbLine
 10
957.144674
 20
602.559226
 30
0.0
 11
957.144674
 21
599.459226
 31
0.0
  0
LINE
  5
1F1
100
AcDbEntity
  8
M01
100
AcDbLine
 10
956.644674
 20
602.059226
 30
0.0
 11
956.644674
 21
599.459226
 31
0.0
  0
LINE
  5
1F2
100
AcDbEntity
  8
M01
100
AcDbLine
 10
960.644674
 20
602.059226
 30
0.0
 11
960.644674
 21
599.459226
 31
0.0
  0
LINE
  5
1F3
100
AcDbEntity
  8
M01
100
AcDbLine
 10
957.144674
 20
602.559226
 30
0.0
 11
960.144674
 21
602.559226
 31
0.0
  0
LINE
  5
1F4
100
AcDbEntity
  8
M01
100
AcDbLine
 10
953.644674
 20
577.559226
 30
0.0
 11
963.644674
 21
577.559226
 31
0.0
  0
LINE
  5
1F5
100
AcDbEntity
  8
M01
100
AcDbLine
 10
963.144674
 20
590.359226
 30
0.0
 11
963.144674
 21
589.559226
 31
0.0
  0
LINE
  5
1F6
100
AcDbEntity
  8
M01
100
AcDbLine
 10
954.144674
 20
590.359226
 30
0.0
 11
954.144674
 21
589.559226
 31
0.0
  0
LINE
  5
1F7
100
AcDbEntity
  8
CENTRE
100
AcDbLine
 10
958.644674
 20
608.720115
 30
0.0
 11
958.644674
 21
545.126684
 31
0.0
  0
LINE
  5
1F8
100
AcDbEntity
  8
M01
100
AcDbLine
 10
913.675763
 20
599.459226
 30
0.0
 11
907.613585
 21
599.459226
 31
0.0
  0
ARC
  5
1F9
100
AcDbEntity
  8
M01
100
AcDbCircle
 10
907.613585
 20
597.609921
 30
0.0
 40
1.150694
100
AcDbArc
 50
208.592423
 51
331.407577
  0
ARC
  5
1FA
100
AcDbEntity
  8
M01
100
AcDbCircle
 10
910.644674
 20
600.162004
 30
0.0
 40
3.702778
100
AcDbArc
 50
236.92527
 51
303.07473
  0
ARC
  5
1FB
100
AcDbEntity
  8
M01
100
AcDbCircle
 10
913.675763
 20
597.609921
 30
0.0
 40
1.150694
100
AcDbArc
 50
208.592423
 51
331.407577
  0
ARC
  5
1FC
100
AcDbEntity
  8
M01
100
AcDbCircle
 10
907.613585
 20
598.308532
 30
0.0
 40
1.150694
100
AcDbArc
 50
28.592423
 51
151.407577
  0
ARC
  5
1FD
100
AcDbEntity
  8
M01
100
AcDbCircle
 10
910.644674
 20
595.756448
 30
0.0
 40
3.702778
100
AcDbArc
 50
56.92527
 51
123.07473
  0
LINE
  5
1FE
100
AcDbEntity
  8
M01
100
AcDbLine
 10
908.623948
 20
598.859226
 30
0.0
 11
908.623948
 21
597.059226
 31
0.0
  0
LINE
  5
1FF
100
AcDbEntity
  8
M01
100
AcDbLine
 10
906.603222
 20
598.859226
 30
0.0
 11
906.603222
 21
597.059226
 31
0.0
  0
ARC
  5
200
100
AcDbEntity
  8
M01
100
AcDbCircle
 10
913.675763
 20
598.308532
 30
0.0
 40
1.150694
100
AcDbArc
 50
28.592423
 51
151.407577
  0
LINE
  5
201
100
AcDbEntity
  8
M01
100
AcDbLine
 10
912.6654
 20
598.859226
 30
0.0
 11
912.6654
 21
597.059226
 31
0.0
  0
LINE
  5
202
100
AcDbEntity
  8
M01
100
AcDbLine
 10
914.686125
 20
598.859226
 30
0.0
 11
914.686125
 21
597.059226
 31
0.0
  0
LINE
  5
203
100
AcDbEntity
  8
M01
100
AcDbLine
 10
905.644674
 20
594.159226
 30
0.0
 11
905.644674
 21
595.659226
 31
0.0
  0
LINE
  5
204
100
AcDbEntity
  8
M01
100
AcDbLine
 10
906.144674
 20
595.659226
 30
0.0
 11
906.144674
 21
596.459226
 31
0.0
  0
LINE
  5
205
100
AcDbEntity
  8
M01
100
AcDbLine
 10
915.144674
 20
595.659226
 30
0.0
 11
915.144674
 21
596.459226
 31
0.0
  0
LINE
  5
206
100
AcDbEntity
  8
M01
100
AcDbLine
 10
915.144674
 20
596.459226
 30
0.0
 11
906.144674
 21
596.459226
 31
0.0
  0
LINE
  5
207
100
AcDbEntity
  8
M01
100
AcDbLine
 10
915.644674
 20
595.659226
 30
0.0
 11
905.644674
 21
595.659226
 31
0.0
  0
LINE
  5
208
100
AcDbEntity
  8
M01
100
AcDbLine
 10
906.144674
 20
593.359226
 30
0.0
 11
906.144674
 21
594.159226
 31
0.0
  0
LINE
  5
209
100
AcDbEntity
  8
M01
100
AcDbLine
 10
915.144674
 20
593.359226
 30
0.0
 11
915.144674
 21
594.159226
 31
0.0
  0
ARC
  5
20A
100
AcDbEntity
  8
M01
100
AcDbCircle
 10
907.613585
 20
591.509921
 30
0.0
 40
1.150694
100
AcDbArc
 50
208.592423
 51
331.407577
  0
ARC
  5
20B
100
AcDbEntity
  8
M01
100
AcDbCircle
 10
910.644674
 20
594.062004
 30
0.0
 40
3.702778
100
AcDbArc
 50
236.92527
 51
303.07473
  0
ARC
  5
20C
100
AcDbEntity
  8
M01
100
AcDbCircle
 10
913.675763
 20
591.509921
 30
0.0
 40
1.150694
100
AcDbArc
 50
208.592423
 51
331.407577
  0
ARC
  5
20D
100
AcDbEntity
  8
M01
100
AcDbCircle
 10
907.613585
 20
592.208532
 30
0.0
 40
1.150694
100
AcDbArc
 50
28.592423
 51
151.407577
  0
ARC
  5
20E
100
AcDbEntity
  8
M01
100
AcDbCircle
 10
910.644674
 20
589.656448
 30
0.0
 40
3.702778
100
AcDbArc
 50
56.92527
 51
123.07473
  0
LINE
  5
20F
100
AcDbEntity
  8
M01
100
AcDbLine
 10
908.623948
 20
592.759226
 30
0.0
 11
908.623948
 21
590.959226
 31
0.0
  0
LINE
  5
210
100
AcDbEntity
  8
M01
100
AcDbLine
 10
906.603222
 20
592.759226
 30
0.0
 11
906.603222
 21
590.959226
 31
0.0
  0
ARC
  5
211
100
AcDbEntity
  8
M01
100
AcDbCircle
 10
913.675763
 20
592.208532
 30
0.0
 40
1.150694
100
AcDbArc
 50
28.592423
 51
151.407577
  0
LINE
  5
212
100
AcDbEntity
  8
M01
100
AcDbLine
 10
912.6654
 20
592.759226
 30
0.0
 11
912.6654
 21
590.959226
 31
0.0
  0
LINE
  5
213
100
AcDbEntity
  8
M01
100
AcDbLine
 10
914.686125
 20
592.759226
 30
0.0
 11
914.686125
 21
590.959226
 31
0.0
  0
LINE
  5
214
100
AcDbEntity
  8
M01
100
AcDbLine
 10
915.144674
 20
593.359226
 30
0.0
 11
906.144674
 21
593.359226
 31
0.0
  0
LINE
  5
215
100
AcDbEntity
  8
M01
100
AcDbLine
 10
915.144674
 20
590.359226
 30
0.0
 11
906.144674
 21
590.359226
 31
0.0
  0
LINE
  5
216
100
AcDbEntity
  8
M01
100
AcDbLine
 10
915.144674
 20
589.559226
 30
0.0
 11
906.144674
 21
589.559226
 31
0.0
  0
LINE
  5
217
100
AcDbEntity
  8
M01
100
AcDbLine
 10
909.144674
 20
602.559226
 30
0.0
 11
908.644674
 21
602.059226
 31
0.0
  0
LINE
  5
218
100
AcDbEntity
  8
M01
100
AcDbLine
 10
912.644674
 20
602.059226
 30
0.0
 11
912.144674
 21
602.559226
 31
0.0
  0
LINE
  5
219
100
AcDbEntity
  8
M01
100
AcDbLine
 10
912.644674
 20
602.059226
 30
0.0
 11
908.644674
 21
602.059226
 31
0.0
  0
LINE
  5
21A
100
AcDbEntity
  8
M01
100
AcDbLine
 10
909.144674
 20
602.559226
 30
0.0
 11
909.144674
 21
599.459226
 31
0.0
  0
LINE
  5
21B
100
AcDbEntity
  8
M01
100
AcDbLine
 10
912.144674
 20
602.559226
 30
0.0
 11
912.144674
 21
599.459226
 31
0.0
  0
LINE
  5
21C
100
AcDbEntity
  8
M01
100
AcDbLine
 10
912.644674
 20
602.059226
 30
0.0
 11
912.644674
 21
599.459226
 31
0.0
  0
LINE
  5
21D
100
AcDbEntity
  8
M01
100
AcDbLine
 10
908.644674
 20
602.059226
 30
0.0
 11
908.644674
 21
599.459226
 31
0.0
  0
LINE
  5
21E
100
AcDbEntity
  8
M01
100
AcDbLine
 10
912.144674
 20
602.559226
 30
0.0
 11
909.144674
 21
602.559226
 31
0.0
  0
LINE
  5
21F
100
AcDbEntity
  8
M01
100
AcDbLine
 10
915.644674
 20
577.559226
 30
0.0
 11
905.644674
 21
577.559226
 31
0.0
  0
LINE
  5
220
100
AcDbEntity
  8
M01
100
AcDbLine
 10
906.144674
 20
590.359226
 30
0.0
 11
906.144674
 21
589.559226
 31
0.0
  0
LINE
  5
221
100
AcDbEntity
  8
M01
100
AcDbLine
 10
915.144674
 20
590.359226
 30
0.0
 11
915.144674
 21
589.559226
 31
0.0
  0
LINE
  5
222
100
AcDbEntity
  8
CENTRE
100
AcDbLine
 10
910.644674
 20
608.720115
 30
0.0
 11
910.644674
 21
545.126684
 31
0.0
  0
LINE
  5
223
100
AcDbEntity
  8
M03
100
AcDbLine
 10
350.51878
 20
428.559226
 30
0.0
 11
700.51878
 21
428.559226
 31
0.0
  0
LINE
  5
224
100
AcDbEntity
  8
M03
100
AcDbLine
 10
350.51878
 20
436.559226
 30
0.0
 11
700.51878
 21
436.559226
 31
0.0
  0
CIRCLE
  5
225
100
AcDbEntity
  8
M03
100
AcDbCircle
 10
350.51878
 20
432.559226
 30
0.0
 40
4.0
  0
CIRCLE
  5
226
100
AcDbEntity
  8
M03
100
AcDbCircle
 10
700.51878
 20
432.559226
 30
0.0
 40
4.0
  0
LINE
  5
227
102
{ACAD_REACTORS
330
FF
102
}
100
AcDbEntity
  8
M02
100
AcDbLine
 10
559.51878
 20
93.326459
 30
0.0
 11
738.844681
 21
93.326459
 31
0.0
  0
LINE
  5
228
102
{ACAD_REACTORS
330
101
102
}
100
AcDbEntity
  8
M05
100
AcDbLine
 10
516.01878
 20
156.326459
 30
0.0
 11
516.01878
 21
152.326459
 31
0.0
  0
LINE
  5
229
102
{ACAD_REACTORS
330
101
102
}
100
AcDbEntity
  8
M05
100
AcDbLine
 10
535.01878
 20
156.326459
 30
0.0
 11
535.01878
 21
152.326459
 31
0.0
  0
TEXT
  5
22A
100
AcDbEntity
  8
TEXT
100
AcDbText
 10
531.230153
 20
159.047186
 30
0.0
 40
2.0
  1
MA010002
 41
0.9
100
AcDbText
  0
LINE
  5
22B
102
{ACAD_REACTORS
330
FD
102
}
100
AcDbEntity
  8
M02
100
AcDbLine
 10
502.29378
 20
159.326459
 30
0.0
 11
502.29378
 21
156.326459
 31
0.0
  0
LINE
  5
22C
100
AcDbEntity
  8
M03
100
AcDbLine
 10
527.81878
 20
163.726459
 30
0.0
 11
527.81878
 21
151.326459
 31
0.0
  0
LINE
  5
22D
100
AcDbEntity
  8
M03
100
AcDbLine
 10
523.21878
 20
163.726459
 30
0.0
 11
523.21878
 21
151.326459
 31
0.0
  0
LINE
  5
22E
100
AcDbEntity
  8
M03
100
AcDbLine
 10
522.51878
 20
163.726459
 30
0.0
 11
522.51878
 21
151.326459
 31
0.0
  0
LINE
  5
22F
100
AcDbEntity
  8
M03
100
AcDbLine
 10
528.51878
 20
163.726459
 30
0.0
 11
528.51878
 21
151.326459
 31
0.0
  0
ARC
  5
230
100
AcDbEntity
  8
M03
100
AcDbCircle
 10
514.01878
 20
168.726459
 30
0.0
 40
5.0
100
AcDbArc
 50
180.0
 51
270.0
  0
ARC
  5
231
100
AcDbEntity
  8
M03
100
AcDbCircle
 10
537.01878
 20
168.726459
 30
0.0
 40
5.0
100
AcDbArc
 50
270.0
 51
0.0
  0
LINE
  5
232
100
AcDbEntity
  8
M03
100
AcDbLine
 10
509.01878
 20
181.726459
 30
0.0
 11
509.01878
 21
168.726459
 31
0.0
  0
LINE
  5
233
100
AcDbEntity
  8
M03
100
AcDbLine
 10
542.01878
 20
181.726459
 30
0.0
 11
542.01878
 21
168.726459
 31
0.0
  0
LINE
  5
234
100
AcDbEntity
  8
M03
100
AcDbLine
 10
537.01878
 20
163.726459
 30
0.0
 11
514.01878
 21
163.726459
 31
0.0
  0
LINE
  5
235
100
AcDbEntity
  8
M05
100
AcDbLine
 10
503.79378
 20
157.026459
 30
0.0
 11
547.24378
 21
157.026459
 31
0.0
  0
LINE
  5
236
100
AcDbEntity
  8
M05
100
AcDbLine
 10
546.54378
 20
156.326459
 30
0.0
 11
547.24378
 21
157.026459
 31
0.0
  0
LINE
  5
237
100
AcDbEntity
  8
M05
100
AcDbLine
 10
503.79378
 20
157.026459
 30
0.0
 11
504.49378
 21
156.326459
 31
0.0
  0
LINE
  5
238
100
AcDbEntity
  8
M05
100
AcDbLine
 10
503.79378
 20
176.726459
 30
0.0
 11
503.79378
 21
157.026459
 31
0.0
  0
LINE
  5
239
100
AcDbEntity
  8
M04
100
AcDbLine
 10
502.29378
 20
176.149109
 30
0.0
 11
503.79378
 21
176.149109
 31
0.0
  0
LINE
  5
23A
100
AcDbEntity
  8
M04
100
AcDbLine
 10
502.29378
 20
176.149109
 30
0.0
 11
502.29378
 21
163.326459
 31
0.0
  0
LINE
  5
23B
100
AcDbEntity
  8
M04
100
AcDbLine
 10
503.29378
 20
176.726459
 30
0.0
 11
502.29378
 21
176.149109
 31
0.0
  0
LINE
  5
23C
100
AcDbEntity
  8
M04
100
AcDbLine
 10
503.29378
 20
180.726459
 30
0.0
 11
503.29378
 21
181.726459
 31
0.0
  0
LINE
  5
23D
100
AcDbEntity
  8
M04
100
AcDbLine
 10
504.29378
 20
181.726459
 30
0.0
 11
503.29378
 21
181.726459
 31
0.0
  0
LINE
  5
23E
100
AcDbEntity
  8
M05
100
AcDbLine
 10
504.29378
 20
181.726459
 30
0.0
 11
503.29378
 21
180.726459
 31
0.0
  0
LINE
  5
23F
100
AcDbEntity
  8
M05
100
AcDbLine
 10
503.29378
 20
180.726459
 30
0.0
 11
503.29378
 21
176.726459
 31
0.0
  0
LINE
  5
240
100
AcDbEntity
  8
M05
100
AcDbLine
 10
547.24378
 20
176.726459
 30
0.0
 11
547.24378
 21
157.026459
 31
0.0
  0
LINE
  5
241
100
AcDbEntity
  8
M04
100
AcDbLine
 10
548.74378
 20
176.149109
 30
0.0
 11
547.24378
 21
176.149109
 31
0.0
  0
LINE
  5
242
100
AcDbEntity
  8
M04
100
AcDbLine
 10
548.74378
 20
176.149109
 30
0.0
 11
548.74378
 21
163.326459
 31
0.0
  0
LINE
  5
243
100
AcDbEntity
  8
M04
100
AcDbLine
 10
547.74378
 20
176.726459
 30
0.0
 11
548.74378
 21
176.149109
 31
0.0
  0
LINE
  5
244
100
AcDbEntity
  8
M04
100
AcDbLine
 10
547.74378
 20
180.726459
 30
0.0
 11
547.74378
 21
181.726459
 31
0.0
  0
LINE
  5
245
100
AcDbEntity
  8
M04
100
AcDbLine
 10
546.74378
 20
181.726459
 30
0.0
 11
547.74378
 21
181.726459
 31
0.0
  0
LINE
  5
246
100
AcDbEntity
  8
M05
100
AcDbLine
 10
516.01878
 20
152.326459
 30
0.0
 11
535.01878
 21
152.326459
 31
0.0
  0
LINE
  5
247
100
AcDbEntity
  8
M05
100
AcDbLine
 10
503.29378
 20
180.726459
 30
0.0
 11
547.74378
 21
180.726459
 31
0.0
  0
LINE
  5
248
100
AcDbEntity
  8
M05
100
AcDbLine
 10
546.74378
 20
181.726459
 30
0.0
 11
547.74378
 21
180.726459
 31
0.0
  0
LINE
  5
249
100
AcDbEntity
  8
M05
100
AcDbLine
 10
547.74378
 20
180.726459
 30
0.0
 11
547.74378
 21
176.726459
 31
0.0
  0
LINE
  5
24A
100
AcDbEntity
  8
M05
100
AcDbLine
 10
547.74378
 20
176.726459
 30
0.0
 11
503.29378
 21
176.726459
 31
0.0
  0
LINE
  5
24B
100
AcDbEntity
  8
M05
100
AcDbLine
 10
546.74378
 20
181.726459
 30
0.0
 11
504.29378
 21
181.726459
 31
0.0
  0
LINE
  5
24C
102
{ACAD_REACTORS
330
F3
102
}
100
AcDbEntity
  8
M02
100
AcDbLine
 10
548.74378
 20
159.326459
 30
0.0
 11
548.74378
 21
156.326459
 31
0.0
  0
LINE
  5
24D
100
AcDbEntity
  8
CENTRE
100
AcDbLine
 10
708.51878
 20
123.326459
 30
0.0
 11
342.51878
 21
123.326459
 31
0.0
  0
HATCH
  5
24E
100
AcDbEntity
  8
HATCH
100
AcDbHatch
 10
0.0
 20
0.0
 30
0.0
210
0.0
220
0.0
230
1.0
  2
_U
 70
     0
 71
     1
 91
        2
 92
        7
 72
     1
 73
     1
 93
        2
 10
727.8446813459673
 20
152.3264594854136
 42
1.0
 10
735.8446813459673
 20
152.3264594854136
 42
1.0
 97
        1
330
29D
 92
        7
 72
     1
 73
     1
 93
        2
 10
727.8446813459673
 20
100.3264594854134
 42
1.0
 10
735.8446813459673
 20
100.3264594854134
 42
1.0
 97
        1
330
294
 75
     0
 76
     0
 52
45.0
 41
0.8
 77
     0
 78
     1
 53
45.0
 43
198.079147
 44
-123.687426
 45
-0.565685424949238
 46
0.565685424949238
 79
     0
 47
0.270666
 98
        2
 10
730.851654
 20
153.58254
 10
733.017873
 20
102.156039
  0
LINE
  5
24F
100
AcDbEntity
  8
M01
100
AcDbLine
 10
346.51878
 20
136.826459
 30
0.0
 11
263.01878
 21
136.826459
 31
0.0
  0
LINE
  5
250
100
AcDbEntity
  8
M01
100
AcDbLine
 10
350.51878
 20
140.826459
 30
0.0
 11
346.51878
 21
136.826459
 31
0.0
  0
LINE
  5
251
102
{ACAD_REACTORS
330
101
330
FD
330
FE
102
}
100
AcDbEntity
  8
CENTRE
100
AcDbLine
 10
350.51878
 20
77.326459
 30
0.0
 11
350.51878
 21
175.326459
 31
0.0
  0
LINE
  5
252
100
AcDbEntity
  8
M01
100
AcDbLine
 10
354.51878
 20
127.326459
 30
0.0
 11
350.51878
 21
123.326459
 31
0.0
  0
LINE
  5
253
102
{ACAD_REACTORS
330
101
102
}
100
AcDbEntity
  8
M01
100
AcDbLine
 10
521.51878
 20
119.326459
 30
0.0
 11
350.51878
 21
119.326459
 31
0.0
  0
LINE
  5
254
102
{ACAD_REACTORS
330
101
102
}
100
AcDbEntity
  8
M01
100
AcDbLine
 10
354.51878
 20
127.326459
 30
0.0
 11
354.51878
 21
140.826459
 31
0.0
  0
LINE
  5
255
100
AcDbEntity
  8
M01
100
AcDbLine
 10
346.51878
 20
123.326459
 30
0.0
 11
346.51878
 21
136.826459
 31
0.0
  0
ARC
  5
256
100
AcDbEntity
  8
M01
100
AcDbCircle
 10
350.51878
 20
123.326459
 30
0.0
 40
4.0
100
AcDbArc
 50
180.0
 51
270.0
  0
LINE
  5
257
102
{ACAD_REACTORS
330
FD
102
}
100
AcDbEntity
  8
M02
100
AcDbLine
 10
281.01878
 20
156.326459
 30
0.0
 11
281.01878
 21
159.326459
 31
0.0
  0
LINE
  5
258
102
{ACAD_REACTORS
330
FC
102
}
100
AcDbEntity
  8
M02
100
AcDbLine
 10
245.01878
 20
156.326459
 30
0.0
 11
245.01878
 21
159.326459
 31
0.0
  0
LINE
  5
259
100
AcDbEntity
  8
CENTRE
100
AcDbLine
 10
358.635538
 20
140.826459
 30
0.0
 11
255.01878
 21
140.826459
 31
0.0
  0
LINE
  5
25A
100
AcDbEntity
  8
CENTRE
100
AcDbLine
 10
263.01878
 20
132.709701
 30
0.0
 11
263.01878
 21
166.674757
 31
0.0
  0
LINE
  5
25B
100
AcDbEntity
  8
M01
100
AcDbLine
 10
267.01878
 20
144.826459
 30
0.0
 11
263.01878
 21
140.826459
 31
0.0
  0
LINE
  5
25C
100
AcDbEntity
  8
M01
100
AcDbLine
 10
350.51878
 20
144.826459
 30
0.0
 11
267.01878
 21
144.826459
 31
0.0
  0
LINE
  5
25D
100
AcDbEntity
  8
M01
100
AcDbLine
 10
267.01878
 20
144.826459
 30
0.0
 11
267.01878
 21
156.326459
 31
0.0
  0
LINE
  5
25E
100
AcDbEntity
  8
M01
100
AcDbLine
 10
259.01878
 20
140.826459
 30
0.0
 11
259.01878
 21
156.326459
 31
0.0
  0
ARC
  5
25F
100
AcDbEntity
  8
M01
100
AcDbCircle
 10
263.01878
 20
140.826459
 30
0.0
 40
4.0
100
AcDbArc
 50
180.0
 51
270.0
  0
LINE
  5
260
100
AcDbEntity
  8
CENTRE
100
AcDbLine
 10
700.51878
 20
115.209701
 30
0.0
 11
700.51878
 21
148.943218
 31
0.0
  0
LINE
  5
261
100
AcDbEntity
  8
M01
100
AcDbLine
 10
696.51878
 20
127.326459
 30
0.0
 11
700.51878
 21
123.326459
 31
0.0
  0
LINE
  5
262
102
{ACAD_REACTORS
330
101
102
}
100
AcDbEntity
  8
M01
100
AcDbLine
 10
354.51878
 20
127.326459
 30
0.0
 11
696.51878
 21
127.326459
 31
0.0
  0
LINE
  5
263
102
{ACAD_REACTORS
330
101
102
}
100
AcDbEntity
  8
M01
100
AcDbLine
 10
529.51878
 20
119.326459
 30
0.0
 11
700.51878
 21
119.326459
 31
0.0
  0
LINE
  5
264
102
{ACAD_REACTORS
330
101
102
}
100
AcDbEntity
  8
M01
100
AcDbLine
 10
696.51878
 20
127.326459
 30
0.0
 11
696.51878
 21
140.826459
 31
0.0
  0
LINE
  5
265
102
{ACAD_REACTORS
330
101
102
}
100
AcDbEntity
  8
M01
100
AcDbLine
 10
704.51878
 20
123.326459
 30
0.0
 11
704.51878
 21
140.826459
 31
0.0
  0
ARC
  5
266
102
{ACAD_REACTORS
330
101
102
}
100
AcDbEntity
  8
M01
100
AcDbCircle
 10
700.51878
 20
123.326459
 30
0.0
 40
4.0
100
AcDbArc
 50
270.0
 51
0.0
  0
LINE
  5
267
102
{ACAD_REACTORS
330
101
102
}
100
AcDbEntity
  8
M04
100
AcDbLine
 10
517.01878
 20
151.326459
 30
0.0
 11
516.01878
 21
151.326459
 31
0.0
  0
LINE
  5
268
102
{ACAD_REACTORS
330
101
102
}
100
AcDbEntity
  8
M04
100
AcDbLine
 10
516.01878
 20
152.326459
 30
0.0
 11
516.01878
 21
151.326459
 31
0.0
  0
LINE
  5
269
102
{ACAD_REACTORS
330
101
102
}
100
AcDbEntity
  8
M04
100
AcDbLine
 10
534.01878
 20
151.326459
 30
0.0
 11
535.01878
 21
151.326459
 31
0.0
  0
LINE
  5
26A
102
{ACAD_REACTORS
330
101
102
}
100
AcDbEntity
  8
M04
100
AcDbLine
 10
535.01878
 20
152.326459
 30
0.0
 11
535.01878
 21
151.326459
 31
0.0
  0
LINE
  5
26B
100
AcDbEntity
  8
M05
100
AcDbLine
 10
517.01878
 20
151.326459
 30
0.0
 11
516.01878
 21
152.326459
 31
0.0
  0
LINE
  5
26C
100
AcDbEntity
  8
M05
100
AcDbLine
 10
535.01878
 20
152.326459
 30
0.0
 11
534.01878
 21
151.326459
 31
0.0
  0
LINE
  5
26D
102
{ACAD_REACTORS
330
101
102
}
100
AcDbEntity
  8
M05
100
AcDbLine
 10
534.01878
 20
151.326459
 30
0.0
 11
517.01878
 21
151.326459
 31
0.0
  0
POINT
  5
26E
100
AcDbEntity
  8
DEFPOINTS
  6
BYBLOCK
 62
     0
100
AcDbPoint
 10
525.51878
 20
156.326459
 30
0.0
  0
LINE
  5
26F
102
{ACAD_REACTORS
330
101
102
}
100
AcDbEntity
  8
M04
100
AcDbLine
 10
515.31878
 20
156.326459
 30
0.0
 11
516.01878
 21
155.626459
 31
0.0
  0
LINE
  5
270
102
{ACAD_REACTORS
330
101
102
}
100
AcDbEntity
  8
M04
100
AcDbLine
 10
535.71878
 20
156.326459
 30
0.0
 11
535.01878
 21
155.626459
 31
0.0
  0
HATCH
  5
271
100
AcDbEntity
  8
HATCH
100
AcDbHatch
 10
0.0
 20
0.0
 30
0.0
210
0.0
220
0.0
230
1.0
  2
_U
 70
     0
 71
     1
 91
        2
 92
        7
 72
     1
 73
     1
 93
        2
 10
236.0187795381627
 20
152.3264594854136
 42
1.0
 10
244.0187795381627
 20
152.3264594854136
 42
1.0
 97
        1
330
28B
 92
        7
 72
     1
 73
     1
 93
        2
 10
244.0187795381627
 20
100.3264594854134
 42
1.0
 10
236.0187795381627
 20
100.3264594854134
 42
1.0
 97
        1
330
282
 75
     0
 76
     0
 52
45.0
 41
0.8
 77
     0
 78
     1
 53
45.0
 43
-204.928461
 44
-138.160015
 45
-0.565685424949238
 46
0.565685424949238
 79
     0
 47
0.251927
 98
        2
 10
238.555677
 20
154.09752
 10
241.580051
 20
115.300722
  0
HATCH
  5
272
100
AcDbEntity
  8
HATCH
100
AcDbHatch
 10
0.0
 20
0.0
 30
0.0
210
0.0
220
0.0
230
1.0
  2
_U
 70
     0
 71
     1
 91
        2
 92
        7
 72
     0
 73
     1
 93
       11
 10
255.1598975507057
 20
96.32645948541359
 10
239.7187795381628
 20
96.32645948541359
 10
239.0187795381627
 20
95.62645948541357
 10
239.0187795381629
 20
90.02645948541339
 10
239.7187795381627
 20
89.32645948541352
 10
242.518779538163
 20
89.32645948541352
 10
243.5187795381628
 20
90.32645948541341
 10
255.5187795381623
 20
90.3264594854135
 10
256.5187795381621
 20
89.32645948541352
 10
259.5187795381626
 20
89.32645948541351
 10
259.5187795381626
 20
91.96757749795661
 97
       10
330
347
330
2FE
330
303
330
2FF
330
34D
330
276
330
278
330
277
330
2EC
330
2EE
 92
        7
 72
     0
 73
     1
 93
       11
 10
270.8776615256199
 20
96.32645948541359
 10
266.5187795381628
 20
91.96757749795647
 10
266.5187795381628
 20
89.32645948541351
 10
269.5187795381635
 20
89.32645948541351
 10
270.5187795381632
 20
90.32645948541354
 10
282.5187795381627
 20
90.3264594854134
 10
283.5187795381626
 20
89.32645948541351
 10
286.3187795381626
 20
89.32645948541349
 10
287.0187795381626
 20
90.02645948541333
 10
287.0187795381628
 20
95.62645948541357
 10
286.3187795381626
 20
96.32645948541359
 97
       10
330
2F9
330
347
330
2F0
330
2EB
330
2D3
330
274
330
275
330
273
330
2FA
330
2FB
 75
     0
 76
     0
 52
135.0
 41
1.5
 77
     0
 78
     1
 53
135.0
 43
-237.428461
 44
-151.160015
 45
-1.060660171779821
 46
-1.060660171779821
 79
     0
 47
0.040219
 98
        2
 10
254.170563
 20
93.80603
 10
272.638851
 20
93.363618
  0
LINE
  5
273
102
{ACAD_REACTORS
330
272
102
}
100
AcDbEntity
  8
M05
100
AcDbLine
 10
282.51878
 20
90.326459
 30
0.0
 11
283.51878
 21
89.326459
 31
0.0
  0
LINE
  5
274
102
{ACAD_REACTORS
330
272
102
}
100
AcDbEntity
  8
M05
100
AcDbLine
 10
270.51878
 20
90.326459
 30
0.0
 11
269.51878
 21
89.326459
 31
0.0
  0
LINE
  5
275
102
{ACAD_REACTORS
330
272
102
}
100
AcDbEntity
  8
M05
100
AcDbLine
 10
282.51878
 20
90.326459
 30
0.0
 11
270.51878
 21
90.326459
 31
0.0
  0
LINE
  5
276
102
{ACAD_REACTORS
330
272
102
}
100
AcDbEntity
  8
M05
100
AcDbLine
 10
243.51878
 20
90.326459
 30
0.0
 11
242.51878
 21
89.326459
 31
0.0
  0
LINE
  5
277
102
{ACAD_REACTORS
330
272
102
}
100
AcDbEntity
  8
M05
100
AcDbLine
 10
255.51878
 20
90.326459
 30
0.0
 11
256.51878
 21
89.326459
 31
0.0
  0
LINE
  5
278
102
{ACAD_REACTORS
330
272
102
}
100
AcDbEntity
  8
M05
100
AcDbLine
 10
243.51878
 20
90.326459
 30
0.0
 11
255.51878
 21
90.326459
 31
0.0
  0
HATCH
  5
279
100
AcDbEntity
  8
DIMS
100
AcDbHatch
 10
0.0
 20
0.0
 30
0.0
210
0.0
220
0.0
230
1.0
  2
_U
 70
     0
 71
     1
 91
        5
 92
        7
 72
     0
 73
     1
 93
        9
 10
557.0187795381627
 20
94.32645948541335
 10
557.0187795381627
 20
90.32645948541347
 10
558.8187795381629
 20
90.32645948541347
 10
559.518779538163
 20
91.02645948541354
 10
559.518779538163
 20
95.62645948541346
 10
558.8187795381629
 20
96.32645948541362
 10
555.2187795381628
 20
96.32645948541364
 10
555.2187795381627
 20
94.32645948541347
 10
556.768779538163
 20
94.32645948541347
 97
        9
330
32B
330
2B8
330
2CC
330
2BD
330
2D1
330
2BF
330
32E
330
32C
330
32F
 92
        7
 72
     1
 73
     1
 93
       16
 10
544.8187795381627
 20
85.32645948541347
 42
0.0
 10
545.5187795381629
 20
86.02645948541352
 42
0.0
 10
545.5187795381627
 20
87.32645948541359
 42
0.0
 10
545.0187795381627
 20
87.32645948541348
 42
0.0
 10
545.0187795381627
 20
90.32645948541347
 42
0.0
 10
546.0187795381629
 20
90.32645948541347
 42
0.0
 10
546.0187795381629
 20
94.32645948541347
 42
0.0
 10
546.2687795381628
 20
94.32645948541347
 42
0.0
 10
547.8187795381627
 20
94.32645948541347
 42
0.0
 10
547.8187795381628
 20
96.32645948541366
 42
0.0
 10
535.5187795381627
 20
96.32645948541366
 42
0.0
 10
535.5187795381627
 20
105.3264594854134
 42
0.0
 10
534.5187795381628
 20
106.3264594854133
 42
0.0
 10
529.5187795381628
 20
106.3264594854133
 42
0.0
 10
528.5596535360586
 20
88.02524513851462
 42
-0.1092323044357264
 10
534.6839309280742
 20
85.32645948541338
 42
0.0
 97
       16
330
32E
330
2C0
330
2BE
330
2BD
330
2CB
330
30C
330
338
330
334
330
336
330
315
330
316
330
324
330
323
330
326
330
321
330
320
 92
        7
 72
     1
 73
     1
 93
       16
 10
522.4779055402666
 20
88.02524513851457
 42
0.0
 10
521.5187795381628
 20
106.3264594854134
 42
0.0
 10
516.5187795381627
 20
106.3264594854134
 42
0.0
 10
515.5187795381627
 20
105.3264594854135
 42
0.0
 10
515.5187795381627
 20
96.32645948541364
 42
0.0
 10
503.2187795381627
 20
96.32645948541364
 42
0.0
 10
503.2187795381628
 20
94.32645948541347
 42
0.0
 10
504.7687795381627
 20
94.32645948541347
 42
0.0
 10
505.0187795381626
 20
94.32645948541347
 42
0.0
 10
505.0187795381626
 20
90.32645948541357
 42
0.0
 10
506.0187795381628
 20
90.32645948541359
 42
0.0
 10
506.0187795381628
 20
87.32645948541323
 42
0.0
 10
505.5187795381628
 20
87.32645948541323
 42
0.0
 10
505.5187795381628
 20
86.0264594854132
 42
0.0
 10
506.2187795381628
 20
85.32645948541313
 42
0.0
 10
516.3536281482511
 20
85.32645948541322
 42
-0.1092323044357263
 97
       16
330
336
330
335
330
337
330
347
330
2B0
330
2A2
330
2A3
330
2A5
330
31E
330
31F
330
31D
330
325
330
322
330
324
330
312
330
314
 92
        7
 72
     0
 73
     1
 93
        9
 10
494.0187795381627
 20
94.32645948541335
 10
494.2687795381625
 20
94.32645948541335
 10
495.8187795381626
 20
94.32645948541336
 10
495.8187795381628
 20
96.32645948541364
 10
492.2187795381627
 20
96.32645948541362
 10
491.5187795381624
 20
95.62645948541357
 10
491.5187795381625
 20
91.02645948541354
 10
492.2187795381624
 20
90.32645948541356
 10
494.0187795381627
 20
90.32645948541356
 97
        9
330
347
330
329
330
32A
330
30A
330
31E
330
2A4
330
2B6
330
2A2
330
2B1
 92
       24
 93
        4
 72
     1
 10
530.09286
 20
91.393947
 11
544.464289
 21
91.393947
 72
     1
 10
544.464289
 20
91.393947
 11
544.464289
 21
94.393947
 72
     1
 10
544.464289
 20
94.393947
 11
530.09286
 21
94.393947
 72
     1
 10
530.09286
 20
94.393947
 11
530.09286
 21
91.393947
 97
        1
330
307
 75
     0
 76
     0
 52
135.0
 41
2.5
 77
     0
 78
     1
 53
135.0
 43
-29.928461
 44
-151.160015
 45
-1.767766952966368
 46
-1.767766952966368
 79
     0
 47
0.085632
 98
        4
 10
558.015742
 20
94.684444
 10
540.368297
 20
88.690214
 10
517.580818
 20
89.889061
 10
493.336999
 20
94.684444
  0
LINE
  5
27A
100
AcDbEntity
  8
DIMS
 62
     4
100
AcDbLine
 10
236.61878
 20
100.326459
 30
0.0
 11
234.31878
 21
100.326459
 31
0.0
  0
LINE
  5
27B
100
AcDbEntity
  8
DIMS
 62
     4
100
AcDbLine
 10
243.41878
 20
100.326459
 30
0.0
 11
245.71878
 21
100.326459
 31
0.0
  0
LINE
  5
27C
100
AcDbEntity
  8
DIMS
 62
     4
100
AcDbLine
 10
240.01878
 20
103.726459
 30
0.0
 11
240.01878
 21
106.026459
 31
0.0
  0
LINE
  5
27D
100
AcDbEntity
  8
DIMS
 62
     4
100
AcDbLine
 10
240.01878
 20
96.926459
 30
0.0
 11
240.01878
 21
94.626459
 31
0.0
  0
LINE
  5
27E
100
AcDbEntity
  8
DIMS
 62
     4
100
AcDbLine
 10
241.71878
 20
100.326459
 30
0.0
 11
238.31878
 21
100.326459
 31
0.0
  0
LINE
  5
27F
100
AcDbEntity
  8
DIMS
 62
     4
100
AcDbLine
 10
240.01878
 20
98.626459
 30
0.0
 11
240.01878
 21
102.026459
 31
0.0
  0
LINE
  5
280
100
AcDbEntity
  8
M01
100
AcDbLine
 10
244.01878
 20
100.326459
 30
0.0
 11
244.01878
 21
96.326459
 31
0.0
  0
LINE
  5
281
100
AcDbEntity
  8
M01
100
AcDbLine
 10
236.01878
 20
100.326459
 30
0.0
 11
236.01878
 21
96.326459
 31
0.0
  0
CIRCLE
  5
282
102
{ACAD_REACTORS
330
271
102
}
100
AcDbEntity
  8
M01
100
AcDbCircle
 10
240.01878
 20
100.326459
 30
0.0
 40
4.0
  0
LINE
  5
283
100
AcDbEntity
  8
DIMS
 62
     4
100
AcDbLine
 10
236.61878
 20
152.326459
 30
0.0
 11
234.31878
 21
152.326459
 31
0.0
  0
LINE
  5
284
100
AcDbEntity
  8
DIMS
 62
     4
100
AcDbLine
 10
243.41878
 20
152.326459
 30
0.0
 11
245.71878
 21
152.326459
 31
0.0
  0
LINE
  5
285
100
AcDbEntity
  8
DIMS
 62
     4
100
AcDbLine
 10
240.01878
 20
148.926459
 30
0.0
 11
240.01878
 21
146.626459
 31
0.0
  0
LINE
  5
286
100
AcDbEntity
  8
DIMS
 62
     4
100
AcDbLine
 10
240.01878
 20
155.726459
 30
0.0
 11
240.01878
 21
158.026459
 31
0.0
  0
LINE
  5
287
100
AcDbEntity
  8
DIMS
 62
     4
100
AcDbLine
 10
241.71878
 20
152.326459
 30
0.0
 11
238.31878
 21
152.326459
 31
0.0
  0
LINE
  5
288
100
AcDbEntity
  8
DIMS
 62
     4
100
AcDbLine
 10
240.01878
 20
154.026459
 30
0.0
 11
240.01878
 21
150.626459
 31
0.0
  0
LINE
  5
289
100
AcDbEntity
  8
M01
100
AcDbLine
 10
244.01878
 20
152.326459
 30
0.0
 11
244.01878
 21
156.326459
 31
0.0
  0
LINE
  5
28A
100
AcDbEntity
  8
M01
100
AcDbLine
 10
236.01878
 20
152.326459
 30
0.0
 11
236.01878
 21
156.326459
 31
0.0
  0
CIRCLE
  5
28B
102
{ACAD_REACTORS
330
271
102
}
100
AcDbEntity
  8
M01
100
AcDbCircle
 10
240.01878
 20
152.326459
 30
0.0
 40
4.0
  0
LINE
  5
28C
100
AcDbEntity
  8
DIMS
 62
     4
100
AcDbLine
 10
735.244681
 20
100.326459
 30
0.0
 11
737.544681
 21
100.326459
 31
0.0
  0
LINE
  5
28D
100
AcDbEntity
  8
DIMS
 62
     4
100
AcDbLine
 10
728.444681
 20
100.326459
 30
0.0
 11
726.144681
 21
100.326459
 31
0.0
  0
LINE
  5
28E
100
AcDbEntity
  8
DIMS
 62
     4
100
AcDbLine
 10
731.844681
 20
103.726459
 30
0.0
 11
731.844681
 21
106.026459
 31
0.0
  0
LINE
  5
28F
100
AcDbEntity
  8
DIMS
 62
     4
100
AcDbLine
 10
731.844681
 20
96.926459
 30
0.0
 11
731.844681
 21
94.626459
 31
0.0
  0
LINE
  5
290
100
AcDbEntity
  8
DIMS
 62
     4
100
AcDbLine
 10
730.144681
 20
100.326459
 30
0.0
 11
733.544681
 21
100.326459
 31
0.0
  0
LINE
  5
291
100
AcDbEntity
  8
DIMS
 62
     4
100
AcDbLine
 10
731.844681
 20
98.626459
 30
0.0
 11
731.844681
 21
102.026459
 31
0.0
  0
LINE
  5
292
102
{ACAD_REACTORS
330
101
102
}
100
AcDbEntity
  8
M01
100
AcDbLine
 10
727.844681
 20
100.326459
 30
0.0
 11
727.844681
 21
96.326459
 31
0.0
  0
LINE
  5
293
102
{ACAD_REACTORS
330
101
102
}
100
AcDbEntity
  8
M01
100
AcDbLine
 10
735.844681
 20
100.326459
 30
0.0
 11
735.844681
 21
96.326459
 31
0.0
  0
CIRCLE
  5
294
102
{ACAD_REACTORS
330
24E
330
101
102
}
100
AcDbEntity
  8
M01
100
AcDbCircle
 10
731.844681
 20
100.326459
 30
0.0
 40
4.0
  0
LINE
  5
295
100
AcDbEntity
  8
DIMS
 62
     4
100
AcDbLine
 10
735.244681
 20
152.326459
 30
0.0
 11
737.544681
 21
152.326459
 31
0.0
  0
LINE
  5
296
100
AcDbEntity
  8
DIMS
 62
     4
100
AcDbLine
 10
728.444681
 20
152.326459
 30
0.0
 11
726.144681
 21
152.326459
 31
0.0
  0
LINE
  5
297
100
AcDbEntity
  8
DIMS
 62
     4
100
AcDbLine
 10
731.844681
 20
148.926459
 30
0.0
 11
731.844681
 21
146.626459
 31
0.0
  0
LINE
  5
298
100
AcDbEntity
  8
DIMS
 62
     4
100
AcDbLine
 10
731.844681
 20
155.726459
 30
0.0
 11
731.844681
 21
158.026459
 31
0.0
  0
LINE
  5
299
100
AcDbEntity
  8
DIMS
 62
     4
100
AcDbLine
 10
730.144681
 20
152.326459
 30
0.0
 11
733.544681
 21
152.326459
 31
0.0
  0
LINE
  5
29A
100
AcDbEntity
  8
DIMS
 62
     4
100
AcDbLine
 10
731.844681
 20
154.026459
 30
0.0
 11
731.844681
 21
150.626459
 31
0.0
  0
LINE
  5
29B
102
{ACAD_REACTORS
330
101
102
}
100
AcDbEntity
  8
M01
100
AcDbLine
 10
727.844681
 20
152.326459
 30
0.0
 11
727.844681
 21
156.326459
 31
0.0
  0
LINE
  5
29C
102
{ACAD_REACTORS
330
101
102
}
100
AcDbEntity
  8
M01
100
AcDbLine
 10
735.844681
 20
152.326459
 30
0.0
 11
735.844681
 21
156.326459
 31
0.0
  0
CIRCLE
  5
29D
102
{ACAD_REACTORS
330
24E
330
101
102
}
100
AcDbEntity
  8
M01
100
AcDbCircle
 10
731.844681
 20
152.326459
 30
0.0
 40
4.0
  0
LINE
  5
29E
102
{ACAD_REACTORS
330
101
102
}
100
AcDbEntity
  8
M04
100
AcDbLine
 10
502.51878
 20
103.626459
 30
0.0
 11
502.51878
 21
106.126459
 31
0.0
  0
LINE
  5
29F
102
{ACAD_REACTORS
330
101
102
}
100
AcDbEntity
  8
M04
100
AcDbLine
 10
501.81878
 20
104.326459
 30
0.0
 11
501.81878
 21
107.626459
 31
0.0
  0
LINE
  5
2A0
102
{ACAD_REACTORS
330
101
102
}
100
AcDbEntity
  8
M04
100
AcDbLine
 10
496.51878
 20
103.626459
 30
0.0
 11
496.51878
 21
106.126459
 31
0.0
  0
LINE
  5
2A1
102
{ACAD_REACTORS
330
101
102
}
100
AcDbEntity
  8
M04
100
AcDbLine
 10
497.21878
 20
104.326459
 30
0.0
 11
497.21878
 21
107.626459
 31
0.0
  0
LINE
  5
2A2
102
{ACAD_REACTORS
330
279
102
}
100
AcDbEntity
  8
M05
100
AcDbLine
 10
494.26878
 20
94.326459
 30
0.0
 11
504.76878
 21
94.326459
 31
0.0
  0
LINE
  5
2A3
102
{ACAD_REACTORS
330
279
102
}
100
AcDbEntity
  8
M04
100
AcDbLine
 10
504.76878
 20
94.326459
 30
0.0
 11
505.01878
 21
94.326459
 31
0.0
  0
LINE
  5
2A4
102
{ACAD_REACTORS
330
279
102
}
100
AcDbEntity
  8
M04
100
AcDbLine
 10
494.01878
 20
94.326459
 30
0.0
 11
494.01878
 21
90.326459
 31
0.0
  0
LINE
  5
2A5
102
{ACAD_REACTORS
330
279
102
}
100
AcDbEntity
  8
M04
100
AcDbLine
 10
505.01878
 20
94.326459
 30
0.0
 11
505.01878
 21
90.326459
 31
0.0
  0
LINE
  5
2A6
100
AcDbEntity
  8
M05
100
AcDbLine
 10
502.51878
 20
95.326459
 30
0.0
 11
496.51878
 21
95.326459
 31
0.0
  0
LINE
  5
2A7
102
{ACAD_REACTORS
330
101
102
}
100
AcDbEntity
  8
M04
100
AcDbLine
 10
497.21878
 20
107.626459
 30
0.0
 11
499.51878
 21
108.954365
 31
0.0
  0
LINE
  5
2A8
102
{ACAD_REACTORS
330
101
102
}
100
AcDbEntity
  8
M04
100
AcDbLine
 10
501.81878
 20
107.626459
 30
0.0
 11
499.51878
 21
108.954365
 31
0.0
  0
LINE
  5
2A9
100
AcDbEntity
  8
M04
100
AcDbLine
 10
501.81878
 20
107.626459
 30
0.0
 11
497.21878
 21
107.626459
 31
0.0
  0
LINE
  5
2AA
102
{ACAD_REACTORS
330
101
102
}
100
AcDbEntity
  8
M04
100
AcDbLine
 10
502.51878
 20
106.126459
 30
0.0
 11
496.51878
 21
106.126459
 31
0.0
  0
ARC
  5
2AB
100
AcDbEntity
  8
M05
100
AcDbCircle
 10
499.51878
 20
96.852596
 30
0.0
 40
5.826136
100
AcDbArc
 50
205.69541
 51
334.30459
  0
LINE
  5
2AC
100
AcDbEntity
  8
M05
100
AcDbLine
 10
496.51878
 20
103.626459
 30
0.0
 11
497.21878
 21
104.326459
 31
0.0
  0
LINE
  5
2AD
100
AcDbEntity
  8
M05
100
AcDbLine
 10
502.51878
 20
103.626459
 30
0.0
 11
501.81878
 21
104.326459
 31
0.0
  0
LINE
  5
2AE
100
AcDbEntity
  8
M05
100
AcDbLine
 10
502.51878
 20
103.626459
 30
0.0
 11
496.51878
 21
103.626459
 31
0.0
  0
LINE
  5
2AF
100
AcDbEntity
  8
M05
100
AcDbLine
 10
501.81878
 20
104.326459
 30
0.0
 11
497.21878
 21
104.326459
 31
0.0
  0
LINE
  5
2B0
102
{ACAD_REACTORS
330
279
102
}
100
AcDbEntity
  8
M04
100
AcDbLine
 10
503.21878
 20
96.326459
 30
0.0
 11
503.21878
 21
94.326459
 31
0.0
  0
LINE
  5
2B1
102
{ACAD_REACTORS
330
279
102
}
100
AcDbEntity
  8
M04
100
AcDbLine
 10
495.81878
 20
96.326459
 30
0.0
 11
495.81878
 21
94.326459
 31
0.0
  0
LINE
  5
2B2
100
AcDbEntity
  8
M05
100
AcDbLine
 10
497.21878
 20
104.326459
 30
0.0
 11
497.21878
 21
95.326459
 31
0.0
  0
LINE
  5
2B3
100
AcDbEntity
  8
M05
100
AcDbLine
 10
501.81878
 20
104.326459
 30
0.0
 11
501.81878
 21
95.326459
 31
0.0
  0
LINE
  5
2B4
102
{ACAD_REACTORS
330
101
102
}
100
AcDbEntity
  8
M05
100
AcDbLine
 10
502.51878
 20
103.626459
 30
0.0
 11
502.51878
 21
94.326459
 31
0.0
  0
LINE
  5
2B5
102
{ACAD_REACTORS
330
101
102
}
100
AcDbEntity
  8
M05
100
AcDbLine
 10
496.51878
 20
103.626459
 30
0.0
 11
496.51878
 21
94.326459
 31
0.0
  0
LINE
  5
2B6
102
{ACAD_REACTORS
330
279
102
}
100
AcDbEntity
  8
M04
100
AcDbLine
 10
494.01878
 20
94.326459
 30
0.0
 11
494.26878
 21
94.326459
 31
0.0
  0
LINE
  5
2B7
100
AcDbEntity
  8
CENTRE
100
AcDbLine
 10
499.51878
 20
111.59296
 30
0.0
 11
499.51878
 21
86.680271
 31
0.0
  0
LINE
  5
2B8
102
{ACAD_REACTORS
330
279
330
101
330
FF
102
}
100
AcDbEntity
  8
M01
100
AcDbLine
 10
554.51878
 20
96.326459
 30
0.0
 11
738.844681
 21
96.326459
 31
0.0
  0
LINE
  5
2B9
102
{ACAD_REACTORS
330
101
102
}
100
AcDbEntity
  8
M04
100
AcDbLine
 10
548.51878
 20
103.626459
 30
0.0
 11
548.51878
 21
106.126459
 31
0.0
  0
LINE
  5
2BA
102
{ACAD_REACTORS
330
101
102
}
100
AcDbEntity
  8
M04
100
AcDbLine
 10
549.21878
 20
104.326459
 30
0.0
 11
549.21878
 21
107.626459
 31
0.0
  0
LINE
  5
2BB
102
{ACAD_REACTORS
330
101
102
}
100
AcDbEntity
  8
M04
100
AcDbLine
 10
554.51878
 20
103.626459
 30
0.0
 11
554.51878
 21
106.126459
 31
0.0
  0
LINE
  5
2BC
102
{ACAD_REACTORS
330
101
102
}
100
AcDbEntity
  8
M04
100
AcDbLine
 10
553.81878
 20
104.326459
 30
0.0
 11
553.81878
 21
107.626459
 31
0.0
  0
LINE
  5
2BD
102
{ACAD_REACTORS
330
279
102
}
100
AcDbEntity
  8
M05
100
AcDbLine
 10
556.76878
 20
94.326459
 30
0.0
 11
546.26878
 21
94.326459
 31
0.0
  0
LINE
  5
2BE
102
{ACAD_REACTORS
330
279
102
}
100
AcDbEntity
  8
M04
100
AcDbLine
 10
546.26878
 20
94.326459
 30
0.0
 11
546.01878
 21
94.326459
 31
0.0
  0
LINE
  5
2BF
102
{ACAD_REACTORS
330
279
102
}
100
AcDbEntity
  8
M04
100
AcDbLine
 10
557.01878
 20
94.326459
 30
0.0
 11
557.01878
 21
90.326459
 31
0.0
  0
LINE
  5
2C0
102
{ACAD_REACTORS
330
279
102
}
100
AcDbEntity
  8
M04
100
AcDbLine
 10
546.01878
 20
94.326459
 30
0.0
 11
546.01878
 21
90.326459
 31
0.0
  0
LINE
  5
2C1
100
AcDbEntity
  8
M05
100
AcDbLine
 10
548.51878
 20
95.326459
 30
0.0
 11
554.51878
 21
95.326459
 31
0.0
  0
LINE
  5
2C2
102
{ACAD_REACTORS
330
101
102
}
100
AcDbEntity
  8
M04
100
AcDbLine
 10
553.81878
 20
107.626459
 30
0.0
 11
551.51878
 21
108.954365
 31
0.0
  0
LINE
  5
2C3
102
{ACAD_REACTORS
330
101
102
}
100
AcDbEntity
  8
M04
100
AcDbLine
 10
549.21878
 20
107.626459
 30
0.0
 11
551.51878
 21
108.954365
 31
0.0
  0
LINE
  5
2C4
100
AcDbEntity
  8
M04
100
AcDbLine
 10
549.21878
 20
107.626459
 30
0.0
 11
553.81878
 21
107.626459
 31
0.0
  0
LINE
  5
2C5
102
{ACAD_REACTORS
330
101
102
}
100
AcDbEntity
  8
M04
100
AcDbLine
 10
548.51878
 20
106.126459
 30
0.0
 11
554.51878
 21
106.126459
 31
0.0
  0
ARC
  5
2C6
100
AcDbEntity
  8
M05
100
AcDbCircle
 10
551.51878
 20
96.852596
 30
0.0
 40
5.826136
100
AcDbArc
 50
205.69541
 51
334.30459
  0
LINE
  5
2C7
100
AcDbEntity
  8
M05
100
AcDbLine
 10
554.51878
 20
103.626459
 30
0.0
 11
553.81878
 21
104.326459
 31
0.0
  0
LINE
  5
2C8
100
AcDbEntity
  8
M05
100
AcDbLine
 10
548.51878
 20
103.626459
 30
0.0
 11
549.21878
 21
104.326459
 31
0.0
  0
LINE
  5
2C9
100
AcDbEntity
  8
M05
100
AcDbLine
 10
548.51878
 20
103.626459
 30
0.0
 11
554.51878
 21
103.626459
 31
0.0
  0
LINE
  5
2CA
100
AcDbEntity
  8
M05
100
AcDbLine
 10
549.21878
 20
104.326459
 30
0.0
 11
553.81878
 21
104.326459
 31
0.0
  0
LINE
  5
2CB
102
{ACAD_REACTORS
330
279
102
}
100
AcDbEntity
  8
M04
100
AcDbLine
 10
547.81878
 20
96.326459
 30
0.0
 11
547.81878
 21
94.326459
 31
0.0
  0
LINE
  5
2CC
102
{ACAD_REACTORS
330
279
102
}
100
AcDbEntity
  8
M04
100
AcDbLine
 10
555.21878
 20
96.326459
 30
0.0
 11
555.21878
 21
94.326459
 31
0.0
  0
LINE
  5
2CD
100
AcDbEntity
  8
M05
100
AcDbLine
 10
553.81878
 20
104.326459
 30
0.0
 11
553.81878
 21
95.326459
 31
0.0
  0
LINE
  5
2CE
100
AcDbEntity
  8
M05
100
AcDbLine
 10
549.21878
 20
104.326459
 30
0.0
 11
549.21878
 21
95.326459
 31
0.0
  0
LINE
  5
2CF
102
{ACAD_REACTORS
330
101
102
}
100
AcDbEntity
  8
M05
100
AcDbLine
 10
548.51878
 20
103.626459
 30
0.0
 11
548.51878
 21
94.326459
 31
0.0
  0
LINE
  5
2D0
102
{ACAD_REACTORS
330
101
102
}
100
AcDbEntity
  8
M05
100
AcDbLine
 10
554.51878
 20
103.626459
 30
0.0
 11
554.51878
 21
94.326459
 31
0.0
  0
LINE
  5
2D1
102
{ACAD_REACTORS
330
279
102
}
100
AcDbEntity
  8
M04
100
AcDbLine
 10
557.01878
 20
94.326459
 30
0.0
 11
556.76878
 21
94.326459
 31
0.0
  0
LINE
  5
2D2
100
AcDbEntity
  8
CENTRE
100
AcDbLine
 10
551.51878
 20
111.59296
 30
0.0
 11
551.51878
 21
86.680271
 31
0.0
  0
LINE
  5
2D3
102
{ACAD_REACTORS
330
272
102
}
100
AcDbEntity
  8
M04
100
AcDbLine
 10
266.01878
 20
89.326459
 30
0.0
 11
506.01878
 21
89.326459
 31
0.0
  0
LINE
  5
2D4
102
{ACAD_REACTORS
330
FE
102
}
100
AcDbEntity
  8
M02
100
AcDbLine
 10
287.01878
 20
93.326459
 30
0.0
 11
491.51878
 21
93.326459
 31
0.0
  0
LINE
  5
2D5
100
AcDbEntity
  8
M04
100
AcDbLine
 10
263.01878
 20
71.498554
 30
0.0
 11
265.31878
 21
72.826459
 31
0.0
  0
LINE
  5
2D6
100
AcDbEntity
  8
M04
100
AcDbLine
 10
260.71878
 20
72.826459
 30
0.0
 11
263.01878
 21
71.498554
 31
0.0
  0
LINE
  5
2D7
100
AcDbEntity
  8
M04
100
AcDbLine
 10
260.71878
 20
72.826459
 30
0.0
 11
265.31878
 21
72.826459
 31
0.0
  0
LINE
  5
2D8
100
AcDbEntity
  8
M04
100
AcDbLine
 10
260.01878
 20
77.887577
 30
0.0
 11
260.01878
 21
74.326459
 31
0.0
  0
LINE
  5
2D9
100
AcDbEntity
  8
M04
100
AcDbLine
 10
260.71878
 20
77.187577
 30
0.0
 11
260.71878
 21
72.826459
 31
0.0
  0
LINE
  5
2DA
100
AcDbEntity
  8
M04
100
AcDbLine
 10
266.01878
 20
77.887577
 30
0.0
 11
266.01878
 21
74.326459
 31
0.0
  0
LINE
  5
2DB
100
AcDbEntity
  8
M04
100
AcDbLine
 10
265.31878
 20
77.187577
 30
0.0
 11
265.31878
 21
72.826459
 31
0.0
  0
LINE
  5
2DC
100
AcDbEntity
  8
M05
100
AcDbLine
 10
265.31878
 20
77.187577
 30
0.0
 11
266.01878
 21
77.887577
 31
0.0
  0
LINE
  5
2DD
100
AcDbEntity
  8
M05
100
AcDbLine
 10
260.01878
 20
77.887577
 30
0.0
 11
260.71878
 21
77.187577
 31
0.0
  0
LINE
  5
2DE
100
AcDbEntity
  8
M05
100
AcDbLine
 10
265.31878
 20
89.967577
 30
0.0
 11
265.31878
 21
77.187577
 31
0.0
  0
LINE
  5
2DF
100
AcDbEntity
  8
M05
100
AcDbLine
 10
260.71878
 20
89.967577
 30
0.0
 11
260.71878
 21
77.187577
 31
0.0
  0
LINE
  5
2E0
100
AcDbEntity
  8
M05
100
AcDbLine
 10
260.01878
 20
77.887577
 30
0.0
 11
266.01878
 21
77.887577
 31
0.0
  0
LINE
  5
2E1
100
AcDbEntity
  8
M04
100
AcDbLine
 10
260.01878
 20
74.326459
 30
0.0
 11
266.01878
 21
74.326459
 31
0.0
  0
LINE
  5
2E2
100
AcDbEntity
  8
M05
100
AcDbLine
 10
260.71878
 20
77.187577
 30
0.0
 11
265.31878
 21
77.187577
 31
0.0
  0
LINE
  5
2E3
100
AcDbEntity
  8
M05
  6
HIDDEN
100
AcDbLine
 10
254.859898
 20
96.626459
 30
0.0
 11
254.159898
 21
97.326459
 31
0.0
  0
LINE
  5
2E4
100
AcDbEntity
  8
M05
  6
HIDDEN
100
AcDbLine
 10
271.177662
 20
96.626459
 30
0.0
 11
271.877662
 21
97.326459
 31
0.0
  0
LINE
  5
2E5
100
AcDbEntity
  8
M05
100
AcDbLine
 10
260.01878
 20
89.967577
 30
0.0
 11
266.01878
 21
89.967577
 31
0.0
  0
LINE
  5
2E6
100
AcDbEntity
  8
M05
100
AcDbLine
 10
263.56878
 20
94.467577
 30
0.0
 11
269.01878
 21
94.467577
 31
0.0
  0
LINE
  5
2E7
100
AcDbEntity
  8
M05
100
AcDbLine
 10
263.56878
 20
95.187577
 30
0.0
 11
269.01878
 21
95.187577
 31
0.0
  0
LINE
  5
2E8
100
AcDbEntity
  8
M05
100
AcDbLine
 10
263.56878
 20
95.187577
 30
0.0
 11
263.56878
 21
93.687577
 31
0.0
  0
LINE
  5
2E9
100
AcDbEntity
  8
M05
100
AcDbLine
 10
262.46878
 20
95.187577
 30
0.0
 11
262.46878
 21
93.687577
 31
0.0
  0
LINE
  5
2EA
100
AcDbEntity
  8
M05
100
AcDbLine
 10
262.46878
 20
93.687577
 30
0.0
 11
263.56878
 21
93.687577
 31
0.0
  0
LINE
  5
2EB
102
{ACAD_REACTORS
330
272
102
}
100
AcDbEntity
  8
M05
100
AcDbLine
 10
266.51878
 20
91.967577
 30
0.0
 11
266.51878
 21
89.326459
 31
0.0
  0
LINE
  5
2EC
102
{ACAD_REACTORS
330
272
102
}
100
AcDbEntity
  8
M05
100
AcDbLine
 10
259.51878
 20
91.967577
 30
0.0
 11
259.51878
 21
89.326459
 31
0.0
  0
LINE
  5
2ED
100
AcDbEntity
  8
M05
100
AcDbLine
 10
257.01878
 20
94.467577
 30
0.0
 11
262.46878
 21
94.467577
 31
0.0
  0
LINE
  5
2EE
102
{ACAD_REACTORS
330
272
102
}
100
AcDbEntity
  8
M05
100
AcDbLine
 10
260.01878
 20
91.467577
 30
0.0
 11
254.859898
 21
96.626459
 31
0.0
  0
LINE
  5
2EF
100
AcDbEntity
  8
M05
100
AcDbLine
 10
257.01878
 20
95.187577
 30
0.0
 11
257.01878
 21
94.467577
 31
0.0
  0
LINE
  5
2F0
102
{ACAD_REACTORS
330
272
102
}
100
AcDbEntity
  8
M05
100
AcDbLine
 10
266.01878
 20
91.467577
 30
0.0
 11
271.177662
 21
96.626459
 31
0.0
  0
LINE
  5
2F1
100
AcDbEntity
  8
M05
100
AcDbLine
 10
260.01878
 20
91.467577
 30
0.0
 11
266.01878
 21
91.467577
 31
0.0
  0
LINE
  5
2F2
100
AcDbEntity
  8
M05
100
AcDbLine
 10
260.01878
 20
91.467577
 30
0.0
 11
260.01878
 21
77.887577
 31
0.0
  0
LINE
  5
2F3
100
AcDbEntity
  8
M05
100
AcDbLine
 10
266.01878
 20
91.467577
 30
0.0
 11
266.01878
 21
77.887577
 31
0.0
  0
LINE
  5
2F4
100
AcDbEntity
  8
M05
100
AcDbLine
 10
269.01878
 20
95.187577
 30
0.0
 11
269.01878
 21
94.467577
 31
0.0
  0
LINE
  5
2F5
100
AcDbEntity
  8
M05
100
AcDbLine
 10
257.01878
 20
95.187577
 30
0.0
 11
262.46878
 21
95.187577
 31
0.0
  0
LINE
  5
2F6
100
AcDbEntity
  8
M05
  6
HIDDEN
100
AcDbLine
 10
239.01878
 20
96.626459
 30
0.0
 11
287.01878
 21
96.626459
 31
0.0
  0
LINE
  5
2F7
100
AcDbEntity
  8
M05
  6
HIDDEN
100
AcDbLine
 10
287.01878
 20
96.626459
 30
0.0
 11
286.31878
 21
97.326459
 31
0.0
  0
LINE
  5
2F8
100
AcDbEntity
  8
M05
  6
HIDDEN
100
AcDbLine
 10
287.01878
 20
95.626459
 30
0.0
 11
287.01878
 21
96.626459
 31
0.0
  0
LINE
  5
2F9
102
{ACAD_REACTORS
330
272
102
}
100
AcDbEntity
  8
M05
100
AcDbLine
 10
287.01878
 20
95.626459
 30
0.0
 11
286.31878
 21
96.326459
 31
0.0
  0
LINE
  5
2FA
102
{ACAD_REACTORS
330
272
102
}
100
AcDbEntity
  8
M05
100
AcDbLine
 10
287.01878
 20
90.026459
 30
0.0
 11
286.31878
 21
89.326459
 31
0.0
  0
LINE
  5
2FB
102
{ACAD_REACTORS
330
272
102
}
100
AcDbEntity
  8
M05
100
AcDbLine
 10
287.01878
 20
95.626459
 30
0.0
 11
287.01878
 21
90.026459
 31
0.0
  0
LINE
  5
2FC
100
AcDbEntity
  8
M05
  6
HIDDEN
100
AcDbLine
 10
239.01878
 20
96.626459
 30
0.0
 11
239.71878
 21
97.326459
 31
0.0
  0
LINE
  5
2FD
100
AcDbEntity
  8
M05
  6
HIDDEN
100
AcDbLine
 10
239.01878
 20
95.626459
 30
0.0
 11
239.01878
 21
96.626459
 31
0.0
  0
LINE
  5
2FE
102
{ACAD_REACTORS
330
272
102
}
100
AcDbEntity
  8
M05
100
AcDbLine
 10
239.01878
 20
95.626459
 30
0.0
 11
239.71878
 21
96.326459
 31
0.0
  0
LINE
  5
2FF
102
{ACAD_REACTORS
330
272
102
}
100
AcDbEntity
  8
M05
100
AcDbLine
 10
239.01878
 20
90.026459
 30
0.0
 11
239.71878
 21
89.326459
 31
0.0
  0
LINE
  5
300
102
{ACAD_REACTORS
330
FE
102
}
100
AcDbEntity
  8
M02
100
AcDbLine
 10
288.01878
 20
96.326459
 30
0.0
 11
288.01878
 21
93.326459
 31
0.0
  0
LINE
  5
301
102
{ACAD_REACTORS
330
35
102
}
100
AcDbEntity
  8
M02
100
AcDbLine
 10
238.01878
 20
96.326459
 30
0.0
 11
238.01878
 21
93.326459
 31
0.0
  0
LINE
  5
302
100
AcDbEntity
  8
M05
  6
HIDDEN
100
AcDbLine
 10
239.71878
 20
97.326459
 30
0.0
 11
286.31878
 21
97.326459
 31
0.0
  0
LINE
  5
303
102
{ACAD_REACTORS
330
272
102
}
100
AcDbEntity
  8
M05
100
AcDbLine
 10
239.01878
 20
95.626459
 30
0.0
 11
239.01878
 21
90.026459
 31
0.0
  0
LINE
  5
304
100
AcDbEntity
  8
CENTRE
100
AcDbLine
 10
263.01878
 20
101.83557
 30
0.0
 11
263.01878
 21
68.757232
 31
0.0
  0
LINE
  5
305
100
AcDbEntity
  8
M01
100
AcDbLine
 10
521.51878
 20
119.326459
 30
0.0
 11
525.51878
 21
123.326459
 31
0.0
  0
LINE
  5
306
100
AcDbEntity
  8
M01
100
AcDbLine
 10
529.51878
 20
119.326459
 30
0.0
 11
525.51878
 21
123.326459
 31
0.0
  0
TEXT
  5
307
102
{ACAD_REACTORS
330
279
102
}
100
AcDbEntity
  8
TEXT
100
AcDbText
 10
530.59286
 20
91.893947
 30
0.0
 40
2.0
  1
MA010000
 41
0.9
100
AcDbText
  0
LINE
  5
308
100
AcDbEntity
  8
M04
100
AcDbLine
 10
495.51878
 20
71.326459
 30
0.0
 11
495.51878
 21
62.326459
 31
0.0
  0
LINE
  5
309
100
AcDbEntity
  8
M04
100
AcDbLine
 10
545.01878
 20
89.326459
 30
0.0
 11
765.395463
 21
89.326459
 31
0.0
  0
LINE
  5
30A
102
{ACAD_REACTORS
330
279
102
}
100
AcDbEntity
  8
M05
100
AcDbLine
 10
491.51878
 20
91.026459
 30
0.0
 11
492.21878
 21
90.326459
 31
0.0
  0
LINE
  5
30B
102
{ACAD_REACTORS
330
FE
102
}
100
AcDbEntity
  8
M02
100
AcDbLine
 10
490.51878
 20
96.326459
 30
0.0
 11
490.51878
 21
93.326459
 31
0.0
  0
LINE
  5
30C
102
{ACAD_REACTORS
330
279
330
101
102
}
100
AcDbEntity
  8
M01
100
AcDbLine
 10
535.51878
 20
96.326459
 30
0.0
 11
548.51878
 21
96.326459
 31
0.0
  0
LINE
  5
30D
100
AcDbEntity
  8
M04
100
AcDbLine
 10
495.51878
 20
71.326459
 30
0.0
 11
555.51878
 21
71.326459
 31
0.0
  0
LINE
  5
30E
100
AcDbEntity
  8
M04
100
AcDbLine
 10
505.51878
 20
81.326459
 30
0.0
 11
495.51878
 21
71.326459
 31
0.0
  0
LINE
  5
30F
100
AcDbEntity
  8
M04
100
AcDbLine
 10
555.51878
 20
71.326459
 30
0.0
 11
555.51878
 21
62.326459
 31
0.0
  0
LINE
  5
310
100
AcDbEntity
  8
M04
100
AcDbLine
 10
545.51878
 20
81.326459
 30
0.0
 11
555.51878
 21
71.326459
 31
0.0
  0
LINE
  5
311
100
AcDbEntity
  8
M05
100
AcDbLine
 10
522.477906
 20
88.025245
 30
0.0
 11
528.559654
 21
88.025245
 31
0.0
  0
ARC
  5
312
102
{ACAD_REACTORS
330
279
102
}
100
AcDbEntity
  8
M05
100
AcDbCircle
 10
525.51878
 20
72.826459
 30
0.0
 40
15.5
100
AcDbArc
 50
101.313981
 51
126.249321
  0
LINE
  5
313
102
{ACAD_REACTORS
330
101
102
}
100
AcDbEntity
  8
M01
100
AcDbLine
 10
521.51878
 20
119.326459
 30
0.0
 11
521.51878
 21
106.326459
 31
0.0
  0
LINE
  5
314
102
{ACAD_REACTORS
330
279
102
}
100
AcDbEntity
  8
M05
100
AcDbLine
 10
521.51878
 20
106.326459
 30
0.0
 11
522.477906
 21
88.025245
 31
0.0
  0
LINE
  5
315
102
{ACAD_REACTORS
330
279
102
}
100
AcDbEntity
  8
M05
100
AcDbLine
 10
529.51878
 20
106.326459
 30
0.0
 11
528.559654
 21
88.025245
 31
0.0
  0
ARC
  5
316
102
{ACAD_REACTORS
330
279
102
}
100
AcDbEntity
  8
M05
100
AcDbCircle
 10
525.51878
 20
72.826459
 30
0.0
 40
15.5
100
AcDbArc
 50
53.750679
 51
78.686019
  0
LINE
  5
317
102
{ACAD_REACTORS
330
101
102
}
100
AcDbEntity
  8
M01
100
AcDbLine
 10
529.51878
 20
119.326459
 30
0.0
 11
529.51878
 21
106.326459
 31
0.0
  0
LINE
  5
318
100
AcDbEntity
  8
M04
100
AcDbLine
 10
505.51878
 20
87.326459
 30
0.0
 11
505.51878
 21
89.326459
 31
0.0
  0
LINE
  5
319
100
AcDbEntity
  8
M04
100
AcDbLine
 10
505.51878
 20
86.026459
 30
0.0
 11
505.51878
 21
81.326459
 31
0.0
  0
LINE
  5
31A
100
AcDbEntity
  8
M04
100
AcDbLine
 10
545.51878
 20
87.326459
 30
0.0
 11
545.51878
 21
89.326459
 31
0.0
  0
LINE
  5
31B
100
AcDbEntity
  8
M04
100
AcDbLine
 10
545.51878
 20
86.026459
 30
0.0
 11
545.51878
 21
81.326459
 31
0.0
  0
LINE
  5
31C
100
AcDbEntity
  8
M04
100
AcDbLine
 10
545.51878
 20
81.326459
 30
0.0
 11
505.51878
 21
81.326459
 31
0.0
  0
LINE
  5
31D
102
{ACAD_REACTORS
330
279
102
}
100
AcDbEntity
  8
M05
100
AcDbLine
 10
506.01878
 20
87.326459
 30
0.0
 11
505.51878
 21
87.326459
 31
0.0
  0
LINE
  5
31E
102
{ACAD_REACTORS
330
279
102
}
100
AcDbEntity
  8
M05
100
AcDbLine
 10
506.01878
 20
90.326459
 30
0.0
 11
492.21878
 21
90.326459
 31
0.0
  0
LINE
  5
31F
102
{ACAD_REACTORS
330
279
102
}
100
AcDbEntity
  8
M05
100
AcDbLine
 10
506.01878
 20
90.326459
 30
0.0
 11
506.01878
 21
87.326459
 31
0.0
  0
LINE
  5
320
102
{ACAD_REACTORS
330
279
102
}
100
AcDbEntity
  8
M05
100
AcDbLine
 10
545.01878
 20
90.326459
 30
0.0
 11
545.01878
 21
87.326459
 31
0.0
  0
LINE
  5
321
102
{ACAD_REACTORS
330
279
102
}
100
AcDbEntity
  8
M05
100
AcDbLine
 10
545.51878
 20
87.326459
 30
0.0
 11
545.01878
 21
87.326459
 31
0.0
  0
LINE
  5
322
102
{ACAD_REACTORS
330
279
102
}
100
AcDbEntity
  8
M05
100
AcDbLine
 10
506.21878
 20
85.326459
 30
0.0
 11
505.51878
 21
86.026459
 31
0.0
  0
LINE
  5
323
102
{ACAD_REACTORS
330
279
102
}
100
AcDbEntity
  8
M05
100
AcDbLine
 10
544.81878
 20
85.326459
 30
0.0
 11
545.51878
 21
86.026459
 31
0.0
  0
LINE
  5
324
102
{ACAD_REACTORS
330
279
102
}
100
AcDbEntity
  8
M05
100
AcDbLine
 10
544.81878
 20
85.326459
 30
0.0
 11
506.21878
 21
85.326459
 31
0.0
  0
LINE
  5
325
102
{ACAD_REACTORS
330
279
102
}
100
AcDbEntity
  8
M05
100
AcDbLine
 10
505.51878
 20
87.326459
 30
0.0
 11
505.51878
 21
86.026459
 31
0.0
  0
LINE
  5
326
102
{ACAD_REACTORS
330
279
102
}
100
AcDbEntity
  8
M05
100
AcDbLine
 10
545.51878
 20
87.326459
 30
0.0
 11
545.51878
 21
86.026459
 31
0.0
  0
LINE
  5
327
102
{ACAD_REACTORS
330
101
102
}
100
AcDbEntity
  8
M04
100
AcDbLine
 10
515.51878
 20
96.826459
 30
0.0
 11
515.01878
 21
96.326459
 31
0.0
  0
LINE
  5
328
102
{ACAD_REACTORS
330
101
102
}
100
AcDbEntity
  8
M04
100
AcDbLine
 10
535.51878
 20
96.826459
 30
0.0
 11
536.01878
 21
96.326459
 31
0.0
  0
LINE
  5
329
102
{ACAD_REACTORS
330
279
102
}
100
AcDbEntity
  8
M05
100
AcDbLine
 10
491.51878
 20
95.626459
 30
0.0
 11
492.21878
 21
96.326459
 31
0.0
  0
LINE
  5
32A
102
{ACAD_REACTORS
330
279
102
}
100
AcDbEntity
  8
M05
100
AcDbLine
 10
491.51878
 20
95.626459
 30
0.0
 11
491.51878
 21
91.026459
 31
0.0
  0
LINE
  5
32B
102
{ACAD_REACTORS
330
279
102
}
100
AcDbEntity
  8
M05
100
AcDbLine
 10
559.51878
 20
95.626459
 30
0.0
 11
558.81878
 21
96.326459
 31
0.0
  0
LINE
  5
32C
102
{ACAD_REACTORS
330
279
102
}
100
AcDbEntity
  8
M05
100
AcDbLine
 10
559.51878
 20
91.026459
 30
0.0
 11
558.81878
 21
90.326459
 31
0.0
  0
LINE
  5
32D
102
{ACAD_REACTORS
330
FF
102
}
100
AcDbEntity
  8
M02
100
AcDbLine
 10
560.51878
 20
96.326459
 30
0.0
 11
560.51878
 21
93.326459
 31
0.0
  0
LINE
  5
32E
102
{ACAD_REACTORS
330
279
102
}
100
AcDbEntity
  8
M05
100
AcDbLine
 10
558.81878
 20
90.326459
 30
0.0
 11
545.01878
 21
90.326459
 31
0.0
  0
LINE
  5
32F
102
{ACAD_REACTORS
330
279
102
}
100
AcDbEntity
  8
M05
100
AcDbLine
 10
559.51878
 20
95.626459
 30
0.0
 11
559.51878
 21
91.026459
 31
0.0
  0
LINE
  5
330
102
{ACAD_REACTORS
330
101
102
}
100
AcDbEntity
  8
M04
100
AcDbLine
 10
515.51878
 20
105.326459
 30
0.0
 11
515.51878
 21
106.326459
 31
0.0
  0
LINE
  5
331
102
{ACAD_REACTORS
330
101
102
}
100
AcDbEntity
  8
M04
100
AcDbLine
 10
516.51878
 20
106.326459
 30
0.0
 11
515.51878
 21
106.326459
 31
0.0
  0
LINE
  5
332
102
{ACAD_REACTORS
330
101
102
}
100
AcDbEntity
  8
M04
100
AcDbLine
 10
535.51878
 20
105.326459
 30
0.0
 11
535.51878
 21
106.326459
 31
0.0
  0
LINE
  5
333
102
{ACAD_REACTORS
330
101
102
}
100
AcDbEntity
  8
M04
100
AcDbLine
 10
534.51878
 20
106.326459
 30
0.0
 11
535.51878
 21
106.326459
 31
0.0
  0
LINE
  5
334
102
{ACAD_REACTORS
330
279
102
}
100
AcDbEntity
  8
M05
100
AcDbLine
 10
534.51878
 20
106.326459
 30
0.0
 11
535.51878
 21
105.326459
 31
0.0
  0
LINE
  5
335
102
{ACAD_REACTORS
330
279
102
}
100
AcDbEntity
  8
M05
100
AcDbLine
 10
515.51878
 20
105.326459
 30
0.0
 11
516.51878
 21
106.326459
 31
0.0
  0
LINE
  5
336
102
{ACAD_REACTORS
330
279
330
101
102
}
100
AcDbEntity
  8
M05
100
AcDbLine
 10
534.51878
 20
106.326459
 30
0.0
 11
516.51878
 21
106.326459
 31
0.0
  0
LINE
  5
337
102
{ACAD_REACTORS
330
279
330
101
102
}
100
AcDbEntity
  8
M05
100
AcDbLine
 10
515.51878
 20
105.326459
 30
0.0
 11
515.51878
 21
96.326459
 31
0.0
  0
LINE
  5
338
102
{ACAD_REACTORS
330
279
330
101
102
}
100
AcDbEntity
  8
M05
100
AcDbLine
 10
535.51878
 20
105.326459
 30
0.0
 11
535.51878
 21
96.326459
 31
0.0
  0
LINE
  5
339
100
AcDbEntity
  8
M04
100
AcDbLine
 10
547.24378
 20
163.326459
 30
0.0
 11
658.524052
 21
163.326459
 31
0.0
  0
LINE
  5
33A
102
{ACAD_REACTORS
330
F3
102
}
100
AcDbEntity
  8
M02
100
AcDbLine
 10
547.24378
 20
159.326459
 30
0.0
 11
658.524052
 21
159.326459
 31
0.0
  0
LINE
  5
33B
102
{ACAD_REACTORS
330
35
102
}
100
AcDbEntity
  8
M02
100
AcDbLine
 10
232.75878
 20
93.326459
 30
0.0
 11
239.01878
 21
93.326459
 31
0.0
  0
LINE
  5
33C
102
{ACAD_REACTORS
330
FF
102
}
100
AcDbEntity
  8
M02
100
AcDbLine
 10
738.844681
 20
96.326459
 30
0.0
 11
738.844681
 21
93.326459
 31
0.0
  0
LINE
  5
33D
102
{ACAD_REACTORS
330
35
102
}
100
AcDbEntity
  8
M02
100
AcDbLine
 10
232.75878
 20
96.326459
 30
0.0
 11
232.75878
 21
93.326459
 31
0.0
  0
LINE
  5
33E
102
{ACAD_REACTORS
330
FD
330
FC
102
}
100
AcDbEntity
  8
M02
100
AcDbLine
 10
232.75878
 20
159.326459
 30
0.0
 11
503.79378
 21
159.326459
 31
0.0
  0
LINE
  5
33F
102
{ACAD_REACTORS
330
100
102
}
100
AcDbEntity
  8
M02
100
AcDbLine
 10
738.844681
 20
156.326459
 30
0.0
 11
738.844681
 21
159.326459
 31
0.0
  0
LINE
  5
340
102
{ACAD_REACTORS
330
FC
102
}
100
AcDbEntity
  8
M02
100
AcDbLine
 10
232.75878
 20
156.326459
 30
0.0
 11
232.75878
 21
159.326459
 31
0.0
  0
LINE
  5
341
102
{ACAD_REACTORS
330
101
102
}
100
AcDbEntity
  8
M01
100
AcDbLine
 10
740.844681
 20
98.326459
 30
0.0
 11
738.844681
 21
96.326459
 31
0.0
  0
LINE
  5
342
102
{ACAD_REACTORS
330
101
102
}
100
AcDbEntity
  8
M01
100
AcDbLine
 10
738.844681
 20
156.326459
 30
0.0
 11
740.844681
 21
154.326459
 31
0.0
  0
LINE
  5
343
100
AcDbEntity
  8
M01
100
AcDbLine
 10
230.75878
 20
154.326459
 30
0.0
 11
232.75878
 21
156.326459
 31
0.0
  0
LINE
  5
344
100
AcDbEntity
  8
M01
100
AcDbLine
 10
232.75878
 20
96.326459
 30
0.0
 11
230.75878
 21
98.326459
 31
0.0
  0
LINE
  5
345
102
{ACAD_REACTORS
330
101
102
}
100
AcDbEntity
  8
M01
100
AcDbLine
 10
740.844681
 20
154.326459
 30
0.0
 11
740.844681
 21
98.326459
 31
0.0
  0
LINE
  5
346
100
AcDbEntity
  8
M01
100
AcDbLine
 10
230.75878
 20
154.326459
 30
0.0
 11
230.75878
 21
98.326459
 31
0.0
  0
LINE
  5
347
102
{ACAD_REACTORS
330
279
330
101
330
FE
330
272
330
35
102
}
100
AcDbEntity
  8
M01
100
AcDbLine
 10
232.75878
 20
96.326459
 30
0.0
 11
515.51878
 21
96.326459
 31
0.0
  0
LINE
  5
348
102
{ACAD_REACTORS
330
101
330
FD
330
FC
330
F3
102
}
100
AcDbEntity
  8
M01
100
AcDbLine
 10
232.75878
 20
156.326459
 30
0.0
 11
658.524052
 21
156.326459
 31
0.0
  0
LINE
  5
349
100
AcDbEntity
  8
M04
100
AcDbLine
 10
223.75878
 20
163.326459
 30
0.0
 11
503.79378
 21
163.326459
 31
0.0
  0
LINE
  5
34A
102
{ACAD_REACTORS
330
101
102
}
100
AcDbEntity
  8
CENTRE
100
AcDbLine
 10
525.51878
 20
193.961206
 30
0.0
 11
525.51878
 21
53.006517
 31
0.0
  0
LINE
  5
34B
100
AcDbEntity
  8
M04
100
AcDbLine
 10
747.844681
 20
163.326459
 30
0.0
 11
747.844681
 21
89.326459
 31
0.0
  0
LINE
  5
34C
100
AcDbEntity
  8
M04
100
AcDbLine
 10
223.75878
 20
163.326459
 30
0.0
 11
223.75878
 21
89.326459
 31
0.0
  0
LINE
  5
34D
102
{ACAD_REACTORS
330
272
102
}
100
AcDbEntity
  8
M04
100
AcDbLine
 10
206.207998
 20
89.326459
 30
0.0
 11
260.01878
 21
89.326459
 31
0.0
  0
DIMENSION
  5
34E
100
AcDbEntity
  8
DIMS
100
AcDbDimension
  2
*D7
 10
820.01878
 20
680.911124
 30
0.0
 11
525.51878
 21
683.911124
 31
0.0
  1
L=<>
  3
DIM1
100
AcDbAlignedDimension
 13
231.01878
 23
533.676542
 33
0.0
 14
820.01878
 24
533.676542
 34
0.0
100
AcDbRotatedDimension
1001
ACAD
1000
DSTYLE
1002
{
1070
   144
1040
1.0
1002
}
  0
ARC
  5
35B
100
AcDbEntity
  8
M04
100
AcDbCircle
 10
449.844681
 20
479.559226
 30
0.0
 40
5.0
100
AcDbArc
 50
135.0
 51
270.0
  0
ARC
  5
35C
100
AcDbEntity
  8
M04
100
AcDbCircle
 10
601.192878
 20
479.559226
 30
0.0
 40
5.0
100
AcDbArc
 50
270.0
 51
45.0
  0
ARC
  5
35D
100
AcDbEntity
  8
M04
100
AcDbCircle
 10
601.192878
 20
385.559226
 30
0.0
 40
5.0
100
AcDbArc
 50
315.0
 51
90.0
  0
ARC
  5
35E
100
AcDbEntity
  8
M04
100
AcDbCircle
 10
449.844681
 20
385.559226
 30
0.0
 40
5.0
100
AcDbArc
 50
90.0
 51
225.0
  0
LINE
  5
35F
100
AcDbEntity
  8
M04
100
AcDbLine
 10
449.844681
 20
390.559226
 30
0.0
 11
601.192878
 21
390.559226
 31
0.0
  0
LINE
  5
360
100
AcDbEntity
  8
M04
100
AcDbLine
 10
449.844681
 20
474.559226
 30
0.0
 11
601.192878
 21
474.559226
 31
0.0
  0
ARC
  5
361
100
AcDbEntity
  8
M01
100
AcDbCircle
 10
449.844681
 20
385.559226
 30
0.0
 40
12.0
100
AcDbArc
 50
90.0
 51
225.0
  0
ARC
  5
362
100
AcDbEntity
  8
M01
100
AcDbCircle
 10
449.844681
 20
479.559226
 30
0.0
 40
12.0
100
AcDbArc
 50
135.0
 51
270.0
  0
ARC
  5
363
100
AcDbEntity
  8
M01
100
AcDbCircle
 10
601.192878
 20
479.559226
 30
0.0
 40
12.0
100
AcDbArc
 50
270.0
 51
45.0
  0
ARC
  5
364
100
AcDbEntity
  8
M01
100
AcDbCircle
 10
601.192878
 20
385.559226
 30
0.0
 40
12.0
100
AcDbArc
 50
315.0
 51
90.0
  0
LINE
  5
365
100
AcDbEntity
  8
M01
100
AcDbLine
 10
449.844681
 20
397.559226
 30
0.0
 11
601.192878
 21
397.559226
 31
0.0
  0
LINE
  5
366
100
AcDbEntity
  8
M01
100
AcDbLine
 10
449.844681
 20
467.559226
 30
0.0
 11
601.192878
 21
467.559226
 31
0.0
  0
LINE
  5
367
100
AcDbEntity
  8
CENTRE
100
AcDbLine
 10
350.51878
 20
652.003033
 30
0.0
 11
350.51878
 21
312.074032
 31
0.0
  0
ARC
  5
368
100
AcDbEntity
  8
M04
100
AcDbCircle
 10
607.887791
 20
315.886607
 30
0.0
 40
15.0
100
AcDbArc
 50
225.0
 51
315.0
  0
ARC
  5
369
100
AcDbEntity
  8
M04
100
AcDbCircle
 10
583.846161
 20
339.928238
 30
0.0
 40
15.0
100
AcDbArc
 50
135.0
 51
225.0
  0
ARC
  5
36A
100
AcDbEntity
  8
M04
100
AcDbCircle
 10
583.846161
 20
525.190214
 30
0.0
 40
15.0
100
AcDbArc
 50
135.0
 51
225.0
  0
ARC
  5
36B
100
AcDbEntity
  8
M04
100
AcDbCircle
 10
607.887791
 20
549.231845
 30
0.0
 40
15.0
100
AcDbArc
 50
45.0
 51
135.0
  0
ARC
  5
36C
100
AcDbEntity
  8
M04
100
AcDbCircle
 10
793.149768
 20
549.231845
 30
0.0
 40
15.0
100
AcDbArc
 50
45.0
 51
135.0
  0
ARC
  5
36D
100
AcDbEntity
  8
M04
100
AcDbCircle
 10
817.191398
 20
525.190214
 30
0.0
 40
15.0
100
AcDbArc
 50
315.0
 51
45.0
  0
LINE
  5
36E
100
AcDbEntity
  8
M04
100
AcDbLine
 10
597.28119
 20
559.838447
 30
0.0
 11
573.239559
 21
535.796816
 31
0.0
  0
LINE
  5
36F
100
AcDbEntity
  8
M04
100
AcDbLine
 10
803.75637
 20
559.838447
 30
0.0
 11
827.798
 21
535.796816
 31
0.0
  0
LINE
  5
370
100
AcDbEntity
  8
M04
100
AcDbLine
 10
597.28119
 20
305.280005
 30
0.0
 11
573.239559
 21
329.321636
 31
0.0
  0
ARC
  5
371
100
AcDbEntity
  8
M04
100
AcDbCircle
 10
817.191398
 20
339.928238
 30
0.0
 40
15.0
100
AcDbArc
 50
315.0
 51
45.0
  0
ARC
  5
372
100
AcDbEntity
  8
M04
100
AcDbCircle
 10
793.149768
 20
315.886607
 30
0.0
 40
15.0
100
AcDbArc
 50
225.0
 51
315.0
  0
LINE
  5
373
100
AcDbEntity
  8
M04
100
AcDbLine
 10
803.75637
 20
305.280005
 30
0.0
 11
827.798
 21
329.321636
 31
0.0
  0
CIRCLE
  5
374
100
AcDbEntity
  8
M03
100
AcDbCircle
 10
788.01878
 20
520.059226
 30
0.0
 40
25.0
  0
CIRCLE
  5
375
100
AcDbEntity
  8
M03
100
AcDbCircle
 10
788.01878
 20
520.059226
 30
0.0
 40
24.0
  0
LINE
  5
376
100
AcDbEntity
  8
M01
100
AcDbLine
 10
599.401464
 20
552.059226
 30
0.0
 11
581.01878
 21
533.676542
 31
0.0
  0
LINE
  5
377
100
AcDbEntity
  8
M01
100
AcDbLine
 10
801.636095
 20
552.059226
 30
0.0
 11
820.01878
 21
533.676542
 31
0.0
  0
LINE
  5
378
100
AcDbEntity
  8
M01
100
AcDbLine
 10
599.401464
 20
313.059226
 30
0.0
 11
581.01878
 21
331.44191
 31
0.0
  0
LINE
  5
379
100
AcDbEntity
  8
M01
100
AcDbLine
 10
801.636095
 20
313.059226
 30
0.0
 11
820.01878
 21
331.44191
 31
0.0
  0
LINE
  5
37A
100
AcDbEntity
  8
M01
100
AcDbLine
 10
715.76878
 20
579.503326
 30
0.0
 11
709.26878
 21
579.503326
 31
0.0
  0
LINE
  5
37B
100
AcDbEntity
  8
M01
100
AcDbLine
 10
715.76878
 20
587.615126
 30
0.0
 11
709.26878
 21
587.615126
 31
0.0
  0
LINE
  5
37C
100
AcDbEntity
  8
M01
100
AcDbLine
 10
715.76878
 20
579.503326
 30
0.0
 11
715.76878
 21
577.559226
 31
0.0
  0
ARC
  5
37D
100
AcDbEntity
  8
M01
100
AcDbCircle
 10
717.01878
 20
581.064576
 30
0.0
 40
2.0
100
AcDbArc
 50
180.0
 51
231.317813
  0
ARC
  5
37E
100
AcDbEntity
  8
M01
100
AcDbCircle
 10
717.01878
 20
586.053876
 30
0.0
 40
2.0
100
AcDbArc
 50
128.682187
 51
180.0
  0
LINE
  5
37F
100
AcDbEntity
  8
M01
100
AcDbLine
 10
715.76878
 20
589.559226
 30
0.0
 11
715.76878
 21
587.615126
 31
0.0
  0
LINE
  5
380
100
AcDbEntity
  8
M01
100
AcDbLine
 10
715.01878
 20
586.053876
 30
0.0
 11
715.01878
 21
581.064576
 31
0.0
  0
LINE
  5
381
100
AcDbEntity
  8
M01
100
AcDbLine
 10
709.26878
 20
579.503326
 30
0.0
 11
709.26878
 21
577.559226
 31
0.0
  0
ARC
  5
382
100
AcDbEntity
  8
M01
100
AcDbCircle
 10
708.01878
 20
581.064576
 30
0.0
 40
2.0
100
AcDbArc
 50
308.682187
 51
0.0
  0
ARC
  5
383
100
AcDbEntity
  8
M01
100
AcDbCircle
 10
708.01878
 20
586.053876
 30
0.0
 40
2.0
100
AcDbArc
 50
0.0
 51
51.317813
  0
LINE
  5
384
100
AcDbEntity
  8
M01
100
AcDbLine
 10
709.26878
 20
589.559226
 30
0.0
 11
709.26878
 21
587.615126
 31
0.0
  0
LINE
  5
385
100
AcDbEntity
  8
M01
100
AcDbLine
 10
710.01878
 20
586.053876
 30
0.0
 11
710.01878
 21
581.064576
 31
0.0
  0
LINE
  5
386
100
AcDbEntity
  8
M01
100
AcDbLine
 10
708.01878
 20
589.559226
 30
0.0
 11
717.01878
 21
589.559226
 31
0.0
  0
LINE
  5
387
100
AcDbEntity
  8
M01
100
AcDbLine
 10
717.01878
 20
590.359226
 30
0.0
 11
717.01878
 21
589.559226
 31
0.0
  0
LINE
  5
388
100
AcDbEntity
  8
M01
100
AcDbLine
 10
708.01878
 20
590.359226
 30
0.0
 11
708.01878
 21
589.559226
 31
0.0
  0
LINE
  5
389
100
AcDbEntity
  8
M01
100
AcDbLine
 10
685.26878
 20
579.503326
 30
0.0
 11
691.76878
 21
579.503326
 31
0.0
  0
LINE
  5
38A
100
AcDbEntity
  8
M01
100
AcDbLine
 10
685.26878
 20
587.615126
 30
0.0
 11
691.76878
 21
587.615126
 31
0.0
  0
LINE
  5
38B
100
AcDbEntity
  8
M01
100
AcDbLine
 10
685.26878
 20
579.503326
 30
0.0
 11
685.26878
 21
577.559226
 31
0.0
  0
ARC
  5
38C
100
AcDbEntity
  8
M01
100
AcDbCircle
 10
684.01878
 20
581.064576
 30
0.0
 40
2.0
100
AcDbArc
 50
308.682187
 51
0.0
  0
ARC
  5
38D
100
AcDbEntity
  8
M01
100
AcDbCircle
 10
684.01878
 20
586.053876
 30
0.0
 40
2.0
100
AcDbArc
 50
0.0
 51
51.317813
  0
LINE
  5
38E
100
AcDbEntity
  8
M01
100
AcDbLine
 10
685.26878
 20
589.559226
 30
0.0
 11
685.26878
 21
587.615126
 31
0.0
  0
LINE
  5
38F
100
AcDbEntity
  8
M01
100
AcDbLine
 10
686.01878
 20
586.053876
 30
0.0
 11
686.01878
 21
581.064576
 31
0.0
  0
LINE
  5
390
100
AcDbEntity
  8
M01
100
AcDbLine
 10
691.76878
 20
579.503326
 30
0.0
 11
691.76878
 21
577.559226
 31
0.0
  0
ARC
  5
391
100
AcDbEntity
  8
M01
100
AcDbCircle
 10
693.01878
 20
581.064576
 30
0.0
 40
2.0
100
AcDbArc
 50
180.0
 51
231.317813
  0
ARC
  5
392
100
AcDbEntity
  8
M01
100
AcDbCircle
 10
693.01878
 20
586.053876
 30
0.0
 40
2.0
100
AcDbArc
 50
128.682187
 51
180.0
  0
LINE
  5
393
100
AcDbEntity
  8
M01
100
AcDbLine
 10
691.76878
 20
589.559226
 30
0.0
 11
691.76878
 21
587.615126
 31
0.0
  0
LINE
  5
394
100
AcDbEntity
  8
M01
100
AcDbLine
 10
691.01878
 20
586.053876
 30
0.0
 11
691.01878
 21
581.064576
 31
0.0
  0
LINE
  5
395
100
AcDbEntity
  8
M01
100
AcDbLine
 10
717.51878
 20
572.559226
 30
0.0
 11
707.51878
 21
572.559226
 31
0.0
  0
LINE
  5
396
100
AcDbEntity
  8
M01
100
AcDbLine
 10
683.51878
 20
572.559226
 30
0.0
 11
693.51878
 21
572.559226
 31
0.0
  0
LINE
  5
397
100
AcDbEntity
  8
M01
100
AcDbLine
 10
683.51878
 20
577.559226
 30
0.0
 11
683.51878
 21
557.559226
 31
0.0
  0
LINE
  5
398
100
AcDbEntity
  8
M01
100
AcDbLine
 10
693.51878
 20
577.559226
 30
0.0
 11
693.51878
 21
557.559226
 31
0.0
  0
LINE
  5
399
100
AcDbEntity
  8
M01
100
AcDbLine
 10
707.51878
 20
577.559226
 30
0.0
 11
707.51878
 21
557.559226
 31
0.0
  0
LINE
  5
39A
100
AcDbEntity
  8
M01
100
AcDbLine
 10
717.51878
 20
577.559226
 30
0.0
 11
717.51878
 21
557.559226
 31
0.0
  0
LINE
  5
39B
100
AcDbEntity
  8
M01
100
AcDbLine
 10
715.549868
 20
599.459226
 30
0.0
 11
709.487691
 21
599.459226
 31
0.0
  0
ARC
  5
39C
100
AcDbEntity
  8
M01
100
AcDbCircle
 10
709.487691
 20
597.609921
 30
0.0
 40
1.150694
100
AcDbArc
 50
208.592423
 51
331.407577
  0
ARC
  5
39D
100
AcDbEntity
  8
M01
100
AcDbCircle
 10
712.51878
 20
600.162004
 30
0.0
 40
3.702778
100
AcDbArc
 50
236.92527
 51
303.07473
  0
ARC
  5
39E
100
AcDbEntity
  8
M01
100
AcDbCircle
 10
715.549868
 20
597.609921
 30
0.0
 40
1.150694
100
AcDbArc
 50
208.592423
 51
331.407577
  0
ARC
  5
39F
100
AcDbEntity
  8
M01
100
AcDbCircle
 10
709.487691
 20
598.308532
 30
0.0
 40
1.150694
100
AcDbArc
 50
28.592423
 51
151.407577
  0
ARC
  5
3A0
100
AcDbEntity
  8
M01
100
AcDbCircle
 10
712.51878
 20
595.756448
 30
0.0
 40
3.702778
100
AcDbArc
 50
56.92527
 51
123.07473
  0
LINE
  5
3A1
100
AcDbEntity
  8
M01
100
AcDbLine
 10
710.498054
 20
598.859226
 30
0.0
 11
710.498054
 21
597.059226
 31
0.0
  0
LINE
  5
3A2
100
AcDbEntity
  8
M01
100
AcDbLine
 10
708.477328
 20
598.859226
 30
0.0
 11
708.477328
 21
597.059226
 31
0.0
  0
ARC
  5
3A3
100
AcDbEntity
  8
M01
100
AcDbCircle
 10
715.549868
 20
598.308532
 30
0.0
 40
1.150694
100
AcDbArc
 50
28.592423
 51
151.407577
  0
LINE
  5
3A4
100
AcDbEntity
  8
M01
100
AcDbLine
 10
714.539505
 20
598.859226
 30
0.0
 11
714.539505
 21
597.059226
 31
0.0
  0
LINE
  5
3A5
100
AcDbEntity
  8
M01
100
AcDbLine
 10
716.560231
 20
598.859226
 30
0.0
 11
716.560231
 21
597.059226
 31
0.0
  0
LINE
  5
3A6
100
AcDbEntity
  8
M01
100
AcDbLine
 10
707.51878
 20
594.159226
 30
0.0
 11
707.51878
 21
595.659226
 31
0.0
  0
LINE
  5
3A7
100
AcDbEntity
  8
M01
100
AcDbLine
 10
717.51878
 20
594.159226
 30
0.0
 11
717.51878
 21
595.659226
 31
0.0
  0
LINE
  5
3A8
100
AcDbEntity
  8
M01
100
AcDbLine
 10
708.01878
 20
595.659226
 30
0.0
 11
708.01878
 21
596.459226
 31
0.0
  0
LINE
  5
3A9
100
AcDbEntity
  8
M01
100
AcDbLine
 10
717.01878
 20
595.659226
 30
0.0
 11
717.01878
 21
596.459226
 31
0.0
  0
LINE
  5
3AA
100
AcDbEntity
  8
M01
100
AcDbLine
 10
717.01878
 20
596.459226
 30
0.0
 11
708.01878
 21
596.459226
 31
0.0
  0
LINE
  5
3AB
100
AcDbEntity
  8
M01
100
AcDbLine
 10
717.51878
 20
595.659226
 30
0.0
 11
707.51878
 21
595.659226
 31
0.0
  0
LINE
  5
3AC
100
AcDbEntity
  8
M01
100
AcDbLine
 10
708.01878
 20
593.359226
 30
0.0
 11
708.01878
 21
594.159226
 31
0.0
  0
LINE
  5
3AD
100
AcDbEntity
  8
M01
100
AcDbLine
 10
717.01878
 20
593.359226
 30
0.0
 11
717.01878
 21
594.159226
 31
0.0
  0
LINE
  5
3AE
100
AcDbEntity
  8
M01
100
AcDbLine
 10
717.51878
 20
594.159226
 30
0.0
 11
707.51878
 21
594.159226
 31
0.0
  0
ARC
  5
3AF
100
AcDbEntity
  8
M01
100
AcDbCircle
 10
709.487691
 20
591.509921
 30
0.0
 40
1.150694
100
AcDbArc
 50
208.592423
 51
331.407577
  0
ARC
  5
3B0
100
AcDbEntity
  8
M01
100
AcDbCircle
 10
712.51878
 20
594.062004
 30
0.0
 40
3.702778
100
AcDbArc
 50
236.92527
 51
303.07473
  0
ARC
  5
3B1
100
AcDbEntity
  8
M01
100
AcDbCircle
 10
715.549868
 20
591.509921
 30
0.0
 40
1.150694
100
AcDbArc
 50
208.592423
 51
331.407577
  0
ARC
  5
3B2
100
AcDbEntity
  8
M01
100
AcDbCircle
 10
709.487691
 20
592.208532
 30
0.0
 40
1.150694
100
AcDbArc
 50
28.592423
 51
151.407577
  0
ARC
  5
3B3
100
AcDbEntity
  8
M01
100
AcDbCircle
 10
712.51878
 20
589.656448
 30
0.0
 40
3.702778
100
AcDbArc
 50
56.92527
 51
123.07473
  0
LINE
  5
3B4
100
AcDbEntity
  8
M01
100
AcDbLine
 10
710.498054
 20
592.759226
 30
0.0
 11
710.498054
 21
590.959226
 31
0.0
  0
LINE
  5
3B5
100
AcDbEntity
  8
M01
100
AcDbLine
 10
708.477328
 20
592.759226
 30
0.0
 11
708.477328
 21
590.959226
 31
0.0
  0
ARC
  5
3B6
100
AcDbEntity
  8
M01
100
AcDbCircle
 10
715.549868
 20
592.208532
 30
0.0
 40
1.150694
100
AcDbArc
 50
28.592423
 51
151.407577
  0
LINE
  5
3B7
100
AcDbEntity
  8
M01
100
AcDbLine
 10
714.539505
 20
592.759226
 30
0.0
 11
714.539505
 21
590.959226
 31
0.0
  0
LINE
  5
3B8
100
AcDbEntity
  8
M01
100
AcDbLine
 10
716.560231
 20
592.759226
 30
0.0
 11
716.560231
 21
590.959226
 31
0.0
  0
LINE
  5
3B9
100
AcDbEntity
  8
M01
100
AcDbLine
 10
717.01878
 20
593.359226
 30
0.0
 11
708.01878
 21
593.359226
 31
0.0
  0
LINE
  5
3BA
100
AcDbEntity
  8
M01
100
AcDbLine
 10
717.01878
 20
590.359226
 30
0.0
 11
708.01878
 21
590.359226
 31
0.0
  0
LINE
  5
3BB
100
AcDbEntity
  8
M01
100
AcDbLine
 10
711.01878
 20
602.559226
 30
0.0
 11
710.51878
 21
602.059226
 31
0.0
  0
LINE
  5
3BC
100
AcDbEntity
  8
M01
100
AcDbLine
 10
714.51878
 20
602.059226
 30
0.0
 11
714.01878
 21
602.559226
 31
0.0
  0
LINE
  5
3BD
100
AcDbEntity
  8
M01
100
AcDbLine
 10
714.51878
 20
602.059226
 30
0.0
 11
710.51878
 21
602.059226
 31
0.0
  0
LINE
  5
3BE
100
AcDbEntity
  8
M01
100
AcDbLine
 10
711.01878
 20
602.559226
 30
0.0
 11
711.01878
 21
599.459226
 31
0.0
  0
LINE
  5
3BF
100
AcDbEntity
  8
M01
100
AcDbLine
 10
714.01878
 20
602.559226
 30
0.0
 11
714.01878
 21
599.459226
 31
0.0
  0
LINE
  5
3C0
100
AcDbEntity
  8
M01
100
AcDbLine
 10
714.51878
 20
602.059226
 30
0.0
 11
714.51878
 21
599.459226
 31
0.0
  0
LINE
  5
3C1
100
AcDbEntity
  8
M01
100
AcDbLine
 10
710.51878
 20
602.059226
 30
0.0
 11
710.51878
 21
599.459226
 31
0.0
  0
LINE
  5
3C2
100
AcDbEntity
  8
M01
100
AcDbLine
 10
714.01878
 20
602.559226
 30
0.0
 11
711.01878
 21
602.559226
 31
0.0
  0
LINE
  5
3C3
100
AcDbEntity
  8
M01
100
AcDbLine
 10
717.51878
 20
577.559226
 30
0.0
 11
707.51878
 21
577.559226
 31
0.0
  0
LINE
  5
3C4
100
AcDbEntity
  8
CENTRE
100
AcDbLine
 10
712.51878
 20
608.720115
 30
0.0
 11
712.51878
 21
545.126684
 31
0.0
  0
LINE
  5
3C5
100
AcDbEntity
  8
M01
100
AcDbLine
 10
685.487691
 20
599.459226
 30
0.0
 11
691.549868
 21
599.459226
 31
0.0
  0
ARC
  5
3C6
100
AcDbEntity
  8
M01
100
AcDbCircle
 10
691.549868
 20
597.609921
 30
0.0
 40
1.150694
100
AcDbArc
 50
208.592423
 51
331.407577
  0
ARC
  5
3C7
100
AcDbEntity
  8
M01
100
AcDbCircle
 10
688.51878
 20
600.162004
 30
0.0
 40
3.702778
100
AcDbArc
 50
236.92527
 51
303.07473
  0
ARC
  5
3C8
100
AcDbEntity
  8
M01
100
AcDbCircle
 10
685.487691
 20
597.609921
 30
0.0
 40
1.150694
100
AcDbArc
 50
208.592423
 51
331.407577
  0
ARC
  5
3C9
100
AcDbEntity
  8
M01
100
AcDbCircle
 10
691.549868
 20
598.308532
 30
0.0
 40
1.150694
100
AcDbArc
 50
28.592423
 51
151.407577
  0
ARC
  5
3CA
100
AcDbEntity
  8
M01
100
AcDbCircle
 10
688.51878
 20
595.756448
 30
0.0
 40
3.702778
100
AcDbArc
 50
56.92527
 51
123.07473
  0
LINE
  5
3CB
100
AcDbEntity
  8
M01
100
AcDbLine
 10
690.539505
 20
598.859226
 30
0.0
 11
690.539505
 21
597.059226
 31
0.0
  0
LINE
  5
3CC
100
AcDbEntity
  8
M01
100
AcDbLine
 10
692.560231
 20
598.859226
 30
0.0
 11
692.560231
 21
597.059226
 31
0.0
  0
ARC
  5
3CD
100
AcDbEntity
  8
M01
100
AcDbCircle
 10
685.487691
 20
598.308532
 30
0.0
 40
1.150694
100
AcDbArc
 50
28.592423
 51
151.407577
  0
LINE
  5
3CE
100
AcDbEntity
  8
M01
100
AcDbLine
 10
686.498054
 20
598.859226
 30
0.0
 11
686.498054
 21
597.059226
 31
0.0
  0
LINE
  5
3CF
100
AcDbEntity
  8
M01
100
AcDbLine
 10
684.477328
 20
598.859226
 30
0.0
 11
684.477328
 21
597.059226
 31
0.0
  0
LINE
  5
3D0
100
AcDbEntity
  8
M01
100
AcDbLine
 10
693.51878
 20
594.159226
 30
0.0
 11
693.51878
 21
595.659226
 31
0.0
  0
LINE
  5
3D1
100
AcDbEntity
  8
M01
100
AcDbLine
 10
683.51878
 20
594.159226
 30
0.0
 11
683.51878
 21
595.659226
 31
0.0
  0
LINE
  5
3D2
100
AcDbEntity
  8
M01
100
AcDbLine
 10
693.01878
 20
595.659226
 30
0.0
 11
693.01878
 21
596.459226
 31
0.0
  0
LINE
  5
3D3
100
AcDbEntity
  8
M01
100
AcDbLine
 10
684.01878
 20
595.659226
 30
0.0
 11
684.01878
 21
596.459226
 31
0.0
  0
LINE
  5
3D4
100
AcDbEntity
  8
M01
100
AcDbLine
 10
684.01878
 20
596.459226
 30
0.0
 11
693.01878
 21
596.459226
 31
0.0
  0
LINE
  5
3D5
100
AcDbEntity
  8
M01
100
AcDbLine
 10
683.51878
 20
595.659226
 30
0.0
 11
693.51878
 21
595.659226
 31
0.0
  0
LINE
  5
3D6
100
AcDbEntity
  8
M01
100
AcDbLine
 10
693.01878
 20
593.359226
 30
0.0
 11
693.01878
 21
594.159226
 31
0.0
  0
LINE
  5
3D7
100
AcDbEntity
  8
M01
100
AcDbLine
 10
684.01878
 20
593.359226
 30
0.0
 11
684.01878
 21
594.159226
 31
0.0
  0
LINE
  5
3D8
100
AcDbEntity
  8
M01
100
AcDbLine
 10
683.51878
 20
594.159226
 30
0.0
 11
693.51878
 21
594.159226
 31
0.0
  0
ARC
  5
3D9
100
AcDbEntity
  8
M01
100
AcDbCircle
 10
691.549868
 20
591.509921
 30
0.0
 40
1.150694
100
AcDbArc
 50
208.592423
 51
331.407577
  0
ARC
  5
3DA
100
AcDbEntity
  8
M01
100
AcDbCircle
 10
688.51878
 20
594.062004
 30
0.0
 40
3.702778
100
AcDbArc
 50
236.92527
 51
303.07473
  0
ARC
  5
3DB
100
AcDbEntity
  8
M01
100
AcDbCircle
 10
685.487691
 20
591.509921
 30
0.0
 40
1.150694
100
AcDbArc
 50
208.592423
 51
331.407577
  0
ARC
  5
3DC
100
AcDbEntity
  8
M01
100
AcDbCircle
 10
691.549868
 20
592.208532
 30
0.0
 40
1.150694
100
AcDbArc
 50
28.592423
 51
151.407577
  0
ARC
  5
3DD
100
AcDbEntity
  8
M01
100
AcDbCircle
 10
688.51878
 20
589.656448
 30
0.0
 40
3.702778
100
AcDbArc
 50
56.92527
 51
123.07473
  0
LINE
  5
3DE
100
AcDbEntity
  8
M01
100
AcDbLine
 10
690.539505
 20
592.759226
 30
0.0
 11
690.539505
 21
590.959226
 31
0.0
  0
LINE
  5
3DF
100
AcDbEntity
  8
M01
100
AcDbLine
 10
692.560231
 20
592.759226
 30
0.0
 11
692.560231
 21
590.959226
 31
0.0
  0
ARC
  5
3E0
100
AcDbEntity
  8
M01
100
AcDbCircle
 10
685.487691
 20
592.208532
 30
0.0
 40
1.150694
100
AcDbArc
 50
28.592423
 51
151.407577
  0
LINE
  5
3E1
100
AcDbEntity
  8
M01
100
AcDbLine
 10
686.498054
 20
592.759226
 30
0.0
 11
686.498054
 21
590.959226
 31
0.0
  0
LINE
  5
3E2
100
AcDbEntity
  8
M01
100
AcDbLine
 10
684.477328
 20
592.759226
 30
0.0
 11
684.477328
 21
590.959226
 31
0.0
  0
LINE
  5
3E3
100
AcDbEntity
  8
M01
100
AcDbLine
 10
684.01878
 20
593.359226
 30
0.0
 11
693.01878
 21
593.359226
 31
0.0
  0
LINE
  5
3E4
100
AcDbEntity
  8
M01
100
AcDbLine
 10
684.01878
 20
590.359226
 30
0.0
 11
693.01878
 21
590.359226
 31
0.0
  0
LINE
  5
3E5
100
AcDbEntity
  8
M01
100
AcDbLine
 10
684.01878
 20
589.559226
 30
0.0
 11
693.01878
 21
589.559226
 31
0.0
  0
LINE
  5
3E6
100
AcDbEntity
  8
M01
100
AcDbLine
 10
690.01878
 20
602.559226
 30
0.0
 11
690.51878
 21
602.059226
 31
0.0
  0
LINE
  5
3E7
100
AcDbEntity
  8
M01
100
AcDbLine
 10
686.51878
 20
602.059226
 30
0.0
 11
687.01878
 21
602.559226
 31
0.0
  0
LINE
  5
3E8
100
AcDbEntity
  8
M01
100
AcDbLine
 10
686.51878
 20
602.059226
 30
0.0
 11
690.51878
 21
602.059226
 31
0.0
  0
LINE
  5
3E9
100
AcDbEntity
  8
M01
100
AcDbLine
 10
690.01878
 20
602.559226
 30
0.0
 11
690.01878
 21
599.459226
 31
0.0
  0
LINE
  5
3EA
100
AcDbEntity
  8
M01
100
AcDbLine
 10
687.01878
 20
602.559226
 30
0.0
 11
687.01878
 21
599.459226
 31
0.0
  0
LINE
  5
3EB
100
AcDbEntity
  8
M01
100
AcDbLine
 10
686.51878
 20
602.059226
 30
0.0
 11
686.51878
 21
599.459226
 31
0.0
  0
LINE
  5
3EC
100
AcDbEntity
  8
M01
100
AcDbLine
 10
690.51878
 20
602.059226
 30
0.0
 11
690.51878
 21
599.459226
 31
0.0
  0
LINE
  5
3ED
100
AcDbEntity
  8
M01
100
AcDbLine
 10
687.01878
 20
602.559226
 30
0.0
 11
690.01878
 21
602.559226
 31
0.0
  0
LINE
  5
3EE
100
AcDbEntity
  8
M01
100
AcDbLine
 10
683.51878
 20
577.559226
 30
0.0
 11
693.51878
 21
577.559226
 31
0.0
  0
LINE
  5
3EF
100
AcDbEntity
  8
M01
100
AcDbLine
 10
693.01878
 20
590.359226
 30
0.0
 11
693.01878
 21
589.559226
 31
0.0
  0
LINE
  5
3F0
100
AcDbEntity
  8
M01
100
AcDbLine
 10
684.01878
 20
590.359226
 30
0.0
 11
684.01878
 21
589.559226
 31
0.0
  0
LINE
  5
3F1
100
AcDbEntity
  8
CENTRE
100
AcDbLine
 10
688.51878
 20
608.720115
 30
0.0
 11
688.51878
 21
545.126684
 31
0.0
  0
HATCH
  5
3F2
100
AcDbEntity
  8
M03
100
AcDbHatch
 10
0.0
 20
0.0
 30
0.0
210
0.0
220
0.0
230
1.0
  2
_U
 70
     0
 71
     0
 91
        1
 92
        7
 72
     0
 73
     1
 93
        4
 10
795.3310030172326
 20
497.53154339406
 10
816.005715940769
 20
518.2062563175963
 10
817.3492188250234
 20
516.8627534333419
 10
796.6745059014869
 20
496.1880405098056
 97
        0
 75
     0
 76
     0
 52
285.0
 41
0.7
 77
     0
 78
     1
 53
255.0
 43
1428.615415
 44
558.824232
 45
-0.676148078402348
 46
0.181173331571764
 79
     0
 47
0.060863
 98
        1
 10
798.780696
 20
499.301955
  0
HATCH
  5
3F3
100
AcDbEntity
  8
M03
100
AcDbHatch
 10
0.0
 20
0.0
 30
0.0
210
0.0
220
0.0
230
1.0
  2
_U
 70
     0
 71
     0
 91
        1
 92
        7
 72
     0
 73
     1
 93
        4
 10
795.3310030172326
 20
497.53154339406
 10
816.005715940769
 20
518.2062563175963
 10
817.3492188250236
 20
516.8627534333419
 10
796.6745059014869
 20
496.1880405098055
 97
        0
 75
     0
 76
     0
 52
-15.0
 41
0.7
 77
     0
 78
     1
 53
195.0
 43
1428.615415
 44
558.824232
 45
-0.1811733315717648
 46
0.6761480784023477
 79
     0
 47
0.060863
 98
        1
 10
798.737712
 20
499.603265
  0
LINE
  5
3F4
100
AcDbEntity
  8
M03
100
AcDbLine
 10
773.971384
 20
495.405229
 30
0.0
 11
774.658759
 21
497.970546
 31
0.0
  0
LINE
  5
3F5
100
AcDbEntity
  8
M03
100
AcDbLine
 10
777.224075
 20
498.65792
 30
0.0
 11
774.658759
 21
497.970546
 31
0.0
  0
LINE
  5
3F6
100
AcDbEntity
  8
M03
100
AcDbLine
 10
777.224075
 20
498.65792
 30
0.0
 11
773.971384
 21
495.405229
 31
0.0
  0
LINE
  5
3F7
100
AcDbEntity
  8
M03
100
AcDbLine
 10
778.77971
 20
498.092235
 30
0.0
 11
774.53707
 21
493.849594
 31
0.0
  0
LINE
  5
3F8
100
AcDbEntity
  8
M03
100
AcDbLine
 10
795.331003
 20
497.531543
 30
0.0
 11
816.005716
 21
518.206256
 31
0.0
  0
LINE
  5
3F9
100
AcDbEntity
  8
M03
100
AcDbLine
 10
796.674506
 20
496.188041
 30
0.0
 11
817.349219
 21
516.862753
 31
0.0
  0
LINE
  5
3FA
100
AcDbEntity
  8
M03
100
AcDbLine
 10
790.169124
 20
492.793928
 30
0.0
 11
780.052502
 21
482.677307
 31
0.0
  0
LINE
  5
3FB
100
AcDbEntity
  8
M03
100
AcDbLine
 10
790.342198
 20
494.098373
 30
0.0
 11
790.907883
 21
493.532688
 31
0.0
  0
LINE
  5
3FC
100
AcDbEntity
  8
M03
100
AcDbLine
 10
795.118871
 20
497.743675
 30
0.0
 11
796.886638
 21
495.975908
 31
0.0
  0
LINE
  5
3FD
100
AcDbEntity
  8
M03
100
AcDbLine
 10
796.886638
 20
495.975908
 30
0.0
 11
791.93689
 21
491.026161
 31
0.0
  0
LINE
  5
3FE
100
AcDbEntity
  8
M03
100
AcDbLine
 10
790.169124
 20
492.793928
 30
0.0
 11
791.93689
 21
491.026161
 31
0.0
  0
LINE
  5
3FF
100
AcDbEntity
  8
M03
100
AcDbLine
 10
779.486817
 20
483.242992
 30
0.0
 11
780.052502
 21
482.677307
 31
0.0
  0
ARC
  5
400
100
AcDbEntity
  8
M03
100
AcDbCircle
 10
783.216002
 20
489.413302
 30
0.0
 40
5.826136
100
AcDbArc
 50
250.69541
 51
19.30459
  0
LINE
  5
401
100
AcDbEntity
  8
M03
100
AcDbLine
 10
776.304836
 20
492.081827
 30
0.0
 11
776.304836
 21
493.071777
 31
0.0
  0
LINE
  5
402
100
AcDbEntity
  8
M03
100
AcDbLine
 10
780.547477
 20
496.324468
 30
0.0
 11
779.557528
 21
496.324468
 31
0.0
  0
LINE
  5
403
100
AcDbEntity
  8
M03
100
AcDbLine
 10
780.547477
 20
496.324468
 30
0.0
 11
776.304836
 21
492.081827
 31
0.0
  0
LINE
  5
404
100
AcDbEntity
  8
M03
100
AcDbLine
 10
779.557528
 20
496.324468
 30
0.0
 11
776.304836
 21
493.071777
 31
0.0
  0
LINE
  5
405
100
AcDbEntity
  8
M03
100
AcDbLine
 10
782.315244
 20
486.071419
 30
0.0
 11
777.365497
 21
481.121672
 31
0.0
  0
LINE
  5
406
100
AcDbEntity
  8
M03
100
AcDbLine
 10
794.123927
 20
497.880103
 30
0.0
 11
794.689613
 21
497.314417
 31
0.0
  0
LINE
  5
407
100
AcDbEntity
  8
M03
100
AcDbLine
 10
781.820269
 20
485.576445
 30
0.0
 11
782.385955
 21
485.010759
 31
0.0
  0
LINE
  5
408
100
AcDbEntity
  8
M03
100
AcDbLine
 10
773.971384
 20
495.405229
 30
0.0
 11
783.375904
 21
486.000709
 31
0.0
  0
LINE
  5
409
100
AcDbEntity
  8
M03
100
AcDbLine
 10
777.224075
 20
498.65792
 30
0.0
 11
786.628595
 21
489.2534
 31
0.0
  0
LINE
  5
40A
100
AcDbEntity
  8
M03
100
AcDbLine
 10
778.77971
 20
498.092235
 30
0.0
 11
787.12357
 21
489.748375
 31
0.0
  0
LINE
  5
40B
100
AcDbEntity
  8
M03
100
AcDbLine
 10
774.53707
 20
493.849594
 30
0.0
 11
782.88093
 21
485.505734
 31
0.0
  0
LINE
  5
40C
100
AcDbEntity
  8
M03
100
AcDbLine
 10
795.118871
 20
497.743675
 30
0.0
 11
790.907883
 21
493.532688
 31
0.0
  0
LINE
  5
40D
100
AcDbEntity
  8
M03
100
AcDbLine
 10
777.365497
 20
481.121672
 30
0.0
 11
780.901031
 21
477.586138
 31
0.0
  0
LINE
  5
40E
100
AcDbEntity
  8
M03
100
AcDbLine
 10
820.01878
 20
523.774955
 30
0.0
 11
786.557885
 21
490.31406
 31
0.0
  0
LINE
  5
40F
100
AcDbEntity
  8
CENTRE
100
AcDbLine
 10
771.568159
 20
501.061145
 30
0.0
 11
790.773286
 21
481.856019
 31
0.0
  0
CIRCLE
  5
410
100
AcDbEntity
  8
M03
100
AcDbCircle
 10
788.01878
 20
345.059226
 30
0.0
 40
2.3
  0
ARC
  5
411
100
AcDbEntity
  8
M03
100
AcDbCircle
 10
788.01878
 20
345.059226
 30
0.0
 40
3.0
100
AcDbArc
 50
167.784636
 51
96.923103
  0
LINE
  5
412
100
AcDbEntity
  8
M03
100
AcDbLine
 10
787.46878
 20
351.033965
 30
0.0
 11
787.46878
 21
339.084488
 31
0.0
  0
LINE
  5
413
100
AcDbEntity
  8
M03
100
AcDbLine
 10
788.56878
 20
351.033965
 30
0.0
 11
788.56878
 21
339.084488
 31
0.0
  0
CIRCLE
  5
414
100
AcDbEntity
  8
M03
100
AcDbCircle
 10
788.01878
 20
345.059226
 30
0.0
 40
7.858882
  0
CIRCLE
  5
415
100
AcDbEntity
  8
M03
100
AcDbCircle
 10
788.01878
 20
345.059226
 30
0.0
 40
6.0
  0
CIRCLE
  5
416
100
AcDbEntity
  8
M03
100
AcDbCircle
 10
613.01878
 20
345.059226
 30
0.0
 40
2.3
  0
ARC
  5
417
100
AcDbEntity
  8
M03
100
AcDbCircle
 10
613.01878
 20
345.059226
 30
0.0
 40
3.0
100
AcDbArc
 50
173.076897
 51
102.215364
  0
LINE
  5
418
100
AcDbEntity
  8
M03
100
AcDbLine
 10
613.56878
 20
351.033965
 30
0.0
 11
613.56878
 21
339.084488
 31
0.0
  0
LINE
  5
419
100
AcDbEntity
  8
M03
100
AcDbLine
 10
612.46878
 20
351.033965
 30
0.0
 11
612.46878
 21
339.084488
 31
0.0
  0
CIRCLE
  5
41A
100
AcDbEntity
  8
M03
100
AcDbCircle
 10
613.01878
 20
345.059226
 30
0.0
 40
7.858882
  0
CIRCLE
  5
41B
100
AcDbEntity
  8
M03
100
AcDbCircle
 10
613.01878
 20
345.059226
 30
0.0
 40
6.0
  0
CIRCLE
  5
41C
100
AcDbEntity
  8
M03
100
AcDbCircle
 10
788.01878
 20
520.059226
 30
0.0
 40
2.3
  0
ARC
  5
41D
100
AcDbEntity
  8
M03
100
AcDbCircle
 10
788.01878
 20
520.059226
 30
0.0
 40
3.0
100
AcDbArc
 50
173.076897
 51
102.215364
  0
LINE
  5
41E
100
AcDbEntity
  8
M03
100
AcDbLine
 10
787.46878
 20
514.084488
 30
0.0
 11
787.46878
 21
526.033965
 31
0.0
  0
LINE
  5
41F
100
AcDbEntity
  8
M03
100
AcDbLine
 10
788.56878
 20
514.084488
 30
0.0
 11
788.56878
 21
526.033965
 31
0.0
  0
CIRCLE
  5
420
100
AcDbEntity
  8
M03
100
AcDbCircle
 10
788.01878
 20
520.059226
 30
0.0
 40
7.858882
  0
CIRCLE
  5
421
100
AcDbEntity
  8
M03
100
AcDbCircle
 10
788.01878
 20
520.059226
 30
0.0
 40
6.0
  0
CIRCLE
  5
422
100
AcDbEntity
  8
M03
100
AcDbCircle
 10
613.01878
 20
520.059226
 30
0.0
 40
2.3
  0
ARC
  5
423
100
AcDbEntity
  8
M03
100
AcDbCircle
 10
613.01878
 20
520.059226
 30
0.0
 40
3.0
100
AcDbArc
 50
167.784636
 51
96.923103
  0
LINE
  5
424
100
AcDbEntity
  8
M03
100
AcDbLine
 10
613.56878
 20
514.084488
 30
0.0
 11
613.56878
 21
526.033965
 31
0.0
  0
LINE
  5
425
100
AcDbEntity
  8
M03
100
AcDbLine
 10
612.46878
 20
514.084488
 30
0.0
 11
612.46878
 21
526.033965
 31
0.0
  0
CIRCLE
  5
426
100
AcDbEntity
  8
M03
100
AcDbCircle
 10
613.01878
 20
520.059226
 30
0.0
 40
7.858882
  0
CIRCLE
  5
427
100
AcDbEntity
  8
M03
100
AcDbCircle
 10
613.01878
 20
520.059226
 30
0.0
 40
6.0
  0
LINE
  5
428
100
AcDbEntity
  8
M01
100
AcDbLine
 10
801.636095
 20
313.059226
 30
0.0
 11
784.66344
 21
313.059226
 31
0.0
  0
LINE
  5
429
100
AcDbEntity
  8
M01
100
AcDbLine
 10
820.01878
 20
331.44191
 30
0.0
 11
820.01878
 21
348.414565
 31
0.0
  0
LINE
  5
42A
100
AcDbEntity
  8
M01
100
AcDbLine
 10
599.401464
 20
313.059226
 30
0.0
 11
616.374119
 21
313.059226
 31
0.0
  0
LINE
  5
42B
100
AcDbEntity
  8
M01
100
AcDbLine
 10
581.01878
 20
331.44191
 30
0.0
 11
581.01878
 21
348.414565
 31
0.0
  0
LINE
  5
42C
100
AcDbEntity
  8
M01
100
AcDbLine
 10
801.636095
 20
552.059226
 30
0.0
 11
784.66344
 21
552.059226
 31
0.0
  0
LINE
  5
42D
100
AcDbEntity
  8
M01
100
AcDbLine
 10
820.01878
 20
533.676542
 30
0.0
 11
820.01878
 21
516.703887
 31
0.0
  0
LINE
  5
42E
100
AcDbEntity
  8
M01
100
AcDbLine
 10
599.401464
 20
552.059226
 30
0.0
 11
616.374119
 21
552.059226
 31
0.0
  0
LINE
  5
42F
100
AcDbEntity
  8
M01
100
AcDbLine
 10
581.01878
 20
533.676542
 30
0.0
 11
581.01878
 21
516.703887
 31
0.0
  0
LINE
  5
430
100
AcDbEntity
  8
CENTRE
100
AcDbLine
 10
591.805576
 20
541.27243
 30
0.0
 11
809.231983
 21
323.846023
 31
0.0
  0
LINE
  5
431
100
AcDbEntity
  8
CENTRE
100
AcDbLine
 10
591.805576
 20
323.846023
 30
0.0
 11
809.231983
 21
541.27243
 31
0.0
  0
ARC
  5
432
100
AcDbEntity
  8
M04
100
AcDbCircle
 10
663.51878
 20
521.885128
 30
0.0
 40
5.0
100
AcDbArc
 50
225.0
 51
0.0
  0
ARC
  5
433
100
AcDbEntity
  8
M04
100
AcDbCircle
 10
737.51878
 20
521.885128
 30
0.0
 40
5.0
100
AcDbArc
 50
180.0
 51
315.0
  0
LINE
  5
434
100
AcDbEntity
  8
M04
100
AcDbLine
 10
618.494393
 20
559.838447
 30
0.0
 11
659.983246
 21
518.349594
 31
0.0
  0
LINE
  5
435
100
AcDbEntity
  8
M04
100
AcDbLine
 10
573.239559
 20
514.583613
 30
0.0
 11
604.728412
 21
483.09476
 31
0.0
  0
LINE
  5
436
100
AcDbEntity
  8
M04
100
AcDbLine
 10
573.239559
 20
350.534839
 30
0.0
 11
604.728412
 21
382.023692
 31
0.0
  0
LINE
  5
437
100
AcDbEntity
  8
M04
100
AcDbLine
 10
618.494393
 20
305.280005
 30
0.0
 11
696.983246
 21
383.768858
 31
0.0
  0
ARC
  5
438
100
AcDbEntity
  8
M04
100
AcDbCircle
 10
700.51878
 20
380.233324
 30
0.0
 40
5.0
100
AcDbArc
 50
45.0
 51
135.0
  0
LINE
  5
439
100
AcDbEntity
  8
M04
100
AcDbLine
 10
704.054313
 20
383.768858
 30
0.0
 11
782.543166
 21
305.280005
 31
0.0
  0
LINE
  5
43A
100
AcDbEntity
  8
M04
100
AcDbLine
 10
749.309147
 20
429.023692
 30
0.0
 11
827.798
 21
350.53484
 31
0.0
  0
ARC
  5
43B
100
AcDbEntity
  8
M04
100
AcDbCircle
 10
752.844681
 20
432.559226
 30
0.0
 40
5.0
100
AcDbArc
 50
135.0
 51
225.0
  0
LINE
  5
43C
100
AcDbEntity
  8
M04
100
AcDbLine
 10
749.309147
 20
436.09476
 30
0.0
 11
827.798
 21
514.583613
 31
0.0
  0
LINE
  5
43D
100
AcDbEntity
  8
M04
100
AcDbLine
 10
741.054313
 20
518.349594
 30
0.0
 11
782.543166
 21
559.838447
 31
0.0
  0
LINE
  5
43E
100
AcDbEntity
  8
M03
100
AcDbLine
 10
706.175634
 20
432.559226
 30
0.0
 11
790.847207
 21
347.887653
 31
0.0
  0
LINE
  5
43F
100
AcDbEntity
  8
M03
100
AcDbLine
 10
700.51878
 20
438.21608
 30
0.0
 11
785.190352
 21
522.887653
 31
0.0
  0
LINE
  5
440
100
AcDbEntity
  8
M03
100
AcDbLine
 10
706.175634
 20
432.559226
 30
0.0
 11
790.847207
 21
517.230799
 31
0.0
  0
LINE
  5
441
100
AcDbEntity
  8
M03
100
AcDbLine
 10
700.51878
 20
426.902372
 30
0.0
 11
785.190352
 21
342.230799
 31
0.0
  0
LINE
  5
442
100
AcDbEntity
  8
M03
100
AcDbLine
 10
610.190352
 20
517.230799
 30
0.0
 11
694.861925
 21
432.559226
 31
0.0
  0
LINE
  5
443
100
AcDbEntity
  8
M03
100
AcDbLine
 10
615.847207
 20
522.887653
 30
0.0
 11
700.51878
 21
438.21608
 31
0.0
  0
LINE
  5
444
100
AcDbEntity
  8
M03
100
AcDbLine
 10
615.847207
 20
342.230799
 30
0.0
 11
700.51878
 21
426.902372
 31
0.0
  0
LINE
  5
445
100
AcDbEntity
  8
M03
100
AcDbLine
 10
610.190352
 20
347.887653
 30
0.0
 11
694.861925
 21
432.559226
 31
0.0
  0
CIRCLE
  5
446
100
AcDbEntity
  8
M01
100
AcDbCircle
 10
613.01878
 20
345.059226
 30
0.0
 40
4.0
  0
CIRCLE
  5
447
100
AcDbEntity
  8
M01
100
AcDbCircle
 10
788.01878
 20
345.059226
 30
0.0
 40
4.0
  0
CIRCLE
  5
448
100
AcDbEntity
  8
M01
100
AcDbCircle
 10
788.01878
 20
520.059226
 30
0.0
 40
4.0
  0
CIRCLE
  5
449
100
AcDbEntity
  8
M01
100
AcDbCircle
 10
613.01878
 20
520.059226
 30
0.0
 40
4.0
  0
ARC
  5
44A
100
AcDbEntity
  8
M01
100
AcDbCircle
 10
734.51878
 20
518.885128
 30
0.0
 40
12.0
100
AcDbArc
 50
180.0
 51
315.0
  0
ARC
  5
44B
100
AcDbEntity
  8
M01
100
AcDbCircle
 10
666.51878
 20
518.885128
 30
0.0
 40
12.0
100
AcDbArc
 50
225.0
 51
360.0
  0
LINE
  5
44C
100
AcDbEntity
  8
M04
100
AcDbLine
 10
717.51878
 20
617.559226
 30
0.0
 11
717.51878
 21
638.230704
 31
0.0
  0
LINE
  5
44D
100
AcDbEntity
  8
M04
100
AcDbLine
 10
683.51878
 20
617.559226
 30
0.0
 11
683.51878
 21
638.230704
 31
0.0
  0
ARC
  5
44E
100
AcDbEntity
  8
M04
100
AcDbCircle
 10
717.51878
 20
602.559226
 30
0.0
 40
15.0
100
AcDbArc
 50
360.0
 51
90.0
  0
ARC
  5
44F
100
AcDbEntity
  8
M04
100
AcDbCircle
 10
683.51878
 20
602.559226
 30
0.0
 40
15.0
100
AcDbArc
 50
90.0
 51
180.0
  0
LINE
  5
450
100
AcDbEntity
  8
M04
100
AcDbLine
 10
683.51878
 20
617.559226
 30
0.0
 11
717.51878
 21
617.559226
 31
0.0
  0
LINE
  5
451
100
AcDbEntity
  8
M04
100
AcDbLine
 10
668.51878
 20
602.559226
 30
0.0
 11
668.51878
 21
521.885128
 31
0.0
  0
LINE
  5
452
100
AcDbEntity
  8
M04
100
AcDbLine
 10
732.51878
 20
602.559226
 30
0.0
 11
732.51878
 21
521.885128
 31
0.0
  0
LINE
  5
453
100
AcDbEntity
  8
M01
100
AcDbLine
 10
720.51878
 20
557.559226
 30
0.0
 11
722.51878
 21
555.559226
 31
0.0
  0
LINE
  5
454
100
AcDbEntity
  8
M01
100
AcDbLine
 10
678.51878
 20
555.559226
 30
0.0
 11
680.51878
 21
557.559226
 31
0.0
  0
LINE
  5
455
100
AcDbEntity
  8
M01
100
AcDbLine
 10
680.51878
 20
557.559226
 30
0.0
 11
720.51878
 21
557.559226
 31
0.0
  0
LINE
  5
456
100
AcDbEntity
  8
M01
100
AcDbLine
 10
722.51878
 20
555.559226
 30
0.0
 11
722.51878
 21
518.885128
 31
0.0
  0
LINE
  5
457
100
AcDbEntity
  8
M01
100
AcDbLine
 10
678.51878
 20
555.559226
 30
0.0
 11
678.51878
 21
518.885128
 31
0.0
  0
LINE
  5
458
100
AcDbEntity
  8
M01
100
AcDbLine
 10
743.004061
 20
510.399847
 30
0.0
 11
784.66344
 21
552.059226
 31
0.0
  0
LINE
  5
459
100
AcDbEntity
  8
M01
100
AcDbLine
 10
744.3594
 20
424.073945
 30
0.0
 11
820.01878
 21
348.414565
 31
0.0
  0
LINE
  5
45A
100
AcDbEntity
  8
M01
100
AcDbLine
 10
744.3594
 20
441.044507
 30
0.0
 11
820.01878
 21
516.703887
 31
0.0
  0
LINE
  5
45B
100
AcDbEntity
  8
M01
100
AcDbLine
 10
709.004061
 20
388.718606
 30
0.0
 11
784.66344
 21
313.059226
 31
0.0
  0
ARC
  5
45C
100
AcDbEntity
  8
M01
100
AcDbCircle
 10
752.844681
 20
432.559226
 30
0.0
 40
12.0
100
AcDbArc
 50
135.0
 51
225.0
  0
ARC
  5
45D
100
AcDbEntity
  8
M01
100
AcDbCircle
 10
700.51878
 20
380.233324
 30
0.0
 40
12.0
100
AcDbArc
 50
45.0
 51
135.0
  0
LINE
  5
45E
100
AcDbEntity
  8
M01
100
AcDbLine
 10
581.01878
 20
348.414565
 30
0.0
 11
609.678159
 21
377.073945
 31
0.0
  0
LINE
  5
45F
100
AcDbEntity
  8
M01
100
AcDbLine
 10
616.374119
 20
313.059226
 30
0.0
 11
692.033498
 21
388.718606
 31
0.0
  0
LINE
  5
460
100
AcDbEntity
  8
M01
100
AcDbLine
 10
581.01878
 20
516.703887
 30
0.0
 11
609.678159
 21
488.044507
 31
0.0
  0
LINE
  5
461
100
AcDbEntity
  8
M01
100
AcDbLine
 10
616.374119
 20
552.059226
 30
0.0
 11
658.033498
 21
510.399847
 31
0.0
  0
LINE
  5
462
100
AcDbEntity
  8
CENTRE
100
AcDbLine
 10
700.51878
 20
652.003033
 30
0.0
 11
700.51878
 21
312.074032
 31
0.0
  0
DIMENSION
  5
463
100
AcDbEntity
  8
DIMS
100
AcDbDimension
  2
*D6
 10
500.986313
 20
317.447032
 30
0.0
 11
481.187323
 21
314.390682
 31
0.0
 12
-167.254415
 22
-12.5
 32
0.0
 70
     1
  1
W=<>
  3
DIM1
100
AcDbAlignedDimension
 13
434.436564
 23
313.286102
 33
0.0
 14
469.791903
 24
348.641441
 34
0.0
1001
ACAD
1000
DSTYLE
1002
{
1070
   144
1040
1.0
1002
}
  0
HATCH
  5
470
100
AcDbEntity
  8
HATCH
100
AcDbHatch
 10
0.0
 20
0.0
 30
0.0
210
0.0
220
0.0
230
1.0
  2
_U
 70
     0
 71
     0
 91
       16
 92
        7
 72
     1
 73
     1
 93
        5
 10
525.5187795381628
 20
452.5592260810632
 42
0.0
 10
525.5187795381628
 20
453.0592260810632
 42
-0.1856631955229143
 10
521.8334407935956
 20
454.4765457926017
 42
0.3157147729334966
 10
503.6566976382155
 20
436.5592260810632
 42
0.0
 10
505.9228615958975
 20
436.5592260810632
 42
-0.3563939586925999
 97
        0
 92
       22
 72
     1
 73
     1
 93
        4
 10
525.5187795381628
 20
452.5592260810632
 42
0.3563939586925999
 10
505.9228615958975
 20
436.5592260810632
 42
0.0
 10
516.9019355683558
 20
436.5592260810632
 42
-0.2919418509678903
 10
525.5187795381628
 20
442.0592260810632
 42
0.0
 97
        0
 92
        6
 72
     1
 73
     1
 93
        3
 10
525.5187795381628
 20
442.0592260810632
 42
0.2919418509678903
 10
516.9019355683558
 20
436.5592260810632
 42
0.0
 10
525.5187795381628
 20
436.5592260810632
 42
0.0
 97
        0
 92
        7
 72
     1
 73
     1
 93
        4
 10
525.5187795381628
 20
436.5592260810632
 42
0.0
 10
516.9019355683558
 20
436.5592260810632
 42
0.1090809576248918
 10
516.0187795381627
 20
432.5592260810632
 42
0.0
 10
521.5187795381628
 20
432.5592260810632
 42
-0.4142135623730992
 97
        0
 92
       22
 72
     1
 73
     1
 93
        3
 10
525.5187795381628
 20
436.5592260810632
 42
0.4142135623730992
 10
521.5187795381628
 20
432.5592260810632
 42
0.0
 10
525.518779538163
 20
432.5592260810631
 42
0.0
 97
        0
 92
        7
 72
     1
 73
     1
 93
        4
 10
516.9019355683558
 20
436.5592260810632
 42
0.0
 10
505.9228615958975
 20
436.5592260810632
 42
0.0503820444848851
 10
505.5187795381628
 20
432.5592260810632
 42
0.0
 10
516.0187795381627
 20
432.5592260810632
 42
-0.1090809576248918
 97
        0
 92
        7
 72
     1
 73
     1
 93
        5
 10
505.9228615958975
 20
436.5592260810632
 42
0.0
 10
503.6566976382155
 20
436.5592260810632
 42
0.003593667114849
 10
503.6014598266245
 20
436.2445648256303
 42
-0.1856631955229133
 10
505.0187795381628
 20
432.5592260810632
 42
0.0
 10
505.5187795381628
 20
432.5592260810632
 42
-0.0503820444848851
 97
        0
 92
        7
 72
     1
 73
     1
 93
        3
 10
503.6014598266245
 20
436.2445648256303
 42
0.0416713391594355
 10
503.2937795381628
 20
432.5592260810632
 42
0.0
 10
505.0187795381628
 20
432.5592260810632
 42
0.1856631955229133
 97
        0
 92
       22
 72
     1
 73
     1
 93
        3
 10
529.5187795381628
 20
432.5592260810632
 42
0.0
 10
525.518779538163
 20
432.5592260810632
 42
0.0
 10
525.518779538163
 20
428.5592260810632
 42
0.4142135623730826
 97
        0
 92
        7
 72
     1
 73
     1
 93
        4
 10
535.0187795381628
 20
432.5592260810632
 42
0.0
 10
529.5187795381628
 20
432.5592260810632
 42
-0.4142135623730909
 10
525.5187795381628
 20
428.5592260810632
 42
0.0
 10
534.1356235079699
 20
428.5592260810632
 42
0.1090809576248888
 97
        0
 92
        6
 72
     1
 73
     1
 93
        3
 10
534.1356235079699
 20
428.5592260810632
 42
0.0
 10
525.5187795381628
 20
428.5592260810632
 42
0.0
 10
525.5187795381628
 20
423.0592260810632
 42
0.2919418509678903
 97
        0
 92
       22
 72
     1
 73
     1
 93
        4
 10
545.1146974804283
 20
428.5592260810632
 42
0.0
 10
534.1356235079699
 20
428.5592260810632
 42
-0.2919418509678903
 10
525.5187795381628
 20
423.0592260810632
 42
0.0
 10
525.5187795381628
 20
412.5592260810632
 42
0.3563939586925999
 97
        0
 92
        7
 72
     1
 73
     1
 93
        4
 10
545.5187795381627
 20
432.5592260810632
 42
0.0
 10
535.0187795381628
 20
432.5592260810632
 42
-0.1090809576248888
 10
534.1356235079699
 20
428.5592260810632
 42
0.0
 10
545.1146974804283
 20
428.5592260810632
 42
0.0503820444848837
 97
        0
 92
        7
 72
     1
 73
     1
 93
        5
 10
546.0187795381627
 20
432.5592260810632
 42
0.0
 10
545.5187795381627
 20
432.5592260810632
 42
-0.0503820444848837
 10
545.1146974804283
 20
428.5592260810632
 42
0.0
 10
547.38086143811
 20
428.5592260810632
 42
0.003593667114849
 10
547.4360992497013
 20
428.8738873364961
 42
-0.185663195522908
 97
        0
 92
        7
 72
     1
 73
     1
 93
        3
 10
547.7437795381629
 20
432.5592260810632
 42
0.0
 10
546.0187795381627
 20
432.5592260810632
 42
0.185663195522908
 10
547.4360992497013
 20
428.8738873364961
 42
0.0416713391594342
 97
        0
 92
        7
 72
     1
 73
     1
 93
        4
 10
547.38086143811
 20
428.5592260810632
 42
0.0
 10
545.1146974804283
 20
428.5592260810632
 42
-0.3563939586925999
 10
525.5187795381628
 20
412.5592260810632
 42
0.0
 10
525.5187795381628
 20
410.3342260810632
 42
0.3621506593782504
 97
        0
 75
     0
 76
     0
 52
45.0
 41
2.0
 77
     1
 78
     2
 53
45.0
 43
-29.928461
 44
0.0
 45
-1.414213562373094
 46
1.414213562373095
 79
     0
 53
135.0
 43
-29.928461
 44
0.0
 45
-1.414213562373095
 46
-1.414213562373094
 79
     0
 47
0.113412
 98
       16
 10
513.202625
 20
449.879146
 10
514.904501
 20
446.023152
 10
523.073505
 20
439.672104
 10
520.010128
 20
435.022228
 10
524.208089
 20
434.681993
 10
512.975708
 20
434.568582
 10
504.920162
 20
435.929521
 10
504.352871
 20
433.888112
 10
527.838758
 20
430.485764
 10
531.809801
 20
430.599175
 10
528.519508
 20
426.176123
 10
535.553928
 20
424.47495
 10
539.298055
 20
430.258941
 10
545.878642
 20
429.691883
 10
547.353601
 20
430.939411
 10
545.992101
 20
424.928596
  0
CIRCLE
  5
471
100
AcDbEntity
  8
M03
100
AcDbCircle
 10
525.51878
 20
432.559226
 30
0.0
 40
20.0
  0
CIRCLE
  5
472
100
AcDbEntity
  8
M01
100
AcDbCircle
 10
525.51878
 20
432.559226
 30
0.0
 40
22.225
  0
CIRCLE
  5
473
100
AcDbEntity
  8
M03
100
AcDbCircle
 10
525.51878
 20
432.559226
 30
0.0
 40
9.5
  0
ARC
  5
474
100
AcDbEntity
  8
M04
100
AcDbCircle
 10
257.887791
 20
315.886607
 30
0.0
 40
15.0
100
AcDbArc
 50
225.0
 51
315.0
  0
ARC
  5
475
100
AcDbEntity
  8
M04
100
AcDbCircle
 10
233.846161
 20
339.928238
 30
0.0
 40
15.0
100
AcDbArc
 50
135.0
 51
225.0
  0
ARC
  5
476
100
AcDbEntity
  8
M04
100
AcDbCircle
 10
233.846161
 20
525.190214
 30
0.0
 40
15.0
100
AcDbArc
 50
135.0
 51
225.0
  0
ARC
  5
477
100
AcDbEntity
  8
M04
100
AcDbCircle
 10
257.887791
 20
549.231845
 30
0.0
 40
15.0
100
AcDbArc
 50
45.0
 51
135.0
  0
ARC
  5
478
100
AcDbEntity
  8
M04
100
AcDbCircle
 10
443.149768
 20
549.231845
 30
0.0
 40
15.0
100
AcDbArc
 50
45.0
 51
135.0
  0
ARC
  5
479
100
AcDbEntity
  8
M04
100
AcDbCircle
 10
467.191398
 20
525.190214
 30
0.0
 40
15.0
100
AcDbArc
 50
315.0
 51
45.0
  0
LINE
  5
47A
100
AcDbEntity
  8
M04
100
AcDbLine
 10
247.28119
 20
559.838447
 30
0.0
 11
223.239559
 21
535.796816
 31
0.0
  0
LINE
  5
47B
100
AcDbEntity
  8
M04
100
AcDbLine
 10
453.75637
 20
559.838447
 30
0.0
 11
477.798
 21
535.796816
 31
0.0
  0
LINE
  5
47C
100
AcDbEntity
  8
M04
100
AcDbLine
 10
247.28119
 20
305.280005
 30
0.0
 11
223.239559
 21
329.321636
 31
0.0
  0
ARC
  5
47D
100
AcDbEntity
  8
M04
100
AcDbCircle
 10
467.191398
 20
339.928238
 30
0.0
 40
15.0
100
AcDbArc
 50
315.0
 51
45.0
  0
ARC
  5
47E
100
AcDbEntity
  8
M04
100
AcDbCircle
 10
443.149768
 20
315.886607
 30
0.0
 40
15.0
100
AcDbArc
 50
225.0
 51
315.0
  0
LINE
  5
47F
100
AcDbEntity
  8
M04
100
AcDbLine
 10
453.75637
 20
305.280005
 30
0.0
 11
477.798
 21
329.321636
 31
0.0
  0
LINE
  5
480
102
{ACAD_REACTORS
330
FA
102
}
100
AcDbEntity
  8
M02
100
AcDbLine
 10
901.644674
 20
327.059226
 30
0.0
 11
904.644674
 21
327.059226
 31
0.0
  0
LINE
  5
481
100
AcDbEntity
  8
DIMS
 62
     4
100
AcDbLine
 10
407.613188
 20
311.253634
 30
0.0
 11
407.613188
 21
306.453634
 31
0.0
  0
LINE
  5
482
100
AcDbEntity
  8
DIMS
 62
     4
100
AcDbLine
 10
407.613188
 20
318.053634
 30
0.0
 11
407.613188
 21
322.853634
 31
0.0
  0
LINE
  5
483
100
AcDbEntity
  8
DIMS
 62
     4
100
AcDbLine
 10
404.213188
 20
314.653634
 30
0.0
 11
399.413188
 21
314.653634
 31
0.0
  0
LINE
  5
484
100
AcDbEntity
  8
DIMS
 62
     4
100
AcDbLine
 10
411.013188
 20
314.653634
 30
0.0
 11
415.813188
 21
314.653634
 31
0.0
  0
LINE
  5
485
100
AcDbEntity
  8
DIMS
 62
     4
100
AcDbLine
 10
407.613188
 20
316.353634
 30
0.0
 11
407.613188
 21
312.953634
 31
0.0
  0
LINE
  5
486
100
AcDbEntity
  8
DIMS
 62
     4
100
AcDbLine
 10
409.313188
 20
314.653634
 30
0.0
 11
405.913188
 21
314.653634
 31
0.0
  0
CIRCLE
  5
487
100
AcDbEntity
  8
M04
100
AcDbCircle
 10
407.613188
 20
314.653634
 30
0.0
 40
6.5
  0
LINE
  5
488
100
AcDbEntity
  8
DIMS
 62
     4
100
AcDbLine
 10
293.424371
 20
311.253634
 30
0.0
 11
293.424371
 21
306.453634
 31
0.0
  0
LINE
  5
489
100
AcDbEntity
  8
DIMS
 62
     4
100
AcDbLine
 10
293.424371
 20
318.053634
 30
0.0
 11
293.424371
 21
322.853634
 31
0.0
  0
LINE
  5
48A
100
AcDbEntity
  8
DIMS
 62
     4
100
AcDbLine
 10
296.824371
 20
314.653634
 30
0.0
 11
301.624371
 21
314.653634
 31
0.0
  0
LINE
  5
48B
100
AcDbEntity
  8
DIMS
 62
     4
100
AcDbLine
 10
290.024371
 20
314.653634
 30
0.0
 11
285.224371
 21
314.653634
 31
0.0
  0
LINE
  5
48C
100
AcDbEntity
  8
DIMS
 62
     4
100
AcDbLine
 10
293.424371
 20
316.353634
 30
0.0
 11
293.424371
 21
312.953634
 31
0.0
  0
LINE
  5
48D
100
AcDbEntity
  8
DIMS
 62
     4
100
AcDbLine
 10
291.724371
 20
314.653634
 30
0.0
 11
295.124371
 21
314.653634
 31
0.0
  0
CIRCLE
  5
48E
100
AcDbEntity
  8
M04
100
AcDbCircle
 10
293.424371
 20
314.653634
 30
0.0
 40
6.5
  0
LINE
  5
48F
100
AcDbEntity
  8
M01
100
AcDbLine
 10
249.401464
 20
552.059226
 30
0.0
 11
231.01878
 21
533.676542
 31
0.0
  0
LINE
  5
490
100
AcDbEntity
  8
M01
100
AcDbLine
 10
451.636095
 20
552.059226
 30
0.0
 11
470.01878
 21
533.676542
 31
0.0
  0
LINE
  5
491
100
AcDbEntity
  8
M01
100
AcDbLine
 10
249.401464
 20
313.059226
 30
0.0
 11
231.01878
 21
331.44191
 31
0.0
  0
LINE
  5
492
100
AcDbEntity
  8
M01
100
AcDbLine
 10
451.636095
 20
313.059226
 30
0.0
 11
470.01878
 21
331.44191
 31
0.0
  0
DIMENSION
  5
493
100
AcDbEntity
  8
DIMS
100
AcDbDimension
  2
*D1
 10
897.644674
 20
267.377479
 30
0.0
 11
887.001816
 21
282.877479
 31
0.0
 12
0.0
 22
-12.5
 32
0.0
  1
7.0
  3
DIM1
100
AcDbAlignedDimension
 13
904.644674
 23
314.799226
 33
0.0
 14
897.644674
 24
300.626607
 34
0.0
100
AcDbRotatedDimension
1001
ACAD
1000
DSTYLE
1002
{
1070
   144
1040
1.0
1002
}
  0
DIMENSION
  5
4A1
100
AcDbEntity
  8
DIMS
100
AcDbDimension
  2
*D2
 10
971.644674
 20
267.377479
 30
0.0
 11
982.287531
 21
282.877479
 31
0.0
 12
0.0
 22
-12.5
 32
0.0
  1
7.0
  3
DIM1
100
AcDbAlignedDimension
 13
964.644674
 23
314.752807
 33
0.0
 14
971.644674
 24
289.113216
 34
0.0
100
AcDbRotatedDimension
1001
ACAD
1000
DSTYLE
1002
{
1070
   144
1040
1.0
1002
}
  0
DIMENSION
  5
4AF
100
AcDbEntity
  8
DIMS
100
AcDbDimension
  2
*D3
 10
964.644674
 20
267.377479
 30
0.0
 11
934.644674
 21
282.877479
 31
0.0
 12
0.0
 22
-12.5
 32
0.0
  3
DIM1
100
AcDbAlignedDimension
 13
904.644674
 23
314.799226
 33
0.0
 14
964.644674
 24
314.752807
 34
0.0
100
AcDbRotatedDimension
1001
ACAD
1000
DSTYLE
1002
{
1070
   144
1040
1.0
1002
}
  0
LINE
  5
4BC
100
AcDbEntity
  8
DIMS
 62
     4
100
AcDbLine
 10
908.644674
 20
325.459226
 30
0.0
 11
908.644674
 21
327.759226
 31
0.0
  0
LINE
  5
4BD
100
AcDbEntity
  8
DIMS
 62
     4
100
AcDbLine
 10
908.644674
 20
318.659226
 30
0.0
 11
908.644674
 21
316.359226
 31
0.0
  0
LINE
  5
4BE
100
AcDbEntity
  8
DIMS
 62
     4
100
AcDbLine
 10
912.044674
 20
322.059226
 30
0.0
 11
914.344674
 21
322.059226
 31
0.0
  0
LINE
  5
4BF
100
AcDbEntity
  8
DIMS
 62
     4
100
AcDbLine
 10
905.244674
 20
322.059226
 30
0.0
 11
902.944674
 21
322.059226
 31
0.0
  0
LINE
  5
4C0
100
AcDbEntity
  8
DIMS
 62
     4
100
AcDbLine
 10
908.644674
 20
320.359226
 30
0.0
 11
908.644674
 21
323.759226
 31
0.0
  0
LINE
  5
4C1
100
AcDbEntity
  8
DIMS
 62
     4
100
AcDbLine
 10
906.944674
 20
322.059226
 30
0.0
 11
910.344674
 21
322.059226
 31
0.0
  0
LINE
  5
4C2
100
AcDbEntity
  8
DIMS
 62
     4
100
AcDbLine
 10
960.644674
 20
325.459226
 30
0.0
 11
960.644674
 21
327.759226
 31
0.0
  0
LINE
  5
4C3
100
AcDbEntity
  8
DIMS
 62
     4
100
AcDbLine
 10
960.644674
 20
318.659226
 30
0.0
 11
960.644674
 21
316.359226
 31
0.0
  0
LINE
  5
4C4
100
AcDbEntity
  8
DIMS
 62
     4
100
AcDbLine
 10
964.044674
 20
322.059226
 30
0.0
 11
966.344674
 21
322.059226
 31
0.0
  0
LINE
  5
4C5
100
AcDbEntity
  8
DIMS
 62
     4
100
AcDbLine
 10
957.244674
 20
322.059226
 30
0.0
 11
954.944674
 21
322.059226
 31
0.0
  0
LINE
  5
4C6
100
AcDbEntity
  8
DIMS
 62
     4
100
AcDbLine
 10
960.644674
 20
320.359226
 30
0.0
 11
960.644674
 21
323.759226
 31
0.0
  0
LINE
  5
4C7
100
AcDbEntity
  8
DIMS
 62
     4
100
AcDbLine
 10
958.944674
 20
322.059226
 30
0.0
 11
962.344674
 21
322.059226
 31
0.0
  0
LINE
  5
4C8
102
{ACAD_REACTORS
330
36
102
}
100
AcDbEntity
  8
M05
100
AcDbLine
 10
970.644674
 20
325.559226
 30
0.0
 11
971.644674
 21
324.559226
 31
0.0
  0
LINE
  5
4C9
102
{ACAD_REACTORS
330
36
102
}
100
AcDbEntity
  8
M05
100
AcDbLine
 10
970.644674
 20
337.559226
 30
0.0
 11
971.644674
 21
338.559226
 31
0.0
  0
LINE
  5
4CA
102
{ACAD_REACTORS
330
36
102
}
100
AcDbEntity
  8
M05
100
AcDbLine
 10
970.644674
 20
325.559226
 30
0.0
 11
970.644674
 21
337.559226
 31
0.0
  0
LINE
  5
4CB
102
{ACAD_REACTORS
330
36
102
}
100
AcDbEntity
  8
M05
100
AcDbLine
 10
970.644674
 20
364.559226
 30
0.0
 11
971.644674
 21
365.559226
 31
0.0
  0
LINE
  5
4CC
102
{ACAD_REACTORS
330
36
102
}
100
AcDbEntity
  8
M05
100
AcDbLine
 10
970.644674
 20
352.559226
 30
0.0
 11
971.644674
 21
351.559226
 31
0.0
  0
LINE
  5
4CD
102
{ACAD_REACTORS
330
36
102
}
100
AcDbEntity
  8
M05
100
AcDbLine
 10
970.644674
 20
364.559226
 30
0.0
 11
970.644674
 21
352.559226
 31
0.0
  0
LINE
  5
4CE
100
AcDbEntity
  8
M01
100
AcDbLine
 10
960.644674
 20
318.059226
 30
0.0
 11
964.644674
 21
318.059226
 31
0.0
  0
LINE
  5
4CF
100
AcDbEntity
  8
M01
100
AcDbLine
 10
960.644674
 20
326.059226
 30
0.0
 11
964.644674
 21
326.059226
 31
0.0
  0
LINE
  5
4D0
100
AcDbEntity
  8
M01
100
AcDbLine
 10
908.644674
 20
318.059226
 30
0.0
 11
904.644674
 21
318.059226
 31
0.0
  0
LINE
  5
4D1
100
AcDbEntity
  8
M01
100
AcDbLine
 10
908.644674
 20
326.059226
 30
0.0
 11
904.644674
 21
326.059226
 31
0.0
  0
CIRCLE
  5
4D2
102
{ACAD_REACTORS
330
18F
102
}
100
AcDbEntity
  8
M01
100
AcDbCircle
 10
960.644674
 20
322.059226
 30
0.0
 40
4.0
  0
CIRCLE
  5
4D3
100
AcDbEntity
  8
M01
100
AcDbCircle
 10
908.644674
 20
322.059226
 30
0.0
 40
4.0
  0
LINE
  5
4D4
100
AcDbEntity
  8
M01
100
AcDbLine
 10
920.144674
 20
341.059226
 30
0.0
 11
904.644674
 21
341.059226
 31
0.0
  0
LINE
  5
4D5
100
AcDbEntity
  8
M01
100
AcDbLine
 10
916.144674
 20
349.059226
 30
0.0
 11
904.644674
 21
349.059226
 31
0.0
  0
SOLID
  5
4D6
100
AcDbEntity
  8
0
  6
BYBLOCK
 62
     4
100
AcDbTrace
 10
401.948292
 20
306.983519
 30
0.0
 11
402.861895
 21
306.57691
 31
0.0
 12
403.62492
 22
309.521021
 32
0.0
 13
403.62492
 23
309.521021
 33
0.0
  0
LINE
  5
4D7
100
AcDbEntity
  8
0
  6
BYBLOCK
 62
     4
100
AcDbLine
 10
402.405094
 20
306.780214
 30
0.0
 11
393.948183
 21
287.284309
 31
0.0
  0
MTEXT
  5
4D8
100
AcDbEntity
  8
0
  6
BYBLOCK
 62
     2
100
AcDbMText
 10
288.166749
 20
281.057154
 30
-0.222949
 40
3.0
 41
0.0
 71
     4
 72
     1
  1
M12 PLATE RETAINING SCREWS SHOULD ALSO BE FITTED.\PMINIMUM 2 PER DROP & ALSO AROUND MANIFOLD POCKET.
  0
LINE
  5
4D9
100
AcDbEntity
  8
DIMS
 62
     4
100
AcDbLine
 10
232.613188
 20
493.053634
 30
0.0
 11
232.613188
 21
497.853634
 31
0.0
  0
LINE
  5
4DA
100
AcDbEntity
  8
DIMS
 62
     4
100
AcDbLine
 10
232.613188
 20
486.253634
 30
0.0
 11
232.613188
 21
481.453634
 31
0.0
  0
LINE
  5
4DB
100
AcDbEntity
  8
DIMS
 62
     4
100
AcDbLine
 10
229.213188
 20
489.653634
 30
0.0
 11
224.413188
 21
489.653634
 31
0.0
  0
LINE
  5
4DC
100
AcDbEntity
  8
DIMS
 62
     4
100
AcDbLine
 10
236.013188
 20
489.653634
 30
0.0
 11
240.813188
 21
489.653634
 31
0.0
  0
LINE
  5
4DD
100
AcDbEntity
  8
DIMS
 62
     4
100
AcDbLine
 10
232.613188
 20
487.953634
 30
0.0
 11
232.613188
 21
491.353634
 31
0.0
  0
LINE
  5
4DE
100
AcDbEntity
  8
DIMS
 62
     4
100
AcDbLine
 10
234.313188
 20
489.653634
 30
0.0
 11
230.913188
 21
489.653634
 31
0.0
  0
CIRCLE
  5
4DF
100
AcDbEntity
  8
M04
100
AcDbCircle
 10
232.613188
 20
489.653634
 30
0.0
 40
6.5
  0
MTEXT
  5
4E0
102
{ACAD_REACTORS
330
4E1
102
}
100
AcDbEntity
  8
DIMS
 62
     2
100
AcDbMText
 10
241.873418
 20
471.79654
 30
-0.222949
 40
3.0
 41
0.0
 71
     9
 72
     5
  1
HGX10037 (x2)
  0
LEADER
  5
4E1
100
AcDbEntity
  8
DIMS
 62
     4
100
AcDbLeader
  3
DIM1$7
 73
     0
 75
     1
 40
4.571429
 41
33.714286
 76
     3
 10
258.943868
 20
493.649678
 30
-0.222949
 10
246.373418
 20
473.29654
 30
-0.222949
 10
243.373418
 20
473.29654
 30
-0.222949
 77
   256
340
4E0
213
0.0
223
1.5
233
0.0
1001
ACAD
1000
DSTYLE
1002
{
1070
   288
1070
     1
1070
   144
1040
1.0
1002
}
  0
LINE
  5
4E3
100
AcDbEntity
  8
M01
100
AcDbLine
 10
365.76878
 20
579.503326
 30
0.0
 11
359.26878
 21
579.503326
 31
0.0
  0
LINE
  5
4E4
100
AcDbEntity
  8
M01
100
AcDbLine
 10
365.76878
 20
587.615126
 30
0.0
 11
359.26878
 21
587.615126
 31
0.0
  0
LINE
  5
4E5
100
AcDbEntity
  8
M01
100
AcDbLine
 10
365.76878
 20
579.503326
 30
0.0
 11
365.76878
 21
577.559226
 31
0.0
  0
ARC
  5
4E6
100
AcDbEntity
  8
M01
100
AcDbCircle
 10
367.01878
 20
581.064576
 30
0.0
 40
2.0
100
AcDbArc
 50
180.0
 51
231.317813
  0
ARC
  5
4E7
100
AcDbEntity
  8
M01
100
AcDbCircle
 10
367.01878
 20
586.053876
 30
0.0
 40
2.0
100
AcDbArc
 50
128.682187
 51
180.0
  0
LINE
  5
4E8
100
AcDbEntity
  8
M01
100
AcDbLine
 10
365.76878
 20
589.559226
 30
0.0
 11
365.76878
 21
587.615126
 31
0.0
  0
LINE
  5
4E9
100
AcDbEntity
  8
M01
100
AcDbLine
 10
365.01878
 20
586.053876
 30
0.0
 11
365.01878
 21
581.064576
 31
0.0
  0
LINE
  5
4EA
100
AcDbEntity
  8
M01
100
AcDbLine
 10
359.26878
 20
579.503326
 30
0.0
 11
359.26878
 21
577.559226
 31
0.0
  0
ARC
  5
4EB
100
AcDbEntity
  8
M01
100
AcDbCircle
 10
358.01878
 20
581.064576
 30
0.0
 40
2.0
100
AcDbArc
 50
308.682187
 51
0.0
  0
ARC
  5
4EC
100
AcDbEntity
  8
M01
100
AcDbCircle
 10
358.01878
 20
586.053876
 30
0.0
 40
2.0
100
AcDbArc
 50
0.0
 51
51.317813
  0
LINE
  5
4ED
100
AcDbEntity
  8
M01
100
AcDbLine
 10
359.26878
 20
589.559226
 30
0.0
 11
359.26878
 21
587.615126
 31
0.0
  0
LINE
  5
4EE
100
AcDbEntity
  8
M01
100
AcDbLine
 10
360.01878
 20
586.053876
 30
0.0
 11
360.01878
 21
581.064576
 31
0.0
  0
LINE
  5
4EF
100
AcDbEntity
  8
M01
100
AcDbLine
 10
358.01878
 20
589.559226
 30
0.0
 11
367.01878
 21
589.559226
 31
0.0
  0
LINE
  5
4F0
100
AcDbEntity
  8
M01
100
AcDbLine
 10
367.01878
 20
590.359226
 30
0.0
 11
367.01878
 21
589.559226
 31
0.0
  0
LINE
  5
4F1
100
AcDbEntity
  8
M01
100
AcDbLine
 10
358.01878
 20
590.359226
 30
0.0
 11
358.01878
 21
589.559226
 31
0.0
  0
LINE
  5
4F2
100
AcDbEntity
  8
M01
100
AcDbLine
 10
335.26878
 20
579.503326
 30
0.0
 11
341.76878
 21
579.503326
 31
0.0
  0
LINE
  5
4F3
100
AcDbEntity
  8
M01
100
AcDbLine
 10
335.26878
 20
587.615126
 30
0.0
 11
341.76878
 21
587.615126
 31
0.0
  0
LINE
  5
4F4
100
AcDbEntity
  8
M01
100
AcDbLine
 10
335.26878
 20
579.503326
 30
0.0
 11
335.26878
 21
577.559226
 31
0.0
  0
ARC
  5
4F5
100
AcDbEntity
  8
M01
100
AcDbCircle
 10
334.01878
 20
581.064576
 30
0.0
 40
2.0
100
AcDbArc
 50
308.682187
 51
0.0
  0
ARC
  5
4F6
100
AcDbEntity
  8
M01
100
AcDbCircle
 10
334.01878
 20
586.053876
 30
0.0
 40
2.0
100
AcDbArc
 50
0.0
 51
51.317813
  0
LINE
  5
4F7
100
AcDbEntity
  8
M01
100
AcDbLine
 10
335.26878
 20
589.559226
 30
0.0
 11
335.26878
 21
587.615126
 31
0.0
  0
LINE
  5
4F8
100
AcDbEntity
  8
M01
100
AcDbLine
 10
336.01878
 20
586.053876
 30
0.0
 11
336.01878
 21
581.064576
 31
0.0
  0
LINE
  5
4F9
100
AcDbEntity
  8
M01
100
AcDbLine
 10
341.76878
 20
579.503326
 30
0.0
 11
341.76878
 21
577.559226
 31
0.0
  0
ARC
  5
4FA
100
AcDbEntity
  8
M01
100
AcDbCircle
 10
343.01878
 20
581.064576
 30
0.0
 40
2.0
100
AcDbArc
 50
180.0
 51
231.317813
  0
ARC
  5
4FB
100
AcDbEntity
  8
M01
100
AcDbCircle
 10
343.01878
 20
586.053876
 30
0.0
 40
2.0
100
AcDbArc
 50
128.682187
 51
180.0
  0
LINE
  5
4FC
100
AcDbEntity
  8
M01
100
AcDbLine
 10
341.76878
 20
589.559226
 30
0.0
 11
341.76878
 21
587.615126
 31
0.0
  0
LINE
  5
4FD
100
AcDbEntity
  8
M01
100
AcDbLine
 10
341.01878
 20
586.053876
 30
0.0
 11
341.01878
 21
581.064576
 31
0.0
  0
LINE
  5
4FE
100
AcDbEntity
  8
M01
100
AcDbLine
 10
367.51878
 20
572.559226
 30
0.0
 11
357.51878
 21
572.559226
 31
0.0
  0
LINE
  5
4FF
100
AcDbEntity
  8
M01
100
AcDbLine
 10
333.51878
 20
572.559226
 30
0.0
 11
343.51878
 21
572.559226
 31
0.0
  0
LINE
  5
500
100
AcDbEntity
  8
M01
100
AcDbLine
 10
333.51878
 20
577.559226
 30
0.0
 11
333.51878
 21
557.559226
 31
0.0
  0
LINE
  5
501
100
AcDbEntity
  8
M01
100
AcDbLine
 10
343.51878
 20
577.559226
 30
0.0
 11
343.51878
 21
557.559226
 31
0.0
  0
LINE
  5
502
100
AcDbEntity
  8
M01
100
AcDbLine
 10
357.51878
 20
577.559226
 30
0.0
 11
357.51878
 21
557.559226
 31
0.0
  0
LINE
  5
503
100
AcDbEntity
  8
M01
100
AcDbLine
 10
367.51878
 20
577.559226
 30
0.0
 11
367.51878
 21
557.559226
 31
0.0
  0
LINE
  5
504
100
AcDbEntity
  8
M01
100
AcDbLine
 10
365.549868
 20
599.459226
 30
0.0
 11
359.487691
 21
599.459226
 31
0.0
  0
ARC
  5
505
100
AcDbEntity
  8
M01
100
AcDbCircle
 10
359.487691
 20
597.609921
 30
0.0
 40
1.150694
100
AcDbArc
 50
208.592423
 51
331.407577
  0
ARC
  5
506
100
AcDbEntity
  8
M01
100
AcDbCircle
 10
362.51878
 20
600.162004
 30
0.0
 40
3.702778
100
AcDbArc
 50
236.92527
 51
303.07473
  0
ARC
  5
507
100
AcDbEntity
  8
M01
100
AcDbCircle
 10
365.549868
 20
597.609921
 30
0.0
 40
1.150694
100
AcDbArc
 50
208.592423
 51
331.407577
  0
ARC
  5
508
100
AcDbEntity
  8
M01
100
AcDbCircle
 10
359.487691
 20
598.308532
 30
0.0
 40
1.150694
100
AcDbArc
 50
28.592423
 51
151.407577
  0
ARC
  5
509
100
AcDbEntity
  8
M01
100
AcDbCircle
 10
362.51878
 20
595.756448
 30
0.0
 40
3.702778
100
AcDbArc
 50
56.92527
 51
123.07473
  0
LINE
  5
50A
100
AcDbEntity
  8
M01
100
AcDbLine
 10
360.498054
 20
598.859226
 30
0.0
 11
360.498054
 21
597.059226
 31
0.0
  0
LINE
  5
50B
100
AcDbEntity
  8
M01
100
AcDbLine
 10
358.477328
 20
598.859226
 30
0.0
 11
358.477328
 21
597.059226
 31
0.0
  0
ARC
  5
50C
100
AcDbEntity
  8
M01
100
AcDbCircle
 10
365.549868
 20
598.308532
 30
0.0
 40
1.150694
100
AcDbArc
 50
28.592423
 51
151.407577
  0
LINE
  5
50D
100
AcDbEntity
  8
M01
100
AcDbLine
 10
364.539505
 20
598.859226
 30
0.0
 11
364.539505
 21
597.059226
 31
0.0
  0
LINE
  5
50E
100
AcDbEntity
  8
M01
100
AcDbLine
 10
366.560231
 20
598.859226
 30
0.0
 11
366.560231
 21
597.059226
 31
0.0
  0
LINE
  5
50F
100
AcDbEntity
  8
M01
100
AcDbLine
 10
357.51878
 20
594.159226
 30
0.0
 11
357.51878
 21
595.659226
 31
0.0
  0
LINE
  5
510
100
AcDbEntity
  8
M01
100
AcDbLine
 10
367.51878
 20
594.159226
 30
0.0
 11
367.51878
 21
595.659226
 31
0.0
  0
LINE
  5
511
100
AcDbEntity
  8
M01
100
AcDbLine
 10
358.01878
 20
595.659226
 30
0.0
 11
358.01878
 21
596.459226
 31
0.0
  0
LINE
  5
512
100
AcDbEntity
  8
M01
100
AcDbLine
 10
367.01878
 20
595.659226
 30
0.0
 11
367.01878
 21
596.459226
 31
0.0
  0
LINE
  5
513
100
AcDbEntity
  8
M01
100
AcDbLine
 10
367.01878
 20
596.459226
 30
0.0
 11
358.01878
 21
596.459226
 31
0.0
  0
LINE
  5
514
100
AcDbEntity
  8
M01
100
AcDbLine
 10
367.51878
 20
595.659226
 30
0.0
 11
357.51878
 21
595.659226
 31
0.0
  0
LINE
  5
515
100
AcDbEntity
  8
M01
100
AcDbLine
 10
358.01878
 20
593.359226
 30
0.0
 11
358.01878
 21
594.159226
 31
0.0
  0
LINE
  5
516
100
AcDbEntity
  8
M01
100
AcDbLine
 10
367.01878
 20
593.359226
 30
0.0
 11
367.01878
 21
594.159226
 31
0.0
  0
LINE
  5
517
100
AcDbEntity
  8
M01
100
AcDbLine
 10
367.51878
 20
594.159226
 30
0.0
 11
357.51878
 21
594.159226
 31
0.0
  0
ARC
  5
518
100
AcDbEntity
  8
M01
100
AcDbCircle
 10
359.487691
 20
591.509921
 30
0.0
 40
1.150694
100
AcDbArc
 50
208.592423
 51
331.407577
  0
ARC
  5
519
100
AcDbEntity
  8
M01
100
AcDbCircle
 10
362.51878
 20
594.062004
 30
0.0
 40
3.702778
100
AcDbArc
 50
236.92527
 51
303.07473
  0
ARC
  5
51A
100
AcDbEntity
  8
M01
100
AcDbCircle
 10
365.549868
 20
591.509921
 30
0.0
 40
1.150694
100
AcDbArc
 50
208.592423
 51
331.407577
  0
ARC
  5
51B
100
AcDbEntity
  8
M01
100
AcDbCircle
 10
359.487691
 20
592.208532
 30
0.0
 40
1.150694
100
AcDbArc
 50
28.592423
 51
151.407577
  0
ARC
  5
51C
100
AcDbEntity
  8
M01
100
AcDbCircle
 10
362.51878
 20
589.656448
 30
0.0
 40
3.702778
100
AcDbArc
 50
56.92527
 51
123.07473
  0
LINE
  5
51D
100
AcDbEntity
  8
M01
100
AcDbLine
 10
360.498054
 20
592.759226
 30
0.0
 11
360.498054
 21
590.959226
 31
0.0
  0
LINE
  5
51E
100
AcDbEntity
  8
M01
100
AcDbLine
 10
358.477328
 20
592.759226
 30
0.0
 11
358.477328
 21
590.959226
 31
0.0
  0
ARC
  5
51F
100
AcDbEntity
  8
M01
100
AcDbCircle
 10
365.549868
 20
592.208532
 30
0.0
 40
1.150694
100
AcDbArc
 50
28.592423
 51
151.407577
  0
LINE
  5
520
100
AcDbEntity
  8
M01
100
AcDbLine
 10
364.539505
 20
592.759226
 30
0.0
 11
364.539505
 21
590.959226
 31
0.0
  0
LINE
  5
521
100
AcDbEntity
  8
M01
100
AcDbLine
 10
366.560231
 20
592.759226
 30
0.0
 11
366.560231
 21
590.959226
 31
0.0
  0
LINE
  5
522
100
AcDbEntity
  8
M01
100
AcDbLine
 10
367.01878
 20
593.359226
 30
0.0
 11
358.01878
 21
593.359226
 31
0.0
  0
LINE
  5
523
100
AcDbEntity
  8
M01
100
AcDbLine
 10
367.01878
 20
590.359226
 30
0.0
 11
358.01878
 21
590.359226
 31
0.0
  0
LINE
  5
524
100
AcDbEntity
  8
M01
100
AcDbLine
 10
361.01878
 20
602.559226
 30
0.0
 11
360.51878
 21
602.059226
 31
0.0
  0
LINE
  5
525
100
AcDbEntity
  8
M01
100
AcDbLine
 10
364.51878
 20
602.059226
 30
0.0
 11
364.01878
 21
602.559226
 31
0.0
  0
LINE
  5
526
100
AcDbEntity
  8
M01
100
AcDbLine
 10
364.51878
 20
602.059226
 30
0.0
 11
360.51878
 21
602.059226
 31
0.0
  0
LINE
  5
527
100
AcDbEntity
  8
M01
100
AcDbLine
 10
361.01878
 20
602.559226
 30
0.0
 11
361.01878
 21
599.459226
 31
0.0
  0
LINE
  5
528
100
AcDbEntity
  8
M01
100
AcDbLine
 10
364.01878
 20
602.559226
 30
0.0
 11
364.01878
 21
599.459226
 31
0.0
  0
LINE
  5
529
100
AcDbEntity
  8
M01
100
AcDbLine
 10
364.51878
 20
602.059226
 30
0.0
 11
364.51878
 21
599.459226
 31
0.0
  0
LINE
  5
52A
100
AcDbEntity
  8
M01
100
AcDbLine
 10
360.51878
 20
602.059226
 30
0.0
 11
360.51878
 21
599.459226
 31
0.0
  0
LINE
  5
52B
100
AcDbEntity
  8
M01
100
AcDbLine
 10
364.01878
 20
602.559226
 30
0.0
 11
361.01878
 21
602.559226
 31
0.0
  0
LINE
  5
52C
100
AcDbEntity
  8
M01
100
AcDbLine
 10
367.51878
 20
577.559226
 30
0.0
 11
357.51878
 21
577.559226
 31
0.0
  0
LINE
  5
52D
100
AcDbEntity
  8
CENTRE
100
AcDbLine
 10
362.51878
 20
608.720115
 30
0.0
 11
362.51878
 21
545.126684
 31
0.0
  0
LINE
  5
52E
100
AcDbEntity
  8
M01
100
AcDbLine
 10
335.487691
 20
599.459226
 30
0.0
 11
341.549868
 21
599.459226
 31
0.0
  0
ARC
  5
52F
100
AcDbEntity
  8
M01
100
AcDbCircle
 10
341.549868
 20
597.609921
 30
0.0
 40
1.150694
100
AcDbArc
 50
208.592423
 51
331.407577
  0
ARC
  5
530
100
AcDbEntity
  8
M01
100
AcDbCircle
 10
338.51878
 20
600.162004
 30
0.0
 40
3.702778
100
AcDbArc
 50
236.92527
 51
303.07473
  0
ARC
  5
531
100
AcDbEntity
  8
M01
100
AcDbCircle
 10
335.487691
 20
597.609921
 30
0.0
 40
1.150694
100
AcDbArc
 50
208.592423
 51
331.407577
  0
ARC
  5
532
100
AcDbEntity
  8
M01
100
AcDbCircle
 10
341.549868
 20
598.308532
 30
0.0
 40
1.150694
100
AcDbArc
 50
28.592423
 51
151.407577
  0
ARC
  5
533
100
AcDbEntity
  8
M01
100
AcDbCircle
 10
338.51878
 20
595.756448
 30
0.0
 40
3.702778
100
AcDbArc
 50
56.92527
 51
123.07473
  0
LINE
  5
534
100
AcDbEntity
  8
M01
100
AcDbLine
 10
340.539505
 20
598.859226
 30
0.0
 11
340.539505
 21
597.059226
 31
0.0
  0
LINE
  5
535
100
AcDbEntity
  8
M01
100
AcDbLine
 10
342.560231
 20
598.859226
 30
0.0
 11
342.560231
 21
597.059226
 31
0.0
  0
ARC
  5
536
100
AcDbEntity
  8
M01
100
AcDbCircle
 10
335.487691
 20
598.308532
 30
0.0
 40
1.150694
100
AcDbArc
 50
28.592423
 51
151.407577
  0
LINE
  5
537
100
AcDbEntity
  8
M01
100
AcDbLine
 10
336.498054
 20
598.859226
 30
0.0
 11
336.498054
 21
597.059226
 31
0.0
  0
LINE
  5
538
100
AcDbEntity
  8
M01
100
AcDbLine
 10
334.477328
 20
598.859226
 30
0.0
 11
334.477328
 21
597.059226
 31
0.0
  0
LINE
  5
539
100
AcDbEntity
  8
M01
100
AcDbLine
 10
343.51878
 20
594.159226
 30
0.0
 11
343.51878
 21
595.659226
 31
0.0
  0
LINE
  5
53A
100
AcDbEntity
  8
M01
100
AcDbLine
 10
333.51878
 20
594.159226
 30
0.0
 11
333.51878
 21
595.659226
 31
0.0
  0
LINE
  5
53B
100
AcDbEntity
  8
M01
100
AcDbLine
 10
343.01878
 20
595.659226
 30
0.0
 11
343.01878
 21
596.459226
 31
0.0
  0
LINE
  5
53C
100
AcDbEntity
  8
M01
100
AcDbLine
 10
334.01878
 20
595.659226
 30
0.0
 11
334.01878
 21
596.459226
 31
0.0
  0
LINE
  5
53D
100
AcDbEntity
  8
M01
100
AcDbLine
 10
334.01878
 20
596.459226
 30
0.0
 11
343.01878
 21
596.459226
 31
0.0
  0
LINE
  5
53E
100
AcDbEntity
  8
M01
100
AcDbLine
 10
333.51878
 20
595.659226
 30
0.0
 11
343.51878
 21
595.659226
 31
0.0
  0
LINE
  5
53F
100
AcDbEntity
  8
M01
100
AcDbLine
 10
343.01878
 20
593.359226
 30
0.0
 11
343.01878
 21
594.159226
 31
0.0
  0
LINE
  5
540
100
AcDbEntity
  8
M01
100
AcDbLine
 10
334.01878
 20
593.359226
 30
0.0
 11
334.01878
 21
594.159226
 31
0.0
  0
LINE
  5
541
100
AcDbEntity
  8
M01
100
AcDbLine
 10
333.51878
 20
594.159226
 30
0.0
 11
343.51878
 21
594.159226
 31
0.0
  0
ARC
  5
542
100
AcDbEntity
  8
M01
100
AcDbCircle
 10
341.549868
 20
591.509921
 30
0.0
 40
1.150694
100
AcDbArc
 50
208.592423
 51
331.407577
  0
ARC
  5
543
100
AcDbEntity
  8
M01
100
AcDbCircle
 10
338.51878
 20
594.062004
 30
0.0
 40
3.702778
100
AcDbArc
 50
236.92527
 51
303.07473
  0
ARC
  5
544
100
AcDbEntity
  8
M01
100
AcDbCircle
 10
335.487691
 20
591.509921
 30
0.0
 40
1.150694
100
AcDbArc
 50
208.592423
 51
331.407577
  0
ARC
  5
545
100
AcDbEntity
  8
M01
100
AcDbCircle
 10
341.549868
 20
592.208532
 30
0.0
 40
1.150694
100
AcDbArc
 50
28.592423
 51
151.407577
  0
ARC
  5
546
100
AcDbEntity
  8
M01
100
AcDbCircle
 10
338.51878
 20
589.656448
 30
0.0
 40
3.702778
100
AcDbArc
 50
56.92527
 51
123.07473
  0
LINE
  5
547
100
AcDbEntity
  8
M01
100
AcDbLine
 10
340.539505
 20
592.759226
 30
0.0
 11
340.539505
 21
590.959226
 31
0.0
  0
LINE
  5
548
100
AcDbEntity
  8
M01
100
AcDbLine
 10
342.560231
 20
592.759226
 30
0.0
 11
342.560231
 21
590.959226
 31
0.0
  0
ARC
  5
549
100
AcDbEntity
  8
M01
100
AcDbCircle
 10
335.487691
 20
592.208532
 30
0.0
 40
1.150694
100
AcDbArc
 50
28.592423
 51
151.407577
  0
LINE
  5
54A
100
AcDbEntity
  8
M01
100
AcDbLine
 10
336.498054
 20
592.759226
 30
0.0
 11
336.498054
 21
590.959226
 31
0.0
  0
LINE
  5
54B
100
AcDbEntity
  8
M01
100
AcDbLine
 10
334.477328
 20
592.759226
 30
0.0
 11
334.477328
 21
590.959226
 31
0.0
  0
LINE
  5
54C
100
AcDbEntity
  8
M01
100
AcDbLine
 10
334.01878
 20
593.359226
 30
0.0
 11
343.01878
 21
593.359226
 31
0.0
  0
LINE
  5
54D
100
AcDbEntity
  8
M01
100
AcDbLine
 10
334.01878
 20
590.359226
 30
0.0
 11
343.01878
 21
590.359226
 31
0.0
  0
LINE
  5
54E
100
AcDbEntity
  8
M01
100
AcDbLine
 10
334.01878
 20
589.559226
 30
0.0
 11
343.01878
 21
589.559226
 31
0.0
  0
LINE
  5
54F
100
AcDbEntity
  8
M01
100
AcDbLine
 10
340.01878
 20
602.559226
 30
0.0
 11
340.51878
 21
602.059226
 31
0.0
  0
LINE
  5
550
100
AcDbEntity
  8
M01
100
AcDbLine
 10
336.51878
 20
602.059226
 30
0.0
 11
337.01878
 21
602.559226
 31
0.0
  0
LINE
  5
551
100
AcDbEntity
  8
M01
100
AcDbLine
 10
336.51878
 20
602.059226
 30
0.0
 11
340.51878
 21
602.059226
 31
0.0
  0
LINE
  5
552
100
AcDbEntity
  8
M01
100
AcDbLine
 10
340.01878
 20
602.559226
 30
0.0
 11
340.01878
 21
599.459226
 31
0.0
  0
LINE
  5
553
100
AcDbEntity
  8
M01
100
AcDbLine
 10
337.01878
 20
602.559226
 30
0.0
 11
337.01878
 21
599.459226
 31
0.0
  0
LINE
  5
554
100
AcDbEntity
  8
M01
100
AcDbLine
 10
336.51878
 20
602.059226
 30
0.0
 11
336.51878
 21
599.459226
 31
0.0
  0
LINE
  5
555
100
AcDbEntity
  8
M01
100
AcDbLine
 10
340.51878
 20
602.059226
 30
0.0
 11
340.51878
 21
599.459226
 31
0.0
  0
LINE
  5
556
100
AcDbEntity
  8
M01
100
AcDbLine
 10
337.01878
 20
602.559226
 30
0.0
 11
340.01878
 21
602.559226
 31
0.0
  0
LINE
  5
557
100
AcDbEntity
  8
M01
100
AcDbLine
 10
333.51878
 20
577.559226
 30
0.0
 11
343.51878
 21
577.559226
 31
0.0
  0
LINE
  5
558
100
AcDbEntity
  8
M01
100
AcDbLine
 10
343.01878
 20
590.359226
 30
0.0
 11
343.01878
 21
589.559226
 31
0.0
  0
LINE
  5
559
100
AcDbEntity
  8
M01
100
AcDbLine
 10
334.01878
 20
590.359226
 30
0.0
 11
334.01878
 21
589.559226
 31
0.0
  0
LINE
  5
55A
100
AcDbEntity
  8
CENTRE
100
AcDbLine
 10
338.51878
 20
608.720115
 30
0.0
 11
338.51878
 21
545.126684
 31
0.0
  0
HATCH
  5
55B
100
AcDbEntity
  8
M03
100
AcDbHatch
 10
0.0
 20
0.0
 30
0.0
210
0.0
220
0.0
230
1.0
  2
_U
 70
     0
 71
     0
 91
        1
 92
        7
 72
     0
 73
     1
 93
        4
 10
255.7065560590933
 20
497.53154339406
 10
235.031843135557
 20
518.2062563175963
 10
233.6883402513027
 20
516.8627534333419
 10
254.363053174839
 20
496.1880405098056
 97
        0
 75
     0
 76
     0
 52
285.0
 41
0.7
 77
     0
 78
     1
 53
285.0
 43
-377.577856
 44
558.824232
 45
0.676148078402348
 46
0.181173331571764
 79
     0
 47
0.060863
 98
        1
 10
252.256863
 20
499.301955
  0
HATCH
  5
55C
100
AcDbEntity
  8
M03
100
AcDbHatch
 10
0.0
 20
0.0
 30
0.0
210
0.0
220
0.0
230
1.0
  2
_U
 70
     0
 71
     0
 91
        1
 92
        7
 72
     0
 73
     1
 93
        4
 10
255.7065560590934
 20
497.53154339406
 10
235.0318431355569
 20
518.2062563175963
 10
233.6883402513024
 20
516.8627534333419
 10
254.363053174839
 20
496.1880405098055
 97
        0
 75
     0
 76
     0
 52
-15.0
 41
0.7
 77
     0
 78
     1
 53
345.0
 43
-377.577856
 44
558.824232
 45
0.1811733315717648
 46
0.6761480784023477
 79
     0
 47
0.060863
 98
        1
 10
252.299847
 20
499.603265
  0
LINE
  5
55D
100
AcDbEntity
  8
M03
100
AcDbLine
 10
277.066175
 20
495.405229
 30
0.0
 11
276.3788
 21
497.970546
 31
0.0
  0
LINE
  5
55E
100
AcDbEntity
  8
M03
100
AcDbLine
 10
273.813484
 20
498.65792
 30
0.0
 11
276.3788
 21
497.970546
 31
0.0
  0
LINE
  5
55F
100
AcDbEntity
  8
M03
100
AcDbLine
 10
273.813484
 20
498.65792
 30
0.0
 11
277.066175
 21
495.405229
 31
0.0
  0
LINE
  5
560
100
AcDbEntity
  8
M03
100
AcDbLine
 10
272.257849
 20
498.092235
 30
0.0
 11
276.50049
 21
493.849594
 31
0.0
  0
LINE
  5
561
100
AcDbEntity
  8
M03
100
AcDbLine
 10
255.706556
 20
497.531543
 30
0.0
 11
235.031843
 21
518.206256
 31
0.0
  0
LINE
  5
562
100
AcDbEntity
  8
M03
100
AcDbLine
 10
254.363053
 20
496.188041
 30
0.0
 11
233.68834
 21
516.862753
 31
0.0
  0
LINE
  5
563
100
AcDbEntity
  8
M03
100
AcDbLine
 10
260.868436
 20
492.793928
 30
0.0
 11
270.985057
 21
482.677307
 31
0.0
  0
LINE
  5
564
100
AcDbEntity
  8
M03
100
AcDbLine
 10
260.695361
 20
494.098373
 30
0.0
 11
260.129676
 21
493.532688
 31
0.0
  0
LINE
  5
565
100
AcDbEntity
  8
M03
100
AcDbLine
 10
255.918688
 20
497.743675
 30
0.0
 11
254.150921
 21
495.975908
 31
0.0
  0
LINE
  5
566
100
AcDbEntity
  8
M03
100
AcDbLine
 10
254.150921
 20
495.975908
 30
0.0
 11
259.100669
 21
491.026161
 31
0.0
  0
LINE
  5
567
100
AcDbEntity
  8
M03
100
AcDbLine
 10
260.868436
 20
492.793928
 30
0.0
 11
259.100669
 21
491.026161
 31
0.0
  0
LINE
  5
568
100
AcDbEntity
  8
M03
100
AcDbLine
 10
271.550742
 20
483.242992
 30
0.0
 11
270.985057
 21
482.677307
 31
0.0
  0
ARC
  5
569
100
AcDbEntity
  8
M03
100
AcDbCircle
 10
267.821557
 20
489.413302
 30
0.0
 40
5.826136
100
AcDbArc
 50
160.69541
 51
289.30459
  0
LINE
  5
56A
100
AcDbEntity
  8
M03
100
AcDbLine
 10
274.732723
 20
492.081827
 30
0.0
 11
274.732723
 21
493.071777
 31
0.0
  0
LINE
  5
56B
100
AcDbEntity
  8
M03
100
AcDbLine
 10
270.490082
 20
496.324468
 30
0.0
 11
271.480031
 21
496.324468
 31
0.0
  0
LINE
  5
56C
100
AcDbEntity
  8
M03
100
AcDbLine
 10
270.490082
 20
496.324468
 30
0.0
 11
274.732723
 21
492.081827
 31
0.0
  0
LINE
  5
56D
100
AcDbEntity
  8
M03
100
AcDbLine
 10
271.480031
 20
496.324468
 30
0.0
 11
274.732723
 21
493.071777
 31
0.0
  0
LINE
  5
56E
100
AcDbEntity
  8
M03
100
AcDbLine
 10
268.722315
 20
486.071419
 30
0.0
 11
273.672062
 21
481.121672
 31
0.0
  0
LINE
  5
56F
100
AcDbEntity
  8
M03
100
AcDbLine
 10
256.913632
 20
497.880103
 30
0.0
 11
256.347946
 21
497.314417
 31
0.0
  0
LINE
  5
570
100
AcDbEntity
  8
M03
100
AcDbLine
 10
269.21729
 20
485.576445
 30
0.0
 11
268.651604
 21
485.010759
 31
0.0
  0
LINE
  5
571
100
AcDbEntity
  8
M03
100
AcDbLine
 10
277.066175
 20
495.405229
 30
0.0
 11
267.661655
 21
486.000709
 31
0.0
  0
LINE
  5
572
100
AcDbEntity
  8
M03
100
AcDbLine
 10
273.813484
 20
498.65792
 30
0.0
 11
264.408964
 21
489.2534
 31
0.0
  0
LINE
  5
573
100
AcDbEntity
  8
M03
100
AcDbLine
 10
272.257849
 20
498.092235
 30
0.0
 11
263.913989
 21
489.748375
 31
0.0
  0
LINE
  5
574
100
AcDbEntity
  8
M03
100
AcDbLine
 10
276.50049
 20
493.849594
 30
0.0
 11
268.15663
 21
485.505734
 31
0.0
  0
LINE
  5
575
100
AcDbEntity
  8
M03
100
AcDbLine
 10
255.918688
 20
497.743675
 30
0.0
 11
260.129676
 21
493.532688
 31
0.0
  0
LINE
  5
576
100
AcDbEntity
  8
M03
100
AcDbLine
 10
273.672062
 20
481.121672
 30
0.0
 11
270.136529
 21
477.586138
 31
0.0
  0
LINE
  5
577
100
AcDbEntity
  8
M03
100
AcDbLine
 10
231.01878
 20
523.774955
 30
0.0
 11
264.479674
 21
490.31406
 31
0.0
  0
LINE
  5
578
100
AcDbEntity
  8
CENTRE
100
AcDbLine
 10
279.4694
 20
501.061145
 30
0.0
 11
260.264274
 21
481.856019
 31
0.0
  0
CIRCLE
  5
579
100
AcDbEntity
  8
M03
100
AcDbCircle
 10
438.01878
 20
345.059226
 30
0.0
 40
2.3
  0
ARC
  5
57A
100
AcDbEntity
  8
M03
100
AcDbCircle
 10
438.01878
 20
345.059226
 30
0.0
 40
3.0
100
AcDbArc
 50
167.784636
 51
96.923103
  0
LINE
  5
57B
100
AcDbEntity
  8
M03
100
AcDbLine
 10
437.46878
 20
351.033965
 30
0.0
 11
437.46878
 21
339.084488
 31
0.0
  0
LINE
  5
57C
100
AcDbEntity
  8
M03
100
AcDbLine
 10
438.56878
 20
351.033965
 30
0.0
 11
438.56878
 21
339.084488
 31
0.0
  0
CIRCLE
  5
57D
100
AcDbEntity
  8
M03
100
AcDbCircle
 10
438.01878
 20
345.059226
 30
0.0
 40
7.858882
  0
CIRCLE
  5
57E
100
AcDbEntity
  8
M03
100
AcDbCircle
 10
438.01878
 20
345.059226
 30
0.0
 40
6.0
  0
CIRCLE
  5
57F
100
AcDbEntity
  8
M03
100
AcDbCircle
 10
263.01878
 20
345.059226
 30
0.0
 40
2.3
  0
ARC
  5
580
100
AcDbEntity
  8
M03
100
AcDbCircle
 10
263.01878
 20
345.059226
 30
0.0
 40
3.0
100
AcDbArc
 50
173.076897
 51
102.215364
  0
LINE
  5
581
100
AcDbEntity
  8
M03
100
AcDbLine
 10
263.56878
 20
351.033965
 30
0.0
 11
263.56878
 21
339.084488
 31
0.0
  0
LINE
  5
582
100
AcDbEntity
  8
M03
100
AcDbLine
 10
262.46878
 20
351.033965
 30
0.0
 11
262.46878
 21
339.084488
 31
0.0
  0
CIRCLE
  5
583
100
AcDbEntity
  8
M03
100
AcDbCircle
 10
263.01878
 20
345.059226
 30
0.0
 40
7.858882
  0
CIRCLE
  5
584
100
AcDbEntity
  8
M03
100
AcDbCircle
 10
263.01878
 20
345.059226
 30
0.0
 40
6.0
  0
CIRCLE
  5
585
100
AcDbEntity
  8
M03
100
AcDbCircle
 10
438.01878
 20
520.059226
 30
0.0
 40
2.3
  0
ARC
  5
586
100
AcDbEntity
  8
M03
100
AcDbCircle
 10
438.01878
 20
520.059226
 30
0.0
 40
3.0
100
AcDbArc
 50
173.076897
 51
102.215364
  0
LINE
  5
587
100
AcDbEntity
  8
M03
100
AcDbLine
 10
437.46878
 20
514.084488
 30
0.0
 11
437.46878
 21
526.033965
 31
0.0
  0
LINE
  5
588
100
AcDbEntity
  8
M03
100
AcDbLine
 10
438.56878
 20
514.084488
 30
0.0
 11
438.56878
 21
526.033965
 31
0.0
  0
CIRCLE
  5
589
100
AcDbEntity
  8
M03
100
AcDbCircle
 10
438.01878
 20
520.059226
 30
0.0
 40
7.858882
  0
CIRCLE
  5
58A
100
AcDbEntity
  8
M03
100
AcDbCircle
 10
438.01878
 20
520.059226
 30
0.0
 40
6.0
  0
CIRCLE
  5
58B
100
AcDbEntity
  8
M03
100
AcDbCircle
 10
263.01878
 20
520.059226
 30
0.0
 40
2.3
  0
ARC
  5
58C
100
AcDbEntity
  8
M03
100
AcDbCircle
 10
263.01878
 20
520.059226
 30
0.0
 40
3.0
100
AcDbArc
 50
167.784636
 51
96.923103
  0
LINE
  5
58D
100
AcDbEntity
  8
M03
100
AcDbLine
 10
263.56878
 20
514.084488
 30
0.0
 11
263.56878
 21
526.033965
 31
0.0
  0
LINE
  5
58E
100
AcDbEntity
  8
M03
100
AcDbLine
 10
262.46878
 20
514.084488
 30
0.0
 11
262.46878
 21
526.033965
 31
0.0
  0
CIRCLE
  5
58F
100
AcDbEntity
  8
M03
100
AcDbCircle
 10
263.01878
 20
520.059226
 30
0.0
 40
7.858882
  0
CIRCLE
  5
590
100
AcDbEntity
  8
M03
100
AcDbCircle
 10
263.01878
 20
520.059226
 30
0.0
 40
6.0
  0
LINE
  5
591
100
AcDbEntity
  8
DIMS
 62
     4
100
AcDbLine
 10
528.91878
 20
406.559226
 30
0.0
 11
532.71878
 21
406.559226
 31
0.0
  0
LINE
  5
592
100
AcDbEntity
  8
DIMS
 62
     4
100
AcDbLine
 10
522.11878
 20
406.559226
 30
0.0
 11
518.31878
 21
406.559226
 31
0.0
  0
LINE
  5
593
100
AcDbEntity
  8
DIMS
 62
     4
100
AcDbLine
 10
523.81878
 20
406.559226
 30
0.0
 11
527.21878
 21
406.559226
 31
0.0
  0
CIRCLE
  5
594
100
AcDbEntity
  8
M03
100
AcDbCircle
 10
525.51878
 20
406.559226
 30
0.0
 40
2.3
  0
ARC
  5
595
100
AcDbEntity
  8
M03
100
AcDbCircle
 10
525.51878
 20
406.559226
 30
0.0
 40
3.0
100
AcDbArc
 50
167.784636
 51
96.923103
  0
CIRCLE
  5
596
100
AcDbEntity
  8
M03
100
AcDbCircle
 10
525.51878
 20
406.559226
 30
0.0
 40
5.5
  0
LINE
  5
597
100
AcDbEntity
  8
DIMS
 62
     4
100
AcDbLine
 10
499.51878
 20
435.959226
 30
0.0
 11
499.51878
 21
439.759226
 31
0.0
  0
LINE
  5
598
100
AcDbEntity
  8
DIMS
 62
     4
100
AcDbLine
 10
499.51878
 20
429.159226
 30
0.0
 11
499.51878
 21
425.359226
 31
0.0
  0
LINE
  5
599
100
AcDbEntity
  8
DIMS
 62
     4
100
AcDbLine
 10
499.51878
 20
430.859226
 30
0.0
 11
499.51878
 21
434.259226
 31
0.0
  0
LINE
  5
59A
100
AcDbEntity
  8
DIMS
 62
     4
100
AcDbLine
 10
551.51878
 20
435.959226
 30
0.0
 11
551.51878
 21
439.759226
 31
0.0
  0
LINE
  5
59B
100
AcDbEntity
  8
DIMS
 62
     4
100
AcDbLine
 10
551.51878
 20
429.159226
 30
0.0
 11
551.51878
 21
425.359226
 31
0.0
  0
LINE
  5
59C
100
AcDbEntity
  8
DIMS
 62
     4
100
AcDbLine
 10
551.51878
 20
430.859226
 30
0.0
 11
551.51878
 21
434.259226
 31
0.0
  0
LINE
  5
59D
100
AcDbEntity
  8
DIMS
 62
     4
100
AcDbLine
 10
528.91878
 20
458.559226
 30
0.0
 11
532.71878
 21
458.559226
 31
0.0
  0
LINE
  5
59E
100
AcDbEntity
  8
DIMS
 62
     4
100
AcDbLine
 10
522.11878
 20
458.559226
 30
0.0
 11
518.31878
 21
458.559226
 31
0.0
  0
LINE
  5
59F
100
AcDbEntity
  8
DIMS
 62
     4
100
AcDbLine
 10
523.81878
 20
458.559226
 30
0.0
 11
527.21878
 21
458.559226
 31
0.0
  0
CIRCLE
  5
5A0
100
AcDbEntity
  8
M03
100
AcDbCircle
 10
551.51878
 20
432.559226
 30
0.0
 40
2.3
  0
ARC
  5
5A1
100
AcDbEntity
  8
M03
100
AcDbCircle
 10
551.51878
 20
432.559226
 30
0.0
 40
3.0
100
AcDbArc
 50
167.784636
 51
96.923103
  0
CIRCLE
  5
5A2
100
AcDbEntity
  8
M03
100
AcDbCircle
 10
551.51878
 20
432.559226
 30
0.0
 40
5.5
  0
CIRCLE
  5
5A3
100
AcDbEntity
  8
M03
100
AcDbCircle
 10
499.51878
 20
432.559226
 30
0.0
 40
2.3
  0
ARC
  5
5A4
100
AcDbEntity
  8
M03
100
AcDbCircle
 10
499.51878
 20
432.559226
 30
0.0
 40
3.0
100
AcDbArc
 50
167.784636
 51
96.923103
  0
CIRCLE
  5
5A5
100
AcDbEntity
  8
M03
100
AcDbCircle
 10
499.51878
 20
432.559226
 30
0.0
 40
5.5
  0
CIRCLE
  5
5A6
100
AcDbEntity
  8
M03
100
AcDbCircle
 10
525.51878
 20
458.559226
 30
0.0
 40
2.3
  0
ARC
  5
5A7
100
AcDbEntity
  8
M03
100
AcDbCircle
 10
525.51878
 20
458.559226
 30
0.0
 40
3.0
100
AcDbArc
 50
167.784636
 51
96.923103
  0
CIRCLE
  5
5A8
100
AcDbEntity
  8
M03
100
AcDbCircle
 10
525.51878
 20
458.559226
 30
0.0
 40
5.5
  0
LINE
  5
5A9
100
AcDbEntity
  8
DIMS
100
AcDbLine
 10
325.616537
 20
652.003033
 30
0.0
 11
350.51878
 21
652.003033
 31
0.0
  0
INSERT
  5
5AA
100
AcDbEntity
  8
DIMS
100
AcDbBlockReference
  2
ARROW1
 10
325.616537
 20
652.003033
 30
0.0
 41
10.0
 42
10.0
 43
10.0
 50
180.0
  0
LINE
  5
5AB
100
AcDbEntity
  8
DIMS
100
AcDbLine
 10
198.034541
 20
304.977231
 30
0.0
 11
222.936784
 21
304.977231
 31
0.0
  0
INSERT
  5
5AC
100
AcDbEntity
  8
DIMS
100
AcDbBlockReference
  2
ARROW1
 10
198.034541
 20
304.977231
 30
0.0
 41
10.0
 42
10.0
 43
10.0
 50
180.0
  0
POINT
  5
5AD
100
AcDbEntity
  8
DEFPOINTS
  6
BYBLOCK
 62
     0
100
AcDbPoint
 10
350.51878
 20
432.559226
 30
0.0
  0
DIMENSION
  5
5AE
100
AcDbEntity
  8
DIMS
100
AcDbDimension
  2
*D4
 10
173.963447
 20
552.059226
 30
0.0
 11
170.963447
 21
432.559226
 31
0.0
  1
L1=<>
  3
DIM1
100
AcDbAlignedDimension
 13
249.401464
 23
313.059226
 33
0.0
 14
249.401464
 24
552.059226
 34
0.0
 50
90.0
100
AcDbRotatedDimension
1001
ACAD
1000
DSTYLE
1002
{
1070
   144
1040
1.0
1002
}
  0
LINE
  5
5BB
100
AcDbEntity
  8
M01
100
AcDbLine
 10
451.636095
 20
313.059226
 30
0.0
 11
434.66344
 21
313.059226
 31
0.0
  0
LINE
  5
5BC
100
AcDbEntity
  8
M01
100
AcDbLine
 10
470.01878
 20
331.44191
 30
0.0
 11
470.01878
 21
348.414565
 31
0.0
  0
LINE
  5
5BD
100
AcDbEntity
  8
M01
100
AcDbLine
 10
249.401464
 20
313.059226
 30
0.0
 11
266.374119
 21
313.059226
 31
0.0
  0
LINE
  5
5BE
100
AcDbEntity
  8
M01
100
AcDbLine
 10
231.01878
 20
331.44191
 30
0.0
 11
231.01878
 21
348.414565
 31
0.0
  0
LINE
  5
5BF
100
AcDbEntity
  8
M01
100
AcDbLine
 10
451.636095
 20
552.059226
 30
0.0
 11
434.66344
 21
552.059226
 31
0.0
  0
LINE
  5
5C0
100
AcDbEntity
  8
M01
100
AcDbLine
 10
470.01878
 20
533.676542
 30
0.0
 11
470.01878
 21
516.703887
 31
0.0
  0
LINE
  5
5C1
100
AcDbEntity
  8
M01
100
AcDbLine
 10
249.401464
 20
552.059226
 30
0.0
 11
266.374119
 21
552.059226
 31
0.0
  0
LINE
  5
5C2
100
AcDbEntity
  8
M01
100
AcDbLine
 10
231.01878
 20
533.676542
 30
0.0
 11
231.01878
 21
516.703887
 31
0.0
  0
DIMENSION
  5
5C3
100
AcDbEntity
  8
DIMS
100
AcDbDimension
  2
*D5
 10
184.250076
 20
520.059226
 30
0.0
 11
181.250076
 21
432.559226
 31
0.0
  1
C=<>
  3
DIM1
100
AcDbAlignedDimension
 13
236.31878
 23
345.059226
 33
0.0
 14
236.31878
 24
520.059226
 34
0.0
 50
90.0
100
AcDbRotatedDimension
1001
ACAD
1000
DSTYLE
1002
{
1070
   144
1040
1.0
1002
}
  0
MTEXT
  5
5D0
102
{ACAD_REACTORS
330
5D1
102
}
100
AcDbEntity
  8
HATCH
 62
     2
100
AcDbMText
 10
990.890755
 20
316.449046
 30
0.0
 40
3.0
 41
0.0
 71
     1
 72
     5
  1
MAO10004 (x8)
  0
LEADER
  5
5D1
100
AcDbEntity
  8
HATCH
 62
     4
100
AcDbLeader
  3
DIM1$7
 73
     0
 74
     0
 75
     1
 40
4.571429
 41
34.428571
 76
     3
 10
967.746121
 20
325.874525
 30
0.0
 10
986.390755
 20
314.949046
 30
0.0
 10
989.390755
 20
314.949046
 30
0.0
 77
   256
340
5D0
213
0.0
223
-1.5
233
0.0
1001
ACAD
1000
DSTYLE
1002
{
1070
   144
1040
1.0
1002
}
  0
LINE
  5
5D2
102
{ACAD_REACTORS
330
36
102
}
100
AcDbEntity
  8
M04
100
AcDbLine
 10
971.644674
 20
342.059226
 30
0.0
 11
971.644674
 21
289.113216
 31
0.0
  0
LINE
  5
5D3
100
AcDbEntity
  8
M04
100
AcDbLine
 10
989.472579
 20
345.059226
 30
0.0
 11
988.144674
 21
347.359226
 31
0.0
  0
LINE
  5
5D4
100
AcDbEntity
  8
M04
100
AcDbLine
 10
988.144674
 20
342.759226
 30
0.0
 11
989.472579
 21
345.059226
 31
0.0
  0
LINE
  5
5D5
100
AcDbEntity
  8
M04
100
AcDbLine
 10
988.144674
 20
342.759226
 30
0.0
 11
988.144674
 21
347.359226
 31
0.0
  0
LINE
  5
5D6
100
AcDbEntity
  8
M04
100
AcDbLine
 10
983.083556
 20
342.059226
 30
0.0
 11
986.644674
 21
342.059226
 31
0.0
  0
LINE
  5
5D7
100
AcDbEntity
  8
M04
100
AcDbLine
 10
983.783556
 20
342.759226
 30
0.0
 11
988.144674
 21
342.759226
 31
0.0
  0
LINE
  5
5D8
100
AcDbEntity
  8
M04
100
AcDbLine
 10
983.083556
 20
348.059226
 30
0.0
 11
986.644674
 21
348.059226
 31
0.0
  0
LINE
  5
5D9
100
AcDbEntity
  8
M04
100
AcDbLine
 10
983.783556
 20
347.359226
 30
0.0
 11
988.144674
 21
347.359226
 31
0.0
  0
LINE
  5
5DA
100
AcDbEntity
  8
M05
100
AcDbLine
 10
983.783556
 20
347.359226
 30
0.0
 11
983.083556
 21
348.059226
 31
0.0
  0
LINE
  5
5DB
100
AcDbEntity
  8
M05
100
AcDbLine
 10
983.083556
 20
342.059226
 30
0.0
 11
983.783556
 21
342.759226
 31
0.0
  0
LINE
  5
5DC
100
AcDbEntity
  8
M05
100
AcDbLine
 10
971.003556
 20
347.359226
 30
0.0
 11
983.783556
 21
347.359226
 31
0.0
  0
LINE
  5
5DD
100
AcDbEntity
  8
M05
100
AcDbLine
 10
971.003556
 20
342.759226
 30
0.0
 11
983.783556
 21
342.759226
 31
0.0
  0
LINE
  5
5DE
100
AcDbEntity
  8
M05
100
AcDbLine
 10
983.083556
 20
342.059226
 30
0.0
 11
983.083556
 21
348.059226
 31
0.0
  0
LINE
  5
5DF
100
AcDbEntity
  8
M04
100
AcDbLine
 10
986.644674
 20
342.059226
 30
0.0
 11
986.644674
 21
348.059226
 31
0.0
  0
LINE
  5
5E0
100
AcDbEntity
  8
M05
100
AcDbLine
 10
983.783556
 20
342.759226
 30
0.0
 11
983.783556
 21
347.359226
 31
0.0
  0
LINE
  5
5E1
100
AcDbEntity
  8
M05
  6
HIDDEN
100
AcDbLine
 10
964.344674
 20
336.900344
 30
0.0
 11
963.644674
 21
336.200344
 31
0.0
  0
LINE
  5
5E2
100
AcDbEntity
  8
M05
  6
HIDDEN
100
AcDbLine
 10
964.344674
 20
353.218108
 30
0.0
 11
963.644674
 21
353.918108
 31
0.0
  0
LINE
  5
5E3
100
AcDbEntity
  8
M05
100
AcDbLine
 10
971.003556
 20
342.059226
 30
0.0
 11
971.003556
 21
348.059226
 31
0.0
  0
LINE
  5
5E4
100
AcDbEntity
  8
M05
100
AcDbLine
 10
966.503556
 20
345.609226
 30
0.0
 11
966.503556
 21
351.059226
 31
0.0
  0
LINE
  5
5E5
100
AcDbEntity
  8
M05
100
AcDbLine
 10
965.783556
 20
345.609226
 30
0.0
 11
965.783556
 21
351.059226
 31
0.0
  0
LINE
  5
5E6
100
AcDbEntity
  8
M05
100
AcDbLine
 10
965.783556
 20
345.609226
 30
0.0
 11
967.283556
 21
345.609226
 31
0.0
  0
LINE
  5
5E7
100
AcDbEntity
  8
M05
100
AcDbLine
 10
965.783556
 20
344.509226
 30
0.0
 11
967.283556
 21
344.509226
 31
0.0
  0
LINE
  5
5E8
100
AcDbEntity
  8
M05
100
AcDbLine
 10
967.283556
 20
344.509226
 30
0.0
 11
967.283556
 21
345.609226
 31
0.0
  0
LINE
  5
5E9
102
{ACAD_REACTORS
330
36
102
}
100
AcDbEntity
  8
M05
100
AcDbLine
 10
969.003556
 20
348.559226
 30
0.0
 11
971.644674
 21
348.559226
 31
0.0
  0
LINE
  5
5EA
102
{ACAD_REACTORS
330
36
102
}
100
AcDbEntity
  8
M05
100
AcDbLine
 10
969.003556
 20
341.559226
 30
0.0
 11
971.644674
 21
341.559226
 31
0.0
  0
LINE
  5
5EB
100
AcDbEntity
  8
M05
100
AcDbLine
 10
966.503556
 20
339.059226
 30
0.0
 11
966.503556
 21
344.509226
 31
0.0
  0
LINE
  5
5EC
102
{ACAD_REACTORS
330
36
102
}
100
AcDbEntity
  8
M05
100
AcDbLine
 10
969.503556
 20
342.059226
 30
0.0
 11
964.344674
 21
336.900344
 31
0.0
  0
LINE
  5
5ED
100
AcDbEntity
  8
M05
100
AcDbLine
 10
965.783556
 20
339.059226
 30
0.0
 11
966.503556
 21
339.059226
 31
0.0
  0
LINE
  5
5EE
102
{ACAD_REACTORS
330
36
102
}
100
AcDbEntity
  8
M05
100
AcDbLine
 10
969.503556
 20
348.059226
 30
0.0
 11
964.344674
 21
353.218108
 31
0.0
  0
LINE
  5
5EF
100
AcDbEntity
  8
M05
100
AcDbLine
 10
969.503556
 20
342.059226
 30
0.0
 11
969.503556
 21
348.059226
 31
0.0
  0
LINE
  5
5F0
100
AcDbEntity
  8
M05
100
AcDbLine
 10
969.503556
 20
342.059226
 30
0.0
 11
983.083556
 21
342.059226
 31
0.0
  0
LINE
  5
5F1
100
AcDbEntity
  8
M05
100
AcDbLine
 10
969.503556
 20
348.059226
 30
0.0
 11
983.083556
 21
348.059226
 31
0.0
  0
LINE
  5
5F2
100
AcDbEntity
  8
M05
100
AcDbLine
 10
965.783556
 20
351.059226
 30
0.0
 11
966.503556
 21
351.059226
 31
0.0
  0
LINE
  5
5F3
100
AcDbEntity
  8
M05
100
AcDbLine
 10
965.783556
 20
339.059226
 30
0.0
 11
965.783556
 21
344.509226
 31
0.0
  0
LINE
  5
5F4
100
AcDbEntity
  8
M05
  6
HIDDEN
100
AcDbLine
 10
964.344674
 20
321.059226
 30
0.0
 11
964.344674
 21
369.059226
 31
0.0
  0
LINE
  5
5F5
100
AcDbEntity
  8
M05
  6
HIDDEN
100
AcDbLine
 10
964.344674
 20
369.059226
 30
0.0
 11
963.644674
 21
368.359226
 31
0.0
  0
LINE
  5
5F6
100
AcDbEntity
  8
M05
  6
HIDDEN
100
AcDbLine
 10
965.344674
 20
369.059226
 30
0.0
 11
964.344674
 21
369.059226
 31
0.0
  0
LINE
  5
5F7
102
{ACAD_REACTORS
330
36
102
}
100
AcDbEntity
  8
M05
100
AcDbLine
 10
965.344674
 20
369.059226
 30
0.0
 11
964.644674
 21
368.359226
 31
0.0
  0
LINE
  5
5F8
102
{ACAD_REACTORS
330
36
102
}
100
AcDbEntity
  8
M05
100
AcDbLine
 10
970.944674
 20
369.059226
 30
0.0
 11
971.644674
 21
368.359226
 31
0.0
  0
LINE
  5
5F9
102
{ACAD_REACTORS
330
36
102
}
100
AcDbEntity
  8
M05
100
AcDbLine
 10
965.344674
 20
369.059226
 30
0.0
 11
970.944674
 21
369.059226
 31
0.0
  0
LINE
  5
5FA
100
AcDbEntity
  8
M05
  6
HIDDEN
100
AcDbLine
 10
964.344674
 20
321.059226
 30
0.0
 11
963.644674
 21
321.759226
 31
0.0
  0
LINE
  5
5FB
100
AcDbEntity
  8
M05
  6
HIDDEN
100
AcDbLine
 10
965.344674
 20
321.059226
 30
0.0
 11
964.344674
 21
321.059226
 31
0.0
  0
LINE
  5
5FC
102
{ACAD_REACTORS
330
36
102
}
100
AcDbEntity
  8
M05
100
AcDbLine
 10
965.344674
 20
321.059226
 30
0.0
 11
964.644674
 21
321.759226
 31
0.0
  0
LINE
  5
5FD
102
{ACAD_REACTORS
330
36
102
}
100
AcDbEntity
  8
M05
100
AcDbLine
 10
970.944674
 20
321.059226
 30
0.0
 11
971.644674
 21
321.759226
 31
0.0
  0
LINE
  5
5FE
102
{ACAD_REACTORS
330
F9
102
}
100
AcDbEntity
  8
M02
100
AcDbLine
 10
964.644674
 20
370.059226
 30
0.0
 11
967.644674
 21
370.059226
 31
0.0
  0
LINE
  5
5FF
102
{ACAD_REACTORS
330
34
102
}
100
AcDbEntity
  8
M02
100
AcDbLine
 10
964.644674
 20
320.059226
 30
0.0
 11
967.644674
 21
320.059226
 31
0.0
  0
LINE
  5
600
100
AcDbEntity
  8
M05
  6
HIDDEN
100
AcDbLine
 10
963.644674
 20
321.759226
 30
0.0
 11
963.644674
 21
368.359226
 31
0.0
  0
LINE
  5
601
102
{ACAD_REACTORS
330
36
102
}
100
AcDbEntity
  8
M05
100
AcDbLine
 10
965.344674
 20
321.059226
 30
0.0
 11
970.944674
 21
321.059226
 31
0.0
  0
LINE
  5
602
102
{ACAD_REACTORS
330
34
102
}
100
AcDbEntity
  8
M02
100
AcDbLine
 10
964.644674
 20
314.799226
 30
0.0
 11
967.644674
 21
314.799226
 31
0.0
  0
LINE
  5
603
102
{ACAD_REACTORS
330
34
102
}
100
AcDbEntity
  8
M02
100
AcDbLine
 10
967.644674
 20
314.799226
 30
0.0
 11
967.644674
 21
321.059226
 31
0.0
  0
LINE
  5
604
102
{ACAD_REACTORS
330
FB
102
}
100
AcDbEntity
  8
M02
100
AcDbLine
 10
901.644674
 20
363.059226
 30
0.0
 11
904.644674
 21
363.059226
 31
0.0
  0
LINE
  5
605
100
AcDbEntity
  8
CENTRE
100
AcDbLine
 10
893.54995
 20
345.059226
 30
0.0
 11
928.144674
 21
345.059226
 31
0.0
  0
LINE
  5
606
100
AcDbEntity
  8
CENTRE
100
AcDbLine
 10
222.936784
 20
560.141221
 30
0.0
 11
452.160915
 21
330.91709
 31
0.0
  0
LINE
  5
607
100
AcDbEntity
  8
CENTRE
100
AcDbLine
 10
222.936784
 20
304.977231
 30
0.0
 11
452.160915
 21
534.201362
 31
0.0
  0
ARC
  5
608
100
AcDbEntity
  8
M04
100
AcDbCircle
 10
313.51878
 20
521.885128
 30
0.0
 40
5.0
100
AcDbArc
 50
225.0
 51
0.0
  0
ARC
  5
609
100
AcDbEntity
  8
M04
100
AcDbCircle
 10
387.51878
 20
521.885128
 30
0.0
 40
5.0
100
AcDbArc
 50
180.0
 51
315.0
  0
LINE
  5
60A
100
AcDbEntity
  8
M04
100
AcDbLine
 10
268.494393
 20
559.838447
 30
0.0
 11
309.983246
 21
518.349594
 31
0.0
  0
LINE
  5
60B
100
AcDbEntity
  8
M04
100
AcDbLine
 10
223.239559
 20
514.583613
 30
0.0
 11
301.728412
 21
436.09476
 31
0.0
  0
ARC
  5
60C
100
AcDbEntity
  8
M04
100
AcDbCircle
 10
298.192878
 20
432.559226
 30
0.0
 40
5.0
100
AcDbArc
 50
315.0
 51
45.0
  0
LINE
  5
60D
100
AcDbEntity
  8
M04
100
AcDbLine
 10
223.239559
 20
350.534839
 30
0.0
 11
301.728412
 21
429.023692
 31
0.0
  0
LINE
  5
60E
100
AcDbEntity
  8
M04
100
AcDbLine
 10
268.494393
 20
305.280005
 30
0.0
 11
346.983246
 21
383.768858
 31
0.0
  0
ARC
  5
60F
100
AcDbEntity
  8
M04
100
AcDbCircle
 10
350.51878
 20
380.233324
 30
0.0
 40
5.0
100
AcDbArc
 50
45.0
 51
135.0
  0
LINE
  5
610
100
AcDbEntity
  8
M04
100
AcDbLine
 10
354.054313
 20
383.768858
 30
0.0
 11
432.543166
 21
305.280005
 31
0.0
  0
LINE
  5
611
100
AcDbEntity
  8
M04
100
AcDbLine
 10
446.309148
 20
382.023692
 30
0.0
 11
477.798
 21
350.53484
 31
0.0
  0
LINE
  5
612
100
AcDbEntity
  8
M04
100
AcDbLine
 10
446.309147
 20
483.09476
 30
0.0
 11
477.798
 21
514.583613
 31
0.0
  0
LINE
  5
613
100
AcDbEntity
  8
M04
100
AcDbLine
 10
391.054313
 20
518.349594
 30
0.0
 11
432.543166
 21
559.838447
 31
0.0
  0
LINE
  5
614
100
AcDbEntity
  8
M03
100
AcDbLine
 10
356.175634
 20
432.559226
 30
0.0
 11
440.847207
 21
347.887653
 31
0.0
  0
LINE
  5
615
100
AcDbEntity
  8
M03
100
AcDbLine
 10
350.51878
 20
438.21608
 30
0.0
 11
435.190352
 21
522.887653
 31
0.0
  0
LINE
  5
616
100
AcDbEntity
  8
M03
100
AcDbLine
 10
356.175634
 20
432.559226
 30
0.0
 11
440.847207
 21
517.230799
 31
0.0
  0
LINE
  5
617
100
AcDbEntity
  8
M03
100
AcDbLine
 10
350.51878
 20
426.902372
 30
0.0
 11
435.190352
 21
342.230799
 31
0.0
  0
LINE
  5
618
100
AcDbEntity
  8
M03
100
AcDbLine
 10
260.190352
 20
517.230799
 30
0.0
 11
344.861925
 21
432.559226
 31
0.0
  0
LINE
  5
619
100
AcDbEntity
  8
M03
100
AcDbLine
 10
265.847207
 20
522.887653
 30
0.0
 11
350.51878
 21
438.21608
 31
0.0
  0
LINE
  5
61A
100
AcDbEntity
  8
M03
100
AcDbLine
 10
265.847207
 20
342.230799
 30
0.0
 11
350.51878
 21
426.902372
 31
0.0
  0
LINE
  5
61B
100
AcDbEntity
  8
M03
100
AcDbLine
 10
260.190352
 20
347.887653
 30
0.0
 11
344.861925
 21
432.559226
 31
0.0
  0
CIRCLE
  5
61C
100
AcDbEntity
  8
M01
100
AcDbCircle
 10
263.01878
 20
345.059226
 30
0.0
 40
4.0
  0
CIRCLE
  5
61D
100
AcDbEntity
  8
M01
100
AcDbCircle
 10
438.01878
 20
345.059226
 30
0.0
 40
4.0
  0
CIRCLE
  5
61E
100
AcDbEntity
  8
M01
100
AcDbCircle
 10
438.01878
 20
520.059226
 30
0.0
 40
4.0
  0
CIRCLE
  5
61F
100
AcDbEntity
  8
M01
100
AcDbCircle
 10
263.01878
 20
520.059226
 30
0.0
 40
4.0
  0
CIRCLE
  5
620
100
AcDbEntity
  8
M03
100
AcDbCircle
 10
525.51878
 20
432.559226
 30
0.0
 40
34.0
  0
CIRCLE
  5
621
100
AcDbEntity
  8
M03
100
AcDbCircle
 10
525.51878
 20
432.559226
 30
0.0
 40
4.0
  0
ARC
  5
622
100
AcDbEntity
  8
M01
100
AcDbCircle
 10
384.51878
 20
518.885128
 30
0.0
 40
12.0
100
AcDbArc
 50
180.0
 51
315.0
  0
ARC
  5
623
100
AcDbEntity
  8
M01
100
AcDbCircle
 10
316.51878
 20
518.885128
 30
0.0
 40
12.0
100
AcDbArc
 50
225.0
 51
360.0
  0
LINE
  5
624
100
AcDbEntity
  8
M04
100
AcDbLine
 10
367.51878
 20
617.559226
 30
0.0
 11
367.51878
 21
638.230704
 31
0.0
  0
LINE
  5
625
100
AcDbEntity
  8
M04
100
AcDbLine
 10
333.51878
 20
617.559226
 30
0.0
 11
333.51878
 21
638.230704
 31
0.0
  0
ARC
  5
626
100
AcDbEntity
  8
M04
100
AcDbCircle
 10
367.51878
 20
602.559226
 30
0.0
 40
15.0
100
AcDbArc
 50
360.0
 51
90.0
  0
ARC
  5
627
100
AcDbEntity
  8
M04
100
AcDbCircle
 10
333.51878
 20
602.559226
 30
0.0
 40
15.0
100
AcDbArc
 50
90.0
 51
180.0
  0
LINE
  5
628
100
AcDbEntity
  8
M04
100
AcDbLine
 10
333.51878
 20
617.559226
 30
0.0
 11
367.51878
 21
617.559226
 31
0.0
  0
LINE
  5
629
100
AcDbEntity
  8
M04
100
AcDbLine
 10
318.51878
 20
602.559226
 30
0.0
 11
318.51878
 21
521.885128
 31
0.0
  0
LINE
  5
62A
100
AcDbEntity
  8
M04
100
AcDbLine
 10
382.51878
 20
602.559226
 30
0.0
 11
382.51878
 21
521.885128
 31
0.0
  0
LINE
  5
62B
100
AcDbEntity
  8
M01
100
AcDbLine
 10
370.51878
 20
557.559226
 30
0.0
 11
372.51878
 21
555.559226
 31
0.0
  0
LINE
  5
62C
100
AcDbEntity
  8
M01
100
AcDbLine
 10
328.51878
 20
555.559226
 30
0.0
 11
330.51878
 21
557.559226
 31
0.0
  0
LINE
  5
62D
100
AcDbEntity
  8
M01
100
AcDbLine
 10
330.51878
 20
557.559226
 30
0.0
 11
370.51878
 21
557.559226
 31
0.0
  0
LINE
  5
62E
100
AcDbEntity
  8
M01
100
AcDbLine
 10
372.51878
 20
555.559226
 30
0.0
 11
372.51878
 21
518.885128
 31
0.0
  0
LINE
  5
62F
100
AcDbEntity
  8
M01
100
AcDbLine
 10
328.51878
 20
555.559226
 30
0.0
 11
328.51878
 21
518.885128
 31
0.0
  0
LINE
  5
630
100
AcDbEntity
  8
M01
100
AcDbLine
 10
393.004061
 20
510.399847
 30
0.0
 11
434.66344
 21
552.059226
 31
0.0
  0
LINE
  5
631
100
AcDbEntity
  8
M01
100
AcDbLine
 10
441.3594
 20
377.073945
 30
0.0
 11
470.01878
 21
348.414565
 31
0.0
  0
LINE
  5
632
100
AcDbEntity
  8
M01
100
AcDbLine
 10
441.3594
 20
488.044507
 30
0.0
 11
470.01878
 21
516.703887
 31
0.0
  0
LINE
  5
633
100
AcDbEntity
  8
M01
100
AcDbLine
 10
359.004061
 20
388.718606
 30
0.0
 11
434.66344
 21
313.059226
 31
0.0
  0
ARC
  5
634
100
AcDbEntity
  8
M01
100
AcDbCircle
 10
298.192878
 20
432.559226
 30
0.0
 40
12.0
100
AcDbArc
 50
315.0
 51
45.0
  0
ARC
  5
635
100
AcDbEntity
  8
M01
100
AcDbCircle
 10
350.51878
 20
380.233324
 30
0.0
 40
12.0
100
AcDbArc
 50
45.0
 51
135.0
  0
LINE
  5
636
100
AcDbEntity
  8
M01
100
AcDbLine
 10
231.01878
 20
348.414565
 30
0.0
 11
306.678159
 21
424.073945
 31
0.0
  0
LINE
  5
637
100
AcDbEntity
  8
M01
100
AcDbLine
 10
266.374119
 20
313.059226
 30
0.0
 11
342.033498
 21
388.718606
 31
0.0
  0
LINE
  5
638
100
AcDbEntity
  8
M01
100
AcDbLine
 10
231.01878
 20
516.703887
 30
0.0
 11
306.678159
 21
441.044507
 31
0.0
  0
LINE
  5
639
100
AcDbEntity
  8
M01
100
AcDbLine
 10
266.374119
 20
552.059226
 30
0.0
 11
308.033498
 21
510.399847
 31
0.0
  0
LINE
  5
63A
100
AcDbEntity
  8
CENTRE
100
AcDbLine
 10
525.51878
 20
553.044421
 30
0.0
 11
525.51878
 21
312.074032
 31
0.0
  0
LINE
  5
63B
100
AcDbEntity
  8
CENTRE
100
AcDbLine
 10
230.033585
 20
432.559226
 30
0.0
 11
821.003974
 21
432.559226
 31
0.0
  0
LINE
  5
63C
100
AcDbEntity
  8
M04
100
AcDbLine
 10
943.644674
 20
617.559226
 30
0.0
 11
953.644674
 21
627.559226
 31
0.0
  0
LINE
  5
63D
100
AcDbEntity
  8
M04
100
AcDbLine
 10
953.644674
 20
638.230704
 30
0.0
 11
953.644674
 21
627.559226
 31
0.0
  0
LINE
  5
63E
100
AcDbEntity
  8
M04
100
AcDbLine
 10
897.644674
 20
617.559226
 30
0.0
 11
971.644674
 21
617.559226
 31
0.0
  0
LINE
  5
63F
100
AcDbEntity
  8
M01
100
AcDbLine
 10
924.144674
 20
428.559226
 30
0.0
 11
937.644674
 21
428.559226
 31
0.0
  0
LINE
  5
640
102
{ACAD_REACTORS
330
102
102
}
100
AcDbEntity
  8
M01
100
AcDbLine
 10
920.144674
 20
436.559226
 30
0.0
 11
937.644674
 21
436.559226
 31
0.0
  0
LINE
  5
641
100
AcDbEntity
  8
M04
100
AcDbLine
 10
897.644674
 20
617.559226
 30
0.0
 11
897.644674
 21
300.626607
 31
0.0
  0
LINE
  5
642
102
{ACAD_REACTORS
330
102
330
FB
330
F9
102
}
100
AcDbEntity
  8
CENTRE
100
AcDbLine
 10
885.644674
 20
432.559226
 30
0.0
 11
983.644674
 21
432.559226
 31
0.0
  0
LINE
  5
643
102
{ACAD_REACTORS
330
36
102
}
100
AcDbEntity
  8
M04
100
AcDbLine
 10
971.644674
 20
638.230704
 30
0.0
 11
971.644674
 21
348.059226
 31
0.0
  0
LINE
  5
644
100
AcDbEntity
  8
M04
100
AcDbLine
 10
897.644674
 20
300.626607
 30
0.0
 11
971.644674
 21
300.626607
 31
0.0
  0
LINE
  5
645
102
{ACAD_REACTORS
330
FB
102
}
100
AcDbEntity
  8
M02
100
AcDbLine
 10
904.644674
 20
555.559226
 30
0.0
 11
901.644674
 21
555.559226
 31
0.0
  0
LINE
  5
646
102
{ACAD_REACTORS
330
F9
102
}
100
AcDbEntity
  8
M02
100
AcDbLine
 10
964.644674
 20
555.559226
 30
0.0
 11
967.644674
 21
555.559226
 31
0.0
  0
LINE
  5
647
102
{ACAD_REACTORS
330
FA
102
}
100
AcDbEntity
  8
M02
100
AcDbLine
 10
904.644674
 20
314.799226
 30
0.0
 11
901.644674
 21
314.799226
 31
0.0
  0
LINE
  5
648
102
{ACAD_REACTORS
330
F9
102
}
100
AcDbEntity
  8
M02
100
AcDbLine
 10
967.644674
 20
555.559226
 30
0.0
 11
967.644674
 21
369.059226
 31
0.0
  0
LINE
  5
649
102
{ACAD_REACTORS
330
FB
330
FA
102
}
100
AcDbEntity
  8
M02
100
AcDbLine
 10
901.644674
 20
555.559226
 30
0.0
 11
901.644674
 21
314.799226
 31
0.0
  0
LINE
  5
64A
100
AcDbEntity
  8
M01
100
AcDbLine
 10
964.644674
 20
314.799226
 30
0.0
 11
962.644674
 21
312.799226
 31
0.0
  0
LINE
  5
64B
102
{ACAD_REACTORS
330
102
102
}
100
AcDbEntity
  8
M01
100
AcDbLine
 10
962.644674
 20
557.559226
 30
0.0
 11
964.644674
 21
555.559226
 31
0.0
  0
LINE
  5
64C
102
{ACAD_REACTORS
330
102
102
}
100
AcDbEntity
  8
M01
100
AcDbLine
 10
904.644674
 20
555.559226
 30
0.0
 11
906.644674
 21
557.559226
 31
0.0
  0
LINE
  5
64D
100
AcDbEntity
  8
M01
100
AcDbLine
 10
906.644674
 20
312.799226
 30
0.0
 11
904.644674
 21
314.799226
 31
0.0
  0
LINE
  5
64E
102
{ACAD_REACTORS
330
102
330
F9
330
36
330
34
102
}
100
AcDbEntity
  8
M01
100
AcDbLine
 10
964.644674
 20
555.559226
 30
0.0
 11
964.644674
 21
314.799226
 31
0.0
  0
LINE
  5
64F
100
AcDbEntity
  8
M01
100
AcDbLine
 10
906.644674
 20
312.799226
 30
0.0
 11
962.644674
 21
312.799226
 31
0.0
  0
LINE
  5
650
102
{ACAD_REACTORS
330
102
102
}
100
AcDbEntity
  8
M01
100
AcDbLine
 10
906.644674
 20
557.559226
 30
0.0
 11
962.644674
 21
557.559226
 31
0.0
  0
LINE
  5
651
102
{ACAD_REACTORS
330
102
330
FB
330
FA
102
}
100
AcDbEntity
  8
M01
100
AcDbLine
 10
904.644674
 20
555.559226
 30
0.0
 11
904.644674
 21
314.799226
 31
0.0
  0
ENDSEC
  0
SECTION
  2
OBJECTS
  0
DICTIONARY
  5
1C
100
AcDbDictionary
  3
ACAD_GROUP
350
1A
  3
ACAD_MLINESTYLE
350
1B
  0
DICTIONARY
  5
3
100
AcDbDictionary
280
     1
  3
ACAD_SORTENTS
360
4
  0
DICTIONARY
  5
1A
102
{ACAD_REACTORS
330
1C
102
}
100
AcDbDictionary
  0
DICTIONARY
  5
1B
102
{ACAD_REACTORS
330
1C
102
}
100
AcDbDictionary
  3
STANDARD
350
1E
  0
SORTENTSTABLE
  5
4
102
{ACAD_REACTORS
330
3
102
}
100
AcDbSortentsTable
330
2
  0
MLINESTYLE
  5
1E
102
{ACAD_REACTORS
330
1B
102
}
100
AcDbMlineStyle
  2
STANDARD
 70
     0
  3

 62
   256
 51
90.0
 52
90.0
 71
     2
 49
0.5
 62
   256
  6
BYLAYER
 49
-0.5
 62
   256
  6
BYLAYER
  0
ENDSEC
  0
EOF
