  0
SECTION
  2
HEADER
  9
$ACADVER
  1
AC1014
  9
$ACADMAINTVER
 70
     9
  9
$DWGCODEPAGE
  3
ANSI_1252
  9
$INSBASE
 10
0.0
 20
0.0
 30
0.0
  9
$EXTMIN
 10
173.782646
 20
74.128736
 30
-0.222949
  9
$EXTMAX
 10
1184.699585
 20
759.261494
 30
0.0
  9
$LIMMIN
 10
0.0
 20
0.0
  9
$LIMMAX
 10
1189.0
 20
841.0
  9
$ORTHOMODE
 70
     1
  9
$REGENMODE
 70
     1
  9
$FILLMODE
 70
     1
  9
$QTEXTMODE
 70
     0
  9
$MIRRTEXT
 70
     1
  9
$DRAGMODE
 70
     2
  9
$LTSCALE
 40
8.0
  9
$OSMODE
 70
     0
  9
$ATTMODE
 70
     1
  9
$TEXTSIZE
 40
7.0
  9
$TRACEWID
 40
10.0
  9
$TEXTSTYLE
  7
STANDARD
  9
$CLAYER
  8
TEXT
  9
$CELTYPE
  6
BYLAYER
  9
$CECOLOR
 62
   256
  9
$CELTSCALE
 40
1.0
  9
$DELOBJ
 70
     1
  9
$DISPSILH
 70
     0
  9
$DIMSCALE
 40
1.0
  9
$DIMASZ
 40
3.0
  9
$DIMEXO
 40
1.0
  9
$DIMDLI
 40
10.0
  9
$DIMRND
 40
0.01
  9
$DIMDLE
 40
1.25
  9
$DIMEXE
 40
2.5
  9
$DIMTP
 40
0.05
  9
$DIMTM
 40
0.0
  9
$DIMTXT
 40
3.0
  9
$DIMCEN
 40
-1.7
  9
$DIMTSZ
 40
0.0
  9
$DIMTOL
 70
     0
  9
$DIMLIM
 70
     0
  9
$DIMTIH
 70
     0
  9
$DIMTOH
 70
     0
  9
$DIMSE1
 70
     0
  9
$DIMSE2
 70
     0
  9
$DIMTAD
 70
     3
  9
$DIMZIN
 70
     1
  9
$DIMBLK
  1

  9
$DIMASO
 70
     1
  9
$DIMSHO
 70
     0
  9
$DIMPOST
  1

  9
$DIMAPOST
  1

  9
$DIMALT
 70
     0
  9
$DIMALTD
 70
     2
  9
$DIMALTF
 40
0.039
  9
$DIMLFAC
 40
1.0
  9
$DIMTOFL
 70
     0
  9
$DIMTVP
 40
1.5
  9
$DIMTIX
 70
     0
  9
$DIMSOXD
 70
     0
  9
$DIMSAH
 70
     0
  9
$DIMBLK1
  1

  9
$DIMBLK2
  1

  9
$DIMSTYLE
  2
DIM1
  9
$DIMCLRD
 70
     4
  9
$DIMCLRE
 70
     4
  9
$DIMCLRT
 70
     2
  9
$DIMTFAC
 40
0.7
  9
$DIMGAP
 40
1.5
  9
$DIMJUST
 70
     0
  9
$DIMSD1
 70
     0
  9
$DIMSD2
 70
     0
  9
$DIMTOLJ
 70
     1
  9
$DIMTZIN
 70
     1
  9
$DIMALTZ
 70
     1
  9
$DIMALTTZ
 70
     1
  9
$DIMFIT
 70
     0
  9
$DIMUPT
 70
     0
  9
$DIMUNIT
 70
     2
  9
$DIMDEC
 70
     2
  9
$DIMTDEC
 70
     2
  9
$DIMALTU
 70
     2
  9
$DIMALTTD
 70
     2
  9
$DIMTXSTY
  7
STANDARD
  9
$DIMAUNIT
 70
     0
  9
$LUNITS
 70
     2
  9
$LUPREC
 70
     2
  9
$SKETCHINC
 40
1.0
  9
$FILLETRAD
 40
15.0
  9
$AUNITS
 70
     0
  9
$AUPREC
 70
     3
  9
$MENU
  1
ACAD
  9
$ELEVATION
 40
0.0
  9
$PELEVATION
 40
0.0
  9
$THICKNESS
 40
0.0
  9
$LIMCHECK
 70
     0
  9
$BLIPMODE
 70
     1
  9
$CHAMFERA
 40
7.0
  9
$CHAMFERB
 40
7.0
  9
$CHAMFERC
 40
0.0
  9
$CHAMFERD
 40
0.0
  9
$SKPOLY
 70
     1
  9
$TDCREATE
 40
2449993.725698611
  9
$TDUPDATE
 40
2452215.518644004
  9
$TDINDWG
 40
1.3591087153
  9
$TDUSRTIMER
 40
1.3591087153
  9
$USRTIMER
 70
     1
  9
$ANGBASE
 50
0.0
  9
$ANGDIR
 70
     0
  9
$PDMODE
 70
     3
  9
$PDSIZE
 40
0.0
  9
$PLINEWID
 40
0.0
  9
$COORDS
 70
     2
  9
$SPLFRAME
 70
     0
  9
$SPLINETYPE
 70
     6
  9
$SPLINESEGS
 70
     6
  9
$ATTDIA
 70
     1
  9
$ATTREQ
 70
     1
  9
$HANDLING
 70
     1
  9
$HANDSEED
  5
554
  9
$SURFTAB1
 70
    12
  9
$SURFTAB2
 70
    12
  9
$SURFTYPE
 70
     6
  9
$SURFU
 70
    12
  9
$SURFV
 70
    12
  9
$UCSNAME
  2

  9
$UCSORG
 10
0.0
 20
0.0
 30
0.0
  9
$UCSXDIR
 10
1.0
 20
0.0
 30
0.0
  9
$UCSYDIR
 10
0.0
 20
1.0
 30
0.0
  9
$PUCSNAME
  2

  9
$PUCSORG
 10
0.0
 20
0.0
 30
0.0
  9
$PUCSXDIR
 10
1.0
 20
0.0
 30
0.0
  9
$PUCSYDIR
 10
0.0
 20
1.0
 30
0.0
  9
$USERI1
 70
     0
  9
$USERI2
 70
     0
  9
$USERI3
 70
     0
  9
$USERI4
 70
     0
  9
$USERI5
 70
     0
  9
$USERR1
 40
0.0
  9
$USERR2
 40
0.0
  9
$USERR3
 40
0.0
  9
$USERR4
 40
0.0
  9
$USERR5
 40
0.0
  9
$WORLDVIEW
 70
     0
  9
$SHADEDGE
 70
     3
  9
$SHADEDIF
 70
    70
  9
$TILEMODE
 70
     1
  9
$MAXACTVP
 70
    16
  9
$PINSBASE
 10
0.0
 20
0.0
 30
0.0
  9
$PLIMCHECK
 70
     0
  9
$PEXTMIN
 10
1.000000E+20
 20
1.000000E+20
 30
1.000000E+20
  9
$PEXTMAX
 10
-1.000000E+20
 20
-1.000000E+20
 30
-1.000000E+20
  9
$PLIMMIN
 10
0.0
 20
0.0
  9
$PLIMMAX
 10
12.0
 20
9.0
  9
$UNITMODE
 70
     0
  9
$VISRETAIN
 70
     0
  9
$PLINEGEN
 70
     0
  9
$PSLTSCALE
 70
     0
  9
$TREEDEPTH
 70
  3020
  9
$PICKSTYLE
 70
     1
  9
$CMLSTYLE
  2
STANDARD
  9
$CMLJUST
 70
     0
  9
$CMLSCALE
 40
1.0
  9
$PROXYGRAPHICS
 70
     1
  9
$MEASUREMENT
 70
     0
  0
ENDSEC
  0
SECTION
  2
CLASSES
  0
CLASS
  1
DICTIONARYVAR
  2
AcDbDictionaryVar
  3
"AutoCAD"
 90
        0
280
     0
281
     0
  0
CLASS
  1
LWPOLYLINE
  2
AcDbPolyline
  3
"AutoCAD"
 90
        0
280
     0
281
     1
  0
CLASS
  1
HATCH
  2
AcDbHatch
  3
"ACAD_SEDONA"
 90
        0
280
     0
281
     1
  0
CLASS
  1
SORTENTSTABLE
  2
AcDbSortentsTable
  3
"AutoCAD"
 90
        0
280
     0
281
     0
  0
CLASS
  1
WIPEOUTVARIABLES
  2
AcDbWipeoutVariables
  3
WIPEOUT
 90
        0
280
     0
281
     0
  0
CLASS
  1
WIPEOUT
  2
AcDbWipeout
  3
WIPEOUT
 90
      127
280
     0
281
     1
  0
ENDSEC
  0
SECTION
  2
TABLES
  0
TABLE
  2
VPORT
  5
14
100
AcDbSymbolTable
 70
     2
  0
VPORT
  5
553
100
AcDbSymbolTableRecord
100
AcDbViewportTableRecord
  2
*ACTIVE
 70
     0
 10
0.0
 20
0.0
 11
1.0
 21
1.0
 12
602.038644
 22
407.720885
 13
0.0
 23
0.0
 14
10.0
 24
10.0
 15
0.0
 25
0.0
 16
0.0
 26
0.0
 36
1.0
 17
16.313321
 27
12.779115
 37
0.222949
 40
841.0
 41
1.470516
 42
50.0
 43
0.0
 44
0.0
 50
0.0
 51
0.0
 71
     0
 72
  2000
 73
     1
 74
     2
 75
     0
 76
     0
 77
     0
 78
     1
  0
ENDTAB
  0
TABLE
  2
LTYPE
  5
F
100
AcDbSymbolTable
 70
     3
  0
LTYPE
  5
10
100
AcDbSymbolTableRecord
100
AcDbLinetypeTableRecord
  2
BYBLOCK
 70
     0
  3

 72
    65
 73
     0
 40
0.0
  0
LTYPE
  5
11
100
AcDbSymbolTableRecord
100
AcDbLinetypeTableRecord
  2
BYLAYER
 70
     0
  3

 72
    65
 73
     0
 40
0.0
  0
LTYPE
  5
7
100
AcDbSymbolTableRecord
100
AcDbLinetypeTableRecord
  2
CONTINUOUS
 70
     0
  3
Solid line
 72
    65
 73
     0
 40
0.0
  0
LTYPE
  5
133
100
AcDbSymbolTableRecord
100
AcDbLinetypeTableRecord
  2
CENTER
 70
     0
  3
Center ____ _ ____ _ ____ _ ____ _ ____ _ ____
 72
    65
 73
     4
 40
2.0
 49
1.25
 74
     0
 49
-0.25
 74
     0
 49
0.25
 74
     0
 49
-0.25
 74
     0
  0
LTYPE
  5
EE
100
AcDbSymbolTableRecord
100
AcDbLinetypeTableRecord
  2
HIDDEN
 70
     0
  3
Hidden __ __ __ __ __ __ __ __ __ __ __ __ __ _
 72
    65
 73
     2
 40
0.375
 49
0.25
 74
     0
 49
-0.125
 74
     0
  0
ENDTAB
  0
TABLE
  2
LAYER
  5
C
100
AcDbSymbolTable
 70
    11
  0
LAYER
  5
6
100
AcDbSymbolTableRecord
100
AcDbLayerTableRecord
  2
0
 70
     0
 62
     7
  6
CONTINUOUS
  0
LAYER
  5
132
100
AcDbSymbolTableRecord
100
AcDbLayerTableRecord
  2
CENTRE
 70
     0
 62
     3
  6
CENTER
  0
LAYER
  5
39
100
AcDbSymbolTableRecord
100
AcDbLayerTableRecord
  2
M01
 70
     0
 62
     1
  6
CONTINUOUS
  0
LAYER
  5
2B9
100
AcDbSymbolTableRecord
100
AcDbLayerTableRecord
  2
M02
 70
     0
 62
     2
  6
CONTINUOUS
  0
LAYER
  5
ED
100
AcDbSymbolTableRecord
100
AcDbLayerTableRecord
  2
M03
 70
     0
 62
     2
  6
HIDDEN
  0
LAYER
  5
26
100
AcDbSymbolTableRecord
100
AcDbLayerTableRecord
  2
M04
 70
     0
 62
     7
  6
CONTINUOUS
  0
LAYER
  5
F8
100
AcDbSymbolTableRecord
100
AcDbLayerTableRecord
  2
M05
 70
     0
 62
     5
  6
CONTINUOUS
  0
LAYER
  5
40
100
AcDbSymbolTableRecord
100
AcDbLayerTableRecord
  2
DIMS
 70
     0
 62
     4
  6
CONTINUOUS
  0
LAYER
  5
1D
100
AcDbSymbolTableRecord
100
AcDbLayerTableRecord
  2
TEXT
 70
     0
 62
     2
  6
CONTINUOUS
  0
LAYER
  5
82
100
AcDbSymbolTableRecord
100
AcDbLayerTableRecord
  2
HATCH
 70
     0
 62
     4
  6
CONTINUOUS
  0
LAYER
  5
49
100
AcDbSymbolTableRecord
100
AcDbLayerTableRecord
  2
DEFPOINTS
 70
     0
 62
     7
  6
CONTINUOUS
  0
ENDTAB
  0
TABLE
  2
STYLE
  5
D
100
AcDbSymbolTable
 70
     1
  0
STYLE
  5
E
100
AcDbSymbolTableRecord
100
AcDbTextStyleTableRecord
  2
STANDARD
 70
     0
 40
0.0
 41
1.0
 50
0.0
 71
     0
 42
7.0
  3
SIMPLEX
  4

  0
ENDTAB
  0
TABLE
  2
VIEW
  5
12
100
AcDbSymbolTable
 70
     0
  0
ENDTAB
  0
TABLE
  2
UCS
  5
13
100
AcDbSymbolTable
 70
     0
  0
ENDTAB
  0
TABLE
  2
APPID
  5
16
100
AcDbSymbolTable
 70
     1
  0
APPID
  5
17
100
AcDbSymbolTableRecord
100
AcDbRegAppTableRecord
  2
ACAD
 70
     0
  0
ENDTAB
  0
TABLE
  2
DIMSTYLE
  5
18
100
AcDbSymbolTable
 70
     2
  0
DIMSTYLE
105
1F
102
{ACAD_REACTORS
330
41D
330
40F
330
401
330
3F4
330
3E6
330
DC
330
CF
330
C2
330
B5
330
9B
330
74
330
67
330
5A
330
4E
330
3F
102
}
100
AcDbSymbolTableRecord
100
AcDbDimStyleTableRecord
  2
DIM1
 70
     0
  3

  4

  5

  6

  7

 40
1.0
 41
3.0
 42
1.0
 43
10.0
 44
2.5
 45
0.01
 46
1.25
 47
0.05
 48
0.0
140
3.0
141
-1.7
142
0.0
143
0.039
144
0.2
145
1.5
146
0.7
147
1.5
 71
     0
 72
     0
 73
     0
 74
     0
 75
     0
 76
     0
 77
     3
 78
     1
170
     0
171
     2
172
     0
173
     0
174
     0
175
     0
176
     4
177
     4
178
     2
270
     2
271
     2
272
     2
273
     2
274
     2
340
E
275
     0
280
     0
281
     0
282
     0
283
     1
284
     1
285
     1
286
     1
287
     0
288
     0
  0
DIMSTYLE
105
335
100
AcDbSymbolTableRecord
100
AcDbDimStyleTableRecord
  2
DIM1$7
 70
     0
  3

  4

  5

  6

  7

 40
1.0
 41
3.0
 42
1.0
 43
10.0
 44
2.5
 45
0.01
 46
1.25
 47
0.0
 48
0.0
140
3.0
141
-1.7
142
0.0
143
0.039
144
1.0
145
0.0
146
1.0
147
1.5
 71
     0
 72
     0
 73
     0
 74
     0
 75
     0
 76
     0
 77
     0
 78
     1
170
     0
171
     2
172
     0
173
     0
174
     0
175
     0
176
     4
177
     4
178
     2
270
     2
271
     2
272
     2
273
     2
274
     2
340
E
275
     0
280
     0
281
     0
282
     0
283
     1
284
     1
285
     1
286
     1
287
     0
288
     0
  0
ENDTAB
  0
TABLE
  2
BLOCK_RECORD
  5
1
100
AcDbSymbolTable
 70
    16
  0
BLOCK_RECORD
  5
2
102
{ACAD_XDICTIONARY
360
3
102
}
100
AcDbSymbolTableRecord
100
AcDbBlockTableRecord
  2
*MODEL_SPACE
  0
BLOCK_RECORD
  5
9
100
AcDbSymbolTableRecord
100
AcDbBlockTableRecord
  2
*PAPER_SPACE
  0
BLOCK_RECORD
  5
41E
100
AcDbSymbolTableRecord
100
AcDbBlockTableRecord
  2
*D0
  0
BLOCK_RECORD
  5
410
100
AcDbSymbolTableRecord
100
AcDbBlockTableRecord
  2
*D1
  0
BLOCK_RECORD
  5
402
100
AcDbSymbolTableRecord
100
AcDbBlockTableRecord
  2
*D2
  0
BLOCK_RECORD
  5
3F5
100
AcDbSymbolTableRecord
100
AcDbBlockTableRecord
  2
*D3
  0
BLOCK_RECORD
  5
3E7
100
AcDbSymbolTableRecord
100
AcDbBlockTableRecord
  2
*D4
  0
BLOCK_RECORD
  5
21F
100
AcDbSymbolTableRecord
100
AcDbBlockTableRecord
  2
ARROW1
  0
BLOCK_RECORD
  5
DD
100
AcDbSymbolTableRecord
100
AcDbBlockTableRecord
  2
*D6
  0
BLOCK_RECORD
  5
D0
100
AcDbSymbolTableRecord
100
AcDbBlockTableRecord
  2
*D7
  0
BLOCK_RECORD
  5
C3
100
AcDbSymbolTableRecord
100
AcDbBlockTableRecord
  2
*D8
  0
BLOCK_RECORD
  5
B6
100
AcDbSymbolTableRecord
100
AcDbBlockTableRecord
  2
*D9
  0
BLOCK_RECORD
  5
9C
100
AcDbSymbolTableRecord
100
AcDbBlockTableRecord
  2
*D10
  0
BLOCK_RECORD
  5
75
100
AcDbSymbolTableRecord
100
AcDbBlockTableRecord
  2
*D11
  0
BLOCK_RECORD
  5
68
100
AcDbSymbolTableRecord
100
AcDbBlockTableRecord
  2
*D12
  0
BLOCK_RECORD
  5
5B
100
AcDbSymbolTableRecord
100
AcDbBlockTableRecord
  2
*D13
  0
BLOCK_RECORD
  5
4F
100
AcDbSymbolTableRecord
100
AcDbBlockTableRecord
  2
*D14
  0
BLOCK_RECORD
  5
41
100
AcDbSymbolTableRecord
100
AcDbBlockTableRecord
  2
*D15
  0
ENDTAB
  0
ENDSEC
  0
SECTION
  2
BLOCKS
  0
BLOCK
  5
5
100
AcDbEntity
  8
0
100
AcDbBlockBegin
  2
*MODEL_SPACE
 70
     0
 10
0.0
 20
0.0
 30
0.0
  3
*MODEL_SPACE
  1

  0
ENDBLK
  5
8
100
AcDbEntity
  8
0
100
AcDbBlockEnd
  0
BLOCK
  5
A
100
AcDbEntity
 67
     1
  8
0
100
AcDbBlockBegin
  2
*PAPER_SPACE
 70
     0
 10
0.0
 20
0.0
 30
0.0
  3
*PAPER_SPACE
  1

  0
ENDBLK
  5
B
100
AcDbEntity
 67
     1
  8
0
100
AcDbBlockEnd
  0
BLOCK
  5
428
100
AcDbEntity
  8
0
100
AcDbBlockBegin
  2
*D0
 70
     1
 10
0.0
 20
0.0
 30
0.0
  3
*D0
  1

  0
LINE
  5
41F
100
AcDbEntity
  8
0
  6
BYBLOCK
 62
     4
100
AcDbLine
 10
914.257613
 20
256.619819
 30
0.0
 11
956.23031
 21
256.619819
 31
0.0
  0
LINE
  5
420
100
AcDbEntity
  8
0
  6
BYBLOCK
 62
     4
100
AcDbLine
 10
916.257613
 20
196.619819
 30
0.0
 11
956.23031
 21
196.619819
 31
0.0
  0
LINE
  5
421
100
AcDbEntity
  8
0
  6
BYBLOCK
 62
     4
100
AcDbLine
 10
953.73031
 20
253.619819
 30
0.0
 11
953.73031
 21
199.619819
 31
0.0
  0
SOLID
  5
422
100
AcDbEntity
  8
0
  6
BYBLOCK
 62
     4
100
AcDbTrace
 10
953.23031
 20
253.619819
 30
0.0
 11
954.23031
 21
253.619819
 31
0.0
 12
953.73031
 22
256.619819
 32
0.0
 13
953.73031
 23
256.619819
 33
0.0
  0
SOLID
  5
423
100
AcDbEntity
  8
0
  6
BYBLOCK
 62
     4
100
AcDbTrace
 10
953.23031
 20
199.619819
 30
0.0
 11
954.23031
 21
199.619819
 31
0.0
 12
953.73031
 22
196.619819
 32
0.0
 13
953.73031
 23
196.619819
 33
0.0
  0
MTEXT
  5
424
100
AcDbEntity
  8
0
  6
BYBLOCK
 62
     2
100
AcDbMText
 10
950.73031
 20
226.619819
 30
0.0
 40
3.0
 41
0.0
 71
     5
 72
     1
  1
\A1;60.00
 11
0.0
 21
1.0
 31
0.0
  0
POINT
  5
425
100
AcDbEntity
  8
DEFPOINTS
  6
BYBLOCK
 62
     0
100
AcDbPoint
 10
913.257613
 20
256.619819
 30
0.0
  0
POINT
  5
426
100
AcDbEntity
  8
DEFPOINTS
  6
BYBLOCK
 62
     0
100
AcDbPoint
 10
915.257613
 20
196.619819
 30
0.0
  0
POINT
  5
427
100
AcDbEntity
  8
DEFPOINTS
  6
BYBLOCK
 62
     0
100
AcDbPoint
 10
953.73031
 20
196.619819
 30
0.0
  0
ENDBLK
  5
429
100
AcDbEntity
  8
0
100
AcDbBlockEnd
  0
BLOCK
  5
41B
100
AcDbEntity
  8
0
100
AcDbBlockBegin
  2
*D1
 70
     1
 10
0.0
 20
0.0
 30
0.0
  3
*D1
  1

  0
LINE
  5
411
100
AcDbEntity
  8
0
  6
BYBLOCK
 62
     4
100
AcDbLine
 10
914.257613
 20
196.619819
 30
0.0
 11
956.23031
 21
196.619819
 31
0.0
  0
LINE
  5
412
100
AcDbEntity
  8
0
  6
BYBLOCK
 62
     4
100
AcDbLine
 10
934.771004
 20
189.619819
 30
0.0
 11
956.23031
 21
189.619819
 31
0.0
  0
LINE
  5
413
100
AcDbEntity
  8
0
  6
BYBLOCK
 62
     4
100
AcDbLine
 10
953.73031
 20
199.619819
 30
0.0
 11
953.73031
 21
202.619819
 31
0.0
  0
LINE
  5
414
100
AcDbEntity
  8
0
  6
BYBLOCK
 62
     4
100
AcDbLine
 10
953.73031
 20
186.619819
 30
0.0
 11
953.73031
 21
174.334105
 31
0.0
  0
SOLID
  5
415
100
AcDbEntity
  8
0
  6
BYBLOCK
 62
     4
100
AcDbTrace
 10
953.23031
 20
199.619819
 30
0.0
 11
954.23031
 21
199.619819
 31
0.0
 12
953.73031
 22
196.619819
 32
0.0
 13
953.73031
 23
196.619819
 33
0.0
  0
SOLID
  5
416
100
AcDbEntity
  8
0
  6
BYBLOCK
 62
     4
100
AcDbTrace
 10
953.23031
 20
186.619819
 30
0.0
 11
954.23031
 21
186.619819
 31
0.0
 12
953.73031
 22
189.619819
 32
0.0
 13
953.73031
 23
189.619819
 33
0.0
  0
MTEXT
  5
417
100
AcDbEntity
  8
0
  6
BYBLOCK
 62
     2
100
AcDbMText
 10
950.73031
 20
178.976962
 30
0.0
 40
3.0
 41
0.0
 71
     5
 72
     1
  1
\A1;7.0
 11
0.0
 21
1.0
 31
0.0
  0
POINT
  5
418
100
AcDbEntity
  8
DEFPOINTS
  6
BYBLOCK
 62
     0
100
AcDbPoint
 10
913.257613
 20
196.619819
 30
0.0
  0
POINT
  5
419
100
AcDbEntity
  8
DEFPOINTS
  6
BYBLOCK
 62
     0
100
AcDbPoint
 10
933.771004
 20
189.619819
 30
0.0
  0
POINT
  5
41A
100
AcDbEntity
  8
DEFPOINTS
  6
BYBLOCK
 62
     0
100
AcDbPoint
 10
953.73031
 20
189.619819
 30
0.0
  0
ENDBLK
  5
41C
100
AcDbEntity
  8
0
100
AcDbBlockEnd
  0
BLOCK
  5
40D
100
AcDbEntity
  8
0
100
AcDbBlockBegin
  2
*D2
 70
     1
 10
0.0
 20
0.0
 30
0.0
  3
*D2
  1

  0
LINE
  5
403
100
AcDbEntity
  8
0
  6
BYBLOCK
 62
     4
100
AcDbLine
 10
914.257613
 20
256.619819
 30
0.0
 11
956.23031
 21
256.619819
 31
0.0
  0
LINE
  5
404
100
AcDbEntity
  8
0
  6
BYBLOCK
 62
     4
100
AcDbLine
 10
923.257613
 20
263.619819
 30
0.0
 11
956.23031
 21
263.619819
 31
0.0
  0
LINE
  5
405
100
AcDbEntity
  8
0
  6
BYBLOCK
 62
     4
100
AcDbLine
 10
953.73031
 20
253.619819
 30
0.0
 11
953.73031
 21
250.619819
 31
0.0
  0
LINE
  5
406
100
AcDbEntity
  8
0
  6
BYBLOCK
 62
     4
100
AcDbLine
 10
953.73031
 20
266.619819
 30
0.0
 11
953.73031
 21
278.905533
 31
0.0
  0
SOLID
  5
407
100
AcDbEntity
  8
0
  6
BYBLOCK
 62
     4
100
AcDbTrace
 10
953.23031
 20
253.619819
 30
0.0
 11
954.23031
 21
253.619819
 31
0.0
 12
953.73031
 22
256.619819
 32
0.0
 13
953.73031
 23
256.619819
 33
0.0
  0
SOLID
  5
408
100
AcDbEntity
  8
0
  6
BYBLOCK
 62
     4
100
AcDbTrace
 10
953.23031
 20
266.619819
 30
0.0
 11
954.23031
 21
266.619819
 31
0.0
 12
953.73031
 22
263.619819
 32
0.0
 13
953.73031
 23
263.619819
 33
0.0
  0
MTEXT
  5
409
100
AcDbEntity
  8
0
  6
BYBLOCK
 62
     2
100
AcDbMText
 10
950.73031
 20
274.262676
 30
0.0
 40
3.0
 41
0.0
 71
     5
 72
     1
  1
\A1;7.0
 11
0.0
 21
1.0
 31
0.0
  0
POINT
  5
40A
100
AcDbEntity
  8
DEFPOINTS
  6
BYBLOCK
 62
     0
100
AcDbPoint
 10
913.257613
 20
256.619819
 30
0.0
  0
POINT
  5
40B
100
AcDbEntity
  8
DEFPOINTS
  6
BYBLOCK
 62
     0
100
AcDbPoint
 10
922.257613
 20
263.619819
 30
0.0
  0
POINT
  5
40C
100
AcDbEntity
  8
DEFPOINTS
  6
BYBLOCK
 62
     0
100
AcDbPoint
 10
953.73031
 20
263.619819
 30
0.0
  0
ENDBLK
  5
40E
100
AcDbEntity
  8
0
100
AcDbBlockEnd
  0
BLOCK
  5
3FF
100
AcDbEntity
  8
0
100
AcDbBlockBegin
  2
*D3
 70
     1
 10
0.0
 20
0.0
 30
0.0
  3
*D3
  1

  0
LINE
  5
3F6
100
AcDbEntity
  8
0
  6
BYBLOCK
 62
     4
100
AcDbLine
 10
870.818995
 20
-32.251076
 30
0.0
 11
870.818995
 21
-70.066192
 31
0.0
  0
LINE
  5
3F7
100
AcDbEntity
  8
0
  6
BYBLOCK
 62
     4
100
AcDbLine
 10
830.818995
 20
-32.251076
 30
0.0
 11
830.818995
 21
-70.066192
 31
0.0
  0
LINE
  5
3F8
100
AcDbEntity
  8
0
  6
BYBLOCK
 62
     4
100
AcDbLine
 10
867.818995
 20
-67.566192
 30
0.0
 11
833.818995
 21
-67.566192
 31
0.0
  0
SOLID
  5
3F9
100
AcDbEntity
  8
0
  6
BYBLOCK
 62
     4
100
AcDbTrace
 10
867.818995
 20
-67.066192
 30
0.0
 11
867.818995
 21
-68.066192
 31
0.0
 12
870.818995
 22
-67.566192
 32
0.0
 13
870.818995
 23
-67.566192
 33
0.0
  0
SOLID
  5
3FA
100
AcDbEntity
  8
0
  6
BYBLOCK
 62
     4
100
AcDbTrace
 10
833.818995
 20
-67.066192
 30
0.0
 11
833.818995
 21
-68.066192
 31
0.0
 12
830.818995
 22
-67.566192
 32
0.0
 13
830.818995
 23
-67.566192
 33
0.0
  0
MTEXT
  5
3FB
100
AcDbEntity
  8
0
  6
BYBLOCK
 62
     2
100
AcDbMText
 10
850.818995
 20
-64.566192
 30
0.0
 40
3.0
 41
0.0
 71
     5
 72
     1
  1
\A1;\U+220540.00 H7
  0
POINT
  5
3FC
100
AcDbEntity
  8
DEFPOINTS
  6
BYBLOCK
 62
     0
100
AcDbPoint
 10
870.818995
 20
-31.251076
 30
0.0
  0
POINT
  5
3FD
100
AcDbEntity
  8
DEFPOINTS
  6
BYBLOCK
 62
     0
100
AcDbPoint
 10
830.818995
 20
-31.251076
 30
0.0
  0
POINT
  5
3FE
100
AcDbEntity
  8
DEFPOINTS
  6
BYBLOCK
 62
     0
100
AcDbPoint
 10
830.818995
 20
-67.566192
 30
0.0
  0
ENDBLK
  5
400
100
AcDbEntity
  8
0
100
AcDbBlockEnd
  0
BLOCK
  5
3F2
100
AcDbEntity
  8
0
100
AcDbBlockBegin
  2
*D4
 70
     1
 10
0.0
 20
0.0
 30
0.0
  3
*D4
  1

  0
LINE
  5
3E8
100
AcDbEntity
  8
0
  6
BYBLOCK
 62
     4
100
AcDbLine
 10
420.757613
 20
309.608777
 30
0.0
 11
420.757613
 21
325.784942
 31
0.0
  0
LINE
  5
3E9
100
AcDbEntity
  8
0
  6
BYBLOCK
 62
     4
100
AcDbLine
 10
428.757613
 20
309.608777
 30
0.0
 11
428.757613
 21
325.784942
 31
0.0
  0
LINE
  5
3EA
100
AcDbEntity
  8
0
  6
BYBLOCK
 62
     4
100
AcDbLine
 10
417.757613
 20
323.284942
 30
0.0
 11
414.757613
 21
323.284942
 31
0.0
  0
LINE
  5
3EB
100
AcDbEntity
  8
0
  6
BYBLOCK
 62
     4
100
AcDbLine
 10
431.757613
 20
323.284942
 30
0.0
 11
458.329041
 21
323.284942
 31
0.0
  0
SOLID
  5
3EC
100
AcDbEntity
  8
0
  6
BYBLOCK
 62
     4
100
AcDbTrace
 10
417.757613
 20
323.784942
 30
0.0
 11
417.757613
 21
322.784942
 31
0.0
 12
420.757613
 22
323.284942
 32
0.0
 13
420.757613
 23
323.284942
 33
0.0
  0
SOLID
  5
3ED
100
AcDbEntity
  8
0
  6
BYBLOCK
 62
     4
100
AcDbTrace
 10
431.757613
 20
323.784942
 30
0.0
 11
431.757613
 21
322.784942
 31
0.0
 12
428.757613
 22
323.284942
 32
0.0
 13
428.757613
 23
323.284942
 33
0.0
  0
MTEXT
  5
3EE
100
AcDbEntity
  8
0
  6
BYBLOCK
 62
     2
100
AcDbMText
 10
446.543327
 20
326.284942
 30
0.0
 40
3.0
 41
0.0
 71
     5
 72
     1
  1
\A1;\U+22058.00 H7
  0
POINT
  5
3EF
100
AcDbEntity
  8
DEFPOINTS
  6
BYBLOCK
 62
     0
100
AcDbPoint
 10
420.757613
 20
308.608777
 30
0.0
  0
POINT
  5
3F0
100
AcDbEntity
  8
DEFPOINTS
  6
BYBLOCK
 62
     0
100
AcDbPoint
 10
428.757613
 20
308.608777
 30
0.0
  0
POINT
  5
3F1
100
AcDbEntity
  8
DEFPOINTS
  6
BYBLOCK
 62
     0
100
AcDbPoint
 10
428.757613
 20
323.284942
 30
0.0
  0
ENDBLK
  5
3F3
100
AcDbEntity
  8
0
100
AcDbBlockEnd
  0
BLOCK
  5
223
100
AcDbEntity
  8
0
100
AcDbBlockBegin
  2
ARROW1
 70
     0
 10
0.0
 20
0.0
 30
0.0
  3
ARROW1
  1

  0
LINE
  5
220
100
AcDbEntity
  8
0
100
AcDbLine
 10
-1.0
 20
-0.2
 30
0.0
 11
-1.0
 21
0.0
 31
0.0
  0
LINE
  5
221
100
AcDbEntity
  8
0
100
AcDbLine
 10
0.0
 20
0.0
 30
0.0
 11
-1.0
 21
-0.2
 31
0.0
  0
SOLID
  5
222
100
AcDbEntity
  8
0
100
AcDbTrace
 10
0.0
 20
0.0
 30
0.0
 11
-1.0
 21
0.2
 31
0.0
 12
-1.0
 22
0.0
 32
0.0
 13
-1.0
 23
0.0
 33
0.0
  0
ENDBLK
  5
224
100
AcDbEntity
  8
0
100
AcDbBlockEnd
  0
BLOCK
  5
E7
100
AcDbEntity
  8
0
100
AcDbBlockBegin
  2
*D6
 70
     1
 10
0.0
 20
0.0
 30
0.0
  3
*D6
  1

  0
LINE
  5
DE
100
AcDbEntity
  8
0
  6
BYBLOCK
 62
     4
100
AcDbLine
 10
625.257613
 20
295.608777
 30
0.0
 11
611.927731
 21
295.608777
 31
0.0
  0
LINE
  5
DF
100
AcDbEntity
  8
0
  6
BYBLOCK
 62
     4
100
AcDbLine
 10
635.032613
 20
309.008777
 30
0.0
 11
611.927731
 21
309.008777
 31
0.0
  0
LINE
  5
E0
100
AcDbEntity
  8
0
  6
BYBLOCK
 62
     4
100
AcDbLine
 10
614.427731
 20
298.608777
 30
0.0
 11
614.427731
 21
306.008777
 31
0.0
  0
SOLID
  5
E1
100
AcDbEntity
  8
0
  6
BYBLOCK
 62
     4
100
AcDbTrace
 10
613.927731
 20
298.608777
 30
0.0
 11
614.927731
 21
298.608777
 31
0.0
 12
614.427731
 22
295.608777
 32
0.0
 13
614.427731
 23
295.608777
 33
0.0
  0
SOLID
  5
E2
100
AcDbEntity
  8
0
  6
BYBLOCK
 62
     4
100
AcDbTrace
 10
613.927731
 20
306.008777
 30
0.0
 11
614.927731
 21
306.008777
 31
0.0
 12
614.427731
 22
309.008777
 32
0.0
 13
614.427731
 23
309.008777
 33
0.0
  0
MTEXT
  5
E3
100
AcDbEntity
  8
0
  6
BYBLOCK
 62
     2
100
AcDbMText
 10
611.427731
 20
302.308777
 30
0.0
 40
3.0
 41
0.0
 71
     5
 72
     1
  1
\A1;13.4
 11
0.0
 21
1.0
 31
0.0
  0
POINT
  5
E4
100
AcDbEntity
  8
DEFPOINTS
  6
BYBLOCK
 62
     0
100
AcDbPoint
 10
626.257613
 20
295.608777
 30
0.0
  0
POINT
  5
E5
100
AcDbEntity
  8
DEFPOINTS
  6
BYBLOCK
 62
     0
100
AcDbPoint
 10
636.032613
 20
309.008777
 30
0.0
  0
POINT
  5
E6
100
AcDbEntity
  8
DEFPOINTS
  6
BYBLOCK
 62
     0
100
AcDbPoint
 10
614.427731
 20
309.008777
 30
0.0
  0
ENDBLK
  5
E8
100
AcDbEntity
  8
0
100
AcDbBlockEnd
  0
BLOCK
  5
DA
100
AcDbEntity
  8
0
100
AcDbBlockBegin
  2
*D7
 70
     1
 10
0.0
 20
0.0
 30
0.0
  3
*D7
  1

  0
LINE
  5
D1
100
AcDbEntity
  8
0
  6
BYBLOCK
 62
     4
100
AcDbLine
 10
680.482613
 20
315.008777
 30
0.0
 11
680.482613
 21
333.710438
 31
0.0
  0
LINE
  5
D2
100
AcDbEntity
  8
0
  6
BYBLOCK
 62
     4
100
AcDbLine
 10
636.032613
 20
315.008777
 30
0.0
 11
636.032613
 21
333.710438
 31
0.0
  0
LINE
  5
D3
100
AcDbEntity
  8
0
  6
BYBLOCK
 62
     4
100
AcDbLine
 10
677.482613
 20
331.210438
 30
0.0
 11
639.032613
 21
331.210438
 31
0.0
  0
SOLID
  5
D4
100
AcDbEntity
  8
0
  6
BYBLOCK
 62
     4
100
AcDbTrace
 10
677.482613
 20
331.710438
 30
0.0
 11
677.482613
 21
330.710438
 31
0.0
 12
680.482613
 22
331.210438
 32
0.0
 13
680.482613
 23
331.210438
 33
0.0
  0
SOLID
  5
D5
100
AcDbEntity
  8
0
  6
BYBLOCK
 62
     4
100
AcDbTrace
 10
639.032613
 20
331.710438
 30
0.0
 11
639.032613
 21
330.710438
 31
0.0
 12
636.032613
 22
331.210438
 32
0.0
 13
636.032613
 23
331.210438
 33
0.0
  0
MTEXT
  5
D6
100
AcDbEntity
  8
0
  6
BYBLOCK
 62
     2
100
AcDbMText
 10
659.222824
 20
334.210438
 30
0.0
 40
3.0
 41
0.0
 71
     5
 72
     1
  1
\A1;\U+220544.45 H7
  0
POINT
  5
D7
100
AcDbEntity
  8
DEFPOINTS
  6
BYBLOCK
 62
     0
100
AcDbPoint
 10
680.482613
 20
314.008777
 30
0.0
  0
POINT
  5
D8
100
AcDbEntity
  8
DEFPOINTS
  6
BYBLOCK
 62
     0
100
AcDbPoint
 10
636.032613
 20
314.008777
 30
0.0
  0
POINT
  5
D9
100
AcDbEntity
  8
DEFPOINTS
  6
BYBLOCK
 62
     0
100
AcDbPoint
 10
636.032613
 20
331.210438
 30
0.0
  0
ENDBLK
  5
DB
100
AcDbEntity
  8
0
100
AcDbBlockEnd
  0
BLOCK
  5
CD
100
AcDbEntity
  8
0
100
AcDbBlockBegin
  2
*D8
 70
     1
 10
0.0
 20
0.0
 30
0.0
  3
*D8
  1

  0
LINE
  5
C4
100
AcDbEntity
  8
0
  6
BYBLOCK
 62
     4
100
AcDbLine
 10
635.032613
 20
309.431427
 30
0.0
 11
635.032613
 21
343.75167
 31
0.0
  0
LINE
  5
C5
100
AcDbEntity
  8
0
  6
BYBLOCK
 62
     4
100
AcDbLine
 10
681.482613
 20
309.431427
 30
0.0
 11
681.482613
 21
343.75167
 31
0.0
  0
LINE
  5
C6
100
AcDbEntity
  8
0
  6
BYBLOCK
 62
     4
100
AcDbLine
 10
638.032613
 20
341.25167
 30
0.0
 11
678.482613
 21
341.25167
 31
0.0
  0
SOLID
  5
C7
100
AcDbEntity
  8
0
  6
BYBLOCK
 62
     4
100
AcDbTrace
 10
638.032613
 20
341.75167
 30
0.0
 11
638.032613
 21
340.75167
 31
0.0
 12
635.032613
 22
341.25167
 32
0.0
 13
635.032613
 23
341.25167
 33
0.0
  0
SOLID
  5
C8
100
AcDbEntity
  8
0
  6
BYBLOCK
 62
     4
100
AcDbTrace
 10
678.482613
 20
341.75167
 30
0.0
 11
678.482613
 21
340.75167
 31
0.0
 12
681.482613
 22
341.25167
 32
0.0
 13
681.482613
 23
341.25167
 33
0.0
  0
MTEXT
  5
C9
100
AcDbEntity
  8
0
  6
BYBLOCK
 62
     2
100
AcDbMText
 10
659.563065
 20
344.25167
 30
0.0
 40
3.0
 41
0.0
 71
     5
 72
     1
  1
\A1;\U+220546.5
  0
POINT
  5
CA
100
AcDbEntity
  8
DEFPOINTS
  6
BYBLOCK
 62
     0
100
AcDbPoint
 10
635.032613
 20
308.431427
 30
0.0
  0
POINT
  5
CB
100
AcDbEntity
  8
DEFPOINTS
  6
BYBLOCK
 62
     0
100
AcDbPoint
 10
681.482613
 20
308.431427
 30
0.0
  0
POINT
  5
CC
100
AcDbEntity
  8
DEFPOINTS
  6
BYBLOCK
 62
     0
100
AcDbPoint
 10
681.482613
 20
341.25167
 30
0.0
  0
ENDBLK
  5
CE
100
AcDbEntity
  8
0
100
AcDbBlockEnd
  0
BLOCK
  5
C0
100
AcDbEntity
  8
0
100
AcDbBlockBegin
  2
*D9
 70
     1
 10
0.0
 20
0.0
 30
0.0
  3
*D9
  1

  0
LINE
  5
B7
100
AcDbEntity
  8
0
  6
BYBLOCK
 62
     4
100
AcDbLine
 10
682.482613
 20
288.608777
 30
0.0
 11
709.496071
 21
288.608777
 31
0.0
  0
LINE
  5
B8
100
AcDbEntity
  8
0
  6
BYBLOCK
 62
     4
100
AcDbLine
 10
681.482613
 20
314.008777
 30
0.0
 11
709.496071
 21
314.008777
 31
0.0
  0
LINE
  5
B9
100
AcDbEntity
  8
0
  6
BYBLOCK
 62
     4
100
AcDbLine
 10
706.996071
 20
291.608777
 30
0.0
 11
706.996071
 21
311.008777
 31
0.0
  0
SOLID
  5
BA
100
AcDbEntity
  8
0
  6
BYBLOCK
 62
     4
100
AcDbTrace
 10
706.496071
 20
291.608777
 30
0.0
 11
707.496071
 21
291.608777
 31
0.0
 12
706.996071
 22
288.608777
 32
0.0
 13
706.996071
 23
288.608777
 33
0.0
  0
SOLID
  5
BB
100
AcDbEntity
  8
0
  6
BYBLOCK
 62
     4
100
AcDbTrace
 10
706.496071
 20
311.008777
 30
0.0
 11
707.496071
 21
311.008777
 31
0.0
 12
706.996071
 22
314.008777
 32
0.0
 13
706.996071
 23
314.008777
 33
0.0
  0
MTEXT
  5
BC
100
AcDbEntity
  8
0
  6
BYBLOCK
 62
     2
100
AcDbMText
 10
703.996071
 20
303.310193
 30
0.0
 40
3.0
 41
0.0
 71
     5
 72
     1
  1
\A1;25.40
 11
0.0
 21
1.0
 31
0.0
  0
POINT
  5
BD
100
AcDbEntity
  8
DEFPOINTS
  6
BYBLOCK
 62
     0
100
AcDbPoint
 10
681.482613
 20
288.608777
 30
0.0
  0
POINT
  5
BE
100
AcDbEntity
  8
DEFPOINTS
  6
BYBLOCK
 62
     0
100
AcDbPoint
 10
680.482613
 20
314.008777
 30
0.0
  0
POINT
  5
BF
100
AcDbEntity
  8
DEFPOINTS
  6
BYBLOCK
 62
     0
100
AcDbPoint
 10
706.996071
 20
314.008777
 30
0.0
  0
ENDBLK
  5
C1
100
AcDbEntity
  8
0
100
AcDbBlockEnd
  0
BLOCK
  5
A6
100
AcDbEntity
  8
0
100
AcDbBlockBegin
  2
*D10
 70
     1
 10
0.0
 20
0.0
 30
0.0
  3
*D10
  1

  0
LINE
  5
9D
100
AcDbEntity
  8
0
  6
BYBLOCK
 62
     4
100
AcDbLine
 10
849.709885
 20
407.453737
 30
0.0
 11
885.043489
 21
372.120133
 31
0.0
  0
LINE
  5
9E
100
AcDbEntity
  8
0
  6
BYBLOCK
 62
     4
100
AcDbLine
 10
894.964719
 20
452.708571
 30
0.0
 11
930.298323
 21
417.374967
 31
0.0
  0
LINE
  5
9F
100
AcDbEntity
  8
0
  6
BYBLOCK
 62
     4
100
AcDbLine
 10
885.397043
 20
376.00922
 30
0.0
 11
926.409236
 21
417.021414
 31
0.0
  0
SOLID
  5
A0
100
AcDbEntity
  8
0
  6
BYBLOCK
 62
     4
100
AcDbTrace
 10
885.043489
 20
376.362774
 30
0.0
 11
885.750596
 21
375.655667
 31
0.0
 12
883.275722
 22
373.8879
 32
0.0
 13
883.275722
 23
373.8879
 33
0.0
  0
SOLID
  5
A1
100
AcDbEntity
  8
0
  6
BYBLOCK
 62
     4
100
AcDbTrace
 10
926.055683
 20
417.374967
 30
0.0
 11
926.762789
 21
416.66786
 31
0.0
 12
928.530556
 22
419.142734
 32
0.0
 13
928.530556
 23
419.142734
 33
0.0
  0
MTEXT
  5
A2
100
AcDbEntity
  8
0
  6
BYBLOCK
 62
     2
100
AcDbMText
 10
903.781819
 20
398.636637
 30
0.0
 40
3.0
 41
0.0
 71
     5
 72
     1
  1
\A1;W=64.00
 11
0.707107
 21
0.707107
 31
0.0
  0
POINT
  5
A3
100
AcDbEntity
  8
DEFPOINTS
  6
BYBLOCK
 62
     0
100
AcDbPoint
 10
849.002779
 20
408.160844
 30
0.0
  0
POINT
  5
A4
100
AcDbEntity
  8
DEFPOINTS
  6
BYBLOCK
 62
     0
100
AcDbPoint
 10
894.257613
 20
453.415678
 30
0.0
  0
POINT
  5
A5
100
AcDbEntity
  8
DEFPOINTS
  6
BYBLOCK
 62
     0
100
AcDbPoint
 10
928.530556
 20
419.142734
 30
0.0
  0
ENDBLK
  5
A7
100
AcDbEntity
  8
0
100
AcDbBlockEnd
  0
BLOCK
  5
7F
100
AcDbEntity
  8
0
100
AcDbBlockBegin
  2
*D11
 70
     1
 10
0.0
 20
0.0
 30
0.0
  3
*D11
  1

  0
LINE
  5
76
100
AcDbEntity
  8
0
  6
BYBLOCK
 62
     4
100
AcDbLine
 10
405.557613
 20
431.660844
 30
0.0
 11
257.93292
 21
431.660844
 31
0.0
  0
LINE
  5
77
100
AcDbEntity
  8
0
  6
BYBLOCK
 62
     4
100
AcDbLine
 10
405.557613
 20
656.660844
 30
0.0
 11
257.93292
 21
656.660844
 31
0.0
  0
LINE
  5
78
100
AcDbEntity
  8
0
  6
BYBLOCK
 62
     4
100
AcDbLine
 10
260.43292
 20
434.660844
 30
0.0
 11
260.43292
 21
653.660844
 31
0.0
  0
SOLID
  5
79
100
AcDbEntity
  8
0
  6
BYBLOCK
 62
     4
100
AcDbTrace
 10
259.93292
 20
434.660844
 30
0.0
 11
260.93292
 21
434.660844
 31
0.0
 12
260.43292
 22
431.660844
 32
0.0
 13
260.43292
 23
431.660844
 33
0.0
  0
SOLID
  5
7A
100
AcDbEntity
  8
0
  6
BYBLOCK
 62
     4
100
AcDbTrace
 10
259.93292
 20
653.660844
 30
0.0
 11
260.93292
 21
653.660844
 31
0.0
 12
260.43292
 22
656.660844
 32
0.0
 13
260.43292
 23
656.660844
 33
0.0
  0
MTEXT
  5
7B
100
AcDbEntity
  8
0
  6
BYBLOCK
 62
     2
100
AcDbMText
 10
257.43292
 20
544.160844
 30
0.0
 40
3.0
 41
0.0
 71
     5
 72
     1
  1
\A1;B=225.00
 11
0.0
 21
1.0
 31
0.0
  0
POINT
  5
7C
100
AcDbEntity
  8
DEFPOINTS
  6
BYBLOCK
 62
     0
100
AcDbPoint
 10
406.557613
 20
431.660844
 30
0.0
  0
POINT
  5
7D
100
AcDbEntity
  8
DEFPOINTS
  6
BYBLOCK
 62
     0
100
AcDbPoint
 10
406.557613
 20
656.660844
 30
0.0
  0
POINT
  5
7E
100
AcDbEntity
  8
DEFPOINTS
  6
BYBLOCK
 62
     0
100
AcDbPoint
 10
260.43292
 20
656.660844
 30
0.0
  0
ENDBLK
  5
80
100
AcDbEntity
  8
0
100
AcDbBlockEnd
  0
BLOCK
  5
72
100
AcDbEntity
  8
0
100
AcDbBlockBegin
  2
*D12
 70
     1
 10
0.0
 20
0.0
 30
0.0
  3
*D12
  1

  0
LINE
  5
69
100
AcDbEntity
  8
0
  6
BYBLOCK
 62
     4
100
AcDbLine
 10
423.000391
 20
395.660844
 30
0.0
 11
247.760578
 21
395.660844
 31
0.0
  0
LINE
  5
6A
100
AcDbEntity
  8
0
  6
BYBLOCK
 62
     4
100
AcDbLine
 10
423.000391
 20
692.660844
 30
0.0
 11
247.760578
 21
692.660844
 31
0.0
  0
LINE
  5
6B
100
AcDbEntity
  8
0
  6
BYBLOCK
 62
     4
100
AcDbLine
 10
250.260578
 20
398.660844
 30
0.0
 11
250.260578
 21
689.660844
 31
0.0
  0
SOLID
  5
6C
100
AcDbEntity
  8
0
  6
BYBLOCK
 62
     4
100
AcDbTrace
 10
249.760578
 20
398.660844
 30
0.0
 11
250.760578
 21
398.660844
 31
0.0
 12
250.260578
 22
395.660844
 32
0.0
 13
250.260578
 23
395.660844
 33
0.0
  0
SOLID
  5
6D
100
AcDbEntity
  8
0
  6
BYBLOCK
 62
     4
100
AcDbTrace
 10
249.760578
 20
689.660844
 30
0.0
 11
250.760578
 21
689.660844
 31
0.0
 12
250.260578
 22
692.660844
 32
0.0
 13
250.260578
 23
692.660844
 33
0.0
  0
MTEXT
  5
6E
100
AcDbEntity
  8
0
  6
BYBLOCK
 62
     2
100
AcDbMText
 10
247.260578
 20
544.160844
 30
0.0
 40
3.0
 41
0.0
 71
     5
 72
     1
  1
\A1;L1=297.00
 11
0.0
 21
1.0
 31
0.0
  0
POINT
  5
6F
100
AcDbEntity
  8
DEFPOINTS
  6
BYBLOCK
 62
     0
100
AcDbPoint
 10
424.000391
 20
395.660844
 30
0.0
  0
POINT
  5
70
100
AcDbEntity
  8
DEFPOINTS
  6
BYBLOCK
 62
     0
100
AcDbPoint
 10
424.000391
 20
692.660844
 30
0.0
  0
POINT
  5
71
100
AcDbEntity
  8
DEFPOINTS
  6
BYBLOCK
 62
     0
100
AcDbPoint
 10
250.260578
 20
692.660844
 30
0.0
  0
ENDBLK
  5
73
100
AcDbEntity
  8
0
100
AcDbBlockEnd
  0
BLOCK
  5
65
100
AcDbEntity
  8
0
100
AcDbBlockBegin
  2
*D13
 70
     1
 10
0.0
 20
0.0
 30
0.0
  3
*D13
  1

  0
LINE
  5
5C
100
AcDbEntity
  8
0
  6
BYBLOCK
 62
     4
100
AcDbLine
 10
433.257613
 20
684.360844
 30
0.0
 11
433.257613
 21
746.980461
 31
0.0
  0
LINE
  5
5D
100
AcDbEntity
  8
0
  6
BYBLOCK
 62
     4
100
AcDbLine
 10
658.257613
 20
725.69383
 30
0.0
 11
658.257613
 21
746.980461
 31
0.0
  0
LINE
  5
5E
100
AcDbEntity
  8
0
  6
BYBLOCK
 62
     4
100
AcDbLine
 10
436.257613
 20
744.480461
 30
0.0
 11
655.257613
 21
744.480461
 31
0.0
  0
SOLID
  5
5F
100
AcDbEntity
  8
0
  6
BYBLOCK
 62
     4
100
AcDbTrace
 10
436.257613
 20
744.980461
 30
0.0
 11
436.257613
 21
743.980461
 31
0.0
 12
433.257613
 22
744.480461
 32
0.0
 13
433.257613
 23
744.480461
 33
0.0
  0
SOLID
  5
60
100
AcDbEntity
  8
0
  6
BYBLOCK
 62
     4
100
AcDbTrace
 10
655.257613
 20
744.980461
 30
0.0
 11
655.257613
 21
743.980461
 31
0.0
 12
658.257613
 22
744.480461
 32
0.0
 13
658.257613
 23
744.480461
 33
0.0
  0
MTEXT
  5
61
100
AcDbEntity
  8
0
  6
BYBLOCK
 62
     2
100
AcDbMText
 10
545.757613
 20
747.480461
 30
0.0
 40
3.0
 41
0.0
 71
     5
 72
     1
  1
\A1;A=225.00
  0
POINT
  5
62
100
AcDbEntity
  8
DEFPOINTS
  6
BYBLOCK
 62
     0
100
AcDbPoint
 10
433.257613
 20
683.360844
 30
0.0
  0
POINT
  5
63
100
AcDbEntity
  8
DEFPOINTS
  6
BYBLOCK
 62
     0
100
AcDbPoint
 10
658.257613
 20
724.69383
 30
0.0
  0
POINT
  5
64
100
AcDbEntity
  8
DEFPOINTS
  6
BYBLOCK
 62
     0
100
AcDbPoint
 10
658.257613
 20
744.480461
 30
0.0
  0
ENDBLK
  5
66
100
AcDbEntity
  8
0
100
AcDbBlockEnd
  0
BLOCK
  5
58
100
AcDbEntity
  8
0
100
AcDbBlockBegin
  2
*D14
 70
     1
 10
0.0
 20
0.0
 30
0.0
  3
*D14
  1

  0
LINE
  5
50
100
AcDbEntity
  8
0
  6
BYBLOCK
 62
     4
100
AcDbLine
 10
883.257613
 20
684.360844
 30
0.0
 11
883.257613
 21
746.980461
 31
0.0
  0
LINE
  5
51
100
AcDbEntity
  8
0
  6
BYBLOCK
 62
     4
100
AcDbLine
 10
661.257613
 20
744.480461
 30
0.0
 11
880.257613
 21
744.480461
 31
0.0
  0
SOLID
  5
52
100
AcDbEntity
  8
0
  6
BYBLOCK
 62
     4
100
AcDbTrace
 10
661.257613
 20
744.980461
 30
0.0
 11
661.257613
 21
743.980461
 31
0.0
 12
658.257613
 22
744.480461
 32
0.0
 13
658.257613
 23
744.480461
 33
0.0
  0
SOLID
  5
53
100
AcDbEntity
  8
0
  6
BYBLOCK
 62
     4
100
AcDbTrace
 10
880.257613
 20
744.980461
 30
0.0
 11
880.257613
 21
743.980461
 31
0.0
 12
883.257613
 22
744.480461
 32
0.0
 13
883.257613
 23
744.480461
 33
0.0
  0
MTEXT
  5
54
100
AcDbEntity
  8
0
  6
BYBLOCK
 62
     2
100
AcDbMText
 10
770.757613
 20
747.480461
 30
0.0
 40
3.0
 41
0.0
 71
     5
 72
     1
  1
\A1;A=225.00
  0
POINT
  5
55
100
AcDbEntity
  8
DEFPOINTS
  6
BYBLOCK
 62
     0
100
AcDbPoint
 10
658.257613
 20
724.69383
 30
0.0
  0
POINT
  5
56
100
AcDbEntity
  8
DEFPOINTS
  6
BYBLOCK
 62
     0
100
AcDbPoint
 10
883.257613
 20
683.360844
 30
0.0
  0
POINT
  5
57
100
AcDbEntity
  8
DEFPOINTS
  6
BYBLOCK
 62
     0
100
AcDbPoint
 10
883.257613
 20
744.480461
 30
0.0
  0
ENDBLK
  5
59
100
AcDbEntity
  8
0
100
AcDbBlockEnd
  0
BLOCK
  5
4C
100
AcDbEntity
  8
0
100
AcDbBlockBegin
  2
*D15
 70
     1
 10
0.0
 20
0.0
 30
0.0
  3
*D15
  1

  0
LINE
  5
42
100
AcDbEntity
  8
0
  6
BYBLOCK
 62
     4
100
AcDbLine
 10
397.257613
 20
666.918065
 30
0.0
 11
397.257613
 21
757.261494
 31
0.0
  0
LINE
  5
43
100
AcDbEntity
  8
0
  6
BYBLOCK
 62
     4
100
AcDbLine
 10
919.257613
 20
666.918065
 30
0.0
 11
919.257613
 21
757.261494
 31
0.0
  0
LINE
  5
44
100
AcDbEntity
  8
0
  6
BYBLOCK
 62
     4
100
AcDbLine
 10
400.257613
 20
754.761494
 30
0.0
 11
916.257613
 21
754.761494
 31
0.0
  0
SOLID
  5
45
100
AcDbEntity
  8
0
  6
BYBLOCK
 62
     4
100
AcDbTrace
 10
400.257613
 20
755.261494
 30
0.0
 11
400.257613
 21
754.261494
 31
0.0
 12
397.257613
 22
754.761494
 32
0.0
 13
397.257613
 23
754.761494
 33
0.0
  0
SOLID
  5
46
100
AcDbEntity
  8
0
  6
BYBLOCK
 62
     4
100
AcDbTrace
 10
916.257613
 20
755.261494
 30
0.0
 11
916.257613
 21
754.261494
 31
0.0
 12
919.257613
 22
754.761494
 32
0.0
 13
919.257613
 23
754.761494
 33
0.0
  0
MTEXT
  5
47
100
AcDbEntity
  8
0
  6
BYBLOCK
 62
     2
100
AcDbMText
 10
658.257613
 20
757.761494
 30
0.0
 40
3.0
 41
0.0
 71
     5
 72
     1
  1
\A1;L=522.00
  0
POINT
  5
48
100
AcDbEntity
  8
DEFPOINTS
  6
BYBLOCK
 62
     0
100
AcDbPoint
 10
397.257613
 20
665.918065
 30
0.0
  0
POINT
  5
4A
100
AcDbEntity
  8
DEFPOINTS
  6
BYBLOCK
 62
     0
100
AcDbPoint
 10
919.257613
 20
665.918065
 30
0.0
  0
POINT
  5
4B
100
AcDbEntity
  8
DEFPOINTS
  6
BYBLOCK
 62
     0
100
AcDbPoint
 10
919.257613
 20
754.761494
 30
0.0
  0
ENDBLK
  5
4D
100
AcDbEntity
  8
0
100
AcDbBlockEnd
  0
ENDSEC
  0
SECTION
  2
ENTITIES
  0
TEXT
  5
20
100
AcDbEntity
  8
TEXT
100
AcDbText
 10
983.93697
 20
682.825679
 30
0.0
 40
6.0
  1
depending on the bush size to be used.
100
AcDbText
  0
TEXT
  5
21
100
AcDbEntity
  8
TEXT
100
AcDbText
 10
951.271014
 20
692.922087
 30
0.0
 40
6.0
  1
NOTE: Manifold width `W' can be 50mm or 64mm
100
AcDbText
  0
TEXT
  5
22
100
AcDbEntity
  8
TEXT
100
AcDbText
 10
297.752526
 20
95.896141
 30
0.0
 40
6.0
  1
design may vary from this example !
100
AcDbText
  0
TEXT
  5
23
100
AcDbEntity
  8
TEXT
100
AcDbText
 10
297.371658
 20
105.992549
 30
0.0
 40
6.0
  1
you finalize your tool design, as our final system
100
AcDbText
  0
TEXT
  5
24
100
AcDbEntity
  8
TEXT
100
AcDbText
 10
274.077539
 20
116.088957
 30
0.0
 40
6.0
  1
N.B. ALL designs MUST be approved by Fast Heat BEFORE
100
AcDbText
  0
ARC
  5
25
100
AcDbEntity
  8
M04
100
AcDbCircle
 10
658.258807
 20
397.718525
 30
0.0
 40
15.0
100
AcDbArc
 50
225.0
 51
315.0
  0
ARC
  5
27
100
AcDbEntity
  8
M04
100
AcDbCircle
 10
692.199932
 20
431.65965
 30
0.0
 40
15.0
100
AcDbArc
 50
315.0
 51
45.0
  0
ARC
  5
28
100
AcDbEntity
  8
M04
100
AcDbCircle
 10
883.258806
 20
397.718525
 30
0.0
 40
15.0
100
AcDbArc
 50
225.0
 51
315.0
  0
ARC
  5
29
100
AcDbEntity
  8
M04
100
AcDbCircle
 10
917.199932
 20
431.65965
 30
0.0
 40
15.0
100
AcDbArc
 50
315.0
 51
45.0
  0
ARC
  5
2A
100
AcDbEntity
  8
M04
100
AcDbCircle
 10
917.199932
 20
656.662038
 30
0.0
 40
15.0
100
AcDbArc
 50
315.0
 51
45.0
  0
ARC
  5
2B
100
AcDbEntity
  8
M04
100
AcDbCircle
 10
883.258807
 20
690.603163
 30
0.0
 40
15.0
100
AcDbArc
 50
45.0
 51
135.0
  0
ARC
  5
2C
100
AcDbEntity
  8
M04
100
AcDbCircle
 10
658.256419
 20
690.603163
 30
0.0
 40
15.0
100
AcDbArc
 50
45.0
 51
135.0
  0
ARC
  5
2D
100
AcDbEntity
  8
M04
100
AcDbCircle
 10
624.315293
 20
656.662038
 30
0.0
 40
15.0
100
AcDbArc
 50
135.0
 51
225.0
  0
ARC
  5
2E
100
AcDbEntity
  8
M04
100
AcDbCircle
 10
433.256419
 20
690.603163
 30
0.0
 40
15.0
100
AcDbArc
 50
45.0
 51
135.0
  0
ARC
  5
2F
100
AcDbEntity
  8
M04
100
AcDbCircle
 10
399.315293
 20
656.662038
 30
0.0
 40
15.0
100
AcDbArc
 50
135.0
 51
225.0
  0
ARC
  5
30
100
AcDbEntity
  8
M04
100
AcDbCircle
 10
399.315293
 20
431.65965
 30
0.0
 40
15.0
100
AcDbArc
 50
135.0
 51
225.0
  0
ARC
  5
31
100
AcDbEntity
  8
M04
100
AcDbCircle
 10
433.256419
 20
397.718525
 30
0.0
 40
15.0
100
AcDbArc
 50
225.0
 51
315.0
  0
LINE
  5
32
100
AcDbEntity
  8
M04
100
AcDbLine
 10
927.806534
 20
421.053048
 30
0.0
 11
893.865408
 21
387.111923
 31
0.0
  0
LINE
  5
33
100
AcDbEntity
  8
M04
100
AcDbLine
 10
702.806534
 20
421.053048
 30
0.0
 11
668.865408
 21
387.111923
 31
0.0
  0
LINE
  5
34
100
AcDbEntity
  8
M04
100
AcDbLine
 10
388.708692
 20
421.053048
 30
0.0
 11
422.649817
 21
387.111923
 31
0.0
  0
LINE
  5
35
100
AcDbEntity
  8
M04
100
AcDbLine
 10
388.708692
 20
667.268639
 30
0.0
 11
422.649817
 21
701.209765
 31
0.0
  0
LINE
  5
36
100
AcDbEntity
  8
M04
100
AcDbLine
 10
613.708692
 20
667.268639
 30
0.0
 11
647.649817
 21
701.209765
 31
0.0
  0
LINE
  5
37
100
AcDbEntity
  8
M04
100
AcDbLine
 10
927.806534
 20
667.268639
 30
0.0
 11
893.865408
 21
701.209765
 31
0.0
  0
LINE
  5
38
100
AcDbEntity
  8
M01
100
AcDbLine
 10
397.257613
 20
422.403622
 30
0.0
 11
424.000391
 21
395.660844
 31
0.0
  0
LINE
  5
3A
100
AcDbEntity
  8
M01
100
AcDbLine
 10
694.257613
 20
422.403622
 30
0.0
 11
667.514834
 21
395.660844
 31
0.0
  0
LINE
  5
3B
100
AcDbEntity
  8
M01
100
AcDbLine
 10
919.257613
 20
422.403622
 30
0.0
 11
892.514834
 21
395.660844
 31
0.0
  0
LINE
  5
3C
100
AcDbEntity
  8
M01
100
AcDbLine
 10
919.257613
 20
665.918065
 30
0.0
 11
892.514834
 21
692.660844
 31
0.0
  0
LINE
  5
3D
100
AcDbEntity
  8
M01
100
AcDbLine
 10
622.257613
 20
665.918065
 30
0.0
 11
649.000391
 21
692.660844
 31
0.0
  0
LINE
  5
3E
100
AcDbEntity
  8
M01
100
AcDbLine
 10
397.257613
 20
665.918065
 30
0.0
 11
424.000391
 21
692.660844
 31
0.0
  0
DIMENSION
  5
3F
100
AcDbEntity
  8
DIMS
100
AcDbDimension
  2
*D15
 10
919.257613
 20
754.761494
 30
0.0
 11
658.257613
 21
757.761494
 31
0.0
  1
L=<>
  3
DIM1
100
AcDbAlignedDimension
 13
397.257613
 23
665.918065
 33
0.0
 14
919.257613
 24
665.918065
 34
0.0
100
AcDbRotatedDimension
1001
ACAD
1000
DSTYLE
1002
{
1070
   144
1040
1.0
1002
}
  0
DIMENSION
  5
4E
100
AcDbEntity
  8
DIMS
100
AcDbDimension
  2
*D14
 10
883.257613
 20
744.480461
 30
0.0
 11
770.757613
 21
747.480461
 31
0.0
  1
A=<>
  3
DIM1
100
AcDbAlignedDimension
 13
658.257613
 23
724.69383
 33
0.0
 14
883.257613
 24
683.360844
 34
0.0
100
AcDbRotatedDimension
1001
ACAD
1000
DSTYLE
1002
{
1070
    75
1070
     1
1070
   144
1040
1.0
1070
   287
1070
     4
1002
}
  0
DIMENSION
  5
5A
100
AcDbEntity
  8
DIMS
100
AcDbDimension
  2
*D13
 10
658.257613
 20
744.480461
 30
0.0
 11
545.757613
 21
747.480461
 31
0.0
  1
A=<>
  3
DIM1
100
AcDbAlignedDimension
 13
433.257613
 23
683.360844
 33
0.0
 14
658.257613
 24
724.69383
 34
0.0
100
AcDbRotatedDimension
1001
ACAD
1000
DSTYLE
1002
{
1070
   144
1040
1.0
1002
}
  0
DIMENSION
  5
67
100
AcDbEntity
  8
DIMS
100
AcDbDimension
  2
*D12
 10
250.260578
 20
692.660844
 30
0.0
 11
247.260578
 21
544.160844
 31
0.0
  1
L1=<>
  3
DIM1
100
AcDbAlignedDimension
 13
424.000391
 23
395.660844
 33
0.0
 14
424.000391
 24
692.660844
 34
0.0
 50
90.0
100
AcDbRotatedDimension
1001
ACAD
1000
DSTYLE
1002
{
1070
   144
1040
1.0
1002
}
  0
DIMENSION
  5
74
100
AcDbEntity
  8
DIMS
100
AcDbDimension
  2
*D11
 10
260.43292
 20
656.660844
 30
0.0
 11
257.43292
 21
544.160844
 31
0.0
  1
B=<>
  3
DIM1
100
AcDbAlignedDimension
 13
406.557613
 23
431.660844
 33
0.0
 14
406.557613
 24
656.660844
 34
0.0
 50
90.0
100
AcDbRotatedDimension
1001
ACAD
1000
DSTYLE
1002
{
1070
   144
1040
1.0
1002
}
  0
HATCH
  5
81
100
AcDbEntity
  8
HATCH
100
AcDbHatch
 10
0.0
 20
0.0
 30
0.0
210
0.0
220
0.0
230
1.0
  2
_U
 70
     0
 71
     0
 91
        1
 92
        7
 72
     0
 73
     1
 93
        4
 10
635.03261256428
 20
259.6198189684174
 10
406.2576125642797
 20
259.6198189684176
 10
406.2576125642797
 20
256.6198189684174
 10
635.03261256428
 20
256.6198189684172
 97
        0
 75
     0
 76
     0
 52
135.0
 41
0.8
 77
     0
 78
     1
 53
135.0
 43
0.0
 44
0.0
 45
-0.5656854249492382
 46
-0.565685424949238
 79
     0
 47
0.289415
 98
        1
 10
538.79452
 20
258.263152
  0
ARC
  5
83
100
AcDbEntity
  8
M04
100
AcDbCircle
 10
446.532216
 20
507.160844
 30
0.0
 40
5.0
100
AcDbArc
 50
315.0
 51
90.0
  0
ARC
  5
84
100
AcDbEntity
  8
M04
100
AcDbCircle
 10
545.757613
 20
481.935447
 30
0.0
 40
5.0
100
AcDbArc
 50
45.0
 51
135.0
  0
ARC
  5
85
100
AcDbEntity
  8
M04
100
AcDbCircle
 10
654.983009
 20
497.160844
 30
0.0
 40
5.0
100
AcDbArc
 50
90.0
 51
225.0
  0
ARC
  5
86
100
AcDbEntity
  8
M04
100
AcDbCircle
 10
755.532216
 20
497.160844
 30
0.0
 40
5.0
100
AcDbArc
 50
45.0
 51
90.0
  0
ARC
  5
87
100
AcDbEntity
  8
M04
100
AcDbCircle
 10
869.983009
 20
507.160844
 30
0.0
 40
5.0
100
AcDbArc
 50
90.0
 51
225.0
  0
ARC
  5
88
100
AcDbEntity
  8
M04
100
AcDbCircle
 10
869.983009
 20
581.160844
 30
0.0
 40
5.0
100
AcDbArc
 50
135.0
 51
270.0
  0
ARC
  5
89
100
AcDbEntity
  8
M04
100
AcDbCircle
 10
770.757613
 20
606.386241
 30
0.0
 40
5.0
100
AcDbArc
 50
225.0
 51
315.0
  0
ARC
  5
8A
100
AcDbEntity
  8
M04
100
AcDbCircle
 10
661.532216
 20
591.160844
 30
0.0
 40
5.0
100
AcDbArc
 50
270.0
 51
45.0
  0
ARC
  5
8B
100
AcDbEntity
  8
M04
100
AcDbCircle
 10
560.983009
 20
591.160844
 30
0.0
 40
5.0
100
AcDbArc
 50
225.0
 51
270.0
  0
ARC
  5
8C
100
AcDbEntity
  8
M04
100
AcDbCircle
 10
446.532216
 20
581.160844
 30
0.0
 40
5.0
100
AcDbArc
 50
270.0
 51
45.0
  0
ARC
  5
8D
100
AcDbEntity
  8
M01
100
AcDbCircle
 10
449.532216
 20
510.160844
 30
0.0
 40
12.0
100
AcDbArc
 50
315.0
 51
90.0
  0
ARC
  5
8E
100
AcDbEntity
  8
M01
100
AcDbCircle
 10
545.757613
 20
481.935447
 30
0.0
 40
12.0
100
AcDbArc
 50
45.0
 51
135.0
  0
ARC
  5
8F
100
AcDbEntity
  8
M01
100
AcDbCircle
 10
654.983009
 20
497.160844
 30
0.0
 40
12.0
100
AcDbArc
 50
90.0
 51
225.0
  0
ARC
  5
90
100
AcDbEntity
  8
M01
100
AcDbCircle
 10
755.532216
 20
497.160844
 30
0.0
 40
12.0
100
AcDbArc
 50
45.0
 51
90.0
  0
ARC
  5
91
100
AcDbEntity
  8
M01
100
AcDbCircle
 10
866.983009
 20
510.160844
 30
0.0
 40
12.0
100
AcDbArc
 50
90.0
 51
225.0
  0
ARC
  5
92
100
AcDbEntity
  8
M01
100
AcDbCircle
 10
866.983009
 20
578.160844
 30
0.0
 40
12.0
100
AcDbArc
 50
135.0
 51
270.0
  0
ARC
  5
93
100
AcDbEntity
  8
M01
100
AcDbCircle
 10
770.757612
 20
606.386241
 30
0.0
 40
12.0
100
AcDbArc
 50
225.0
 51
315.0
  0
ARC
  5
94
100
AcDbEntity
  8
M01
100
AcDbCircle
 10
661.532216
 20
591.160844
 30
0.0
 40
12.0
100
AcDbArc
 50
270.0
 51
45.0
  0
ARC
  5
95
100
AcDbEntity
  8
M01
100
AcDbCircle
 10
560.983009
 20
591.160844
 30
0.0
 40
12.0
100
AcDbArc
 50
225.0
 51
270.0
  0
ARC
  5
96
100
AcDbEntity
  8
M01
100
AcDbCircle
 10
449.532216
 20
578.160844
 30
0.0
 40
12.0
100
AcDbArc
 50
270.0
 51
45.0
  0
LINE
  5
97
100
AcDbEntity
  8
M04
100
AcDbLine
 10
992.257613
 20
576.160844
 30
0.0
 11
869.983009
 21
576.160844
 31
0.0
  0
LINE
  5
98
100
AcDbEntity
  8
DIMS
 62
     4
100
AcDbLine
 10
770.757613
 20
547.560844
 30
0.0
 11
770.757613
 21
549.860844
 31
0.0
  0
LINE
  5
99
100
AcDbEntity
  8
DIMS
 62
     4
100
AcDbLine
 10
770.757613
 20
540.760844
 30
0.0
 11
770.757613
 21
538.460844
 31
0.0
  0
LINE
  5
9A
100
AcDbEntity
  8
DIMS
 62
     4
100
AcDbLine
 10
770.757613
 20
542.460844
 30
0.0
 11
770.757613
 21
545.860844
 31
0.0
  0
DIMENSION
  5
9B
100
AcDbEntity
  8
DIMS
100
AcDbDimension
  2
*D10
 10
953.530556
 20
406.642734
 30
0.0
 11
928.781819
 21
386.136637
 31
0.0
 12
25.0
 22
-12.5
 32
0.0
 70
     1
  1
W=<>
  3
DIM1
100
AcDbAlignedDimension
 13
874.002779
 23
395.660844
 33
0.0
 14
919.257613
 24
440.915678
 34
0.0
1001
ACAD
1000
DSTYLE
1002
{
1070
   144
1040
1.0
1002
}
  0
HATCH
  5
A8
100
AcDbEntity
  8
HATCH
100
AcDbHatch
 10
0.0
 20
0.0
 30
0.0
210
0.0
220
0.0
230
1.0
  2
_U
 70
     0
 71
     0
 91
        1
 92
        7
 72
     0
 73
     1
 93
        4
 10
396.2576125642797
 20
196.6198189684176
 10
396.2576125642799
 20
193.6198189684176
 10
623.25761256428
 20
193.6198189684176
 10
623.2576125642797
 20
196.6198189684174
 97
        0
 75
     0
 76
     0
 52
135.0
 41
0.8
 77
     0
 78
     1
 53
135.0
 43
0.0
 44
-31.988958
 45
-0.5656854249492382
 46
-0.565685424949238
 79
     0
 47
0.224197
 98
        1
 10
476.805792
 20
195.351261
  0
HATCH
  5
A9
100
AcDbEntity
  8
HATCH
100
AcDbHatch
 10
0.0
 20
0.0
 30
0.0
210
0.0
220
0.0
230
1.0
  2
_U
 70
     0
 71
     1
 91
        1
 92
        7
 72
     0
 73
     1
 93
        4
 10
913.2576125642799
 20
193.6198189684179
 10
913.2576125642797
 20
196.6198189684173
 10
908.2576125642797
 20
196.6198189684173
 10
908.2576125642798
 20
193.6198189684178
 97
        4
330
2BD
330
361
330
2B8
330
2BB
 75
     0
 76
     0
 52
135.0
 41
0.8
 77
     0
 78
     1
 53
135.0
 43
25.0
 44
-31.988958
 45
-0.5656854249492382
 46
-0.565685424949238
 79
     0
 47
0.198508
 98
        1
 10
911.314839
 20
194.609096
  0
HATCH
  5
AA
100
AcDbEntity
  8
HATCH
100
AcDbHatch
 10
0.0
 20
0.0
 30
0.0
210
0.0
220
0.0
230
1.0
  2
_U
 70
     0
 71
     0
 91
        1
 92
        7
 72
     0
 73
     1
 93
        4
 10
858.2576125642798
 20
193.6198189684177
 10
858.25761256428
 20
196.6198189684174
 10
693.2576125642802
 20
196.6198189684174
 10
693.2576125642802
 20
193.6198189684176
 97
        0
 75
     0
 76
     0
 52
135.0
 41
0.8
 77
     0
 78
     1
 53
135.0
 43
0.0
 44
-31.988958
 45
-0.5656854249492382
 46
-0.565685424949238
 79
     0
 47
0.198508
 98
        1
 10
713.346467
 20
194.609096
  0
HATCH
  5
AB
100
AcDbEntity
  8
HATCH
100
AcDbHatch
 10
0.0
 20
0.0
 30
0.0
210
0.0
220
0.0
230
1.0
  2
_U
 70
     0
 71
     1
 91
        1
 92
        7
 72
     0
 73
     1
 93
        4
 10
913.2576125642799
 20
256.6198189684171
 10
913.2576125642801
 20
259.6198189684171
 10
901.25761256428
 20
259.6198189684171
 10
901.2576125642798
 20
256.6198189684171
 97
        4
330
322
330
3A0
330
4BF
330
4B5
 75
     0
 76
     0
 52
135.0
 41
0.8
 77
     0
 78
     1
 53
135.0
 43
25.0
 44
-31.988958
 45
-0.5656854249492382
 46
-0.565685424949238
 79
     0
 47
0.450652
 98
        1
 10
909.194006
 20
258.018576
  0
HATCH
  5
AC
100
AcDbEntity
  8
HATCH
100
AcDbHatch
 10
0.0
 20
0.0
 30
0.0
210
0.0
220
0.0
230
1.0
  2
_U
 70
     0
 71
     0
 91
        1
 92
        7
 72
     0
 73
     1
 93
        4
 10
681.4826125642797
 20
259.6198189684173
 10
681.4826125642798
 20
256.6198189684172
 10
865.2576125642799
 20
256.6198189684171
 10
865.2576125642799
 20
259.6198189684172
 97
        0
 75
     0
 76
     0
 52
135.0
 41
0.8
 77
     0
 78
     1
 53
135.0
 43
0.0
 44
-31.988958
 45
-0.5656854249492382
 46
-0.565685424949238
 79
     0
 47
0.450652
 98
        1
 10
762.019386
 20
258.469227
  0
HATCH
  5
AD
100
AcDbEntity
  8
HATCH
100
AcDbHatch
 10
0.0
 20
0.0
 30
0.0
210
0.0
220
0.0
230
1.0
  2
_U
 70
     0
 71
     1
 91
       12
 92
        7
 72
     1
 73
     1
 93
       35
 10
406.2576125642796
 20
256.6198189684174
 42
0.0
 10
406.2576125642796
 20
250.6198189684174
 42
0.0
 10
394.2576125642798
 20
250.6198189684174
 42
0.0
 10
394.2576125642798
 20
198.6198189684176
 42
0.0
 10
396.2576125642798
 20
196.6198189684176
 42
0.0
 10
629.2576125642799
 20
196.6198189684174
 42
0.0
 10
629.2576125642799
 20
203.9198189684173
 42
0.0
 10
629.2576125642798
 20
206.4198189684172
 42
0.0
 10
629.95761256428
 20
206.4198189684172
 42
0.0
 10
629.95761256428
 20
207.9198189684172
 42
0.0
 10
632.2576125642799
 20
209.2477245875533
 42
0.0
 10
634.55761256428
 20
207.9198189684172
 42
0.0
 10
634.5576125642799
 20
206.4198189684172
 42
0.0
 10
635.2576125642799
 20
206.4198189684172
 42
0.0
 10
635.2576125642799
 20
203.9198189684174
 42
0.0
 10
635.2576125642799
 20
196.6198189684174
 42
0.0
 10
647.7576125642801
 20
196.6198189684174
 42
0.0
 10
648.25761256428
 20
197.119818968417
 42
0.0
 10
648.25761256428
 20
205.6198189684173
 42
0.0
 10
648.2576125642801
 20
206.6198189684172
 42
0.0
 10
649.2576125642801
 20
206.6198189684172
 42
0.0
 10
654.2576125642798
 20
206.6198189684172
 42
0.0
 10
654.2576125642799
 20
213.6198189684177
 42
0.0
 10
545.7576125642799
 20
213.6198189684176
 42
-0.414213562373096
 10
541.7576125642799
 20
217.6198189684177
 42
0.0
 10
541.7576125642799
 20
239.619818968417
 42
-1.0
 10
549.7576125642799
 20
239.619818968417
 42
0.0
 10
549.7576125642799
 20
221.6198189684176
 42
0.0
 10
658.2576125642799
 20
221.6198189684176
 42
0.0
 10
658.2576125642798
 20
251.6198189684172
 42
0.0
 10
649.7576125642799
 20
251.6198189684172
 42
0.0
 10
648.7576125642799
 20
251.6198189684172
 42
0.0
 10
648.7576125642799
 20
252.6198189684172
 42
0.0
 10
648.7576125642799
 20
255.9198189684171
 42
0.0
 10
648.0576125642799
 20
256.6198189684172
 42
0.0
 97
       33
330
388
330
38E
330
395
330
4AC
330
32C
330
323
330
324
330
10E
330
EA
330
4BF
330
4B2
330
493
330
4BE
330
4B9
330
4BC
330
2D6
330
2C1
330
2CB
330
2C2
330
2C8
330
2C9
330
2C0
330
2BF
330
2D5
330
30F
330
31F
330
318
330
319
330
31E
330
498
330
394
330
38D
330
38F
 92
        7
 72
     1
 73
     1
 93
       12
 10
766.75761256428
 20
221.6198189684177
 42
0.0
 10
766.75761256428
 20
239.619818968417
 42
-0.4142135623730948
 10
770.75761256428
 20
243.619818968417
 42
0.0
 10
879.2576125642797
 20
243.619818968417
 42
0.0
 10
879.2576125642799
 20
256.6198189684171
 42
0.0
 10
668.4576125642799
 20
256.6198189684171
 42
0.0
 10
667.7576125642799
 20
255.9198189684171
 42
0.0
 10
667.7576125642799
 20
252.6198189684172
 42
0.0
 10
667.7576125642799
 20
251.6198189684172
 42
0.0
 10
666.7576125642799
 20
251.6198189684172
 42
0.0
 10
658.2576125642799
 20
251.6198189684172
 42
0.0
 10
658.2576125642799
 20
221.6198189684176
 42
0.0
 97
       12
330
396
330
39F
330
39E
330
4BF
330
EB
330
10F
330
326
330
325
330
32C
330
4AC
330
395
330
398
 92
        7
 72
     1
 73
     1
 93
       39
 10
662.2576125642799
 20
213.6198189684177
 42
0.0
 10
662.2576125642798
 20
206.6198189684171
 42
0.0
 10
667.2576125642799
 20
206.6198189684171
 42
0.0
 10
668.2576125642797
 20
206.6198189684171
 42
0.0
 10
668.2576125642799
 20
205.6198189684171
 42
0.0
 10
668.2576125642799
 20
197.119818968417
 42
0.0
 10
668.7576125642794
 20
196.6198189684174
 42
0.0
 10
681.2576125642798
 20
196.6198189684174
 42
0.0
 10
681.2576125642799
 20
203.9198189684173
 42
0.0
 10
681.2576125642799
 20
206.4198189684172
 42
0.0
 10
681.9576125642799
 20
206.4198189684172
 42
0.0
 10
681.9576125642799
 20
207.9198189684172
 42
0.0
 10
684.25761256428
 20
209.2477245875533
 42
0.0
 10
686.5576125642799
 20
207.9198189684172
 42
0.0
 10
686.5576125642799
 20
206.4198189684172
 42
0.0
 10
687.25761256428
 20
206.4198189684172
 42
0.0
 10
687.2576125642799
 20
203.9198189684174
 42
0.0
 10
687.2576125642799
 20
196.6198189684174
 42
0.0
 10
859.25761256428
 20
196.6198189684173
 42
0.0
 10
859.25761256428
 20
196.9198189684172
 42
0.0
 10
859.9576125642801
 20
197.6198189684172
 42
0.0
 10
901.5163457646993
 20
197.6198189684172
 42
0.0
 10
901.5163457646993
 20
200.6198189684176
 42
-1.0
 10
909.5163457646993
 20
200.6198189684176
 42
0.0
 10
909.5163457646993
 20
196.6198189684173
 42
0.0
 10
913.2576125642797
 20
196.6198189684173
 42
0.0
 10
915.2576125642799
 20
198.6198189684174
 42
0.0
 10
915.2576125642799
 20
254.6198189684173
 42
0.0
 10
913.2576125642801
 20
256.6198189684171
 42
0.0
 10
909.5163457646993
 20
256.6198189684171
 42
0.0
 10
909.5163457646993
 20
252.6198189684176
 42
-1.0
 10
901.5163457646993
 20
252.6198189684176
 42
0.0
 10
901.5163457646993
 20
256.6198189684171
 42
0.0
 10
887.2576125642799
 20
256.6198189684171
 42
0.0
 10
887.2576125642799
 20
239.619818968417
 42
-0.4142135623730973
 10
883.25761256428
 20
235.619818968417
 42
0.0
 10
774.75761256428
 20
235.619818968417
 42
0.0
 10
774.75761256428
 20
217.6198189684177
 42
-0.414213562373094
 10
770.75761256428
 20
213.6198189684177
 42
0.0
 97
       35
330
4BB
330
4BF
330
3E2
330
3E5
330
3E3
330
39D
330
39C
330
39B
330
399
330
392
330
389
330
497
330
31E
330
31B
330
31A
330
320
330
310
330
2BD
330
2EF
330
2D9
330
2E5
330
2DA
330
2E3
330
2E2
330
2DC
330
2DB
330
2F0
330
35E
330
35D
330
363
330
3E1
330
3E4
330
3E0
330
4B8
330
4BD
 92
       22
 72
     0
 73
     1
 93
        4
 10
901.5163457646993
 20
197.6198189684172
 10
901.5163457646993
 20
196.9198189684172
 10
891.4164945517372
 20
196.9198189684172
 10
892.1164945517372
 20
197.6198189684172
 97
        4
330
363
330
345
330
357
330
3E1
 92
       23
 72
     0
 73
     1
 93
        4
 10
891.116494551737
 20
196.6198189684173
 10
901.5163457646993
 20
196.6198189684173
 10
901.5163457646993
 20
196.9198189684172
 10
891.416494551737
 20
196.9198189684172
 97
        4
330
357
330
351
330
2BD
330
3E1
 92
       23
 72
     0
 73
     1
 93
        4
 10
891.4164945517372
 20
196.9198189684172
 10
883.2576125642798
 20
196.9198189684172
 10
883.2576125642798
 20
196.6198189684173
 10
891.116494551737
 20
196.6198189684174
 97
        4
330
357
330
365
330
2BD
330
351
 92
       23
 72
     0
 73
     1
 93
        4
 10
883.25761256428
 20
196.9198189684172
 10
891.416494551737
 20
196.9198189684172
 10
892.1164945517372
 20
197.6198189684172
 10
883.25761256428
 20
197.6198189684172
 97
        4
330
363
330
365
330
357
330
345
 92
       23
 72
     0
 73
     1
 93
        4
 10
875.398730576823
 20
196.6198189684173
 10
883.2576125642798
 20
196.6198189684173
 10
883.2576125642797
 20
196.9198189684172
 10
875.098730576823
 20
196.9198189684172
 97
        4
330
357
330
34F
330
2BD
330
365
 92
       23
 72
     0
 73
     1
 93
        4
 10
875.098730576823
 20
196.9198189684172
 10
883.25761256428
 20
196.9198189684172
 10
883.25761256428
 20
197.6198189684172
 10
874.3987305768227
 20
197.6198189684172
 97
        4
330
363
330
344
330
357
330
365
 92
       22
 72
     0
 73
     1
 93
        4
 10
859.25761256428
 20
196.6198189684173
 10
859.25761256428
 20
196.9198189684172
 10
875.098730576823
 20
196.9198189684172
 10
875.3987305768228
 20
196.6198189684173
 97
        4
330
357
330
35E
330
2BD
330
34F
 92
       22
 72
     0
 73
     1
 93
        4
 10
859.25761256428
 20
196.9198189684172
 10
859.9576125642798
 20
197.6198189684172
 10
874.3987305768227
 20
197.6198189684172
 10
875.098730576823
 20
196.9198189684172
 97
        4
330
363
330
35D
330
357
330
344
 92
       24
 93
        4
 72
     1
 10
862.746089
 20
213.230199
 11
876.603231
 21
213.230199
 72
     1
 10
876.603231
 20
213.230199
 11
876.603231
 21
216.230199
 72
     1
 10
876.603231
 20
216.230199
 11
862.746089
 21
216.230199
 72
     1
 10
862.746089
 20
216.230199
 11
862.746089
 21
213.230199
 97
        1
330
387
 75
     0
 76
     0
 52
45.0
 41
6.0
 77
     0
 78
     1
 53
45.0
 43
0.0
 44
-31.988958
 45
-4.242640687119284
 46
4.242640687119285
 79
     0
 47
0.056049
 98
       11
 10
455.906601
 20
239.54185
 10
708.370756
 20
239.091198
 10
768.330992
 20
210.249479
 10
874.003883
 20
197.282519
 10
868.228531
 20
196.665976
 10
864.583893
 20
196.778074
 10
864.527822
 20
197.226469
 10
855.444259
 20
196.722026
 10
855.556403
 20
197.226469
 10
846.697125
 20
196.834124
 10
846.641054
 20
197.17042
  0
LINE
  5
AE
100
AcDbEntity
  8
DIMS
 62
     4
100
AcDbLine
 10
883.257613
 20
435.060844
 30
0.0
 11
883.257613
 21
458.360844
 31
0.0
  0
LINE
  5
AF
100
AcDbEntity
  8
DIMS
 62
     4
100
AcDbLine
 10
883.257613
 20
428.260844
 30
0.0
 11
883.257613
 21
404.960844
 31
0.0
  0
LINE
  5
B0
100
AcDbEntity
  8
DIMS
 62
     4
100
AcDbLine
 10
886.657613
 20
431.660844
 30
0.0
 11
909.957613
 21
431.660844
 31
0.0
  0
LINE
  5
B1
100
AcDbEntity
  8
DIMS
 62
     4
100
AcDbLine
 10
879.857613
 20
431.660844
 30
0.0
 11
856.557613
 21
431.660844
 31
0.0
  0
LINE
  5
B2
100
AcDbEntity
  8
DIMS
 62
     4
100
AcDbLine
 10
883.257613
 20
429.960844
 30
0.0
 11
883.257613
 21
433.360844
 31
0.0
  0
LINE
  5
B3
100
AcDbEntity
  8
DIMS
 62
     4
100
AcDbLine
 10
881.557613
 20
431.660844
 30
0.0
 11
884.957613
 21
431.660844
 31
0.0
  0
TEXT
  5
B4
100
AcDbEntity
  8
TEXT
100
AcDbText
 10
663.596644
 20
259.457842
 30
0.0
 40
2.0
  1
MA010002
 41
0.9
100
AcDbText
  0
DIMENSION
  5
B5
100
AcDbEntity
  8
DIMS
100
AcDbDimension
  2
*D9
 10
706.996071
 20
282.019819
 30
0.0
 11
706.996071
 21
271.321235
 31
0.0
 12
0.0
 22
-31.988958
 32
0.0
 70
   128
  3
DIM1
100
AcDbAlignedDimension
 13
681.482613
 23
256.619819
 33
0.0
 14
680.482613
 24
282.019819
 34
0.0
 50
270.0
100
AcDbRotatedDimension
1001
ACAD
1000
DSTYLE
1002
{
1070
   288
1070
     1
1070
   144
1040
1.0
1002
}
  0
DIMENSION
  5
C2
100
AcDbEntity
  8
DIMS
100
AcDbDimension
  2
*D8
 10
681.482613
 20
309.262711
 30
0.0
 11
659.563065
 21
309.262711
 31
0.0
 12
0.0
 22
-31.988958
 32
0.0
 70
   128
  1
%%c46.5
  3
DIM1
100
AcDbAlignedDimension
 13
635.032613
 23
276.442469
 33
0.0
 14
681.482613
 24
276.442469
 34
0.0
100
AcDbRotatedDimension
1001
ACAD
1000
DSTYLE
1002
{
1070
   288
1070
     1
1070
   144
1040
1.0
1002
}
  0
DIMENSION
  5
CF
100
AcDbEntity
  8
DIMS
100
AcDbDimension
  2
*D7
 10
636.032613
 20
299.22148
 30
0.0
 11
659.222824
 21
299.22148
 31
0.0
 12
0.0
 22
-31.988958
 32
0.0
 70
   128
  1
%%c<> H7
  3
DIM1
100
AcDbAlignedDimension
 13
680.482613
 23
282.019819
 33
0.0
 14
636.032613
 24
282.019819
 34
0.0
100
AcDbRotatedDimension
1001
ACAD
1000
DSTYLE
1002
{
1070
   288
1070
     1
1070
   144
1040
1.0
1002
}
  0
DIMENSION
  5
DC
100
AcDbEntity
  8
DIMS
100
AcDbDimension
  2
*D6
 10
614.427731
 20
277.019819
 30
0.0
 11
614.427731
 21
270.319819
 31
0.0
 12
0.0
 22
-31.988958
 32
0.0
 70
   128
  1
13.4
  3
DIM1
100
AcDbAlignedDimension
 13
626.257613
 23
263.619819
 33
0.0
 14
636.032613
 24
277.019819
 34
0.0
 50
270.0
100
AcDbRotatedDimension
1001
ACAD
1000
DSTYLE
1002
{
1070
   288
1070
     1
1070
   144
1040
1.0
1002
}
  0
POINT
  5
E9
100
AcDbEntity
  8
DEFPOINTS
  6
BYBLOCK
 62
     0
100
AcDbPoint
 10
658.257613
 20
251.619819
 30
0.0
  0
LINE
  5
EA
102
{ACAD_REACTORS
330
AD
102
}
100
AcDbEntity
  8
M04
100
AcDbLine
 10
648.057613
 20
256.619819
 30
0.0
 11
648.757613
 21
255.919819
 31
0.0
  0
LINE
  5
EB
102
{ACAD_REACTORS
330
AD
102
}
100
AcDbEntity
  8
M04
100
AcDbLine
 10
668.457613
 20
256.619819
 30
0.0
 11
667.757613
 21
255.919819
 31
0.0
  0
LINE
  5
EC
100
AcDbEntity
  8
M03
100
AcDbLine
 10
660.557613
 20
264.019819
 30
0.0
 11
660.557613
 21
251.619819
 31
0.0
  0
LINE
  5
EF
100
AcDbEntity
  8
M03
100
AcDbLine
 10
655.957613
 20
264.019819
 30
0.0
 11
655.957613
 21
251.619819
 31
0.0
  0
LINE
  5
F0
100
AcDbEntity
  8
M03
100
AcDbLine
 10
655.257613
 20
264.019819
 30
0.0
 11
655.257613
 21
251.619819
 31
0.0
  0
LINE
  5
F1
100
AcDbEntity
  8
M03
100
AcDbLine
 10
661.257613
 20
264.019819
 30
0.0
 11
661.257613
 21
251.619819
 31
0.0
  0
ARC
  5
F2
100
AcDbEntity
  8
M03
100
AcDbCircle
 10
646.757613
 20
269.019819
 30
0.0
 40
5.0
100
AcDbArc
 50
180.0
 51
270.0
  0
ARC
  5
F3
100
AcDbEntity
  8
M03
100
AcDbCircle
 10
669.757613
 20
269.019819
 30
0.0
 40
5.0
100
AcDbArc
 50
270.0
 51
0.0
  0
LINE
  5
F4
100
AcDbEntity
  8
M03
100
AcDbLine
 10
641.757613
 20
282.019819
 30
0.0
 11
641.757613
 21
269.019819
 31
0.0
  0
LINE
  5
F5
100
AcDbEntity
  8
M03
100
AcDbLine
 10
674.757613
 20
282.019819
 30
0.0
 11
674.757613
 21
269.019819
 31
0.0
  0
LINE
  5
F6
100
AcDbEntity
  8
M03
100
AcDbLine
 10
669.757613
 20
264.019819
 30
0.0
 11
646.757613
 21
264.019819
 31
0.0
  0
LINE
  5
F7
100
AcDbEntity
  8
M05
100
AcDbLine
 10
636.532613
 20
257.319819
 30
0.0
 11
679.982613
 21
257.319819
 31
0.0
  0
LINE
  5
F9
100
AcDbEntity
  8
M05
100
AcDbLine
 10
679.282613
 20
256.619819
 30
0.0
 11
679.982613
 21
257.319819
 31
0.0
  0
LINE
  5
FA
100
AcDbEntity
  8
M05
100
AcDbLine
 10
636.532613
 20
257.319819
 30
0.0
 11
637.232613
 21
256.619819
 31
0.0
  0
LINE
  5
FB
100
AcDbEntity
  8
M05
100
AcDbLine
 10
636.532613
 20
277.019819
 30
0.0
 11
636.532613
 21
257.319819
 31
0.0
  0
LINE
  5
FC
100
AcDbEntity
  8
M04
100
AcDbLine
 10
635.032613
 20
276.442469
 30
0.0
 11
636.532613
 21
276.442469
 31
0.0
  0
LINE
  5
FD
100
AcDbEntity
  8
M04
100
AcDbLine
 10
635.032613
 20
276.442469
 30
0.0
 11
635.032613
 21
263.619819
 31
0.0
  0
LINE
  5
FE
100
AcDbEntity
  8
M04
100
AcDbLine
 10
636.032613
 20
277.019819
 30
0.0
 11
635.032613
 21
276.442469
 31
0.0
  0
LINE
  5
FF
100
AcDbEntity
  8
M04
100
AcDbLine
 10
636.032613
 20
281.019819
 30
0.0
 11
636.032613
 21
282.019819
 31
0.0
  0
LINE
  5
100
100
AcDbEntity
  8
M04
100
AcDbLine
 10
637.032613
 20
282.019819
 30
0.0
 11
636.032613
 21
282.019819
 31
0.0
  0
LINE
  5
101
100
AcDbEntity
  8
M05
100
AcDbLine
 10
637.032613
 20
282.019819
 30
0.0
 11
636.032613
 21
281.019819
 31
0.0
  0
LINE
  5
102
100
AcDbEntity
  8
M05
100
AcDbLine
 10
636.032613
 20
281.019819
 30
0.0
 11
636.032613
 21
277.019819
 31
0.0
  0
LINE
  5
103
100
AcDbEntity
  8
M05
100
AcDbLine
 10
679.982613
 20
277.019819
 30
0.0
 11
679.982613
 21
257.319819
 31
0.0
  0
LINE
  5
104
100
AcDbEntity
  8
M04
100
AcDbLine
 10
681.482613
 20
276.442469
 30
0.0
 11
679.982613
 21
276.442469
 31
0.0
  0
LINE
  5
105
100
AcDbEntity
  8
M04
100
AcDbLine
 10
681.482613
 20
276.442469
 30
0.0
 11
681.482613
 21
263.619819
 31
0.0
  0
LINE
  5
106
100
AcDbEntity
  8
M04
100
AcDbLine
 10
680.482613
 20
277.019819
 30
0.0
 11
681.482613
 21
276.442469
 31
0.0
  0
LINE
  5
107
100
AcDbEntity
  8
M04
100
AcDbLine
 10
680.482613
 20
281.019819
 30
0.0
 11
680.482613
 21
282.019819
 31
0.0
  0
LINE
  5
108
100
AcDbEntity
  8
M04
100
AcDbLine
 10
679.482613
 20
282.019819
 30
0.0
 11
680.482613
 21
282.019819
 31
0.0
  0
LINE
  5
109
100
AcDbEntity
  8
M05
100
AcDbLine
 10
636.032613
 20
281.019819
 30
0.0
 11
680.482613
 21
281.019819
 31
0.0
  0
LINE
  5
10A
100
AcDbEntity
  8
M05
100
AcDbLine
 10
679.482613
 20
282.019819
 30
0.0
 11
680.482613
 21
281.019819
 31
0.0
  0
LINE
  5
10B
100
AcDbEntity
  8
M05
100
AcDbLine
 10
680.482613
 20
281.019819
 30
0.0
 11
680.482613
 21
277.019819
 31
0.0
  0
LINE
  5
10C
100
AcDbEntity
  8
M05
100
AcDbLine
 10
680.482613
 20
277.019819
 30
0.0
 11
636.032613
 21
277.019819
 31
0.0
  0
LINE
  5
10D
100
AcDbEntity
  8
M05
100
AcDbLine
 10
679.482613
 20
282.019819
 30
0.0
 11
637.032613
 21
282.019819
 31
0.0
  0
LINE
  5
10E
102
{ACAD_REACTORS
330
AD
102
}
100
AcDbEntity
  8
M05
100
AcDbLine
 10
648.757613
 20
256.619819
 30
0.0
 11
648.757613
 21
252.619819
 31
0.0
  0
LINE
  5
10F
102
{ACAD_REACTORS
330
AD
102
}
100
AcDbEntity
  8
M05
100
AcDbLine
 10
667.757613
 20
256.619819
 30
0.0
 11
667.757613
 21
252.619819
 31
0.0
  0
HATCH
  5
110
100
AcDbEntity
  8
HATCH
100
AcDbHatch
 10
0.0
 20
0.0
 30
0.0
210
0.0
220
0.0
230
1.0
  2
_U
 70
     0
 71
     0
 91
       16
 92
        7
 72
     1
 73
     1
 93
        5
 10
658.2576125642799
 20
564.160843887023
 42
0.0
 10
658.2576125642799
 20
564.660843887023
 42
-0.1856631955229143
 10
654.5722738197127
 20
566.0781635985614
 42
0.3157147729334966
 10
636.3955306643326
 20
548.160843887023
 42
0.0
 10
638.6616946220146
 20
548.160843887023
 42
-0.3563939586925999
 97
        0
 92
       22
 72
     1
 73
     1
 93
        4
 10
658.2576125642799
 20
564.160843887023
 42
0.3563939586925999
 10
638.6616946220146
 20
548.160843887023
 42
0.0
 10
649.6407685944729
 20
548.160843887023
 42
-0.2919418509678903
 10
658.2576125642799
 20
553.660843887023
 42
0.0
 97
        0
 92
        6
 72
     1
 73
     1
 93
        3
 10
658.2576125642799
 20
553.660843887023
 42
0.2919418509678903
 10
649.6407685944729
 20
548.160843887023
 42
0.0
 10
658.2576125642799
 20
548.160843887023
 42
0.0
 97
        0
 92
        7
 72
     1
 73
     1
 93
        4
 10
658.2576125642799
 20
548.160843887023
 42
0.0
 10
649.6407685944729
 20
548.160843887023
 42
0.1090809576248918
 10
648.7576125642799
 20
544.1608438870229
 42
0.0
 10
654.2576125642799
 20
544.1608438870229
 42
-0.4142135623730992
 97
        0
 92
       22
 72
     1
 73
     1
 93
        3
 10
658.2576125642799
 20
548.160843887023
 42
0.4142135623730992
 10
654.2576125642799
 20
544.1608438870229
 42
0.0
 10
658.2576125642802
 20
544.1608438870227
 42
0.0
 97
        0
 92
        7
 72
     1
 73
     1
 93
        4
 10
649.6407685944729
 20
548.160843887023
 42
0.0
 10
638.6616946220146
 20
548.160843887023
 42
0.0503820444848851
 10
638.2576125642799
 20
544.1608438870229
 42
0.0
 10
648.7576125642799
 20
544.1608438870229
 42
-0.1090809576248918
 97
        0
 92
        7
 72
     1
 73
     1
 93
        5
 10
638.6616946220146
 20
548.160843887023
 42
0.0
 10
636.3955306643326
 20
548.160843887023
 42
0.003593667114849
 10
636.3402928527416
 20
547.84618263159
 42
-0.1856631955229133
 10
637.7576125642799
 20
544.1608438870229
 42
0.0
 10
638.2576125642799
 20
544.1608438870229
 42
-0.0503820444848851
 97
        0
 92
        7
 72
     1
 73
     1
 93
        3
 10
636.3402928527416
 20
547.84618263159
 42
0.0416713391594355
 10
636.03261256428
 20
544.1608438870229
 42
0.0
 10
637.7576125642799
 20
544.1608438870229
 42
0.1856631955229133
 97
        0
 92
       22
 72
     1
 73
     1
 93
        3
 10
662.2576125642799
 20
544.1608438870229
 42
0.0
 10
658.2576125642802
 20
544.1608438870229
 42
0.0
 10
658.2576125642802
 20
540.160843887023
 42
0.4142135623730826
 97
        0
 92
        7
 72
     1
 73
     1
 93
        4
 10
667.7576125642799
 20
544.1608438870229
 42
0.0
 10
662.2576125642799
 20
544.1608438870229
 42
-0.4142135623730909
 10
658.2576125642799
 20
540.160843887023
 42
0.0
 10
666.8744565340871
 20
540.160843887023
 42
0.1090809576248888
 97
        0
 92
        6
 72
     1
 73
     1
 93
        3
 10
666.8744565340871
 20
540.160843887023
 42
0.0
 10
658.2576125642799
 20
540.1608438870229
 42
0.0
 10
658.2576125642799
 20
534.660843887023
 42
0.2919418509678903
 97
        0
 92
       22
 72
     1
 73
     1
 93
        4
 10
677.8535305065454
 20
540.160843887023
 42
0.0
 10
666.8744565340871
 20
540.160843887023
 42
-0.2919418509678903
 10
658.2576125642799
 20
534.660843887023
 42
0.0
 10
658.2576125642799
 20
524.160843887023
 42
0.3563939586925999
 97
        0
 92
        7
 72
     1
 73
     1
 93
        4
 10
678.2576125642799
 20
544.1608438870229
 42
0.0
 10
667.7576125642799
 20
544.1608438870229
 42
-0.1090809576248888
 10
666.8744565340871
 20
540.160843887023
 42
0.0
 10
677.8535305065454
 20
540.160843887023
 42
0.0503820444848837
 97
        0
 92
        7
 72
     1
 73
     1
 93
        5
 10
678.7576125642799
 20
544.1608438870229
 42
0.0
 10
678.2576125642799
 20
544.1608438870229
 42
-0.0503820444848837
 10
677.8535305065454
 20
540.160843887023
 42
0.0
 10
680.1196944642271
 20
540.160843887023
 42
0.003593667114849
 10
680.1749322758184
 20
540.4755051424558
 42
-0.185663195522908
 97
        0
 92
        7
 72
     1
 73
     1
 93
        3
 10
680.4826125642801
 20
544.1608438870229
 42
0.0
 10
678.7576125642799
 20
544.1608438870229
 42
0.185663195522908
 10
680.1749322758184
 20
540.4755051424558
 42
0.0416713391594342
 97
        0
 92
        7
 72
     1
 73
     1
 93
        4
 10
680.1196944642271
 20
540.160843887023
 42
0.0
 10
677.8535305065454
 20
540.160843887023
 42
-0.3563939586925999
 10
658.2576125642799
 20
524.160843887023
 42
0.0
 10
658.2576125642799
 20
521.9358438870228
 42
0.3621506593782504
 97
        0
 75
     0
 76
     0
 52
45.0
 41
2.0
 77
     1
 78
     2
 53
45.0
 43
102.810372
 44
111.601618
 45
-1.414213562373094
 46
1.414213562373095
 79
     0
 53
135.0
 43
102.810372
 44
111.601618
 45
-1.414213562373095
 46
-1.414213562373094
 79
     0
 47
0.113412
 98
       16
 10
645.941458
 20
561.480764
 10
647.643334
 20
557.62477
 10
655.812338
 20
551.273722
 10
652.748961
 20
546.623846
 10
656.946922
 20
546.283611
 10
645.714541
 20
546.1702
 10
637.658995
 20
547.531138
 10
637.091704
 20
545.48973
 10
660.577591
 20
542.087382
 10
664.548634
 20
542.200793
 10
661.258341
 20
537.777741
 10
668.292761
 20
536.076568
 10
672.036888
 20
541.860559
 10
678.617475
 20
541.293501
 10
680.092434
 20
542.541029
 10
678.730934
 20
536.530213
  0
CIRCLE
  5
111
100
AcDbEntity
  8
M01
100
AcDbCircle
 10
658.257613
 20
544.160844
 30
0.0
 40
22.225
  0
CIRCLE
  5
112
100
AcDbEntity
  8
M03
100
AcDbCircle
 10
658.257613
 20
544.160844
 30
0.0
 40
9.5
  0
CIRCLE
  5
113
100
AcDbEntity
  8
M03
100
AcDbCircle
 10
658.257613
 20
544.160844
 30
0.0
 40
4.0
  0
HATCH
  5
114
100
AcDbEntity
  8
HATCH
100
AcDbHatch
 10
0.0
 20
0.0
 30
0.0
210
0.0
220
0.0
230
1.0
  2
_U
 70
     0
 71
     1
 91
        2
 92
        7
 72
     0
 73
     1
 93
       11
 10
859.9576125642801
 20
196.6198189684173
 10
859.25761256428
 20
195.9198189684173
 10
859.25761256428
 20
190.319818968417
 10
859.95761256428
 20
189.6198189684172
 10
862.7576125642802
 20
189.6198189684172
 10
863.75761256428
 20
190.6198189684171
 10
875.7576125642795
 20
190.6198189684172
 10
876.7576125642792
 20
189.6198189684172
 10
879.75761256428
 20
189.6198189684173
 10
879.7576125642798
 20
192.2609369809602
 10
875.398730576823
 20
196.6198189684173
 97
       10
330
2BD
330
35F
330
364
330
360
330
499
330
32D
330
32F
330
32E
330
34D
330
34F
 92
        7
 72
     0
 73
     1
 93
       11
 10
891.116494551737
 20
196.6198189684173
 10
886.7576125642798
 20
192.2609369809603
 10
886.75761256428
 20
189.6198189684173
 10
889.7576125642808
 20
189.6198189684173
 10
890.7576125642801
 20
190.6198189684172
 10
902.7576125642802
 20
190.619818968417
 10
903.7576125642797
 20
189.6198189684174
 10
906.5576125642802
 20
189.6198189684175
 10
907.2576125642799
 20
190.3198189684173
 10
907.2576125642799
 20
195.9198189684173
 10
906.5576125642797
 20
196.6198189684173
 97
       10
330
35A
330
2BD
330
351
330
34C
330
2BC
330
331
330
332
330
330
330
35B
330
35C
 75
     0
 76
     0
 52
135.0
 41
1.5
 77
     0
 78
     1
 53
135.0
 43
50.0
 44
-31.988958
 45
-1.060660171779821
 46
-1.060660171779821
 79
     0
 47
0.097824
 98
        2
 10
864.941951
 20
194.501523
 10
893.811491
 20
193.621104
  0
HATCH
  5
115
100
AcDbEntity
  8
M03
100
AcDbHatch
 10
0.0
 20
0.0
 30
0.0
210
0.0
220
0.0
230
1.0
  2
_U
 70
     0
 71
     0
 91
        1
 92
        7
 72
     0
 73
     1
 93
        4
 10
855.6205768316351
 20
419.5584785169838
 10
876.2952897551713
 20
398.8837655934476
 10
874.9517868709169
 20
397.540262709193
 10
854.2770739473805
 20
418.2149756327296
 97
        0
 75
     0
 76
     0
 52
285.0
 41
0.7
 77
     0
 78
     1
 53
165.0
 43
916.913266
 44
-213.725933
 45
0.1811733315717643
 46
0.676148078402348
 79
     0
 47
0.060863
 98
        1
 10
857.390989
 20
416.108785
  0
HATCH
  5
116
100
AcDbEntity
  8
M03
100
AcDbHatch
 10
0.0
 20
0.0
 30
0.0
210
0.0
220
0.0
230
1.0
  2
_U
 70
     0
 71
     0
 91
        1
 92
        7
 72
     0
 73
     1
 93
        4
 10
855.6205768316351
 20
419.558478516984
 10
876.2952897551715
 20
398.8837655934474
 10
874.9517868709169
 20
397.540262709193
 10
854.2770739473805
 20
418.2149756327296
 97
        0
 75
     0
 76
     0
 52
-15.0
 41
0.7
 77
     0
 78
     1
 53
105.0
 43
916.913266
 44
-213.725933
 45
0.6761480784023478
 46
0.1811733315717645
 79
     0
 47
0.060863
 98
        1
 10
857.692299
 20
416.151769
  0
LINE
  5
117
100
AcDbEntity
  8
M03
100
AcDbLine
 10
853.494262
 20
440.918097
 30
0.0
 11
856.059579
 21
440.230723
 31
0.0
  0
LINE
  5
118
100
AcDbEntity
  8
M03
100
AcDbLine
 10
856.746954
 20
437.665406
 30
0.0
 11
856.059579
 21
440.230723
 31
0.0
  0
LINE
  5
119
100
AcDbEntity
  8
M03
100
AcDbLine
 10
856.746954
 20
437.665406
 30
0.0
 11
853.494262
 21
440.918097
 31
0.0
  0
LINE
  5
11A
100
AcDbEntity
  8
M03
100
AcDbLine
 10
856.181268
 20
436.109771
 30
0.0
 11
851.938627
 21
440.352412
 31
0.0
  0
LINE
  5
11B
100
AcDbEntity
  8
M03
100
AcDbLine
 10
855.620577
 20
419.558479
 30
0.0
 11
876.29529
 21
398.883766
 31
0.0
  0
LINE
  5
11C
100
AcDbEntity
  8
M03
100
AcDbLine
 10
854.277074
 20
418.214976
 30
0.0
 11
874.951787
 21
397.540263
 31
0.0
  0
LINE
  5
11D
100
AcDbEntity
  8
M03
100
AcDbLine
 10
850.882961
 20
424.720358
 30
0.0
 11
840.76634
 21
434.836979
 31
0.0
  0
LINE
  5
11E
100
AcDbEntity
  8
M03
100
AcDbLine
 10
855.832709
 20
419.770611
 30
0.0
 11
854.064942
 21
418.002844
 31
0.0
  0
LINE
  5
11F
100
AcDbEntity
  8
M03
100
AcDbLine
 10
854.064942
 20
418.002844
 30
0.0
 11
849.115194
 21
422.952591
 31
0.0
  0
LINE
  5
120
100
AcDbEntity
  8
M03
100
AcDbLine
 10
850.882961
 20
424.720358
 30
0.0
 11
849.115194
 21
422.952591
 31
0.0
  0
LINE
  5
121
100
AcDbEntity
  8
M03
100
AcDbLine
 10
841.332026
 20
435.402665
 30
0.0
 11
840.76634
 21
434.836979
 31
0.0
  0
ARC
  5
122
100
AcDbEntity
  8
M03
100
AcDbCircle
 10
847.502336
 20
431.67348
 30
0.0
 40
5.826136
100
AcDbArc
 50
160.69541
 51
289.30459
  0
LINE
  5
123
100
AcDbEntity
  8
M03
100
AcDbLine
 10
850.17086
 20
438.584645
 30
0.0
 11
851.16081
 21
438.584645
 31
0.0
  0
LINE
  5
124
100
AcDbEntity
  8
M03
100
AcDbLine
 10
854.413501
 20
434.342004
 30
0.0
 11
854.413501
 21
435.331954
 31
0.0
  0
LINE
  5
125
100
AcDbEntity
  8
M03
100
AcDbLine
 10
854.413501
 20
434.342004
 30
0.0
 11
850.17086
 21
438.584645
 31
0.0
  0
LINE
  5
126
100
AcDbEntity
  8
M03
100
AcDbLine
 10
854.413501
 20
435.331954
 30
0.0
 11
851.16081
 21
438.584645
 31
0.0
  0
LINE
  5
127
100
AcDbEntity
  8
M03
100
AcDbLine
 10
844.160453
 20
432.574237
 30
0.0
 11
839.210705
 21
437.523985
 31
0.0
  0
LINE
  5
128
100
AcDbEntity
  8
M03
100
AcDbLine
 10
855.969136
 20
420.765554
 30
0.0
 11
855.403451
 21
420.199869
 31
0.0
  0
LINE
  5
129
100
AcDbEntity
  8
M03
100
AcDbLine
 10
843.665478
 20
433.069212
 30
0.0
 11
843.099793
 21
432.503527
 31
0.0
  0
LINE
  5
12A
100
AcDbEntity
  8
M03
100
AcDbLine
 10
853.494262
 20
440.918097
 30
0.0
 11
844.089742
 21
431.513577
 31
0.0
  0
LINE
  5
12B
100
AcDbEntity
  8
M03
100
AcDbLine
 10
856.746954
 20
437.665406
 30
0.0
 11
847.342433
 21
428.260886
 31
0.0
  0
LINE
  5
12C
100
AcDbEntity
  8
M03
100
AcDbLine
 10
856.181268
 20
436.109771
 30
0.0
 11
847.837408
 21
427.765911
 31
0.0
  0
LINE
  5
12D
100
AcDbEntity
  8
M03
100
AcDbLine
 10
851.938627
 20
440.352412
 30
0.0
 11
843.594767
 21
432.008552
 31
0.0
  0
LINE
  5
12E
100
AcDbEntity
  8
M03
100
AcDbLine
 10
855.832709
 20
419.770611
 30
0.0
 11
851.621721
 21
423.981598
 31
0.0
  0
LINE
  5
12F
100
AcDbEntity
  8
M03
100
AcDbLine
 10
839.210705
 20
437.523985
 30
0.0
 11
835.675171
 21
433.988451
 31
0.0
  0
LINE
  5
130
100
AcDbEntity
  8
M03
100
AcDbLine
 10
881.073846
 20
395.660844
 30
0.0
 11
848.403094
 21
428.331597
 31
0.0
  0
LINE
  5
131
100
AcDbEntity
  8
CENTRE
100
AcDbLine
 10
859.150178
 20
443.321322
 30
0.0
 11
839.945052
 21
424.116196
 31
0.0
  0
LINE
  5
134
100
AcDbEntity
  8
DIMS
 62
     4
100
AcDbLine
 10
883.257613
 20
660.060844
 30
0.0
 11
883.257613
 21
683.360844
 31
0.0
  0
LINE
  5
135
100
AcDbEntity
  8
DIMS
 62
     4
100
AcDbLine
 10
883.257613
 20
653.260844
 30
0.0
 11
883.257613
 21
629.960844
 31
0.0
  0
LINE
  5
136
100
AcDbEntity
  8
DIMS
 62
     4
100
AcDbLine
 10
886.657613
 20
656.660844
 30
0.0
 11
909.957613
 21
656.660844
 31
0.0
  0
LINE
  5
137
100
AcDbEntity
  8
DIMS
 62
     4
100
AcDbLine
 10
879.857613
 20
656.660844
 30
0.0
 11
856.557613
 21
656.660844
 31
0.0
  0
LINE
  5
138
100
AcDbEntity
  8
DIMS
 62
     4
100
AcDbLine
 10
883.257613
 20
654.960844
 30
0.0
 11
883.257613
 21
658.360844
 31
0.0
  0
LINE
  5
139
100
AcDbEntity
  8
DIMS
 62
     4
100
AcDbLine
 10
881.557613
 20
656.660844
 30
0.0
 11
884.957613
 21
656.660844
 31
0.0
  0
LINE
  5
13A
100
AcDbEntity
  8
DIMS
 62
     4
100
AcDbLine
 10
661.657613
 20
656.660844
 30
0.0
 11
684.957613
 21
656.660844
 31
0.0
  0
LINE
  5
13B
100
AcDbEntity
  8
DIMS
 62
     4
100
AcDbLine
 10
654.857613
 20
656.660844
 30
0.0
 11
631.557613
 21
656.660844
 31
0.0
  0
LINE
  5
13C
100
AcDbEntity
  8
DIMS
 62
     4
100
AcDbLine
 10
656.557613
 20
656.660844
 30
0.0
 11
659.957613
 21
656.660844
 31
0.0
  0
LINE
  5
13D
100
AcDbEntity
  8
DIMS
 62
     4
100
AcDbLine
 10
661.657613
 20
431.660844
 30
0.0
 11
684.957613
 21
431.660844
 31
0.0
  0
LINE
  5
13E
100
AcDbEntity
  8
DIMS
 62
     4
100
AcDbLine
 10
654.857613
 20
431.660844
 30
0.0
 11
631.557613
 21
431.660844
 31
0.0
  0
LINE
  5
13F
100
AcDbEntity
  8
DIMS
 62
     4
100
AcDbLine
 10
656.557613
 20
431.660844
 30
0.0
 11
659.957613
 21
431.660844
 31
0.0
  0
LINE
  5
140
100
AcDbEntity
  8
DIMS
 62
     4
100
AcDbLine
 10
433.257613
 20
435.060844
 30
0.0
 11
433.257613
 21
458.360844
 31
0.0
  0
LINE
  5
141
100
AcDbEntity
  8
DIMS
 62
     4
100
AcDbLine
 10
433.257613
 20
428.260844
 30
0.0
 11
433.257613
 21
404.960844
 31
0.0
  0
LINE
  5
142
100
AcDbEntity
  8
DIMS
 62
     4
100
AcDbLine
 10
436.657613
 20
431.660844
 30
0.0
 11
459.957613
 21
431.660844
 31
0.0
  0
LINE
  5
143
100
AcDbEntity
  8
DIMS
 62
     4
100
AcDbLine
 10
429.857613
 20
431.660844
 30
0.0
 11
406.557613
 21
431.660844
 31
0.0
  0
LINE
  5
144
100
AcDbEntity
  8
DIMS
 62
     4
100
AcDbLine
 10
433.257613
 20
429.960844
 30
0.0
 11
433.257613
 21
433.360844
 31
0.0
  0
LINE
  5
145
100
AcDbEntity
  8
DIMS
 62
     4
100
AcDbLine
 10
431.557613
 20
431.660844
 30
0.0
 11
434.957613
 21
431.660844
 31
0.0
  0
LINE
  5
146
100
AcDbEntity
  8
DIMS
 62
     4
100
AcDbLine
 10
433.257613
 20
660.060844
 30
0.0
 11
433.257613
 21
683.360844
 31
0.0
  0
LINE
  5
147
100
AcDbEntity
  8
DIMS
 62
     4
100
AcDbLine
 10
433.257613
 20
653.260844
 30
0.0
 11
433.257613
 21
629.960844
 31
0.0
  0
LINE
  5
148
100
AcDbEntity
  8
DIMS
 62
     4
100
AcDbLine
 10
436.657613
 20
656.660844
 30
0.0
 11
459.957613
 21
656.660844
 31
0.0
  0
LINE
  5
149
100
AcDbEntity
  8
DIMS
 62
     4
100
AcDbLine
 10
429.857613
 20
656.660844
 30
0.0
 11
406.557613
 21
656.660844
 31
0.0
  0
LINE
  5
14A
100
AcDbEntity
  8
DIMS
 62
     4
100
AcDbLine
 10
433.257613
 20
654.960844
 30
0.0
 11
433.257613
 21
658.360844
 31
0.0
  0
LINE
  5
14B
100
AcDbEntity
  8
DIMS
 62
     4
100
AcDbLine
 10
431.557613
 20
656.660844
 30
0.0
 11
434.957613
 21
656.660844
 31
0.0
  0
LINE
  5
14C
100
AcDbEntity
  8
M04
100
AcDbLine
 10
927.806534
 20
442.266252
 30
0.0
 11
866.447475
 21
503.62531
 31
0.0
  0
LINE
  5
14D
100
AcDbEntity
  8
DIMS
 62
     4
100
AcDbLine
 10
922.012952
 20
467.016183
 30
0.0
 11
926.812952
 21
467.016183
 31
0.0
  0
LINE
  5
14E
100
AcDbEntity
  8
DIMS
 62
     4
100
AcDbLine
 10
915.212952
 20
467.016183
 30
0.0
 11
910.412952
 21
467.016183
 31
0.0
  0
LINE
  5
14F
100
AcDbEntity
  8
DIMS
 62
     4
100
AcDbLine
 10
918.612952
 20
470.416183
 30
0.0
 11
918.612952
 21
475.216183
 31
0.0
  0
LINE
  5
150
100
AcDbEntity
  8
DIMS
 62
     4
100
AcDbLine
 10
918.612952
 20
463.616183
 30
0.0
 11
918.612952
 21
458.816183
 31
0.0
  0
LINE
  5
151
100
AcDbEntity
  8
DIMS
 62
     4
100
AcDbLine
 10
916.912952
 20
467.016183
 30
0.0
 11
920.312952
 21
467.016183
 31
0.0
  0
LINE
  5
152
100
AcDbEntity
  8
DIMS
 62
     4
100
AcDbLine
 10
918.612952
 20
465.316183
 30
0.0
 11
918.612952
 21
468.716183
 31
0.0
  0
CIRCLE
  5
153
100
AcDbEntity
  8
M04
100
AcDbCircle
 10
918.612952
 20
467.016183
 30
0.0
 40
6.5
  0
LINE
  5
154
100
AcDbEntity
  8
M04
100
AcDbLine
 10
872.652205
 20
387.111923
 30
0.0
 11
759.06775
 21
500.696378
 31
0.0
  0
LINE
  5
155
100
AcDbEntity
  8
M01
100
AcDbLine
 10
919.257613
 20
440.915678
 30
0.0
 11
858.497728
 21
501.675563
 31
0.0
  0
LINE
  5
156
100
AcDbEntity
  8
M01
100
AcDbLine
 10
874.002779
 20
395.660844
 30
0.0
 11
764.017497
 21
505.646125
 31
0.0
  0
LINE
  5
157
100
AcDbEntity
  8
M01
100
AcDbLine
 10
919.257613
 20
422.403622
 30
0.0
 11
919.257613
 21
440.915678
 31
0.0
  0
LINE
  5
158
100
AcDbEntity
  8
M01
100
AcDbLine
 10
892.514834
 20
395.660844
 30
0.0
 11
874.002779
 21
395.660844
 31
0.0
  0
LINE
  5
159
100
AcDbEntity
  8
DIMS
 62
     4
100
AcDbLine
 10
847.902274
 20
392.905505
 30
0.0
 11
847.902274
 21
388.105505
 31
0.0
  0
LINE
  5
15A
100
AcDbEntity
  8
DIMS
 62
     4
100
AcDbLine
 10
847.902274
 20
399.705505
 30
0.0
 11
847.902274
 21
404.505505
 31
0.0
  0
LINE
  5
15B
100
AcDbEntity
  8
DIMS
 62
     4
100
AcDbLine
 10
844.502274
 20
396.305505
 30
0.0
 11
839.702274
 21
396.305505
 31
0.0
  0
LINE
  5
15C
100
AcDbEntity
  8
DIMS
 62
     4
100
AcDbLine
 10
851.302274
 20
396.305505
 30
0.0
 11
856.102274
 21
396.305505
 31
0.0
  0
LINE
  5
15D
100
AcDbEntity
  8
DIMS
 62
     4
100
AcDbLine
 10
847.902274
 20
398.005505
 30
0.0
 11
847.902274
 21
394.605505
 31
0.0
  0
LINE
  5
15E
100
AcDbEntity
  8
DIMS
 62
     4
100
AcDbLine
 10
849.602274
 20
396.305505
 30
0.0
 11
846.202274
 21
396.305505
 31
0.0
  0
CIRCLE
  5
15F
100
AcDbEntity
  8
M03
100
AcDbCircle
 10
883.257613
 20
431.660844
 30
0.0
 40
25.0
  0
CIRCLE
  5
160
100
AcDbEntity
  8
M03
100
AcDbCircle
 10
883.257613
 20
431.660844
 30
0.0
 40
24.0
  0
CIRCLE
  5
161
100
AcDbEntity
  8
M04
100
AcDbCircle
 10
847.902274
 20
396.305505
 30
0.0
 40
6.5
  0
CIRCLE
  5
162
100
AcDbEntity
  8
M03
100
AcDbCircle
 10
883.257613
 20
431.660844
 30
0.0
 40
2.3
  0
ARC
  5
163
100
AcDbEntity
  8
M03
100
AcDbCircle
 10
883.257613
 20
431.660844
 30
0.0
 40
3.0
100
AcDbArc
 50
347.784636
 51
276.923103
  0
LINE
  5
164
100
AcDbEntity
  8
M03
100
AcDbLine
 10
882.707613
 20
437.635582
 30
0.0
 11
882.707613
 21
425.686105
 31
0.0
  0
LINE
  5
165
100
AcDbEntity
  8
M03
100
AcDbLine
 10
883.807613
 20
437.635582
 30
0.0
 11
883.807613
 21
425.686105
 31
0.0
  0
CIRCLE
  5
166
100
AcDbEntity
  8
M03
100
AcDbCircle
 10
883.257613
 20
431.660844
 30
0.0
 40
7.858882
  0
CIRCLE
  5
167
100
AcDbEntity
  8
M03
100
AcDbCircle
 10
883.257613
 20
431.660844
 30
0.0
 40
6.0
  0
CIRCLE
  5
168
100
AcDbEntity
  8
M01
100
AcDbCircle
 10
883.257613
 20
431.660844
 30
0.0
 40
4.0
  0
LINE
  5
169
100
AcDbEntity
  8
M04
100
AcDbLine
 10
654.983009
 20
502.160844
 30
0.0
 11
755.532216
 21
502.160844
 31
0.0
  0
LINE
  5
16A
100
AcDbEntity
  8
M01
100
AcDbLine
 10
654.983009
 20
509.160844
 30
0.0
 11
755.532216
 21
509.160844
 31
0.0
  0
LINE
  5
16B
100
AcDbEntity
  8
DIMS
 62
     4
100
AcDbLine
 10
922.012952
 20
621.305505
 30
0.0
 11
926.812952
 21
621.305505
 31
0.0
  0
LINE
  5
16C
100
AcDbEntity
  8
DIMS
 62
     4
100
AcDbLine
 10
915.212952
 20
621.305505
 30
0.0
 11
910.412952
 21
621.305505
 31
0.0
  0
LINE
  5
16D
100
AcDbEntity
  8
DIMS
 62
     4
100
AcDbLine
 10
918.612952
 20
617.905505
 30
0.0
 11
918.612952
 21
613.105505
 31
0.0
  0
LINE
  5
16E
100
AcDbEntity
  8
DIMS
 62
     4
100
AcDbLine
 10
918.612952
 20
624.705505
 30
0.0
 11
918.612952
 21
629.505505
 31
0.0
  0
LINE
  5
16F
100
AcDbEntity
  8
DIMS
 62
     4
100
AcDbLine
 10
916.912952
 20
621.305505
 30
0.0
 11
920.312952
 21
621.305505
 31
0.0
  0
LINE
  5
170
100
AcDbEntity
  8
DIMS
 62
     4
100
AcDbLine
 10
918.612952
 20
623.005505
 30
0.0
 11
918.612952
 21
619.605505
 31
0.0
  0
CIRCLE
  5
171
100
AcDbEntity
  8
M04
100
AcDbCircle
 10
918.612952
 20
621.305505
 30
0.0
 40
6.5
  0
LINE
  5
172
100
AcDbEntity
  8
M04
100
AcDbLine
 10
927.806534
 20
646.055436
 30
0.0
 11
866.447475
 21
584.696378
 31
0.0
  0
LINE
  5
173
100
AcDbEntity
  8
M04
100
AcDbLine
 10
872.652205
 20
701.209765
 30
0.0
 11
774.293147
 21
602.850707
 31
0.0
  0
LINE
  5
174
100
AcDbEntity
  8
M01
100
AcDbLine
 10
919.257613
 20
647.40601
 30
0.0
 11
858.497728
 21
586.646125
 31
0.0
  0
LINE
  5
175
100
AcDbEntity
  8
M01
100
AcDbLine
 10
874.002779
 20
692.660844
 30
0.0
 11
779.242894
 21
597.900959
 31
0.0
  0
LINE
  5
176
100
AcDbEntity
  8
M01
100
AcDbLine
 10
919.257613
 20
665.918065
 30
0.0
 11
919.257613
 21
647.40601
 31
0.0
  0
LINE
  5
177
100
AcDbEntity
  8
M01
100
AcDbLine
 10
892.514834
 20
692.660844
 30
0.0
 11
874.002779
 21
692.660844
 31
0.0
  0
LINE
  5
178
100
AcDbEntity
  8
DIMS
 62
     4
100
AcDbLine
 10
847.902274
 20
695.416183
 30
0.0
 11
847.902274
 21
700.216183
 31
0.0
  0
LINE
  5
179
100
AcDbEntity
  8
DIMS
 62
     4
100
AcDbLine
 10
847.902274
 20
688.616183
 30
0.0
 11
847.902274
 21
683.816183
 31
0.0
  0
LINE
  5
17A
100
AcDbEntity
  8
DIMS
 62
     4
100
AcDbLine
 10
844.502274
 20
692.016183
 30
0.0
 11
839.702274
 21
692.016183
 31
0.0
  0
LINE
  5
17B
100
AcDbEntity
  8
DIMS
 62
     4
100
AcDbLine
 10
851.302274
 20
692.016183
 30
0.0
 11
856.102274
 21
692.016183
 31
0.0
  0
LINE
  5
17C
100
AcDbEntity
  8
DIMS
 62
     4
100
AcDbLine
 10
847.902274
 20
690.316183
 30
0.0
 11
847.902274
 21
693.716183
 31
0.0
  0
LINE
  5
17D
100
AcDbEntity
  8
DIMS
 62
     4
100
AcDbLine
 10
849.602274
 20
692.016183
 30
0.0
 11
846.202274
 21
692.016183
 31
0.0
  0
CIRCLE
  5
17E
100
AcDbEntity
  8
M03
100
AcDbCircle
 10
883.257613
 20
656.660844
 30
0.0
 40
25.0
  0
CIRCLE
  5
17F
100
AcDbEntity
  8
M03
100
AcDbCircle
 10
883.257613
 20
656.660844
 30
0.0
 40
24.0
  0
CIRCLE
  5
180
100
AcDbEntity
  8
M04
100
AcDbCircle
 10
847.902274
 20
692.016183
 30
0.0
 40
6.5
  0
CIRCLE
  5
181
100
AcDbEntity
  8
M03
100
AcDbCircle
 10
883.257613
 20
656.660844
 30
0.0
 40
2.3
  0
ARC
  5
182
100
AcDbEntity
  8
M03
100
AcDbCircle
 10
883.257613
 20
656.660844
 30
0.0
 40
3.0
100
AcDbArc
 50
83.076897
 51
12.215364
  0
LINE
  5
183
100
AcDbEntity
  8
M03
100
AcDbLine
 10
882.707613
 20
650.686105
 30
0.0
 11
882.707613
 21
662.635582
 31
0.0
  0
LINE
  5
184
100
AcDbEntity
  8
M03
100
AcDbLine
 10
883.807613
 20
650.686105
 30
0.0
 11
883.807613
 21
662.635582
 31
0.0
  0
CIRCLE
  5
185
100
AcDbEntity
  8
M03
100
AcDbCircle
 10
883.257613
 20
656.660844
 30
0.0
 40
7.858882
  0
CIRCLE
  5
186
100
AcDbEntity
  8
M03
100
AcDbCircle
 10
883.257613
 20
656.660844
 30
0.0
 40
6.0
  0
CIRCLE
  5
187
100
AcDbEntity
  8
M01
100
AcDbCircle
 10
883.257613
 20
656.660844
 30
0.0
 40
4.0
  0
LINE
  5
188
100
AcDbEntity
  8
DIMS
 62
     4
100
AcDbLine
 10
697.012952
 20
467.016183
 30
0.0
 11
701.812952
 21
467.016183
 31
0.0
  0
LINE
  5
189
100
AcDbEntity
  8
DIMS
 62
     4
100
AcDbLine
 10
690.212952
 20
467.016183
 30
0.0
 11
685.412952
 21
467.016183
 31
0.0
  0
LINE
  5
18A
100
AcDbEntity
  8
DIMS
 62
     4
100
AcDbLine
 10
693.612952
 20
470.416183
 30
0.0
 11
693.612952
 21
475.216183
 31
0.0
  0
LINE
  5
18B
100
AcDbEntity
  8
DIMS
 62
     4
100
AcDbLine
 10
693.612952
 20
463.616183
 30
0.0
 11
693.612952
 21
458.816183
 31
0.0
  0
LINE
  5
18C
100
AcDbEntity
  8
DIMS
 62
     4
100
AcDbLine
 10
691.912952
 20
467.016183
 30
0.0
 11
695.312952
 21
467.016183
 31
0.0
  0
LINE
  5
18D
100
AcDbEntity
  8
DIMS
 62
     4
100
AcDbLine
 10
693.612952
 20
465.316183
 30
0.0
 11
693.612952
 21
468.716183
 31
0.0
  0
CIRCLE
  5
18E
100
AcDbEntity
  8
M04
100
AcDbCircle
 10
693.612952
 20
467.016183
 30
0.0
 40
6.5
  0
LINE
  5
18F
100
AcDbEntity
  8
DIMS
 62
     4
100
AcDbLine
 10
622.902274
 20
392.905505
 30
0.0
 11
622.902274
 21
388.105505
 31
0.0
  0
LINE
  5
190
100
AcDbEntity
  8
DIMS
 62
     4
100
AcDbLine
 10
622.902274
 20
399.705505
 30
0.0
 11
622.902274
 21
404.505505
 31
0.0
  0
LINE
  5
191
100
AcDbEntity
  8
DIMS
 62
     4
100
AcDbLine
 10
619.502274
 20
396.305505
 30
0.0
 11
614.702274
 21
396.305505
 31
0.0
  0
LINE
  5
192
100
AcDbEntity
  8
DIMS
 62
     4
100
AcDbLine
 10
626.302274
 20
396.305505
 30
0.0
 11
631.102274
 21
396.305505
 31
0.0
  0
LINE
  5
193
100
AcDbEntity
  8
DIMS
 62
     4
100
AcDbLine
 10
622.902274
 20
398.005505
 30
0.0
 11
622.902274
 21
394.605505
 31
0.0
  0
LINE
  5
194
100
AcDbEntity
  8
DIMS
 62
     4
100
AcDbLine
 10
624.602274
 20
396.305505
 30
0.0
 11
621.202274
 21
396.305505
 31
0.0
  0
CIRCLE
  5
195
100
AcDbEntity
  8
M04
100
AcDbCircle
 10
622.902274
 20
396.305505
 30
0.0
 40
6.5
  0
LINE
  5
196
100
AcDbEntity
  8
M04
100
AcDbLine
 10
702.806534
 20
442.266252
 30
0.0
 11
651.447475
 21
493.62531
 31
0.0
  0
LINE
  5
197
100
AcDbEntity
  8
M04
100
AcDbLine
 10
647.652205
 20
387.111923
 30
0.0
 11
549.293146
 21
485.470981
 31
0.0
  0
LINE
  5
198
100
AcDbEntity
  8
M01
100
AcDbLine
 10
694.257613
 20
440.915678
 30
0.0
 11
646.497728
 21
488.675563
 31
0.0
  0
LINE
  5
199
100
AcDbEntity
  8
M01
100
AcDbLine
 10
649.002779
 20
395.660844
 30
0.0
 11
554.242894
 21
490.420729
 31
0.0
  0
LINE
  5
19A
100
AcDbEntity
  8
M01
100
AcDbLine
 10
694.257613
 20
422.403622
 30
0.0
 11
694.257613
 21
440.915678
 31
0.0
  0
LINE
  5
19B
100
AcDbEntity
  8
M01
100
AcDbLine
 10
667.514834
 20
395.660844
 30
0.0
 11
649.002779
 21
395.660844
 31
0.0
  0
CIRCLE
  5
19C
100
AcDbEntity
  8
M03
100
AcDbCircle
 10
658.257613
 20
431.660844
 30
0.0
 40
25.0
  0
CIRCLE
  5
19D
100
AcDbEntity
  8
M03
100
AcDbCircle
 10
658.257613
 20
431.660844
 30
0.0
 40
24.0
  0
CIRCLE
  5
19E
100
AcDbEntity
  8
M03
100
AcDbCircle
 10
658.257613
 20
431.660844
 30
0.0
 40
2.3
  0
ARC
  5
19F
100
AcDbEntity
  8
M03
100
AcDbCircle
 10
658.257613
 20
431.660844
 30
0.0
 40
3.0
100
AcDbArc
 50
347.784636
 51
276.923103
  0
LINE
  5
1A0
100
AcDbEntity
  8
M03
100
AcDbLine
 10
657.707613
 20
437.635582
 30
0.0
 11
657.707613
 21
425.686105
 31
0.0
  0
LINE
  5
1A1
100
AcDbEntity
  8
M03
100
AcDbLine
 10
658.807613
 20
437.635582
 30
0.0
 11
658.807613
 21
425.686105
 31
0.0
  0
CIRCLE
  5
1A2
100
AcDbEntity
  8
M03
100
AcDbCircle
 10
658.257613
 20
431.660844
 30
0.0
 40
7.858882
  0
CIRCLE
  5
1A3
100
AcDbEntity
  8
M03
100
AcDbCircle
 10
658.257613
 20
431.660844
 30
0.0
 40
6.0
  0
CIRCLE
  5
1A4
100
AcDbEntity
  8
M01
100
AcDbCircle
 10
658.257613
 20
431.660844
 30
0.0
 40
4.0
  0
LINE
  5
1A5
100
AcDbEntity
  8
DIMS
 62
     4
100
AcDbLine
 10
619.502274
 20
621.305505
 30
0.0
 11
614.702274
 21
621.305505
 31
0.0
  0
LINE
  5
1A6
100
AcDbEntity
  8
DIMS
 62
     4
100
AcDbLine
 10
626.302274
 20
621.305505
 30
0.0
 11
631.102274
 21
621.305505
 31
0.0
  0
LINE
  5
1A7
100
AcDbEntity
  8
DIMS
 62
     4
100
AcDbLine
 10
622.902274
 20
617.905505
 30
0.0
 11
622.902274
 21
613.105505
 31
0.0
  0
LINE
  5
1A8
100
AcDbEntity
  8
DIMS
 62
     4
100
AcDbLine
 10
622.902274
 20
624.705505
 30
0.0
 11
622.902274
 21
629.505505
 31
0.0
  0
LINE
  5
1A9
100
AcDbEntity
  8
DIMS
 62
     4
100
AcDbLine
 10
624.602274
 20
621.305505
 30
0.0
 11
621.202274
 21
621.305505
 31
0.0
  0
LINE
  5
1AA
100
AcDbEntity
  8
DIMS
 62
     4
100
AcDbLine
 10
622.902274
 20
623.005505
 30
0.0
 11
622.902274
 21
619.605505
 31
0.0
  0
CIRCLE
  5
1AB
100
AcDbEntity
  8
M04
100
AcDbCircle
 10
622.902274
 20
621.305505
 30
0.0
 40
6.5
  0
LINE
  5
1AC
100
AcDbEntity
  8
DIMS
 62
     4
100
AcDbLine
 10
394.502274
 20
467.016183
 30
0.0
 11
389.702274
 21
467.016183
 31
0.0
  0
LINE
  5
1AD
100
AcDbEntity
  8
DIMS
 62
     4
100
AcDbLine
 10
401.302274
 20
467.016183
 30
0.0
 11
406.102274
 21
467.016183
 31
0.0
  0
LINE
  5
1AE
100
AcDbEntity
  8
DIMS
 62
     4
100
AcDbLine
 10
397.902274
 20
470.416183
 30
0.0
 11
397.902274
 21
475.216183
 31
0.0
  0
LINE
  5
1AF
100
AcDbEntity
  8
DIMS
 62
     4
100
AcDbLine
 10
397.902274
 20
463.616183
 30
0.0
 11
397.902274
 21
458.816183
 31
0.0
  0
LINE
  5
1B0
100
AcDbEntity
  8
DIMS
 62
     4
100
AcDbLine
 10
399.602274
 20
467.016183
 30
0.0
 11
396.202274
 21
467.016183
 31
0.0
  0
LINE
  5
1B1
100
AcDbEntity
  8
DIMS
 62
     4
100
AcDbLine
 10
397.902274
 20
465.316183
 30
0.0
 11
397.902274
 21
468.716183
 31
0.0
  0
CIRCLE
  5
1B2
100
AcDbEntity
  8
M04
100
AcDbCircle
 10
397.902274
 20
467.016183
 30
0.0
 40
6.5
  0
LINE
  5
1B3
100
AcDbEntity
  8
DIMS
 62
     4
100
AcDbLine
 10
468.612952
 20
392.905505
 30
0.0
 11
468.612952
 21
388.105505
 31
0.0
  0
LINE
  5
1B4
100
AcDbEntity
  8
DIMS
 62
     4
100
AcDbLine
 10
468.612952
 20
399.705505
 30
0.0
 11
468.612952
 21
404.505505
 31
0.0
  0
LINE
  5
1B5
100
AcDbEntity
  8
DIMS
 62
     4
100
AcDbLine
 10
472.012952
 20
396.305505
 30
0.0
 11
476.812952
 21
396.305505
 31
0.0
  0
LINE
  5
1B6
100
AcDbEntity
  8
DIMS
 62
     4
100
AcDbLine
 10
465.212952
 20
396.305505
 30
0.0
 11
460.412952
 21
396.305505
 31
0.0
  0
LINE
  5
1B7
100
AcDbEntity
  8
DIMS
 62
     4
100
AcDbLine
 10
468.612952
 20
398.005505
 30
0.0
 11
468.612952
 21
394.605505
 31
0.0
  0
LINE
  5
1B8
100
AcDbEntity
  8
DIMS
 62
     4
100
AcDbLine
 10
466.912952
 20
396.305505
 30
0.0
 11
470.312952
 21
396.305505
 31
0.0
  0
CIRCLE
  5
1B9
100
AcDbEntity
  8
M04
100
AcDbCircle
 10
468.612952
 20
396.305505
 30
0.0
 40
6.5
  0
LINE
  5
1BA
100
AcDbEntity
  8
M04
100
AcDbLine
 10
388.708692
 20
442.266252
 30
0.0
 11
450.06775
 21
503.62531
 31
0.0
  0
LINE
  5
1BB
100
AcDbEntity
  8
M04
100
AcDbLine
 10
443.86302
 20
387.111923
 30
0.0
 11
542.222079
 21
485.470981
 31
0.0
  0
LINE
  5
1BC
100
AcDbEntity
  8
M01
100
AcDbLine
 10
397.257613
 20
440.915678
 30
0.0
 11
458.017497
 21
501.675563
 31
0.0
  0
LINE
  5
1BD
100
AcDbEntity
  8
M01
100
AcDbLine
 10
442.512447
 20
395.660844
 30
0.0
 11
537.272331
 21
490.420729
 31
0.0
  0
LINE
  5
1BE
100
AcDbEntity
  8
M01
100
AcDbLine
 10
397.257613
 20
422.403622
 30
0.0
 11
397.257613
 21
440.915678
 31
0.0
  0
LINE
  5
1BF
100
AcDbEntity
  8
M01
100
AcDbLine
 10
424.000391
 20
395.660844
 30
0.0
 11
442.512447
 21
395.660844
 31
0.0
  0
CIRCLE
  5
1C0
100
AcDbEntity
  8
M03
100
AcDbCircle
 10
433.257613
 20
431.660844
 30
0.0
 40
25.0
  0
CIRCLE
  5
1C1
100
AcDbEntity
  8
M03
100
AcDbCircle
 10
433.257613
 20
431.660844
 30
0.0
 40
24.0
  0
CIRCLE
  5
1C2
100
AcDbEntity
  8
M03
100
AcDbCircle
 10
433.257613
 20
431.660844
 30
0.0
 40
2.3
  0
ARC
  5
1C3
100
AcDbEntity
  8
M03
100
AcDbCircle
 10
433.257613
 20
431.660844
 30
0.0
 40
3.0
100
AcDbArc
 50
263.076897
 51
192.215364
  0
LINE
  5
1C4
100
AcDbEntity
  8
M03
100
AcDbLine
 10
433.807613
 20
437.635582
 30
0.0
 11
433.807613
 21
425.686105
 31
0.0
  0
LINE
  5
1C5
100
AcDbEntity
  8
M03
100
AcDbLine
 10
432.707613
 20
437.635582
 30
0.0
 11
432.707613
 21
425.686105
 31
0.0
  0
CIRCLE
  5
1C6
100
AcDbEntity
  8
M03
100
AcDbCircle
 10
433.257613
 20
431.660844
 30
0.0
 40
7.858882
  0
CIRCLE
  5
1C7
100
AcDbEntity
  8
M03
100
AcDbCircle
 10
433.257613
 20
431.660844
 30
0.0
 40
6.0
  0
CIRCLE
  5
1C8
100
AcDbEntity
  8
M01
100
AcDbCircle
 10
433.257613
 20
431.660844
 30
0.0
 40
4.0
  0
LINE
  5
1C9
100
AcDbEntity
  8
M04
100
AcDbLine
 10
613.708692
 20
646.055436
 30
0.0
 11
665.06775
 21
594.696378
 31
0.0
  0
LINE
  5
1CA
100
AcDbEntity
  8
M04
100
AcDbLine
 10
668.86302
 20
701.209765
 30
0.0
 11
767.222079
 21
602.850707
 31
0.0
  0
LINE
  5
1CB
100
AcDbEntity
  8
M01
100
AcDbLine
 10
622.257613
 20
647.40601
 30
0.0
 11
670.017497
 21
599.646125
 31
0.0
  0
LINE
  5
1CC
100
AcDbEntity
  8
M01
100
AcDbLine
 10
667.512447
 20
692.660844
 30
0.0
 11
762.272331
 21
597.900959
 31
0.0
  0
LINE
  5
1CD
100
AcDbEntity
  8
M01
100
AcDbLine
 10
622.257613
 20
665.918065
 30
0.0
 11
622.257613
 21
647.40601
 31
0.0
  0
LINE
  5
1CE
100
AcDbEntity
  8
M01
100
AcDbLine
 10
649.000391
 20
692.660844
 30
0.0
 11
667.512447
 21
692.660844
 31
0.0
  0
LINE
  5
1CF
100
AcDbEntity
  8
DIMS
 62
     4
100
AcDbLine
 10
693.612952
 20
695.416183
 30
0.0
 11
693.612952
 21
700.216183
 31
0.0
  0
LINE
  5
1D0
100
AcDbEntity
  8
DIMS
 62
     4
100
AcDbLine
 10
693.612952
 20
688.616183
 30
0.0
 11
693.612952
 21
683.816183
 31
0.0
  0
LINE
  5
1D1
100
AcDbEntity
  8
DIMS
 62
     4
100
AcDbLine
 10
697.012952
 20
692.016183
 30
0.0
 11
701.812952
 21
692.016183
 31
0.0
  0
LINE
  5
1D2
100
AcDbEntity
  8
DIMS
 62
     4
100
AcDbLine
 10
690.212952
 20
692.016183
 30
0.0
 11
685.412952
 21
692.016183
 31
0.0
  0
LINE
  5
1D3
100
AcDbEntity
  8
DIMS
 62
     4
100
AcDbLine
 10
693.612952
 20
690.316183
 30
0.0
 11
693.612952
 21
693.716183
 31
0.0
  0
LINE
  5
1D4
100
AcDbEntity
  8
DIMS
 62
     4
100
AcDbLine
 10
691.912952
 20
692.016183
 30
0.0
 11
695.312952
 21
692.016183
 31
0.0
  0
CIRCLE
  5
1D5
100
AcDbEntity
  8
M03
100
AcDbCircle
 10
658.257613
 20
656.660844
 30
0.0
 40
25.0
  0
CIRCLE
  5
1D6
100
AcDbEntity
  8
M03
100
AcDbCircle
 10
658.257613
 20
656.660844
 30
0.0
 40
24.0
  0
CIRCLE
  5
1D7
100
AcDbEntity
  8
M04
100
AcDbCircle
 10
693.612952
 20
692.016183
 30
0.0
 40
6.5
  0
CIRCLE
  5
1D8
100
AcDbEntity
  8
M03
100
AcDbCircle
 10
658.257613
 20
656.660844
 30
0.0
 40
2.3
  0
ARC
  5
1D9
100
AcDbEntity
  8
M03
100
AcDbCircle
 10
658.257613
 20
656.660844
 30
0.0
 40
3.0
100
AcDbArc
 50
167.784636
 51
96.923103
  0
LINE
  5
1DA
100
AcDbEntity
  8
M03
100
AcDbLine
 10
658.807613
 20
650.686105
 30
0.0
 11
658.807613
 21
662.635582
 31
0.0
  0
LINE
  5
1DB
100
AcDbEntity
  8
M03
100
AcDbLine
 10
657.707613
 20
650.686105
 30
0.0
 11
657.707613
 21
662.635582
 31
0.0
  0
CIRCLE
  5
1DC
100
AcDbEntity
  8
M03
100
AcDbCircle
 10
658.257613
 20
656.660844
 30
0.0
 40
7.858882
  0
CIRCLE
  5
1DD
100
AcDbEntity
  8
M03
100
AcDbCircle
 10
658.257613
 20
656.660844
 30
0.0
 40
6.0
  0
CIRCLE
  5
1DE
100
AcDbEntity
  8
M01
100
AcDbCircle
 10
658.257613
 20
656.660844
 30
0.0
 40
4.0
  0
LINE
  5
1DF
100
AcDbEntity
  8
DIMS
 62
     4
100
AcDbLine
 10
394.502274
 20
621.305505
 30
0.0
 11
389.702274
 21
621.305505
 31
0.0
  0
LINE
  5
1E0
100
AcDbEntity
  8
DIMS
 62
     4
100
AcDbLine
 10
401.302274
 20
621.305505
 30
0.0
 11
406.102274
 21
621.305505
 31
0.0
  0
LINE
  5
1E1
100
AcDbEntity
  8
DIMS
 62
     4
100
AcDbLine
 10
397.902274
 20
617.905505
 30
0.0
 11
397.902274
 21
613.105505
 31
0.0
  0
LINE
  5
1E2
100
AcDbEntity
  8
DIMS
 62
     4
100
AcDbLine
 10
397.902274
 20
624.705505
 30
0.0
 11
397.902274
 21
629.505505
 31
0.0
  0
LINE
  5
1E3
100
AcDbEntity
  8
DIMS
 62
     4
100
AcDbLine
 10
399.602274
 20
621.305505
 30
0.0
 11
396.202274
 21
621.305505
 31
0.0
  0
LINE
  5
1E4
100
AcDbEntity
  8
DIMS
 62
     4
100
AcDbLine
 10
397.902274
 20
623.005505
 30
0.0
 11
397.902274
 21
619.605505
 31
0.0
  0
CIRCLE
  5
1E5
100
AcDbEntity
  8
M04
100
AcDbCircle
 10
397.902274
 20
621.305505
 30
0.0
 40
6.5
  0
LINE
  5
1E6
100
AcDbEntity
  8
M04
100
AcDbLine
 10
388.708692
 20
646.055436
 30
0.0
 11
450.06775
 21
584.696378
 31
0.0
  0
LINE
  5
1E7
100
AcDbEntity
  8
M04
100
AcDbLine
 10
443.86302
 20
701.209765
 30
0.0
 11
557.447475
 21
587.62531
 31
0.0
  0
LINE
  5
1E8
100
AcDbEntity
  8
M01
100
AcDbLine
 10
397.257613
 20
647.40601
 30
0.0
 11
458.017497
 21
586.646125
 31
0.0
  0
LINE
  5
1E9
100
AcDbEntity
  8
M01
100
AcDbLine
 10
442.512447
 20
692.660844
 30
0.0
 11
552.497728
 21
582.675563
 31
0.0
  0
LINE
  5
1EA
100
AcDbEntity
  8
M01
100
AcDbLine
 10
397.257613
 20
665.918065
 30
0.0
 11
397.257613
 21
647.40601
 31
0.0
  0
LINE
  5
1EB
100
AcDbEntity
  8
M01
100
AcDbLine
 10
424.000391
 20
692.660844
 30
0.0
 11
442.512447
 21
692.660844
 31
0.0
  0
LINE
  5
1EC
100
AcDbEntity
  8
DIMS
 62
     4
100
AcDbLine
 10
468.612952
 20
695.416183
 30
0.0
 11
468.612952
 21
700.216183
 31
0.0
  0
LINE
  5
1ED
100
AcDbEntity
  8
DIMS
 62
     4
100
AcDbLine
 10
468.612952
 20
688.616183
 30
0.0
 11
468.612952
 21
683.816183
 31
0.0
  0
LINE
  5
1EE
100
AcDbEntity
  8
DIMS
 62
     4
100
AcDbLine
 10
472.012952
 20
692.016183
 30
0.0
 11
476.812952
 21
692.016183
 31
0.0
  0
LINE
  5
1EF
100
AcDbEntity
  8
DIMS
 62
     4
100
AcDbLine
 10
465.212952
 20
692.016183
 30
0.0
 11
460.412952
 21
692.016183
 31
0.0
  0
LINE
  5
1F0
100
AcDbEntity
  8
DIMS
 62
     4
100
AcDbLine
 10
468.612952
 20
690.316183
 30
0.0
 11
468.612952
 21
693.716183
 31
0.0
  0
LINE
  5
1F1
100
AcDbEntity
  8
DIMS
 62
     4
100
AcDbLine
 10
466.912952
 20
692.016183
 30
0.0
 11
470.312952
 21
692.016183
 31
0.0
  0
CIRCLE
  5
1F2
100
AcDbEntity
  8
M03
100
AcDbCircle
 10
433.257613
 20
656.660844
 30
0.0
 40
25.0
  0
CIRCLE
  5
1F3
100
AcDbEntity
  8
M03
100
AcDbCircle
 10
433.257613
 20
656.660844
 30
0.0
 40
24.0
  0
CIRCLE
  5
1F4
100
AcDbEntity
  8
M04
100
AcDbCircle
 10
468.612952
 20
692.016183
 30
0.0
 40
6.5
  0
HATCH
  5
1F5
100
AcDbEntity
  8
M03
100
AcDbHatch
 10
0.0
 20
0.0
 30
0.0
210
0.0
220
0.0
230
1.0
  2
_U
 70
     0
 71
     0
 91
        1
 92
        7
 72
     0
 73
     1
 93
        4
 10
460.8946482969249
 20
668.7632092570622
 10
440.2199353733886
 20
689.4379221805984
 10
441.5634382576429
 20
690.781425064853
 10
462.2381511811793
 20
670.1067121413164
 97
        0
 75
     0
 76
     0
 52
285.0
 41
0.7
 77
     0
 78
     1
 53
345.0
 43
399.60196
 44
1302.047621
 45
-0.1811733315717643
 46
-0.676148078402348
 79
     0
 47
0.060863
 98
        1
 10
459.124236
 20
672.212902
  0
HATCH
  5
1F6
100
AcDbEntity
  8
M03
100
AcDbHatch
 10
0.0
 20
0.0
 30
0.0
210
0.0
220
0.0
230
1.0
  2
_U
 70
     0
 71
     0
 91
        1
 92
        7
 72
     0
 73
     1
 93
        4
 10
460.8946482969249
 20
668.763209257062
 10
440.2199353733884
 20
689.4379221805985
 10
441.5634382576429
 20
690.781425064853
 10
462.2381511811793
 20
670.1067121413164
 97
        0
 75
     0
 76
     0
 52
-15.0
 41
0.7
 77
     0
 78
     1
 53
285.0
 43
399.60196
 44
1302.047621
 45
-0.6761480784023478
 46
-0.1811733315717645
 79
     0
 47
0.060863
 98
        1
 10
458.822927
 20
672.169918
  0
LINE
  5
1F7
100
AcDbEntity
  8
M03
100
AcDbLine
 10
463.020963
 20
647.40359
 30
0.0
 11
460.455646
 21
648.090965
 31
0.0
  0
LINE
  5
1F8
100
AcDbEntity
  8
M03
100
AcDbLine
 10
459.768272
 20
650.656282
 30
0.0
 11
460.455646
 21
648.090965
 31
0.0
  0
LINE
  5
1F9
100
AcDbEntity
  8
M03
100
AcDbLine
 10
459.768272
 20
650.656282
 30
0.0
 11
463.020963
 21
647.40359
 31
0.0
  0
LINE
  5
1FA
100
AcDbEntity
  8
M03
100
AcDbLine
 10
460.333957
 20
652.211916
 30
0.0
 11
464.576598
 21
647.969276
 31
0.0
  0
LINE
  5
1FB
100
AcDbEntity
  8
M03
100
AcDbLine
 10
460.894648
 20
668.763209
 30
0.0
 11
440.219935
 21
689.437922
 31
0.0
  0
LINE
  5
1FC
100
AcDbEntity
  8
M03
100
AcDbLine
 10
462.238151
 20
670.106712
 30
0.0
 11
441.563438
 21
690.781425
 31
0.0
  0
LINE
  5
1FD
100
AcDbEntity
  8
M03
100
AcDbLine
 10
465.632264
 20
663.60133
 30
0.0
 11
475.748885
 21
653.484709
 31
0.0
  0
LINE
  5
1FE
100
AcDbEntity
  8
M03
100
AcDbLine
 10
464.327818
 20
663.774404
 30
0.0
 11
464.893504
 21
664.34009
 31
0.0
  0
LINE
  5
1FF
100
AcDbEntity
  8
M03
100
AcDbLine
 10
460.682516
 20
668.551077
 30
0.0
 11
462.450283
 21
670.318844
 31
0.0
  0
LINE
  5
200
100
AcDbEntity
  8
M03
100
AcDbLine
 10
462.450283
 20
670.318844
 30
0.0
 11
467.400031
 21
665.369097
 31
0.0
  0
LINE
  5
201
100
AcDbEntity
  8
M03
100
AcDbLine
 10
465.632264
 20
663.60133
 30
0.0
 11
467.400031
 21
665.369097
 31
0.0
  0
LINE
  5
202
100
AcDbEntity
  8
M03
100
AcDbLine
 10
475.183199
 20
652.919023
 30
0.0
 11
475.748885
 21
653.484709
 31
0.0
  0
ARC
  5
203
100
AcDbEntity
  8
M03
100
AcDbCircle
 10
469.012889
 20
656.648208
 30
0.0
 40
5.826136
100
AcDbArc
 50
340.69541
 51
109.30459
  0
LINE
  5
204
100
AcDbEntity
  8
M03
100
AcDbLine
 10
466.344365
 20
649.737043
 30
0.0
 11
465.354415
 21
649.737043
 31
0.0
  0
LINE
  5
205
100
AcDbEntity
  8
M03
100
AcDbLine
 10
462.101724
 20
653.979683
 30
0.0
 11
462.101724
 21
652.989734
 31
0.0
  0
LINE
  5
206
100
AcDbEntity
  8
M03
100
AcDbLine
 10
462.101724
 20
653.979683
 30
0.0
 11
466.344365
 21
649.737043
 31
0.0
  0
LINE
  5
207
100
AcDbEntity
  8
M03
100
AcDbLine
 10
462.101724
 20
652.989734
 30
0.0
 11
465.354415
 21
649.737043
 31
0.0
  0
LINE
  5
208
100
AcDbEntity
  8
M03
100
AcDbLine
 10
472.354772
 20
655.74745
 30
0.0
 11
477.30452
 21
650.797703
 31
0.0
  0
LINE
  5
209
100
AcDbEntity
  8
M03
100
AcDbLine
 10
460.546089
 20
667.556134
 30
0.0
 11
461.111774
 21
668.121819
 31
0.0
  0
LINE
  5
20A
100
AcDbEntity
  8
M03
100
AcDbLine
 10
472.849747
 20
655.252476
 30
0.0
 11
473.415432
 21
655.818161
 31
0.0
  0
LINE
  5
20B
100
AcDbEntity
  8
M03
100
AcDbLine
 10
463.020963
 20
647.40359
 30
0.0
 11
472.425483
 21
656.808111
 31
0.0
  0
LINE
  5
20C
100
AcDbEntity
  8
M03
100
AcDbLine
 10
459.768272
 20
650.656282
 30
0.0
 11
469.172792
 21
660.060802
 31
0.0
  0
LINE
  5
20D
100
AcDbEntity
  8
M03
100
AcDbLine
 10
460.333957
 20
652.211916
 30
0.0
 11
468.677817
 21
660.555776
 31
0.0
  0
LINE
  5
20E
100
AcDbEntity
  8
M03
100
AcDbLine
 10
464.576598
 20
647.969276
 30
0.0
 11
472.920458
 21
656.313136
 31
0.0
  0
LINE
  5
20F
100
AcDbEntity
  8
M03
100
AcDbLine
 10
460.682516
 20
668.551077
 30
0.0
 11
464.893504
 21
664.34009
 31
0.0
  0
LINE
  5
210
100
AcDbEntity
  8
M03
100
AcDbLine
 10
477.30452
 20
650.797703
 30
0.0
 11
480.840054
 21
654.333237
 31
0.0
  0
LINE
  5
211
100
AcDbEntity
  8
M03
100
AcDbLine
 10
435.441379
 20
692.660844
 30
0.0
 11
468.112132
 21
659.990091
 31
0.0
  0
LINE
  5
212
100
AcDbEntity
  8
CENTRE
100
AcDbLine
 10
457.365047
 20
645.000365
 30
0.0
 11
476.570173
 21
664.205492
 31
0.0
  0
LINE
  5
213
100
AcDbEntity
  8
M03
100
AcDbLine
 10
436.08604
 20
659.489271
 30
0.0
 11
661.08604
 21
434.489271
 31
0.0
  0
LINE
  5
214
100
AcDbEntity
  8
M03
100
AcDbLine
 10
430.429185
 20
653.832417
 30
0.0
 11
540.100758
 21
544.160844
 31
0.0
  0
LINE
  5
215
100
AcDbEntity
  8
CENTRE
100
AcDbLine
 10
412.044409
 20
677.874047
 30
0.0
 11
679.470816
 21
410.44764
 31
0.0
  0
LINE
  5
216
100
AcDbEntity
  8
M03
100
AcDbLine
 10
776.414467
 20
544.160844
 30
0.0
 11
886.08604
 21
434.489271
 31
0.0
  0
LINE
  5
217
100
AcDbEntity
  8
M03
100
AcDbLine
 10
436.08604
 20
428.832417
 30
0.0
 11
545.757613
 21
538.50399
 31
0.0
  0
LINE
  5
218
100
AcDbEntity
  8
M03
100
AcDbLine
 10
430.429185
 20
434.489271
 30
0.0
 11
540.100758
 21
544.160844
 31
0.0
  0
LINE
  5
219
100
AcDbEntity
  8
CENTRE
100
AcDbLine
 10
412.044409
 20
410.44764
 30
0.0
 11
545.757613
 21
544.160844
 31
0.0
  0
LINE
  5
21A
100
AcDbEntity
  8
M04
100
AcDbLine
 10
560.983009
 20
586.160844
 30
0.0
 11
661.532216
 21
586.160844
 31
0.0
  0
LINE
  5
21B
100
AcDbEntity
  8
M03
100
AcDbLine
 10
545.757613
 20
540.160844
 30
0.0
 11
770.757613
 21
540.160844
 31
0.0
  0
LINE
  5
21C
100
AcDbEntity
  8
M03
100
AcDbLine
 10
545.757613
 20
548.160844
 30
0.0
 11
770.757613
 21
548.160844
 31
0.0
  0
LINE
  5
21D
100
AcDbEntity
  8
DIMS
100
AcDbLine
 10
901.188449
 20
709.80877
 30
0.0
 11
918.796994
 21
692.200225
 31
0.0
  0
INSERT
  5
21E
100
AcDbEntity
  8
DIMS
100
AcDbBlockReference
  2
ARROW1
 10
901.188449
 20
709.80877
 30
0.0
 41
10.0
 42
10.0
 43
10.0
 50
135.0
  0
LINE
  5
225
100
AcDbEntity
  8
DIMS
100
AcDbLine
 10
277.635032
 20
569.063087
 30
0.0
 11
277.635032
 21
544.160844
 31
0.0
  0
INSERT
  5
226
100
AcDbEntity
  8
DIMS
100
AcDbBlockReference
  2
ARROW1
 10
277.635032
 20
569.063087
 30
0.0
 41
10.0
 42
10.0
 43
10.0
 50
90.0
  0
LINE
  5
227
100
AcDbEntity
  8
M01
100
AcDbLine
 10
969.201713
 20
559.410844
 30
0.0
 11
969.201713
 21
552.910844
 31
0.0
  0
LINE
  5
228
100
AcDbEntity
  8
M01
100
AcDbLine
 10
977.313512
 20
559.410844
 30
0.0
 11
977.313512
 21
552.910844
 31
0.0
  0
LINE
  5
229
100
AcDbEntity
  8
M01
100
AcDbLine
 10
969.201713
 20
559.410844
 30
0.0
 11
967.257613
 21
559.410844
 31
0.0
  0
ARC
  5
22A
100
AcDbEntity
  8
M01
100
AcDbCircle
 10
970.762962
 20
560.660844
 30
0.0
 40
2.0
100
AcDbArc
 50
218.682187
 51
270.0
  0
ARC
  5
22B
100
AcDbEntity
  8
M01
100
AcDbCircle
 10
975.752263
 20
560.660844
 30
0.0
 40
2.0
100
AcDbArc
 50
270.0
 51
321.317813
  0
LINE
  5
22C
100
AcDbEntity
  8
M01
100
AcDbLine
 10
979.257613
 20
559.410844
 30
0.0
 11
977.313512
 21
559.410844
 31
0.0
  0
LINE
  5
22D
100
AcDbEntity
  8
M01
100
AcDbLine
 10
975.752263
 20
558.660844
 30
0.0
 11
970.762962
 21
558.660844
 31
0.0
  0
LINE
  5
22E
100
AcDbEntity
  8
M01
100
AcDbLine
 10
969.201713
 20
552.910844
 30
0.0
 11
967.257613
 21
552.910844
 31
0.0
  0
ARC
  5
22F
100
AcDbEntity
  8
M01
100
AcDbCircle
 10
970.762962
 20
551.660844
 30
0.0
 40
2.0
100
AcDbArc
 50
90.0
 51
141.317813
  0
ARC
  5
230
100
AcDbEntity
  8
M01
100
AcDbCircle
 10
975.752263
 20
551.660844
 30
0.0
 40
2.0
100
AcDbArc
 50
38.682187
 51
90.0
  0
LINE
  5
231
100
AcDbEntity
  8
M01
100
AcDbLine
 10
979.257613
 20
552.910844
 30
0.0
 11
977.313512
 21
552.910844
 31
0.0
  0
LINE
  5
232
100
AcDbEntity
  8
M01
100
AcDbLine
 10
975.752263
 20
553.660844
 30
0.0
 11
970.762962
 21
553.660844
 31
0.0
  0
LINE
  5
233
100
AcDbEntity
  8
M01
100
AcDbLine
 10
979.257613
 20
551.660844
 30
0.0
 11
979.257613
 21
560.660844
 31
0.0
  0
LINE
  5
234
100
AcDbEntity
  8
M01
100
AcDbLine
 10
980.057613
 20
560.660844
 30
0.0
 11
979.257613
 21
560.660844
 31
0.0
  0
LINE
  5
235
100
AcDbEntity
  8
M01
100
AcDbLine
 10
980.057613
 20
551.660844
 30
0.0
 11
979.257613
 21
551.660844
 31
0.0
  0
LINE
  5
236
100
AcDbEntity
  8
M01
100
AcDbLine
 10
969.201713
 20
528.910844
 30
0.0
 11
969.201713
 21
535.410844
 31
0.0
  0
LINE
  5
237
100
AcDbEntity
  8
M01
100
AcDbLine
 10
977.313512
 20
528.910844
 30
0.0
 11
977.313512
 21
535.410844
 31
0.0
  0
LINE
  5
238
100
AcDbEntity
  8
M01
100
AcDbLine
 10
969.201713
 20
528.910844
 30
0.0
 11
967.257613
 21
528.910844
 31
0.0
  0
ARC
  5
239
100
AcDbEntity
  8
M01
100
AcDbCircle
 10
970.762962
 20
527.660844
 30
0.0
 40
2.0
100
AcDbArc
 50
90.0
 51
141.317813
  0
ARC
  5
23A
100
AcDbEntity
  8
M01
100
AcDbCircle
 10
975.752263
 20
527.660844
 30
0.0
 40
2.0
100
AcDbArc
 50
38.682187
 51
90.0
  0
LINE
  5
23B
100
AcDbEntity
  8
M01
100
AcDbLine
 10
979.257613
 20
528.910844
 30
0.0
 11
977.313512
 21
528.910844
 31
0.0
  0
LINE
  5
23C
100
AcDbEntity
  8
M01
100
AcDbLine
 10
975.752263
 20
529.660844
 30
0.0
 11
970.762962
 21
529.660844
 31
0.0
  0
LINE
  5
23D
100
AcDbEntity
  8
M01
100
AcDbLine
 10
969.201713
 20
535.410844
 30
0.0
 11
967.257613
 21
535.410844
 31
0.0
  0
ARC
  5
23E
100
AcDbEntity
  8
M01
100
AcDbCircle
 10
970.762962
 20
536.660844
 30
0.0
 40
2.0
100
AcDbArc
 50
218.682187
 51
270.0
  0
ARC
  5
23F
100
AcDbEntity
  8
M01
100
AcDbCircle
 10
975.752263
 20
536.660844
 30
0.0
 40
2.0
100
AcDbArc
 50
270.0
 51
321.317813
  0
LINE
  5
240
100
AcDbEntity
  8
M01
100
AcDbLine
 10
979.257613
 20
535.410844
 30
0.0
 11
977.313512
 21
535.410844
 31
0.0
  0
LINE
  5
241
100
AcDbEntity
  8
M01
100
AcDbLine
 10
975.752263
 20
534.660844
 30
0.0
 11
970.762962
 21
534.660844
 31
0.0
  0
LINE
  5
242
100
AcDbEntity
  8
M01
100
AcDbLine
 10
962.257613
 20
561.160844
 30
0.0
 11
962.257613
 21
551.160844
 31
0.0
  0
LINE
  5
243
100
AcDbEntity
  8
M01
100
AcDbLine
 10
962.257613
 20
527.160844
 30
0.0
 11
962.257613
 21
537.160844
 31
0.0
  0
LINE
  5
244
100
AcDbEntity
  8
M01
100
AcDbLine
 10
967.257613
 20
527.160844
 30
0.0
 11
947.257613
 21
527.160844
 31
0.0
  0
LINE
  5
245
100
AcDbEntity
  8
M01
100
AcDbLine
 10
967.257613
 20
537.160844
 30
0.0
 11
947.257613
 21
537.160844
 31
0.0
  0
LINE
  5
246
100
AcDbEntity
  8
M01
100
AcDbLine
 10
967.257613
 20
551.160844
 30
0.0
 11
947.257613
 21
551.160844
 31
0.0
  0
LINE
  5
247
100
AcDbEntity
  8
M01
100
AcDbLine
 10
967.257613
 20
561.160844
 30
0.0
 11
947.257613
 21
561.160844
 31
0.0
  0
LINE
  5
248
100
AcDbEntity
  8
M01
100
AcDbLine
 10
989.157613
 20
559.191933
 30
0.0
 11
989.157613
 21
553.129755
 31
0.0
  0
ARC
  5
249
100
AcDbEntity
  8
M01
100
AcDbCircle
 10
987.308307
 20
553.129755
 30
0.0
 40
1.150694
100
AcDbArc
 50
118.592423
 51
241.407577
  0
ARC
  5
24A
100
AcDbEntity
  8
M01
100
AcDbCircle
 10
989.86039
 20
556.160844
 30
0.0
 40
3.702778
100
AcDbArc
 50
146.92527
 51
213.07473
  0
ARC
  5
24B
100
AcDbEntity
  8
M01
100
AcDbCircle
 10
987.308307
 20
559.191933
 30
0.0
 40
1.150694
100
AcDbArc
 50
118.592423
 51
241.407577
  0
ARC
  5
24C
100
AcDbEntity
  8
M01
100
AcDbCircle
 10
988.006918
 20
553.129755
 30
0.0
 40
1.150694
100
AcDbArc
 50
298.592423
 51
61.407577
  0
ARC
  5
24D
100
AcDbEntity
  8
M01
100
AcDbCircle
 10
985.454835
 20
556.160844
 30
0.0
 40
3.702778
100
AcDbArc
 50
326.92527
 51
33.07473
  0
LINE
  5
24E
100
AcDbEntity
  8
M01
100
AcDbLine
 10
988.557613
 20
554.140118
 30
0.0
 11
986.757613
 21
554.140118
 31
0.0
  0
LINE
  5
24F
100
AcDbEntity
  8
M01
100
AcDbLine
 10
988.557613
 20
552.119392
 30
0.0
 11
986.757613
 21
552.119392
 31
0.0
  0
ARC
  5
250
100
AcDbEntity
  8
M01
100
AcDbCircle
 10
988.006918
 20
559.191933
 30
0.0
 40
1.150694
100
AcDbArc
 50
298.592423
 51
61.407577
  0
LINE
  5
251
100
AcDbEntity
  8
M01
100
AcDbLine
 10
988.557613
 20
558.18157
 30
0.0
 11
986.757613
 21
558.18157
 31
0.0
  0
LINE
  5
252
100
AcDbEntity
  8
M01
100
AcDbLine
 10
988.557613
 20
560.202296
 30
0.0
 11
986.757613
 21
560.202296
 31
0.0
  0
LINE
  5
253
100
AcDbEntity
  8
M01
100
AcDbLine
 10
983.857613
 20
551.160844
 30
0.0
 11
985.357613
 21
551.160844
 31
0.0
  0
LINE
  5
254
100
AcDbEntity
  8
M01
100
AcDbLine
 10
983.857613
 20
561.160844
 30
0.0
 11
985.357613
 21
561.160844
 31
0.0
  0
LINE
  5
255
100
AcDbEntity
  8
M01
100
AcDbLine
 10
985.357613
 20
551.660844
 30
0.0
 11
986.157613
 21
551.660844
 31
0.0
  0
LINE
  5
256
100
AcDbEntity
  8
M01
100
AcDbLine
 10
985.357613
 20
560.660844
 30
0.0
 11
986.157613
 21
560.660844
 31
0.0
  0
LINE
  5
257
100
AcDbEntity
  8
M01
100
AcDbLine
 10
986.157613
 20
560.660844
 30
0.0
 11
986.157613
 21
551.660844
 31
0.0
  0
LINE
  5
258
100
AcDbEntity
  8
M01
100
AcDbLine
 10
985.357613
 20
561.160844
 30
0.0
 11
985.357613
 21
551.160844
 31
0.0
  0
LINE
  5
259
100
AcDbEntity
  8
M01
100
AcDbLine
 10
983.057613
 20
551.660844
 30
0.0
 11
983.857613
 21
551.660844
 31
0.0
  0
LINE
  5
25A
100
AcDbEntity
  8
M01
100
AcDbLine
 10
983.057613
 20
560.660844
 30
0.0
 11
983.857613
 21
560.660844
 31
0.0
  0
LINE
  5
25B
100
AcDbEntity
  8
M01
100
AcDbLine
 10
983.857613
 20
561.160844
 30
0.0
 11
983.857613
 21
551.160844
 31
0.0
  0
ARC
  5
25C
100
AcDbEntity
  8
M01
100
AcDbCircle
 10
981.208307
 20
553.129755
 30
0.0
 40
1.150694
100
AcDbArc
 50
118.592423
 51
241.407577
  0
ARC
  5
25D
100
AcDbEntity
  8
M01
100
AcDbCircle
 10
983.76039
 20
556.160844
 30
0.0
 40
3.702778
100
AcDbArc
 50
146.92527
 51
213.07473
  0
ARC
  5
25E
100
AcDbEntity
  8
M01
100
AcDbCircle
 10
981.208307
 20
559.191933
 30
0.0
 40
1.150694
100
AcDbArc
 50
118.592423
 51
241.407577
  0
ARC
  5
25F
100
AcDbEntity
  8
M01
100
AcDbCircle
 10
981.906918
 20
553.129755
 30
0.0
 40
1.150694
100
AcDbArc
 50
298.592423
 51
61.407577
  0
ARC
  5
260
100
AcDbEntity
  8
M01
100
AcDbCircle
 10
979.354835
 20
556.160844
 30
0.0
 40
3.702778
100
AcDbArc
 50
326.92527
 51
33.07473
  0
LINE
  5
261
100
AcDbEntity
  8
M01
100
AcDbLine
 10
982.457613
 20
554.140118
 30
0.0
 11
980.657613
 21
554.140118
 31
0.0
  0
LINE
  5
262
100
AcDbEntity
  8
M01
100
AcDbLine
 10
982.457613
 20
552.119392
 30
0.0
 11
980.657613
 21
552.119392
 31
0.0
  0
ARC
  5
263
100
AcDbEntity
  8
M01
100
AcDbCircle
 10
981.906918
 20
559.191933
 30
0.0
 40
1.150694
100
AcDbArc
 50
298.592423
 51
61.407577
  0
LINE
  5
264
100
AcDbEntity
  8
M01
100
AcDbLine
 10
982.457613
 20
558.18157
 30
0.0
 11
980.657613
 21
558.18157
 31
0.0
  0
LINE
  5
265
100
AcDbEntity
  8
M01
100
AcDbLine
 10
982.457613
 20
560.202296
 30
0.0
 11
980.657613
 21
560.202296
 31
0.0
  0
LINE
  5
266
100
AcDbEntity
  8
M01
100
AcDbLine
 10
983.057613
 20
560.660844
 30
0.0
 11
983.057613
 21
551.660844
 31
0.0
  0
LINE
  5
267
100
AcDbEntity
  8
M01
100
AcDbLine
 10
980.057613
 20
560.660844
 30
0.0
 11
980.057613
 21
551.660844
 31
0.0
  0
LINE
  5
268
100
AcDbEntity
  8
M01
100
AcDbLine
 10
992.257613
 20
554.660844
 30
0.0
 11
991.757613
 21
554.160844
 31
0.0
  0
LINE
  5
269
100
AcDbEntity
  8
M01
100
AcDbLine
 10
991.757613
 20
558.160844
 30
0.0
 11
992.257613
 21
557.660844
 31
0.0
  0
LINE
  5
26A
100
AcDbEntity
  8
M01
100
AcDbLine
 10
991.757613
 20
558.160844
 30
0.0
 11
991.757613
 21
554.160844
 31
0.0
  0
LINE
  5
26B
100
AcDbEntity
  8
M01
100
AcDbLine
 10
992.257613
 20
554.660844
 30
0.0
 11
989.157613
 21
554.660844
 31
0.0
  0
LINE
  5
26C
100
AcDbEntity
  8
M01
100
AcDbLine
 10
992.257613
 20
557.660844
 30
0.0
 11
989.157613
 21
557.660844
 31
0.0
  0
LINE
  5
26D
100
AcDbEntity
  8
M01
100
AcDbLine
 10
991.757613
 20
558.160844
 30
0.0
 11
989.157613
 21
558.160844
 31
0.0
  0
LINE
  5
26E
100
AcDbEntity
  8
M01
100
AcDbLine
 10
991.757613
 20
554.160844
 30
0.0
 11
989.157613
 21
554.160844
 31
0.0
  0
LINE
  5
26F
100
AcDbEntity
  8
M01
100
AcDbLine
 10
992.257613
 20
557.660844
 30
0.0
 11
992.257613
 21
554.660844
 31
0.0
  0
LINE
  5
270
100
AcDbEntity
  8
M01
100
AcDbLine
 10
967.257613
 20
561.160844
 30
0.0
 11
967.257613
 21
551.160844
 31
0.0
  0
LINE
  5
271
100
AcDbEntity
  8
CENTRE
100
AcDbLine
 10
998.418502
 20
556.160844
 30
0.0
 11
934.82507
 21
556.160844
 31
0.0
  0
LINE
  5
272
100
AcDbEntity
  8
M01
100
AcDbLine
 10
989.157613
 20
529.129755
 30
0.0
 11
989.157613
 21
535.191933
 31
0.0
  0
ARC
  5
273
100
AcDbEntity
  8
M01
100
AcDbCircle
 10
987.308307
 20
535.191933
 30
0.0
 40
1.150694
100
AcDbArc
 50
118.592423
 51
241.407577
  0
ARC
  5
274
100
AcDbEntity
  8
M01
100
AcDbCircle
 10
989.86039
 20
532.160844
 30
0.0
 40
3.702778
100
AcDbArc
 50
146.92527
 51
213.07473
  0
ARC
  5
275
100
AcDbEntity
  8
M01
100
AcDbCircle
 10
987.308307
 20
529.129755
 30
0.0
 40
1.150694
100
AcDbArc
 50
118.592423
 51
241.407577
  0
ARC
  5
276
100
AcDbEntity
  8
M01
100
AcDbCircle
 10
988.006918
 20
535.191933
 30
0.0
 40
1.150694
100
AcDbArc
 50
298.592423
 51
61.407577
  0
ARC
  5
277
100
AcDbEntity
  8
M01
100
AcDbCircle
 10
985.454835
 20
532.160844
 30
0.0
 40
3.702778
100
AcDbArc
 50
326.92527
 51
33.07473
  0
LINE
  5
278
100
AcDbEntity
  8
M01
100
AcDbLine
 10
988.557613
 20
534.18157
 30
0.0
 11
986.757613
 21
534.18157
 31
0.0
  0
LINE
  5
279
100
AcDbEntity
  8
M01
100
AcDbLine
 10
988.557613
 20
536.202296
 30
0.0
 11
986.757613
 21
536.202296
 31
0.0
  0
ARC
  5
27A
100
AcDbEntity
  8
M01
100
AcDbCircle
 10
988.006918
 20
529.129755
 30
0.0
 40
1.150694
100
AcDbArc
 50
298.592423
 51
61.407577
  0
LINE
  5
27B
100
AcDbEntity
  8
M01
100
AcDbLine
 10
988.557613
 20
530.140118
 30
0.0
 11
986.757613
 21
530.140118
 31
0.0
  0
LINE
  5
27C
100
AcDbEntity
  8
M01
100
AcDbLine
 10
988.557613
 20
528.119392
 30
0.0
 11
986.757613
 21
528.119392
 31
0.0
  0
LINE
  5
27D
100
AcDbEntity
  8
M01
100
AcDbLine
 10
983.857613
 20
537.160844
 30
0.0
 11
985.357613
 21
537.160844
 31
0.0
  0
LINE
  5
27E
100
AcDbEntity
  8
M01
100
AcDbLine
 10
983.857613
 20
527.160844
 30
0.0
 11
985.357613
 21
527.160844
 31
0.0
  0
LINE
  5
27F
100
AcDbEntity
  8
M01
100
AcDbLine
 10
985.357613
 20
536.660844
 30
0.0
 11
986.157613
 21
536.660844
 31
0.0
  0
LINE
  5
280
100
AcDbEntity
  8
M01
100
AcDbLine
 10
985.357613
 20
527.660844
 30
0.0
 11
986.157613
 21
527.660844
 31
0.0
  0
LINE
  5
281
100
AcDbEntity
  8
M01
100
AcDbLine
 10
986.157613
 20
527.660844
 30
0.0
 11
986.157613
 21
536.660844
 31
0.0
  0
LINE
  5
282
100
AcDbEntity
  8
M01
100
AcDbLine
 10
985.357613
 20
527.160844
 30
0.0
 11
985.357613
 21
537.160844
 31
0.0
  0
LINE
  5
283
100
AcDbEntity
  8
M01
100
AcDbLine
 10
983.057613
 20
536.660844
 30
0.0
 11
983.857613
 21
536.660844
 31
0.0
  0
LINE
  5
284
100
AcDbEntity
  8
M01
100
AcDbLine
 10
983.057613
 20
527.660844
 30
0.0
 11
983.857613
 21
527.660844
 31
0.0
  0
LINE
  5
285
100
AcDbEntity
  8
M01
100
AcDbLine
 10
983.857613
 20
527.160844
 30
0.0
 11
983.857613
 21
537.160844
 31
0.0
  0
ARC
  5
286
100
AcDbEntity
  8
M01
100
AcDbCircle
 10
981.208307
 20
535.191933
 30
0.0
 40
1.150694
100
AcDbArc
 50
118.592423
 51
241.407577
  0
ARC
  5
287
100
AcDbEntity
  8
M01
100
AcDbCircle
 10
983.76039
 20
532.160844
 30
0.0
 40
3.702778
100
AcDbArc
 50
146.92527
 51
213.07473
  0
ARC
  5
288
100
AcDbEntity
  8
M01
100
AcDbCircle
 10
981.208307
 20
529.129755
 30
0.0
 40
1.150694
100
AcDbArc
 50
118.592423
 51
241.407577
  0
ARC
  5
289
100
AcDbEntity
  8
M01
100
AcDbCircle
 10
981.906918
 20
535.191933
 30
0.0
 40
1.150694
100
AcDbArc
 50
298.592423
 51
61.407577
  0
ARC
  5
28A
100
AcDbEntity
  8
M01
100
AcDbCircle
 10
979.354835
 20
532.160844
 30
0.0
 40
3.702778
100
AcDbArc
 50
326.92527
 51
33.07473
  0
LINE
  5
28B
100
AcDbEntity
  8
M01
100
AcDbLine
 10
982.457613
 20
534.18157
 30
0.0
 11
980.657613
 21
534.18157
 31
0.0
  0
LINE
  5
28C
100
AcDbEntity
  8
M01
100
AcDbLine
 10
982.457613
 20
536.202296
 30
0.0
 11
980.657613
 21
536.202296
 31
0.0
  0
ARC
  5
28D
100
AcDbEntity
  8
M01
100
AcDbCircle
 10
981.906918
 20
529.129755
 30
0.0
 40
1.150694
100
AcDbArc
 50
298.592423
 51
61.407577
  0
LINE
  5
28E
100
AcDbEntity
  8
M01
100
AcDbLine
 10
982.457613
 20
530.140118
 30
0.0
 11
980.657613
 21
530.140118
 31
0.0
  0
LINE
  5
28F
100
AcDbEntity
  8
M01
100
AcDbLine
 10
982.457613
 20
528.119392
 30
0.0
 11
980.657613
 21
528.119392
 31
0.0
  0
LINE
  5
290
100
AcDbEntity
  8
M01
100
AcDbLine
 10
983.057613
 20
527.660844
 30
0.0
 11
983.057613
 21
536.660844
 31
0.0
  0
LINE
  5
291
100
AcDbEntity
  8
M01
100
AcDbLine
 10
980.057613
 20
527.660844
 30
0.0
 11
980.057613
 21
536.660844
 31
0.0
  0
LINE
  5
292
100
AcDbEntity
  8
M01
100
AcDbLine
 10
979.257613
 20
527.660844
 30
0.0
 11
979.257613
 21
536.660844
 31
0.0
  0
LINE
  5
293
100
AcDbEntity
  8
M04
100
AcDbLine
 10
1007.257613
 20
561.160844
 30
0.0
 11
1027.929091
 21
561.160844
 31
0.0
  0
LINE
  5
294
100
AcDbEntity
  8
M04
100
AcDbLine
 10
1007.257613
 20
527.160844
 30
0.0
 11
1027.929091
 21
527.160844
 31
0.0
  0
ARC
  5
295
100
AcDbEntity
  8
M04
100
AcDbCircle
 10
992.257613
 20
561.160844
 30
0.0
 40
15.0
100
AcDbArc
 50
0.0
 51
90.0
  0
ARC
  5
296
100
AcDbEntity
  8
M04
100
AcDbCircle
 10
992.257613
 20
527.160844
 30
0.0
 40
15.0
100
AcDbArc
 50
270.0
 51
0.0
  0
LINE
  5
297
100
AcDbEntity
  8
M04
100
AcDbLine
 10
1007.257613
 20
527.160844
 30
0.0
 11
1007.257613
 21
561.160844
 31
0.0
  0
LINE
  5
298
100
AcDbEntity
  8
M01
100
AcDbLine
 10
992.257613
 20
533.660844
 30
0.0
 11
991.757613
 21
534.160844
 31
0.0
  0
LINE
  5
299
100
AcDbEntity
  8
M01
100
AcDbLine
 10
991.757613
 20
530.160844
 30
0.0
 11
992.257613
 21
530.660844
 31
0.0
  0
LINE
  5
29A
100
AcDbEntity
  8
M01
100
AcDbLine
 10
991.757613
 20
530.160844
 30
0.0
 11
991.757613
 21
534.160844
 31
0.0
  0
LINE
  5
29B
100
AcDbEntity
  8
M01
100
AcDbLine
 10
992.257613
 20
533.660844
 30
0.0
 11
989.157613
 21
533.660844
 31
0.0
  0
LINE
  5
29C
100
AcDbEntity
  8
M01
100
AcDbLine
 10
992.257613
 20
530.660844
 30
0.0
 11
989.157613
 21
530.660844
 31
0.0
  0
LINE
  5
29D
100
AcDbEntity
  8
M01
100
AcDbLine
 10
991.757613
 20
530.160844
 30
0.0
 11
989.157613
 21
530.160844
 31
0.0
  0
LINE
  5
29E
100
AcDbEntity
  8
M01
100
AcDbLine
 10
991.757613
 20
534.160844
 30
0.0
 11
989.157613
 21
534.160844
 31
0.0
  0
LINE
  5
29F
100
AcDbEntity
  8
M01
100
AcDbLine
 10
992.257613
 20
530.660844
 30
0.0
 11
992.257613
 21
533.660844
 31
0.0
  0
LINE
  5
2A0
100
AcDbEntity
  8
M01
100
AcDbLine
 10
967.257613
 20
527.160844
 30
0.0
 11
967.257613
 21
537.160844
 31
0.0
  0
LINE
  5
2A1
100
AcDbEntity
  8
M01
100
AcDbLine
 10
980.057613
 20
536.660844
 30
0.0
 11
979.257613
 21
536.660844
 31
0.0
  0
LINE
  5
2A2
100
AcDbEntity
  8
M01
100
AcDbLine
 10
980.057613
 20
527.660844
 30
0.0
 11
979.257613
 21
527.660844
 31
0.0
  0
LINE
  5
2A3
100
AcDbEntity
  8
CENTRE
100
AcDbLine
 10
998.418502
 20
532.160844
 30
0.0
 11
934.82507
 21
532.160844
 31
0.0
  0
LINE
  5
2A4
100
AcDbEntity
  8
M04
100
AcDbLine
 10
992.257613
 20
512.160844
 30
0.0
 11
869.983009
 21
512.160844
 31
0.0
  0
LINE
  5
2A5
100
AcDbEntity
  8
M01
100
AcDbLine
 10
947.257613
 20
564.160844
 30
0.0
 11
945.257613
 21
566.160844
 31
0.0
  0
LINE
  5
2A6
100
AcDbEntity
  8
M01
100
AcDbLine
 10
945.257613
 20
522.160844
 30
0.0
 11
947.257613
 21
524.160844
 31
0.0
  0
LINE
  5
2A7
100
AcDbEntity
  8
M01
100
AcDbLine
 10
947.257613
 20
524.160844
 30
0.0
 11
947.257613
 21
564.160844
 31
0.0
  0
LINE
  5
2A8
100
AcDbEntity
  8
M01
100
AcDbLine
 10
945.257613
 20
566.160844
 30
0.0
 11
866.983009
 21
566.160844
 31
0.0
  0
LINE
  5
2A9
100
AcDbEntity
  8
M01
100
AcDbLine
 10
945.257613
 20
522.160844
 30
0.0
 11
866.983009
 21
522.160844
 31
0.0
  0
LINE
  5
2AA
100
AcDbEntity
  8
DIMS
 62
     4
100
AcDbLine
 10
545.757613
 20
547.560844
 30
0.0
 11
545.757613
 21
549.860844
 31
0.0
  0
LINE
  5
2AB
100
AcDbEntity
  8
DIMS
 62
     4
100
AcDbLine
 10
545.757613
 20
540.760844
 30
0.0
 11
545.757613
 21
538.460844
 31
0.0
  0
LINE
  5
2AC
100
AcDbEntity
  8
DIMS
 62
     4
100
AcDbLine
 10
545.757613
 20
542.460844
 30
0.0
 11
545.757613
 21
545.860844
 31
0.0
  0
CIRCLE
  5
2AD
100
AcDbEntity
  8
M03
100
AcDbCircle
 10
545.757613
 20
544.160844
 30
0.0
 40
4.0
  0
LINE
  5
2AE
100
AcDbEntity
  8
M03
100
AcDbLine
 10
545.757613
 20
538.50399
 30
0.0
 11
655.429185
 21
428.832417
 31
0.0
  0
LINE
  5
2AF
100
AcDbEntity
  8
M01
100
AcDbLine
 10
560.983009
 20
579.160844
 30
0.0
 11
661.532216
 21
579.160844
 31
0.0
  0
LINE
  5
2B0
100
AcDbEntity
  8
M03
100
AcDbLine
 10
661.08604
 20
659.489271
 30
0.0
 11
770.757613
 21
549.817698
 31
0.0
  0
LINE
  5
2B1
100
AcDbEntity
  8
M03
100
AcDbLine
 10
655.429185
 20
653.832417
 30
0.0
 11
880.429185
 21
428.832417
 31
0.0
  0
LINE
  5
2B2
100
AcDbEntity
  8
CENTRE
100
AcDbLine
 10
637.044409
 20
677.874047
 30
0.0
 11
904.470816
 21
410.44764
 31
0.0
  0
LINE
  5
2B3
100
AcDbEntity
  8
M04
100
AcDbLine
 10
324.257613
 20
576.160844
 30
0.0
 11
446.532216
 21
576.160844
 31
0.0
  0
MTEXT
  5
2B4
100
AcDbEntity
  8
0
  6
BYBLOCK
 62
     2
100
AcDbMText
 10
941.682849
 20
639.735459
 30
0.0
 40
3.0
 41
0.0
 71
     4
 72
     1
  1
M12 PLATE RETAINING SCREWS SHOULD ALSO BE FITTED.\PMINIMUM 2 PER DROP & ALSO AROUND MANIFOLD POCKET.
  0
LINE
  5
2B5
100
AcDbEntity
  8
DIMS
 62
     4
100
AcDbLine
 10
549.157613
 20
239.619819
 30
0.0
 11
551.457613
 21
239.619819
 31
0.0
  0
LINE
  5
2B6
100
AcDbEntity
  8
DIMS
 62
     4
100
AcDbLine
 10
542.357613
 20
239.619819
 30
0.0
 11
540.057613
 21
239.619819
 31
0.0
  0
LINE
  5
2B7
100
AcDbEntity
  8
DIMS
 62
     4
100
AcDbLine
 10
544.057613
 20
239.619819
 30
0.0
 11
547.457613
 21
239.619819
 31
0.0
  0
LINE
  5
2B8
102
{ACAD_REACTORS
330
A9
102
}
100
AcDbEntity
  8
M02
100
AcDbLine
 10
907.257613
 20
193.619819
 30
0.0
 11
913.257613
 21
193.619819
 31
0.0
  0
LINE
  5
2BA
100
AcDbEntity
  8
M02
100
AcDbLine
 10
692.257613
 20
193.619819
 30
0.0
 11
859.257613
 21
193.619819
 31
0.0
  0
LINE
  5
2BB
102
{ACAD_REACTORS
330
A9
102
}
100
AcDbEntity
  8
M02
100
AcDbLine
 10
913.257613
 20
196.619819
 30
0.0
 11
913.257613
 21
193.619819
 31
0.0
  0
LINE
  5
2BC
102
{ACAD_REACTORS
330
114
102
}
100
AcDbEntity
  8
M04
100
AcDbLine
 10
886.257613
 20
189.619819
 30
0.0
 11
933.771004
 21
189.619819
 31
0.0
  0
LINE
  5
2BD
102
{ACAD_REACTORS
330
114
330
AD
330
A9
102
}
100
AcDbEntity
  8
M01
100
AcDbLine
 10
668.257613
 20
196.619819
 30
0.0
 11
913.257613
 21
196.619819
 31
0.0
  0
HATCH
  5
2BE
100
AcDbEntity
  8
DIMS
100
AcDbHatch
 10
0.0
 20
0.0
 30
0.0
210
0.0
220
0.0
230
1.0
  2
_U
 70
     0
 71
     0
 91
        5
 92
        7
 72
     0
 73
     1
 93
        9
 10
689.75761256428
 20
194.6198189684171
 10
689.75761256428
 20
190.6198189684172
 10
691.5576125642803
 20
190.6198189684172
 10
692.2576125642804
 20
191.3198189684172
 10
692.2576125642802
 20
195.9198189684171
 10
691.5576125642798
 20
196.6198189684174
 10
687.95761256428
 20
196.6198189684174
 10
687.95761256428
 20
194.6198189684172
 10
689.5076125642802
 20
194.6198189684172
 97
        0
 92
        7
 72
     1
 73
     1
 93
       16
 10
677.5576125642799
 20
185.6198189684173
 42
0.0
 10
678.2576125642799
 20
186.3198189684171
 42
0.0
 10
678.2576125642799
 20
187.6198189684174
 42
0.0
 10
677.7576125642799
 20
187.6198189684172
 42
0.0
 10
677.7576125642799
 20
190.6198189684172
 42
0.0
 10
678.7576125642801
 20
190.6198189684172
 42
0.0
 10
678.7576125642801
 20
194.6198189684172
 42
0.0
 10
679.0076125642801
 20
194.6198189684172
 42
0.0
 10
680.5576125642801
 20
194.6198189684172
 42
0.0
 10
680.5576125642804
 20
196.6198189684174
 42
0.0
 10
668.2576125642799
 20
196.6198189684174
 42
0.0
 10
668.2576125642799
 20
205.6198189684171
 42
0.0
 10
667.2576125642799
 20
206.6198189684171
 42
0.0
 10
662.2576125642799
 20
206.6198189684172
 42
0.0
 10
661.2984865621759
 20
188.3186046215184
 42
-0.1092323044357264
 10
667.4227639541913
 20
185.6198189684171
 42
0.0
 97
        0
 92
        7
 72
     1
 73
     1
 93
       16
 10
655.2167385663838
 20
188.3186046215183
 42
0.0
 10
654.2576125642799
 20
206.6198189684172
 42
0.0
 10
649.2576125642799
 20
206.6198189684172
 42
0.0
 10
648.25761256428
 20
205.6198189684172
 42
0.0
 10
648.25761256428
 20
196.6198189684174
 42
0.0
 10
635.9576125642802
 20
196.6198189684174
 42
0.0
 10
635.9576125642802
 20
194.6198189684172
 42
0.0
 10
637.5076125642799
 20
194.6198189684172
 42
0.0
 10
637.7576125642799
 20
194.6198189684172
 42
0.0
 10
637.7576125642799
 20
190.6198189684173
 42
0.0
 10
638.7576125642799
 20
190.6198189684173
 42
0.0
 10
638.7576125642799
 20
187.619818968417
 42
0.0
 10
638.2576125642799
 20
187.619818968417
 42
0.0
 10
638.2576125642802
 20
186.3198189684169
 42
0.0
 10
638.95761256428
 20
185.6198189684169
 42
0.0
 10
649.0924611743682
 20
185.619818968417
 42
-0.1092323044357263
 97
        0
 92
        7
 72
     0
 73
     1
 93
        9
 10
626.7576125642799
 20
194.6198189684171
 10
627.0076125642797
 20
194.6198189684171
 10
628.5576125642799
 20
194.6198189684172
 10
628.5576125642801
 20
196.6198189684174
 10
624.95761256428
 20
196.6198189684174
 10
624.2576125642797
 20
195.9198189684173
 10
624.2576125642797
 20
191.3198189684171
 10
624.9576125642797
 20
190.6198189684173
 10
626.7576125642801
 20
190.6198189684173
 97
        0
 92
       24
 93
        4
 72
     1
 10
662.831693
 20
191.687306
 11
677.203122
 21
191.687306
 72
     1
 10
677.203122
 20
191.687306
 11
677.203122
 21
194.687306
 72
     1
 10
677.203122
 20
194.687306
 11
662.831693
 21
194.687306
 72
     1
 10
662.831693
 20
194.687306
 11
662.831693
 21
191.687306
 97
        0
 75
     0
 76
     0
 52
135.0
 41
2.5
 77
     0
 78
     1
 53
135.0
 43
102.810372
 44
-50.866655
 45
-1.767766952966368
 46
-1.767766952966368
 79
     0
 47
0.085632
 98
        4
 10
690.754575
 20
194.977804
 10
673.10713
 20
188.983574
 10
650.319651
 20
190.18242
 10
626.075832
 20
194.977804
  0
LINE
  5
2BF
102
{ACAD_REACTORS
330
AD
102
}
100
AcDbEntity
  8
M04
100
AcDbLine
 10
635.257613
 20
203.919819
 30
0.0
 11
635.257613
 21
206.419819
 31
0.0
  0
LINE
  5
2C0
102
{ACAD_REACTORS
330
AD
102
}
100
AcDbEntity
  8
M04
100
AcDbLine
 10
634.557613
 20
204.619819
 30
0.0
 11
634.557613
 21
207.919819
 31
0.0
  0
LINE
  5
2C1
102
{ACAD_REACTORS
330
AD
102
}
100
AcDbEntity
  8
M04
100
AcDbLine
 10
629.257613
 20
203.919819
 30
0.0
 11
629.257613
 21
206.419819
 31
0.0
  0
LINE
  5
2C2
102
{ACAD_REACTORS
330
AD
102
}
100
AcDbEntity
  8
M04
100
AcDbLine
 10
629.957613
 20
204.619819
 30
0.0
 11
629.957613
 21
207.919819
 31
0.0
  0
LINE
  5
2C3
100
AcDbEntity
  8
M05
100
AcDbLine
 10
627.007613
 20
194.619819
 30
0.0
 11
637.507613
 21
194.619819
 31
0.0
  0
LINE
  5
2C4
100
AcDbEntity
  8
M04
100
AcDbLine
 10
637.507613
 20
194.619819
 30
0.0
 11
637.757613
 21
194.619819
 31
0.0
  0
LINE
  5
2C5
100
AcDbEntity
  8
M04
100
AcDbLine
 10
626.757613
 20
194.619819
 30
0.0
 11
626.757613
 21
190.619819
 31
0.0
  0
LINE
  5
2C6
100
AcDbEntity
  8
M04
100
AcDbLine
 10
637.757613
 20
194.619819
 30
0.0
 11
637.757613
 21
190.619819
 31
0.0
  0
LINE
  5
2C7
100
AcDbEntity
  8
M05
100
AcDbLine
 10
635.257613
 20
195.619819
 30
0.0
 11
629.257613
 21
195.619819
 31
0.0
  0
LINE
  5
2C8
102
{ACAD_REACTORS
330
AD
102
}
100
AcDbEntity
  8
M04
100
AcDbLine
 10
629.957613
 20
207.919819
 30
0.0
 11
632.257613
 21
209.247725
 31
0.0
  0
LINE
  5
2C9
102
{ACAD_REACTORS
330
AD
102
}
100
AcDbEntity
  8
M04
100
AcDbLine
 10
634.557613
 20
207.919819
 30
0.0
 11
632.257613
 21
209.247725
 31
0.0
  0
LINE
  5
2CA
100
AcDbEntity
  8
M04
100
AcDbLine
 10
634.557613
 20
207.919819
 30
0.0
 11
629.957613
 21
207.919819
 31
0.0
  0
LINE
  5
2CB
102
{ACAD_REACTORS
330
AD
102
}
100
AcDbEntity
  8
M04
100
AcDbLine
 10
635.257613
 20
206.419819
 30
0.0
 11
629.257613
 21
206.419819
 31
0.0
  0
ARC
  5
2CC
100
AcDbEntity
  8
M05
100
AcDbCircle
 10
632.257613
 20
197.145955
 30
0.0
 40
5.826136
100
AcDbArc
 50
205.69541
 51
334.30459
  0
LINE
  5
2CD
100
AcDbEntity
  8
M05
100
AcDbLine
 10
629.257613
 20
203.919819
 30
0.0
 11
629.957613
 21
204.619819
 31
0.0
  0
LINE
  5
2CE
100
AcDbEntity
  8
M05
100
AcDbLine
 10
635.257613
 20
203.919819
 30
0.0
 11
634.557613
 21
204.619819
 31
0.0
  0
LINE
  5
2CF
100
AcDbEntity
  8
M05
100
AcDbLine
 10
635.257613
 20
203.919819
 30
0.0
 11
629.257613
 21
203.919819
 31
0.0
  0
LINE
  5
2D0
100
AcDbEntity
  8
M05
100
AcDbLine
 10
634.557613
 20
204.619819
 30
0.0
 11
629.957613
 21
204.619819
 31
0.0
  0
LINE
  5
2D1
100
AcDbEntity
  8
M04
100
AcDbLine
 10
635.957613
 20
196.619819
 30
0.0
 11
635.957613
 21
194.619819
 31
0.0
  0
LINE
  5
2D2
100
AcDbEntity
  8
M04
100
AcDbLine
 10
628.557613
 20
196.619819
 30
0.0
 11
628.557613
 21
194.619819
 31
0.0
  0
LINE
  5
2D3
100
AcDbEntity
  8
M05
100
AcDbLine
 10
629.957613
 20
204.619819
 30
0.0
 11
629.957613
 21
195.619819
 31
0.0
  0
LINE
  5
2D4
100
AcDbEntity
  8
M05
100
AcDbLine
 10
634.557613
 20
204.619819
 30
0.0
 11
634.557613
 21
195.619819
 31
0.0
  0
LINE
  5
2D5
102
{ACAD_REACTORS
330
AD
102
}
100
AcDbEntity
  8
M05
100
AcDbLine
 10
635.257613
 20
203.919819
 30
0.0
 11
635.257613
 21
194.619819
 31
0.0
  0
LINE
  5
2D6
102
{ACAD_REACTORS
330
AD
102
}
100
AcDbEntity
  8
M05
100
AcDbLine
 10
629.257613
 20
203.919819
 30
0.0
 11
629.257613
 21
194.619819
 31
0.0
  0
LINE
  5
2D7
100
AcDbEntity
  8
M04
100
AcDbLine
 10
626.757613
 20
194.619819
 30
0.0
 11
627.007613
 21
194.619819
 31
0.0
  0
LINE
  5
2D8
100
AcDbEntity
  8
CENTRE
100
AcDbLine
 10
632.257613
 20
211.886319
 30
0.0
 11
632.257613
 21
186.973631
 31
0.0
  0
LINE
  5
2D9
102
{ACAD_REACTORS
330
AD
102
}
100
AcDbEntity
  8
M04
100
AcDbLine
 10
681.257613
 20
203.919819
 30
0.0
 11
681.257613
 21
206.419819
 31
0.0
  0
LINE
  5
2DA
102
{ACAD_REACTORS
330
AD
102
}
100
AcDbEntity
  8
M04
100
AcDbLine
 10
681.957613
 20
204.619819
 30
0.0
 11
681.957613
 21
207.919819
 31
0.0
  0
LINE
  5
2DB
102
{ACAD_REACTORS
330
AD
102
}
100
AcDbEntity
  8
M04
100
AcDbLine
 10
687.257613
 20
203.919819
 30
0.0
 11
687.257613
 21
206.419819
 31
0.0
  0
LINE
  5
2DC
102
{ACAD_REACTORS
330
AD
102
}
100
AcDbEntity
  8
M04
100
AcDbLine
 10
686.557613
 20
204.619819
 30
0.0
 11
686.557613
 21
207.919819
 31
0.0
  0
LINE
  5
2DD
100
AcDbEntity
  8
M05
100
AcDbLine
 10
689.507613
 20
194.619819
 30
0.0
 11
679.007613
 21
194.619819
 31
0.0
  0
LINE
  5
2DE
100
AcDbEntity
  8
M04
100
AcDbLine
 10
679.007613
 20
194.619819
 30
0.0
 11
678.757613
 21
194.619819
 31
0.0
  0
LINE
  5
2DF
100
AcDbEntity
  8
M04
100
AcDbLine
 10
689.757613
 20
194.619819
 30
0.0
 11
689.757613
 21
190.619819
 31
0.0
  0
LINE
  5
2E0
100
AcDbEntity
  8
M04
100
AcDbLine
 10
678.757613
 20
194.619819
 30
0.0
 11
678.757613
 21
190.619819
 31
0.0
  0
LINE
  5
2E1
100
AcDbEntity
  8
M05
100
AcDbLine
 10
681.257613
 20
195.619819
 30
0.0
 11
687.257613
 21
195.619819
 31
0.0
  0
LINE
  5
2E2
102
{ACAD_REACTORS
330
AD
102
}
100
AcDbEntity
  8
M04
100
AcDbLine
 10
686.557613
 20
207.919819
 30
0.0
 11
684.257613
 21
209.247725
 31
0.0
  0
LINE
  5
2E3
102
{ACAD_REACTORS
330
AD
102
}
100
AcDbEntity
  8
M04
100
AcDbLine
 10
681.957613
 20
207.919819
 30
0.0
 11
684.257613
 21
209.247725
 31
0.0
  0
LINE
  5
2E4
100
AcDbEntity
  8
M04
100
AcDbLine
 10
681.957613
 20
207.919819
 30
0.0
 11
686.557613
 21
207.919819
 31
0.0
  0
LINE
  5
2E5
102
{ACAD_REACTORS
330
AD
102
}
100
AcDbEntity
  8
M04
100
AcDbLine
 10
681.257613
 20
206.419819
 30
0.0
 11
687.257613
 21
206.419819
 31
0.0
  0
ARC
  5
2E6
100
AcDbEntity
  8
M05
100
AcDbCircle
 10
684.257613
 20
197.145955
 30
0.0
 40
5.826136
100
AcDbArc
 50
205.69541
 51
334.30459
  0
LINE
  5
2E7
100
AcDbEntity
  8
M05
100
AcDbLine
 10
687.257613
 20
203.919819
 30
0.0
 11
686.557613
 21
204.619819
 31
0.0
  0
LINE
  5
2E8
100
AcDbEntity
  8
M05
100
AcDbLine
 10
681.257613
 20
203.919819
 30
0.0
 11
681.957613
 21
204.619819
 31
0.0
  0
LINE
  5
2E9
100
AcDbEntity
  8
M05
100
AcDbLine
 10
681.257613
 20
203.919819
 30
0.0
 11
687.257613
 21
203.919819
 31
0.0
  0
LINE
  5
2EA
100
AcDbEntity
  8
M05
100
AcDbLine
 10
681.957613
 20
204.619819
 30
0.0
 11
686.557613
 21
204.619819
 31
0.0
  0
LINE
  5
2EB
100
AcDbEntity
  8
M04
100
AcDbLine
 10
680.557613
 20
196.619819
 30
0.0
 11
680.557613
 21
194.619819
 31
0.0
  0
LINE
  5
2EC
100
AcDbEntity
  8
M04
100
AcDbLine
 10
687.957613
 20
196.619819
 30
0.0
 11
687.957613
 21
194.619819
 31
0.0
  0
LINE
  5
2ED
100
AcDbEntity
  8
M05
100
AcDbLine
 10
686.557613
 20
204.619819
 30
0.0
 11
686.557613
 21
195.619819
 31
0.0
  0
LINE
  5
2EE
100
AcDbEntity
  8
M05
100
AcDbLine
 10
681.957613
 20
204.619819
 30
0.0
 11
681.957613
 21
195.619819
 31
0.0
  0
LINE
  5
2EF
102
{ACAD_REACTORS
330
AD
102
}
100
AcDbEntity
  8
M05
100
AcDbLine
 10
681.257613
 20
203.919819
 30
0.0
 11
681.257613
 21
194.619819
 31
0.0
  0
LINE
  5
2F0
102
{ACAD_REACTORS
330
AD
102
}
100
AcDbEntity
  8
M05
100
AcDbLine
 10
687.257613
 20
203.919819
 30
0.0
 11
687.257613
 21
194.619819
 31
0.0
  0
LINE
  5
2F1
100
AcDbEntity
  8
M04
100
AcDbLine
 10
689.757613
 20
194.619819
 30
0.0
 11
689.507613
 21
194.619819
 31
0.0
  0
LINE
  5
2F2
100
AcDbEntity
  8
CENTRE
100
AcDbLine
 10
684.257613
 20
211.886319
 30
0.0
 11
684.257613
 21
186.973631
 31
0.0
  0
TEXT
  5
2F3
100
AcDbEntity
  8
TEXT
100
AcDbText
 10
663.331693
 20
192.187306
 30
0.0
 40
2.0
  1
MA010000
 41
0.9
100
AcDbText
  0
LINE
  5
2F4
100
AcDbEntity
  8
M04
100
AcDbLine
 10
628.257613
 20
171.619819
 30
0.0
 11
628.257613
 21
162.619819
 31
0.0
  0
LINE
  5
2F5
100
AcDbEntity
  8
M05
100
AcDbLine
 10
624.257613
 20
191.319819
 30
0.0
 11
624.957613
 21
190.619819
 31
0.0
  0
LINE
  5
2F6
100
AcDbEntity
  8
M02
100
AcDbLine
 10
623.257613
 20
196.619819
 30
0.0
 11
623.257613
 21
193.619819
 31
0.0
  0
LINE
  5
2F7
100
AcDbEntity
  8
M04
100
AcDbLine
 10
628.257613
 20
171.619819
 30
0.0
 11
688.257613
 21
171.619819
 31
0.0
  0
LINE
  5
2F8
100
AcDbEntity
  8
M04
100
AcDbLine
 10
638.257613
 20
181.619819
 30
0.0
 11
628.257613
 21
171.619819
 31
0.0
  0
LINE
  5
2F9
100
AcDbEntity
  8
M04
100
AcDbLine
 10
688.257613
 20
171.619819
 30
0.0
 11
688.257613
 21
162.619819
 31
0.0
  0
LINE
  5
2FA
100
AcDbEntity
  8
M04
100
AcDbLine
 10
678.257613
 20
181.619819
 30
0.0
 11
688.257613
 21
171.619819
 31
0.0
  0
LINE
  5
2FB
100
AcDbEntity
  8
M05
100
AcDbLine
 10
655.216739
 20
188.318605
 30
0.0
 11
661.298487
 21
188.318605
 31
0.0
  0
ARC
  5
2FC
100
AcDbEntity
  8
M05
100
AcDbCircle
 10
658.257613
 20
173.119819
 30
0.0
 40
15.5
100
AcDbArc
 50
101.313981
 51
126.249321
  0
LINE
  5
2FD
100
AcDbEntity
  8
M05
100
AcDbLine
 10
654.257613
 20
206.619819
 30
0.0
 11
655.216739
 21
188.318605
 31
0.0
  0
LINE
  5
2FE
100
AcDbEntity
  8
M05
100
AcDbLine
 10
662.257613
 20
206.619819
 30
0.0
 11
661.298487
 21
188.318605
 31
0.0
  0
ARC
  5
2FF
100
AcDbEntity
  8
M05
100
AcDbCircle
 10
658.257613
 20
173.119819
 30
0.0
 40
15.5
100
AcDbArc
 50
53.750679
 51
78.686019
  0
LINE
  5
300
100
AcDbEntity
  8
M04
100
AcDbLine
 10
638.257613
 20
187.619819
 30
0.0
 11
638.257613
 21
189.619819
 31
0.0
  0
LINE
  5
301
100
AcDbEntity
  8
M04
100
AcDbLine
 10
638.257613
 20
186.319819
 30
0.0
 11
638.257613
 21
181.619819
 31
0.0
  0
LINE
  5
302
100
AcDbEntity
  8
M04
100
AcDbLine
 10
678.257613
 20
187.619819
 30
0.0
 11
678.257613
 21
189.619819
 31
0.0
  0
LINE
  5
303
100
AcDbEntity
  8
M04
100
AcDbLine
 10
678.257613
 20
186.319819
 30
0.0
 11
678.257613
 21
181.619819
 31
0.0
  0
LINE
  5
304
100
AcDbEntity
  8
M04
100
AcDbLine
 10
678.257613
 20
181.619819
 30
0.0
 11
638.257613
 21
181.619819
 31
0.0
  0
LINE
  5
305
100
AcDbEntity
  8
M05
100
AcDbLine
 10
638.757613
 20
187.619819
 30
0.0
 11
638.257613
 21
187.619819
 31
0.0
  0
LINE
  5
306
100
AcDbEntity
  8
M05
100
AcDbLine
 10
638.757613
 20
190.619819
 30
0.0
 11
624.957613
 21
190.619819
 31
0.0
  0
LINE
  5
307
100
AcDbEntity
  8
M05
100
AcDbLine
 10
638.757613
 20
190.619819
 30
0.0
 11
638.757613
 21
187.619819
 31
0.0
  0
LINE
  5
308
100
AcDbEntity
  8
M05
100
AcDbLine
 10
677.757613
 20
190.619819
 30
0.0
 11
677.757613
 21
187.619819
 31
0.0
  0
LINE
  5
309
100
AcDbEntity
  8
M05
100
AcDbLine
 10
678.257613
 20
187.619819
 30
0.0
 11
677.757613
 21
187.619819
 31
0.0
  0
LINE
  5
30A
100
AcDbEntity
  8
M05
100
AcDbLine
 10
638.957613
 20
185.619819
 30
0.0
 11
638.257613
 21
186.319819
 31
0.0
  0
LINE
  5
30B
100
AcDbEntity
  8
M05
100
AcDbLine
 10
677.557613
 20
185.619819
 30
0.0
 11
678.257613
 21
186.319819
 31
0.0
  0
LINE
  5
30C
100
AcDbEntity
  8
M05
100
AcDbLine
 10
677.557613
 20
185.619819
 30
0.0
 11
638.957613
 21
185.619819
 31
0.0
  0
LINE
  5
30D
100
AcDbEntity
  8
M05
100
AcDbLine
 10
638.257613
 20
187.619819
 30
0.0
 11
638.257613
 21
186.319819
 31
0.0
  0
LINE
  5
30E
100
AcDbEntity
  8
M05
100
AcDbLine
 10
678.257613
 20
187.619819
 30
0.0
 11
678.257613
 21
186.319819
 31
0.0
  0
LINE
  5
30F
102
{ACAD_REACTORS
330
AD
102
}
100
AcDbEntity
  8
M04
100
AcDbLine
 10
648.257613
 20
197.119819
 30
0.0
 11
647.757613
 21
196.619819
 31
0.0
  0
LINE
  5
310
102
{ACAD_REACTORS
330
AD
102
}
100
AcDbEntity
  8
M04
100
AcDbLine
 10
668.257613
 20
197.119819
 30
0.0
 11
668.757613
 21
196.619819
 31
0.0
  0
LINE
  5
311
100
AcDbEntity
  8
M05
100
AcDbLine
 10
624.257613
 20
195.919819
 30
0.0
 11
624.957613
 21
196.619819
 31
0.0
  0
LINE
  5
312
100
AcDbEntity
  8
M05
100
AcDbLine
 10
624.257613
 20
195.919819
 30
0.0
 11
624.257613
 21
191.319819
 31
0.0
  0
LINE
  5
313
100
AcDbEntity
  8
M05
100
AcDbLine
 10
692.257613
 20
195.919819
 30
0.0
 11
691.557613
 21
196.619819
 31
0.0
  0
LINE
  5
314
100
AcDbEntity
  8
M05
100
AcDbLine
 10
692.257613
 20
191.319819
 30
0.0
 11
691.557613
 21
190.619819
 31
0.0
  0
LINE
  5
315
100
AcDbEntity
  8
M02
100
AcDbLine
 10
693.257613
 20
196.619819
 30
0.0
 11
693.257613
 21
193.619819
 31
0.0
  0
LINE
  5
316
100
AcDbEntity
  8
M05
100
AcDbLine
 10
691.557613
 20
190.619819
 30
0.0
 11
677.757613
 21
190.619819
 31
0.0
  0
LINE
  5
317
100
AcDbEntity
  8
M05
100
AcDbLine
 10
692.257613
 20
195.919819
 30
0.0
 11
692.257613
 21
191.319819
 31
0.0
  0
LINE
  5
318
102
{ACAD_REACTORS
330
AD
102
}
100
AcDbEntity
  8
M04
100
AcDbLine
 10
648.257613
 20
205.619819
 30
0.0
 11
648.257613
 21
206.619819
 31
0.0
  0
LINE
  5
319
102
{ACAD_REACTORS
330
AD
102
}
100
AcDbEntity
  8
M04
100
AcDbLine
 10
649.257613
 20
206.619819
 30
0.0
 11
648.257613
 21
206.619819
 31
0.0
  0
LINE
  5
31A
102
{ACAD_REACTORS
330
AD
102
}
100
AcDbEntity
  8
M04
100
AcDbLine
 10
668.257613
 20
205.619819
 30
0.0
 11
668.257613
 21
206.619819
 31
0.0
  0
LINE
  5
31B
102
{ACAD_REACTORS
330
AD
102
}
100
AcDbEntity
  8
M04
100
AcDbLine
 10
667.257613
 20
206.619819
 30
0.0
 11
668.257613
 21
206.619819
 31
0.0
  0
LINE
  5
31C
100
AcDbEntity
  8
M05
100
AcDbLine
 10
667.257613
 20
206.619819
 30
0.0
 11
668.257613
 21
205.619819
 31
0.0
  0
LINE
  5
31D
100
AcDbEntity
  8
M05
100
AcDbLine
 10
648.257613
 20
205.619819
 30
0.0
 11
649.257613
 21
206.619819
 31
0.0
  0
LINE
  5
31E
102
{ACAD_REACTORS
330
AD
102
}
100
AcDbEntity
  8
M05
100
AcDbLine
 10
667.257613
 20
206.619819
 30
0.0
 11
649.257613
 21
206.619819
 31
0.0
  0
LINE
  5
31F
102
{ACAD_REACTORS
330
AD
102
}
100
AcDbEntity
  8
M05
100
AcDbLine
 10
648.257613
 20
205.619819
 30
0.0
 11
648.257613
 21
196.619819
 31
0.0
  0
LINE
  5
320
102
{ACAD_REACTORS
330
AD
102
}
100
AcDbEntity
  8
M05
100
AcDbLine
 10
668.257613
 20
205.619819
 30
0.0
 11
668.257613
 21
196.619819
 31
0.0
  0
LINE
  5
321
100
AcDbEntity
  8
M04
100
AcDbLine
 10
679.982613
 20
263.619819
 30
0.0
 11
922.257613
 21
263.619819
 31
0.0
  0
LINE
  5
322
102
{ACAD_REACTORS
330
AB
102
}
100
AcDbEntity
  8
M02
100
AcDbLine
 10
679.982613
 20
259.619819
 30
0.0
 11
913.257613
 21
259.619819
 31
0.0
  0
LINE
  5
323
102
{ACAD_REACTORS
330
AD
102
}
100
AcDbEntity
  8
M04
100
AcDbLine
 10
649.757613
 20
251.619819
 30
0.0
 11
648.757613
 21
251.619819
 31
0.0
  0
LINE
  5
324
102
{ACAD_REACTORS
330
AD
102
}
100
AcDbEntity
  8
M04
100
AcDbLine
 10
648.757613
 20
252.619819
 30
0.0
 11
648.757613
 21
251.619819
 31
0.0
  0
LINE
  5
325
102
{ACAD_REACTORS
330
AD
102
}
100
AcDbEntity
  8
M04
100
AcDbLine
 10
666.757613
 20
251.619819
 30
0.0
 11
667.757613
 21
251.619819
 31
0.0
  0
LINE
  5
326
102
{ACAD_REACTORS
330
AD
102
}
100
AcDbEntity
  8
M04
100
AcDbLine
 10
667.757613
 20
252.619819
 30
0.0
 11
667.757613
 21
251.619819
 31
0.0
  0
LINE
  5
327
100
AcDbEntity
  8
M02
100
AcDbLine
 10
635.032613
 20
259.619819
 30
0.0
 11
635.032613
 21
256.619819
 31
0.0
  0
LINE
  5
328
100
AcDbEntity
  8
M02
100
AcDbLine
 10
681.482613
 20
259.619819
 30
0.0
 11
681.482613
 21
256.619819
 31
0.0
  0
LINE
  5
329
100
AcDbEntity
  8
M05
100
AcDbLine
 10
648.757613
 20
252.619819
 30
0.0
 11
667.757613
 21
252.619819
 31
0.0
  0
LINE
  5
32A
100
AcDbEntity
  8
M05
100
AcDbLine
 10
649.757613
 20
251.619819
 30
0.0
 11
648.757613
 21
252.619819
 31
0.0
  0
LINE
  5
32B
100
AcDbEntity
  8
M05
100
AcDbLine
 10
667.757613
 20
252.619819
 30
0.0
 11
666.757613
 21
251.619819
 31
0.0
  0
LINE
  5
32C
102
{ACAD_REACTORS
330
AD
102
}
100
AcDbEntity
  8
M05
100
AcDbLine
 10
666.757613
 20
251.619819
 30
0.0
 11
649.757613
 21
251.619819
 31
0.0
  0
LINE
  5
32D
102
{ACAD_REACTORS
330
114
102
}
100
AcDbEntity
  8
M05
100
AcDbLine
 10
863.757613
 20
190.619819
 30
0.0
 11
862.757613
 21
189.619819
 31
0.0
  0
LINE
  5
32E
102
{ACAD_REACTORS
330
114
102
}
100
AcDbEntity
  8
M05
100
AcDbLine
 10
875.757613
 20
190.619819
 30
0.0
 11
876.757613
 21
189.619819
 31
0.0
  0
LINE
  5
32F
102
{ACAD_REACTORS
330
114
102
}
100
AcDbEntity
  8
M05
100
AcDbLine
 10
863.757613
 20
190.619819
 30
0.0
 11
875.757613
 21
190.619819
 31
0.0
  0
LINE
  5
330
102
{ACAD_REACTORS
330
114
102
}
100
AcDbEntity
  8
M05
100
AcDbLine
 10
902.757613
 20
190.619819
 30
0.0
 11
903.757613
 21
189.619819
 31
0.0
  0
LINE
  5
331
102
{ACAD_REACTORS
330
114
102
}
100
AcDbEntity
  8
M05
100
AcDbLine
 10
890.757613
 20
190.619819
 30
0.0
 11
889.757613
 21
189.619819
 31
0.0
  0
LINE
  5
332
102
{ACAD_REACTORS
330
114
102
}
100
AcDbEntity
  8
M05
100
AcDbLine
 10
902.757613
 20
190.619819
 30
0.0
 11
890.757613
 21
190.619819
 31
0.0
  0
MTEXT
  5
333
102
{ACAD_REACTORS
330
334
102
}
100
AcDbEntity
  8
HATCH
 62
     2
100
AcDbMText
 10
919.120989
 20
170.548152
 30
0.0
 40
3.0
 41
0.0
 71
     1
 72
     5
  1
MA010004 (x6)
  0
LEADER
  5
334
100
AcDbEntity
  8
HATCH
 62
     4
100
AcDbLeader
  3
DIM1$7
 73
     0
 74
     0
 75
     1
 40
4.571429
 41
34.142857
 76
     3
 10
900.025724
 20
191.250533
 30
0.0
 10
914.620989
 20
169.048152
 30
0.0
 10
917.620989
 20
169.048152
 30
0.0
 77
   256
340
333
213
0.0
223
-1.5
233
0.0
1001
ACAD
1000
DSTYLE
1002
{
1070
   144
1040
1.0
1002
}
  0
LINE
  5
336
100
AcDbEntity
  8
M04
100
AcDbLine
 10
883.257613
 20
171.791913
 30
0.0
 11
885.557613
 21
173.119819
 31
0.0
  0
LINE
  5
337
100
AcDbEntity
  8
M04
100
AcDbLine
 10
880.957613
 20
173.119819
 30
0.0
 11
883.257613
 21
171.791913
 31
0.0
  0
LINE
  5
338
100
AcDbEntity
  8
M04
100
AcDbLine
 10
880.957613
 20
173.119819
 30
0.0
 11
885.557613
 21
173.119819
 31
0.0
  0
LINE
  5
339
100
AcDbEntity
  8
M04
100
AcDbLine
 10
880.257613
 20
178.180937
 30
0.0
 11
880.257613
 21
174.619819
 31
0.0
  0
LINE
  5
33A
100
AcDbEntity
  8
M04
100
AcDbLine
 10
880.957613
 20
177.480937
 30
0.0
 11
880.957613
 21
173.119819
 31
0.0
  0
LINE
  5
33B
100
AcDbEntity
  8
M04
100
AcDbLine
 10
886.257613
 20
178.180937
 30
0.0
 11
886.257613
 21
174.619819
 31
0.0
  0
LINE
  5
33C
100
AcDbEntity
  8
M04
100
AcDbLine
 10
885.557613
 20
177.480937
 30
0.0
 11
885.557613
 21
173.119819
 31
0.0
  0
LINE
  5
33D
100
AcDbEntity
  8
M05
100
AcDbLine
 10
885.557613
 20
177.480937
 30
0.0
 11
886.257613
 21
178.180937
 31
0.0
  0
LINE
  5
33E
100
AcDbEntity
  8
M05
100
AcDbLine
 10
880.257613
 20
178.180937
 30
0.0
 11
880.957613
 21
177.480937
 31
0.0
  0
LINE
  5
33F
100
AcDbEntity
  8
M05
100
AcDbLine
 10
885.557613
 20
190.260937
 30
0.0
 11
885.557613
 21
177.480937
 31
0.0
  0
LINE
  5
340
100
AcDbEntity
  8
M05
100
AcDbLine
 10
880.957613
 20
190.260937
 30
0.0
 11
880.957613
 21
177.480937
 31
0.0
  0
LINE
  5
341
100
AcDbEntity
  8
M05
100
AcDbLine
 10
880.257613
 20
178.180937
 30
0.0
 11
886.257613
 21
178.180937
 31
0.0
  0
LINE
  5
342
100
AcDbEntity
  8
M04
100
AcDbLine
 10
880.257613
 20
174.619819
 30
0.0
 11
886.257613
 21
174.619819
 31
0.0
  0
LINE
  5
343
100
AcDbEntity
  8
M05
100
AcDbLine
 10
880.957613
 20
177.480937
 30
0.0
 11
885.557613
 21
177.480937
 31
0.0
  0
LINE
  5
344
102
{ACAD_REACTORS
330
AD
102
}
100
AcDbEntity
  8
M05
  6
HIDDEN
100
AcDbLine
 10
875.098731
 20
196.919819
 30
0.0
 11
874.398731
 21
197.619819
 31
0.0
  0
LINE
  5
345
102
{ACAD_REACTORS
330
AD
102
}
100
AcDbEntity
  8
M05
  6
HIDDEN
100
AcDbLine
 10
891.416495
 20
196.919819
 30
0.0
 11
892.116495
 21
197.619819
 31
0.0
  0
LINE
  5
346
100
AcDbEntity
  8
M05
100
AcDbLine
 10
880.257613
 20
190.260937
 30
0.0
 11
886.257613
 21
190.260937
 31
0.0
  0
LINE
  5
347
100
AcDbEntity
  8
M05
100
AcDbLine
 10
883.807613
 20
194.760937
 30
0.0
 11
889.257613
 21
194.760937
 31
0.0
  0
LINE
  5
348
100
AcDbEntity
  8
M05
100
AcDbLine
 10
883.807613
 20
195.480937
 30
0.0
 11
889.257613
 21
195.480937
 31
0.0
  0
LINE
  5
349
100
AcDbEntity
  8
M05
100
AcDbLine
 10
883.807613
 20
195.480937
 30
0.0
 11
883.807613
 21
193.980937
 31
0.0
  0
LINE
  5
34A
100
AcDbEntity
  8
M05
100
AcDbLine
 10
882.707613
 20
195.480937
 30
0.0
 11
882.707613
 21
193.980937
 31
0.0
  0
LINE
  5
34B
100
AcDbEntity
  8
M05
100
AcDbLine
 10
882.707613
 20
193.980937
 30
0.0
 11
883.807613
 21
193.980937
 31
0.0
  0
LINE
  5
34C
102
{ACAD_REACTORS
330
114
102
}
100
AcDbEntity
  8
M05
100
AcDbLine
 10
886.757613
 20
192.260937
 30
0.0
 11
886.757613
 21
189.619819
 31
0.0
  0
LINE
  5
34D
102
{ACAD_REACTORS
330
114
102
}
100
AcDbEntity
  8
M05
100
AcDbLine
 10
879.757613
 20
192.260937
 30
0.0
 11
879.757613
 21
189.619819
 31
0.0
  0
LINE
  5
34E
100
AcDbEntity
  8
M05
100
AcDbLine
 10
877.257613
 20
194.760937
 30
0.0
 11
882.707613
 21
194.760937
 31
0.0
  0
LINE
  5
34F
102
{ACAD_REACTORS
330
114
330
AD
102
}
100
AcDbEntity
  8
M05
100
AcDbLine
 10
880.257613
 20
191.760937
 30
0.0
 11
875.098731
 21
196.919819
 31
0.0
  0
LINE
  5
350
100
AcDbEntity
  8
M05
100
AcDbLine
 10
877.257613
 20
195.480937
 30
0.0
 11
877.257613
 21
194.760937
 31
0.0
  0
LINE
  5
351
102
{ACAD_REACTORS
330
114
330
AD
102
}
100
AcDbEntity
  8
M05
100
AcDbLine
 10
886.257613
 20
191.760937
 30
0.0
 11
891.416495
 21
196.919819
 31
0.0
  0
LINE
  5
352
100
AcDbEntity
  8
M05
100
AcDbLine
 10
880.257613
 20
191.760937
 30
0.0
 11
886.257613
 21
191.760937
 31
0.0
  0
LINE
  5
353
100
AcDbEntity
  8
M05
100
AcDbLine
 10
880.257613
 20
191.760937
 30
0.0
 11
880.257613
 21
178.180937
 31
0.0
  0
LINE
  5
354
100
AcDbEntity
  8
M05
100
AcDbLine
 10
886.257613
 20
191.760937
 30
0.0
 11
886.257613
 21
178.180937
 31
0.0
  0
LINE
  5
355
100
AcDbEntity
  8
M05
100
AcDbLine
 10
889.257613
 20
195.480937
 30
0.0
 11
889.257613
 21
194.760937
 31
0.0
  0
LINE
  5
356
100
AcDbEntity
  8
M05
100
AcDbLine
 10
877.257613
 20
195.480937
 30
0.0
 11
882.707613
 21
195.480937
 31
0.0
  0
LINE
  5
357
102
{ACAD_REACTORS
330
AD
102
}
100
AcDbEntity
  8
M05
  6
HIDDEN
100
AcDbLine
 10
859.257613
 20
196.919819
 30
0.0
 11
907.257613
 21
196.919819
 31
0.0
  0
LINE
  5
358
100
AcDbEntity
  8
M05
  6
HIDDEN
100
AcDbLine
 10
907.257613
 20
196.919819
 30
0.0
 11
906.557613
 21
197.619819
 31
0.0
  0
LINE
  5
359
100
AcDbEntity
  8
M05
  6
HIDDEN
100
AcDbLine
 10
907.257613
 20
195.919819
 30
0.0
 11
907.257613
 21
196.919819
 31
0.0
  0
LINE
  5
35A
102
{ACAD_REACTORS
330
114
102
}
100
AcDbEntity
  8
M05
100
AcDbLine
 10
907.257613
 20
195.919819
 30
0.0
 11
906.557613
 21
196.619819
 31
0.0
  0
LINE
  5
35B
102
{ACAD_REACTORS
330
114
102
}
100
AcDbEntity
  8
M05
100
AcDbLine
 10
907.257613
 20
190.319819
 30
0.0
 11
906.557613
 21
189.619819
 31
0.0
  0
LINE
  5
35C
102
{ACAD_REACTORS
330
114
102
}
100
AcDbEntity
  8
M05
100
AcDbLine
 10
907.257613
 20
195.919819
 30
0.0
 11
907.257613
 21
190.319819
 31
0.0
  0
LINE
  5
35D
102
{ACAD_REACTORS
330
AD
102
}
100
AcDbEntity
  8
M05
  6
HIDDEN
100
AcDbLine
 10
859.257613
 20
196.919819
 30
0.0
 11
859.957613
 21
197.619819
 31
0.0
  0
LINE
  5
35E
102
{ACAD_REACTORS
330
AD
102
}
100
AcDbEntity
  8
M05
  6
HIDDEN
100
AcDbLine
 10
859.257613
 20
195.919819
 30
0.0
 11
859.257613
 21
196.919819
 31
0.0
  0
LINE
  5
35F
102
{ACAD_REACTORS
330
114
102
}
100
AcDbEntity
  8
M05
100
AcDbLine
 10
859.257613
 20
195.919819
 30
0.0
 11
859.957613
 21
196.619819
 31
0.0
  0
LINE
  5
360
102
{ACAD_REACTORS
330
114
102
}
100
AcDbEntity
  8
M05
100
AcDbLine
 10
859.257613
 20
190.319819
 30
0.0
 11
859.957613
 21
189.619819
 31
0.0
  0
LINE
  5
361
102
{ACAD_REACTORS
330
A9
102
}
100
AcDbEntity
  8
M02
100
AcDbLine
 10
908.257613
 20
196.619819
 30
0.0
 11
908.257613
 21
193.619819
 31
0.0
  0
LINE
  5
362
100
AcDbEntity
  8
M02
100
AcDbLine
 10
858.257613
 20
196.619819
 30
0.0
 11
858.257613
 21
193.619819
 31
0.0
  0
LINE
  5
363
102
{ACAD_REACTORS
330
AD
102
}
100
AcDbEntity
  8
M05
  6
HIDDEN
100
AcDbLine
 10
859.957613
 20
197.619819
 30
0.0
 11
906.557613
 21
197.619819
 31
0.0
  0
LINE
  5
364
102
{ACAD_REACTORS
330
114
102
}
100
AcDbEntity
  8
M05
100
AcDbLine
 10
859.257613
 20
195.919819
 30
0.0
 11
859.257613
 21
190.319819
 31
0.0
  0
LINE
  5
365
102
{ACAD_REACTORS
330
AD
102
}
100
AcDbEntity
  8
CENTRE
100
AcDbLine
 10
883.257613
 20
202.12893
 30
0.0
 11
883.257613
 21
169.050591
 31
0.0
  0
CIRCLE
  5
366
100
AcDbEntity
  8
M03
100
AcDbCircle
 10
433.257613
 20
656.660844
 30
0.0
 40
2.3
  0
ARC
  5
367
100
AcDbEntity
  8
M03
100
AcDbCircle
 10
433.257613
 20
656.660844
 30
0.0
 40
3.0
100
AcDbArc
 50
167.784636
 51
96.923103
  0
LINE
  5
368
100
AcDbEntity
  8
M03
100
AcDbLine
 10
433.807613
 20
650.686105
 30
0.0
 11
433.807613
 21
662.635582
 31
0.0
  0
LINE
  5
369
100
AcDbEntity
  8
M03
100
AcDbLine
 10
432.707613
 20
650.686105
 30
0.0
 11
432.707613
 21
662.635582
 31
0.0
  0
CIRCLE
  5
36A
100
AcDbEntity
  8
M03
100
AcDbCircle
 10
433.257613
 20
656.660844
 30
0.0
 40
7.858882
  0
CIRCLE
  5
36B
100
AcDbEntity
  8
M03
100
AcDbCircle
 10
433.257613
 20
656.660844
 30
0.0
 40
6.0
  0
LINE
  5
36C
100
AcDbEntity
  8
DIMS
 62
     4
100
AcDbLine
 10
661.657613
 20
518.160844
 30
0.0
 11
665.457613
 21
518.160844
 31
0.0
  0
LINE
  5
36D
100
AcDbEntity
  8
DIMS
 62
     4
100
AcDbLine
 10
654.857613
 20
518.160844
 30
0.0
 11
651.057613
 21
518.160844
 31
0.0
  0
LINE
  5
36E
100
AcDbEntity
  8
DIMS
 62
     4
100
AcDbLine
 10
656.557613
 20
518.160844
 30
0.0
 11
659.957613
 21
518.160844
 31
0.0
  0
CIRCLE
  5
36F
100
AcDbEntity
  8
M03
100
AcDbCircle
 10
658.257613
 20
518.160844
 30
0.0
 40
2.3
  0
ARC
  5
370
100
AcDbEntity
  8
M03
100
AcDbCircle
 10
658.257613
 20
518.160844
 30
0.0
 40
3.0
100
AcDbArc
 50
167.784636
 51
96.923103
  0
CIRCLE
  5
371
100
AcDbEntity
  8
M03
100
AcDbCircle
 10
658.257613
 20
518.160844
 30
0.0
 40
5.5
  0
CIRCLE
  5
372
100
AcDbEntity
  8
M03
100
AcDbCircle
 10
658.257613
 20
544.160844
 30
0.0
 40
34.0
  0
LINE
  5
373
100
AcDbEntity
  8
DIMS
 62
     4
100
AcDbLine
 10
632.257613
 20
547.560844
 30
0.0
 11
632.257613
 21
551.360844
 31
0.0
  0
LINE
  5
374
100
AcDbEntity
  8
DIMS
 62
     4
100
AcDbLine
 10
632.257613
 20
540.760844
 30
0.0
 11
632.257613
 21
536.960844
 31
0.0
  0
LINE
  5
375
100
AcDbEntity
  8
DIMS
 62
     4
100
AcDbLine
 10
632.257613
 20
542.460844
 30
0.0
 11
632.257613
 21
545.860844
 31
0.0
  0
LINE
  5
376
100
AcDbEntity
  8
DIMS
 62
     4
100
AcDbLine
 10
684.257613
 20
547.560844
 30
0.0
 11
684.257613
 21
551.360844
 31
0.0
  0
LINE
  5
377
100
AcDbEntity
  8
DIMS
 62
     4
100
AcDbLine
 10
684.257613
 20
540.760844
 30
0.0
 11
684.257613
 21
536.960844
 31
0.0
  0
LINE
  5
378
100
AcDbEntity
  8
DIMS
 62
     4
100
AcDbLine
 10
684.257613
 20
542.460844
 30
0.0
 11
684.257613
 21
545.860844
 31
0.0
  0
LINE
  5
379
100
AcDbEntity
  8
DIMS
 62
     4
100
AcDbLine
 10
661.657613
 20
570.160844
 30
0.0
 11
665.457613
 21
570.160844
 31
0.0
  0
LINE
  5
37A
100
AcDbEntity
  8
DIMS
 62
     4
100
AcDbLine
 10
654.857613
 20
570.160844
 30
0.0
 11
651.057613
 21
570.160844
 31
0.0
  0
LINE
  5
37B
100
AcDbEntity
  8
DIMS
 62
     4
100
AcDbLine
 10
656.557613
 20
570.160844
 30
0.0
 11
659.957613
 21
570.160844
 31
0.0
  0
CIRCLE
  5
37C
100
AcDbEntity
  8
M03
100
AcDbCircle
 10
684.257613
 20
544.160844
 30
0.0
 40
2.3
  0
ARC
  5
37D
100
AcDbEntity
  8
M03
100
AcDbCircle
 10
684.257613
 20
544.160844
 30
0.0
 40
3.0
100
AcDbArc
 50
167.784636
 51
96.923103
  0
CIRCLE
  5
37E
100
AcDbEntity
  8
M03
100
AcDbCircle
 10
684.257613
 20
544.160844
 30
0.0
 40
5.5
  0
CIRCLE
  5
37F
100
AcDbEntity
  8
M03
100
AcDbCircle
 10
632.257613
 20
544.160844
 30
0.0
 40
2.3
  0
ARC
  5
380
100
AcDbEntity
  8
M03
100
AcDbCircle
 10
632.257613
 20
544.160844
 30
0.0
 40
3.0
100
AcDbArc
 50
167.784636
 51
96.923103
  0
CIRCLE
  5
381
100
AcDbEntity
  8
M03
100
AcDbCircle
 10
632.257613
 20
544.160844
 30
0.0
 40
5.5
  0
CIRCLE
  5
382
100
AcDbEntity
  8
M03
100
AcDbCircle
 10
658.257613
 20
570.160844
 30
0.0
 40
2.3
  0
ARC
  5
383
100
AcDbEntity
  8
M03
100
AcDbCircle
 10
658.257613
 20
570.160844
 30
0.0
 40
3.0
100
AcDbArc
 50
167.784636
 51
96.923103
  0
CIRCLE
  5
384
100
AcDbEntity
  8
M03
100
AcDbCircle
 10
658.257613
 20
570.160844
 30
0.0
 40
5.5
  0
CIRCLE
  5
385
100
AcDbEntity
  8
M03
100
AcDbCircle
 10
658.257613
 20
544.160844
 30
0.0
 40
20.0
  0
WIPEOUT
  5
386
100
AcDbEntity
  8
TEXT
 92
      140
310
8C00000001000000840000000600000005000000AD2B40FDF7F18A40652517CB5D976A400000000000000000BC15E10BE26A8B40652517CB5D976A400000000000000000BD15E10BE26A8B40612517CB5D176B400000000000000000AF2B40FDF7F18A40652517CB5D176B400000000000000000AD2B40FDF7F18A40652517
310
CB5D976A400000000000000000
100
AcDbWipeout
 90
        0
 10
827.383419
 20
166.753245
 30
0.0
 11
49.976955
 21
0.0
 31
0.0
 12
0.0
 22
49.976955
 32
0.0
 13
0.0
 23
0.0
340
0
 70
     7
280
     1
281
    50
282
    50
283
     0
360
0
 71
     2
 91
        5
 14
0.197575
 24
-0.419963
 14
0.5
 24
-0.419963
 14
0.5
 24
-0.5
 14
0.197575
 24
-0.5
 14
0.197575
 24
-0.419963
  0
TEXT
  5
387
102
{ACAD_REACTORS
330
AD
102
}
100
AcDbEntity
  8
TEXT
100
AcDbText
 10
863.246089
 20
213.730199
 30
0.0
 40
2.0
  1
MM010113
 41
0.9
100
AcDbText
  0
CIRCLE
  5
388
102
{ACAD_REACTORS
330
AD
102
}
100
AcDbEntity
  8
M01
100
AcDbCircle
 10
545.757613
 20
239.619819
 30
0.0
 40
4.0
  0
LINE
  5
389
102
{ACAD_REACTORS
330
AD
102
}
100
AcDbEntity
  8
M01
100
AcDbLine
 10
662.257613
 20
213.619819
 30
0.0
 11
770.757613
 21
213.619819
 31
0.0
  0
LINE
  5
38A
100
AcDbEntity
  8
M01
100
AcDbLine
 10
658.257613
 20
217.619819
 30
0.0
 11
662.257613
 21
213.619819
 31
0.0
  0
LINE
  5
38B
100
AcDbEntity
  8
M01
100
AcDbLine
 10
654.257613
 20
213.619819
 30
0.0
 11
658.257613
 21
217.619819
 31
0.0
  0
LINE
  5
38C
100
AcDbEntity
  8
M01
100
AcDbLine
 10
549.757613
 20
221.619819
 30
0.0
 11
545.757613
 21
217.619819
 31
0.0
  0
ARC
  5
38D
102
{ACAD_REACTORS
330
AD
102
}
100
AcDbEntity
  8
M01
100
AcDbCircle
 10
545.757613
 20
217.619819
 30
0.0
 40
4.0
100
AcDbArc
 50
180.0
 51
270.0
  0
LINE
  5
38E
102
{ACAD_REACTORS
330
AD
102
}
100
AcDbEntity
  8
M01
100
AcDbLine
 10
549.757613
 20
239.619819
 30
0.0
 11
549.757613
 21
221.619819
 31
0.0
  0
LINE
  5
38F
102
{ACAD_REACTORS
330
AD
102
}
100
AcDbEntity
  8
M01
100
AcDbLine
 10
541.757613
 20
239.619819
 30
0.0
 11
541.757613
 21
217.619819
 31
0.0
  0
LINE
  5
390
100
AcDbEntity
  8
CENTRE
100
AcDbLine
 10
545.757613
 20
247.619819
 30
0.0
 11
545.757613
 21
209.619819
 31
0.0
  0
LINE
  5
391
100
AcDbEntity
  8
M01
100
AcDbLine
 10
766.757613
 20
221.619819
 30
0.0
 11
770.757613
 21
217.619819
 31
0.0
  0
ARC
  5
392
102
{ACAD_REACTORS
330
AD
102
}
100
AcDbEntity
  8
M01
100
AcDbCircle
 10
770.757613
 20
217.619819
 30
0.0
 40
4.0
100
AcDbArc
 50
270.0
 51
0.0
  0
LINE
  5
393
100
AcDbEntity
  8
CENTRE
100
AcDbLine
 10
537.757613
 20
217.619819
 30
0.0
 11
778.757613
 21
217.619819
 31
0.0
  0
LINE
  5
394
102
{ACAD_REACTORS
330
AD
102
}
100
AcDbEntity
  8
M01
100
AcDbLine
 10
545.757613
 20
213.619819
 30
0.0
 11
654.257613
 21
213.619819
 31
0.0
  0
LINE
  5
395
102
{ACAD_REACTORS
330
AD
102
}
100
AcDbEntity
  8
M01
100
AcDbLine
 10
549.757613
 20
221.619819
 30
0.0
 11
766.757613
 21
221.619819
 31
0.0
  0
ARC
  5
396
102
{ACAD_REACTORS
330
AD
102
}
100
AcDbEntity
  8
M01
100
AcDbCircle
 10
770.757613
 20
239.619819
 30
0.0
 40
4.0
100
AcDbArc
 50
90.0
 51
180.0
  0
LINE
  5
397
100
AcDbEntity
  8
M01
100
AcDbLine
 10
770.757613
 20
239.619819
 30
0.0
 11
774.757613
 21
235.619819
 31
0.0
  0
LINE
  5
398
102
{ACAD_REACTORS
330
AD
102
}
100
AcDbEntity
  8
M01
100
AcDbLine
 10
766.757613
 20
239.619819
 30
0.0
 11
766.757613
 21
221.619819
 31
0.0
  0
LINE
  5
399
102
{ACAD_REACTORS
330
AD
102
}
100
AcDbEntity
  8
M01
100
AcDbLine
 10
774.757613
 20
235.619819
 30
0.0
 11
774.757613
 21
217.619819
 31
0.0
  0
LINE
  5
39A
100
AcDbEntity
  8
CENTRE
100
AcDbLine
 10
770.757613
 20
247.619819
 30
0.0
 11
770.757613
 21
209.619819
 31
0.0
  0
LINE
  5
39B
102
{ACAD_REACTORS
330
AD
102
}
100
AcDbEntity
  8
M01
100
AcDbLine
 10
883.257613
 20
235.619819
 30
0.0
 11
774.757613
 21
235.619819
 31
0.0
  0
ARC
  5
39C
102
{ACAD_REACTORS
330
AD
102
}
100
AcDbEntity
  8
M01
100
AcDbCircle
 10
883.257613
 20
239.619819
 30
0.0
 40
4.0
100
AcDbArc
 50
270.0
 51
0.0
  0
LINE
  5
39D
102
{ACAD_REACTORS
330
AD
102
}
100
AcDbEntity
  8
M01
100
AcDbLine
 10
887.257613
 20
256.619819
 30
0.0
 11
887.257613
 21
239.619819
 31
0.0
  0
LINE
  5
39E
102
{ACAD_REACTORS
330
AD
102
}
100
AcDbEntity
  8
M01
100
AcDbLine
 10
879.257613
 20
256.619819
 30
0.0
 11
879.257613
 21
243.619819
 31
0.0
  0
LINE
  5
39F
102
{ACAD_REACTORS
330
AD
102
}
100
AcDbEntity
  8
M01
100
AcDbLine
 10
879.257613
 20
243.619819
 30
0.0
 11
770.757613
 21
243.619819
 31
0.0
  0
LINE
  5
3A0
102
{ACAD_REACTORS
330
AB
102
}
100
AcDbEntity
  8
M02
100
AcDbLine
 10
901.257613
 20
256.619819
 30
0.0
 11
901.257613
 21
259.619819
 31
0.0
  0
LINE
  5
3A1
100
AcDbEntity
  8
M02
100
AcDbLine
 10
865.257613
 20
256.619819
 30
0.0
 11
865.257613
 21
259.619819
 31
0.0
  0
LINE
  5
3A2
100
AcDbEntity
  8
CENTRE
100
AcDbLine
 10
762.757613
 20
239.619819
 30
0.0
 11
891.257613
 21
239.619819
 31
0.0
  0
LINE
  5
3A3
100
AcDbEntity
  8
M01
100
AcDbLine
 10
883.257613
 20
239.619819
 30
0.0
 11
879.257613
 21
243.619819
 31
0.0
  0
LINE
  5
3A4
100
AcDbEntity
  8
CENTRE
100
AcDbLine
 10
883.257613
 20
269.431414
 30
0.0
 11
883.257613
 21
231.619819
 31
0.0
  0
LWPOLYLINE
  5
3A5
100
AcDbEntity
  8
M01
 62
     4
100
AcDbPolyline
 90
        2
 70
     0
 43
0.0
 10
925.531951
 20
627.80797
 10
938.700367
 20
639.046766
1001
ACAD
1000
DSTYLE
1002
{
1070
   144
1040
1.0
1002
}
  0
SOLID
  5
3A6
100
AcDbEntity
  8
M01
 62
     4
100
AcDbTrace
 10
925.207362
 20
628.188289
 30
0.0
 11
923.25004
 21
625.860437
 31
0.0
 12
925.856539
 22
627.427652
 32
0.0
 13
925.856539
 23
627.427652
 33
0.0
1001
ACAD
1000
DSTYLE
1002
{
1070
   144
1040
1.0
1002
}
  0
LINE
  5
3A7
100
AcDbEntity
  8
M01
 62
     4
100
AcDbLine
 10
829.237394
 20
395.492419
 30
0.0
 11
826.237394
 21
395.492419
 31
0.0
1001
ACAD
1000
DSTYLE
1002
{
1070
   144
1040
1.0
1002
}
  0
LINE
  5
3A8
100
AcDbEntity
  8
M01
 62
     4
100
AcDbLine
 10
845.241905
 20
425.650603
 30
0.0
 11
829.237394
 21
395.492419
 31
0.0
1001
ACAD
1000
DSTYLE
1002
{
1070
   144
1040
1.0
1002
}
  0
SOLID
  5
3A9
100
AcDbEntity
  8
M01
 62
     4
100
AcDbTrace
 10
844.800244
 20
425.884986
 30
0.0
 11
846.648204
 21
428.300569
 31
0.0
 12
845.683566
 22
425.41622
 32
0.0
 13
845.683566
 23
425.41622
 33
0.0
1001
ACAD
1000
DSTYLE
1002
{
1070
   144
1040
1.0
1002
}
  0
MTEXT
  5
3AA
100
AcDbEntity
  8
DIMS
 62
     2
100
AcDbMText
 10
789.876564
 20
395.038589
 30
0.0
 40
3.0
 41
0.0
 71
     4
 72
     5
  1
HGX10037 (x2)
  0
LINE
  5
3AB
100
AcDbEntity
  8
M01
100
AcDbLine
 10
336.021945
 20
202.631807
 30
0.0
 11
334.815216
 21
200.652099
 31
0.0
  0
LINE
  5
3AC
100
AcDbEntity
  8
M01
100
AcDbLine
 10
324.568718
 20
194.89784
 30
0.0
 11
315.993906
 21
194.89784
 31
0.0
  0
LINE
  5
3AD
100
AcDbEntity
  8
M01
100
AcDbLine
 10
324.568718
 20
198.89784
 30
0.0
 11
315.993906
 21
198.89784
 31
0.0
  0
ARC
  5
3AE
100
AcDbEntity
  8
M01
100
AcDbCircle
 10
324.568718
 20
206.89784
 30
0.0
 40
12.0
100
AcDbArc
 50
270.0
 51
328.635651
  0
ARC
  5
3AF
100
AcDbEntity
  8
M01
100
AcDbCircle
 10
324.568718
 20
206.89784
 30
0.0
 40
8.0
100
AcDbArc
 50
270.0
 51
321.153546
  0
LINE
  5
3B0
100
AcDbEntity
  8
M01
100
AcDbLine
 10
339.646398
 20
216.263168
 30
0.0
 11
333.41229
 21
206.035756
 31
0.0
  0
LINE
  5
3B1
100
AcDbEntity
  8
M01
100
AcDbLine
 10
343.061897
 20
214.181254
 30
0.0
 11
342.864688
 21
213.857722
 31
0.0
  0
LINE
  5
3B2
100
AcDbEntity
  8
M01
100
AcDbLine
 10
350.064305
 20
215.619819
 30
0.0
 11
350.657613
 21
215.619819
 31
0.0
  0
LINE
  5
3B3
100
AcDbEntity
  8
M01
100
AcDbLine
 10
345.623521
 20
219.619819
 30
0.0
 11
348.349365
 21
219.619819
 31
0.0
  0
ARC
  5
3B4
100
AcDbEntity
  8
M01
100
AcDbCircle
 10
345.623521
 20
212.619819
 30
0.0
 40
3.0
100
AcDbArc
 50
118.327309
 51
148.635651
  0
ARC
  5
3B5
100
AcDbEntity
  8
M01
100
AcDbCircle
 10
345.623521
 20
212.619819
 30
0.0
 40
7.0
100
AcDbArc
 50
90.0
 51
148.635651
  0
ARC
  5
3B6
100
AcDbEntity
  8
M01
100
AcDbCircle
 10
350.657613
 20
212.619819
 30
0.0
 40
7.0
100
AcDbArc
 50
0.0
 51
67.321321
  0
ARC
  5
3B7
100
AcDbEntity
  8
M01
100
AcDbCircle
 10
350.657613
 20
212.619819
 30
0.0
 40
3.0
100
AcDbArc
 50
0.0
 51
90.0
  0
ARC
  5
3B8
100
AcDbEntity
  8
M01
100
AcDbCircle
 10
331.841138
 20
213.879956
 30
0.0
 40
12.0
100
AcDbArc
 50
270.0
 51
316.413007
  0
ARC
  5
3B9
100
AcDbEntity
  8
M01
100
AcDbCircle
 10
331.841138
 20
213.879956
 30
0.0
 40
8.0
100
AcDbArc
 50
270.0
 51
316.413007
  0
LINE
  5
3BA
100
AcDbEntity
  8
M01
100
AcDbLine
 10
353.657613
 20
212.619819
 30
0.0
 11
353.657613
 21
207.619819
 31
0.0
  0
LINE
  5
3BB
100
AcDbEntity
  8
M01
100
AcDbLine
 10
353.657613
 20
211.619819
 30
0.0
 11
357.657613
 21
211.619819
 31
0.0
  0
LINE
  5
3BC
100
AcDbEntity
  8
M01
100
AcDbLine
 10
353.657613
 20
207.619819
 30
0.0
 11
357.657613
 21
207.619819
 31
0.0
  0
LINE
  5
3BD
100
AcDbEntity
  8
M01
100
AcDbLine
 10
357.657613
 20
255.619819
 30
0.0
 11
357.657613
 21
228.395281
 31
0.0
  0
LINE
  5
3BE
100
AcDbEntity
  8
M01
100
AcDbLine
 10
353.657613
 20
228.395281
 30
0.0
 11
353.657613
 21
245.619819
 31
0.0
  0
ARC
  5
3BF
100
AcDbEntity
  8
M01
100
AcDbCircle
 10
345.657613
 20
228.395281
 30
0.0
 40
12.0
100
AcDbArc
 50
316.413007
 51
360.0
  0
ARC
  5
3C0
100
AcDbEntity
  8
M01
100
AcDbCircle
 10
345.657613
 20
228.395281
 30
0.0
 40
8.0
100
AcDbArc
 50
316.413007
 51
360.0
  0
LINE
  5
3C1
100
AcDbEntity
  8
M01
100
AcDbLine
 10
353.657613
 20
241.619819
 30
0.0
 11
357.657613
 21
241.619819
 31
0.0
  0
LINE
  5
3C2
100
AcDbEntity
  8
M01
100
AcDbLine
 10
353.657613
 20
245.619819
 30
0.0
 11
357.657613
 21
245.619819
 31
0.0
  0
LINE
  5
3C3
100
AcDbEntity
  8
M01
100
AcDbLine
 10
340.533079
 20
205.606495
 30
0.0
 11
354.349553
 21
220.121819
 31
0.0
  0
LINE
  5
3C4
100
AcDbEntity
  8
M01
100
AcDbLine
 10
337.635765
 20
208.364315
 30
0.0
 11
351.45224
 21
222.87964
 31
0.0
  0
LINE
  5
3C5
100
AcDbEntity
  8
M01
100
AcDbLine
 10
316.002648
 20
201.879956
 30
0.0
 11
331.841138
 21
201.879956
 31
0.0
  0
LINE
  5
3C6
100
AcDbEntity
  8
M01
100
AcDbLine
 10
316.002648
 20
205.879956
 30
0.0
 11
331.841138
 21
205.879956
 31
0.0
  0
LINE
  5
3C7
100
AcDbEntity
  8
M01
100
AcDbLine
 10
372.313512
 20
205.869819
 30
0.0
 11
372.313512
 21
199.369819
 31
0.0
  0
LINE
  5
3C8
100
AcDbEntity
  8
M01
100
AcDbLine
 10
364.201713
 20
205.869819
 30
0.0
 11
364.201713
 21
199.369819
 31
0.0
  0
LINE
  5
3C9
100
AcDbEntity
  8
M01
100
AcDbLine
 10
372.313512
 20
205.869819
 30
0.0
 11
374.257613
 21
205.869819
 31
0.0
  0
ARC
  5
3CA
100
AcDbEntity
  8
M01
100
AcDbCircle
 10
370.752263
 20
207.119819
 30
0.0
 40
2.0
100
AcDbArc
 50
270.0
 51
321.317813
  0
ARC
  5
3CB
100
AcDbEntity
  8
M01
100
AcDbCircle
 10
365.762962
 20
207.119819
 30
0.0
 40
2.0
100
AcDbArc
 50
218.682187
 51
270.0
  0
LINE
  5
3CC
100
AcDbEntity
  8
M01
100
AcDbLine
 10
362.257613
 20
205.869819
 30
0.0
 11
364.201713
 21
205.869819
 31
0.0
  0
LINE
  5
3CD
100
AcDbEntity
  8
M01
100
AcDbLine
 10
365.762962
 20
205.119819
 30
0.0
 11
370.752263
 21
205.119819
 31
0.0
  0
LINE
  5
3CE
100
AcDbEntity
  8
M01
100
AcDbLine
 10
372.313512
 20
199.369819
 30
0.0
 11
374.257613
 21
199.369819
 31
0.0
  0
ARC
  5
3CF
100
AcDbEntity
  8
M01
100
AcDbCircle
 10
370.752263
 20
198.119819
 30
0.0
 40
2.0
100
AcDbArc
 50
38.682187
 51
90.0
  0
ARC
  5
3D0
100
AcDbEntity
  8
M01
100
AcDbCircle
 10
365.762962
 20
198.119819
 30
0.0
 40
2.0
100
AcDbArc
 50
90.0
 51
141.317813
  0
LINE
  5
3D1
100
AcDbEntity
  8
M01
100
AcDbLine
 10
362.257613
 20
199.369819
 30
0.0
 11
364.201713
 21
199.369819
 31
0.0
  0
LINE
  5
3D2
100
AcDbEntity
  8
M01
100
AcDbLine
 10
365.762962
 20
200.119819
 30
0.0
 11
370.752263
 21
200.119819
 31
0.0
  0
LINE
  5
3D3
100
AcDbEntity
  8
DIMS
 62
     4
100
AcDbLine
 10
902.116346
 20
200.619819
 30
0.0
 11
899.816346
 21
200.619819
 31
0.0
  0
LINE
  5
3D4
100
AcDbEntity
  8
DIMS
 62
     4
100
AcDbLine
 10
908.916346
 20
200.619819
 30
0.0
 11
911.216346
 21
200.619819
 31
0.0
  0
LINE
  5
3D5
100
AcDbEntity
  8
DIMS
 62
     4
100
AcDbLine
 10
905.516346
 20
197.219819
 30
0.0
 11
905.516346
 21
194.919819
 31
0.0
  0
LINE
  5
3D6
100
AcDbEntity
  8
DIMS
 62
     4
100
AcDbLine
 10
905.516346
 20
204.019819
 30
0.0
 11
905.516346
 21
206.319819
 31
0.0
  0
LINE
  5
3D7
100
AcDbEntity
  8
DIMS
 62
     4
100
AcDbLine
 10
907.216346
 20
200.619819
 30
0.0
 11
903.816346
 21
200.619819
 31
0.0
  0
LINE
  5
3D8
100
AcDbEntity
  8
DIMS
 62
     4
100
AcDbLine
 10
905.516346
 20
202.319819
 30
0.0
 11
905.516346
 21
198.919819
 31
0.0
  0
LINE
  5
3D9
100
AcDbEntity
  8
DIMS
 62
     4
100
AcDbLine
 10
902.116346
 20
252.619819
 30
0.0
 11
899.816346
 21
252.619819
 31
0.0
  0
LINE
  5
3DA
100
AcDbEntity
  8
DIMS
 62
     4
100
AcDbLine
 10
908.916346
 20
252.619819
 30
0.0
 11
911.216346
 21
252.619819
 31
0.0
  0
LINE
  5
3DB
100
AcDbEntity
  8
DIMS
 62
     4
100
AcDbLine
 10
905.516346
 20
249.219819
 30
0.0
 11
905.516346
 21
246.919819
 31
0.0
  0
LINE
  5
3DC
100
AcDbEntity
  8
DIMS
 62
     4
100
AcDbLine
 10
905.516346
 20
256.019819
 30
0.0
 11
905.516346
 21
258.319819
 31
0.0
  0
LINE
  5
3DD
100
AcDbEntity
  8
DIMS
 62
     4
100
AcDbLine
 10
907.216346
 20
252.619819
 30
0.0
 11
903.816346
 21
252.619819
 31
0.0
  0
LINE
  5
3DE
100
AcDbEntity
  8
DIMS
 62
     4
100
AcDbLine
 10
905.516346
 20
254.319819
 30
0.0
 11
905.516346
 21
250.919819
 31
0.0
  0
HATCH
  5
3DF
100
AcDbEntity
  8
HATCH
100
AcDbHatch
 10
0.0
 20
0.0
 30
0.0
210
0.0
220
0.0
230
1.0
  2
_U
 70
     0
 71
     1
 91
        2
 92
        7
 72
     1
 73
     1
 93
        2
 10
909.5163457646993
 20
252.6198189684176
 42
1.0
 10
901.5163457646993
 20
252.6198189684176
 42
1.0
 97
        1
330
3E5
 92
        7
 72
     1
 73
     1
 93
        2
 10
909.5163457646993
 20
200.6198189684176
 42
1.0
 10
901.5163457646993
 20
200.6198189684176
 42
1.0
 97
        1
330
3E4
 75
     0
 76
     0
 52
135.0
 41
0.8
 77
     0
 78
     1
 53
225.0
 43
1315.075572
 44
1031.209926
 45
-0.565685424949238
 46
0.565685424949238
 79
     0
 47
0.095608
 98
        2
 10
905.816987
 20
252.486471
 10
904.66969
 20
213.46228
  0
LINE
  5
3E0
102
{ACAD_REACTORS
330
AD
102
}
100
AcDbEntity
  8
M01
100
AcDbLine
 10
909.516346
 20
200.619819
 30
0.0
 11
909.516346
 21
196.619819
 31
0.0
  0
LINE
  5
3E1
102
{ACAD_REACTORS
330
AD
102
}
100
AcDbEntity
  8
M01
100
AcDbLine
 10
901.516346
 20
200.619819
 30
0.0
 11
901.516346
 21
196.619819
 31
0.0
  0
LINE
  5
3E2
102
{ACAD_REACTORS
330
AD
102
}
100
AcDbEntity
  8
M01
100
AcDbLine
 10
909.516346
 20
252.619819
 30
0.0
 11
909.516346
 21
256.619819
 31
0.0
  0
LINE
  5
3E3
102
{ACAD_REACTORS
330
AD
102
}
100
AcDbEntity
  8
M01
100
AcDbLine
 10
901.516346
 20
252.619819
 30
0.0
 11
901.516346
 21
256.619819
 31
0.0
  0
CIRCLE
  5
3E4
102
{ACAD_REACTORS
330
3DF
330
AD
102
}
100
AcDbEntity
  8
M01
100
AcDbCircle
 10
905.516346
 20
200.619819
 30
0.0
 40
4.0
  0
CIRCLE
  5
3E5
102
{ACAD_REACTORS
330
3DF
330
AD
102
}
100
AcDbEntity
  8
M01
100
AcDbCircle
 10
905.516346
 20
252.619819
 30
0.0
 40
4.0
  0
DIMENSION
  5
3E6
100
AcDbEntity
  8
DIMS
100
AcDbDimension
  2
*D4
 10
403.757613
 20
291.295984
 30
0.0
 11
446.543327
 21
294.295984
 31
0.0
 12
-25.0
 22
-31.988958
 32
0.0
  1
%%c<> H7
  3
DIM1
100
AcDbAlignedDimension
 13
395.757613
 23
276.619819
 33
0.0
 14
403.757613
 24
276.619819
 34
0.0
100
AcDbRotatedDimension
1001
ACAD
1000
DSTYLE
1002
{
1070
   144
1040
1.0
1002
}
  0
DIMENSION
  5
3F4
100
AcDbEntity
  8
DIMS
100
AcDbDimension
  2
*D3
 10
638.257613
 20
145.304702
 30
0.0
 11
658.257613
 21
148.304702
 31
0.0
 12
-192.561382
 22
212.870895
 32
0.0
  1
%%c<> H7
  3
DIM1
100
AcDbAlignedDimension
 13
678.257613
 23
181.619819
 33
0.0
 14
638.257613
 24
181.619819
 34
0.0
100
AcDbRotatedDimension
1001
ACAD
1000
DSTYLE
1002
{
1070
   144
1040
1.0
1002
}
  0
DIMENSION
  5
401
100
AcDbEntity
  8
DIMS
100
AcDbDimension
  2
*D2
 10
953.73031
 20
263.619819
 30
0.0
 11
950.73031
 21
274.262676
 31
0.0
  1
7.0
  3
DIM1
100
AcDbAlignedDimension
 13
913.257613
 23
256.619819
 33
0.0
 14
922.257613
 24
263.619819
 34
0.0
 50
90.0
100
AcDbRotatedDimension
1001
ACAD
1000
DSTYLE
1002
{
1070
   144
1040
1.0
1002
}
  0
DIMENSION
  5
40F
100
AcDbEntity
  8
DIMS
100
AcDbDimension
  2
*D1
 10
953.73031
 20
189.619819
 30
0.0
 11
950.73031
 21
178.976962
 31
0.0
  1
7.0
  3
DIM1
100
AcDbAlignedDimension
 13
913.257613
 23
196.619819
 33
0.0
 14
933.771004
 24
189.619819
 34
0.0
 50
90.0
100
AcDbRotatedDimension
1001
ACAD
1000
DSTYLE
1002
{
1070
   144
1040
1.0
1002
}
  0
DIMENSION
  5
41D
100
AcDbEntity
  8
DIMS
100
AcDbDimension
  2
*D0
 10
953.73031
 20
196.619819
 30
0.0
 11
950.73031
 21
226.619819
 31
0.0
  3
DIM1
100
AcDbAlignedDimension
 13
913.257613
 23
256.619819
 33
0.0
 14
915.257613
 24
196.619819
 34
0.0
 50
90.0
100
AcDbRotatedDimension
1001
ACAD
1000
DSTYLE
1002
{
1070
   144
1040
1.0
1002
}
  0
LINE
  5
42A
100
AcDbEntity
  8
M01
100
AcDbLine
 10
379.257613
 20
207.619819
 30
0.0
 11
379.257613
 21
197.619819
 31
0.0
  0
LINE
  5
42B
100
AcDbEntity
  8
M01
100
AcDbLine
 10
372.313512
 20
253.869819
 30
0.0
 11
372.313512
 21
247.369819
 31
0.0
  0
LINE
  5
42C
100
AcDbEntity
  8
M01
100
AcDbLine
 10
364.201713
 20
253.869819
 30
0.0
 11
364.201713
 21
247.369819
 31
0.0
  0
LINE
  5
42D
100
AcDbEntity
  8
M01
100
AcDbLine
 10
372.313512
 20
253.869819
 30
0.0
 11
374.257613
 21
253.869819
 31
0.0
  0
ARC
  5
42E
100
AcDbEntity
  8
M01
100
AcDbCircle
 10
370.752263
 20
255.119819
 30
0.0
 40
2.0
100
AcDbArc
 50
270.0
 51
321.317813
  0
ARC
  5
42F
100
AcDbEntity
  8
M01
100
AcDbCircle
 10
365.762962
 20
255.119819
 30
0.0
 40
2.0
100
AcDbArc
 50
218.682187
 51
270.0
  0
LINE
  5
430
100
AcDbEntity
  8
M01
100
AcDbLine
 10
362.257613
 20
253.869819
 30
0.0
 11
364.201713
 21
253.869819
 31
0.0
  0
LINE
  5
431
100
AcDbEntity
  8
M01
100
AcDbLine
 10
365.762962
 20
253.119819
 30
0.0
 11
370.752263
 21
253.119819
 31
0.0
  0
LINE
  5
432
100
AcDbEntity
  8
M01
100
AcDbLine
 10
372.313512
 20
247.369819
 30
0.0
 11
374.257613
 21
247.369819
 31
0.0
  0
ARC
  5
433
100
AcDbEntity
  8
M01
100
AcDbCircle
 10
370.752263
 20
246.119819
 30
0.0
 40
2.0
100
AcDbArc
 50
38.682187
 51
90.0
  0
ARC
  5
434
100
AcDbEntity
  8
M01
100
AcDbCircle
 10
365.762962
 20
246.119819
 30
0.0
 40
2.0
100
AcDbArc
 50
90.0
 51
141.317813
  0
LINE
  5
435
100
AcDbEntity
  8
M01
100
AcDbLine
 10
362.257613
 20
247.369819
 30
0.0
 11
364.201713
 21
247.369819
 31
0.0
  0
LINE
  5
436
100
AcDbEntity
  8
M01
100
AcDbLine
 10
365.762962
 20
248.119819
 30
0.0
 11
370.752263
 21
248.119819
 31
0.0
  0
LINE
  5
437
100
AcDbEntity
  8
M01
100
AcDbLine
 10
379.257613
 20
255.619819
 30
0.0
 11
379.257613
 21
245.619819
 31
0.0
  0
LINE
  5
438
100
AcDbEntity
  8
M01
100
AcDbLine
 10
374.257613
 20
197.619819
 30
0.0
 11
395.257613
 21
197.619819
 31
0.0
  0
LINE
  5
439
100
AcDbEntity
  8
M01
100
AcDbLine
 10
374.257613
 20
207.619819
 30
0.0
 11
394.257613
 21
207.619819
 31
0.0
  0
LINE
  5
43A
100
AcDbEntity
  8
M01
100
AcDbLine
 10
374.257613
 20
255.619819
 30
0.0
 11
395.257613
 21
255.619819
 31
0.0
  0
LINE
  5
43B
100
AcDbEntity
  8
M01
100
AcDbLine
 10
374.257613
 20
245.619819
 30
0.0
 11
394.257613
 21
245.619819
 31
0.0
  0
LINE
  5
43C
100
AcDbEntity
  8
M01
100
AcDbLine
 10
352.357613
 20
205.650908
 30
0.0
 11
352.357613
 21
199.58873
 31
0.0
  0
ARC
  5
43D
100
AcDbEntity
  8
M01
100
AcDbCircle
 10
354.206918
 20
199.58873
 30
0.0
 40
1.150694
100
AcDbArc
 50
298.592423
 51
61.407577
  0
ARC
  5
43E
100
AcDbEntity
  8
M01
100
AcDbCircle
 10
351.654835
 20
202.619819
 30
0.0
 40
3.702778
100
AcDbArc
 50
326.92527
 51
33.07473
  0
ARC
  5
43F
100
AcDbEntity
  8
M01
100
AcDbCircle
 10
354.206918
 20
205.650908
 30
0.0
 40
1.150694
100
AcDbArc
 50
298.592423
 51
61.407577
  0
ARC
  5
440
100
AcDbEntity
  8
M01
100
AcDbCircle
 10
353.508307
 20
199.58873
 30
0.0
 40
1.150694
100
AcDbArc
 50
118.592423
 51
241.407577
  0
ARC
  5
441
100
AcDbEntity
  8
M01
100
AcDbCircle
 10
356.06039
 20
202.619819
 30
0.0
 40
3.702778
100
AcDbArc
 50
146.92527
 51
213.07473
  0
LINE
  5
442
100
AcDbEntity
  8
M01
100
AcDbLine
 10
352.957613
 20
200.599093
 30
0.0
 11
354.757613
 21
200.599093
 31
0.0
  0
LINE
  5
443
100
AcDbEntity
  8
M01
100
AcDbLine
 10
352.957613
 20
198.578367
 30
0.0
 11
354.757613
 21
198.578367
 31
0.0
  0
ARC
  5
444
100
AcDbEntity
  8
M01
100
AcDbCircle
 10
353.508307
 20
205.650908
 30
0.0
 40
1.150694
100
AcDbArc
 50
118.592423
 51
241.407577
  0
LINE
  5
445
100
AcDbEntity
  8
M01
100
AcDbLine
 10
352.957613
 20
204.640545
 30
0.0
 11
354.757613
 21
204.640545
 31
0.0
  0
LINE
  5
446
100
AcDbEntity
  8
M01
100
AcDbLine
 10
352.957613
 20
206.661271
 30
0.0
 11
354.757613
 21
206.661271
 31
0.0
  0
LINE
  5
447
100
AcDbEntity
  8
M01
100
AcDbLine
 10
357.657613
 20
197.619819
 30
0.0
 11
356.157613
 21
197.619819
 31
0.0
  0
LINE
  5
448
100
AcDbEntity
  8
M01
100
AcDbLine
 10
357.657613
 20
207.619819
 30
0.0
 11
356.157613
 21
207.619819
 31
0.0
  0
LINE
  5
449
100
AcDbEntity
  8
M01
100
AcDbLine
 10
356.157613
 20
198.119819
 30
0.0
 11
355.357613
 21
198.119819
 31
0.0
  0
LINE
  5
44A
100
AcDbEntity
  8
M01
100
AcDbLine
 10
356.157613
 20
207.119819
 30
0.0
 11
355.357613
 21
207.119819
 31
0.0
  0
LINE
  5
44B
100
AcDbEntity
  8
M01
100
AcDbLine
 10
355.357613
 20
207.119819
 30
0.0
 11
355.357613
 21
198.119819
 31
0.0
  0
LINE
  5
44C
100
AcDbEntity
  8
M01
100
AcDbLine
 10
356.157613
 20
207.619819
 30
0.0
 11
356.157613
 21
197.619819
 31
0.0
  0
LINE
  5
44D
100
AcDbEntity
  8
M01
100
AcDbLine
 10
358.457613
 20
198.119819
 30
0.0
 11
357.657613
 21
198.119819
 31
0.0
  0
LINE
  5
44E
100
AcDbEntity
  8
M01
100
AcDbLine
 10
358.457613
 20
207.119819
 30
0.0
 11
357.657613
 21
207.119819
 31
0.0
  0
LINE
  5
44F
100
AcDbEntity
  8
M01
100
AcDbLine
 10
357.657613
 20
212.619819
 30
0.0
 11
357.657613
 21
197.619819
 31
0.0
  0
ARC
  5
450
100
AcDbEntity
  8
M01
100
AcDbCircle
 10
360.306918
 20
199.58873
 30
0.0
 40
1.150694
100
AcDbArc
 50
298.592423
 51
61.407577
  0
ARC
  5
451
100
AcDbEntity
  8
M01
100
AcDbCircle
 10
357.754835
 20
202.619819
 30
0.0
 40
3.702778
100
AcDbArc
 50
326.92527
 51
33.07473
  0
ARC
  5
452
100
AcDbEntity
  8
M01
100
AcDbCircle
 10
360.306918
 20
205.650908
 30
0.0
 40
1.150694
100
AcDbArc
 50
298.592423
 51
61.407577
  0
ARC
  5
453
100
AcDbEntity
  8
M01
100
AcDbCircle
 10
359.608307
 20
199.58873
 30
0.0
 40
1.150694
100
AcDbArc
 50
118.592423
 51
241.407577
  0
ARC
  5
454
100
AcDbEntity
  8
M01
100
AcDbCircle
 10
362.16039
 20
202.619819
 30
0.0
 40
3.702778
100
AcDbArc
 50
146.92527
 51
213.07473
  0
LINE
  5
455
100
AcDbEntity
  8
M01
100
AcDbLine
 10
359.057613
 20
200.599093
 30
0.0
 11
360.857613
 21
200.599093
 31
0.0
  0
LINE
  5
456
100
AcDbEntity
  8
M01
100
AcDbLine
 10
359.057613
 20
198.578367
 30
0.0
 11
360.857613
 21
198.578367
 31
0.0
  0
ARC
  5
457
100
AcDbEntity
  8
M01
100
AcDbCircle
 10
359.608307
 20
205.650908
 30
0.0
 40
1.150694
100
AcDbArc
 50
118.592423
 51
241.407577
  0
LINE
  5
458
100
AcDbEntity
  8
M01
100
AcDbLine
 10
359.057613
 20
204.640545
 30
0.0
 11
360.857613
 21
204.640545
 31
0.0
  0
LINE
  5
459
100
AcDbEntity
  8
M01
100
AcDbLine
 10
359.057613
 20
206.661271
 30
0.0
 11
360.857613
 21
206.661271
 31
0.0
  0
LINE
  5
45A
100
AcDbEntity
  8
M01
100
AcDbLine
 10
358.457613
 20
207.119819
 30
0.0
 11
358.457613
 21
198.119819
 31
0.0
  0
LINE
  5
45B
100
AcDbEntity
  8
M01
100
AcDbLine
 10
361.457613
 20
207.119819
 30
0.0
 11
361.457613
 21
198.119819
 31
0.0
  0
LINE
  5
45C
100
AcDbEntity
  8
M01
100
AcDbLine
 10
362.257613
 20
207.119819
 30
0.0
 11
362.257613
 21
198.119819
 31
0.0
  0
LINE
  5
45D
100
AcDbEntity
  8
M01
100
AcDbLine
 10
349.257613
 20
201.119819
 30
0.0
 11
349.757613
 21
200.619819
 31
0.0
  0
LINE
  5
45E
100
AcDbEntity
  8
M01
100
AcDbLine
 10
349.757613
 20
204.619819
 30
0.0
 11
349.257613
 21
204.119819
 31
0.0
  0
LINE
  5
45F
100
AcDbEntity
  8
M01
100
AcDbLine
 10
349.757613
 20
204.619819
 30
0.0
 11
349.757613
 21
200.619819
 31
0.0
  0
LINE
  5
460
100
AcDbEntity
  8
M01
100
AcDbLine
 10
349.257613
 20
201.119819
 30
0.0
 11
352.357613
 21
201.119819
 31
0.0
  0
LINE
  5
461
100
AcDbEntity
  8
M01
100
AcDbLine
 10
349.257613
 20
204.119819
 30
0.0
 11
352.357613
 21
204.119819
 31
0.0
  0
LINE
  5
462
100
AcDbEntity
  8
M01
100
AcDbLine
 10
349.757613
 20
204.619819
 30
0.0
 11
352.357613
 21
204.619819
 31
0.0
  0
LINE
  5
463
100
AcDbEntity
  8
M01
100
AcDbLine
 10
349.757613
 20
200.619819
 30
0.0
 11
352.357613
 21
200.619819
 31
0.0
  0
LINE
  5
464
100
AcDbEntity
  8
M01
100
AcDbLine
 10
349.257613
 20
204.119819
 30
0.0
 11
349.257613
 21
201.119819
 31
0.0
  0
LINE
  5
465
100
AcDbEntity
  8
M01
100
AcDbLine
 10
374.257613
 20
207.619819
 30
0.0
 11
374.257613
 21
197.619819
 31
0.0
  0
LINE
  5
466
100
AcDbEntity
  8
M01
100
AcDbLine
 10
361.457613
 20
198.119819
 30
0.0
 11
362.257613
 21
198.119819
 31
0.0
  0
LINE
  5
467
100
AcDbEntity
  8
M01
100
AcDbLine
 10
361.457613
 20
207.119819
 30
0.0
 11
362.257613
 21
207.119819
 31
0.0
  0
LINE
  5
468
100
AcDbEntity
  8
CENTRE
100
AcDbLine
 10
343.096723
 20
202.619819
 30
0.0
 11
406.690155
 21
202.619819
 31
0.0
  0
LINE
  5
469
100
AcDbEntity
  8
M01
100
AcDbLine
 10
352.357613
 20
247.58873
 30
0.0
 11
352.357613
 21
253.650908
 31
0.0
  0
ARC
  5
46A
100
AcDbEntity
  8
M01
100
AcDbCircle
 10
354.206918
 20
253.650908
 30
0.0
 40
1.150694
100
AcDbArc
 50
298.592423
 51
61.407577
  0
ARC
  5
46B
100
AcDbEntity
  8
M01
100
AcDbCircle
 10
351.654835
 20
250.619819
 30
0.0
 40
3.702778
100
AcDbArc
 50
326.92527
 51
33.07473
  0
ARC
  5
46C
100
AcDbEntity
  8
M01
100
AcDbCircle
 10
354.206918
 20
247.58873
 30
0.0
 40
1.150694
100
AcDbArc
 50
298.592423
 51
61.407577
  0
ARC
  5
46D
100
AcDbEntity
  8
M01
100
AcDbCircle
 10
353.508307
 20
253.650908
 30
0.0
 40
1.150694
100
AcDbArc
 50
118.592423
 51
241.407577
  0
ARC
  5
46E
100
AcDbEntity
  8
M01
100
AcDbCircle
 10
356.06039
 20
250.619819
 30
0.0
 40
3.702778
100
AcDbArc
 50
146.92527
 51
213.07473
  0
LINE
  5
46F
100
AcDbEntity
  8
M01
100
AcDbLine
 10
352.957613
 20
252.640545
 30
0.0
 11
354.757613
 21
252.640545
 31
0.0
  0
LINE
  5
470
100
AcDbEntity
  8
M01
100
AcDbLine
 10
352.957613
 20
254.661271
 30
0.0
 11
354.757613
 21
254.661271
 31
0.0
  0
ARC
  5
471
100
AcDbEntity
  8
M01
100
AcDbCircle
 10
353.508307
 20
247.58873
 30
0.0
 40
1.150694
100
AcDbArc
 50
118.592423
 51
241.407577
  0
LINE
  5
472
100
AcDbEntity
  8
M01
100
AcDbLine
 10
352.957613
 20
248.599093
 30
0.0
 11
354.757613
 21
248.599093
 31
0.0
  0
LINE
  5
473
100
AcDbEntity
  8
M01
100
AcDbLine
 10
352.957613
 20
246.578367
 30
0.0
 11
354.757613
 21
246.578367
 31
0.0
  0
LINE
  5
474
100
AcDbEntity
  8
M01
100
AcDbLine
 10
357.657613
 20
255.619819
 30
0.0
 11
356.157613
 21
255.619819
 31
0.0
  0
LINE
  5
475
100
AcDbEntity
  8
M01
100
AcDbLine
 10
356.157613
 20
255.119819
 30
0.0
 11
355.357613
 21
255.119819
 31
0.0
  0
LINE
  5
476
100
AcDbEntity
  8
M01
100
AcDbLine
 10
356.157613
 20
246.119819
 30
0.0
 11
355.357613
 21
246.119819
 31
0.0
  0
LINE
  5
477
100
AcDbEntity
  8
M01
100
AcDbLine
 10
355.357613
 20
246.119819
 30
0.0
 11
355.357613
 21
255.119819
 31
0.0
  0
LINE
  5
478
100
AcDbEntity
  8
M01
100
AcDbLine
 10
356.157613
 20
245.619819
 30
0.0
 11
356.157613
 21
255.619819
 31
0.0
  0
LINE
  5
479
100
AcDbEntity
  8
M01
100
AcDbLine
 10
358.457613
 20
255.119819
 30
0.0
 11
357.657613
 21
255.119819
 31
0.0
  0
LINE
  5
47A
100
AcDbEntity
  8
M01
100
AcDbLine
 10
358.457613
 20
246.119819
 30
0.0
 11
357.657613
 21
246.119819
 31
0.0
  0
ARC
  5
47B
100
AcDbEntity
  8
M01
100
AcDbCircle
 10
360.306918
 20
253.650908
 30
0.0
 40
1.150694
100
AcDbArc
 50
298.592423
 51
61.407577
  0
ARC
  5
47C
100
AcDbEntity
  8
M01
100
AcDbCircle
 10
357.754835
 20
250.619819
 30
0.0
 40
3.702778
100
AcDbArc
 50
326.92527
 51
33.07473
  0
ARC
  5
47D
100
AcDbEntity
  8
M01
100
AcDbCircle
 10
360.306918
 20
247.58873
 30
0.0
 40
1.150694
100
AcDbArc
 50
298.592423
 51
61.407577
  0
ARC
  5
47E
100
AcDbEntity
  8
M01
100
AcDbCircle
 10
359.608307
 20
253.650908
 30
0.0
 40
1.150694
100
AcDbArc
 50
118.592423
 51
241.407577
  0
ARC
  5
47F
100
AcDbEntity
  8
M01
100
AcDbCircle
 10
362.16039
 20
250.619819
 30
0.0
 40
3.702778
100
AcDbArc
 50
146.92527
 51
213.07473
  0
LINE
  5
480
100
AcDbEntity
  8
M01
100
AcDbLine
 10
359.057613
 20
252.640545
 30
0.0
 11
360.857613
 21
252.640545
 31
0.0
  0
LINE
  5
481
100
AcDbEntity
  8
M01
100
AcDbLine
 10
359.057613
 20
254.661271
 30
0.0
 11
360.857613
 21
254.661271
 31
0.0
  0
ARC
  5
482
100
AcDbEntity
  8
M01
100
AcDbCircle
 10
359.608307
 20
247.58873
 30
0.0
 40
1.150694
100
AcDbArc
 50
118.592423
 51
241.407577
  0
LINE
  5
483
100
AcDbEntity
  8
M01
100
AcDbLine
 10
359.057613
 20
248.599093
 30
0.0
 11
360.857613
 21
248.599093
 31
0.0
  0
LINE
  5
484
100
AcDbEntity
  8
M01
100
AcDbLine
 10
359.057613
 20
246.578367
 30
0.0
 11
360.857613
 21
246.578367
 31
0.0
  0
LINE
  5
485
100
AcDbEntity
  8
M01
100
AcDbLine
 10
358.457613
 20
246.119819
 30
0.0
 11
358.457613
 21
255.119819
 31
0.0
  0
LINE
  5
486
100
AcDbEntity
  8
M01
100
AcDbLine
 10
361.457613
 20
246.119819
 30
0.0
 11
361.457613
 21
255.119819
 31
0.0
  0
LINE
  5
487
100
AcDbEntity
  8
M01
100
AcDbLine
 10
362.257613
 20
246.119819
 30
0.0
 11
362.257613
 21
255.119819
 31
0.0
  0
LINE
  5
488
100
AcDbEntity
  8
M01
100
AcDbLine
 10
349.257613
 20
252.119819
 30
0.0
 11
349.757613
 21
252.619819
 31
0.0
  0
LINE
  5
489
100
AcDbEntity
  8
M01
100
AcDbLine
 10
349.757613
 20
248.619819
 30
0.0
 11
349.257613
 21
249.119819
 31
0.0
  0
LINE
  5
48A
100
AcDbEntity
  8
M01
100
AcDbLine
 10
349.757613
 20
248.619819
 30
0.0
 11
349.757613
 21
252.619819
 31
0.0
  0
LINE
  5
48B
100
AcDbEntity
  8
M01
100
AcDbLine
 10
349.257613
 20
252.119819
 30
0.0
 11
352.357613
 21
252.119819
 31
0.0
  0
LINE
  5
48C
100
AcDbEntity
  8
M01
100
AcDbLine
 10
349.257613
 20
249.119819
 30
0.0
 11
352.357613
 21
249.119819
 31
0.0
  0
LINE
  5
48D
100
AcDbEntity
  8
M01
100
AcDbLine
 10
349.757613
 20
248.619819
 30
0.0
 11
352.357613
 21
248.619819
 31
0.0
  0
LINE
  5
48E
100
AcDbEntity
  8
M01
100
AcDbLine
 10
349.757613
 20
252.619819
 30
0.0
 11
352.357613
 21
252.619819
 31
0.0
  0
LINE
  5
48F
100
AcDbEntity
  8
M01
100
AcDbLine
 10
349.257613
 20
249.119819
 30
0.0
 11
349.257613
 21
252.119819
 31
0.0
  0
LINE
  5
490
100
AcDbEntity
  8
M01
100
AcDbLine
 10
374.257613
 20
245.619819
 30
0.0
 11
374.257613
 21
255.619819
 31
0.0
  0
LINE
  5
491
100
AcDbEntity
  8
M01
100
AcDbLine
 10
361.457613
 20
255.119819
 30
0.0
 11
362.257613
 21
255.119819
 31
0.0
  0
LINE
  5
492
100
AcDbEntity
  8
M01
100
AcDbLine
 10
361.457613
 20
246.119819
 30
0.0
 11
362.257613
 21
246.119819
 31
0.0
  0
LINE
  5
493
102
{ACAD_REACTORS
330
AD
102
}
100
AcDbEntity
  8
CENTRE
100
AcDbLine
 10
343.096723
 20
250.619819
 30
0.0
 11
406.690155
 21
250.619819
 31
0.0
  0
LINE
  5
494
100
AcDbEntity
  8
M04
100
AcDbLine
 10
334.257613
 20
217.619819
 30
0.0
 11
324.257613
 21
207.619819
 31
0.0
  0
LINE
  5
495
100
AcDbEntity
  8
M04
100
AcDbLine
 10
313.586134
 20
207.619819
 30
0.0
 11
324.257613
 21
207.619819
 31
0.0
  0
LINE
  5
496
100
AcDbEntity
  8
M04
100
AcDbLine
 10
334.257613
 20
263.619819
 30
0.0
 11
334.257613
 21
189.619819
 31
0.0
  0
LINE
  5
497
102
{ACAD_REACTORS
330
AD
102
}
100
AcDbEntity
  8
M01
100
AcDbLine
 10
662.257613
 20
213.619819
 30
0.0
 11
662.257613
 21
206.619819
 31
0.0
  0
LINE
  5
498
102
{ACAD_REACTORS
330
AD
102
}
100
AcDbEntity
  8
M01
100
AcDbLine
 10
654.257613
 20
213.619819
 30
0.0
 11
654.257613
 21
206.619819
 31
0.0
  0
LINE
  5
499
102
{ACAD_REACTORS
330
114
102
}
100
AcDbEntity
  8
M04
100
AcDbLine
 10
677.757613
 20
189.619819
 30
0.0
 11
880.257613
 21
189.619819
 31
0.0
  0
LINE
  5
49A
100
AcDbEntity
  8
M02
100
AcDbLine
 10
623.257613
 20
196.619819
 30
0.0
 11
623.257613
 21
193.619819
 31
0.0
  0
LINE
  5
49B
100
AcDbEntity
  8
M04
100
AcDbLine
 10
399.757613
 20
278.92922
 30
0.0
 11
395.757613
 21
276.619819
 31
0.0
  0
LINE
  5
49C
100
AcDbEntity
  8
M04
100
AcDbLine
 10
403.757613
 20
276.619819
 30
0.0
 11
399.757613
 21
278.92922
 31
0.0
  0
LINE
  5
49D
100
AcDbEntity
  8
M04
100
AcDbLine
 10
403.757613
 20
273.619819
 30
0.0
 11
403.757613
 21
276.619819
 31
0.0
  0
LINE
  5
49E
100
AcDbEntity
  8
M04
100
AcDbLine
 10
395.757613
 20
276.619819
 30
0.0
 11
403.757613
 21
276.619819
 31
0.0
  0
LINE
  5
49F
100
AcDbEntity
  8
M04
100
AcDbLine
 10
395.757613
 20
273.619819
 30
0.0
 11
395.757613
 21
276.619819
 31
0.0
  0
ARC
  5
4A0
100
AcDbEntity
  8
M05
100
AcDbCircle
 10
399.757613
 20
264.282114
 30
0.0
 40
10.837705
100
AcDbArc
 50
71.372238
 51
108.627762
  0
LINE
  5
4A1
100
AcDbEntity
  8
M05
100
AcDbLine
 10
403.757613
 20
273.619819
 30
0.0
 11
403.219376
 21
274.552072
 31
0.0
  0
LINE
  5
4A2
100
AcDbEntity
  8
M05
100
AcDbLine
 10
396.295849
 20
274.552072
 30
0.0
 11
403.219376
 21
274.552072
 31
0.0
  0
LINE
  5
4A3
100
AcDbEntity
  8
M05
100
AcDbLine
 10
395.757613
 20
273.619819
 30
0.0
 11
396.295849
 21
274.552072
 31
0.0
  0
LINE
  5
4A4
100
AcDbEntity
  8
M05
100
AcDbLine
 10
395.757613
 20
273.619819
 30
0.0
 11
403.757613
 21
273.619819
 31
0.0
  0
LINE
  5
4A5
100
AcDbEntity
  8
M04
100
AcDbLine
 10
403.757613
 20
263.619819
 30
0.0
 11
636.532613
 21
263.619819
 31
0.0
  0
LINE
  5
4A6
100
AcDbEntity
  8
M04
100
AcDbLine
 10
403.757613
 20
264.119819
 30
0.0
 11
404.257613
 21
263.619819
 31
0.0
  0
LINE
  5
4A7
100
AcDbEntity
  8
M04
100
AcDbLine
 10
395.757613
 20
264.119819
 30
0.0
 11
395.257613
 21
263.619819
 31
0.0
  0
ARC
  5
4A8
100
AcDbEntity
  8
M05
100
AcDbCircle
 10
399.757613
 20
264.753152
 30
0.0
 40
13.633333
100
AcDbArc
 50
252.938469
 51
287.061531
  0
LINE
  5
4A9
100
AcDbEntity
  8
M05
100
AcDbLine
 10
395.757613
 20
251.719819
 30
0.0
 11
403.757613
 21
251.719819
 31
0.0
  0
LINE
  5
4AA
100
AcDbEntity
  8
M05
100
AcDbLine
 10
403.757613
 20
273.619819
 30
0.0
 11
403.757613
 21
251.719819
 31
0.0
  0
LINE
  5
4AB
100
AcDbEntity
  8
M05
100
AcDbLine
 10
395.757613
 20
273.619819
 30
0.0
 11
395.757613
 21
251.719819
 31
0.0
  0
LINE
  5
4AC
102
{ACAD_REACTORS
330
AD
102
}
100
AcDbEntity
  8
CENTRE
100
AcDbLine
 10
658.257613
 20
291.987216
 30
0.0
 11
658.257613
 21
161.727779
 31
0.0
  0
LINE
  5
4AD
100
AcDbEntity
  8
CENTRE
100
AcDbLine
 10
399.757613
 20
283.965937
 30
0.0
 11
399.757613
 21
245.876237
 31
0.0
  0
LINE
  5
4AE
100
AcDbEntity
  8
M04
100
AcDbLine
 10
313.586134
 20
189.619819
 30
0.0
 11
638.757613
 21
189.619819
 31
0.0
  0
LINE
  5
4AF
100
AcDbEntity
  8
M04
100
AcDbLine
 10
922.257613
 20
263.619819
 30
0.0
 11
922.257613
 21
189.619819
 31
0.0
  0
LINE
  5
4B0
100
AcDbEntity
  8
M04
100
AcDbLine
 10
334.257613
 20
263.619819
 30
0.0
 11
395.757613
 21
263.619819
 31
0.0
  0
LINE
  5
4B1
100
AcDbEntity
  8
M02
100
AcDbLine
 10
406.257613
 20
256.619819
 30
0.0
 11
406.257613
 21
259.619819
 31
0.0
  0
LINE
  5
4B2
102
{ACAD_REACTORS
330
AD
102
}
100
AcDbEntity
  8
M01
100
AcDbLine
 10
406.257613
 20
256.619819
 30
0.0
 11
406.257613
 21
250.619819
 31
0.0
  0
LINE
  5
4B3
100
AcDbEntity
  8
M01
100
AcDbLine
 10
394.257613
 20
250.619819
 30
0.0
 11
406.257613
 21
250.619819
 31
0.0
  0
LINE
  5
4B4
100
AcDbEntity
  8
M02
100
AcDbLine
 10
396.257613
 20
196.619819
 30
0.0
 11
396.257613
 21
193.619819
 31
0.0
  0
LINE
  5
4B5
102
{ACAD_REACTORS
330
AB
102
}
100
AcDbEntity
  8
M02
100
AcDbLine
 10
913.257613
 20
256.619819
 30
0.0
 11
913.257613
 21
259.619819
 31
0.0
  0
LINE
  5
4B6
100
AcDbEntity
  8
M02
100
AcDbLine
 10
396.257613
 20
193.619819
 30
0.0
 11
624.257613
 21
193.619819
 31
0.0
  0
LINE
  5
4B7
100
AcDbEntity
  8
M02
100
AcDbLine
 10
403.757613
 20
259.619819
 30
0.0
 11
636.532613
 21
259.619819
 31
0.0
  0
LINE
  5
4B8
102
{ACAD_REACTORS
330
AD
102
}
100
AcDbEntity
  8
M01
100
AcDbLine
 10
913.257613
 20
196.619819
 30
0.0
 11
915.257613
 21
198.619819
 31
0.0
  0
LINE
  5
4B9
102
{ACAD_REACTORS
330
AD
102
}
100
AcDbEntity
  8
M01
100
AcDbLine
 10
394.257613
 20
198.619819
 30
0.0
 11
396.257613
 21
196.619819
 31
0.0
  0
LINE
  5
4BA
100
AcDbEntity
  8
M01
100
AcDbLine
 10
395.257613
 20
255.619819
 30
0.0
 11
394.257613
 21
254.619819
 31
0.0
  0
LINE
  5
4BB
102
{ACAD_REACTORS
330
AD
102
}
100
AcDbEntity
  8
M01
100
AcDbLine
 10
915.257613
 20
254.619819
 30
0.0
 11
913.257613
 21
256.619819
 31
0.0
  0
LINE
  5
4BC
102
{ACAD_REACTORS
330
AD
102
}
100
AcDbEntity
  8
M01
100
AcDbLine
 10
396.257613
 20
196.619819
 30
0.0
 11
648.257613
 21
196.619819
 31
0.0
  0
LINE
  5
4BD
102
{ACAD_REACTORS
330
AD
102
}
100
AcDbEntity
  8
M01
100
AcDbLine
 10
915.257613
 20
254.619819
 30
0.0
 11
915.257613
 21
198.619819
 31
0.0
  0
LINE
  5
4BE
102
{ACAD_REACTORS
330
AD
102
}
100
AcDbEntity
  8
M01
100
AcDbLine
 10
394.257613
 20
254.619819
 30
0.0
 11
394.257613
 21
198.619819
 31
0.0
  0
LINE
  5
4BF
102
{ACAD_REACTORS
330
AD
330
AB
102
}
100
AcDbEntity
  8
M01
100
AcDbLine
 10
403.757613
 20
256.619819
 30
0.0
 11
913.257613
 21
256.619819
 31
0.0
  0
LINE
  5
4C0
100
AcDbEntity
  8
M03
100
AcDbLine
 10
770.757613
 20
549.817698
 30
0.0
 11
880.429185
 21
659.489271
 31
0.0
  0
LINE
  5
4C1
100
AcDbEntity
  8
M03
100
AcDbLine
 10
776.414467
 20
544.160844
 30
0.0
 11
886.08604
 21
653.832417
 31
0.0
  0
LINE
  5
4C2
100
AcDbEntity
  8
CENTRE
100
AcDbLine
 10
770.757613
 20
544.160844
 30
0.0
 11
918.796994
 21
692.200225
 31
0.0
  0
LINE
  5
4C3
100
AcDbEntity
  8
M01
100
AcDbLine
 10
347.313512
 20
559.410844
 30
0.0
 11
347.313512
 21
552.910844
 31
0.0
  0
LINE
  5
4C4
100
AcDbEntity
  8
M01
100
AcDbLine
 10
339.201713
 20
559.410844
 30
0.0
 11
339.201713
 21
552.910844
 31
0.0
  0
LINE
  5
4C5
100
AcDbEntity
  8
M01
100
AcDbLine
 10
347.313512
 20
559.410844
 30
0.0
 11
349.257613
 21
559.410844
 31
0.0
  0
ARC
  5
4C6
100
AcDbEntity
  8
M01
100
AcDbCircle
 10
345.752263
 20
560.660844
 30
0.0
 40
2.0
100
AcDbArc
 50
270.0
 51
321.317813
  0
ARC
  5
4C7
100
AcDbEntity
  8
M01
100
AcDbCircle
 10
340.762962
 20
560.660844
 30
0.0
 40
2.0
100
AcDbArc
 50
218.682187
 51
270.0
  0
LINE
  5
4C8
100
AcDbEntity
  8
M01
100
AcDbLine
 10
337.257613
 20
559.410844
 30
0.0
 11
339.201713
 21
559.410844
 31
0.0
  0
LINE
  5
4C9
100
AcDbEntity
  8
M01
100
AcDbLine
 10
340.762962
 20
558.660844
 30
0.0
 11
345.752263
 21
558.660844
 31
0.0
  0
LINE
  5
4CA
100
AcDbEntity
  8
M01
100
AcDbLine
 10
347.313512
 20
552.910844
 30
0.0
 11
349.257613
 21
552.910844
 31
0.0
  0
ARC
  5
4CB
100
AcDbEntity
  8
M01
100
AcDbCircle
 10
345.752263
 20
551.660844
 30
0.0
 40
2.0
100
AcDbArc
 50
38.682187
 51
90.0
  0
ARC
  5
4CC
100
AcDbEntity
  8
M01
100
AcDbCircle
 10
340.762962
 20
551.660844
 30
0.0
 40
2.0
100
AcDbArc
 50
90.0
 51
141.317813
  0
LINE
  5
4CD
100
AcDbEntity
  8
M01
100
AcDbLine
 10
337.257613
 20
552.910844
 30
0.0
 11
339.201713
 21
552.910844
 31
0.0
  0
LINE
  5
4CE
100
AcDbEntity
  8
M01
100
AcDbLine
 10
340.762962
 20
553.660844
 30
0.0
 11
345.752263
 21
553.660844
 31
0.0
  0
LINE
  5
4CF
100
AcDbEntity
  8
M01
100
AcDbLine
 10
337.257613
 20
551.660844
 30
0.0
 11
337.257613
 21
560.660844
 31
0.0
  0
LINE
  5
4D0
100
AcDbEntity
  8
M01
100
AcDbLine
 10
336.457613
 20
560.660844
 30
0.0
 11
337.257613
 21
560.660844
 31
0.0
  0
LINE
  5
4D1
100
AcDbEntity
  8
M01
100
AcDbLine
 10
336.457613
 20
551.660844
 30
0.0
 11
337.257613
 21
551.660844
 31
0.0
  0
LINE
  5
4D2
100
AcDbEntity
  8
M01
100
AcDbLine
 10
347.313512
 20
528.910844
 30
0.0
 11
347.313512
 21
535.410844
 31
0.0
  0
LINE
  5
4D3
100
AcDbEntity
  8
M01
100
AcDbLine
 10
339.201713
 20
528.910844
 30
0.0
 11
339.201713
 21
535.410844
 31
0.0
  0
LINE
  5
4D4
100
AcDbEntity
  8
M01
100
AcDbLine
 10
347.313512
 20
528.910844
 30
0.0
 11
349.257613
 21
528.910844
 31
0.0
  0
ARC
  5
4D5
100
AcDbEntity
  8
M01
100
AcDbCircle
 10
345.752263
 20
527.660844
 30
0.0
 40
2.0
100
AcDbArc
 50
38.682187
 51
90.0
  0
ARC
  5
4D6
100
AcDbEntity
  8
M01
100
AcDbCircle
 10
340.762962
 20
527.660844
 30
0.0
 40
2.0
100
AcDbArc
 50
90.0
 51
141.317813
  0
LINE
  5
4D7
100
AcDbEntity
  8
M01
100
AcDbLine
 10
337.257613
 20
528.910844
 30
0.0
 11
339.201713
 21
528.910844
 31
0.0
  0
LINE
  5
4D8
100
AcDbEntity
  8
M01
100
AcDbLine
 10
340.762962
 20
529.660844
 30
0.0
 11
345.752263
 21
529.660844
 31
0.0
  0
LINE
  5
4D9
100
AcDbEntity
  8
M01
100
AcDbLine
 10
347.313512
 20
535.410844
 30
0.0
 11
349.257613
 21
535.410844
 31
0.0
  0
ARC
  5
4DA
100
AcDbEntity
  8
M01
100
AcDbCircle
 10
345.752263
 20
536.660844
 30
0.0
 40
2.0
100
AcDbArc
 50
270.0
 51
321.317813
  0
ARC
  5
4DB
100
AcDbEntity
  8
M01
100
AcDbCircle
 10
340.762962
 20
536.660844
 30
0.0
 40
2.0
100
AcDbArc
 50
218.682187
 51
270.0
  0
LINE
  5
4DC
100
AcDbEntity
  8
M01
100
AcDbLine
 10
337.257613
 20
535.410844
 30
0.0
 11
339.201713
 21
535.410844
 31
0.0
  0
LINE
  5
4DD
100
AcDbEntity
  8
M01
100
AcDbLine
 10
340.762962
 20
534.660844
 30
0.0
 11
345.752263
 21
534.660844
 31
0.0
  0
LINE
  5
4DE
100
AcDbEntity
  8
M01
100
AcDbLine
 10
354.257613
 20
561.160844
 30
0.0
 11
354.257613
 21
551.160844
 31
0.0
  0
LINE
  5
4DF
100
AcDbEntity
  8
M01
100
AcDbLine
 10
354.257613
 20
527.160844
 30
0.0
 11
354.257613
 21
537.160844
 31
0.0
  0
LINE
  5
4E0
100
AcDbEntity
  8
M01
100
AcDbLine
 10
349.257613
 20
527.160844
 30
0.0
 11
369.257613
 21
527.160844
 31
0.0
  0
LINE
  5
4E1
100
AcDbEntity
  8
M01
100
AcDbLine
 10
349.257613
 20
537.160844
 30
0.0
 11
369.257613
 21
537.160844
 31
0.0
  0
LINE
  5
4E2
100
AcDbEntity
  8
M01
100
AcDbLine
 10
349.257613
 20
551.160844
 30
0.0
 11
369.257613
 21
551.160844
 31
0.0
  0
LINE
  5
4E3
100
AcDbEntity
  8
M01
100
AcDbLine
 10
349.257613
 20
561.160844
 30
0.0
 11
369.257613
 21
561.160844
 31
0.0
  0
LINE
  5
4E4
100
AcDbEntity
  8
DIMS
 62
     4
100
AcDbLine
 10
374.757613
 20
547.560844
 30
0.0
 11
374.757613
 21
549.860844
 31
0.0
  0
LINE
  5
4E5
100
AcDbEntity
  8
DIMS
 62
     4
100
AcDbLine
 10
374.757613
 20
540.760844
 30
0.0
 11
374.757613
 21
538.460844
 31
0.0
  0
LINE
  5
4E6
100
AcDbEntity
  8
DIMS
 62
     4
100
AcDbLine
 10
374.757613
 20
542.460844
 30
0.0
 11
374.757613
 21
545.860844
 31
0.0
  0
LINE
  5
4E7
100
AcDbEntity
  8
M01
100
AcDbLine
 10
327.357613
 20
559.191933
 30
0.0
 11
327.357613
 21
553.129755
 31
0.0
  0
ARC
  5
4E8
100
AcDbEntity
  8
M01
100
AcDbCircle
 10
329.206918
 20
553.129755
 30
0.0
 40
1.150694
100
AcDbArc
 50
298.592423
 51
61.407577
  0
ARC
  5
4E9
100
AcDbEntity
  8
M01
100
AcDbCircle
 10
326.654835
 20
556.160844
 30
0.0
 40
3.702778
100
AcDbArc
 50
326.92527
 51
33.07473
  0
ARC
  5
4EA
100
AcDbEntity
  8
M01
100
AcDbCircle
 10
329.206918
 20
559.191933
 30
0.0
 40
1.150694
100
AcDbArc
 50
298.592423
 51
61.407577
  0
ARC
  5
4EB
100
AcDbEntity
  8
M01
100
AcDbCircle
 10
328.508307
 20
553.129755
 30
0.0
 40
1.150694
100
AcDbArc
 50
118.592423
 51
241.407577
  0
ARC
  5
4EC
100
AcDbEntity
  8
M01
100
AcDbCircle
 10
331.06039
 20
556.160844
 30
0.0
 40
3.702778
100
AcDbArc
 50
146.92527
 51
213.07473
  0
LINE
  5
4ED
100
AcDbEntity
  8
M01
100
AcDbLine
 10
327.957613
 20
554.140118
 30
0.0
 11
329.757613
 21
554.140118
 31
0.0
  0
LINE
  5
4EE
100
AcDbEntity
  8
M01
100
AcDbLine
 10
327.957613
 20
552.119392
 30
0.0
 11
329.757613
 21
552.119392
 31
0.0
  0
ARC
  5
4EF
100
AcDbEntity
  8
M01
100
AcDbCircle
 10
328.508307
 20
559.191933
 30
0.0
 40
1.150694
100
AcDbArc
 50
118.592423
 51
241.407577
  0
LINE
  5
4F0
100
AcDbEntity
  8
M01
100
AcDbLine
 10
327.957613
 20
558.18157
 30
0.0
 11
329.757613
 21
558.18157
 31
0.0
  0
LINE
  5
4F1
100
AcDbEntity
  8
M01
100
AcDbLine
 10
327.957613
 20
560.202296
 30
0.0
 11
329.757613
 21
560.202296
 31
0.0
  0
LINE
  5
4F2
100
AcDbEntity
  8
M01
100
AcDbLine
 10
332.657613
 20
551.160844
 30
0.0
 11
331.157613
 21
551.160844
 31
0.0
  0
LINE
  5
4F3
100
AcDbEntity
  8
M01
100
AcDbLine
 10
332.657613
 20
561.160844
 30
0.0
 11
331.157613
 21
561.160844
 31
0.0
  0
LINE
  5
4F4
100
AcDbEntity
  8
M01
100
AcDbLine
 10
331.157613
 20
551.660844
 30
0.0
 11
330.357613
 21
551.660844
 31
0.0
  0
LINE
  5
4F5
100
AcDbEntity
  8
M01
100
AcDbLine
 10
331.157613
 20
560.660844
 30
0.0
 11
330.357613
 21
560.660844
 31
0.0
  0
LINE
  5
4F6
100
AcDbEntity
  8
M01
100
AcDbLine
 10
330.357613
 20
560.660844
 30
0.0
 11
330.357613
 21
551.660844
 31
0.0
  0
LINE
  5
4F7
100
AcDbEntity
  8
M01
100
AcDbLine
 10
331.157613
 20
561.160844
 30
0.0
 11
331.157613
 21
551.160844
 31
0.0
  0
LINE
  5
4F8
100
AcDbEntity
  8
M01
100
AcDbLine
 10
333.457613
 20
551.660844
 30
0.0
 11
332.657613
 21
551.660844
 31
0.0
  0
LINE
  5
4F9
100
AcDbEntity
  8
M01
100
AcDbLine
 10
333.457613
 20
560.660844
 30
0.0
 11
332.657613
 21
560.660844
 31
0.0
  0
LINE
  5
4FA
100
AcDbEntity
  8
M01
100
AcDbLine
 10
332.657613
 20
561.160844
 30
0.0
 11
332.657613
 21
551.160844
 31
0.0
  0
ARC
  5
4FB
100
AcDbEntity
  8
M01
100
AcDbCircle
 10
335.306918
 20
553.129755
 30
0.0
 40
1.150694
100
AcDbArc
 50
298.592423
 51
61.407577
  0
ARC
  5
4FC
100
AcDbEntity
  8
M01
100
AcDbCircle
 10
332.754835
 20
556.160844
 30
0.0
 40
3.702778
100
AcDbArc
 50
326.92527
 51
33.07473
  0
ARC
  5
4FD
100
AcDbEntity
  8
M01
100
AcDbCircle
 10
335.306918
 20
559.191933
 30
0.0
 40
1.150694
100
AcDbArc
 50
298.592423
 51
61.407577
  0
ARC
  5
4FE
100
AcDbEntity
  8
M01
100
AcDbCircle
 10
334.608307
 20
553.129755
 30
0.0
 40
1.150694
100
AcDbArc
 50
118.592423
 51
241.407577
  0
ARC
  5
4FF
100
AcDbEntity
  8
M01
100
AcDbCircle
 10
337.16039
 20
556.160844
 30
0.0
 40
3.702778
100
AcDbArc
 50
146.92527
 51
213.07473
  0
LINE
  5
500
100
AcDbEntity
  8
M01
100
AcDbLine
 10
334.057613
 20
554.140118
 30
0.0
 11
335.857613
 21
554.140118
 31
0.0
  0
LINE
  5
501
100
AcDbEntity
  8
M01
100
AcDbLine
 10
334.057613
 20
552.119392
 30
0.0
 11
335.857613
 21
552.119392
 31
0.0
  0
ARC
  5
502
100
AcDbEntity
  8
M01
100
AcDbCircle
 10
334.608307
 20
559.191933
 30
0.0
 40
1.150694
100
AcDbArc
 50
118.592423
 51
241.407577
  0
LINE
  5
503
100
AcDbEntity
  8
M01
100
AcDbLine
 10
334.057613
 20
558.18157
 30
0.0
 11
335.857613
 21
558.18157
 31
0.0
  0
LINE
  5
504
100
AcDbEntity
  8
M01
100
AcDbLine
 10
334.057613
 20
560.202296
 30
0.0
 11
335.857613
 21
560.202296
 31
0.0
  0
LINE
  5
505
100
AcDbEntity
  8
M01
100
AcDbLine
 10
333.457613
 20
560.660844
 30
0.0
 11
333.457613
 21
551.660844
 31
0.0
  0
LINE
  5
506
100
AcDbEntity
  8
M01
100
AcDbLine
 10
336.457613
 20
560.660844
 30
0.0
 11
336.457613
 21
551.660844
 31
0.0
  0
LINE
  5
507
100
AcDbEntity
  8
M01
100
AcDbLine
 10
324.257613
 20
554.660844
 30
0.0
 11
324.757613
 21
554.160844
 31
0.0
  0
LINE
  5
508
100
AcDbEntity
  8
M01
100
AcDbLine
 10
324.757613
 20
558.160844
 30
0.0
 11
324.257613
 21
557.660844
 31
0.0
  0
LINE
  5
509
100
AcDbEntity
  8
M01
100
AcDbLine
 10
324.757613
 20
558.160844
 30
0.0
 11
324.757613
 21
554.160844
 31
0.0
  0
LINE
  5
50A
100
AcDbEntity
  8
M01
100
AcDbLine
 10
324.257613
 20
554.660844
 30
0.0
 11
327.357613
 21
554.660844
 31
0.0
  0
LINE
  5
50B
100
AcDbEntity
  8
M01
100
AcDbLine
 10
324.257613
 20
557.660844
 30
0.0
 11
327.357613
 21
557.660844
 31
0.0
  0
LINE
  5
50C
100
AcDbEntity
  8
M01
100
AcDbLine
 10
324.757613
 20
558.160844
 30
0.0
 11
327.357613
 21
558.160844
 31
0.0
  0
LINE
  5
50D
100
AcDbEntity
  8
M01
100
AcDbLine
 10
324.757613
 20
554.160844
 30
0.0
 11
327.357613
 21
554.160844
 31
0.0
  0
LINE
  5
50E
100
AcDbEntity
  8
M01
100
AcDbLine
 10
324.257613
 20
557.660844
 30
0.0
 11
324.257613
 21
554.660844
 31
0.0
  0
LINE
  5
50F
100
AcDbEntity
  8
M01
100
AcDbLine
 10
349.257613
 20
561.160844
 30
0.0
 11
349.257613
 21
551.160844
 31
0.0
  0
LINE
  5
510
100
AcDbEntity
  8
CENTRE
100
AcDbLine
 10
318.096723
 20
556.160844
 30
0.0
 11
381.690155
 21
556.160844
 31
0.0
  0
LINE
  5
511
100
AcDbEntity
  8
M01
100
AcDbLine
 10
327.357613
 20
529.129755
 30
0.0
 11
327.357613
 21
535.191933
 31
0.0
  0
ARC
  5
512
100
AcDbEntity
  8
M01
100
AcDbCircle
 10
329.206918
 20
535.191933
 30
0.0
 40
1.150694
100
AcDbArc
 50
298.592423
 51
61.407577
  0
ARC
  5
513
100
AcDbEntity
  8
M01
100
AcDbCircle
 10
326.654835
 20
532.160844
 30
0.0
 40
3.702778
100
AcDbArc
 50
326.92527
 51
33.07473
  0
ARC
  5
514
100
AcDbEntity
  8
M01
100
AcDbCircle
 10
329.206918
 20
529.129755
 30
0.0
 40
1.150694
100
AcDbArc
 50
298.592423
 51
61.407577
  0
ARC
  5
515
100
AcDbEntity
  8
M01
100
AcDbCircle
 10
328.508307
 20
535.191933
 30
0.0
 40
1.150694
100
AcDbArc
 50
118.592423
 51
241.407577
  0
ARC
  5
516
100
AcDbEntity
  8
M01
100
AcDbCircle
 10
331.06039
 20
532.160844
 30
0.0
 40
3.702778
100
AcDbArc
 50
146.92527
 51
213.07473
  0
LINE
  5
517
100
AcDbEntity
  8
M01
100
AcDbLine
 10
327.957613
 20
534.18157
 30
0.0
 11
329.757613
 21
534.18157
 31
0.0
  0
LINE
  5
518
100
AcDbEntity
  8
M01
100
AcDbLine
 10
327.957613
 20
536.202296
 30
0.0
 11
329.757613
 21
536.202296
 31
0.0
  0
ARC
  5
519
100
AcDbEntity
  8
M01
100
AcDbCircle
 10
328.508307
 20
529.129755
 30
0.0
 40
1.150694
100
AcDbArc
 50
118.592423
 51
241.407577
  0
LINE
  5
51A
100
AcDbEntity
  8
M01
100
AcDbLine
 10
327.957613
 20
530.140118
 30
0.0
 11
329.757613
 21
530.140118
 31
0.0
  0
LINE
  5
51B
100
AcDbEntity
  8
M01
100
AcDbLine
 10
327.957613
 20
528.119392
 30
0.0
 11
329.757613
 21
528.119392
 31
0.0
  0
LINE
  5
51C
100
AcDbEntity
  8
M01
100
AcDbLine
 10
332.657613
 20
537.160844
 30
0.0
 11
331.157613
 21
537.160844
 31
0.0
  0
LINE
  5
51D
100
AcDbEntity
  8
M01
100
AcDbLine
 10
332.657613
 20
527.160844
 30
0.0
 11
331.157613
 21
527.160844
 31
0.0
  0
LINE
  5
51E
100
AcDbEntity
  8
M01
100
AcDbLine
 10
331.157613
 20
536.660844
 30
0.0
 11
330.357613
 21
536.660844
 31
0.0
  0
LINE
  5
51F
100
AcDbEntity
  8
M01
100
AcDbLine
 10
331.157613
 20
527.660844
 30
0.0
 11
330.357613
 21
527.660844
 31
0.0
  0
LINE
  5
520
100
AcDbEntity
  8
M01
100
AcDbLine
 10
330.357613
 20
527.660844
 30
0.0
 11
330.357613
 21
536.660844
 31
0.0
  0
LINE
  5
521
100
AcDbEntity
  8
M01
100
AcDbLine
 10
331.157613
 20
527.160844
 30
0.0
 11
331.157613
 21
537.160844
 31
0.0
  0
LINE
  5
522
100
AcDbEntity
  8
M01
100
AcDbLine
 10
333.457613
 20
536.660844
 30
0.0
 11
332.657613
 21
536.660844
 31
0.0
  0
LINE
  5
523
100
AcDbEntity
  8
M01
100
AcDbLine
 10
333.457613
 20
527.660844
 30
0.0
 11
332.657613
 21
527.660844
 31
0.0
  0
LINE
  5
524
100
AcDbEntity
  8
M01
100
AcDbLine
 10
332.657613
 20
527.160844
 30
0.0
 11
332.657613
 21
537.160844
 31
0.0
  0
ARC
  5
525
100
AcDbEntity
  8
M01
100
AcDbCircle
 10
335.306918
 20
535.191933
 30
0.0
 40
1.150694
100
AcDbArc
 50
298.592423
 51
61.407577
  0
ARC
  5
526
100
AcDbEntity
  8
M01
100
AcDbCircle
 10
332.754835
 20
532.160844
 30
0.0
 40
3.702778
100
AcDbArc
 50
326.92527
 51
33.07473
  0
ARC
  5
527
100
AcDbEntity
  8
M01
100
AcDbCircle
 10
335.306918
 20
529.129755
 30
0.0
 40
1.150694
100
AcDbArc
 50
298.592423
 51
61.407577
  0
ARC
  5
528
100
AcDbEntity
  8
M01
100
AcDbCircle
 10
334.608307
 20
535.191933
 30
0.0
 40
1.150694
100
AcDbArc
 50
118.592423
 51
241.407577
  0
ARC
  5
529
100
AcDbEntity
  8
M01
100
AcDbCircle
 10
337.16039
 20
532.160844
 30
0.0
 40
3.702778
100
AcDbArc
 50
146.92527
 51
213.07473
  0
LINE
  5
52A
100
AcDbEntity
  8
M01
100
AcDbLine
 10
334.057613
 20
534.18157
 30
0.0
 11
335.857613
 21
534.18157
 31
0.0
  0
LINE
  5
52B
100
AcDbEntity
  8
M01
100
AcDbLine
 10
334.057613
 20
536.202296
 30
0.0
 11
335.857613
 21
536.202296
 31
0.0
  0
ARC
  5
52C
100
AcDbEntity
  8
M01
100
AcDbCircle
 10
334.608307
 20
529.129755
 30
0.0
 40
1.150694
100
AcDbArc
 50
118.592423
 51
241.407577
  0
LINE
  5
52D
100
AcDbEntity
  8
M01
100
AcDbLine
 10
334.057613
 20
530.140118
 30
0.0
 11
335.857613
 21
530.140118
 31
0.0
  0
LINE
  5
52E
100
AcDbEntity
  8
M01
100
AcDbLine
 10
334.057613
 20
528.119392
 30
0.0
 11
335.857613
 21
528.119392
 31
0.0
  0
LINE
  5
52F
100
AcDbEntity
  8
M01
100
AcDbLine
 10
333.457613
 20
527.660844
 30
0.0
 11
333.457613
 21
536.660844
 31
0.0
  0
LINE
  5
530
100
AcDbEntity
  8
M01
100
AcDbLine
 10
336.457613
 20
527.660844
 30
0.0
 11
336.457613
 21
536.660844
 31
0.0
  0
LINE
  5
531
100
AcDbEntity
  8
M01
100
AcDbLine
 10
337.257613
 20
527.660844
 30
0.0
 11
337.257613
 21
536.660844
 31
0.0
  0
LINE
  5
532
100
AcDbEntity
  8
M04
100
AcDbLine
 10
309.257613
 20
561.160844
 30
0.0
 11
288.586134
 21
561.160844
 31
0.0
  0
LINE
  5
533
100
AcDbEntity
  8
M04
100
AcDbLine
 10
309.257613
 20
527.160844
 30
0.0
 11
288.586134
 21
527.160844
 31
0.0
  0
ARC
  5
534
100
AcDbEntity
  8
M04
100
AcDbCircle
 10
324.257613
 20
561.160844
 30
0.0
 40
15.0
100
AcDbArc
 50
90.0
 51
180.0
  0
ARC
  5
535
100
AcDbEntity
  8
M04
100
AcDbCircle
 10
324.257613
 20
527.160844
 30
0.0
 40
15.0
100
AcDbArc
 50
180.0
 51
270.0
  0
LINE
  5
536
100
AcDbEntity
  8
M04
100
AcDbLine
 10
309.257613
 20
527.160844
 30
0.0
 11
309.257613
 21
561.160844
 31
0.0
  0
LINE
  5
537
100
AcDbEntity
  8
M01
100
AcDbLine
 10
324.257613
 20
533.660844
 30
0.0
 11
324.757613
 21
534.160844
 31
0.0
  0
LINE
  5
538
100
AcDbEntity
  8
M01
100
AcDbLine
 10
324.757613
 20
530.160844
 30
0.0
 11
324.257613
 21
530.660844
 31
0.0
  0
LINE
  5
539
100
AcDbEntity
  8
M01
100
AcDbLine
 10
324.757613
 20
530.160844
 30
0.0
 11
324.757613
 21
534.160844
 31
0.0
  0
LINE
  5
53A
100
AcDbEntity
  8
M01
100
AcDbLine
 10
324.257613
 20
533.660844
 30
0.0
 11
327.357613
 21
533.660844
 31
0.0
  0
LINE
  5
53B
100
AcDbEntity
  8
M01
100
AcDbLine
 10
324.257613
 20
530.660844
 30
0.0
 11
327.357613
 21
530.660844
 31
0.0
  0
LINE
  5
53C
100
AcDbEntity
  8
M01
100
AcDbLine
 10
324.757613
 20
530.160844
 30
0.0
 11
327.357613
 21
530.160844
 31
0.0
  0
LINE
  5
53D
100
AcDbEntity
  8
M01
100
AcDbLine
 10
324.757613
 20
534.160844
 30
0.0
 11
327.357613
 21
534.160844
 31
0.0
  0
LINE
  5
53E
100
AcDbEntity
  8
M01
100
AcDbLine
 10
324.257613
 20
530.660844
 30
0.0
 11
324.257613
 21
533.660844
 31
0.0
  0
LINE
  5
53F
100
AcDbEntity
  8
M01
100
AcDbLine
 10
349.257613
 20
527.160844
 30
0.0
 11
349.257613
 21
537.160844
 31
0.0
  0
LINE
  5
540
100
AcDbEntity
  8
M01
100
AcDbLine
 10
336.457613
 20
536.660844
 30
0.0
 11
337.257613
 21
536.660844
 31
0.0
  0
LINE
  5
541
100
AcDbEntity
  8
M01
100
AcDbLine
 10
336.457613
 20
527.660844
 30
0.0
 11
337.257613
 21
527.660844
 31
0.0
  0
LINE
  5
542
100
AcDbEntity
  8
CENTRE
100
AcDbLine
 10
318.096723
 20
532.160844
 30
0.0
 11
381.690155
 21
532.160844
 31
0.0
  0
LINE
  5
543
100
AcDbEntity
  8
M04
100
AcDbLine
 10
324.257613
 20
512.160844
 30
0.0
 11
446.532216
 21
512.160844
 31
0.0
  0
LWPOLYLINE
  5
544
100
AcDbEntity
  8
M01
100
AcDbPolyline
 90
        2
 70
     0
 43
4.0
 10
374.757613
 20
546.160844
 42
0.414214
 10
372.757613
 20
544.160844
  0
LWPOLYLINE
  5
545
100
AcDbEntity
  8
M01
100
AcDbPolyline
 90
        2
 70
     0
 43
4.0
 10
374.757613
 20
542.160844
 42
0.414214
 10
376.757613
 20
544.160844
  0
CIRCLE
  5
546
100
AcDbEntity
  8
M01
100
AcDbCircle
 10
374.757613
 20
544.160844
 30
0.0
 40
4.0
  0
LINE
  5
547
100
AcDbEntity
  8
M01
100
AcDbLine
 10
377.257613
 20
548.160844
 30
0.0
 11
369.257613
 21
548.160844
 31
0.0
  0
LINE
  5
548
100
AcDbEntity
  8
M01
100
AcDbLine
 10
377.257613
 20
540.160844
 30
0.0
 11
369.257613
 21
540.160844
 31
0.0
  0
ARC
  5
549
100
AcDbEntity
  8
M01
100
AcDbCircle
 10
377.257613
 20
544.160844
 30
0.0
 40
4.0
100
AcDbArc
 50
270.0
 51
90.0
  0
LINE
  5
54A
100
AcDbEntity
  8
M01
100
AcDbLine
 10
369.257613
 20
564.160844
 30
0.0
 11
371.257613
 21
566.160844
 31
0.0
  0
LINE
  5
54B
100
AcDbEntity
  8
M01
100
AcDbLine
 10
371.257613
 20
522.160844
 30
0.0
 11
369.257613
 21
524.160844
 31
0.0
  0
LINE
  5
54C
100
AcDbEntity
  8
M01
100
AcDbLine
 10
369.257613
 20
524.160844
 30
0.0
 11
369.257613
 21
564.160844
 31
0.0
  0
LINE
  5
54D
100
AcDbEntity
  8
M01
100
AcDbLine
 10
371.257613
 20
566.160844
 30
0.0
 11
449.532216
 21
566.160844
 31
0.0
  0
LINE
  5
54E
100
AcDbEntity
  8
M01
100
AcDbLine
 10
371.257613
 20
522.160844
 30
0.0
 11
449.532216
 21
522.160844
 31
0.0
  0
CIRCLE
  5
54F
100
AcDbEntity
  8
M03
100
AcDbCircle
 10
770.757613
 20
544.160844
 30
0.0
 40
4.0
  0
CIRCLE
  5
550
100
AcDbEntity
  8
M01
100
AcDbCircle
 10
433.257613
 20
656.660844
 30
0.0
 40
4.0
  0
LINE
  5
551
100
AcDbEntity
  8
CENTRE
100
AcDbLine
 10
277.635032
 20
544.160844
 30
0.0
 11
1038.880194
 21
544.160844
 31
0.0
  0
LINE
  5
552
100
AcDbEntity
  8
CENTRE
100
AcDbLine
 10
658.257613
 20
724.69383
 30
0.0
 11
658.257613
 21
363.627857
 31
0.0
  0
ENDSEC
  0
SECTION
  2
OBJECTS
  0
DICTIONARY
  5
1C
100
AcDbDictionary
  3
ACAD_GROUP
350
1A
  3
ACAD_MLINESTYLE
350
1B
  0
DICTIONARY
  5
3
100
AcDbDictionary
280
     1
  3
ACAD_SORTENTS
360
4
  0
DICTIONARY
  5
1A
102
{ACAD_REACTORS
330
1C
102
}
100
AcDbDictionary
  0
DICTIONARY
  5
1B
102
{ACAD_REACTORS
330
1C
102
}
100
AcDbDictionary
  3
STANDARD
350
1E
  0
SORTENTSTABLE
  5
4
102
{ACAD_REACTORS
330
3
102
}
100
AcDbSortentsTable
330
2
  0
MLINESTYLE
  5
1E
102
{ACAD_REACTORS
330
1B
102
}
100
AcDbMlineStyle
  2
STANDARD
 70
     0
  3

 62
   256
 51
90.0
 52
90.0
 71
     2
 49
0.5
 62
   256
  6
BYLAYER
 49
-0.5
 62
   256
  6
BYLAYER
  0
ENDSEC
  0
EOF
