  0
SECTION
  2
HEADER
  9
$ACADVER
  1
AC1014
  9
$ACADMAINTVER
 70
     9
  9
$DWGCODEPAGE
  3
ANSI_1252
  9
$INSBASE
 10
0.0
 20
0.0
 30
0.0
  9
$EXTMIN
 10
173.782646
 20
74.128736
 30
-0.222949
  9
$EXTMAX
 10
1173.151693
 20
749.5626
 30
0.0
  9
$LIMMIN
 10
0.0
 20
0.0
  9
$LIMMAX
 10
1189.0
 20
841.0
  9
$ORTHOMODE
 70
     1
  9
$REGENMODE
 70
     1
  9
$FILLMODE
 70
     1
  9
$QTEXTMODE
 70
     0
  9
$MIRRTEXT
 70
     1
  9
$DRAGMODE
 70
     2
  9
$LTSCALE
 40
8.0
  9
$OSMODE
 70
     0
  9
$ATTMODE
 70
     1
  9
$TEXTSIZE
 40
3.0
  9
$TRACEWID
 40
10.0
  9
$TEXTSTYLE
  7
STANDARD
  9
$CLAYER
  8
DIMS
  9
$CELTYPE
  6
BYLAYER
  9
$CECOLOR
 62
   256
  9
$CELTSCALE
 40
1.0
  9
$DELOBJ
 70
     1
  9
$DISPSILH
 70
     0
  9
$DIMSCALE
 40
1.0
  9
$DIMASZ
 40
3.0
  9
$DIMEXO
 40
1.0
  9
$DIMDLI
 40
10.0
  9
$DIMRND
 40
0.01
  9
$DIMDLE
 40
1.25
  9
$DIMEXE
 40
2.5
  9
$DIMTP
 40
0.05
  9
$DIMTM
 40
0.0
  9
$DIMTXT
 40
3.0
  9
$DIMCEN
 40
-1.7
  9
$DIMTSZ
 40
0.0
  9
$DIMTOL
 70
     0
  9
$DIMLIM
 70
     0
  9
$DIMTIH
 70
     0
  9
$DIMTOH
 70
     0
  9
$DIMSE1
 70
     0
  9
$DIMSE2
 70
     0
  9
$DIMTAD
 70
     3
  9
$DIMZIN
 70
     1
  9
$DIMBLK
  1

  9
$DIMASO
 70
     1
  9
$DIMSHO
 70
     0
  9
$DIMPOST
  1

  9
$DIMAPOST
  1

  9
$DIMALT
 70
     0
  9
$DIMALTD
 70
     2
  9
$DIMALTF
 40
0.039
  9
$DIMLFAC
 40
1.0
  9
$DIMTOFL
 70
     0
  9
$DIMTVP
 40
1.5
  9
$DIMTIX
 70
     0
  9
$DIMSOXD
 70
     0
  9
$DIMSAH
 70
     0
  9
$DIMBLK1
  1

  9
$DIMBLK2
  1

  9
$DIMSTYLE
  2
DIM1
  9
$DIMCLRD
 70
     4
  9
$DIMCLRE
 70
     4
  9
$DIMCLRT
 70
     2
  9
$DIMTFAC
 40
0.7
  9
$DIMGAP
 40
1.5
  9
$DIMJUST
 70
     0
  9
$DIMSD1
 70
     0
  9
$DIMSD2
 70
     0
  9
$DIMTOLJ
 70
     1
  9
$DIMTZIN
 70
     1
  9
$DIMALTZ
 70
     1
  9
$DIMALTTZ
 70
     1
  9
$DIMFIT
 70
     0
  9
$DIMUPT
 70
     0
  9
$DIMUNIT
 70
     2
  9
$DIMDEC
 70
     2
  9
$DIMTDEC
 70
     2
  9
$DIMALTU
 70
     2
  9
$DIMALTTD
 70
     2
  9
$DIMTXSTY
  7
STANDARD
  9
$DIMAUNIT
 70
     0
  9
$LUNITS
 70
     2
  9
$LUPREC
 70
     2
  9
$SKETCHINC
 40
1.0
  9
$FILLETRAD
 40
15.0
  9
$AUNITS
 70
     0
  9
$AUPREC
 70
     3
  9
$MENU
  1
ACAD
  9
$ELEVATION
 40
0.0
  9
$PELEVATION
 40
0.0
  9
$THICKNESS
 40
0.0
  9
$LIMCHECK
 70
     0
  9
$BLIPMODE
 70
     1
  9
$CHAMFERA
 40
7.0
  9
$CHAMFERB
 40
7.0
  9
$CHAMFERC
 40
0.0
  9
$CHAMFERD
 40
0.0
  9
$SKPOLY
 70
     1
  9
$TDCREATE
 40
2449993.725698611
  9
$TDUPDATE
 40
2452215.519314294
  9
$TDINDWG
 40
1.3573167940
  9
$TDUSRTIMER
 40
1.3573167940
  9
$USRTIMER
 70
     1
  9
$ANGBASE
 50
0.0
  9
$ANGDIR
 70
     0
  9
$PDMODE
 70
     3
  9
$PDSIZE
 40
0.0
  9
$PLINEWID
 40
0.0
  9
$COORDS
 70
     2
  9
$SPLFRAME
 70
     0
  9
$SPLINETYPE
 70
     6
  9
$SPLINESEGS
 70
     6
  9
$ATTDIA
 70
     1
  9
$ATTREQ
 70
     1
  9
$HANDLING
 70
     1
  9
$HANDSEED
  5
554
  9
$SURFTAB1
 70
    12
  9
$SURFTAB2
 70
    12
  9
$SURFTYPE
 70
     6
  9
$SURFU
 70
    12
  9
$SURFV
 70
    12
  9
$UCSNAME
  2

  9
$UCSORG
 10
0.0
 20
0.0
 30
0.0
  9
$UCSXDIR
 10
1.0
 20
0.0
 30
0.0
  9
$UCSYDIR
 10
0.0
 20
1.0
 30
0.0
  9
$PUCSNAME
  2

  9
$PUCSORG
 10
0.0
 20
0.0
 30
0.0
  9
$PUCSXDIR
 10
1.0
 20
0.0
 30
0.0
  9
$PUCSYDIR
 10
0.0
 20
1.0
 30
0.0
  9
$USERI1
 70
     0
  9
$USERI2
 70
     0
  9
$USERI3
 70
     0
  9
$USERI4
 70
     0
  9
$USERI5
 70
     0
  9
$USERR1
 40
0.0
  9
$USERR2
 40
0.0
  9
$USERR3
 40
0.0
  9
$USERR4
 40
0.0
  9
$USERR5
 40
0.0
  9
$WORLDVIEW
 70
     0
  9
$SHADEDGE
 70
     3
  9
$SHADEDIF
 70
    70
  9
$TILEMODE
 70
     1
  9
$MAXACTVP
 70
    16
  9
$PINSBASE
 10
0.0
 20
0.0
 30
0.0
  9
$PLIMCHECK
 70
     0
  9
$PEXTMIN
 10
1.000000E+20
 20
1.000000E+20
 30
1.000000E+20
  9
$PEXTMAX
 10
-1.000000E+20
 20
-1.000000E+20
 30
-1.000000E+20
  9
$PLIMMIN
 10
0.0
 20
0.0
  9
$PLIMMAX
 10
12.0
 20
9.0
  9
$UNITMODE
 70
     0
  9
$VISRETAIN
 70
     0
  9
$PLINEGEN
 70
     0
  9
$PSLTSCALE
 70
     0
  9
$TREEDEPTH
 70
  3020
  9
$PICKSTYLE
 70
     1
  9
$CMLSTYLE
  2
STANDARD
  9
$CMLJUST
 70
     0
  9
$CMLSCALE
 40
1.0
  9
$PROXYGRAPHICS
 70
     1
  9
$MEASUREMENT
 70
     0
  0
ENDSEC
  0
SECTION
  2
CLASSES
  0
CLASS
  1
DICTIONARYVAR
  2
AcDbDictionaryVar
  3
"AutoCAD"
 90
        0
280
     0
281
     0
  0
CLASS
  1
LWPOLYLINE
  2
AcDbPolyline
  3
"AutoCAD"
 90
        0
280
     0
281
     1
  0
CLASS
  1
HATCH
  2
AcDbHatch
  3
"ACAD_SEDONA"
 90
        0
280
     0
281
     1
  0
CLASS
  1
SORTENTSTABLE
  2
AcDbSortentsTable
  3
"AutoCAD"
 90
        0
280
     0
281
     0
  0
CLASS
  1
WIPEOUTVARIABLES
  2
AcDbWipeoutVariables
  3
WIPEOUT
 90
        0
280
     0
281
     0
  0
CLASS
  1
WIPEOUT
  2
AcDbWipeout
  3
WIPEOUT
 90
      127
280
     0
281
     1
  0
ENDSEC
  0
SECTION
  2
TABLES
  0
TABLE
  2
VPORT
  5
14
100
AcDbSymbolTable
 70
     2
  0
VPORT
  5
553
100
AcDbSymbolTableRecord
100
AcDbViewportTableRecord
  2
*ACTIVE
 70
     0
 10
0.0
 20
0.0
 11
1.0
 21
1.0
 12
602.038644
 22
407.720885
 13
0.0
 23
0.0
 14
10.0
 24
10.0
 15
0.0
 25
0.0
 16
0.0
 26
0.0
 36
1.0
 17
16.313321
 27
12.779115
 37
0.222949
 40
841.0
 41
1.470516
 42
50.0
 43
0.0
 44
0.0
 50
0.0
 51
0.0
 71
     0
 72
  2000
 73
     1
 74
     2
 75
     0
 76
     0
 77
     0
 78
     1
  0
ENDTAB
  0
TABLE
  2
LTYPE
  5
F
100
AcDbSymbolTable
 70
     3
  0
LTYPE
  5
10
100
AcDbSymbolTableRecord
100
AcDbLinetypeTableRecord
  2
BYBLOCK
 70
     0
  3

 72
    65
 73
     0
 40
0.0
  0
LTYPE
  5
11
100
AcDbSymbolTableRecord
100
AcDbLinetypeTableRecord
  2
BYLAYER
 70
     0
  3

 72
    65
 73
     0
 40
0.0
  0
LTYPE
  5
7
100
AcDbSymbolTableRecord
100
AcDbLinetypeTableRecord
  2
CONTINUOUS
 70
     0
  3
Solid line
 72
    65
 73
     0
 40
0.0
  0
LTYPE
  5
132
100
AcDbSymbolTableRecord
100
AcDbLinetypeTableRecord
  2
CENTER
 70
     0
  3
Center ____ _ ____ _ ____ _ ____ _ ____ _ ____
 72
    65
 73
     4
 40
2.0
 49
1.25
 74
     0
 49
-0.25
 74
     0
 49
0.25
 74
     0
 49
-0.25
 74
     0
  0
LTYPE
  5
ED
100
AcDbSymbolTableRecord
100
AcDbLinetypeTableRecord
  2
HIDDEN
 70
     0
  3
Hidden __ __ __ __ __ __ __ __ __ __ __ __ __ _
 72
    65
 73
     2
 40
0.375
 49
0.25
 74
     0
 49
-0.125
 74
     0
  0
ENDTAB
  0
TABLE
  2
LAYER
  5
C
100
AcDbSymbolTable
 70
    11
  0
LAYER
  5
6
100
AcDbSymbolTableRecord
100
AcDbLayerTableRecord
  2
0
 70
     0
 62
     7
  6
CONTINUOUS
  0
LAYER
  5
131
100
AcDbSymbolTableRecord
100
AcDbLayerTableRecord
  2
CENTRE
 70
     0
 62
     3
  6
CENTER
  0
LAYER
  5
32
100
AcDbSymbolTableRecord
100
AcDbLayerTableRecord
  2
M01
 70
     0
 62
     1
  6
CONTINUOUS
  0
LAYER
  5
2B9
100
AcDbSymbolTableRecord
100
AcDbLayerTableRecord
  2
M02
 70
     0
 62
     2
  6
CONTINUOUS
  0
LAYER
  5
EC
100
AcDbSymbolTableRecord
100
AcDbLayerTableRecord
  2
M03
 70
     0
 62
     2
  6
HIDDEN
  0
LAYER
  5
24
100
AcDbSymbolTableRecord
100
AcDbLayerTableRecord
  2
M04
 70
     0
 62
     7
  6
CONTINUOUS
  0
LAYER
  5
F7
100
AcDbSymbolTableRecord
100
AcDbLayerTableRecord
  2
M05
 70
     0
 62
     5
  6
CONTINUOUS
  0
LAYER
  5
1D
100
AcDbSymbolTableRecord
100
AcDbLayerTableRecord
  2
DIMS
 70
     0
 62
     4
  6
CONTINUOUS
  0
LAYER
  5
21
100
AcDbSymbolTableRecord
100
AcDbLayerTableRecord
  2
TEXT
 70
     0
 62
     2
  6
CONTINUOUS
  0
LAYER
  5
92
100
AcDbSymbolTableRecord
100
AcDbLayerTableRecord
  2
HATCH
 70
     0
 62
     4
  6
CONTINUOUS
  0
LAYER
  5
4C
100
AcDbSymbolTableRecord
100
AcDbLayerTableRecord
  2
DEFPOINTS
 70
     0
 62
     7
  6
CONTINUOUS
  0
ENDTAB
  0
TABLE
  2
STYLE
  5
D
100
AcDbSymbolTable
 70
     1
  0
STYLE
  5
E
100
AcDbSymbolTableRecord
100
AcDbTextStyleTableRecord
  2
STANDARD
 70
     0
 40
0.0
 41
1.0
 50
0.0
 71
     0
 42
3.0
  3
SIMPLEX
  4

  0
ENDTAB
  0
TABLE
  2
VIEW
  5
12
100
AcDbSymbolTable
 70
     0
  0
ENDTAB
  0
TABLE
  2
UCS
  5
13
100
AcDbSymbolTable
 70
     0
  0
ENDTAB
  0
TABLE
  2
APPID
  5
16
100
AcDbSymbolTable
 70
     1
  0
APPID
  5
17
100
AcDbSymbolTableRecord
100
AcDbRegAppTableRecord
  2
ACAD
 70
     0
  0
ENDTAB
  0
TABLE
  2
DIMSTYLE
  5
18
100
AcDbSymbolTable
 70
     2
  0
DIMSTYLE
105
1F
102
{ACAD_REACTORS
330
41D
330
40F
330
401
330
3F4
330
3E6
330
DB
330
CE
330
C1
330
B4
330
84
330
77
330
6A
330
5E
330
51
330
43
102
}
100
AcDbSymbolTableRecord
100
AcDbDimStyleTableRecord
  2
DIM1
 70
     0
  3

  4

  5

  6

  7

 40
1.0
 41
3.0
 42
1.0
 43
10.0
 44
2.5
 45
0.01
 46
1.25
 47
0.05
 48
0.0
140
3.0
141
-1.7
142
0.0
143
0.039
144
0.2
145
1.5
146
0.7
147
1.5
 71
     0
 72
     0
 73
     0
 74
     0
 75
     0
 76
     0
 77
     3
 78
     1
170
     0
171
     2
172
     0
173
     0
174
     0
175
     0
176
     4
177
     4
178
     2
270
     2
271
     2
272
     2
273
     2
274
     2
340
E
275
     0
280
     0
281
     0
282
     0
283
     1
284
     1
285
     1
286
     1
287
     0
288
     0
  0
DIMSTYLE
105
335
100
AcDbSymbolTableRecord
100
AcDbDimStyleTableRecord
  2
DIM1$7
 70
     0
  3

  4

  5

  6

  7

 40
1.0
 41
3.0
 42
1.0
 43
10.0
 44
2.5
 45
0.01
 46
1.25
 47
0.0
 48
0.0
140
3.0
141
-1.7
142
0.0
143
0.039
144
1.0
145
0.0
146
1.0
147
1.5
 71
     0
 72
     0
 73
     0
 74
     0
 75
     0
 76
     0
 77
     0
 78
     1
170
     0
171
     2
172
     0
173
     0
174
     0
175
     0
176
     4
177
     4
178
     2
270
     2
271
     2
272
     2
273
     2
274
     2
340
E
275
     0
280
     0
281
     0
282
     0
283
     1
284
     1
285
     1
286
     1
287
     0
288
     0
  0
ENDTAB
  0
TABLE
  2
BLOCK_RECORD
  5
1
100
AcDbSymbolTable
 70
    16
  0
BLOCK_RECORD
  5
2
102
{ACAD_XDICTIONARY
360
3
102
}
100
AcDbSymbolTableRecord
100
AcDbBlockTableRecord
  2
*MODEL_SPACE
  0
BLOCK_RECORD
  5
9
100
AcDbSymbolTableRecord
100
AcDbBlockTableRecord
  2
*PAPER_SPACE
  0
BLOCK_RECORD
  5
41E
100
AcDbSymbolTableRecord
100
AcDbBlockTableRecord
  2
*D0
  0
BLOCK_RECORD
  5
410
100
AcDbSymbolTableRecord
100
AcDbBlockTableRecord
  2
*D1
  0
BLOCK_RECORD
  5
402
100
AcDbSymbolTableRecord
100
AcDbBlockTableRecord
  2
*D2
  0
BLOCK_RECORD
  5
3F5
100
AcDbSymbolTableRecord
100
AcDbBlockTableRecord
  2
*D3
  0
BLOCK_RECORD
  5
3E7
100
AcDbSymbolTableRecord
100
AcDbBlockTableRecord
  2
*D4
  0
BLOCK_RECORD
  5
21E
100
AcDbSymbolTableRecord
100
AcDbBlockTableRecord
  2
ARROW1
  0
BLOCK_RECORD
  5
DC
100
AcDbSymbolTableRecord
100
AcDbBlockTableRecord
  2
*D6
  0
BLOCK_RECORD
  5
CF
100
AcDbSymbolTableRecord
100
AcDbBlockTableRecord
  2
*D7
  0
BLOCK_RECORD
  5
C2
100
AcDbSymbolTableRecord
100
AcDbBlockTableRecord
  2
*D8
  0
BLOCK_RECORD
  5
B5
100
AcDbSymbolTableRecord
100
AcDbBlockTableRecord
  2
*D9
  0
BLOCK_RECORD
  5
85
100
AcDbSymbolTableRecord
100
AcDbBlockTableRecord
  2
*D10
  0
BLOCK_RECORD
  5
78
100
AcDbSymbolTableRecord
100
AcDbBlockTableRecord
  2
*D11
  0
BLOCK_RECORD
  5
6B
100
AcDbSymbolTableRecord
100
AcDbBlockTableRecord
  2
*D12
  0
BLOCK_RECORD
  5
5F
100
AcDbSymbolTableRecord
100
AcDbBlockTableRecord
  2
*D13
  0
BLOCK_RECORD
  5
52
100
AcDbSymbolTableRecord
100
AcDbBlockTableRecord
  2
*D14
  0
BLOCK_RECORD
  5
44
100
AcDbSymbolTableRecord
100
AcDbBlockTableRecord
  2
*D15
  0
ENDTAB
  0
ENDSEC
  0
SECTION
  2
BLOCKS
  0
BLOCK
  5
5
100
AcDbEntity
  8
0
100
AcDbBlockBegin
  2
*MODEL_SPACE
 70
     0
 10
0.0
 20
0.0
 30
0.0
  3
*MODEL_SPACE
  1

  0
ENDBLK
  5
8
100
AcDbEntity
  8
0
100
AcDbBlockEnd
  0
BLOCK
  5
A
100
AcDbEntity
 67
     1
  8
0
100
AcDbBlockBegin
  2
*PAPER_SPACE
 70
     0
 10
0.0
 20
0.0
 30
0.0
  3
*PAPER_SPACE
  1

  0
ENDBLK
  5
B
100
AcDbEntity
 67
     1
  8
0
100
AcDbBlockEnd
  0
BLOCK
  5
428
100
AcDbEntity
  8
0
100
AcDbBlockBegin
  2
*D0
 70
     1
 10
0.0
 20
0.0
 30
0.0
  3
*D0
  1

  0
LINE
  5
41F
100
AcDbEntity
  8
0
  6
BYBLOCK
 62
     4
100
AcDbLine
 10
863.167613
 20
288.608777
 30
0.0
 11
905.14031
 21
288.608777
 31
0.0
  0
LINE
  5
420
100
AcDbEntity
  8
0
  6
BYBLOCK
 62
     4
100
AcDbLine
 10
865.167613
 20
228.608777
 30
0.0
 11
905.14031
 21
228.608777
 31
0.0
  0
LINE
  5
421
100
AcDbEntity
  8
0
  6
BYBLOCK
 62
     4
100
AcDbLine
 10
902.64031
 20
285.608777
 30
0.0
 11
902.64031
 21
231.608777
 31
0.0
  0
SOLID
  5
422
100
AcDbEntity
  8
0
  6
BYBLOCK
 62
     4
100
AcDbTrace
 10
902.14031
 20
285.608777
 30
0.0
 11
903.14031
 21
285.608777
 31
0.0
 12
902.64031
 22
288.608777
 32
0.0
 13
902.64031
 23
288.608777
 33
0.0
  0
SOLID
  5
423
100
AcDbEntity
  8
0
  6
BYBLOCK
 62
     4
100
AcDbTrace
 10
902.14031
 20
231.608777
 30
0.0
 11
903.14031
 21
231.608777
 31
0.0
 12
902.64031
 22
228.608777
 32
0.0
 13
902.64031
 23
228.608777
 33
0.0
  0
MTEXT
  5
424
100
AcDbEntity
  8
0
  6
BYBLOCK
 62
     2
100
AcDbMText
 10
899.64031
 20
258.608777
 30
0.0
 40
3.0
 41
0.0
 71
     5
 72
     1
  1
\A1;60.00
 11
0.0
 21
1.0
 31
0.0
  0
POINT
  5
425
100
AcDbEntity
  8
DEFPOINTS
  6
BYBLOCK
 62
     0
100
AcDbPoint
 10
862.167613
 20
288.608777
 30
0.0
  0
POINT
  5
426
100
AcDbEntity
  8
DEFPOINTS
  6
BYBLOCK
 62
     0
100
AcDbPoint
 10
864.167613
 20
228.608777
 30
0.0
  0
POINT
  5
427
100
AcDbEntity
  8
DEFPOINTS
  6
BYBLOCK
 62
     0
100
AcDbPoint
 10
902.64031
 20
228.608777
 30
0.0
  0
ENDBLK
  5
429
100
AcDbEntity
  8
0
100
AcDbBlockEnd
  0
BLOCK
  5
41B
100
AcDbEntity
  8
0
100
AcDbBlockBegin
  2
*D1
 70
     1
 10
0.0
 20
0.0
 30
0.0
  3
*D1
  1

  0
LINE
  5
411
100
AcDbEntity
  8
0
  6
BYBLOCK
 62
     4
100
AcDbLine
 10
863.167613
 20
228.608777
 30
0.0
 11
905.14031
 21
228.608777
 31
0.0
  0
LINE
  5
412
100
AcDbEntity
  8
0
  6
BYBLOCK
 62
     4
100
AcDbLine
 10
883.681004
 20
221.608777
 30
0.0
 11
905.14031
 21
221.608777
 31
0.0
  0
LINE
  5
413
100
AcDbEntity
  8
0
  6
BYBLOCK
 62
     4
100
AcDbLine
 10
902.64031
 20
231.608777
 30
0.0
 11
902.64031
 21
234.608777
 31
0.0
  0
LINE
  5
414
100
AcDbEntity
  8
0
  6
BYBLOCK
 62
     4
100
AcDbLine
 10
902.64031
 20
218.608777
 30
0.0
 11
902.64031
 21
206.323063
 31
0.0
  0
SOLID
  5
415
100
AcDbEntity
  8
0
  6
BYBLOCK
 62
     4
100
AcDbTrace
 10
902.14031
 20
231.608777
 30
0.0
 11
903.14031
 21
231.608777
 31
0.0
 12
902.64031
 22
228.608777
 32
0.0
 13
902.64031
 23
228.608777
 33
0.0
  0
SOLID
  5
416
100
AcDbEntity
  8
0
  6
BYBLOCK
 62
     4
100
AcDbTrace
 10
902.14031
 20
218.608777
 30
0.0
 11
903.14031
 21
218.608777
 31
0.0
 12
902.64031
 22
221.608777
 32
0.0
 13
902.64031
 23
221.608777
 33
0.0
  0
MTEXT
  5
417
100
AcDbEntity
  8
0
  6
BYBLOCK
 62
     2
100
AcDbMText
 10
899.64031
 20
210.96592
 30
0.0
 40
3.0
 41
0.0
 71
     5
 72
     1
  1
\A1;7.0
 11
0.0
 21
1.0
 31
0.0
  0
POINT
  5
418
100
AcDbEntity
  8
DEFPOINTS
  6
BYBLOCK
 62
     0
100
AcDbPoint
 10
862.167613
 20
228.608777
 30
0.0
  0
POINT
  5
419
100
AcDbEntity
  8
DEFPOINTS
  6
BYBLOCK
 62
     0
100
AcDbPoint
 10
882.681004
 20
221.608777
 30
0.0
  0
POINT
  5
41A
100
AcDbEntity
  8
DEFPOINTS
  6
BYBLOCK
 62
     0
100
AcDbPoint
 10
902.64031
 20
221.608777
 30
0.0
  0
ENDBLK
  5
41C
100
AcDbEntity
  8
0
100
AcDbBlockEnd
  0
BLOCK
  5
40D
100
AcDbEntity
  8
0
100
AcDbBlockBegin
  2
*D2
 70
     1
 10
0.0
 20
0.0
 30
0.0
  3
*D2
  1

  0
LINE
  5
403
100
AcDbEntity
  8
0
  6
BYBLOCK
 62
     4
100
AcDbLine
 10
863.167613
 20
288.608777
 30
0.0
 11
905.14031
 21
288.608777
 31
0.0
  0
LINE
  5
404
100
AcDbEntity
  8
0
  6
BYBLOCK
 62
     4
100
AcDbLine
 10
872.167613
 20
295.608777
 30
0.0
 11
905.14031
 21
295.608777
 31
0.0
  0
LINE
  5
405
100
AcDbEntity
  8
0
  6
BYBLOCK
 62
     4
100
AcDbLine
 10
902.64031
 20
285.608777
 30
0.0
 11
902.64031
 21
282.608777
 31
0.0
  0
LINE
  5
406
100
AcDbEntity
  8
0
  6
BYBLOCK
 62
     4
100
AcDbLine
 10
902.64031
 20
298.608777
 30
0.0
 11
902.64031
 21
310.894491
 31
0.0
  0
SOLID
  5
407
100
AcDbEntity
  8
0
  6
BYBLOCK
 62
     4
100
AcDbTrace
 10
902.14031
 20
285.608777
 30
0.0
 11
903.14031
 21
285.608777
 31
0.0
 12
902.64031
 22
288.608777
 32
0.0
 13
902.64031
 23
288.608777
 33
0.0
  0
SOLID
  5
408
100
AcDbEntity
  8
0
  6
BYBLOCK
 62
     4
100
AcDbTrace
 10
902.14031
 20
298.608777
 30
0.0
 11
903.14031
 21
298.608777
 31
0.0
 12
902.64031
 22
295.608777
 32
0.0
 13
902.64031
 23
295.608777
 33
0.0
  0
MTEXT
  5
409
100
AcDbEntity
  8
0
  6
BYBLOCK
 62
     2
100
AcDbMText
 10
899.64031
 20
306.251634
 30
0.0
 40
3.0
 41
0.0
 71
     5
 72
     1
  1
\A1;7.0
 11
0.0
 21
1.0
 31
0.0
  0
POINT
  5
40A
100
AcDbEntity
  8
DEFPOINTS
  6
BYBLOCK
 62
     0
100
AcDbPoint
 10
862.167613
 20
288.608777
 30
0.0
  0
POINT
  5
40B
100
AcDbEntity
  8
DEFPOINTS
  6
BYBLOCK
 62
     0
100
AcDbPoint
 10
871.167613
 20
295.608777
 30
0.0
  0
POINT
  5
40C
100
AcDbEntity
  8
DEFPOINTS
  6
BYBLOCK
 62
     0
100
AcDbPoint
 10
902.64031
 20
295.608777
 30
0.0
  0
ENDBLK
  5
40E
100
AcDbEntity
  8
0
100
AcDbBlockEnd
  0
BLOCK
  5
3FF
100
AcDbEntity
  8
0
100
AcDbBlockBegin
  2
*D3
 70
     1
 10
0.0
 20
0.0
 30
0.0
  3
*D3
  1

  0
LINE
  5
3F6
100
AcDbEntity
  8
0
  6
BYBLOCK
 62
     4
100
AcDbLine
 10
870.818995
 20
-32.251076
 30
0.0
 11
870.818995
 21
-70.066192
 31
0.0
  0
LINE
  5
3F7
100
AcDbEntity
  8
0
  6
BYBLOCK
 62
     4
100
AcDbLine
 10
830.818995
 20
-32.251076
 30
0.0
 11
830.818995
 21
-70.066192
 31
0.0
  0
LINE
  5
3F8
100
AcDbEntity
  8
0
  6
BYBLOCK
 62
     4
100
AcDbLine
 10
867.818995
 20
-67.566192
 30
0.0
 11
833.818995
 21
-67.566192
 31
0.0
  0
SOLID
  5
3F9
100
AcDbEntity
  8
0
  6
BYBLOCK
 62
     4
100
AcDbTrace
 10
867.818995
 20
-67.066192
 30
0.0
 11
867.818995
 21
-68.066192
 31
0.0
 12
870.818995
 22
-67.566192
 32
0.0
 13
870.818995
 23
-67.566192
 33
0.0
  0
SOLID
  5
3FA
100
AcDbEntity
  8
0
  6
BYBLOCK
 62
     4
100
AcDbTrace
 10
833.818995
 20
-67.066192
 30
0.0
 11
833.818995
 21
-68.066192
 31
0.0
 12
830.818995
 22
-67.566192
 32
0.0
 13
830.818995
 23
-67.566192
 33
0.0
  0
MTEXT
  5
3FB
100
AcDbEntity
  8
0
  6
BYBLOCK
 62
     2
100
AcDbMText
 10
850.818995
 20
-64.566192
 30
0.0
 40
3.0
 41
0.0
 71
     5
 72
     1
  1
\A1;\U+220540.00 H7
  0
POINT
  5
3FC
100
AcDbEntity
  8
DEFPOINTS
  6
BYBLOCK
 62
     0
100
AcDbPoint
 10
870.818995
 20
-31.251076
 30
0.0
  0
POINT
  5
3FD
100
AcDbEntity
  8
DEFPOINTS
  6
BYBLOCK
 62
     0
100
AcDbPoint
 10
830.818995
 20
-31.251076
 30
0.0
  0
POINT
  5
3FE
100
AcDbEntity
  8
DEFPOINTS
  6
BYBLOCK
 62
     0
100
AcDbPoint
 10
830.818995
 20
-67.566192
 30
0.0
  0
ENDBLK
  5
400
100
AcDbEntity
  8
0
100
AcDbBlockEnd
  0
BLOCK
  5
3F2
100
AcDbEntity
  8
0
100
AcDbBlockBegin
  2
*D4
 70
     1
 10
0.0
 20
0.0
 30
0.0
  3
*D4
  1

  0
LINE
  5
3E8
100
AcDbEntity
  8
0
  6
BYBLOCK
 62
     4
100
AcDbLine
 10
420.757613
 20
309.608777
 30
0.0
 11
420.757613
 21
325.784942
 31
0.0
  0
LINE
  5
3E9
100
AcDbEntity
  8
0
  6
BYBLOCK
 62
     4
100
AcDbLine
 10
428.757613
 20
309.608777
 30
0.0
 11
428.757613
 21
325.784942
 31
0.0
  0
LINE
  5
3EA
100
AcDbEntity
  8
0
  6
BYBLOCK
 62
     4
100
AcDbLine
 10
417.757613
 20
323.284942
 30
0.0
 11
414.757613
 21
323.284942
 31
0.0
  0
LINE
  5
3EB
100
AcDbEntity
  8
0
  6
BYBLOCK
 62
     4
100
AcDbLine
 10
431.757613
 20
323.284942
 30
0.0
 11
458.329041
 21
323.284942
 31
0.0
  0
SOLID
  5
3EC
100
AcDbEntity
  8
0
  6
BYBLOCK
 62
     4
100
AcDbTrace
 10
417.757613
 20
323.784942
 30
0.0
 11
417.757613
 21
322.784942
 31
0.0
 12
420.757613
 22
323.284942
 32
0.0
 13
420.757613
 23
323.284942
 33
0.0
  0
SOLID
  5
3ED
100
AcDbEntity
  8
0
  6
BYBLOCK
 62
     4
100
AcDbTrace
 10
431.757613
 20
323.784942
 30
0.0
 11
431.757613
 21
322.784942
 31
0.0
 12
428.757613
 22
323.284942
 32
0.0
 13
428.757613
 23
323.284942
 33
0.0
  0
MTEXT
  5
3EE
100
AcDbEntity
  8
0
  6
BYBLOCK
 62
     2
100
AcDbMText
 10
446.543327
 20
326.284942
 30
0.0
 40
3.0
 41
0.0
 71
     5
 72
     1
  1
\A1;\U+22058.00 H7
  0
POINT
  5
3EF
100
AcDbEntity
  8
DEFPOINTS
  6
BYBLOCK
 62
     0
100
AcDbPoint
 10
420.757613
 20
308.608777
 30
0.0
  0
POINT
  5
3F0
100
AcDbEntity
  8
DEFPOINTS
  6
BYBLOCK
 62
     0
100
AcDbPoint
 10
428.757613
 20
308.608777
 30
0.0
  0
POINT
  5
3F1
100
AcDbEntity
  8
DEFPOINTS
  6
BYBLOCK
 62
     0
100
AcDbPoint
 10
428.757613
 20
323.284942
 30
0.0
  0
ENDBLK
  5
3F3
100
AcDbEntity
  8
0
100
AcDbBlockEnd
  0
BLOCK
  5
222
100
AcDbEntity
  8
0
100
AcDbBlockBegin
  2
ARROW1
 70
     0
 10
0.0
 20
0.0
 30
0.0
  3
ARROW1
  1

  0
LINE
  5
21F
100
AcDbEntity
  8
0
100
AcDbLine
 10
-1.0
 20
-0.2
 30
0.0
 11
-1.0
 21
0.0
 31
0.0
  0
LINE
  5
220
100
AcDbEntity
  8
0
100
AcDbLine
 10
0.0
 20
0.0
 30
0.0
 11
-1.0
 21
-0.2
 31
0.0
  0
SOLID
  5
221
100
AcDbEntity
  8
0
100
AcDbTrace
 10
0.0
 20
0.0
 30
0.0
 11
-1.0
 21
0.2
 31
0.0
 12
-1.0
 22
0.0
 32
0.0
 13
-1.0
 23
0.0
 33
0.0
  0
ENDBLK
  5
223
100
AcDbEntity
  8
0
100
AcDbBlockEnd
  0
BLOCK
  5
E6
100
AcDbEntity
  8
0
100
AcDbBlockBegin
  2
*D6
 70
     1
 10
0.0
 20
0.0
 30
0.0
  3
*D6
  1

  0
LINE
  5
DD
100
AcDbEntity
  8
0
  6
BYBLOCK
 62
     4
100
AcDbLine
 10
625.257613
 20
295.608777
 30
0.0
 11
611.927731
 21
295.608777
 31
0.0
  0
LINE
  5
DE
100
AcDbEntity
  8
0
  6
BYBLOCK
 62
     4
100
AcDbLine
 10
635.032613
 20
309.008777
 30
0.0
 11
611.927731
 21
309.008777
 31
0.0
  0
LINE
  5
DF
100
AcDbEntity
  8
0
  6
BYBLOCK
 62
     4
100
AcDbLine
 10
614.427731
 20
298.608777
 30
0.0
 11
614.427731
 21
306.008777
 31
0.0
  0
SOLID
  5
E0
100
AcDbEntity
  8
0
  6
BYBLOCK
 62
     4
100
AcDbTrace
 10
613.927731
 20
298.608777
 30
0.0
 11
614.927731
 21
298.608777
 31
0.0
 12
614.427731
 22
295.608777
 32
0.0
 13
614.427731
 23
295.608777
 33
0.0
  0
SOLID
  5
E1
100
AcDbEntity
  8
0
  6
BYBLOCK
 62
     4
100
AcDbTrace
 10
613.927731
 20
306.008777
 30
0.0
 11
614.927731
 21
306.008777
 31
0.0
 12
614.427731
 22
309.008777
 32
0.0
 13
614.427731
 23
309.008777
 33
0.0
  0
MTEXT
  5
E2
100
AcDbEntity
  8
0
  6
BYBLOCK
 62
     2
100
AcDbMText
 10
611.427731
 20
302.308777
 30
0.0
 40
3.0
 41
0.0
 71
     5
 72
     1
  1
\A1;13.4
 11
0.0
 21
1.0
 31
0.0
  0
POINT
  5
E3
100
AcDbEntity
  8
DEFPOINTS
  6
BYBLOCK
 62
     0
100
AcDbPoint
 10
626.257613
 20
295.608777
 30
0.0
  0
POINT
  5
E4
100
AcDbEntity
  8
DEFPOINTS
  6
BYBLOCK
 62
     0
100
AcDbPoint
 10
636.032613
 20
309.008777
 30
0.0
  0
POINT
  5
E5
100
AcDbEntity
  8
DEFPOINTS
  6
BYBLOCK
 62
     0
100
AcDbPoint
 10
614.427731
 20
309.008777
 30
0.0
  0
ENDBLK
  5
E7
100
AcDbEntity
  8
0
100
AcDbBlockEnd
  0
BLOCK
  5
D9
100
AcDbEntity
  8
0
100
AcDbBlockBegin
  2
*D7
 70
     1
 10
0.0
 20
0.0
 30
0.0
  3
*D7
  1

  0
LINE
  5
D0
100
AcDbEntity
  8
0
  6
BYBLOCK
 62
     4
100
AcDbLine
 10
680.482613
 20
315.008777
 30
0.0
 11
680.482613
 21
333.710438
 31
0.0
  0
LINE
  5
D1
100
AcDbEntity
  8
0
  6
BYBLOCK
 62
     4
100
AcDbLine
 10
636.032613
 20
315.008777
 30
0.0
 11
636.032613
 21
333.710438
 31
0.0
  0
LINE
  5
D2
100
AcDbEntity
  8
0
  6
BYBLOCK
 62
     4
100
AcDbLine
 10
677.482613
 20
331.210438
 30
0.0
 11
639.032613
 21
331.210438
 31
0.0
  0
SOLID
  5
D3
100
AcDbEntity
  8
0
  6
BYBLOCK
 62
     4
100
AcDbTrace
 10
677.482613
 20
331.710438
 30
0.0
 11
677.482613
 21
330.710438
 31
0.0
 12
680.482613
 22
331.210438
 32
0.0
 13
680.482613
 23
331.210438
 33
0.0
  0
SOLID
  5
D4
100
AcDbEntity
  8
0
  6
BYBLOCK
 62
     4
100
AcDbTrace
 10
639.032613
 20
331.710438
 30
0.0
 11
639.032613
 21
330.710438
 31
0.0
 12
636.032613
 22
331.210438
 32
0.0
 13
636.032613
 23
331.210438
 33
0.0
  0
MTEXT
  5
D5
100
AcDbEntity
  8
0
  6
BYBLOCK
 62
     2
100
AcDbMText
 10
659.222824
 20
334.210438
 30
0.0
 40
3.0
 41
0.0
 71
     5
 72
     1
  1
\A1;\U+220544.45 H7
  0
POINT
  5
D6
100
AcDbEntity
  8
DEFPOINTS
  6
BYBLOCK
 62
     0
100
AcDbPoint
 10
680.482613
 20
314.008777
 30
0.0
  0
POINT
  5
D7
100
AcDbEntity
  8
DEFPOINTS
  6
BYBLOCK
 62
     0
100
AcDbPoint
 10
636.032613
 20
314.008777
 30
0.0
  0
POINT
  5
D8
100
AcDbEntity
  8
DEFPOINTS
  6
BYBLOCK
 62
     0
100
AcDbPoint
 10
636.032613
 20
331.210438
 30
0.0
  0
ENDBLK
  5
DA
100
AcDbEntity
  8
0
100
AcDbBlockEnd
  0
BLOCK
  5
CC
100
AcDbEntity
  8
0
100
AcDbBlockBegin
  2
*D8
 70
     1
 10
0.0
 20
0.0
 30
0.0
  3
*D8
  1

  0
LINE
  5
C3
100
AcDbEntity
  8
0
  6
BYBLOCK
 62
     4
100
AcDbLine
 10
635.032613
 20
309.431427
 30
0.0
 11
635.032613
 21
343.75167
 31
0.0
  0
LINE
  5
C4
100
AcDbEntity
  8
0
  6
BYBLOCK
 62
     4
100
AcDbLine
 10
681.482613
 20
309.431427
 30
0.0
 11
681.482613
 21
343.75167
 31
0.0
  0
LINE
  5
C5
100
AcDbEntity
  8
0
  6
BYBLOCK
 62
     4
100
AcDbLine
 10
638.032613
 20
341.25167
 30
0.0
 11
678.482613
 21
341.25167
 31
0.0
  0
SOLID
  5
C6
100
AcDbEntity
  8
0
  6
BYBLOCK
 62
     4
100
AcDbTrace
 10
638.032613
 20
341.75167
 30
0.0
 11
638.032613
 21
340.75167
 31
0.0
 12
635.032613
 22
341.25167
 32
0.0
 13
635.032613
 23
341.25167
 33
0.0
  0
SOLID
  5
C7
100
AcDbEntity
  8
0
  6
BYBLOCK
 62
     4
100
AcDbTrace
 10
678.482613
 20
341.75167
 30
0.0
 11
678.482613
 21
340.75167
 31
0.0
 12
681.482613
 22
341.25167
 32
0.0
 13
681.482613
 23
341.25167
 33
0.0
  0
MTEXT
  5
C8
100
AcDbEntity
  8
0
  6
BYBLOCK
 62
     2
100
AcDbMText
 10
659.563065
 20
344.25167
 30
0.0
 40
3.0
 41
0.0
 71
     5
 72
     1
  1
\A1;\U+220546.5
  0
POINT
  5
C9
100
AcDbEntity
  8
DEFPOINTS
  6
BYBLOCK
 62
     0
100
AcDbPoint
 10
635.032613
 20
308.431427
 30
0.0
  0
POINT
  5
CA
100
AcDbEntity
  8
DEFPOINTS
  6
BYBLOCK
 62
     0
100
AcDbPoint
 10
681.482613
 20
308.431427
 30
0.0
  0
POINT
  5
CB
100
AcDbEntity
  8
DEFPOINTS
  6
BYBLOCK
 62
     0
100
AcDbPoint
 10
681.482613
 20
341.25167
 30
0.0
  0
ENDBLK
  5
CD
100
AcDbEntity
  8
0
100
AcDbBlockEnd
  0
BLOCK
  5
BF
100
AcDbEntity
  8
0
100
AcDbBlockBegin
  2
*D9
 70
     1
 10
0.0
 20
0.0
 30
0.0
  3
*D9
  1

  0
LINE
  5
B6
100
AcDbEntity
  8
0
  6
BYBLOCK
 62
     4
100
AcDbLine
 10
682.482613
 20
288.608777
 30
0.0
 11
709.496071
 21
288.608777
 31
0.0
  0
LINE
  5
B7
100
AcDbEntity
  8
0
  6
BYBLOCK
 62
     4
100
AcDbLine
 10
681.482613
 20
314.008777
 30
0.0
 11
709.496071
 21
314.008777
 31
0.0
  0
LINE
  5
B8
100
AcDbEntity
  8
0
  6
BYBLOCK
 62
     4
100
AcDbLine
 10
706.996071
 20
291.608777
 30
0.0
 11
706.996071
 21
311.008777
 31
0.0
  0
SOLID
  5
B9
100
AcDbEntity
  8
0
  6
BYBLOCK
 62
     4
100
AcDbTrace
 10
706.496071
 20
291.608777
 30
0.0
 11
707.496071
 21
291.608777
 31
0.0
 12
706.996071
 22
288.608777
 32
0.0
 13
706.996071
 23
288.608777
 33
0.0
  0
SOLID
  5
BA
100
AcDbEntity
  8
0
  6
BYBLOCK
 62
     4
100
AcDbTrace
 10
706.496071
 20
311.008777
 30
0.0
 11
707.496071
 21
311.008777
 31
0.0
 12
706.996071
 22
314.008777
 32
0.0
 13
706.996071
 23
314.008777
 33
0.0
  0
MTEXT
  5
BB
100
AcDbEntity
  8
0
  6
BYBLOCK
 62
     2
100
AcDbMText
 10
703.996071
 20
303.310193
 30
0.0
 40
3.0
 41
0.0
 71
     5
 72
     1
  1
\A1;25.40
 11
0.0
 21
1.0
 31
0.0
  0
POINT
  5
BC
100
AcDbEntity
  8
DEFPOINTS
  6
BYBLOCK
 62
     0
100
AcDbPoint
 10
681.482613
 20
288.608777
 30
0.0
  0
POINT
  5
BD
100
AcDbEntity
  8
DEFPOINTS
  6
BYBLOCK
 62
     0
100
AcDbPoint
 10
680.482613
 20
314.008777
 30
0.0
  0
POINT
  5
BE
100
AcDbEntity
  8
DEFPOINTS
  6
BYBLOCK
 62
     0
100
AcDbPoint
 10
706.996071
 20
314.008777
 30
0.0
  0
ENDBLK
  5
C0
100
AcDbEntity
  8
0
100
AcDbBlockEnd
  0
BLOCK
  5
8F
100
AcDbEntity
  8
0
100
AcDbBlockBegin
  2
*D10
 70
     1
 10
0.0
 20
0.0
 30
0.0
  3
*D10
  1

  0
LINE
  5
86
100
AcDbEntity
  8
0
  6
BYBLOCK
 62
     4
100
AcDbLine
 10
430.557613
 20
444.160844
 30
0.0
 11
277.530884
 21
444.160844
 31
0.0
  0
LINE
  5
87
100
AcDbEntity
  8
0
  6
BYBLOCK
 62
     4
100
AcDbLine
 10
430.557613
 20
644.160844
 30
0.0
 11
277.530884
 21
644.160844
 31
0.0
  0
LINE
  5
88
100
AcDbEntity
  8
0
  6
BYBLOCK
 62
     4
100
AcDbLine
 10
280.030884
 20
447.160844
 30
0.0
 11
280.030884
 21
641.160844
 31
0.0
  0
SOLID
  5
89
100
AcDbEntity
  8
0
  6
BYBLOCK
 62
     4
100
AcDbTrace
 10
279.530884
 20
447.160844
 30
0.0
 11
280.530884
 21
447.160844
 31
0.0
 12
280.030884
 22
444.160844
 32
0.0
 13
280.030884
 23
444.160844
 33
0.0
  0
SOLID
  5
8A
100
AcDbEntity
  8
0
  6
BYBLOCK
 62
     4
100
AcDbTrace
 10
279.530884
 20
641.160844
 30
0.0
 11
280.530884
 21
641.160844
 31
0.0
 12
280.030884
 22
644.160844
 32
0.0
 13
280.030884
 23
644.160844
 33
0.0
  0
MTEXT
  5
8B
100
AcDbEntity
  8
0
  6
BYBLOCK
 62
     2
100
AcDbMText
 10
277.030884
 20
544.160844
 30
0.0
 40
3.0
 41
0.0
 71
     5
 72
     1
  1
\A1;B=200.00
 11
0.0
 21
1.0
 31
0.0
  0
POINT
  5
8C
100
AcDbEntity
  8
DEFPOINTS
  6
BYBLOCK
 62
     0
100
AcDbPoint
 10
431.557613
 20
444.160844
 30
0.0
  0
POINT
  5
8D
100
AcDbEntity
  8
DEFPOINTS
  6
BYBLOCK
 62
     0
100
AcDbPoint
 10
431.557613
 20
644.160844
 30
0.0
  0
POINT
  5
8E
100
AcDbEntity
  8
DEFPOINTS
  6
BYBLOCK
 62
     0
100
AcDbPoint
 10
280.030884
 20
644.160844
 30
0.0
  0
ENDBLK
  5
90
100
AcDbEntity
  8
0
100
AcDbBlockEnd
  0
BLOCK
  5
82
100
AcDbEntity
  8
0
100
AcDbBlockBegin
  2
*D11
 70
     1
 10
0.0
 20
0.0
 30
0.0
  3
*D11
  1

  0
LINE
  5
79
100
AcDbEntity
  8
0
  6
BYBLOCK
 62
     4
100
AcDbLine
 10
448.000391
 20
408.160844
 30
0.0
 11
267.816858
 21
408.160844
 31
0.0
  0
LINE
  5
7A
100
AcDbEntity
  8
0
  6
BYBLOCK
 62
     4
100
AcDbLine
 10
448.000391
 20
680.160844
 30
0.0
 11
267.816858
 21
680.160844
 31
0.0
  0
LINE
  5
7B
100
AcDbEntity
  8
0
  6
BYBLOCK
 62
     4
100
AcDbLine
 10
270.316858
 20
411.160844
 30
0.0
 11
270.316858
 21
677.160844
 31
0.0
  0
SOLID
  5
7C
100
AcDbEntity
  8
0
  6
BYBLOCK
 62
     4
100
AcDbTrace
 10
269.816858
 20
411.160844
 30
0.0
 11
270.816858
 21
411.160844
 31
0.0
 12
270.316858
 22
408.160844
 32
0.0
 13
270.316858
 23
408.160844
 33
0.0
  0
SOLID
  5
7D
100
AcDbEntity
  8
0
  6
BYBLOCK
 62
     4
100
AcDbTrace
 10
269.816858
 20
677.160844
 30
0.0
 11
270.816858
 21
677.160844
 31
0.0
 12
270.316858
 22
680.160844
 32
0.0
 13
270.316858
 23
680.160844
 33
0.0
  0
MTEXT
  5
7E
100
AcDbEntity
  8
0
  6
BYBLOCK
 62
     2
100
AcDbMText
 10
267.316858
 20
544.160844
 30
0.0
 40
3.0
 41
0.0
 71
     5
 72
     1
  1
\A1;L1=272.00
 11
0.0
 21
1.0
 31
0.0
  0
POINT
  5
7F
100
AcDbEntity
  8
DEFPOINTS
  6
BYBLOCK
 62
     0
100
AcDbPoint
 10
449.000391
 20
408.160844
 30
0.0
  0
POINT
  5
80
100
AcDbEntity
  8
DEFPOINTS
  6
BYBLOCK
 62
     0
100
AcDbPoint
 10
449.000391
 20
680.160844
 30
0.0
  0
POINT
  5
81
100
AcDbEntity
  8
DEFPOINTS
  6
BYBLOCK
 62
     0
100
AcDbPoint
 10
270.316858
 20
680.160844
 30
0.0
  0
ENDBLK
  5
83
100
AcDbEntity
  8
0
100
AcDbBlockEnd
  0
BLOCK
  5
75
100
AcDbEntity
  8
0
100
AcDbBlockBegin
  2
*D12
 70
     1
 10
0.0
 20
0.0
 30
0.0
  3
*D12
  1

  0
LINE
  5
6C
100
AcDbEntity
  8
0
  6
BYBLOCK
 62
     4
100
AcDbLine
 10
458.257613
 20
671.860844
 30
0.0
 11
458.257613
 21
737.675991
 31
0.0
  0
LINE
  5
6D
100
AcDbEntity
  8
0
  6
BYBLOCK
 62
     4
100
AcDbLine
 10
658.257613
 20
713.19383
 30
0.0
 11
658.257613
 21
737.675991
 31
0.0
  0
LINE
  5
6E
100
AcDbEntity
  8
0
  6
BYBLOCK
 62
     4
100
AcDbLine
 10
461.257613
 20
735.175991
 30
0.0
 11
655.257613
 21
735.175991
 31
0.0
  0
SOLID
  5
6F
100
AcDbEntity
  8
0
  6
BYBLOCK
 62
     4
100
AcDbTrace
 10
461.257613
 20
735.675991
 30
0.0
 11
461.257613
 21
734.675991
 31
0.0
 12
458.257613
 22
735.175991
 32
0.0
 13
458.257613
 23
735.175991
 33
0.0
  0
SOLID
  5
70
100
AcDbEntity
  8
0
  6
BYBLOCK
 62
     4
100
AcDbTrace
 10
655.257613
 20
735.675991
 30
0.0
 11
655.257613
 21
734.675991
 31
0.0
 12
658.257613
 22
735.175991
 32
0.0
 13
658.257613
 23
735.175991
 33
0.0
  0
MTEXT
  5
71
100
AcDbEntity
  8
0
  6
BYBLOCK
 62
     2
100
AcDbMText
 10
558.257613
 20
738.175991
 30
0.0
 40
3.0
 41
0.0
 71
     5
 72
     1
  1
\A1;A=200.00
  0
POINT
  5
72
100
AcDbEntity
  8
DEFPOINTS
  6
BYBLOCK
 62
     0
100
AcDbPoint
 10
458.257613
 20
670.860844
 30
0.0
  0
POINT
  5
73
100
AcDbEntity
  8
DEFPOINTS
  6
BYBLOCK
 62
     0
100
AcDbPoint
 10
658.257613
 20
712.19383
 30
0.0
  0
POINT
  5
74
100
AcDbEntity
  8
DEFPOINTS
  6
BYBLOCK
 62
     0
100
AcDbPoint
 10
658.257613
 20
735.175991
 30
0.0
  0
ENDBLK
  5
76
100
AcDbEntity
  8
0
100
AcDbBlockEnd
  0
BLOCK
  5
68
100
AcDbEntity
  8
0
100
AcDbBlockBegin
  2
*D13
 70
     1
 10
0.0
 20
0.0
 30
0.0
  3
*D13
  1

  0
LINE
  5
60
100
AcDbEntity
  8
0
  6
BYBLOCK
 62
     4
100
AcDbLine
 10
858.257613
 20
671.860844
 30
0.0
 11
858.257613
 21
737.675991
 31
0.0
  0
LINE
  5
61
100
AcDbEntity
  8
0
  6
BYBLOCK
 62
     4
100
AcDbLine
 10
661.257613
 20
735.175991
 30
0.0
 11
855.257613
 21
735.175991
 31
0.0
  0
SOLID
  5
62
100
AcDbEntity
  8
0
  6
BYBLOCK
 62
     4
100
AcDbTrace
 10
661.257613
 20
735.675991
 30
0.0
 11
661.257613
 21
734.675991
 31
0.0
 12
658.257613
 22
735.175991
 32
0.0
 13
658.257613
 23
735.175991
 33
0.0
  0
SOLID
  5
63
100
AcDbEntity
  8
0
  6
BYBLOCK
 62
     4
100
AcDbTrace
 10
855.257613
 20
735.675991
 30
0.0
 11
855.257613
 21
734.675991
 31
0.0
 12
858.257613
 22
735.175991
 32
0.0
 13
858.257613
 23
735.175991
 33
0.0
  0
MTEXT
  5
64
100
AcDbEntity
  8
0
  6
BYBLOCK
 62
     2
100
AcDbMText
 10
758.257613
 20
738.175991
 30
0.0
 40
3.0
 41
0.0
 71
     5
 72
     1
  1
\A1;A=200.00
  0
POINT
  5
65
100
AcDbEntity
  8
DEFPOINTS
  6
BYBLOCK
 62
     0
100
AcDbPoint
 10
658.257613
 20
712.19383
 30
0.0
  0
POINT
  5
66
100
AcDbEntity
  8
DEFPOINTS
  6
BYBLOCK
 62
     0
100
AcDbPoint
 10
858.257613
 20
670.860844
 30
0.0
  0
POINT
  5
67
100
AcDbEntity
  8
DEFPOINTS
  6
BYBLOCK
 62
     0
100
AcDbPoint
 10
858.257613
 20
735.175991
 30
0.0
  0
ENDBLK
  5
69
100
AcDbEntity
  8
0
100
AcDbBlockEnd
  0
BLOCK
  5
5C
100
AcDbEntity
  8
0
100
AcDbBlockBegin
  2
*D14
 70
     1
 10
0.0
 20
0.0
 30
0.0
  3
*D14
  1

  0
LINE
  5
53
100
AcDbEntity
  8
0
  6
BYBLOCK
 62
     4
100
AcDbLine
 10
422.257613
 20
654.418065
 30
0.0
 11
422.257613
 21
747.5626
 31
0.0
  0
LINE
  5
54
100
AcDbEntity
  8
0
  6
BYBLOCK
 62
     4
100
AcDbLine
 10
894.257613
 20
654.418065
 30
0.0
 11
894.257613
 21
747.5626
 31
0.0
  0
LINE
  5
55
100
AcDbEntity
  8
0
  6
BYBLOCK
 62
     4
100
AcDbLine
 10
425.257613
 20
745.0626
 30
0.0
 11
891.257613
 21
745.0626
 31
0.0
  0
SOLID
  5
56
100
AcDbEntity
  8
0
  6
BYBLOCK
 62
     4
100
AcDbTrace
 10
425.257613
 20
745.5626
 30
0.0
 11
425.257613
 21
744.5626
 31
0.0
 12
422.257613
 22
745.0626
 32
0.0
 13
422.257613
 23
745.0626
 33
0.0
  0
SOLID
  5
57
100
AcDbEntity
  8
0
  6
BYBLOCK
 62
     4
100
AcDbTrace
 10
891.257613
 20
745.5626
 30
0.0
 11
891.257613
 21
744.5626
 31
0.0
 12
894.257613
 22
745.0626
 32
0.0
 13
894.257613
 23
745.0626
 33
0.0
  0
MTEXT
  5
58
100
AcDbEntity
  8
0
  6
BYBLOCK
 62
     2
100
AcDbMText
 10
658.257613
 20
748.0626
 30
0.0
 40
3.0
 41
0.0
 71
     5
 72
     1
  1
\A1;L=472.00
  0
POINT
  5
59
100
AcDbEntity
  8
DEFPOINTS
  6
BYBLOCK
 62
     0
100
AcDbPoint
 10
422.257613
 20
653.418065
 30
0.0
  0
POINT
  5
5A
100
AcDbEntity
  8
DEFPOINTS
  6
BYBLOCK
 62
     0
100
AcDbPoint
 10
894.257613
 20
653.418065
 30
0.0
  0
POINT
  5
5B
100
AcDbEntity
  8
DEFPOINTS
  6
BYBLOCK
 62
     0
100
AcDbPoint
 10
894.257613
 20
745.0626
 30
0.0
  0
ENDBLK
  5
5D
100
AcDbEntity
  8
0
100
AcDbBlockEnd
  0
BLOCK
  5
4F
100
AcDbEntity
  8
0
100
AcDbBlockBegin
  2
*D15
 70
     1
 10
0.0
 20
0.0
 30
0.0
  3
*D15
  1

  0
LINE
  5
45
100
AcDbEntity
  8
0
  6
BYBLOCK
 62
     4
100
AcDbLine
 10
849.709885
 20
407.453737
 30
0.0
 11
885.043489
 21
372.120133
 31
0.0
  0
LINE
  5
46
100
AcDbEntity
  8
0
  6
BYBLOCK
 62
     4
100
AcDbLine
 10
894.964719
 20
452.708571
 30
0.0
 11
930.298323
 21
417.374967
 31
0.0
  0
LINE
  5
47
100
AcDbEntity
  8
0
  6
BYBLOCK
 62
     4
100
AcDbLine
 10
885.397043
 20
376.00922
 30
0.0
 11
926.409236
 21
417.021414
 31
0.0
  0
SOLID
  5
48
100
AcDbEntity
  8
0
  6
BYBLOCK
 62
     4
100
AcDbTrace
 10
885.043489
 20
376.362774
 30
0.0
 11
885.750596
 21
375.655667
 31
0.0
 12
883.275722
 22
373.8879
 32
0.0
 13
883.275722
 23
373.8879
 33
0.0
  0
SOLID
  5
49
100
AcDbEntity
  8
0
  6
BYBLOCK
 62
     4
100
AcDbTrace
 10
926.055683
 20
417.374967
 30
0.0
 11
926.762789
 21
416.66786
 31
0.0
 12
928.530556
 22
419.142734
 32
0.0
 13
928.530556
 23
419.142734
 33
0.0
  0
MTEXT
  5
4A
100
AcDbEntity
  8
0
  6
BYBLOCK
 62
     2
100
AcDbMText
 10
903.781819
 20
398.636637
 30
0.0
 40
3.0
 41
0.0
 71
     5
 72
     1
  1
\A1;W=64.00
 11
0.707107
 21
0.707107
 31
0.0
  0
POINT
  5
4B
100
AcDbEntity
  8
DEFPOINTS
  6
BYBLOCK
 62
     0
100
AcDbPoint
 10
849.002779
 20
408.160844
 30
0.0
  0
POINT
  5
4D
100
AcDbEntity
  8
DEFPOINTS
  6
BYBLOCK
 62
     0
100
AcDbPoint
 10
894.257613
 20
453.415678
 30
0.0
  0
POINT
  5
4E
100
AcDbEntity
  8
DEFPOINTS
  6
BYBLOCK
 62
     0
100
AcDbPoint
 10
928.530556
 20
419.142734
 30
0.0
  0
ENDBLK
  5
50
100
AcDbEntity
  8
0
100
AcDbBlockEnd
  0
ENDSEC
  0
SECTION
  2
ENTITIES
  0
TEXT
  5
20
100
AcDbEntity
  8
TEXT
100
AcDbText
 10
959.161599
 20
689.01709
 30
0.0
 40
6.0
  1
depending on the bush size to be used.
100
AcDbText
  0
TEXT
  5
22
100
AcDbEntity
  8
TEXT
100
AcDbText
 10
926.495643
 20
699.113498
 30
0.0
 40
6.0
  1
NOTE: Manifold width `W' can be 50mm or 64mm
100
AcDbText
  0
ARC
  5
23
100
AcDbEntity
  8
M04
100
AcDbCircle
 10
458.256419
 20
410.218525
 30
0.0
 40
15.0
100
AcDbArc
 50
225.0
 51
315.0
  0
ARC
  5
25
100
AcDbEntity
  8
M04
100
AcDbCircle
 10
424.315293
 20
444.15965
 30
0.0
 40
15.0
100
AcDbArc
 50
135.0
 51
225.0
  0
ARC
  5
26
100
AcDbEntity
  8
M04
100
AcDbCircle
 10
424.315293
 20
644.162038
 30
0.0
 40
15.0
100
AcDbArc
 50
135.0
 51
225.0
  0
ARC
  5
27
100
AcDbEntity
  8
M04
100
AcDbCircle
 10
458.256419
 20
678.103163
 30
0.0
 40
15.0
100
AcDbArc
 50
45.0
 51
135.0
  0
ARC
  5
28
100
AcDbEntity
  8
M04
100
AcDbCircle
 10
624.315293
 20
644.162038
 30
0.0
 40
15.0
100
AcDbArc
 50
135.0
 51
225.0
  0
ARC
  5
29
100
AcDbEntity
  8
M04
100
AcDbCircle
 10
658.256419
 20
678.103163
 30
0.0
 40
15.0
100
AcDbArc
 50
45.0
 51
135.0
  0
ARC
  5
2A
100
AcDbEntity
  8
M04
100
AcDbCircle
 10
858.258807
 20
678.103163
 30
0.0
 40
15.0
100
AcDbArc
 50
45.0
 51
135.0
  0
ARC
  5
2B
100
AcDbEntity
  8
M04
100
AcDbCircle
 10
892.199932
 20
644.162038
 30
0.0
 40
15.0
100
AcDbArc
 50
315.0
 51
45.0
  0
ARC
  5
2C
100
AcDbEntity
  8
M04
100
AcDbCircle
 10
892.199932
 20
444.15965
 30
0.0
 40
15.0
100
AcDbArc
 50
315.0
 51
45.0
  0
ARC
  5
2D
100
AcDbEntity
  8
M04
100
AcDbCircle
 10
858.258806
 20
410.218525
 30
0.0
 40
15.0
100
AcDbArc
 50
225.0
 51
315.0
  0
ARC
  5
2E
100
AcDbEntity
  8
M04
100
AcDbCircle
 10
692.199932
 20
444.15965
 30
0.0
 40
15.0
100
AcDbArc
 50
315.0
 51
45.0
  0
ARC
  5
2F
100
AcDbEntity
  8
M04
100
AcDbCircle
 10
658.258807
 20
410.218525
 30
0.0
 40
15.0
100
AcDbArc
 50
225.0
 51
315.0
  0
LINE
  5
30
100
AcDbEntity
  8
M04
100
AcDbLine
 10
902.806534
 20
433.553048
 30
0.0
 11
868.865408
 21
399.611923
 31
0.0
  0
LINE
  5
31
100
AcDbEntity
  8
M01
100
AcDbLine
 10
894.257613
 20
434.903622
 30
0.0
 11
867.514834
 21
408.160844
 31
0.0
  0
LINE
  5
33
100
AcDbEntity
  8
M01
100
AcDbLine
 10
694.257613
 20
434.903622
 30
0.0
 11
667.514834
 21
408.160844
 31
0.0
  0
LINE
  5
34
100
AcDbEntity
  8
M04
100
AcDbLine
 10
702.806534
 20
433.553048
 30
0.0
 11
668.865408
 21
399.611923
 31
0.0
  0
LINE
  5
35
100
AcDbEntity
  8
M01
100
AcDbLine
 10
422.257613
 20
434.903622
 30
0.0
 11
449.000391
 21
408.160844
 31
0.0
  0
LINE
  5
36
100
AcDbEntity
  8
M04
100
AcDbLine
 10
413.708692
 20
433.553048
 30
0.0
 11
447.649817
 21
399.611923
 31
0.0
  0
LINE
  5
37
100
AcDbEntity
  8
M01
100
AcDbLine
 10
422.257613
 20
653.418065
 30
0.0
 11
449.000391
 21
680.160844
 31
0.0
  0
LINE
  5
38
100
AcDbEntity
  8
M04
100
AcDbLine
 10
413.708692
 20
654.768639
 30
0.0
 11
447.649817
 21
688.709765
 31
0.0
  0
LINE
  5
39
100
AcDbEntity
  8
M01
100
AcDbLine
 10
622.257613
 20
653.418065
 30
0.0
 11
649.000391
 21
680.160844
 31
0.0
  0
LINE
  5
3A
100
AcDbEntity
  8
M04
100
AcDbLine
 10
613.708692
 20
654.76864
 30
0.0
 11
647.649817
 21
688.709765
 31
0.0
  0
LINE
  5
3B
100
AcDbEntity
  8
M04
100
AcDbLine
 10
902.806534
 20
654.76864
 30
0.0
 11
868.865408
 21
688.709765
 31
0.0
  0
LINE
  5
3C
100
AcDbEntity
  8
M01
100
AcDbLine
 10
894.257613
 20
653.418065
 30
0.0
 11
867.514834
 21
680.160844
 31
0.0
  0
TEXT
  5
3D
100
AcDbEntity
  8
TEXT
100
AcDbText
 10
281.880158
 20
142.416998
 30
0.0
 40
6.0
  1
design may vary from this example !
100
AcDbText
  0
TEXT
  5
3E
100
AcDbEntity
  8
TEXT
100
AcDbText
 10
281.880158
 20
152.50996
 30
0.0
 40
6.0
  1
you finalize your tool design, as our final system
100
AcDbText
  0
TEXT
  5
3F
100
AcDbEntity
  8
TEXT
100
AcDbText
 10
258.592932
 20
163.556441
 30
0.0
 40
6.0
  1
N.B. ALL designs MUST be approved by Fast Heat BEFORE
100
AcDbText
  0
LINE
  5
40
100
AcDbEntity
  8
DIMS
 62
     4
100
AcDbLine
 10
758.257613
 20
547.560844
 30
0.0
 11
758.257613
 21
549.860844
 31
0.0
  0
LINE
  5
41
100
AcDbEntity
  8
DIMS
 62
     4
100
AcDbLine
 10
758.257613
 20
540.760844
 30
0.0
 11
758.257613
 21
538.460844
 31
0.0
  0
LINE
  5
42
100
AcDbEntity
  8
DIMS
 62
     4
100
AcDbLine
 10
758.257613
 20
542.460844
 30
0.0
 11
758.257613
 21
545.860844
 31
0.0
  0
DIMENSION
  5
43
100
AcDbEntity
  8
DIMS
100
AcDbDimension
  2
*D15
 10
928.530556
 20
419.142734
 30
0.0
 11
903.781819
 21
398.636637
 31
0.0
 70
     1
  1
W=<>
  3
DIM1
100
AcDbAlignedDimension
 13
849.002779
 23
408.160844
 33
0.0
 14
894.257613
 24
453.415678
 34
0.0
1001
ACAD
1000
DSTYLE
1002
{
1070
   144
1040
1.0
1002
}
  0
DIMENSION
  5
51
100
AcDbEntity
  8
DIMS
100
AcDbDimension
  2
*D14
 10
894.257613
 20
745.0626
 30
0.0
 11
658.257613
 21
748.0626
 31
0.0
  1
L=<>
  3
DIM1
100
AcDbAlignedDimension
 13
422.257613
 23
653.418065
 33
0.0
 14
894.257613
 24
653.418065
 34
0.0
100
AcDbRotatedDimension
1001
ACAD
1000
DSTYLE
1002
{
1070
   144
1040
1.0
1002
}
  0
DIMENSION
  5
5E
100
AcDbEntity
  8
DIMS
100
AcDbDimension
  2
*D13
 10
858.257613
 20
735.175991
 30
0.0
 11
758.257613
 21
738.175991
 31
0.0
  1
A=<>
  3
DIM1
100
AcDbAlignedDimension
 13
658.257613
 23
712.19383
 33
0.0
 14
858.257613
 24
670.860844
 34
0.0
100
AcDbRotatedDimension
1001
ACAD
1000
DSTYLE
1002
{
1070
    75
1070
     1
1070
   144
1040
1.0
1070
   287
1070
     4
1002
}
  0
DIMENSION
  5
6A
100
AcDbEntity
  8
DIMS
100
AcDbDimension
  2
*D12
 10
658.257613
 20
735.175991
 30
0.0
 11
558.257613
 21
738.175991
 31
0.0
  1
A=<>
  3
DIM1
100
AcDbAlignedDimension
 13
458.257613
 23
670.860844
 33
0.0
 14
658.257613
 24
712.19383
 34
0.0
100
AcDbRotatedDimension
1001
ACAD
1000
DSTYLE
1002
{
1070
   144
1040
1.0
1002
}
  0
DIMENSION
  5
77
100
AcDbEntity
  8
DIMS
100
AcDbDimension
  2
*D11
 10
270.316858
 20
680.160844
 30
0.0
 11
267.316858
 21
544.160844
 31
0.0
  1
L1=<>
  3
DIM1
100
AcDbAlignedDimension
 13
449.000391
 23
408.160844
 33
0.0
 14
449.000391
 24
680.160844
 34
0.0
 50
90.0
100
AcDbRotatedDimension
1001
ACAD
1000
DSTYLE
1002
{
1070
   144
1040
1.0
1002
}
  0
DIMENSION
  5
84
100
AcDbEntity
  8
DIMS
100
AcDbDimension
  2
*D10
 10
280.030884
 20
644.160844
 30
0.0
 11
277.030884
 21
544.160844
 31
0.0
  1
B=<>
  3
DIM1
100
AcDbAlignedDimension
 13
431.557613
 23
444.160844
 33
0.0
 14
431.557613
 24
644.160844
 34
0.0
 50
90.0
100
AcDbRotatedDimension
1001
ACAD
1000
DSTYLE
1002
{
1070
   144
1040
1.0
1002
}
  0
HATCH
  5
91
100
AcDbEntity
  8
HATCH
100
AcDbHatch
 10
0.0
 20
0.0
 30
0.0
210
0.0
220
0.0
230
1.0
  2
_U
 70
     0
 71
     1
 91
        1
 92
        7
 72
     0
 73
     1
 93
        4
 10
623.2576125642797
 20
228.6087771884047
 10
421.2576125642797
 20
228.608777188405
 10
421.2576125642798
 20
225.6087771884049
 10
623.25761256428
 20
225.6087771884049
 97
        4
330
4BC
330
4B4
330
4B6
330
2F6
 75
     0
 76
     0
 52
135.0
 41
0.8
 77
     0
 78
     1
 53
135.0
 43
0.0
 44
0.0
 45
-0.5656854249492382
 46
-0.565685424949238
 79
     0
 47
0.224197
 98
        1
 10
476.805792
 20
227.34022
  0
HATCH
  5
93
100
AcDbEntity
  8
HATCH
100
AcDbHatch
 10
0.0
 20
0.0
 30
0.0
210
0.0
220
0.0
230
1.0
  2
_U
 70
     0
 71
     1
 91
        1
 92
        7
 72
     0
 73
     1
 93
        4
 10
888.2576125642799
 20
225.6087771884052
 10
888.2576125642799
 20
228.6087771884046
 10
883.25761256428
 20
228.6087771884046
 10
883.25761256428
 20
225.6087771884052
 97
        4
330
2BD
330
361
330
2B8
330
2BB
 75
     0
 76
     0
 52
135.0
 41
0.8
 77
     0
 78
     1
 53
135.0
 43
0.0
 44
0.0
 45
-0.5656854249492382
 46
-0.565685424949238
 79
     0
 47
0.198508
 98
        1
 10
886.314839
 20
226.598054
  0
HATCH
  5
94
100
AcDbEntity
  8
HATCH
100
AcDbHatch
 10
0.0
 20
0.0
 30
0.0
210
0.0
220
0.0
230
1.0
  2
_U
 70
     0
 71
     1
 91
        1
 92
        7
 72
     0
 73
     1
 93
        4
 10
833.2576125642798
 20
225.6087771884051
 10
833.2576125642798
 20
228.6087771884046
 10
693.2576125642802
 20
228.6087771884047
 10
693.2576125642802
 20
225.608777188405
 97
        4
330
2BD
330
315
330
2BA
330
362
 75
     0
 76
     0
 52
135.0
 41
0.8
 77
     0
 78
     1
 53
135.0
 43
0.0
 44
0.0
 45
-0.5656854249492382
 46
-0.565685424949238
 79
     0
 47
0.198508
 98
        1
 10
713.346467
 20
226.598054
  0
HATCH
  5
95
100
AcDbEntity
  8
HATCH
100
AcDbHatch
 10
0.0
 20
0.0
 30
0.0
210
0.0
220
0.0
230
1.0
  2
_U
 70
     0
 71
     1
 91
        1
 92
        7
 72
     0
 73
     1
 93
        4
 10
888.2576125642799
 20
288.6087771884044
 10
888.2576125642799
 20
291.6087771884044
 10
876.2576125642798
 20
291.6087771884044
 10
876.25761256428
 20
288.6087771884044
 97
        4
330
322
330
3A0
330
4BF
330
4B5
 75
     0
 76
     0
 52
135.0
 41
0.8
 77
     0
 78
     1
 53
135.0
 43
0.0
 44
0.0
 45
-0.5656854249492382
 46
-0.565685424949238
 79
     0
 47
0.450652
 98
        1
 10
884.194006
 20
290.007534
  0
HATCH
  5
96
100
AcDbEntity
  8
HATCH
100
AcDbHatch
 10
0.0
 20
0.0
 30
0.0
210
0.0
220
0.0
230
1.0
  2
_U
 70
     0
 71
     1
 91
        1
 92
        7
 72
     0
 73
     1
 93
        4
 10
681.4826125642797
 20
291.6087771884047
 10
681.4826125642797
 20
288.6087771884045
 10
840.2576125642799
 20
288.6087771884044
 10
840.25761256428
 20
291.6087771884046
 97
        4
330
322
330
328
330
4BF
330
3A1
 75
     0
 76
     0
 52
135.0
 41
0.8
 77
     0
 78
     1
 53
135.0
 43
0.0
 44
0.0
 45
-0.5656854249492382
 46
-0.565685424949238
 79
     0
 47
0.450652
 98
        1
 10
762.019386
 20
290.458186
  0
HATCH
  5
97
100
AcDbEntity
  8
HATCH
100
AcDbHatch
 10
0.0
 20
0.0
 30
0.0
210
0.0
220
0.0
230
1.0
  2
_U
 70
     0
 71
     0
 91
        1
 92
        7
 72
     0
 73
     1
 93
        4
 10
635.0326125642801
 20
291.6087771884047
 10
431.2576125642797
 20
291.608777188405
 10
431.2576125642797
 20
288.6087771884047
 10
635.03261256428
 20
288.6087771884046
 97
        0
 75
     0
 76
     0
 52
135.0
 41
0.8
 77
     0
 78
     1
 53
135.0
 43
0.0
 44
0.0
 45
-0.5656854249492382
 46
-0.565685424949238
 79
     0
 47
0.450652
 98
        2
 10
451.398312
 20
290.458186
 10
697.550863
 20
291.35949
  0
HATCH
  5
98
100
AcDbEntity
  8
HATCH
100
AcDbHatch
 10
0.0
 20
0.0
 30
0.0
210
0.0
220
0.0
230
1.0
  2
_U
 70
     0
 71
     1
 91
       12
 92
        7
 72
     1
 73
     1
 93
       35
 10
431.2576125642798
 20
288.6087771884047
 42
0.0
 10
431.2576125642797
 20
282.6087771884047
 42
0.0
 10
419.2576125642798
 20
282.6087771884047
 42
0.0
 10
419.2576125642798
 20
230.608777188405
 42
0.0
 10
421.2576125642796
 20
228.6087771884049
 42
0.0
 10
629.2576125642799
 20
228.6087771884048
 42
0.0
 10
629.2576125642799
 20
235.9087771884047
 42
0.0
 10
629.2576125642798
 20
238.4087771884045
 42
0.0
 10
629.95761256428
 20
238.4087771884045
 42
0.0
 10
629.95761256428
 20
239.9087771884045
 42
0.0
 10
632.25761256428
 20
241.2366828075407
 42
0.0
 10
634.5576125642799
 20
239.9087771884045
 42
0.0
 10
634.5576125642799
 20
238.4087771884045
 42
0.0
 10
635.2576125642799
 20
238.4087771884046
 42
0.0
 10
635.2576125642799
 20
235.9087771884048
 42
0.0
 10
635.2576125642799
 20
228.6087771884048
 42
0.0
 10
647.7576125642801
 20
228.6087771884048
 42
0.0
 10
648.25761256428
 20
229.1087771884043
 42
0.0
 10
648.25761256428
 20
237.6087771884046
 42
0.0
 10
648.2576125642801
 20
238.6087771884046
 42
0.0
 10
649.2576125642801
 20
238.6087771884046
 42
0.0
 10
654.2576125642798
 20
238.6087771884046
 42
0.0
 10
654.2576125642799
 20
245.608777188405
 42
0.0
 10
558.2576125642799
 20
245.608777188405
 42
-0.414213562373096
 10
554.2576125642799
 20
249.608777188405
 42
0.0
 10
554.2576125642799
 20
271.6087771884044
 42
-1.0
 10
562.2576125642799
 20
271.6087771884044
 42
0.0
 10
562.2576125642799
 20
253.6087771884049
 42
0.0
 10
658.2576125642799
 20
253.608777188405
 42
0.0
 10
658.2576125642799
 20
283.6087771884045
 42
0.0
 10
649.7576125642799
 20
283.6087771884045
 42
0.0
 10
648.7576125642799
 20
283.6087771884045
 42
0.0
 10
648.7576125642799
 20
284.6087771884045
 42
0.0
 10
648.7576125642799
 20
287.9087771884046
 42
0.0
 10
648.05761256428
 20
288.6087771884046
 42
0.0
 97
       33
330
388
330
38E
330
395
330
4AC
330
32C
330
323
330
324
330
10D
330
E9
330
4BF
330
4B2
330
493
330
4BE
330
4B9
330
4BC
330
2D6
330
2C1
330
2CB
330
2C2
330
2C8
330
2C9
330
2C0
330
2BF
330
2D5
330
30F
330
31F
330
318
330
319
330
31E
330
498
330
394
330
38D
330
38F
 92
        7
 72
     1
 73
     1
 93
       12
 10
754.2576125642798
 20
253.608777188405
 42
0.0
 10
754.25761256428
 20
271.6087771884044
 42
-0.4142135623730905
 10
758.25761256428
 20
275.6087771884044
 42
0.0
 10
854.2576125642801
 20
275.6087771884044
 42
0.0
 10
854.2576125642799
 20
288.6087771884044
 42
0.0
 10
668.45761256428
 20
288.6087771884045
 42
0.0
 10
667.7576125642799
 20
287.9087771884046
 42
0.0
 10
667.7576125642799
 20
284.6087771884045
 42
0.0
 10
667.7576125642799
 20
283.6087771884045
 42
0.0
 10
666.7576125642799
 20
283.6087771884045
 42
0.0
 10
658.2576125642799
 20
283.6087771884045
 42
0.0
 10
658.25761256428
 20
253.608777188405
 42
0.0
 97
       12
330
396
330
39F
330
39E
330
4BF
330
EA
330
10E
330
326
330
325
330
32C
330
4AC
330
395
330
398
 92
        7
 72
     1
 73
     1
 93
       39
 10
758.2576125642799
 20
245.608777188405
 42
0.0
 10
662.2576125642799
 20
245.608777188405
 42
0.0
 10
662.2576125642799
 20
238.6087771884045
 42
0.0
 10
667.2576125642799
 20
238.6087771884045
 42
0.0
 10
668.2576125642797
 20
238.6087771884045
 42
0.0
 10
668.2576125642799
 20
237.6087771884045
 42
0.0
 10
668.2576125642799
 20
229.1087771884043
 42
0.0
 10
668.7576125642797
 20
228.6087771884047
 42
0.0
 10
681.2576125642801
 20
228.6087771884047
 42
0.0
 10
681.2576125642799
 20
235.9087771884047
 42
0.0
 10
681.2576125642799
 20
238.4087771884045
 42
0.0
 10
681.9576125642799
 20
238.4087771884045
 42
0.0
 10
681.9576125642799
 20
239.9087771884046
 42
0.0
 10
684.25761256428
 20
241.2366828075407
 42
0.0
 10
686.5576125642799
 20
239.9087771884046
 42
0.0
 10
686.5576125642799
 20
238.4087771884045
 42
0.0
 10
687.25761256428
 20
238.4087771884046
 42
0.0
 10
687.2576125642799
 20
235.9087771884048
 42
0.0
 10
687.2576125642799
 20
228.6087771884047
 42
0.0
 10
834.25761256428
 20
228.6087771884047
 42
0.0
 10
834.2576125642798
 20
228.9087771884046
 42
0.0
 10
834.9576125642801
 20
229.6087771884046
 42
0.0
 10
876.5163457646991
 20
229.6087771884045
 42
0.0
 10
876.5163457646993
 20
232.6087771884052
 42
-1.0
 10
884.5163457646993
 20
232.608777188405
 42
0.0
 10
884.5163457646993
 20
228.6087771884046
 42
0.0
 10
888.2576125642795
 20
228.6087771884047
 42
0.0
 10
890.2576125642799
 20
230.6087771884049
 42
0.0
 10
890.2576125642799
 20
286.6087771884047
 42
0.0
 10
888.2576125642801
 20
288.6087771884044
 42
0.0
 10
884.5163457646993
 20
288.6087771884044
 42
0.0
 10
884.5163457646993
 20
284.6087771884049
 42
-1.0
 10
876.5163457646993
 20
284.608777188405
 42
0.0
 10
876.5163457646993
 20
288.6087771884044
 42
0.0
 10
862.2576125642797
 20
288.6087771884043
 42
0.0
 10
862.2576125642799
 20
271.6087771884043
 42
-0.4142135623730951
 10
858.25761256428
 20
267.6087771884043
 42
0.0
 10
762.2576125642799
 20
267.6087771884043
 42
0.0
 10
762.25761256428
 20
249.608777188405
 42
-0.4142135623731045
 97
       35
330
4BB
330
4BF
330
3E2
330
3E5
330
3E3
330
39D
330
39C
330
39B
330
399
330
392
330
389
330
497
330
31E
330
31B
330
31A
330
320
330
310
330
2BD
330
2EF
330
2D9
330
2E5
330
2DA
330
2E3
330
2E2
330
2DC
330
2DB
330
2F0
330
35E
330
35D
330
363
330
3E1
330
3E4
330
3E0
330
4B8
330
4BD
 92
       22
 72
     0
 73
     1
 93
        4
 10
867.1164945517372
 20
229.6087771884045
 10
866.416494551737
 20
228.9087771884045
 10
876.5163457646993
 20
228.9087771884045
 10
876.5163457646995
 20
229.6087771884046
 97
        4
330
363
330
345
330
357
330
3E1
 92
       23
 72
     0
 73
     1
 93
        4
 10
876.5163457646993
 20
228.6087771884047
 10
876.5163457646993
 20
228.9087771884045
 10
866.416494551737
 20
228.9087771884045
 10
866.116494551737
 20
228.6087771884046
 97
        4
330
357
330
351
330
2BD
330
3E1
 92
       23
 72
     0
 73
     1
 93
        4
 10
858.25761256428
 20
228.9087771884045
 10
858.25761256428
 20
228.6087771884047
 10
866.1164945517372
 20
228.6087771884047
 10
866.4164945517368
 20
228.9087771884045
 97
        4
330
357
330
365
330
2BD
330
351
 92
       23
 72
     0
 73
     1
 93
        4
 10
866.4164945517368
 20
228.9087771884045
 10
867.1164945517372
 20
229.6087771884046
 10
858.2576125642798
 20
229.6087771884046
 10
858.2576125642798
 20
228.9087771884045
 97
        4
330
363
330
365
330
357
330
345
 92
       23
 72
     0
 73
     1
 93
        4
 10
858.25761256428
 20
228.6087771884047
 10
858.25761256428
 20
228.9087771884045
 10
850.098730576823
 20
228.9087771884045
 10
850.3987305768228
 20
228.6087771884047
 97
        4
330
357
330
34F
330
2BD
330
365
 92
       23
 72
     0
 73
     1
 93
        4
 10
858.25761256428
 20
228.9087771884045
 10
858.25761256428
 20
229.6087771884046
 10
849.3987305768229
 20
229.6087771884046
 10
850.0987305768228
 20
228.9087771884045
 97
        4
330
363
330
344
330
357
330
365
 92
       22
 72
     0
 73
     1
 93
        4
 10
834.25761256428
 20
228.9087771884045
 10
834.25761256428
 20
228.6087771884047
 10
850.3987305768228
 20
228.6087771884047
 10
850.098730576823
 20
228.9087771884045
 97
        4
330
357
330
35E
330
2BD
330
34F
 92
       23
 72
     0
 73
     1
 93
        4
 10
850.098730576823
 20
228.9087771884045
 10
849.3987305768225
 20
229.6087771884046
 10
834.9576125642801
 20
229.6087771884045
 10
834.25761256428
 20
228.9087771884045
 97
        4
330
363
330
35D
330
357
330
344
 92
       24
 93
        4
 72
     1
 10
837.746089
 20
245.219158
 11
851.603231
 21
245.219158
 72
     1
 10
851.603231
 20
245.219158
 11
851.603231
 21
248.219158
 72
     1
 10
851.603231
 20
248.219158
 11
837.746089
 21
248.219158
 72
     1
 10
837.746089
 20
248.219158
 11
837.746089
 21
245.219158
 97
        1
330
387
 75
     0
 76
     0
 52
45.0
 41
6.0
 77
     0
 78
     1
 53
45.0
 43
0.0
 44
0.0
 45
-4.242640687119284
 46
4.242640687119285
 79
     0
 47
0.056049
 98
       11
 10
455.906601
 20
271.530808
 10
708.370756
 20
271.080156
 10
768.330992
 20
242.238437
 10
874.003883
 20
229.271477
 10
868.228531
 20
228.654934
 10
864.583893
 20
228.767032
 10
864.527822
 20
229.215428
 10
855.444259
 20
228.710984
 10
855.556403
 20
229.215428
 10
846.697125
 20
228.823082
 10
846.641054
 20
229.159378
  0
ARC
  5
99
100
AcDbEntity
  8
M04
100
AcDbCircle
 10
558.257613
 20
481.935447
 30
0.0
 40
5.0
100
AcDbArc
 50
45.0
 51
135.0
  0
ARC
  5
9A
100
AcDbEntity
  8
M04
100
AcDbCircle
 10
667.483009
 20
497.160844
 30
0.0
 40
5.0
100
AcDbArc
 50
90.0
 51
225.0
  0
ARC
  5
9B
100
AcDbEntity
  8
M04
100
AcDbCircle
 10
743.032216
 20
497.160844
 30
0.0
 40
5.0
100
AcDbArc
 50
45.0
 51
90.0
  0
ARC
  5
9C
100
AcDbEntity
  8
M04
100
AcDbCircle
 10
857.483009
 20
507.160844
 30
0.0
 40
5.0
100
AcDbArc
 50
90.0
 51
225.0
  0
ARC
  5
9D
100
AcDbEntity
  8
M04
100
AcDbCircle
 10
857.483009
 20
581.160844
 30
0.0
 40
5.0
100
AcDbArc
 50
135.0
 51
270.0
  0
ARC
  5
9E
100
AcDbEntity
  8
M04
100
AcDbCircle
 10
758.257613
 20
606.386241
 30
0.0
 40
5.0
100
AcDbArc
 50
225.0
 51
315.0
  0
ARC
  5
9F
100
AcDbEntity
  8
M04
100
AcDbCircle
 10
649.032216
 20
591.160844
 30
0.0
 40
5.0
100
AcDbArc
 50
270.0
 51
45.0
  0
ARC
  5
A0
100
AcDbEntity
  8
M04
100
AcDbCircle
 10
573.483009
 20
591.160844
 30
0.0
 40
5.0
100
AcDbArc
 50
225.0
 51
270.0
  0
ARC
  5
A1
100
AcDbEntity
  8
M04
100
AcDbCircle
 10
459.032216
 20
581.160844
 30
0.0
 40
5.0
100
AcDbArc
 50
270.0
 51
45.0
  0
ARC
  5
A2
100
AcDbEntity
  8
M04
100
AcDbCircle
 10
459.032216
 20
507.160844
 30
0.0
 40
5.0
100
AcDbArc
 50
315.0
 51
90.0
  0
ARC
  5
A3
100
AcDbEntity
  8
M01
100
AcDbCircle
 10
573.483009
 20
591.160844
 30
0.0
 40
12.0
100
AcDbArc
 50
225.0
 51
270.0
  0
ARC
  5
A4
100
AcDbEntity
  8
M01
100
AcDbCircle
 10
649.032216
 20
591.160844
 30
0.0
 40
12.0
100
AcDbArc
 50
270.0
 51
45.0
  0
ARC
  5
A5
100
AcDbEntity
  8
M01
100
AcDbCircle
 10
758.257612
 20
606.386241
 30
0.0
 40
12.0
100
AcDbArc
 50
225.0
 51
315.0
  0
ARC
  5
A6
100
AcDbEntity
  8
M01
100
AcDbCircle
 10
854.483009
 20
578.160844
 30
0.0
 40
12.0
100
AcDbArc
 50
135.0
 51
270.0
  0
ARC
  5
A7
100
AcDbEntity
  8
M01
100
AcDbCircle
 10
854.483009
 20
510.160844
 30
0.0
 40
12.0
100
AcDbArc
 50
90.0
 51
225.0
  0
ARC
  5
A8
100
AcDbEntity
  8
M01
100
AcDbCircle
 10
743.032216
 20
497.160844
 30
0.0
 40
12.0
100
AcDbArc
 50
45.0
 51
90.0
  0
ARC
  5
A9
100
AcDbEntity
  8
M01
100
AcDbCircle
 10
667.483009
 20
497.160844
 30
0.0
 40
12.0
100
AcDbArc
 50
90.0
 51
225.0
  0
ARC
  5
AA
100
AcDbEntity
  8
M01
100
AcDbCircle
 10
558.257613
 20
481.935447
 30
0.0
 40
12.0
100
AcDbArc
 50
45.0
 51
135.0
  0
ARC
  5
AB
100
AcDbEntity
  8
M01
100
AcDbCircle
 10
462.032216
 20
510.160844
 30
0.0
 40
12.0
100
AcDbArc
 50
315.0
 51
90.0
  0
ARC
  5
AC
100
AcDbEntity
  8
M01
100
AcDbCircle
 10
462.032216
 20
578.160844
 30
0.0
 40
12.0
100
AcDbArc
 50
270.0
 51
45.0
  0
LINE
  5
AD
100
AcDbEntity
  8
DIMS
 62
     4
100
AcDbLine
 10
858.257613
 20
447.560844
 30
0.0
 11
858.257613
 21
470.860844
 31
0.0
  0
LINE
  5
AE
100
AcDbEntity
  8
DIMS
 62
     4
100
AcDbLine
 10
858.257613
 20
440.760844
 30
0.0
 11
858.257613
 21
417.460844
 31
0.0
  0
LINE
  5
AF
100
AcDbEntity
  8
DIMS
 62
     4
100
AcDbLine
 10
861.657613
 20
444.160844
 30
0.0
 11
884.957613
 21
444.160844
 31
0.0
  0
LINE
  5
B0
100
AcDbEntity
  8
DIMS
 62
     4
100
AcDbLine
 10
854.857613
 20
444.160844
 30
0.0
 11
831.557613
 21
444.160844
 31
0.0
  0
LINE
  5
B1
100
AcDbEntity
  8
DIMS
 62
     4
100
AcDbLine
 10
858.257613
 20
442.460844
 30
0.0
 11
858.257613
 21
445.860844
 31
0.0
  0
LINE
  5
B2
100
AcDbEntity
  8
DIMS
 62
     4
100
AcDbLine
 10
856.557613
 20
444.160844
 30
0.0
 11
859.957613
 21
444.160844
 31
0.0
  0
TEXT
  5
B3
100
AcDbEntity
  8
TEXT
100
AcDbText
 10
663.596644
 20
291.4468
 30
0.0
 40
2.0
  1
MA010002
 41
0.9
100
AcDbText
  0
DIMENSION
  5
B4
100
AcDbEntity
  8
DIMS
100
AcDbDimension
  2
*D9
 10
706.996071
 20
314.008777
 30
0.0
 11
706.996071
 21
303.310193
 31
0.0
 70
   128
  3
DIM1
100
AcDbAlignedDimension
 13
681.482613
 23
288.608777
 33
0.0
 14
680.482613
 24
314.008777
 34
0.0
 50
270.0
100
AcDbRotatedDimension
1001
ACAD
1000
DSTYLE
1002
{
1070
   288
1070
     1
1070
   144
1040
1.0
1002
}
  0
DIMENSION
  5
C1
100
AcDbEntity
  8
DIMS
100
AcDbDimension
  2
*D8
 10
681.482613
 20
341.25167
 30
0.0
 11
659.563065
 21
341.25167
 31
0.0
 70
   128
  1
%%c46.5
  3
DIM1
100
AcDbAlignedDimension
 13
635.032613
 23
308.431427
 33
0.0
 14
681.482613
 24
308.431427
 34
0.0
100
AcDbRotatedDimension
1001
ACAD
1000
DSTYLE
1002
{
1070
   288
1070
     1
1070
   144
1040
1.0
1002
}
  0
DIMENSION
  5
CE
100
AcDbEntity
  8
DIMS
100
AcDbDimension
  2
*D7
 10
636.032613
 20
331.210438
 30
0.0
 11
659.222824
 21
331.210438
 31
0.0
 70
   128
  1
%%c<> H7
  3
DIM1
100
AcDbAlignedDimension
 13
680.482613
 23
314.008777
 33
0.0
 14
636.032613
 24
314.008777
 34
0.0
100
AcDbRotatedDimension
1001
ACAD
1000
DSTYLE
1002
{
1070
   288
1070
     1
1070
   144
1040
1.0
1002
}
  0
DIMENSION
  5
DB
100
AcDbEntity
  8
DIMS
100
AcDbDimension
  2
*D6
 10
614.427731
 20
309.008777
 30
0.0
 11
614.427731
 21
302.308777
 31
0.0
 70
   128
  1
13.4
  3
DIM1
100
AcDbAlignedDimension
 13
626.257613
 23
295.608777
 33
0.0
 14
636.032613
 24
309.008777
 34
0.0
 50
270.0
100
AcDbRotatedDimension
1001
ACAD
1000
DSTYLE
1002
{
1070
   288
1070
     1
1070
   144
1040
1.0
1002
}
  0
POINT
  5
E8
100
AcDbEntity
  8
DEFPOINTS
  6
BYBLOCK
 62
     0
100
AcDbPoint
 10
658.257613
 20
283.608777
 30
0.0
  0
LINE
  5
E9
102
{ACAD_REACTORS
330
98
102
}
100
AcDbEntity
  8
M04
100
AcDbLine
 10
648.057613
 20
288.608777
 30
0.0
 11
648.757613
 21
287.908777
 31
0.0
  0
LINE
  5
EA
102
{ACAD_REACTORS
330
98
102
}
100
AcDbEntity
  8
M04
100
AcDbLine
 10
668.457613
 20
288.608777
 30
0.0
 11
667.757613
 21
287.908777
 31
0.0
  0
LINE
  5
EB
100
AcDbEntity
  8
M03
100
AcDbLine
 10
660.557613
 20
296.008777
 30
0.0
 11
660.557613
 21
283.608777
 31
0.0
  0
LINE
  5
EE
100
AcDbEntity
  8
M03
100
AcDbLine
 10
655.957613
 20
296.008777
 30
0.0
 11
655.957613
 21
283.608777
 31
0.0
  0
LINE
  5
EF
100
AcDbEntity
  8
M03
100
AcDbLine
 10
655.257613
 20
296.008777
 30
0.0
 11
655.257613
 21
283.608777
 31
0.0
  0
LINE
  5
F0
100
AcDbEntity
  8
M03
100
AcDbLine
 10
661.257613
 20
296.008777
 30
0.0
 11
661.257613
 21
283.608777
 31
0.0
  0
ARC
  5
F1
100
AcDbEntity
  8
M03
100
AcDbCircle
 10
646.757613
 20
301.008777
 30
0.0
 40
5.0
100
AcDbArc
 50
180.0
 51
270.0
  0
ARC
  5
F2
100
AcDbEntity
  8
M03
100
AcDbCircle
 10
669.757613
 20
301.008777
 30
0.0
 40
5.0
100
AcDbArc
 50
270.0
 51
0.0
  0
LINE
  5
F3
100
AcDbEntity
  8
M03
100
AcDbLine
 10
641.757613
 20
314.008777
 30
0.0
 11
641.757613
 21
301.008777
 31
0.0
  0
LINE
  5
F4
100
AcDbEntity
  8
M03
100
AcDbLine
 10
674.757613
 20
314.008777
 30
0.0
 11
674.757613
 21
301.008777
 31
0.0
  0
LINE
  5
F5
100
AcDbEntity
  8
M03
100
AcDbLine
 10
669.757613
 20
296.008777
 30
0.0
 11
646.757613
 21
296.008777
 31
0.0
  0
LINE
  5
F6
100
AcDbEntity
  8
M05
100
AcDbLine
 10
636.532613
 20
289.308777
 30
0.0
 11
679.982613
 21
289.308777
 31
0.0
  0
LINE
  5
F8
100
AcDbEntity
  8
M05
100
AcDbLine
 10
679.282613
 20
288.608777
 30
0.0
 11
679.982613
 21
289.308777
 31
0.0
  0
LINE
  5
F9
100
AcDbEntity
  8
M05
100
AcDbLine
 10
636.532613
 20
289.308777
 30
0.0
 11
637.232613
 21
288.608777
 31
0.0
  0
LINE
  5
FA
100
AcDbEntity
  8
M05
100
AcDbLine
 10
636.532613
 20
309.008777
 30
0.0
 11
636.532613
 21
289.308777
 31
0.0
  0
LINE
  5
FB
100
AcDbEntity
  8
M04
100
AcDbLine
 10
635.032613
 20
308.431427
 30
0.0
 11
636.532613
 21
308.431427
 31
0.0
  0
LINE
  5
FC
100
AcDbEntity
  8
M04
100
AcDbLine
 10
635.032613
 20
308.431427
 30
0.0
 11
635.032613
 21
295.608777
 31
0.0
  0
LINE
  5
FD
100
AcDbEntity
  8
M04
100
AcDbLine
 10
636.032613
 20
309.008777
 30
0.0
 11
635.032613
 21
308.431427
 31
0.0
  0
LINE
  5
FE
100
AcDbEntity
  8
M04
100
AcDbLine
 10
636.032613
 20
313.008777
 30
0.0
 11
636.032613
 21
314.008777
 31
0.0
  0
LINE
  5
FF
100
AcDbEntity
  8
M04
100
AcDbLine
 10
637.032613
 20
314.008777
 30
0.0
 11
636.032613
 21
314.008777
 31
0.0
  0
LINE
  5
100
100
AcDbEntity
  8
M05
100
AcDbLine
 10
637.032613
 20
314.008777
 30
0.0
 11
636.032613
 21
313.008777
 31
0.0
  0
LINE
  5
101
100
AcDbEntity
  8
M05
100
AcDbLine
 10
636.032613
 20
313.008777
 30
0.0
 11
636.032613
 21
309.008777
 31
0.0
  0
LINE
  5
102
100
AcDbEntity
  8
M05
100
AcDbLine
 10
679.982613
 20
309.008777
 30
0.0
 11
679.982613
 21
289.308777
 31
0.0
  0
LINE
  5
103
100
AcDbEntity
  8
M04
100
AcDbLine
 10
681.482613
 20
308.431427
 30
0.0
 11
679.982613
 21
308.431427
 31
0.0
  0
LINE
  5
104
100
AcDbEntity
  8
M04
100
AcDbLine
 10
681.482613
 20
308.431427
 30
0.0
 11
681.482613
 21
295.608777
 31
0.0
  0
LINE
  5
105
100
AcDbEntity
  8
M04
100
AcDbLine
 10
680.482613
 20
309.008777
 30
0.0
 11
681.482613
 21
308.431427
 31
0.0
  0
LINE
  5
106
100
AcDbEntity
  8
M04
100
AcDbLine
 10
680.482613
 20
313.008777
 30
0.0
 11
680.482613
 21
314.008777
 31
0.0
  0
LINE
  5
107
100
AcDbEntity
  8
M04
100
AcDbLine
 10
679.482613
 20
314.008777
 30
0.0
 11
680.482613
 21
314.008777
 31
0.0
  0
LINE
  5
108
100
AcDbEntity
  8
M05
100
AcDbLine
 10
636.032613
 20
313.008777
 30
0.0
 11
680.482613
 21
313.008777
 31
0.0
  0
LINE
  5
109
100
AcDbEntity
  8
M05
100
AcDbLine
 10
679.482613
 20
314.008777
 30
0.0
 11
680.482613
 21
313.008777
 31
0.0
  0
LINE
  5
10A
100
AcDbEntity
  8
M05
100
AcDbLine
 10
680.482613
 20
313.008777
 30
0.0
 11
680.482613
 21
309.008777
 31
0.0
  0
LINE
  5
10B
100
AcDbEntity
  8
M05
100
AcDbLine
 10
680.482613
 20
309.008777
 30
0.0
 11
636.032613
 21
309.008777
 31
0.0
  0
LINE
  5
10C
100
AcDbEntity
  8
M05
100
AcDbLine
 10
679.482613
 20
314.008777
 30
0.0
 11
637.032613
 21
314.008777
 31
0.0
  0
LINE
  5
10D
102
{ACAD_REACTORS
330
98
102
}
100
AcDbEntity
  8
M05
100
AcDbLine
 10
648.757613
 20
288.608777
 30
0.0
 11
648.757613
 21
284.608777
 31
0.0
  0
LINE
  5
10E
102
{ACAD_REACTORS
330
98
102
}
100
AcDbEntity
  8
M05
100
AcDbLine
 10
667.757613
 20
288.608777
 30
0.0
 11
667.757613
 21
284.608777
 31
0.0
  0
HATCH
  5
10F
100
AcDbEntity
  8
HATCH
100
AcDbHatch
 10
0.0
 20
0.0
 30
0.0
210
0.0
220
0.0
230
1.0
  2
_U
 70
     0
 71
     0
 91
       16
 92
        7
 72
     1
 73
     1
 93
        5
 10
658.2576125642799
 20
564.160843887023
 42
0.0
 10
658.2576125642799
 20
564.660843887023
 42
-0.1856631955229143
 10
654.5722738197127
 20
566.0781635985614
 42
0.3157147729334966
 10
636.3955306643326
 20
548.160843887023
 42
0.0
 10
638.6616946220146
 20
548.160843887023
 42
-0.3563939586925999
 97
        0
 92
       22
 72
     1
 73
     1
 93
        4
 10
658.2576125642799
 20
564.160843887023
 42
0.3563939586925999
 10
638.6616946220146
 20
548.160843887023
 42
0.0
 10
649.6407685944729
 20
548.160843887023
 42
-0.2919418509678903
 10
658.2576125642799
 20
553.660843887023
 42
0.0
 97
        0
 92
        6
 72
     1
 73
     1
 93
        3
 10
658.2576125642799
 20
553.660843887023
 42
0.2919418509678903
 10
649.6407685944729
 20
548.160843887023
 42
0.0
 10
658.2576125642799
 20
548.160843887023
 42
0.0
 97
        0
 92
        7
 72
     1
 73
     1
 93
        4
 10
658.2576125642799
 20
548.160843887023
 42
0.0
 10
649.6407685944729
 20
548.160843887023
 42
0.1090809576248918
 10
648.7576125642799
 20
544.1608438870229
 42
0.0
 10
654.2576125642799
 20
544.1608438870229
 42
-0.4142135623730992
 97
        0
 92
       22
 72
     1
 73
     1
 93
        3
 10
658.2576125642799
 20
548.160843887023
 42
0.4142135623730992
 10
654.2576125642799
 20
544.1608438870229
 42
0.0
 10
658.2576125642802
 20
544.1608438870227
 42
0.0
 97
        0
 92
        7
 72
     1
 73
     1
 93
        4
 10
649.6407685944729
 20
548.160843887023
 42
0.0
 10
638.6616946220146
 20
548.160843887023
 42
0.0503820444848851
 10
638.2576125642799
 20
544.1608438870229
 42
0.0
 10
648.7576125642799
 20
544.1608438870229
 42
-0.1090809576248918
 97
        0
 92
        7
 72
     1
 73
     1
 93
        5
 10
638.6616946220146
 20
548.160843887023
 42
0.0
 10
636.3955306643326
 20
548.160843887023
 42
0.003593667114849
 10
636.3402928527416
 20
547.84618263159
 42
-0.1856631955229133
 10
637.7576125642799
 20
544.1608438870229
 42
0.0
 10
638.2576125642799
 20
544.1608438870229
 42
-0.0503820444848851
 97
        0
 92
        7
 72
     1
 73
     1
 93
        3
 10
636.3402928527416
 20
547.84618263159
 42
0.0416713391594355
 10
636.03261256428
 20
544.1608438870229
 42
0.0
 10
637.7576125642799
 20
544.1608438870229
 42
0.1856631955229133
 97
        0
 92
       22
 72
     1
 73
     1
 93
        3
 10
662.2576125642799
 20
544.1608438870229
 42
0.0
 10
658.2576125642802
 20
544.1608438870229
 42
0.0
 10
658.2576125642802
 20
540.160843887023
 42
0.4142135623730826
 97
        0
 92
        7
 72
     1
 73
     1
 93
        4
 10
667.7576125642799
 20
544.1608438870229
 42
0.0
 10
662.2576125642799
 20
544.1608438870229
 42
-0.4142135623730909
 10
658.2576125642799
 20
540.160843887023
 42
0.0
 10
666.8744565340871
 20
540.160843887023
 42
0.1090809576248888
 97
        0
 92
        6
 72
     1
 73
     1
 93
        3
 10
666.8744565340871
 20
540.160843887023
 42
0.0
 10
658.2576125642799
 20
540.1608438870229
 42
0.0
 10
658.2576125642799
 20
534.660843887023
 42
0.2919418509678903
 97
        0
 92
       22
 72
     1
 73
     1
 93
        4
 10
677.8535305065454
 20
540.160843887023
 42
0.0
 10
666.8744565340871
 20
540.160843887023
 42
-0.2919418509678903
 10
658.2576125642799
 20
534.660843887023
 42
0.0
 10
658.2576125642799
 20
524.160843887023
 42
0.3563939586925999
 97
        0
 92
        7
 72
     1
 73
     1
 93
        4
 10
678.2576125642799
 20
544.1608438870229
 42
0.0
 10
667.7576125642799
 20
544.1608438870229
 42
-0.1090809576248888
 10
666.8744565340871
 20
540.160843887023
 42
0.0
 10
677.8535305065454
 20
540.160843887023
 42
0.0503820444848837
 97
        0
 92
        7
 72
     1
 73
     1
 93
        5
 10
678.7576125642799
 20
544.1608438870229
 42
0.0
 10
678.2576125642799
 20
544.1608438870229
 42
-0.0503820444848837
 10
677.8535305065454
 20
540.160843887023
 42
0.0
 10
680.1196944642271
 20
540.160843887023
 42
0.003593667114849
 10
680.1749322758184
 20
540.4755051424558
 42
-0.185663195522908
 97
        0
 92
        7
 72
     1
 73
     1
 93
        3
 10
680.4826125642801
 20
544.1608438870229
 42
0.0
 10
678.7576125642799
 20
544.1608438870229
 42
0.185663195522908
 10
680.1749322758184
 20
540.4755051424558
 42
0.0416713391594342
 97
        0
 92
        7
 72
     1
 73
     1
 93
        4
 10
680.1196944642271
 20
540.160843887023
 42
0.0
 10
677.8535305065454
 20
540.160843887023
 42
-0.3563939586925999
 10
658.2576125642799
 20
524.160843887023
 42
0.0
 10
658.2576125642799
 20
521.9358438870228
 42
0.3621506593782504
 97
        0
 75
     0
 76
     0
 52
45.0
 41
2.0
 77
     1
 78
     2
 53
45.0
 43
102.810372
 44
111.601618
 45
-1.414213562373094
 46
1.414213562373095
 79
     0
 53
135.0
 43
102.810372
 44
111.601618
 45
-1.414213562373095
 46
-1.414213562373094
 79
     0
 47
0.113412
 98
       16
 10
645.941458
 20
561.480764
 10
647.643334
 20
557.62477
 10
655.812338
 20
551.273722
 10
652.748961
 20
546.623846
 10
656.946922
 20
546.283611
 10
645.714541
 20
546.1702
 10
637.658995
 20
547.531138
 10
637.091704
 20
545.48973
 10
660.577591
 20
542.087382
 10
664.548634
 20
542.200793
 10
661.258341
 20
537.777741
 10
668.292761
 20
536.076568
 10
672.036888
 20
541.860559
 10
678.617475
 20
541.293501
 10
680.092434
 20
542.541029
 10
678.730934
 20
536.530213
  0
CIRCLE
  5
110
100
AcDbEntity
  8
M01
100
AcDbCircle
 10
658.257613
 20
544.160844
 30
0.0
 40
22.225
  0
CIRCLE
  5
111
100
AcDbEntity
  8
M03
100
AcDbCircle
 10
658.257613
 20
544.160844
 30
0.0
 40
9.5
  0
CIRCLE
  5
112
100
AcDbEntity
  8
M03
100
AcDbCircle
 10
658.257613
 20
544.160844
 30
0.0
 40
4.0
  0
HATCH
  5
113
100
AcDbEntity
  8
HATCH
100
AcDbHatch
 10
0.0
 20
0.0
 30
0.0
210
0.0
220
0.0
230
1.0
  2
_U
 70
     0
 71
     1
 91
        2
 92
        7
 72
     0
 73
     1
 93
       11
 10
834.95761256428
 20
228.6087771884046
 10
834.25761256428
 20
227.9087771884047
 10
834.25761256428
 20
222.3087771884042
 10
834.9576125642801
 20
221.6087771884045
 10
837.7576125642802
 20
221.6087771884046
 10
838.75761256428
 20
222.6087771884044
 10
850.7576125642794
 20
222.6087771884045
 10
851.7576125642792
 20
221.6087771884046
 10
854.75761256428
 20
221.6087771884046
 10
854.7576125642798
 20
224.2498952009475
 10
850.3987305768228
 20
228.6087771884046
 97
       10
330
2BD
330
35F
330
364
330
360
330
499
330
32D
330
32F
330
32E
330
34D
330
34F
 92
        7
 72
     0
 73
     1
 93
       11
 10
866.1164945517372
 20
228.6087771884047
 10
861.7576125642798
 20
224.2498952009473
 10
861.7576125642798
 20
221.6087771884047
 10
864.7576125642808
 20
221.6087771884047
 10
865.7576125642805
 20
222.6087771884045
 10
877.7576125642802
 20
222.6087771884044
 10
878.7576125642795
 20
221.6087771884047
 10
881.5576125642801
 20
221.6087771884048
 10
882.2576125642799
 20
222.3087771884045
 10
882.2576125642799
 20
227.9087771884046
 10
881.5576125642801
 20
228.6087771884047
 97
       10
330
35A
330
2BD
330
351
330
34C
330
2BC
330
331
330
332
330
330
330
35B
330
35C
 75
     0
 76
     0
 52
135.0
 41
1.5
 77
     0
 78
     1
 53
135.0
 43
25.0
 44
0.0
 45
-1.060660171779821
 46
-1.060660171779821
 79
     0
 47
0.097824
 98
        2
 10
839.941951
 20
226.490481
 10
868.811491
 20
225.610062
  0
HATCH
  5
114
100
AcDbEntity
  8
M03
100
AcDbHatch
 10
0.0
 20
0.0
 30
0.0
210
0.0
220
0.0
230
1.0
  2
_U
 70
     0
 71
     0
 91
        1
 92
        7
 72
     0
 73
     1
 93
        4
 10
830.6205768316351
 20
432.0584785169838
 10
851.2952897551713
 20
411.3837655934475
 10
849.9517868709169
 20
410.040262709193
 10
829.2770739473805
 20
430.7149756327296
 97
        0
 75
     0
 76
     0
 52
285.0
 41
0.7
 77
     0
 78
     1
 53
165.0
 43
891.913266
 44
-201.225933
 45
0.1811733315717643
 46
0.676148078402348
 79
     0
 47
0.060863
 98
        1
 10
832.390989
 20
428.608785
  0
HATCH
  5
115
100
AcDbEntity
  8
M03
100
AcDbHatch
 10
0.0
 20
0.0
 30
0.0
210
0.0
220
0.0
230
1.0
  2
_U
 70
     0
 71
     0
 91
        1
 92
        7
 72
     0
 73
     1
 93
        4
 10
830.6205768316351
 20
432.058478516984
 10
851.2952897551715
 20
411.3837655934474
 10
849.9517868709169
 20
410.040262709193
 10
829.2770739473805
 20
430.7149756327296
 97
        0
 75
     0
 76
     0
 52
-15.0
 41
0.7
 77
     0
 78
     1
 53
105.0
 43
891.913266
 44
-201.225933
 45
0.6761480784023478
 46
0.1811733315717645
 79
     0
 47
0.060863
 98
        1
 10
832.692299
 20
428.651769
  0
LINE
  5
116
100
AcDbEntity
  8
M03
100
AcDbLine
 10
828.494262
 20
453.418097
 30
0.0
 11
831.059579
 21
452.730723
 31
0.0
  0
LINE
  5
117
100
AcDbEntity
  8
M03
100
AcDbLine
 10
831.746954
 20
450.165406
 30
0.0
 11
831.059579
 21
452.730723
 31
0.0
  0
LINE
  5
118
100
AcDbEntity
  8
M03
100
AcDbLine
 10
831.746954
 20
450.165406
 30
0.0
 11
828.494262
 21
453.418097
 31
0.0
  0
LINE
  5
119
100
AcDbEntity
  8
M03
100
AcDbLine
 10
831.181268
 20
448.609771
 30
0.0
 11
826.938627
 21
452.852412
 31
0.0
  0
LINE
  5
11A
100
AcDbEntity
  8
M03
100
AcDbLine
 10
830.620577
 20
432.058479
 30
0.0
 11
851.29529
 21
411.383766
 31
0.0
  0
LINE
  5
11B
100
AcDbEntity
  8
M03
100
AcDbLine
 10
829.277074
 20
430.714976
 30
0.0
 11
849.951787
 21
410.040263
 31
0.0
  0
LINE
  5
11C
100
AcDbEntity
  8
M03
100
AcDbLine
 10
825.882961
 20
437.220358
 30
0.0
 11
815.76634
 21
447.336979
 31
0.0
  0
LINE
  5
11D
100
AcDbEntity
  8
M03
100
AcDbLine
 10
830.832709
 20
432.270611
 30
0.0
 11
829.064942
 21
430.502844
 31
0.0
  0
LINE
  5
11E
100
AcDbEntity
  8
M03
100
AcDbLine
 10
829.064942
 20
430.502844
 30
0.0
 11
824.115194
 21
435.452591
 31
0.0
  0
LINE
  5
11F
100
AcDbEntity
  8
M03
100
AcDbLine
 10
825.882961
 20
437.220358
 30
0.0
 11
824.115194
 21
435.452591
 31
0.0
  0
LINE
  5
120
100
AcDbEntity
  8
M03
100
AcDbLine
 10
816.332026
 20
447.902665
 30
0.0
 11
815.76634
 21
447.336979
 31
0.0
  0
ARC
  5
121
100
AcDbEntity
  8
M03
100
AcDbCircle
 10
822.502336
 20
444.17348
 30
0.0
 40
5.826136
100
AcDbArc
 50
160.69541
 51
289.30459
  0
LINE
  5
122
100
AcDbEntity
  8
M03
100
AcDbLine
 10
825.17086
 20
451.084645
 30
0.0
 11
826.16081
 21
451.084645
 31
0.0
  0
LINE
  5
123
100
AcDbEntity
  8
M03
100
AcDbLine
 10
829.413501
 20
446.842004
 30
0.0
 11
829.413501
 21
447.831954
 31
0.0
  0
LINE
  5
124
100
AcDbEntity
  8
M03
100
AcDbLine
 10
829.413501
 20
446.842004
 30
0.0
 11
825.17086
 21
451.084645
 31
0.0
  0
LINE
  5
125
100
AcDbEntity
  8
M03
100
AcDbLine
 10
829.413501
 20
447.831954
 30
0.0
 11
826.16081
 21
451.084645
 31
0.0
  0
LINE
  5
126
100
AcDbEntity
  8
M03
100
AcDbLine
 10
819.160453
 20
445.074237
 30
0.0
 11
814.210705
 21
450.023985
 31
0.0
  0
LINE
  5
127
100
AcDbEntity
  8
M03
100
AcDbLine
 10
830.969136
 20
433.265554
 30
0.0
 11
830.403451
 21
432.699869
 31
0.0
  0
LINE
  5
128
100
AcDbEntity
  8
M03
100
AcDbLine
 10
818.665478
 20
445.569212
 30
0.0
 11
818.099793
 21
445.003527
 31
0.0
  0
LINE
  5
129
100
AcDbEntity
  8
M03
100
AcDbLine
 10
828.494262
 20
453.418097
 30
0.0
 11
819.089742
 21
444.013577
 31
0.0
  0
LINE
  5
12A
100
AcDbEntity
  8
M03
100
AcDbLine
 10
831.746954
 20
450.165406
 30
0.0
 11
822.342433
 21
440.760886
 31
0.0
  0
LINE
  5
12B
100
AcDbEntity
  8
M03
100
AcDbLine
 10
831.181268
 20
448.609771
 30
0.0
 11
822.837408
 21
440.265911
 31
0.0
  0
LINE
  5
12C
100
AcDbEntity
  8
M03
100
AcDbLine
 10
826.938627
 20
452.852412
 30
0.0
 11
818.594767
 21
444.508552
 31
0.0
  0
LINE
  5
12D
100
AcDbEntity
  8
M03
100
AcDbLine
 10
830.832709
 20
432.270611
 30
0.0
 11
826.621721
 21
436.481598
 31
0.0
  0
LINE
  5
12E
100
AcDbEntity
  8
M03
100
AcDbLine
 10
814.210705
 20
450.023985
 30
0.0
 11
810.675171
 21
446.488451
 31
0.0
  0
LINE
  5
12F
100
AcDbEntity
  8
M03
100
AcDbLine
 10
856.073846
 20
408.160844
 30
0.0
 11
823.403094
 21
440.831597
 31
0.0
  0
LINE
  5
130
100
AcDbEntity
  8
CENTRE
100
AcDbLine
 10
834.150178
 20
455.821322
 30
0.0
 11
814.945052
 21
436.616196
 31
0.0
  0
LINE
  5
133
100
AcDbEntity
  8
DIMS
 62
     4
100
AcDbLine
 10
858.257613
 20
647.560844
 30
0.0
 11
858.257613
 21
670.860844
 31
0.0
  0
LINE
  5
134
100
AcDbEntity
  8
DIMS
 62
     4
100
AcDbLine
 10
858.257613
 20
640.760844
 30
0.0
 11
858.257613
 21
617.460844
 31
0.0
  0
LINE
  5
135
100
AcDbEntity
  8
DIMS
 62
     4
100
AcDbLine
 10
861.657613
 20
644.160844
 30
0.0
 11
884.957613
 21
644.160844
 31
0.0
  0
LINE
  5
136
100
AcDbEntity
  8
DIMS
 62
     4
100
AcDbLine
 10
854.857613
 20
644.160844
 30
0.0
 11
831.557613
 21
644.160844
 31
0.0
  0
LINE
  5
137
100
AcDbEntity
  8
DIMS
 62
     4
100
AcDbLine
 10
858.257613
 20
642.460844
 30
0.0
 11
858.257613
 21
645.860844
 31
0.0
  0
LINE
  5
138
100
AcDbEntity
  8
DIMS
 62
     4
100
AcDbLine
 10
856.557613
 20
644.160844
 30
0.0
 11
859.957613
 21
644.160844
 31
0.0
  0
LINE
  5
139
100
AcDbEntity
  8
DIMS
 62
     4
100
AcDbLine
 10
661.657613
 20
644.160844
 30
0.0
 11
684.957613
 21
644.160844
 31
0.0
  0
LINE
  5
13A
100
AcDbEntity
  8
DIMS
 62
     4
100
AcDbLine
 10
654.857613
 20
644.160844
 30
0.0
 11
631.557613
 21
644.160844
 31
0.0
  0
LINE
  5
13B
100
AcDbEntity
  8
DIMS
 62
     4
100
AcDbLine
 10
656.557613
 20
644.160844
 30
0.0
 11
659.957613
 21
644.160844
 31
0.0
  0
LINE
  5
13C
100
AcDbEntity
  8
DIMS
 62
     4
100
AcDbLine
 10
661.657613
 20
444.160844
 30
0.0
 11
684.957613
 21
444.160844
 31
0.0
  0
LINE
  5
13D
100
AcDbEntity
  8
DIMS
 62
     4
100
AcDbLine
 10
654.857613
 20
444.160844
 30
0.0
 11
631.557613
 21
444.160844
 31
0.0
  0
LINE
  5
13E
100
AcDbEntity
  8
DIMS
 62
     4
100
AcDbLine
 10
656.557613
 20
444.160844
 30
0.0
 11
659.957613
 21
444.160844
 31
0.0
  0
LINE
  5
13F
100
AcDbEntity
  8
DIMS
 62
     4
100
AcDbLine
 10
458.257613
 20
447.560844
 30
0.0
 11
458.257613
 21
470.860844
 31
0.0
  0
LINE
  5
140
100
AcDbEntity
  8
DIMS
 62
     4
100
AcDbLine
 10
458.257613
 20
440.760844
 30
0.0
 11
458.257613
 21
417.460844
 31
0.0
  0
LINE
  5
141
100
AcDbEntity
  8
DIMS
 62
     4
100
AcDbLine
 10
461.657613
 20
444.160844
 30
0.0
 11
484.957613
 21
444.160844
 31
0.0
  0
LINE
  5
142
100
AcDbEntity
  8
DIMS
 62
     4
100
AcDbLine
 10
454.857613
 20
444.160844
 30
0.0
 11
431.557613
 21
444.160844
 31
0.0
  0
LINE
  5
143
100
AcDbEntity
  8
DIMS
 62
     4
100
AcDbLine
 10
458.257613
 20
442.460844
 30
0.0
 11
458.257613
 21
445.860844
 31
0.0
  0
LINE
  5
144
100
AcDbEntity
  8
DIMS
 62
     4
100
AcDbLine
 10
456.557613
 20
444.160844
 30
0.0
 11
459.957613
 21
444.160844
 31
0.0
  0
LINE
  5
145
100
AcDbEntity
  8
DIMS
 62
     4
100
AcDbLine
 10
458.257613
 20
647.560844
 30
0.0
 11
458.257613
 21
670.860844
 31
0.0
  0
LINE
  5
146
100
AcDbEntity
  8
DIMS
 62
     4
100
AcDbLine
 10
458.257613
 20
640.760844
 30
0.0
 11
458.257613
 21
617.460844
 31
0.0
  0
LINE
  5
147
100
AcDbEntity
  8
DIMS
 62
     4
100
AcDbLine
 10
461.657613
 20
644.160844
 30
0.0
 11
484.957613
 21
644.160844
 31
0.0
  0
LINE
  5
148
100
AcDbEntity
  8
DIMS
 62
     4
100
AcDbLine
 10
454.857613
 20
644.160844
 30
0.0
 11
431.557613
 21
644.160844
 31
0.0
  0
LINE
  5
149
100
AcDbEntity
  8
DIMS
 62
     4
100
AcDbLine
 10
458.257613
 20
642.460844
 30
0.0
 11
458.257613
 21
645.860844
 31
0.0
  0
LINE
  5
14A
100
AcDbEntity
  8
DIMS
 62
     4
100
AcDbLine
 10
456.557613
 20
644.160844
 30
0.0
 11
459.957613
 21
644.160844
 31
0.0
  0
LINE
  5
14B
100
AcDbEntity
  8
M04
100
AcDbLine
 10
902.806534
 20
454.766252
 30
0.0
 11
853.947475
 21
503.62531
 31
0.0
  0
LINE
  5
14C
100
AcDbEntity
  8
DIMS
 62
     4
100
AcDbLine
 10
897.012952
 20
479.516183
 30
0.0
 11
901.812952
 21
479.516183
 31
0.0
  0
LINE
  5
14D
100
AcDbEntity
  8
DIMS
 62
     4
100
AcDbLine
 10
890.212952
 20
479.516183
 30
0.0
 11
885.412952
 21
479.516183
 31
0.0
  0
LINE
  5
14E
100
AcDbEntity
  8
DIMS
 62
     4
100
AcDbLine
 10
893.612952
 20
482.916183
 30
0.0
 11
893.612952
 21
487.716183
 31
0.0
  0
LINE
  5
14F
100
AcDbEntity
  8
DIMS
 62
     4
100
AcDbLine
 10
893.612952
 20
476.116183
 30
0.0
 11
893.612952
 21
471.316183
 31
0.0
  0
LINE
  5
150
100
AcDbEntity
  8
DIMS
 62
     4
100
AcDbLine
 10
891.912952
 20
479.516183
 30
0.0
 11
895.312952
 21
479.516183
 31
0.0
  0
LINE
  5
151
100
AcDbEntity
  8
DIMS
 62
     4
100
AcDbLine
 10
893.612952
 20
477.816183
 30
0.0
 11
893.612952
 21
481.216183
 31
0.0
  0
CIRCLE
  5
152
100
AcDbEntity
  8
M04
100
AcDbCircle
 10
893.612952
 20
479.516183
 30
0.0
 40
6.5
  0
LINE
  5
153
100
AcDbEntity
  8
M04
100
AcDbLine
 10
847.652205
 20
399.611923
 30
0.0
 11
746.56775
 21
500.696378
 31
0.0
  0
LINE
  5
154
100
AcDbEntity
  8
M01
100
AcDbLine
 10
894.257613
 20
453.415678
 30
0.0
 11
845.997728
 21
501.675563
 31
0.0
  0
LINE
  5
155
100
AcDbEntity
  8
M01
100
AcDbLine
 10
849.002779
 20
408.160844
 30
0.0
 11
751.517497
 21
505.646125
 31
0.0
  0
LINE
  5
156
100
AcDbEntity
  8
M01
100
AcDbLine
 10
894.257613
 20
434.903622
 30
0.0
 11
894.257613
 21
453.415678
 31
0.0
  0
LINE
  5
157
100
AcDbEntity
  8
M01
100
AcDbLine
 10
867.514834
 20
408.160844
 30
0.0
 11
849.002779
 21
408.160844
 31
0.0
  0
LINE
  5
158
100
AcDbEntity
  8
DIMS
 62
     4
100
AcDbLine
 10
822.902274
 20
405.405505
 30
0.0
 11
822.902274
 21
400.605505
 31
0.0
  0
LINE
  5
159
100
AcDbEntity
  8
DIMS
 62
     4
100
AcDbLine
 10
822.902274
 20
412.205505
 30
0.0
 11
822.902274
 21
417.005505
 31
0.0
  0
LINE
  5
15A
100
AcDbEntity
  8
DIMS
 62
     4
100
AcDbLine
 10
819.502274
 20
408.805505
 30
0.0
 11
814.702274
 21
408.805505
 31
0.0
  0
LINE
  5
15B
100
AcDbEntity
  8
DIMS
 62
     4
100
AcDbLine
 10
826.302274
 20
408.805505
 30
0.0
 11
831.102274
 21
408.805505
 31
0.0
  0
LINE
  5
15C
100
AcDbEntity
  8
DIMS
 62
     4
100
AcDbLine
 10
822.902274
 20
410.505505
 30
0.0
 11
822.902274
 21
407.105505
 31
0.0
  0
LINE
  5
15D
100
AcDbEntity
  8
DIMS
 62
     4
100
AcDbLine
 10
824.602274
 20
408.805505
 30
0.0
 11
821.202274
 21
408.805505
 31
0.0
  0
CIRCLE
  5
15E
100
AcDbEntity
  8
M03
100
AcDbCircle
 10
858.257613
 20
444.160844
 30
0.0
 40
25.0
  0
CIRCLE
  5
15F
100
AcDbEntity
  8
M03
100
AcDbCircle
 10
858.257613
 20
444.160844
 30
0.0
 40
24.0
  0
CIRCLE
  5
160
100
AcDbEntity
  8
M04
100
AcDbCircle
 10
822.902274
 20
408.805505
 30
0.0
 40
6.5
  0
CIRCLE
  5
161
100
AcDbEntity
  8
M03
100
AcDbCircle
 10
858.257613
 20
444.160844
 30
0.0
 40
2.3
  0
ARC
  5
162
100
AcDbEntity
  8
M03
100
AcDbCircle
 10
858.257613
 20
444.160844
 30
0.0
 40
3.0
100
AcDbArc
 50
347.784636
 51
276.923103
  0
LINE
  5
163
100
AcDbEntity
  8
M03
100
AcDbLine
 10
857.707613
 20
450.135582
 30
0.0
 11
857.707613
 21
438.186105
 31
0.0
  0
LINE
  5
164
100
AcDbEntity
  8
M03
100
AcDbLine
 10
858.807613
 20
450.135582
 30
0.0
 11
858.807613
 21
438.186105
 31
0.0
  0
CIRCLE
  5
165
100
AcDbEntity
  8
M03
100
AcDbCircle
 10
858.257613
 20
444.160844
 30
0.0
 40
7.858882
  0
CIRCLE
  5
166
100
AcDbEntity
  8
M03
100
AcDbCircle
 10
858.257613
 20
444.160844
 30
0.0
 40
6.0
  0
CIRCLE
  5
167
100
AcDbEntity
  8
M01
100
AcDbCircle
 10
858.257613
 20
444.160844
 30
0.0
 40
4.0
  0
LINE
  5
168
100
AcDbEntity
  8
M04
100
AcDbLine
 10
667.483009
 20
502.160844
 30
0.0
 11
743.032216
 21
502.160844
 31
0.0
  0
LINE
  5
169
100
AcDbEntity
  8
M01
100
AcDbLine
 10
667.483009
 20
509.160844
 30
0.0
 11
743.032216
 21
509.160844
 31
0.0
  0
LINE
  5
16A
100
AcDbEntity
  8
DIMS
 62
     4
100
AcDbLine
 10
897.012952
 20
608.805505
 30
0.0
 11
901.812952
 21
608.805505
 31
0.0
  0
LINE
  5
16B
100
AcDbEntity
  8
DIMS
 62
     4
100
AcDbLine
 10
890.212952
 20
608.805505
 30
0.0
 11
885.412952
 21
608.805505
 31
0.0
  0
LINE
  5
16C
100
AcDbEntity
  8
DIMS
 62
     4
100
AcDbLine
 10
893.612952
 20
605.405505
 30
0.0
 11
893.612952
 21
600.605505
 31
0.0
  0
LINE
  5
16D
100
AcDbEntity
  8
DIMS
 62
     4
100
AcDbLine
 10
893.612952
 20
612.205505
 30
0.0
 11
893.612952
 21
617.005505
 31
0.0
  0
LINE
  5
16E
100
AcDbEntity
  8
DIMS
 62
     4
100
AcDbLine
 10
891.912952
 20
608.805505
 30
0.0
 11
895.312952
 21
608.805505
 31
0.0
  0
LINE
  5
16F
100
AcDbEntity
  8
DIMS
 62
     4
100
AcDbLine
 10
893.612952
 20
610.505505
 30
0.0
 11
893.612952
 21
607.105505
 31
0.0
  0
CIRCLE
  5
170
100
AcDbEntity
  8
M04
100
AcDbCircle
 10
893.612952
 20
608.805505
 30
0.0
 40
6.5
  0
LINE
  5
171
100
AcDbEntity
  8
M04
100
AcDbLine
 10
902.806534
 20
633.555436
 30
0.0
 11
853.947475
 21
584.696378
 31
0.0
  0
LINE
  5
172
100
AcDbEntity
  8
M04
100
AcDbLine
 10
847.652205
 20
688.709765
 30
0.0
 11
761.793147
 21
602.850707
 31
0.0
  0
LINE
  5
173
100
AcDbEntity
  8
M01
100
AcDbLine
 10
894.257613
 20
634.90601
 30
0.0
 11
845.997728
 21
586.646125
 31
0.0
  0
LINE
  5
174
100
AcDbEntity
  8
M01
100
AcDbLine
 10
849.002779
 20
680.160844
 30
0.0
 11
766.742894
 21
597.900959
 31
0.0
  0
LINE
  5
175
100
AcDbEntity
  8
M01
100
AcDbLine
 10
894.257613
 20
653.418065
 30
0.0
 11
894.257613
 21
634.90601
 31
0.0
  0
LINE
  5
176
100
AcDbEntity
  8
M01
100
AcDbLine
 10
867.514834
 20
680.160844
 30
0.0
 11
849.002779
 21
680.160844
 31
0.0
  0
LINE
  5
177
100
AcDbEntity
  8
DIMS
 62
     4
100
AcDbLine
 10
822.902274
 20
682.916183
 30
0.0
 11
822.902274
 21
687.716183
 31
0.0
  0
LINE
  5
178
100
AcDbEntity
  8
DIMS
 62
     4
100
AcDbLine
 10
822.902274
 20
676.116183
 30
0.0
 11
822.902274
 21
671.316183
 31
0.0
  0
LINE
  5
179
100
AcDbEntity
  8
DIMS
 62
     4
100
AcDbLine
 10
819.502274
 20
679.516183
 30
0.0
 11
814.702274
 21
679.516183
 31
0.0
  0
LINE
  5
17A
100
AcDbEntity
  8
DIMS
 62
     4
100
AcDbLine
 10
826.302274
 20
679.516183
 30
0.0
 11
831.102274
 21
679.516183
 31
0.0
  0
LINE
  5
17B
100
AcDbEntity
  8
DIMS
 62
     4
100
AcDbLine
 10
822.902274
 20
677.816183
 30
0.0
 11
822.902274
 21
681.216183
 31
0.0
  0
LINE
  5
17C
100
AcDbEntity
  8
DIMS
 62
     4
100
AcDbLine
 10
824.602274
 20
679.516183
 30
0.0
 11
821.202274
 21
679.516183
 31
0.0
  0
CIRCLE
  5
17D
100
AcDbEntity
  8
M03
100
AcDbCircle
 10
858.257613
 20
644.160844
 30
0.0
 40
25.0
  0
CIRCLE
  5
17E
100
AcDbEntity
  8
M03
100
AcDbCircle
 10
858.257613
 20
644.160844
 30
0.0
 40
24.0
  0
CIRCLE
  5
17F
100
AcDbEntity
  8
M04
100
AcDbCircle
 10
822.902274
 20
679.516183
 30
0.0
 40
6.5
  0
CIRCLE
  5
180
100
AcDbEntity
  8
M03
100
AcDbCircle
 10
858.257613
 20
644.160844
 30
0.0
 40
2.3
  0
ARC
  5
181
100
AcDbEntity
  8
M03
100
AcDbCircle
 10
858.257613
 20
644.160844
 30
0.0
 40
3.0
100
AcDbArc
 50
83.076897
 51
12.215364
  0
LINE
  5
182
100
AcDbEntity
  8
M03
100
AcDbLine
 10
857.707613
 20
638.186105
 30
0.0
 11
857.707613
 21
650.135582
 31
0.0
  0
LINE
  5
183
100
AcDbEntity
  8
M03
100
AcDbLine
 10
858.807613
 20
638.186105
 30
0.0
 11
858.807613
 21
650.135582
 31
0.0
  0
CIRCLE
  5
184
100
AcDbEntity
  8
M03
100
AcDbCircle
 10
858.257613
 20
644.160844
 30
0.0
 40
7.858882
  0
CIRCLE
  5
185
100
AcDbEntity
  8
M03
100
AcDbCircle
 10
858.257613
 20
644.160844
 30
0.0
 40
6.0
  0
CIRCLE
  5
186
100
AcDbEntity
  8
M01
100
AcDbCircle
 10
858.257613
 20
644.160844
 30
0.0
 40
4.0
  0
LINE
  5
187
100
AcDbEntity
  8
DIMS
 62
     4
100
AcDbLine
 10
697.012952
 20
479.516183
 30
0.0
 11
701.812952
 21
479.516183
 31
0.0
  0
LINE
  5
188
100
AcDbEntity
  8
DIMS
 62
     4
100
AcDbLine
 10
690.212952
 20
479.516183
 30
0.0
 11
685.412952
 21
479.516183
 31
0.0
  0
LINE
  5
189
100
AcDbEntity
  8
DIMS
 62
     4
100
AcDbLine
 10
693.612952
 20
482.916183
 30
0.0
 11
693.612952
 21
487.716183
 31
0.0
  0
LINE
  5
18A
100
AcDbEntity
  8
DIMS
 62
     4
100
AcDbLine
 10
693.612952
 20
476.116183
 30
0.0
 11
693.612952
 21
471.316183
 31
0.0
  0
LINE
  5
18B
100
AcDbEntity
  8
DIMS
 62
     4
100
AcDbLine
 10
691.912952
 20
479.516183
 30
0.0
 11
695.312952
 21
479.516183
 31
0.0
  0
LINE
  5
18C
100
AcDbEntity
  8
DIMS
 62
     4
100
AcDbLine
 10
693.612952
 20
477.816183
 30
0.0
 11
693.612952
 21
481.216183
 31
0.0
  0
CIRCLE
  5
18D
100
AcDbEntity
  8
M04
100
AcDbCircle
 10
693.612952
 20
479.516183
 30
0.0
 40
6.5
  0
LINE
  5
18E
100
AcDbEntity
  8
DIMS
 62
     4
100
AcDbLine
 10
622.902274
 20
405.405505
 30
0.0
 11
622.902274
 21
400.605505
 31
0.0
  0
LINE
  5
18F
100
AcDbEntity
  8
DIMS
 62
     4
100
AcDbLine
 10
622.902274
 20
412.205505
 30
0.0
 11
622.902274
 21
417.005505
 31
0.0
  0
LINE
  5
190
100
AcDbEntity
  8
DIMS
 62
     4
100
AcDbLine
 10
619.502274
 20
408.805505
 30
0.0
 11
614.702274
 21
408.805505
 31
0.0
  0
LINE
  5
191
100
AcDbEntity
  8
DIMS
 62
     4
100
AcDbLine
 10
626.302274
 20
408.805505
 30
0.0
 11
631.102274
 21
408.805505
 31
0.0
  0
LINE
  5
192
100
AcDbEntity
  8
DIMS
 62
     4
100
AcDbLine
 10
622.902274
 20
410.505505
 30
0.0
 11
622.902274
 21
407.105505
 31
0.0
  0
LINE
  5
193
100
AcDbEntity
  8
DIMS
 62
     4
100
AcDbLine
 10
624.602274
 20
408.805505
 30
0.0
 11
621.202274
 21
408.805505
 31
0.0
  0
CIRCLE
  5
194
100
AcDbEntity
  8
M04
100
AcDbCircle
 10
622.902274
 20
408.805505
 30
0.0
 40
6.5
  0
LINE
  5
195
100
AcDbEntity
  8
M04
100
AcDbLine
 10
702.806534
 20
454.766252
 30
0.0
 11
663.947475
 21
493.62531
 31
0.0
  0
LINE
  5
196
100
AcDbEntity
  8
M04
100
AcDbLine
 10
647.652205
 20
399.611923
 30
0.0
 11
561.793146
 21
485.470981
 31
0.0
  0
LINE
  5
197
100
AcDbEntity
  8
M01
100
AcDbLine
 10
694.257613
 20
453.415678
 30
0.0
 11
658.997728
 21
488.675563
 31
0.0
  0
LINE
  5
198
100
AcDbEntity
  8
M01
100
AcDbLine
 10
649.002779
 20
408.160844
 30
0.0
 11
566.742894
 21
490.420729
 31
0.0
  0
LINE
  5
199
100
AcDbEntity
  8
M01
100
AcDbLine
 10
694.257613
 20
434.903622
 30
0.0
 11
694.257613
 21
453.415678
 31
0.0
  0
LINE
  5
19A
100
AcDbEntity
  8
M01
100
AcDbLine
 10
667.514834
 20
408.160844
 30
0.0
 11
649.002779
 21
408.160844
 31
0.0
  0
CIRCLE
  5
19B
100
AcDbEntity
  8
M03
100
AcDbCircle
 10
658.257613
 20
444.160844
 30
0.0
 40
25.0
  0
CIRCLE
  5
19C
100
AcDbEntity
  8
M03
100
AcDbCircle
 10
658.257613
 20
444.160844
 30
0.0
 40
24.0
  0
CIRCLE
  5
19D
100
AcDbEntity
  8
M03
100
AcDbCircle
 10
658.257613
 20
444.160844
 30
0.0
 40
2.3
  0
ARC
  5
19E
100
AcDbEntity
  8
M03
100
AcDbCircle
 10
658.257613
 20
444.160844
 30
0.0
 40
3.0
100
AcDbArc
 50
347.784636
 51
276.923103
  0
LINE
  5
19F
100
AcDbEntity
  8
M03
100
AcDbLine
 10
657.707613
 20
450.135582
 30
0.0
 11
657.707613
 21
438.186105
 31
0.0
  0
LINE
  5
1A0
100
AcDbEntity
  8
M03
100
AcDbLine
 10
658.807613
 20
450.135582
 30
0.0
 11
658.807613
 21
438.186105
 31
0.0
  0
CIRCLE
  5
1A1
100
AcDbEntity
  8
M03
100
AcDbCircle
 10
658.257613
 20
444.160844
 30
0.0
 40
7.858882
  0
CIRCLE
  5
1A2
100
AcDbEntity
  8
M03
100
AcDbCircle
 10
658.257613
 20
444.160844
 30
0.0
 40
6.0
  0
CIRCLE
  5
1A3
100
AcDbEntity
  8
M01
100
AcDbCircle
 10
658.257613
 20
444.160844
 30
0.0
 40
4.0
  0
LINE
  5
1A4
100
AcDbEntity
  8
DIMS
 62
     4
100
AcDbLine
 10
619.502274
 20
608.805505
 30
0.0
 11
614.702274
 21
608.805505
 31
0.0
  0
LINE
  5
1A5
100
AcDbEntity
  8
DIMS
 62
     4
100
AcDbLine
 10
626.302274
 20
608.805505
 30
0.0
 11
631.102274
 21
608.805505
 31
0.0
  0
LINE
  5
1A6
100
AcDbEntity
  8
DIMS
 62
     4
100
AcDbLine
 10
622.902274
 20
605.405505
 30
0.0
 11
622.902274
 21
600.605505
 31
0.0
  0
LINE
  5
1A7
100
AcDbEntity
  8
DIMS
 62
     4
100
AcDbLine
 10
622.902274
 20
612.205505
 30
0.0
 11
622.902274
 21
617.005505
 31
0.0
  0
LINE
  5
1A8
100
AcDbEntity
  8
DIMS
 62
     4
100
AcDbLine
 10
624.602274
 20
608.805505
 30
0.0
 11
621.202274
 21
608.805505
 31
0.0
  0
LINE
  5
1A9
100
AcDbEntity
  8
DIMS
 62
     4
100
AcDbLine
 10
622.902274
 20
610.505505
 30
0.0
 11
622.902274
 21
607.105505
 31
0.0
  0
CIRCLE
  5
1AA
100
AcDbEntity
  8
M04
100
AcDbCircle
 10
622.902274
 20
608.805505
 30
0.0
 40
6.5
  0
LINE
  5
1AB
100
AcDbEntity
  8
DIMS
 62
     4
100
AcDbLine
 10
419.502274
 20
479.516183
 30
0.0
 11
414.702274
 21
479.516183
 31
0.0
  0
LINE
  5
1AC
100
AcDbEntity
  8
DIMS
 62
     4
100
AcDbLine
 10
426.302274
 20
479.516183
 30
0.0
 11
431.102274
 21
479.516183
 31
0.0
  0
LINE
  5
1AD
100
AcDbEntity
  8
DIMS
 62
     4
100
AcDbLine
 10
422.902274
 20
482.916183
 30
0.0
 11
422.902274
 21
487.716183
 31
0.0
  0
LINE
  5
1AE
100
AcDbEntity
  8
DIMS
 62
     4
100
AcDbLine
 10
422.902274
 20
476.116183
 30
0.0
 11
422.902274
 21
471.316183
 31
0.0
  0
LINE
  5
1AF
100
AcDbEntity
  8
DIMS
 62
     4
100
AcDbLine
 10
424.602274
 20
479.516183
 30
0.0
 11
421.202274
 21
479.516183
 31
0.0
  0
LINE
  5
1B0
100
AcDbEntity
  8
DIMS
 62
     4
100
AcDbLine
 10
422.902274
 20
477.816183
 30
0.0
 11
422.902274
 21
481.216183
 31
0.0
  0
CIRCLE
  5
1B1
100
AcDbEntity
  8
M04
100
AcDbCircle
 10
422.902274
 20
479.516183
 30
0.0
 40
6.5
  0
LINE
  5
1B2
100
AcDbEntity
  8
DIMS
 62
     4
100
AcDbLine
 10
493.612952
 20
405.405505
 30
0.0
 11
493.612952
 21
400.605505
 31
0.0
  0
LINE
  5
1B3
100
AcDbEntity
  8
DIMS
 62
     4
100
AcDbLine
 10
493.612952
 20
412.205505
 30
0.0
 11
493.612952
 21
417.005505
 31
0.0
  0
LINE
  5
1B4
100
AcDbEntity
  8
DIMS
 62
     4
100
AcDbLine
 10
497.012952
 20
408.805505
 30
0.0
 11
501.812952
 21
408.805505
 31
0.0
  0
LINE
  5
1B5
100
AcDbEntity
  8
DIMS
 62
     4
100
AcDbLine
 10
490.212952
 20
408.805505
 30
0.0
 11
485.412952
 21
408.805505
 31
0.0
  0
LINE
  5
1B6
100
AcDbEntity
  8
DIMS
 62
     4
100
AcDbLine
 10
493.612952
 20
410.505505
 30
0.0
 11
493.612952
 21
407.105505
 31
0.0
  0
LINE
  5
1B7
100
AcDbEntity
  8
DIMS
 62
     4
100
AcDbLine
 10
491.912952
 20
408.805505
 30
0.0
 11
495.312952
 21
408.805505
 31
0.0
  0
CIRCLE
  5
1B8
100
AcDbEntity
  8
M04
100
AcDbCircle
 10
493.612952
 20
408.805505
 30
0.0
 40
6.5
  0
LINE
  5
1B9
100
AcDbEntity
  8
M04
100
AcDbLine
 10
413.708692
 20
454.766252
 30
0.0
 11
462.56775
 21
503.62531
 31
0.0
  0
LINE
  5
1BA
100
AcDbEntity
  8
M04
100
AcDbLine
 10
468.86302
 20
399.611923
 30
0.0
 11
554.722079
 21
485.470981
 31
0.0
  0
LINE
  5
1BB
100
AcDbEntity
  8
M01
100
AcDbLine
 10
422.257613
 20
453.415678
 30
0.0
 11
470.517497
 21
501.675563
 31
0.0
  0
LINE
  5
1BC
100
AcDbEntity
  8
M01
100
AcDbLine
 10
467.512447
 20
408.160844
 30
0.0
 11
549.772331
 21
490.420729
 31
0.0
  0
LINE
  5
1BD
100
AcDbEntity
  8
M01
100
AcDbLine
 10
422.257613
 20
434.903622
 30
0.0
 11
422.257613
 21
453.415678
 31
0.0
  0
LINE
  5
1BE
100
AcDbEntity
  8
M01
100
AcDbLine
 10
449.000391
 20
408.160844
 30
0.0
 11
467.512447
 21
408.160844
 31
0.0
  0
CIRCLE
  5
1BF
100
AcDbEntity
  8
M03
100
AcDbCircle
 10
458.257613
 20
444.160844
 30
0.0
 40
25.0
  0
CIRCLE
  5
1C0
100
AcDbEntity
  8
M03
100
AcDbCircle
 10
458.257613
 20
444.160844
 30
0.0
 40
24.0
  0
CIRCLE
  5
1C1
100
AcDbEntity
  8
M03
100
AcDbCircle
 10
458.257613
 20
444.160844
 30
0.0
 40
2.3
  0
ARC
  5
1C2
100
AcDbEntity
  8
M03
100
AcDbCircle
 10
458.257613
 20
444.160844
 30
0.0
 40
3.0
100
AcDbArc
 50
263.076897
 51
192.215364
  0
LINE
  5
1C3
100
AcDbEntity
  8
M03
100
AcDbLine
 10
458.807613
 20
450.135582
 30
0.0
 11
458.807613
 21
438.186105
 31
0.0
  0
LINE
  5
1C4
100
AcDbEntity
  8
M03
100
AcDbLine
 10
457.707613
 20
450.135582
 30
0.0
 11
457.707613
 21
438.186105
 31
0.0
  0
CIRCLE
  5
1C5
100
AcDbEntity
  8
M03
100
AcDbCircle
 10
458.257613
 20
444.160844
 30
0.0
 40
7.858882
  0
CIRCLE
  5
1C6
100
AcDbEntity
  8
M03
100
AcDbCircle
 10
458.257613
 20
444.160844
 30
0.0
 40
6.0
  0
CIRCLE
  5
1C7
100
AcDbEntity
  8
M01
100
AcDbCircle
 10
458.257613
 20
444.160844
 30
0.0
 40
4.0
  0
LINE
  5
1C8
100
AcDbEntity
  8
M04
100
AcDbLine
 10
613.708692
 20
633.555436
 30
0.0
 11
652.56775
 21
594.696378
 31
0.0
  0
LINE
  5
1C9
100
AcDbEntity
  8
M04
100
AcDbLine
 10
668.86302
 20
688.709765
 30
0.0
 11
754.722079
 21
602.850707
 31
0.0
  0
LINE
  5
1CA
100
AcDbEntity
  8
M01
100
AcDbLine
 10
622.257613
 20
634.90601
 30
0.0
 11
657.517497
 21
599.646125
 31
0.0
  0
LINE
  5
1CB
100
AcDbEntity
  8
M01
100
AcDbLine
 10
667.512447
 20
680.160844
 30
0.0
 11
749.772331
 21
597.900959
 31
0.0
  0
LINE
  5
1CC
100
AcDbEntity
  8
M01
100
AcDbLine
 10
622.257613
 20
653.418065
 30
0.0
 11
622.257613
 21
634.90601
 31
0.0
  0
LINE
  5
1CD
100
AcDbEntity
  8
M01
100
AcDbLine
 10
649.000391
 20
680.160844
 30
0.0
 11
667.512447
 21
680.160844
 31
0.0
  0
LINE
  5
1CE
100
AcDbEntity
  8
DIMS
 62
     4
100
AcDbLine
 10
693.612952
 20
682.916183
 30
0.0
 11
693.612952
 21
687.716183
 31
0.0
  0
LINE
  5
1CF
100
AcDbEntity
  8
DIMS
 62
     4
100
AcDbLine
 10
693.612952
 20
676.116183
 30
0.0
 11
693.612952
 21
671.316183
 31
0.0
  0
LINE
  5
1D0
100
AcDbEntity
  8
DIMS
 62
     4
100
AcDbLine
 10
697.012952
 20
679.516183
 30
0.0
 11
701.812952
 21
679.516183
 31
0.0
  0
LINE
  5
1D1
100
AcDbEntity
  8
DIMS
 62
     4
100
AcDbLine
 10
690.212952
 20
679.516183
 30
0.0
 11
685.412952
 21
679.516183
 31
0.0
  0
LINE
  5
1D2
100
AcDbEntity
  8
DIMS
 62
     4
100
AcDbLine
 10
693.612952
 20
677.816183
 30
0.0
 11
693.612952
 21
681.216183
 31
0.0
  0
LINE
  5
1D3
100
AcDbEntity
  8
DIMS
 62
     4
100
AcDbLine
 10
691.912952
 20
679.516183
 30
0.0
 11
695.312952
 21
679.516183
 31
0.0
  0
CIRCLE
  5
1D4
100
AcDbEntity
  8
M03
100
AcDbCircle
 10
658.257613
 20
644.160844
 30
0.0
 40
25.0
  0
CIRCLE
  5
1D5
100
AcDbEntity
  8
M03
100
AcDbCircle
 10
658.257613
 20
644.160844
 30
0.0
 40
24.0
  0
CIRCLE
  5
1D6
100
AcDbEntity
  8
M04
100
AcDbCircle
 10
693.612952
 20
679.516183
 30
0.0
 40
6.5
  0
CIRCLE
  5
1D7
100
AcDbEntity
  8
M03
100
AcDbCircle
 10
658.257613
 20
644.160844
 30
0.0
 40
2.3
  0
ARC
  5
1D8
100
AcDbEntity
  8
M03
100
AcDbCircle
 10
658.257613
 20
644.160844
 30
0.0
 40
3.0
100
AcDbArc
 50
167.784636
 51
96.923103
  0
LINE
  5
1D9
100
AcDbEntity
  8
M03
100
AcDbLine
 10
658.807613
 20
638.186105
 30
0.0
 11
658.807613
 21
650.135582
 31
0.0
  0
LINE
  5
1DA
100
AcDbEntity
  8
M03
100
AcDbLine
 10
657.707613
 20
638.186105
 30
0.0
 11
657.707613
 21
650.135582
 31
0.0
  0
CIRCLE
  5
1DB
100
AcDbEntity
  8
M03
100
AcDbCircle
 10
658.257613
 20
644.160844
 30
0.0
 40
7.858882
  0
CIRCLE
  5
1DC
100
AcDbEntity
  8
M03
100
AcDbCircle
 10
658.257613
 20
644.160844
 30
0.0
 40
6.0
  0
CIRCLE
  5
1DD
100
AcDbEntity
  8
M01
100
AcDbCircle
 10
658.257613
 20
644.160844
 30
0.0
 40
4.0
  0
LINE
  5
1DE
100
AcDbEntity
  8
DIMS
 62
     4
100
AcDbLine
 10
419.502274
 20
608.805505
 30
0.0
 11
414.702274
 21
608.805505
 31
0.0
  0
LINE
  5
1DF
100
AcDbEntity
  8
DIMS
 62
     4
100
AcDbLine
 10
426.302274
 20
608.805505
 30
0.0
 11
431.102274
 21
608.805505
 31
0.0
  0
LINE
  5
1E0
100
AcDbEntity
  8
DIMS
 62
     4
100
AcDbLine
 10
422.902274
 20
605.405505
 30
0.0
 11
422.902274
 21
600.605505
 31
0.0
  0
LINE
  5
1E1
100
AcDbEntity
  8
DIMS
 62
     4
100
AcDbLine
 10
422.902274
 20
612.205505
 30
0.0
 11
422.902274
 21
617.005505
 31
0.0
  0
LINE
  5
1E2
100
AcDbEntity
  8
DIMS
 62
     4
100
AcDbLine
 10
424.602274
 20
608.805505
 30
0.0
 11
421.202274
 21
608.805505
 31
0.0
  0
LINE
  5
1E3
100
AcDbEntity
  8
DIMS
 62
     4
100
AcDbLine
 10
422.902274
 20
610.505505
 30
0.0
 11
422.902274
 21
607.105505
 31
0.0
  0
CIRCLE
  5
1E4
100
AcDbEntity
  8
M04
100
AcDbCircle
 10
422.902274
 20
608.805505
 30
0.0
 40
6.5
  0
LINE
  5
1E5
100
AcDbEntity
  8
M04
100
AcDbLine
 10
413.708692
 20
633.555436
 30
0.0
 11
462.56775
 21
584.696378
 31
0.0
  0
LINE
  5
1E6
100
AcDbEntity
  8
M04
100
AcDbLine
 10
468.86302
 20
688.709765
 30
0.0
 11
569.947475
 21
587.62531
 31
0.0
  0
LINE
  5
1E7
100
AcDbEntity
  8
M01
100
AcDbLine
 10
422.257613
 20
634.90601
 30
0.0
 11
470.517497
 21
586.646125
 31
0.0
  0
LINE
  5
1E8
100
AcDbEntity
  8
M01
100
AcDbLine
 10
467.512447
 20
680.160844
 30
0.0
 11
564.997728
 21
582.675563
 31
0.0
  0
LINE
  5
1E9
100
AcDbEntity
  8
M01
100
AcDbLine
 10
422.257613
 20
653.418065
 30
0.0
 11
422.257613
 21
634.90601
 31
0.0
  0
LINE
  5
1EA
100
AcDbEntity
  8
M01
100
AcDbLine
 10
449.000391
 20
680.160844
 30
0.0
 11
467.512447
 21
680.160844
 31
0.0
  0
LINE
  5
1EB
100
AcDbEntity
  8
DIMS
 62
     4
100
AcDbLine
 10
493.612952
 20
682.916183
 30
0.0
 11
493.612952
 21
687.716183
 31
0.0
  0
LINE
  5
1EC
100
AcDbEntity
  8
DIMS
 62
     4
100
AcDbLine
 10
493.612952
 20
676.116183
 30
0.0
 11
493.612952
 21
671.316183
 31
0.0
  0
LINE
  5
1ED
100
AcDbEntity
  8
DIMS
 62
     4
100
AcDbLine
 10
497.012952
 20
679.516183
 30
0.0
 11
501.812952
 21
679.516183
 31
0.0
  0
LINE
  5
1EE
100
AcDbEntity
  8
DIMS
 62
     4
100
AcDbLine
 10
490.212952
 20
679.516183
 30
0.0
 11
485.412952
 21
679.516183
 31
0.0
  0
LINE
  5
1EF
100
AcDbEntity
  8
DIMS
 62
     4
100
AcDbLine
 10
493.612952
 20
677.816183
 30
0.0
 11
493.612952
 21
681.216183
 31
0.0
  0
LINE
  5
1F0
100
AcDbEntity
  8
DIMS
 62
     4
100
AcDbLine
 10
491.912952
 20
679.516183
 30
0.0
 11
495.312952
 21
679.516183
 31
0.0
  0
CIRCLE
  5
1F1
100
AcDbEntity
  8
M03
100
AcDbCircle
 10
458.257613
 20
644.160844
 30
0.0
 40
25.0
  0
CIRCLE
  5
1F2
100
AcDbEntity
  8
M03
100
AcDbCircle
 10
458.257613
 20
644.160844
 30
0.0
 40
24.0
  0
CIRCLE
  5
1F3
100
AcDbEntity
  8
M04
100
AcDbCircle
 10
493.612952
 20
679.516183
 30
0.0
 40
6.5
  0
HATCH
  5
1F4
100
AcDbEntity
  8
M03
100
AcDbHatch
 10
0.0
 20
0.0
 30
0.0
210
0.0
220
0.0
230
1.0
  2
_U
 70
     0
 71
     0
 91
        1
 92
        7
 72
     0
 73
     1
 93
        4
 10
485.8946482969249
 20
656.2632092570622
 10
465.2199353733886
 20
676.9379221805984
 10
466.5634382576429
 20
678.281425064853
 10
487.2381511811793
 20
657.6067121413164
 97
        0
 75
     0
 76
     0
 52
285.0
 41
0.7
 77
     0
 78
     1
 53
345.0
 43
424.60196
 44
1289.547621
 45
-0.1811733315717643
 46
-0.676148078402348
 79
     0
 47
0.060863
 98
        1
 10
484.124236
 20
659.712902
  0
HATCH
  5
1F5
100
AcDbEntity
  8
M03
100
AcDbHatch
 10
0.0
 20
0.0
 30
0.0
210
0.0
220
0.0
230
1.0
  2
_U
 70
     0
 71
     0
 91
        1
 92
        7
 72
     0
 73
     1
 93
        4
 10
485.8946482969249
 20
656.263209257062
 10
465.2199353733884
 20
676.9379221805985
 10
466.5634382576429
 20
678.281425064853
 10
487.2381511811793
 20
657.6067121413164
 97
        0
 75
     0
 76
     0
 52
-15.0
 41
0.7
 77
     0
 78
     1
 53
285.0
 43
424.60196
 44
1289.547621
 45
-0.6761480784023478
 46
-0.1811733315717645
 79
     0
 47
0.060863
 98
        1
 10
483.822927
 20
659.669918
  0
LINE
  5
1F6
100
AcDbEntity
  8
M03
100
AcDbLine
 10
488.020963
 20
634.90359
 30
0.0
 11
485.455646
 21
635.590965
 31
0.0
  0
LINE
  5
1F7
100
AcDbEntity
  8
M03
100
AcDbLine
 10
484.768272
 20
638.156282
 30
0.0
 11
485.455646
 21
635.590965
 31
0.0
  0
LINE
  5
1F8
100
AcDbEntity
  8
M03
100
AcDbLine
 10
484.768272
 20
638.156282
 30
0.0
 11
488.020963
 21
634.90359
 31
0.0
  0
LINE
  5
1F9
100
AcDbEntity
  8
M03
100
AcDbLine
 10
485.333957
 20
639.711916
 30
0.0
 11
489.576598
 21
635.469276
 31
0.0
  0
LINE
  5
1FA
100
AcDbEntity
  8
M03
100
AcDbLine
 10
485.894648
 20
656.263209
 30
0.0
 11
465.219935
 21
676.937922
 31
0.0
  0
LINE
  5
1FB
100
AcDbEntity
  8
M03
100
AcDbLine
 10
487.238151
 20
657.606712
 30
0.0
 11
466.563438
 21
678.281425
 31
0.0
  0
LINE
  5
1FC
100
AcDbEntity
  8
M03
100
AcDbLine
 10
490.632264
 20
651.10133
 30
0.0
 11
500.748885
 21
640.984709
 31
0.0
  0
LINE
  5
1FD
100
AcDbEntity
  8
M03
100
AcDbLine
 10
489.327818
 20
651.274404
 30
0.0
 11
489.893504
 21
651.84009
 31
0.0
  0
LINE
  5
1FE
100
AcDbEntity
  8
M03
100
AcDbLine
 10
485.682516
 20
656.051077
 30
0.0
 11
487.450283
 21
657.818844
 31
0.0
  0
LINE
  5
1FF
100
AcDbEntity
  8
M03
100
AcDbLine
 10
487.450283
 20
657.818844
 30
0.0
 11
492.400031
 21
652.869097
 31
0.0
  0
LINE
  5
200
100
AcDbEntity
  8
M03
100
AcDbLine
 10
490.632264
 20
651.10133
 30
0.0
 11
492.400031
 21
652.869097
 31
0.0
  0
LINE
  5
201
100
AcDbEntity
  8
M03
100
AcDbLine
 10
500.183199
 20
640.419023
 30
0.0
 11
500.748885
 21
640.984709
 31
0.0
  0
ARC
  5
202
100
AcDbEntity
  8
M03
100
AcDbCircle
 10
494.012889
 20
644.148208
 30
0.0
 40
5.826136
100
AcDbArc
 50
340.69541
 51
109.30459
  0
LINE
  5
203
100
AcDbEntity
  8
M03
100
AcDbLine
 10
491.344365
 20
637.237043
 30
0.0
 11
490.354415
 21
637.237043
 31
0.0
  0
LINE
  5
204
100
AcDbEntity
  8
M03
100
AcDbLine
 10
487.101724
 20
641.479683
 30
0.0
 11
487.101724
 21
640.489734
 31
0.0
  0
LINE
  5
205
100
AcDbEntity
  8
M03
100
AcDbLine
 10
487.101724
 20
641.479683
 30
0.0
 11
491.344365
 21
637.237043
 31
0.0
  0
LINE
  5
206
100
AcDbEntity
  8
M03
100
AcDbLine
 10
487.101724
 20
640.489734
 30
0.0
 11
490.354415
 21
637.237043
 31
0.0
  0
LINE
  5
207
100
AcDbEntity
  8
M03
100
AcDbLine
 10
497.354772
 20
643.24745
 30
0.0
 11
502.30452
 21
638.297703
 31
0.0
  0
LINE
  5
208
100
AcDbEntity
  8
M03
100
AcDbLine
 10
485.546089
 20
655.056134
 30
0.0
 11
486.111774
 21
655.621819
 31
0.0
  0
LINE
  5
209
100
AcDbEntity
  8
M03
100
AcDbLine
 10
497.849747
 20
642.752476
 30
0.0
 11
498.415432
 21
643.318161
 31
0.0
  0
LINE
  5
20A
100
AcDbEntity
  8
M03
100
AcDbLine
 10
488.020963
 20
634.90359
 30
0.0
 11
497.425483
 21
644.308111
 31
0.0
  0
LINE
  5
20B
100
AcDbEntity
  8
M03
100
AcDbLine
 10
484.768272
 20
638.156282
 30
0.0
 11
494.172792
 21
647.560802
 31
0.0
  0
LINE
  5
20C
100
AcDbEntity
  8
M03
100
AcDbLine
 10
485.333957
 20
639.711916
 30
0.0
 11
493.677817
 21
648.055776
 31
0.0
  0
LINE
  5
20D
100
AcDbEntity
  8
M03
100
AcDbLine
 10
489.576598
 20
635.469276
 30
0.0
 11
497.920458
 21
643.813136
 31
0.0
  0
LINE
  5
20E
100
AcDbEntity
  8
M03
100
AcDbLine
 10
485.682516
 20
656.051077
 30
0.0
 11
489.893504
 21
651.84009
 31
0.0
  0
LINE
  5
20F
100
AcDbEntity
  8
M03
100
AcDbLine
 10
502.30452
 20
638.297703
 30
0.0
 11
505.840054
 21
641.833237
 31
0.0
  0
LINE
  5
210
100
AcDbEntity
  8
M03
100
AcDbLine
 10
460.441379
 20
680.160844
 30
0.0
 11
493.112132
 21
647.490091
 31
0.0
  0
LINE
  5
211
100
AcDbEntity
  8
CENTRE
100
AcDbLine
 10
482.365047
 20
632.500365
 30
0.0
 11
501.570173
 21
651.705492
 31
0.0
  0
LINE
  5
212
100
AcDbEntity
  8
M03
100
AcDbLine
 10
461.08604
 20
646.989271
 30
0.0
 11
661.08604
 21
446.989271
 31
0.0
  0
LINE
  5
213
100
AcDbEntity
  8
M03
100
AcDbLine
 10
455.429185
 20
641.332417
 30
0.0
 11
552.600758
 21
544.160844
 31
0.0
  0
LINE
  5
214
100
AcDbEntity
  8
CENTRE
100
AcDbLine
 10
437.044409
 20
665.374047
 30
0.0
 11
679.470816
 21
422.94764
 31
0.0
  0
LINE
  5
215
100
AcDbEntity
  8
M03
100
AcDbLine
 10
763.914467
 20
544.160844
 30
0.0
 11
861.08604
 21
446.989271
 31
0.0
  0
LINE
  5
216
100
AcDbEntity
  8
M03
100
AcDbLine
 10
461.08604
 20
441.332417
 30
0.0
 11
558.257613
 21
538.50399
 31
0.0
  0
LINE
  5
217
100
AcDbEntity
  8
M03
100
AcDbLine
 10
455.429185
 20
446.989271
 30
0.0
 11
552.600758
 21
544.160844
 31
0.0
  0
LINE
  5
218
100
AcDbEntity
  8
CENTRE
100
AcDbLine
 10
437.044409
 20
422.94764
 30
0.0
 11
558.257613
 21
544.160844
 31
0.0
  0
LINE
  5
219
100
AcDbEntity
  8
M04
100
AcDbLine
 10
573.483009
 20
586.160844
 30
0.0
 11
649.032216
 21
586.160844
 31
0.0
  0
LINE
  5
21A
100
AcDbEntity
  8
M03
100
AcDbLine
 10
558.257613
 20
540.160844
 30
0.0
 11
758.257613
 21
540.160844
 31
0.0
  0
LINE
  5
21B
100
AcDbEntity
  8
M03
100
AcDbLine
 10
558.257613
 20
548.160844
 30
0.0
 11
758.257613
 21
548.160844
 31
0.0
  0
LINE
  5
21C
100
AcDbEntity
  8
DIMS
100
AcDbLine
 10
876.188449
 20
697.30877
 30
0.0
 11
893.796994
 21
679.700225
 31
0.0
  0
INSERT
  5
21D
100
AcDbEntity
  8
DIMS
100
AcDbBlockReference
  2
ARROW1
 10
876.188449
 20
697.30877
 30
0.0
 41
10.0
 42
10.0
 43
10.0
 50
135.0
  0
LINE
  5
224
100
AcDbEntity
  8
DIMS
100
AcDbLine
 10
302.635032
 20
569.063087
 30
0.0
 11
302.635032
 21
544.160844
 31
0.0
  0
INSERT
  5
225
100
AcDbEntity
  8
DIMS
100
AcDbBlockReference
  2
ARROW1
 10
302.635032
 20
569.063087
 30
0.0
 41
10.0
 42
10.0
 43
10.0
 50
90.0
  0
LINE
  5
226
100
AcDbEntity
  8
M04
100
AcDbLine
 10
967.257613
 20
576.160844
 30
0.0
 11
857.483009
 21
576.160844
 31
0.0
  0
LINE
  5
227
100
AcDbEntity
  8
M01
100
AcDbLine
 10
944.201713
 20
559.410844
 30
0.0
 11
944.201713
 21
552.910844
 31
0.0
  0
LINE
  5
228
100
AcDbEntity
  8
M01
100
AcDbLine
 10
952.313512
 20
559.410844
 30
0.0
 11
952.313512
 21
552.910844
 31
0.0
  0
LINE
  5
229
100
AcDbEntity
  8
M01
100
AcDbLine
 10
944.201713
 20
559.410844
 30
0.0
 11
942.257613
 21
559.410844
 31
0.0
  0
ARC
  5
22A
100
AcDbEntity
  8
M01
100
AcDbCircle
 10
945.762962
 20
560.660844
 30
0.0
 40
2.0
100
AcDbArc
 50
218.682187
 51
270.0
  0
ARC
  5
22B
100
AcDbEntity
  8
M01
100
AcDbCircle
 10
950.752263
 20
560.660844
 30
0.0
 40
2.0
100
AcDbArc
 50
270.0
 51
321.317813
  0
LINE
  5
22C
100
AcDbEntity
  8
M01
100
AcDbLine
 10
954.257613
 20
559.410844
 30
0.0
 11
952.313512
 21
559.410844
 31
0.0
  0
LINE
  5
22D
100
AcDbEntity
  8
M01
100
AcDbLine
 10
950.752263
 20
558.660844
 30
0.0
 11
945.762962
 21
558.660844
 31
0.0
  0
LINE
  5
22E
100
AcDbEntity
  8
M01
100
AcDbLine
 10
944.201713
 20
552.910844
 30
0.0
 11
942.257613
 21
552.910844
 31
0.0
  0
ARC
  5
22F
100
AcDbEntity
  8
M01
100
AcDbCircle
 10
945.762962
 20
551.660844
 30
0.0
 40
2.0
100
AcDbArc
 50
90.0
 51
141.317813
  0
ARC
  5
230
100
AcDbEntity
  8
M01
100
AcDbCircle
 10
950.752263
 20
551.660844
 30
0.0
 40
2.0
100
AcDbArc
 50
38.682187
 51
90.0
  0
LINE
  5
231
100
AcDbEntity
  8
M01
100
AcDbLine
 10
954.257613
 20
552.910844
 30
0.0
 11
952.313512
 21
552.910844
 31
0.0
  0
LINE
  5
232
100
AcDbEntity
  8
M01
100
AcDbLine
 10
950.752263
 20
553.660844
 30
0.0
 11
945.762962
 21
553.660844
 31
0.0
  0
LINE
  5
233
100
AcDbEntity
  8
M01
100
AcDbLine
 10
954.257613
 20
551.660844
 30
0.0
 11
954.257613
 21
560.660844
 31
0.0
  0
LINE
  5
234
100
AcDbEntity
  8
M01
100
AcDbLine
 10
955.057613
 20
560.660844
 30
0.0
 11
954.257613
 21
560.660844
 31
0.0
  0
LINE
  5
235
100
AcDbEntity
  8
M01
100
AcDbLine
 10
955.057613
 20
551.660844
 30
0.0
 11
954.257613
 21
551.660844
 31
0.0
  0
LINE
  5
236
100
AcDbEntity
  8
M01
100
AcDbLine
 10
944.201713
 20
528.910844
 30
0.0
 11
944.201713
 21
535.410844
 31
0.0
  0
LINE
  5
237
100
AcDbEntity
  8
M01
100
AcDbLine
 10
952.313512
 20
528.910844
 30
0.0
 11
952.313512
 21
535.410844
 31
0.0
  0
LINE
  5
238
100
AcDbEntity
  8
M01
100
AcDbLine
 10
944.201713
 20
528.910844
 30
0.0
 11
942.257613
 21
528.910844
 31
0.0
  0
ARC
  5
239
100
AcDbEntity
  8
M01
100
AcDbCircle
 10
945.762962
 20
527.660844
 30
0.0
 40
2.0
100
AcDbArc
 50
90.0
 51
141.317813
  0
ARC
  5
23A
100
AcDbEntity
  8
M01
100
AcDbCircle
 10
950.752263
 20
527.660844
 30
0.0
 40
2.0
100
AcDbArc
 50
38.682187
 51
90.0
  0
LINE
  5
23B
100
AcDbEntity
  8
M01
100
AcDbLine
 10
954.257613
 20
528.910844
 30
0.0
 11
952.313512
 21
528.910844
 31
0.0
  0
LINE
  5
23C
100
AcDbEntity
  8
M01
100
AcDbLine
 10
950.752263
 20
529.660844
 30
0.0
 11
945.762962
 21
529.660844
 31
0.0
  0
LINE
  5
23D
100
AcDbEntity
  8
M01
100
AcDbLine
 10
944.201713
 20
535.410844
 30
0.0
 11
942.257613
 21
535.410844
 31
0.0
  0
ARC
  5
23E
100
AcDbEntity
  8
M01
100
AcDbCircle
 10
945.762962
 20
536.660844
 30
0.0
 40
2.0
100
AcDbArc
 50
218.682187
 51
270.0
  0
ARC
  5
23F
100
AcDbEntity
  8
M01
100
AcDbCircle
 10
950.752263
 20
536.660844
 30
0.0
 40
2.0
100
AcDbArc
 50
270.0
 51
321.317813
  0
LINE
  5
240
100
AcDbEntity
  8
M01
100
AcDbLine
 10
954.257613
 20
535.410844
 30
0.0
 11
952.313512
 21
535.410844
 31
0.0
  0
LINE
  5
241
100
AcDbEntity
  8
M01
100
AcDbLine
 10
950.752263
 20
534.660844
 30
0.0
 11
945.762962
 21
534.660844
 31
0.0
  0
LINE
  5
242
100
AcDbEntity
  8
M01
100
AcDbLine
 10
937.257613
 20
561.160844
 30
0.0
 11
937.257613
 21
551.160844
 31
0.0
  0
LINE
  5
243
100
AcDbEntity
  8
M01
100
AcDbLine
 10
937.257613
 20
527.160844
 30
0.0
 11
937.257613
 21
537.160844
 31
0.0
  0
LINE
  5
244
100
AcDbEntity
  8
M01
100
AcDbLine
 10
942.257613
 20
527.160844
 30
0.0
 11
922.257613
 21
527.160844
 31
0.0
  0
LINE
  5
245
100
AcDbEntity
  8
M01
100
AcDbLine
 10
942.257613
 20
537.160844
 30
0.0
 11
922.257613
 21
537.160844
 31
0.0
  0
LINE
  5
246
100
AcDbEntity
  8
M01
100
AcDbLine
 10
942.257613
 20
551.160844
 30
0.0
 11
922.257613
 21
551.160844
 31
0.0
  0
LINE
  5
247
100
AcDbEntity
  8
M01
100
AcDbLine
 10
942.257613
 20
561.160844
 30
0.0
 11
922.257613
 21
561.160844
 31
0.0
  0
LINE
  5
248
100
AcDbEntity
  8
M01
100
AcDbLine
 10
964.157613
 20
559.191933
 30
0.0
 11
964.157613
 21
553.129755
 31
0.0
  0
ARC
  5
249
100
AcDbEntity
  8
M01
100
AcDbCircle
 10
962.308307
 20
553.129755
 30
0.0
 40
1.150694
100
AcDbArc
 50
118.592423
 51
241.407577
  0
ARC
  5
24A
100
AcDbEntity
  8
M01
100
AcDbCircle
 10
964.86039
 20
556.160844
 30
0.0
 40
3.702778
100
AcDbArc
 50
146.92527
 51
213.07473
  0
ARC
  5
24B
100
AcDbEntity
  8
M01
100
AcDbCircle
 10
962.308307
 20
559.191933
 30
0.0
 40
1.150694
100
AcDbArc
 50
118.592423
 51
241.407577
  0
ARC
  5
24C
100
AcDbEntity
  8
M01
100
AcDbCircle
 10
963.006918
 20
553.129755
 30
0.0
 40
1.150694
100
AcDbArc
 50
298.592423
 51
61.407577
  0
ARC
  5
24D
100
AcDbEntity
  8
M01
100
AcDbCircle
 10
960.454835
 20
556.160844
 30
0.0
 40
3.702778
100
AcDbArc
 50
326.92527
 51
33.07473
  0
LINE
  5
24E
100
AcDbEntity
  8
M01
100
AcDbLine
 10
963.557613
 20
554.140118
 30
0.0
 11
961.757613
 21
554.140118
 31
0.0
  0
LINE
  5
24F
100
AcDbEntity
  8
M01
100
AcDbLine
 10
963.557613
 20
552.119392
 30
0.0
 11
961.757613
 21
552.119392
 31
0.0
  0
ARC
  5
250
100
AcDbEntity
  8
M01
100
AcDbCircle
 10
963.006918
 20
559.191933
 30
0.0
 40
1.150694
100
AcDbArc
 50
298.592423
 51
61.407577
  0
LINE
  5
251
100
AcDbEntity
  8
M01
100
AcDbLine
 10
963.557613
 20
558.18157
 30
0.0
 11
961.757613
 21
558.18157
 31
0.0
  0
LINE
  5
252
100
AcDbEntity
  8
M01
100
AcDbLine
 10
963.557613
 20
560.202296
 30
0.0
 11
961.757613
 21
560.202296
 31
0.0
  0
LINE
  5
253
100
AcDbEntity
  8
M01
100
AcDbLine
 10
958.857613
 20
551.160844
 30
0.0
 11
960.357613
 21
551.160844
 31
0.0
  0
LINE
  5
254
100
AcDbEntity
  8
M01
100
AcDbLine
 10
958.857613
 20
561.160844
 30
0.0
 11
960.357613
 21
561.160844
 31
0.0
  0
LINE
  5
255
100
AcDbEntity
  8
M01
100
AcDbLine
 10
960.357613
 20
551.660844
 30
0.0
 11
961.157613
 21
551.660844
 31
0.0
  0
LINE
  5
256
100
AcDbEntity
  8
M01
100
AcDbLine
 10
960.357613
 20
560.660844
 30
0.0
 11
961.157613
 21
560.660844
 31
0.0
  0
LINE
  5
257
100
AcDbEntity
  8
M01
100
AcDbLine
 10
961.157613
 20
560.660844
 30
0.0
 11
961.157613
 21
551.660844
 31
0.0
  0
LINE
  5
258
100
AcDbEntity
  8
M01
100
AcDbLine
 10
960.357613
 20
561.160844
 30
0.0
 11
960.357613
 21
551.160844
 31
0.0
  0
LINE
  5
259
100
AcDbEntity
  8
M01
100
AcDbLine
 10
958.057613
 20
551.660844
 30
0.0
 11
958.857613
 21
551.660844
 31
0.0
  0
LINE
  5
25A
100
AcDbEntity
  8
M01
100
AcDbLine
 10
958.057613
 20
560.660844
 30
0.0
 11
958.857613
 21
560.660844
 31
0.0
  0
LINE
  5
25B
100
AcDbEntity
  8
M01
100
AcDbLine
 10
958.857613
 20
561.160844
 30
0.0
 11
958.857613
 21
551.160844
 31
0.0
  0
ARC
  5
25C
100
AcDbEntity
  8
M01
100
AcDbCircle
 10
956.208307
 20
553.129755
 30
0.0
 40
1.150694
100
AcDbArc
 50
118.592423
 51
241.407577
  0
ARC
  5
25D
100
AcDbEntity
  8
M01
100
AcDbCircle
 10
958.76039
 20
556.160844
 30
0.0
 40
3.702778
100
AcDbArc
 50
146.92527
 51
213.07473
  0
ARC
  5
25E
100
AcDbEntity
  8
M01
100
AcDbCircle
 10
956.208307
 20
559.191933
 30
0.0
 40
1.150694
100
AcDbArc
 50
118.592423
 51
241.407577
  0
ARC
  5
25F
100
AcDbEntity
  8
M01
100
AcDbCircle
 10
956.906918
 20
553.129755
 30
0.0
 40
1.150694
100
AcDbArc
 50
298.592423
 51
61.407577
  0
ARC
  5
260
100
AcDbEntity
  8
M01
100
AcDbCircle
 10
954.354835
 20
556.160844
 30
0.0
 40
3.702778
100
AcDbArc
 50
326.92527
 51
33.07473
  0
LINE
  5
261
100
AcDbEntity
  8
M01
100
AcDbLine
 10
957.457613
 20
554.140118
 30
0.0
 11
955.657613
 21
554.140118
 31
0.0
  0
LINE
  5
262
100
AcDbEntity
  8
M01
100
AcDbLine
 10
957.457613
 20
552.119392
 30
0.0
 11
955.657613
 21
552.119392
 31
0.0
  0
ARC
  5
263
100
AcDbEntity
  8
M01
100
AcDbCircle
 10
956.906918
 20
559.191933
 30
0.0
 40
1.150694
100
AcDbArc
 50
298.592423
 51
61.407577
  0
LINE
  5
264
100
AcDbEntity
  8
M01
100
AcDbLine
 10
957.457613
 20
558.18157
 30
0.0
 11
955.657613
 21
558.18157
 31
0.0
  0
LINE
  5
265
100
AcDbEntity
  8
M01
100
AcDbLine
 10
957.457613
 20
560.202296
 30
0.0
 11
955.657613
 21
560.202296
 31
0.0
  0
LINE
  5
266
100
AcDbEntity
  8
M01
100
AcDbLine
 10
958.057613
 20
560.660844
 30
0.0
 11
958.057613
 21
551.660844
 31
0.0
  0
LINE
  5
267
100
AcDbEntity
  8
M01
100
AcDbLine
 10
955.057613
 20
560.660844
 30
0.0
 11
955.057613
 21
551.660844
 31
0.0
  0
LINE
  5
268
100
AcDbEntity
  8
M01
100
AcDbLine
 10
967.257613
 20
554.660844
 30
0.0
 11
966.757613
 21
554.160844
 31
0.0
  0
LINE
  5
269
100
AcDbEntity
  8
M01
100
AcDbLine
 10
966.757613
 20
558.160844
 30
0.0
 11
967.257613
 21
557.660844
 31
0.0
  0
LINE
  5
26A
100
AcDbEntity
  8
M01
100
AcDbLine
 10
966.757613
 20
558.160844
 30
0.0
 11
966.757613
 21
554.160844
 31
0.0
  0
LINE
  5
26B
100
AcDbEntity
  8
M01
100
AcDbLine
 10
967.257613
 20
554.660844
 30
0.0
 11
964.157613
 21
554.660844
 31
0.0
  0
LINE
  5
26C
100
AcDbEntity
  8
M01
100
AcDbLine
 10
967.257613
 20
557.660844
 30
0.0
 11
964.157613
 21
557.660844
 31
0.0
  0
LINE
  5
26D
100
AcDbEntity
  8
M01
100
AcDbLine
 10
966.757613
 20
558.160844
 30
0.0
 11
964.157613
 21
558.160844
 31
0.0
  0
LINE
  5
26E
100
AcDbEntity
  8
M01
100
AcDbLine
 10
966.757613
 20
554.160844
 30
0.0
 11
964.157613
 21
554.160844
 31
0.0
  0
LINE
  5
26F
100
AcDbEntity
  8
M01
100
AcDbLine
 10
967.257613
 20
557.660844
 30
0.0
 11
967.257613
 21
554.660844
 31
0.0
  0
LINE
  5
270
100
AcDbEntity
  8
M01
100
AcDbLine
 10
942.257613
 20
561.160844
 30
0.0
 11
942.257613
 21
551.160844
 31
0.0
  0
LINE
  5
271
100
AcDbEntity
  8
CENTRE
100
AcDbLine
 10
973.418502
 20
556.160844
 30
0.0
 11
909.82507
 21
556.160844
 31
0.0
  0
LINE
  5
272
100
AcDbEntity
  8
M01
100
AcDbLine
 10
964.157613
 20
529.129755
 30
0.0
 11
964.157613
 21
535.191933
 31
0.0
  0
ARC
  5
273
100
AcDbEntity
  8
M01
100
AcDbCircle
 10
962.308307
 20
535.191933
 30
0.0
 40
1.150694
100
AcDbArc
 50
118.592423
 51
241.407577
  0
ARC
  5
274
100
AcDbEntity
  8
M01
100
AcDbCircle
 10
964.86039
 20
532.160844
 30
0.0
 40
3.702778
100
AcDbArc
 50
146.92527
 51
213.07473
  0
ARC
  5
275
100
AcDbEntity
  8
M01
100
AcDbCircle
 10
962.308307
 20
529.129755
 30
0.0
 40
1.150694
100
AcDbArc
 50
118.592423
 51
241.407577
  0
ARC
  5
276
100
AcDbEntity
  8
M01
100
AcDbCircle
 10
963.006918
 20
535.191933
 30
0.0
 40
1.150694
100
AcDbArc
 50
298.592423
 51
61.407577
  0
ARC
  5
277
100
AcDbEntity
  8
M01
100
AcDbCircle
 10
960.454835
 20
532.160844
 30
0.0
 40
3.702778
100
AcDbArc
 50
326.92527
 51
33.07473
  0
LINE
  5
278
100
AcDbEntity
  8
M01
100
AcDbLine
 10
963.557613
 20
534.18157
 30
0.0
 11
961.757613
 21
534.18157
 31
0.0
  0
LINE
  5
279
100
AcDbEntity
  8
M01
100
AcDbLine
 10
963.557613
 20
536.202296
 30
0.0
 11
961.757613
 21
536.202296
 31
0.0
  0
ARC
  5
27A
100
AcDbEntity
  8
M01
100
AcDbCircle
 10
963.006918
 20
529.129755
 30
0.0
 40
1.150694
100
AcDbArc
 50
298.592423
 51
61.407577
  0
LINE
  5
27B
100
AcDbEntity
  8
M01
100
AcDbLine
 10
963.557613
 20
530.140118
 30
0.0
 11
961.757613
 21
530.140118
 31
0.0
  0
LINE
  5
27C
100
AcDbEntity
  8
M01
100
AcDbLine
 10
963.557613
 20
528.119392
 30
0.0
 11
961.757613
 21
528.119392
 31
0.0
  0
LINE
  5
27D
100
AcDbEntity
  8
M01
100
AcDbLine
 10
958.857613
 20
537.160844
 30
0.0
 11
960.357613
 21
537.160844
 31
0.0
  0
LINE
  5
27E
100
AcDbEntity
  8
M01
100
AcDbLine
 10
958.857613
 20
527.160844
 30
0.0
 11
960.357613
 21
527.160844
 31
0.0
  0
LINE
  5
27F
100
AcDbEntity
  8
M01
100
AcDbLine
 10
960.357613
 20
536.660844
 30
0.0
 11
961.157613
 21
536.660844
 31
0.0
  0
LINE
  5
280
100
AcDbEntity
  8
M01
100
AcDbLine
 10
960.357613
 20
527.660844
 30
0.0
 11
961.157613
 21
527.660844
 31
0.0
  0
LINE
  5
281
100
AcDbEntity
  8
M01
100
AcDbLine
 10
961.157613
 20
527.660844
 30
0.0
 11
961.157613
 21
536.660844
 31
0.0
  0
LINE
  5
282
100
AcDbEntity
  8
M01
100
AcDbLine
 10
960.357613
 20
527.160844
 30
0.0
 11
960.357613
 21
537.160844
 31
0.0
  0
LINE
  5
283
100
AcDbEntity
  8
M01
100
AcDbLine
 10
958.057613
 20
536.660844
 30
0.0
 11
958.857613
 21
536.660844
 31
0.0
  0
LINE
  5
284
100
AcDbEntity
  8
M01
100
AcDbLine
 10
958.057613
 20
527.660844
 30
0.0
 11
958.857613
 21
527.660844
 31
0.0
  0
LINE
  5
285
100
AcDbEntity
  8
M01
100
AcDbLine
 10
958.857613
 20
527.160844
 30
0.0
 11
958.857613
 21
537.160844
 31
0.0
  0
ARC
  5
286
100
AcDbEntity
  8
M01
100
AcDbCircle
 10
956.208307
 20
535.191933
 30
0.0
 40
1.150694
100
AcDbArc
 50
118.592423
 51
241.407577
  0
ARC
  5
287
100
AcDbEntity
  8
M01
100
AcDbCircle
 10
958.76039
 20
532.160844
 30
0.0
 40
3.702778
100
AcDbArc
 50
146.92527
 51
213.07473
  0
ARC
  5
288
100
AcDbEntity
  8
M01
100
AcDbCircle
 10
956.208307
 20
529.129755
 30
0.0
 40
1.150694
100
AcDbArc
 50
118.592423
 51
241.407577
  0
ARC
  5
289
100
AcDbEntity
  8
M01
100
AcDbCircle
 10
956.906918
 20
535.191933
 30
0.0
 40
1.150694
100
AcDbArc
 50
298.592423
 51
61.407577
  0
ARC
  5
28A
100
AcDbEntity
  8
M01
100
AcDbCircle
 10
954.354835
 20
532.160844
 30
0.0
 40
3.702778
100
AcDbArc
 50
326.92527
 51
33.07473
  0
LINE
  5
28B
100
AcDbEntity
  8
M01
100
AcDbLine
 10
957.457613
 20
534.18157
 30
0.0
 11
955.657613
 21
534.18157
 31
0.0
  0
LINE
  5
28C
100
AcDbEntity
  8
M01
100
AcDbLine
 10
957.457613
 20
536.202296
 30
0.0
 11
955.657613
 21
536.202296
 31
0.0
  0
ARC
  5
28D
100
AcDbEntity
  8
M01
100
AcDbCircle
 10
956.906918
 20
529.129755
 30
0.0
 40
1.150694
100
AcDbArc
 50
298.592423
 51
61.407577
  0
LINE
  5
28E
100
AcDbEntity
  8
M01
100
AcDbLine
 10
957.457613
 20
530.140118
 30
0.0
 11
955.657613
 21
530.140118
 31
0.0
  0
LINE
  5
28F
100
AcDbEntity
  8
M01
100
AcDbLine
 10
957.457613
 20
528.119392
 30
0.0
 11
955.657613
 21
528.119392
 31
0.0
  0
LINE
  5
290
100
AcDbEntity
  8
M01
100
AcDbLine
 10
958.057613
 20
527.660844
 30
0.0
 11
958.057613
 21
536.660844
 31
0.0
  0
LINE
  5
291
100
AcDbEntity
  8
M01
100
AcDbLine
 10
955.057613
 20
527.660844
 30
0.0
 11
955.057613
 21
536.660844
 31
0.0
  0
LINE
  5
292
100
AcDbEntity
  8
M01
100
AcDbLine
 10
954.257613
 20
527.660844
 30
0.0
 11
954.257613
 21
536.660844
 31
0.0
  0
LINE
  5
293
100
AcDbEntity
  8
M04
100
AcDbLine
 10
982.257613
 20
561.160844
 30
0.0
 11
1002.929091
 21
561.160844
 31
0.0
  0
LINE
  5
294
100
AcDbEntity
  8
M04
100
AcDbLine
 10
982.257613
 20
527.160844
 30
0.0
 11
1002.929091
 21
527.160844
 31
0.0
  0
ARC
  5
295
100
AcDbEntity
  8
M04
100
AcDbCircle
 10
967.257613
 20
561.160844
 30
0.0
 40
15.0
100
AcDbArc
 50
0.0
 51
90.0
  0
ARC
  5
296
100
AcDbEntity
  8
M04
100
AcDbCircle
 10
967.257613
 20
527.160844
 30
0.0
 40
15.0
100
AcDbArc
 50
270.0
 51
0.0
  0
LINE
  5
297
100
AcDbEntity
  8
M04
100
AcDbLine
 10
982.257613
 20
527.160844
 30
0.0
 11
982.257613
 21
561.160844
 31
0.0
  0
LINE
  5
298
100
AcDbEntity
  8
M01
100
AcDbLine
 10
967.257613
 20
533.660844
 30
0.0
 11
966.757613
 21
534.160844
 31
0.0
  0
LINE
  5
299
100
AcDbEntity
  8
M01
100
AcDbLine
 10
966.757613
 20
530.160844
 30
0.0
 11
967.257613
 21
530.660844
 31
0.0
  0
LINE
  5
29A
100
AcDbEntity
  8
M01
100
AcDbLine
 10
966.757613
 20
530.160844
 30
0.0
 11
966.757613
 21
534.160844
 31
0.0
  0
LINE
  5
29B
100
AcDbEntity
  8
M01
100
AcDbLine
 10
967.257613
 20
533.660844
 30
0.0
 11
964.157613
 21
533.660844
 31
0.0
  0
LINE
  5
29C
100
AcDbEntity
  8
M01
100
AcDbLine
 10
967.257613
 20
530.660844
 30
0.0
 11
964.157613
 21
530.660844
 31
0.0
  0
LINE
  5
29D
100
AcDbEntity
  8
M01
100
AcDbLine
 10
966.757613
 20
530.160844
 30
0.0
 11
964.157613
 21
530.160844
 31
0.0
  0
LINE
  5
29E
100
AcDbEntity
  8
M01
100
AcDbLine
 10
966.757613
 20
534.160844
 30
0.0
 11
964.157613
 21
534.160844
 31
0.0
  0
LINE
  5
29F
100
AcDbEntity
  8
M01
100
AcDbLine
 10
967.257613
 20
530.660844
 30
0.0
 11
967.257613
 21
533.660844
 31
0.0
  0
LINE
  5
2A0
100
AcDbEntity
  8
M01
100
AcDbLine
 10
942.257613
 20
527.160844
 30
0.0
 11
942.257613
 21
537.160844
 31
0.0
  0
LINE
  5
2A1
100
AcDbEntity
  8
M01
100
AcDbLine
 10
955.057613
 20
536.660844
 30
0.0
 11
954.257613
 21
536.660844
 31
0.0
  0
LINE
  5
2A2
100
AcDbEntity
  8
M01
100
AcDbLine
 10
955.057613
 20
527.660844
 30
0.0
 11
954.257613
 21
527.660844
 31
0.0
  0
LINE
  5
2A3
100
AcDbEntity
  8
CENTRE
100
AcDbLine
 10
973.418502
 20
532.160844
 30
0.0
 11
909.82507
 21
532.160844
 31
0.0
  0
LINE
  5
2A4
100
AcDbEntity
  8
M04
100
AcDbLine
 10
967.257613
 20
512.160844
 30
0.0
 11
857.483009
 21
512.160844
 31
0.0
  0
LINE
  5
2A5
100
AcDbEntity
  8
M01
100
AcDbLine
 10
922.257613
 20
564.160844
 30
0.0
 11
920.257613
 21
566.160844
 31
0.0
  0
LINE
  5
2A6
100
AcDbEntity
  8
M01
100
AcDbLine
 10
920.257613
 20
522.160844
 30
0.0
 11
922.257613
 21
524.160844
 31
0.0
  0
LINE
  5
2A7
100
AcDbEntity
  8
M01
100
AcDbLine
 10
922.257613
 20
524.160844
 30
0.0
 11
922.257613
 21
564.160844
 31
0.0
  0
LINE
  5
2A8
100
AcDbEntity
  8
M01
100
AcDbLine
 10
920.257613
 20
566.160844
 30
0.0
 11
854.483009
 21
566.160844
 31
0.0
  0
LINE
  5
2A9
100
AcDbEntity
  8
M01
100
AcDbLine
 10
920.257613
 20
522.160844
 30
0.0
 11
854.483009
 21
522.160844
 31
0.0
  0
LINE
  5
2AA
100
AcDbEntity
  8
DIMS
 62
     4
100
AcDbLine
 10
558.257613
 20
547.560844
 30
0.0
 11
558.257613
 21
549.860844
 31
0.0
  0
LINE
  5
2AB
100
AcDbEntity
  8
DIMS
 62
     4
100
AcDbLine
 10
558.257613
 20
540.760844
 30
0.0
 11
558.257613
 21
538.460844
 31
0.0
  0
LINE
  5
2AC
100
AcDbEntity
  8
DIMS
 62
     4
100
AcDbLine
 10
558.257613
 20
542.460844
 30
0.0
 11
558.257613
 21
545.860844
 31
0.0
  0
CIRCLE
  5
2AD
100
AcDbEntity
  8
M03
100
AcDbCircle
 10
558.257613
 20
544.160844
 30
0.0
 40
4.0
  0
LINE
  5
2AE
100
AcDbEntity
  8
M03
100
AcDbLine
 10
558.257613
 20
538.50399
 30
0.0
 11
655.429185
 21
441.332417
 31
0.0
  0
LINE
  5
2AF
100
AcDbEntity
  8
M01
100
AcDbLine
 10
573.483009
 20
579.160844
 30
0.0
 11
649.032216
 21
579.160844
 31
0.0
  0
LINE
  5
2B0
100
AcDbEntity
  8
M03
100
AcDbLine
 10
661.08604
 20
646.989271
 30
0.0
 11
758.257613
 21
549.817698
 31
0.0
  0
LINE
  5
2B1
100
AcDbEntity
  8
M03
100
AcDbLine
 10
655.429185
 20
641.332417
 30
0.0
 11
855.429185
 21
441.332417
 31
0.0
  0
LINE
  5
2B2
100
AcDbEntity
  8
CENTRE
100
AcDbLine
 10
637.044409
 20
665.374047
 30
0.0
 11
879.470816
 21
422.94764
 31
0.0
  0
LINE
  5
2B3
100
AcDbEntity
  8
M04
100
AcDbLine
 10
349.257613
 20
576.160844
 30
0.0
 11
459.032216
 21
576.160844
 31
0.0
  0
MTEXT
  5
2B4
100
AcDbEntity
  8
0
  6
BYBLOCK
 62
     2
100
AcDbMText
 10
916.682849
 20
627.235459
 30
0.0
 40
3.0
 41
0.0
 71
     4
 72
     1
  1
M12 PLATE RETAINING SCREWS SHOULD ALSO BE FITTED.\PMINIMUM 2 PER DROP & ALSO AROUND MANIFOLD POCKET.
  0
LINE
  5
2B5
100
AcDbEntity
  8
DIMS
 62
     4
100
AcDbLine
 10
561.657613
 20
271.608777
 30
0.0
 11
563.957613
 21
271.608777
 31
0.0
  0
LINE
  5
2B6
100
AcDbEntity
  8
DIMS
 62
     4
100
AcDbLine
 10
554.857613
 20
271.608777
 30
0.0
 11
552.557613
 21
271.608777
 31
0.0
  0
LINE
  5
2B7
100
AcDbEntity
  8
DIMS
 62
     4
100
AcDbLine
 10
556.557613
 20
271.608777
 30
0.0
 11
559.957613
 21
271.608777
 31
0.0
  0
LINE
  5
2B8
102
{ACAD_REACTORS
330
93
102
}
100
AcDbEntity
  8
M02
100
AcDbLine
 10
882.257613
 20
225.608777
 30
0.0
 11
888.257613
 21
225.608777
 31
0.0
  0
LINE
  5
2BA
102
{ACAD_REACTORS
330
94
102
}
100
AcDbEntity
  8
M02
100
AcDbLine
 10
692.257613
 20
225.608777
 30
0.0
 11
834.257613
 21
225.608777
 31
0.0
  0
LINE
  5
2BB
102
{ACAD_REACTORS
330
93
102
}
100
AcDbEntity
  8
M02
100
AcDbLine
 10
888.257613
 20
228.608777
 30
0.0
 11
888.257613
 21
225.608777
 31
0.0
  0
LINE
  5
2BC
102
{ACAD_REACTORS
330
113
102
}
100
AcDbEntity
  8
M04
100
AcDbLine
 10
861.257613
 20
221.608777
 30
0.0
 11
908.771004
 21
221.608777
 31
0.0
  0
LINE
  5
2BD
102
{ACAD_REACTORS
330
113
330
98
330
94
330
93
102
}
100
AcDbEntity
  8
M01
100
AcDbLine
 10
668.257613
 20
228.608777
 30
0.0
 11
888.257613
 21
228.608777
 31
0.0
  0
HATCH
  5
2BE
100
AcDbEntity
  8
DIMS
100
AcDbHatch
 10
0.0
 20
0.0
 30
0.0
210
0.0
220
0.0
230
1.0
  2
_U
 70
     0
 71
     0
 91
        5
 92
        7
 72
     0
 73
     1
 93
        9
 10
689.75761256428
 20
226.6087771884045
 10
689.75761256428
 20
222.6087771884046
 10
691.5576125642803
 20
222.6087771884046
 10
692.2576125642804
 20
223.3087771884046
 10
692.2576125642802
 20
227.9087771884045
 10
691.5576125642798
 20
228.6087771884047
 10
687.95761256428
 20
228.6087771884047
 10
687.95761256428
 20
226.6087771884046
 10
689.5076125642802
 20
226.6087771884046
 97
        0
 92
        7
 72
     1
 73
     1
 93
       16
 10
677.5576125642799
 20
217.6087771884046
 42
0.0
 10
678.2576125642799
 20
218.3087771884044
 42
0.0
 10
678.2576125642799
 20
219.6087771884047
 42
0.0
 10
677.7576125642799
 20
219.6087771884045
 42
0.0
 10
677.7576125642799
 20
222.6087771884046
 42
0.0
 10
678.7576125642801
 20
222.6087771884046
 42
0.0
 10
678.7576125642801
 20
226.6087771884046
 42
0.0
 10
679.0076125642801
 20
226.6087771884046
 42
0.0
 10
680.5576125642801
 20
226.6087771884046
 42
0.0
 10
680.5576125642804
 20
228.6087771884047
 42
0.0
 10
668.2576125642799
 20
228.6087771884047
 42
0.0
 10
668.2576125642799
 20
237.6087771884045
 42
0.0
 10
667.2576125642799
 20
238.6087771884045
 42
0.0
 10
662.2576125642799
 20
238.6087771884045
 42
0.0
 10
661.2984865621759
 20
220.3075628415057
 42
-0.1092323044357264
 10
667.4227639541913
 20
217.6087771884045
 42
0.0
 97
        0
 92
        7
 72
     1
 73
     1
 93
       16
 10
655.2167385663838
 20
220.3075628415057
 42
0.0
 10
654.2576125642799
 20
238.6087771884045
 42
0.0
 10
649.2576125642799
 20
238.6087771884045
 42
0.0
 10
648.25761256428
 20
237.6087771884046
 42
0.0
 10
648.25761256428
 20
228.6087771884047
 42
0.0
 10
635.9576125642802
 20
228.6087771884047
 42
0.0
 10
635.9576125642802
 20
226.6087771884046
 42
0.0
 10
637.5076125642799
 20
226.6087771884046
 42
0.0
 10
637.7576125642799
 20
226.6087771884046
 42
0.0
 10
637.7576125642799
 20
222.6087771884047
 42
0.0
 10
638.7576125642799
 20
222.6087771884047
 42
0.0
 10
638.7576125642799
 20
219.6087771884044
 42
0.0
 10
638.2576125642799
 20
219.6087771884044
 42
0.0
 10
638.2576125642802
 20
218.3087771884042
 42
0.0
 10
638.95761256428
 20
217.6087771884043
 42
0.0
 10
649.0924611743682
 20
217.6087771884043
 42
-0.1092323044357263
 97
        0
 92
        7
 72
     0
 73
     1
 93
        9
 10
626.7576125642799
 20
226.6087771884045
 10
627.0076125642797
 20
226.6087771884045
 10
628.5576125642799
 20
226.6087771884045
 10
628.5576125642801
 20
228.6087771884047
 10
624.95761256428
 20
228.6087771884047
 10
624.2576125642797
 20
227.9087771884046
 10
624.2576125642797
 20
223.3087771884045
 10
624.9576125642797
 20
222.6087771884047
 10
626.7576125642801
 20
222.6087771884047
 97
        0
 92
       24
 93
        4
 72
     1
 10
662.831693
 20
223.676265
 11
677.203122
 21
223.676265
 72
     1
 10
677.203122
 20
223.676265
 11
677.203122
 21
226.676265
 72
     1
 10
677.203122
 20
226.676265
 11
662.831693
 21
226.676265
 72
     1
 10
662.831693
 20
226.676265
 11
662.831693
 21
223.676265
 97
        0
 75
     0
 76
     0
 52
135.0
 41
2.5
 77
     0
 78
     1
 53
135.0
 43
102.810372
 44
-18.877697
 45
-1.767766952966368
 46
-1.767766952966368
 79
     0
 47
0.085632
 98
        4
 10
690.754575
 20
226.966762
 10
673.10713
 20
220.972532
 10
650.319651
 20
222.171378
 10
626.075832
 20
226.966762
  0
LINE
  5
2BF
102
{ACAD_REACTORS
330
98
102
}
100
AcDbEntity
  8
M04
100
AcDbLine
 10
635.257613
 20
235.908777
 30
0.0
 11
635.257613
 21
238.408777
 31
0.0
  0
LINE
  5
2C0
102
{ACAD_REACTORS
330
98
102
}
100
AcDbEntity
  8
M04
100
AcDbLine
 10
634.557613
 20
236.608777
 30
0.0
 11
634.557613
 21
239.908777
 31
0.0
  0
LINE
  5
2C1
102
{ACAD_REACTORS
330
98
102
}
100
AcDbEntity
  8
M04
100
AcDbLine
 10
629.257613
 20
235.908777
 30
0.0
 11
629.257613
 21
238.408777
 31
0.0
  0
LINE
  5
2C2
102
{ACAD_REACTORS
330
98
102
}
100
AcDbEntity
  8
M04
100
AcDbLine
 10
629.957613
 20
236.608777
 30
0.0
 11
629.957613
 21
239.908777
 31
0.0
  0
LINE
  5
2C3
100
AcDbEntity
  8
M05
100
AcDbLine
 10
627.007613
 20
226.608777
 30
0.0
 11
637.507613
 21
226.608777
 31
0.0
  0
LINE
  5
2C4
100
AcDbEntity
  8
M04
100
AcDbLine
 10
637.507613
 20
226.608777
 30
0.0
 11
637.757613
 21
226.608777
 31
0.0
  0
LINE
  5
2C5
100
AcDbEntity
  8
M04
100
AcDbLine
 10
626.757613
 20
226.608777
 30
0.0
 11
626.757613
 21
222.608777
 31
0.0
  0
LINE
  5
2C6
100
AcDbEntity
  8
M04
100
AcDbLine
 10
637.757613
 20
226.608777
 30
0.0
 11
637.757613
 21
222.608777
 31
0.0
  0
LINE
  5
2C7
100
AcDbEntity
  8
M05
100
AcDbLine
 10
635.257613
 20
227.608777
 30
0.0
 11
629.257613
 21
227.608777
 31
0.0
  0
LINE
  5
2C8
102
{ACAD_REACTORS
330
98
102
}
100
AcDbEntity
  8
M04
100
AcDbLine
 10
629.957613
 20
239.908777
 30
0.0
 11
632.257613
 21
241.236683
 31
0.0
  0
LINE
  5
2C9
102
{ACAD_REACTORS
330
98
102
}
100
AcDbEntity
  8
M04
100
AcDbLine
 10
634.557613
 20
239.908777
 30
0.0
 11
632.257613
 21
241.236683
 31
0.0
  0
LINE
  5
2CA
100
AcDbEntity
  8
M04
100
AcDbLine
 10
634.557613
 20
239.908777
 30
0.0
 11
629.957613
 21
239.908777
 31
0.0
  0
LINE
  5
2CB
102
{ACAD_REACTORS
330
98
102
}
100
AcDbEntity
  8
M04
100
AcDbLine
 10
635.257613
 20
238.408777
 30
0.0
 11
629.257613
 21
238.408777
 31
0.0
  0
ARC
  5
2CC
100
AcDbEntity
  8
M05
100
AcDbCircle
 10
632.257613
 20
229.134914
 30
0.0
 40
5.826136
100
AcDbArc
 50
205.69541
 51
334.30459
  0
LINE
  5
2CD
100
AcDbEntity
  8
M05
100
AcDbLine
 10
629.257613
 20
235.908777
 30
0.0
 11
629.957613
 21
236.608777
 31
0.0
  0
LINE
  5
2CE
100
AcDbEntity
  8
M05
100
AcDbLine
 10
635.257613
 20
235.908777
 30
0.0
 11
634.557613
 21
236.608777
 31
0.0
  0
LINE
  5
2CF
100
AcDbEntity
  8
M05
100
AcDbLine
 10
635.257613
 20
235.908777
 30
0.0
 11
629.257613
 21
235.908777
 31
0.0
  0
LINE
  5
2D0
100
AcDbEntity
  8
M05
100
AcDbLine
 10
634.557613
 20
236.608777
 30
0.0
 11
629.957613
 21
236.608777
 31
0.0
  0
LINE
  5
2D1
100
AcDbEntity
  8
M04
100
AcDbLine
 10
635.957613
 20
228.608777
 30
0.0
 11
635.957613
 21
226.608777
 31
0.0
  0
LINE
  5
2D2
100
AcDbEntity
  8
M04
100
AcDbLine
 10
628.557613
 20
228.608777
 30
0.0
 11
628.557613
 21
226.608777
 31
0.0
  0
LINE
  5
2D3
100
AcDbEntity
  8
M05
100
AcDbLine
 10
629.957613
 20
236.608777
 30
0.0
 11
629.957613
 21
227.608777
 31
0.0
  0
LINE
  5
2D4
100
AcDbEntity
  8
M05
100
AcDbLine
 10
634.557613
 20
236.608777
 30
0.0
 11
634.557613
 21
227.608777
 31
0.0
  0
LINE
  5
2D5
102
{ACAD_REACTORS
330
98
102
}
100
AcDbEntity
  8
M05
100
AcDbLine
 10
635.257613
 20
235.908777
 30
0.0
 11
635.257613
 21
226.608777
 31
0.0
  0
LINE
  5
2D6
102
{ACAD_REACTORS
330
98
102
}
100
AcDbEntity
  8
M05
100
AcDbLine
 10
629.257613
 20
235.908777
 30
0.0
 11
629.257613
 21
226.608777
 31
0.0
  0
LINE
  5
2D7
100
AcDbEntity
  8
M04
100
AcDbLine
 10
626.757613
 20
226.608777
 30
0.0
 11
627.007613
 21
226.608777
 31
0.0
  0
LINE
  5
2D8
100
AcDbEntity
  8
CENTRE
100
AcDbLine
 10
632.257613
 20
243.875278
 30
0.0
 11
632.257613
 21
218.962589
 31
0.0
  0
LINE
  5
2D9
102
{ACAD_REACTORS
330
98
102
}
100
AcDbEntity
  8
M04
100
AcDbLine
 10
681.257613
 20
235.908777
 30
0.0
 11
681.257613
 21
238.408777
 31
0.0
  0
LINE
  5
2DA
102
{ACAD_REACTORS
330
98
102
}
100
AcDbEntity
  8
M04
100
AcDbLine
 10
681.957613
 20
236.608777
 30
0.0
 11
681.957613
 21
239.908777
 31
0.0
  0
LINE
  5
2DB
102
{ACAD_REACTORS
330
98
102
}
100
AcDbEntity
  8
M04
100
AcDbLine
 10
687.257613
 20
235.908777
 30
0.0
 11
687.257613
 21
238.408777
 31
0.0
  0
LINE
  5
2DC
102
{ACAD_REACTORS
330
98
102
}
100
AcDbEntity
  8
M04
100
AcDbLine
 10
686.557613
 20
236.608777
 30
0.0
 11
686.557613
 21
239.908777
 31
0.0
  0
LINE
  5
2DD
100
AcDbEntity
  8
M05
100
AcDbLine
 10
689.507613
 20
226.608777
 30
0.0
 11
679.007613
 21
226.608777
 31
0.0
  0
LINE
  5
2DE
100
AcDbEntity
  8
M04
100
AcDbLine
 10
679.007613
 20
226.608777
 30
0.0
 11
678.757613
 21
226.608777
 31
0.0
  0
LINE
  5
2DF
100
AcDbEntity
  8
M04
100
AcDbLine
 10
689.757613
 20
226.608777
 30
0.0
 11
689.757613
 21
222.608777
 31
0.0
  0
LINE
  5
2E0
100
AcDbEntity
  8
M04
100
AcDbLine
 10
678.757613
 20
226.608777
 30
0.0
 11
678.757613
 21
222.608777
 31
0.0
  0
LINE
  5
2E1
100
AcDbEntity
  8
M05
100
AcDbLine
 10
681.257613
 20
227.608777
 30
0.0
 11
687.257613
 21
227.608777
 31
0.0
  0
LINE
  5
2E2
102
{ACAD_REACTORS
330
98
102
}
100
AcDbEntity
  8
M04
100
AcDbLine
 10
686.557613
 20
239.908777
 30
0.0
 11
684.257613
 21
241.236683
 31
0.0
  0
LINE
  5
2E3
102
{ACAD_REACTORS
330
98
102
}
100
AcDbEntity
  8
M04
100
AcDbLine
 10
681.957613
 20
239.908777
 30
0.0
 11
684.257613
 21
241.236683
 31
0.0
  0
LINE
  5
2E4
100
AcDbEntity
  8
M04
100
AcDbLine
 10
681.957613
 20
239.908777
 30
0.0
 11
686.557613
 21
239.908777
 31
0.0
  0
LINE
  5
2E5
102
{ACAD_REACTORS
330
98
102
}
100
AcDbEntity
  8
M04
100
AcDbLine
 10
681.257613
 20
238.408777
 30
0.0
 11
687.257613
 21
238.408777
 31
0.0
  0
ARC
  5
2E6
100
AcDbEntity
  8
M05
100
AcDbCircle
 10
684.257613
 20
229.134914
 30
0.0
 40
5.826136
100
AcDbArc
 50
205.69541
 51
334.30459
  0
LINE
  5
2E7
100
AcDbEntity
  8
M05
100
AcDbLine
 10
687.257613
 20
235.908777
 30
0.0
 11
686.557613
 21
236.608777
 31
0.0
  0
LINE
  5
2E8
100
AcDbEntity
  8
M05
100
AcDbLine
 10
681.257613
 20
235.908777
 30
0.0
 11
681.957613
 21
236.608777
 31
0.0
  0
LINE
  5
2E9
100
AcDbEntity
  8
M05
100
AcDbLine
 10
681.257613
 20
235.908777
 30
0.0
 11
687.257613
 21
235.908777
 31
0.0
  0
LINE
  5
2EA
100
AcDbEntity
  8
M05
100
AcDbLine
 10
681.957613
 20
236.608777
 30
0.0
 11
686.557613
 21
236.608777
 31
0.0
  0
LINE
  5
2EB
100
AcDbEntity
  8
M04
100
AcDbLine
 10
680.557613
 20
228.608777
 30
0.0
 11
680.557613
 21
226.608777
 31
0.0
  0
LINE
  5
2EC
100
AcDbEntity
  8
M04
100
AcDbLine
 10
687.957613
 20
228.608777
 30
0.0
 11
687.957613
 21
226.608777
 31
0.0
  0
LINE
  5
2ED
100
AcDbEntity
  8
M05
100
AcDbLine
 10
686.557613
 20
236.608777
 30
0.0
 11
686.557613
 21
227.608777
 31
0.0
  0
LINE
  5
2EE
100
AcDbEntity
  8
M05
100
AcDbLine
 10
681.957613
 20
236.608777
 30
0.0
 11
681.957613
 21
227.608777
 31
0.0
  0
LINE
  5
2EF
102
{ACAD_REACTORS
330
98
102
}
100
AcDbEntity
  8
M05
100
AcDbLine
 10
681.257613
 20
235.908777
 30
0.0
 11
681.257613
 21
226.608777
 31
0.0
  0
LINE
  5
2F0
102
{ACAD_REACTORS
330
98
102
}
100
AcDbEntity
  8
M05
100
AcDbLine
 10
687.257613
 20
235.908777
 30
0.0
 11
687.257613
 21
226.608777
 31
0.0
  0
LINE
  5
2F1
100
AcDbEntity
  8
M04
100
AcDbLine
 10
689.757613
 20
226.608777
 30
0.0
 11
689.507613
 21
226.608777
 31
0.0
  0
LINE
  5
2F2
100
AcDbEntity
  8
CENTRE
100
AcDbLine
 10
684.257613
 20
243.875278
 30
0.0
 11
684.257613
 21
218.962589
 31
0.0
  0
TEXT
  5
2F3
100
AcDbEntity
  8
TEXT
100
AcDbText
 10
663.331693
 20
224.176265
 30
0.0
 40
2.0
  1
MA010000
 41
0.9
100
AcDbText
  0
LINE
  5
2F4
100
AcDbEntity
  8
M04
100
AcDbLine
 10
628.257613
 20
203.608777
 30
0.0
 11
628.257613
 21
194.608777
 31
0.0
  0
LINE
  5
2F5
100
AcDbEntity
  8
M05
100
AcDbLine
 10
624.257613
 20
223.308777
 30
0.0
 11
624.957613
 21
222.608777
 31
0.0
  0
LINE
  5
2F6
102
{ACAD_REACTORS
330
91
102
}
100
AcDbEntity
  8
M02
100
AcDbLine
 10
623.257613
 20
228.608777
 30
0.0
 11
623.257613
 21
225.608777
 31
0.0
  0
LINE
  5
2F7
100
AcDbEntity
  8
M04
100
AcDbLine
 10
628.257613
 20
203.608777
 30
0.0
 11
688.257613
 21
203.608777
 31
0.0
  0
LINE
  5
2F8
100
AcDbEntity
  8
M04
100
AcDbLine
 10
638.257613
 20
213.608777
 30
0.0
 11
628.257613
 21
203.608777
 31
0.0
  0
LINE
  5
2F9
100
AcDbEntity
  8
M04
100
AcDbLine
 10
688.257613
 20
203.608777
 30
0.0
 11
688.257613
 21
194.608777
 31
0.0
  0
LINE
  5
2FA
100
AcDbEntity
  8
M04
100
AcDbLine
 10
678.257613
 20
213.608777
 30
0.0
 11
688.257613
 21
203.608777
 31
0.0
  0
LINE
  5
2FB
100
AcDbEntity
  8
M05
100
AcDbLine
 10
655.216739
 20
220.307563
 30
0.0
 11
661.298487
 21
220.307563
 31
0.0
  0
ARC
  5
2FC
100
AcDbEntity
  8
M05
100
AcDbCircle
 10
658.257613
 20
205.108777
 30
0.0
 40
15.5
100
AcDbArc
 50
101.313981
 51
126.249321
  0
LINE
  5
2FD
100
AcDbEntity
  8
M05
100
AcDbLine
 10
654.257613
 20
238.608777
 30
0.0
 11
655.216739
 21
220.307563
 31
0.0
  0
LINE
  5
2FE
100
AcDbEntity
  8
M05
100
AcDbLine
 10
662.257613
 20
238.608777
 30
0.0
 11
661.298487
 21
220.307563
 31
0.0
  0
ARC
  5
2FF
100
AcDbEntity
  8
M05
100
AcDbCircle
 10
658.257613
 20
205.108777
 30
0.0
 40
15.5
100
AcDbArc
 50
53.750679
 51
78.686019
  0
LINE
  5
300
100
AcDbEntity
  8
M04
100
AcDbLine
 10
638.257613
 20
219.608777
 30
0.0
 11
638.257613
 21
221.608777
 31
0.0
  0
LINE
  5
301
100
AcDbEntity
  8
M04
100
AcDbLine
 10
638.257613
 20
218.308777
 30
0.0
 11
638.257613
 21
213.608777
 31
0.0
  0
LINE
  5
302
100
AcDbEntity
  8
M04
100
AcDbLine
 10
678.257613
 20
219.608777
 30
0.0
 11
678.257613
 21
221.608777
 31
0.0
  0
LINE
  5
303
100
AcDbEntity
  8
M04
100
AcDbLine
 10
678.257613
 20
218.308777
 30
0.0
 11
678.257613
 21
213.608777
 31
0.0
  0
LINE
  5
304
100
AcDbEntity
  8
M04
100
AcDbLine
 10
678.257613
 20
213.608777
 30
0.0
 11
638.257613
 21
213.608777
 31
0.0
  0
LINE
  5
305
100
AcDbEntity
  8
M05
100
AcDbLine
 10
638.757613
 20
219.608777
 30
0.0
 11
638.257613
 21
219.608777
 31
0.0
  0
LINE
  5
306
100
AcDbEntity
  8
M05
100
AcDbLine
 10
638.757613
 20
222.608777
 30
0.0
 11
624.957613
 21
222.608777
 31
0.0
  0
LINE
  5
307
100
AcDbEntity
  8
M05
100
AcDbLine
 10
638.757613
 20
222.608777
 30
0.0
 11
638.757613
 21
219.608777
 31
0.0
  0
LINE
  5
308
100
AcDbEntity
  8
M05
100
AcDbLine
 10
677.757613
 20
222.608777
 30
0.0
 11
677.757613
 21
219.608777
 31
0.0
  0
LINE
  5
309
100
AcDbEntity
  8
M05
100
AcDbLine
 10
678.257613
 20
219.608777
 30
0.0
 11
677.757613
 21
219.608777
 31
0.0
  0
LINE
  5
30A
100
AcDbEntity
  8
M05
100
AcDbLine
 10
638.957613
 20
217.608777
 30
0.0
 11
638.257613
 21
218.308777
 31
0.0
  0
LINE
  5
30B
100
AcDbEntity
  8
M05
100
AcDbLine
 10
677.557613
 20
217.608777
 30
0.0
 11
678.257613
 21
218.308777
 31
0.0
  0
LINE
  5
30C
100
AcDbEntity
  8
M05
100
AcDbLine
 10
677.557613
 20
217.608777
 30
0.0
 11
638.957613
 21
217.608777
 31
0.0
  0
LINE
  5
30D
100
AcDbEntity
  8
M05
100
AcDbLine
 10
638.257613
 20
219.608777
 30
0.0
 11
638.257613
 21
218.308777
 31
0.0
  0
LINE
  5
30E
100
AcDbEntity
  8
M05
100
AcDbLine
 10
678.257613
 20
219.608777
 30
0.0
 11
678.257613
 21
218.308777
 31
0.0
  0
LINE
  5
30F
102
{ACAD_REACTORS
330
98
102
}
100
AcDbEntity
  8
M04
100
AcDbLine
 10
648.257613
 20
229.108777
 30
0.0
 11
647.757613
 21
228.608777
 31
0.0
  0
LINE
  5
310
102
{ACAD_REACTORS
330
98
102
}
100
AcDbEntity
  8
M04
100
AcDbLine
 10
668.257613
 20
229.108777
 30
0.0
 11
668.757613
 21
228.608777
 31
0.0
  0
LINE
  5
311
100
AcDbEntity
  8
M05
100
AcDbLine
 10
624.257613
 20
227.908777
 30
0.0
 11
624.957613
 21
228.608777
 31
0.0
  0
LINE
  5
312
100
AcDbEntity
  8
M05
100
AcDbLine
 10
624.257613
 20
227.908777
 30
0.0
 11
624.257613
 21
223.308777
 31
0.0
  0
LINE
  5
313
100
AcDbEntity
  8
M05
100
AcDbLine
 10
692.257613
 20
227.908777
 30
0.0
 11
691.557613
 21
228.608777
 31
0.0
  0
LINE
  5
314
100
AcDbEntity
  8
M05
100
AcDbLine
 10
692.257613
 20
223.308777
 30
0.0
 11
691.557613
 21
222.608777
 31
0.0
  0
LINE
  5
315
102
{ACAD_REACTORS
330
94
102
}
100
AcDbEntity
  8
M02
100
AcDbLine
 10
693.257613
 20
228.608777
 30
0.0
 11
693.257613
 21
225.608777
 31
0.0
  0
LINE
  5
316
100
AcDbEntity
  8
M05
100
AcDbLine
 10
691.557613
 20
222.608777
 30
0.0
 11
677.757613
 21
222.608777
 31
0.0
  0
LINE
  5
317
100
AcDbEntity
  8
M05
100
AcDbLine
 10
692.257613
 20
227.908777
 30
0.0
 11
692.257613
 21
223.308777
 31
0.0
  0
LINE
  5
318
102
{ACAD_REACTORS
330
98
102
}
100
AcDbEntity
  8
M04
100
AcDbLine
 10
648.257613
 20
237.608777
 30
0.0
 11
648.257613
 21
238.608777
 31
0.0
  0
LINE
  5
319
102
{ACAD_REACTORS
330
98
102
}
100
AcDbEntity
  8
M04
100
AcDbLine
 10
649.257613
 20
238.608777
 30
0.0
 11
648.257613
 21
238.608777
 31
0.0
  0
LINE
  5
31A
102
{ACAD_REACTORS
330
98
102
}
100
AcDbEntity
  8
M04
100
AcDbLine
 10
668.257613
 20
237.608777
 30
0.0
 11
668.257613
 21
238.608777
 31
0.0
  0
LINE
  5
31B
102
{ACAD_REACTORS
330
98
102
}
100
AcDbEntity
  8
M04
100
AcDbLine
 10
667.257613
 20
238.608777
 30
0.0
 11
668.257613
 21
238.608777
 31
0.0
  0
LINE
  5
31C
100
AcDbEntity
  8
M05
100
AcDbLine
 10
667.257613
 20
238.608777
 30
0.0
 11
668.257613
 21
237.608777
 31
0.0
  0
LINE
  5
31D
100
AcDbEntity
  8
M05
100
AcDbLine
 10
648.257613
 20
237.608777
 30
0.0
 11
649.257613
 21
238.608777
 31
0.0
  0
LINE
  5
31E
102
{ACAD_REACTORS
330
98
102
}
100
AcDbEntity
  8
M05
100
AcDbLine
 10
667.257613
 20
238.608777
 30
0.0
 11
649.257613
 21
238.608777
 31
0.0
  0
LINE
  5
31F
102
{ACAD_REACTORS
330
98
102
}
100
AcDbEntity
  8
M05
100
AcDbLine
 10
648.257613
 20
237.608777
 30
0.0
 11
648.257613
 21
228.608777
 31
0.0
  0
LINE
  5
320
102
{ACAD_REACTORS
330
98
102
}
100
AcDbEntity
  8
M05
100
AcDbLine
 10
668.257613
 20
237.608777
 30
0.0
 11
668.257613
 21
228.608777
 31
0.0
  0
LINE
  5
321
100
AcDbEntity
  8
M04
100
AcDbLine
 10
679.982613
 20
295.608777
 30
0.0
 11
897.257613
 21
295.608777
 31
0.0
  0
LINE
  5
322
102
{ACAD_REACTORS
330
96
330
95
102
}
100
AcDbEntity
  8
M02
100
AcDbLine
 10
679.982613
 20
291.608777
 30
0.0
 11
888.257613
 21
291.608777
 31
0.0
  0
LINE
  5
323
102
{ACAD_REACTORS
330
98
102
}
100
AcDbEntity
  8
M04
100
AcDbLine
 10
649.757613
 20
283.608777
 30
0.0
 11
648.757613
 21
283.608777
 31
0.0
  0
LINE
  5
324
102
{ACAD_REACTORS
330
98
102
}
100
AcDbEntity
  8
M04
100
AcDbLine
 10
648.757613
 20
284.608777
 30
0.0
 11
648.757613
 21
283.608777
 31
0.0
  0
LINE
  5
325
102
{ACAD_REACTORS
330
98
102
}
100
AcDbEntity
  8
M04
100
AcDbLine
 10
666.757613
 20
283.608777
 30
0.0
 11
667.757613
 21
283.608777
 31
0.0
  0
LINE
  5
326
102
{ACAD_REACTORS
330
98
102
}
100
AcDbEntity
  8
M04
100
AcDbLine
 10
667.757613
 20
284.608777
 30
0.0
 11
667.757613
 21
283.608777
 31
0.0
  0
LINE
  5
327
100
AcDbEntity
  8
M02
100
AcDbLine
 10
635.032613
 20
291.608777
 30
0.0
 11
635.032613
 21
288.608777
 31
0.0
  0
LINE
  5
328
102
{ACAD_REACTORS
330
96
102
}
100
AcDbEntity
  8
M02
100
AcDbLine
 10
681.482613
 20
291.608777
 30
0.0
 11
681.482613
 21
288.608777
 31
0.0
  0
LINE
  5
329
100
AcDbEntity
  8
M05
100
AcDbLine
 10
648.757613
 20
284.608777
 30
0.0
 11
667.757613
 21
284.608777
 31
0.0
  0
LINE
  5
32A
100
AcDbEntity
  8
M05
100
AcDbLine
 10
649.757613
 20
283.608777
 30
0.0
 11
648.757613
 21
284.608777
 31
0.0
  0
LINE
  5
32B
100
AcDbEntity
  8
M05
100
AcDbLine
 10
667.757613
 20
284.608777
 30
0.0
 11
666.757613
 21
283.608777
 31
0.0
  0
LINE
  5
32C
102
{ACAD_REACTORS
330
98
102
}
100
AcDbEntity
  8
M05
100
AcDbLine
 10
666.757613
 20
283.608777
 30
0.0
 11
649.757613
 21
283.608777
 31
0.0
  0
LINE
  5
32D
102
{ACAD_REACTORS
330
113
102
}
100
AcDbEntity
  8
M05
100
AcDbLine
 10
838.757613
 20
222.608777
 30
0.0
 11
837.757613
 21
221.608777
 31
0.0
  0
LINE
  5
32E
102
{ACAD_REACTORS
330
113
102
}
100
AcDbEntity
  8
M05
100
AcDbLine
 10
850.757613
 20
222.608777
 30
0.0
 11
851.757613
 21
221.608777
 31
0.0
  0
LINE
  5
32F
102
{ACAD_REACTORS
330
113
102
}
100
AcDbEntity
  8
M05
100
AcDbLine
 10
838.757613
 20
222.608777
 30
0.0
 11
850.757613
 21
222.608777
 31
0.0
  0
LINE
  5
330
102
{ACAD_REACTORS
330
113
102
}
100
AcDbEntity
  8
M05
100
AcDbLine
 10
877.757613
 20
222.608777
 30
0.0
 11
878.757613
 21
221.608777
 31
0.0
  0
LINE
  5
331
102
{ACAD_REACTORS
330
113
102
}
100
AcDbEntity
  8
M05
100
AcDbLine
 10
865.757613
 20
222.608777
 30
0.0
 11
864.757613
 21
221.608777
 31
0.0
  0
LINE
  5
332
102
{ACAD_REACTORS
330
113
102
}
100
AcDbEntity
  8
M05
100
AcDbLine
 10
877.757613
 20
222.608777
 30
0.0
 11
865.757613
 21
222.608777
 31
0.0
  0
MTEXT
  5
333
102
{ACAD_REACTORS
330
334
102
}
100
AcDbEntity
  8
HATCH
 62
     2
100
AcDbMText
 10
894.120989
 20
202.53711
 30
0.0
 40
3.0
 41
0.0
 71
     1
 72
     5
  1
MA010004 (x6)
  0
LEADER
  5
334
100
AcDbEntity
  8
HATCH
 62
     4
100
AcDbLeader
  3
DIM1$7
 73
     0
 74
     0
 75
     1
 40
4.571429
 41
34.142857
 76
     3
 10
875.025724
 20
223.239491
 30
0.0
 10
889.620989
 20
201.03711
 30
0.0
 10
892.620989
 20
201.03711
 30
0.0
 77
   256
340
333
213
0.0
223
-1.5
233
0.0
1001
ACAD
1000
DSTYLE
1002
{
1070
   144
1040
1.0
1002
}
  0
LINE
  5
336
100
AcDbEntity
  8
M04
100
AcDbLine
 10
858.257613
 20
203.780872
 30
0.0
 11
860.557613
 21
205.108777
 31
0.0
  0
LINE
  5
337
100
AcDbEntity
  8
M04
100
AcDbLine
 10
855.957613
 20
205.108777
 30
0.0
 11
858.257613
 21
203.780872
 31
0.0
  0
LINE
  5
338
100
AcDbEntity
  8
M04
100
AcDbLine
 10
855.957613
 20
205.108777
 30
0.0
 11
860.557613
 21
205.108777
 31
0.0
  0
LINE
  5
339
100
AcDbEntity
  8
M04
100
AcDbLine
 10
855.257613
 20
210.169895
 30
0.0
 11
855.257613
 21
206.608777
 31
0.0
  0
LINE
  5
33A
100
AcDbEntity
  8
M04
100
AcDbLine
 10
855.957613
 20
209.469895
 30
0.0
 11
855.957613
 21
205.108777
 31
0.0
  0
LINE
  5
33B
100
AcDbEntity
  8
M04
100
AcDbLine
 10
861.257613
 20
210.169895
 30
0.0
 11
861.257613
 21
206.608777
 31
0.0
  0
LINE
  5
33C
100
AcDbEntity
  8
M04
100
AcDbLine
 10
860.557613
 20
209.469895
 30
0.0
 11
860.557613
 21
205.108777
 31
0.0
  0
LINE
  5
33D
100
AcDbEntity
  8
M05
100
AcDbLine
 10
860.557613
 20
209.469895
 30
0.0
 11
861.257613
 21
210.169895
 31
0.0
  0
LINE
  5
33E
100
AcDbEntity
  8
M05
100
AcDbLine
 10
855.257613
 20
210.169895
 30
0.0
 11
855.957613
 21
209.469895
 31
0.0
  0
LINE
  5
33F
100
AcDbEntity
  8
M05
100
AcDbLine
 10
860.557613
 20
222.249895
 30
0.0
 11
860.557613
 21
209.469895
 31
0.0
  0
LINE
  5
340
100
AcDbEntity
  8
M05
100
AcDbLine
 10
855.957613
 20
222.249895
 30
0.0
 11
855.957613
 21
209.469895
 31
0.0
  0
LINE
  5
341
100
AcDbEntity
  8
M05
100
AcDbLine
 10
855.257613
 20
210.169895
 30
0.0
 11
861.257613
 21
210.169895
 31
0.0
  0
LINE
  5
342
100
AcDbEntity
  8
M04
100
AcDbLine
 10
855.257613
 20
206.608777
 30
0.0
 11
861.257613
 21
206.608777
 31
0.0
  0
LINE
  5
343
100
AcDbEntity
  8
M05
100
AcDbLine
 10
855.957613
 20
209.469895
 30
0.0
 11
860.557613
 21
209.469895
 31
0.0
  0
LINE
  5
344
102
{ACAD_REACTORS
330
98
102
}
100
AcDbEntity
  8
M05
  6
HIDDEN
100
AcDbLine
 10
850.098731
 20
228.908777
 30
0.0
 11
849.398731
 21
229.608777
 31
0.0
  0
LINE
  5
345
102
{ACAD_REACTORS
330
98
102
}
100
AcDbEntity
  8
M05
  6
HIDDEN
100
AcDbLine
 10
866.416495
 20
228.908777
 30
0.0
 11
867.116495
 21
229.608777
 31
0.0
  0
LINE
  5
346
100
AcDbEntity
  8
M05
100
AcDbLine
 10
855.257613
 20
222.249895
 30
0.0
 11
861.257613
 21
222.249895
 31
0.0
  0
LINE
  5
347
100
AcDbEntity
  8
M05
100
AcDbLine
 10
858.807613
 20
226.749895
 30
0.0
 11
864.257613
 21
226.749895
 31
0.0
  0
LINE
  5
348
100
AcDbEntity
  8
M05
100
AcDbLine
 10
858.807613
 20
227.469895
 30
0.0
 11
864.257613
 21
227.469895
 31
0.0
  0
LINE
  5
349
100
AcDbEntity
  8
M05
100
AcDbLine
 10
858.807613
 20
227.469895
 30
0.0
 11
858.807613
 21
225.969895
 31
0.0
  0
LINE
  5
34A
100
AcDbEntity
  8
M05
100
AcDbLine
 10
857.707613
 20
227.469895
 30
0.0
 11
857.707613
 21
225.969895
 31
0.0
  0
LINE
  5
34B
100
AcDbEntity
  8
M05
100
AcDbLine
 10
857.707613
 20
225.969895
 30
0.0
 11
858.807613
 21
225.969895
 31
0.0
  0
LINE
  5
34C
102
{ACAD_REACTORS
330
113
102
}
100
AcDbEntity
  8
M05
100
AcDbLine
 10
861.757613
 20
224.249895
 30
0.0
 11
861.757613
 21
221.608777
 31
0.0
  0
LINE
  5
34D
102
{ACAD_REACTORS
330
113
102
}
100
AcDbEntity
  8
M05
100
AcDbLine
 10
854.757613
 20
224.249895
 30
0.0
 11
854.757613
 21
221.608777
 31
0.0
  0
LINE
  5
34E
100
AcDbEntity
  8
M05
100
AcDbLine
 10
852.257613
 20
226.749895
 30
0.0
 11
857.707613
 21
226.749895
 31
0.0
  0
LINE
  5
34F
102
{ACAD_REACTORS
330
113
330
98
102
}
100
AcDbEntity
  8
M05
100
AcDbLine
 10
855.257613
 20
223.749895
 30
0.0
 11
850.098731
 21
228.908777
 31
0.0
  0
LINE
  5
350
100
AcDbEntity
  8
M05
100
AcDbLine
 10
852.257613
 20
227.469895
 30
0.0
 11
852.257613
 21
226.749895
 31
0.0
  0
LINE
  5
351
102
{ACAD_REACTORS
330
113
330
98
102
}
100
AcDbEntity
  8
M05
100
AcDbLine
 10
861.257613
 20
223.749895
 30
0.0
 11
866.416495
 21
228.908777
 31
0.0
  0
LINE
  5
352
100
AcDbEntity
  8
M05
100
AcDbLine
 10
855.257613
 20
223.749895
 30
0.0
 11
861.257613
 21
223.749895
 31
0.0
  0
LINE
  5
353
100
AcDbEntity
  8
M05
100
AcDbLine
 10
855.257613
 20
223.749895
 30
0.0
 11
855.257613
 21
210.169895
 31
0.0
  0
LINE
  5
354
100
AcDbEntity
  8
M05
100
AcDbLine
 10
861.257613
 20
223.749895
 30
0.0
 11
861.257613
 21
210.169895
 31
0.0
  0
LINE
  5
355
100
AcDbEntity
  8
M05
100
AcDbLine
 10
864.257613
 20
227.469895
 30
0.0
 11
864.257613
 21
226.749895
 31
0.0
  0
LINE
  5
356
100
AcDbEntity
  8
M05
100
AcDbLine
 10
852.257613
 20
227.469895
 30
0.0
 11
857.707613
 21
227.469895
 31
0.0
  0
LINE
  5
357
102
{ACAD_REACTORS
330
98
102
}
100
AcDbEntity
  8
M05
  6
HIDDEN
100
AcDbLine
 10
834.257613
 20
228.908777
 30
0.0
 11
882.257613
 21
228.908777
 31
0.0
  0
LINE
  5
358
100
AcDbEntity
  8
M05
  6
HIDDEN
100
AcDbLine
 10
882.257613
 20
228.908777
 30
0.0
 11
881.557613
 21
229.608777
 31
0.0
  0
LINE
  5
359
100
AcDbEntity
  8
M05
  6
HIDDEN
100
AcDbLine
 10
882.257613
 20
227.908777
 30
0.0
 11
882.257613
 21
228.908777
 31
0.0
  0
LINE
  5
35A
102
{ACAD_REACTORS
330
113
102
}
100
AcDbEntity
  8
M05
100
AcDbLine
 10
882.257613
 20
227.908777
 30
0.0
 11
881.557613
 21
228.608777
 31
0.0
  0
LINE
  5
35B
102
{ACAD_REACTORS
330
113
102
}
100
AcDbEntity
  8
M05
100
AcDbLine
 10
882.257613
 20
222.308777
 30
0.0
 11
881.557613
 21
221.608777
 31
0.0
  0
LINE
  5
35C
102
{ACAD_REACTORS
330
113
102
}
100
AcDbEntity
  8
M05
100
AcDbLine
 10
882.257613
 20
227.908777
 30
0.0
 11
882.257613
 21
222.308777
 31
0.0
  0
LINE
  5
35D
102
{ACAD_REACTORS
330
98
102
}
100
AcDbEntity
  8
M05
  6
HIDDEN
100
AcDbLine
 10
834.257613
 20
228.908777
 30
0.0
 11
834.957613
 21
229.608777
 31
0.0
  0
LINE
  5
35E
102
{ACAD_REACTORS
330
98
102
}
100
AcDbEntity
  8
M05
  6
HIDDEN
100
AcDbLine
 10
834.257613
 20
227.908777
 30
0.0
 11
834.257613
 21
228.908777
 31
0.0
  0
LINE
  5
35F
102
{ACAD_REACTORS
330
113
102
}
100
AcDbEntity
  8
M05
100
AcDbLine
 10
834.257613
 20
227.908777
 30
0.0
 11
834.957613
 21
228.608777
 31
0.0
  0
LINE
  5
360
102
{ACAD_REACTORS
330
113
102
}
100
AcDbEntity
  8
M05
100
AcDbLine
 10
834.257613
 20
222.308777
 30
0.0
 11
834.957613
 21
221.608777
 31
0.0
  0
LINE
  5
361
102
{ACAD_REACTORS
330
93
102
}
100
AcDbEntity
  8
M02
100
AcDbLine
 10
883.257613
 20
228.608777
 30
0.0
 11
883.257613
 21
225.608777
 31
0.0
  0
LINE
  5
362
102
{ACAD_REACTORS
330
94
102
}
100
AcDbEntity
  8
M02
100
AcDbLine
 10
833.257613
 20
228.608777
 30
0.0
 11
833.257613
 21
225.608777
 31
0.0
  0
LINE
  5
363
102
{ACAD_REACTORS
330
98
102
}
100
AcDbEntity
  8
M05
  6
HIDDEN
100
AcDbLine
 10
834.957613
 20
229.608777
 30
0.0
 11
881.557613
 21
229.608777
 31
0.0
  0
LINE
  5
364
102
{ACAD_REACTORS
330
113
102
}
100
AcDbEntity
  8
M05
100
AcDbLine
 10
834.257613
 20
227.908777
 30
0.0
 11
834.257613
 21
222.308777
 31
0.0
  0
LINE
  5
365
102
{ACAD_REACTORS
330
98
102
}
100
AcDbEntity
  8
CENTRE
100
AcDbLine
 10
858.257613
 20
234.117888
 30
0.0
 11
858.257613
 21
201.03955
 31
0.0
  0
CIRCLE
  5
366
100
AcDbEntity
  8
M03
100
AcDbCircle
 10
458.257613
 20
644.160844
 30
0.0
 40
2.3
  0
ARC
  5
367
100
AcDbEntity
  8
M03
100
AcDbCircle
 10
458.257613
 20
644.160844
 30
0.0
 40
3.0
100
AcDbArc
 50
167.784636
 51
96.923103
  0
LINE
  5
368
100
AcDbEntity
  8
M03
100
AcDbLine
 10
458.807613
 20
638.186105
 30
0.0
 11
458.807613
 21
650.135582
 31
0.0
  0
LINE
  5
369
100
AcDbEntity
  8
M03
100
AcDbLine
 10
457.707613
 20
638.186105
 30
0.0
 11
457.707613
 21
650.135582
 31
0.0
  0
CIRCLE
  5
36A
100
AcDbEntity
  8
M03
100
AcDbCircle
 10
458.257613
 20
644.160844
 30
0.0
 40
7.858882
  0
CIRCLE
  5
36B
100
AcDbEntity
  8
M03
100
AcDbCircle
 10
458.257613
 20
644.160844
 30
0.0
 40
6.0
  0
LINE
  5
36C
100
AcDbEntity
  8
DIMS
 62
     4
100
AcDbLine
 10
661.657613
 20
518.160844
 30
0.0
 11
665.457613
 21
518.160844
 31
0.0
  0
LINE
  5
36D
100
AcDbEntity
  8
DIMS
 62
     4
100
AcDbLine
 10
654.857613
 20
518.160844
 30
0.0
 11
651.057613
 21
518.160844
 31
0.0
  0
LINE
  5
36E
100
AcDbEntity
  8
DIMS
 62
     4
100
AcDbLine
 10
656.557613
 20
518.160844
 30
0.0
 11
659.957613
 21
518.160844
 31
0.0
  0
CIRCLE
  5
36F
100
AcDbEntity
  8
M03
100
AcDbCircle
 10
658.257613
 20
518.160844
 30
0.0
 40
2.3
  0
ARC
  5
370
100
AcDbEntity
  8
M03
100
AcDbCircle
 10
658.257613
 20
518.160844
 30
0.0
 40
3.0
100
AcDbArc
 50
167.784636
 51
96.923103
  0
CIRCLE
  5
371
100
AcDbEntity
  8
M03
100
AcDbCircle
 10
658.257613
 20
518.160844
 30
0.0
 40
5.5
  0
CIRCLE
  5
372
100
AcDbEntity
  8
M03
100
AcDbCircle
 10
658.257613
 20
544.160844
 30
0.0
 40
34.0
  0
LINE
  5
373
100
AcDbEntity
  8
DIMS
 62
     4
100
AcDbLine
 10
632.257613
 20
547.560844
 30
0.0
 11
632.257613
 21
551.360844
 31
0.0
  0
LINE
  5
374
100
AcDbEntity
  8
DIMS
 62
     4
100
AcDbLine
 10
632.257613
 20
540.760844
 30
0.0
 11
632.257613
 21
536.960844
 31
0.0
  0
LINE
  5
375
100
AcDbEntity
  8
DIMS
 62
     4
100
AcDbLine
 10
632.257613
 20
542.460844
 30
0.0
 11
632.257613
 21
545.860844
 31
0.0
  0
LINE
  5
376
100
AcDbEntity
  8
DIMS
 62
     4
100
AcDbLine
 10
684.257613
 20
547.560844
 30
0.0
 11
684.257613
 21
551.360844
 31
0.0
  0
LINE
  5
377
100
AcDbEntity
  8
DIMS
 62
     4
100
AcDbLine
 10
684.257613
 20
540.760844
 30
0.0
 11
684.257613
 21
536.960844
 31
0.0
  0
LINE
  5
378
100
AcDbEntity
  8
DIMS
 62
     4
100
AcDbLine
 10
684.257613
 20
542.460844
 30
0.0
 11
684.257613
 21
545.860844
 31
0.0
  0
LINE
  5
379
100
AcDbEntity
  8
DIMS
 62
     4
100
AcDbLine
 10
661.657613
 20
570.160844
 30
0.0
 11
665.457613
 21
570.160844
 31
0.0
  0
LINE
  5
37A
100
AcDbEntity
  8
DIMS
 62
     4
100
AcDbLine
 10
654.857613
 20
570.160844
 30
0.0
 11
651.057613
 21
570.160844
 31
0.0
  0
LINE
  5
37B
100
AcDbEntity
  8
DIMS
 62
     4
100
AcDbLine
 10
656.557613
 20
570.160844
 30
0.0
 11
659.957613
 21
570.160844
 31
0.0
  0
CIRCLE
  5
37C
100
AcDbEntity
  8
M03
100
AcDbCircle
 10
684.257613
 20
544.160844
 30
0.0
 40
2.3
  0
ARC
  5
37D
100
AcDbEntity
  8
M03
100
AcDbCircle
 10
684.257613
 20
544.160844
 30
0.0
 40
3.0
100
AcDbArc
 50
167.784636
 51
96.923103
  0
CIRCLE
  5
37E
100
AcDbEntity
  8
M03
100
AcDbCircle
 10
684.257613
 20
544.160844
 30
0.0
 40
5.5
  0
CIRCLE
  5
37F
100
AcDbEntity
  8
M03
100
AcDbCircle
 10
632.257613
 20
544.160844
 30
0.0
 40
2.3
  0
ARC
  5
380
100
AcDbEntity
  8
M03
100
AcDbCircle
 10
632.257613
 20
544.160844
 30
0.0
 40
3.0
100
AcDbArc
 50
167.784636
 51
96.923103
  0
CIRCLE
  5
381
100
AcDbEntity
  8
M03
100
AcDbCircle
 10
632.257613
 20
544.160844
 30
0.0
 40
5.5
  0
CIRCLE
  5
382
100
AcDbEntity
  8
M03
100
AcDbCircle
 10
658.257613
 20
570.160844
 30
0.0
 40
2.3
  0
ARC
  5
383
100
AcDbEntity
  8
M03
100
AcDbCircle
 10
658.257613
 20
570.160844
 30
0.0
 40
3.0
100
AcDbArc
 50
167.784636
 51
96.923103
  0
CIRCLE
  5
384
100
AcDbEntity
  8
M03
100
AcDbCircle
 10
658.257613
 20
570.160844
 30
0.0
 40
5.5
  0
CIRCLE
  5
385
100
AcDbEntity
  8
M03
100
AcDbCircle
 10
658.257613
 20
544.160844
 30
0.0
 40
20.0
  0
WIPEOUT
  5
386
100
AcDbEntity
  8
TEXT
 92
      140
310
8C00000001000000840000000600000005000000AD2B40FDF7298A40FCA3CC5603976E400000000000000000BC15E10BE2A28A40FCA3CC5603976E400000000000000000BD15E10BE2A28A40F8A3CC5603176F400000000000000000AF2B40FDF7298A40FDA3CC5603176F400000000000000000AD2B40FDF7298A40FCA3CC
310
5603976E400000000000000000
100
AcDbWipeout
 90
        0
 10
802.406465
 20
198.765248
 30
0.0
 11
49.95391
 21
0.0
 31
0.0
 12
0.0
 22
49.95391
 32
0.0
 13
0.0
 23
0.0
340
0
 70
     7
280
     1
281
    50
282
    50
283
     0
360
0
 71
     2
 91
        5
 14
0.197435
 24
-0.419926
 14
0.5
 24
-0.419926
 14
0.5
 24
-0.5
 14
0.197435
 24
-0.5
 14
0.197435
 24
-0.419926
  0
TEXT
  5
387
102
{ACAD_REACTORS
330
98
102
}
100
AcDbEntity
  8
TEXT
100
AcDbText
 10
838.246089
 20
245.719158
 30
0.0
 40
2.0
  1
MM010112
 41
0.9
100
AcDbText
  0
CIRCLE
  5
388
102
{ACAD_REACTORS
330
98
102
}
100
AcDbEntity
  8
M01
100
AcDbCircle
 10
558.257613
 20
271.608777
 30
0.0
 40
4.0
  0
LINE
  5
389
102
{ACAD_REACTORS
330
98
102
}
100
AcDbEntity
  8
M01
100
AcDbLine
 10
662.257613
 20
245.608777
 30
0.0
 11
758.257613
 21
245.608777
 31
0.0
  0
LINE
  5
38A
100
AcDbEntity
  8
M01
100
AcDbLine
 10
658.257613
 20
249.608777
 30
0.0
 11
662.257613
 21
245.608777
 31
0.0
  0
LINE
  5
38B
100
AcDbEntity
  8
M01
100
AcDbLine
 10
654.257613
 20
245.608777
 30
0.0
 11
658.257613
 21
249.608777
 31
0.0
  0
LINE
  5
38C
100
AcDbEntity
  8
M01
100
AcDbLine
 10
562.257613
 20
253.608777
 30
0.0
 11
558.257613
 21
249.608777
 31
0.0
  0
ARC
  5
38D
102
{ACAD_REACTORS
330
98
102
}
100
AcDbEntity
  8
M01
100
AcDbCircle
 10
558.257613
 20
249.608777
 30
0.0
 40
4.0
100
AcDbArc
 50
180.0
 51
270.0
  0
LINE
  5
38E
102
{ACAD_REACTORS
330
98
102
}
100
AcDbEntity
  8
M01
100
AcDbLine
 10
562.257613
 20
271.608777
 30
0.0
 11
562.257613
 21
253.608777
 31
0.0
  0
LINE
  5
38F
102
{ACAD_REACTORS
330
98
102
}
100
AcDbEntity
  8
M01
100
AcDbLine
 10
554.257613
 20
271.608777
 30
0.0
 11
554.257613
 21
249.608777
 31
0.0
  0
LINE
  5
390
100
AcDbEntity
  8
CENTRE
100
AcDbLine
 10
558.257613
 20
279.608777
 30
0.0
 11
558.257613
 21
241.608777
 31
0.0
  0
LINE
  5
391
100
AcDbEntity
  8
M01
100
AcDbLine
 10
754.257613
 20
253.608777
 30
0.0
 11
758.257613
 21
249.608777
 31
0.0
  0
ARC
  5
392
102
{ACAD_REACTORS
330
98
102
}
100
AcDbEntity
  8
M01
100
AcDbCircle
 10
758.257613
 20
249.608777
 30
0.0
 40
4.0
100
AcDbArc
 50
270.0
 51
0.0
  0
LINE
  5
393
100
AcDbEntity
  8
CENTRE
100
AcDbLine
 10
550.257613
 20
249.608777
 30
0.0
 11
766.257613
 21
249.608777
 31
0.0
  0
LINE
  5
394
102
{ACAD_REACTORS
330
98
102
}
100
AcDbEntity
  8
M01
100
AcDbLine
 10
558.257613
 20
245.608777
 30
0.0
 11
654.257613
 21
245.608777
 31
0.0
  0
LINE
  5
395
102
{ACAD_REACTORS
330
98
102
}
100
AcDbEntity
  8
M01
100
AcDbLine
 10
562.257613
 20
253.608777
 30
0.0
 11
754.257613
 21
253.608777
 31
0.0
  0
ARC
  5
396
102
{ACAD_REACTORS
330
98
102
}
100
AcDbEntity
  8
M01
100
AcDbCircle
 10
758.257613
 20
271.608777
 30
0.0
 40
4.0
100
AcDbArc
 50
90.0
 51
180.0
  0
LINE
  5
397
100
AcDbEntity
  8
M01
100
AcDbLine
 10
758.257613
 20
271.608777
 30
0.0
 11
762.257613
 21
267.608777
 31
0.0
  0
LINE
  5
398
102
{ACAD_REACTORS
330
98
102
}
100
AcDbEntity
  8
M01
100
AcDbLine
 10
754.257613
 20
271.608777
 30
0.0
 11
754.257613
 21
253.608777
 31
0.0
  0
LINE
  5
399
102
{ACAD_REACTORS
330
98
102
}
100
AcDbEntity
  8
M01
100
AcDbLine
 10
762.257613
 20
267.608777
 30
0.0
 11
762.257613
 21
249.608777
 31
0.0
  0
LINE
  5
39A
100
AcDbEntity
  8
CENTRE
100
AcDbLine
 10
758.257613
 20
279.608777
 30
0.0
 11
758.257613
 21
241.608777
 31
0.0
  0
LINE
  5
39B
102
{ACAD_REACTORS
330
98
102
}
100
AcDbEntity
  8
M01
100
AcDbLine
 10
858.257613
 20
267.608777
 30
0.0
 11
762.257613
 21
267.608777
 31
0.0
  0
ARC
  5
39C
102
{ACAD_REACTORS
330
98
102
}
100
AcDbEntity
  8
M01
100
AcDbCircle
 10
858.257613
 20
271.608777
 30
0.0
 40
4.0
100
AcDbArc
 50
270.0
 51
0.0
  0
LINE
  5
39D
102
{ACAD_REACTORS
330
98
102
}
100
AcDbEntity
  8
M01
100
AcDbLine
 10
862.257613
 20
288.608777
 30
0.0
 11
862.257613
 21
271.608777
 31
0.0
  0
LINE
  5
39E
102
{ACAD_REACTORS
330
98
102
}
100
AcDbEntity
  8
M01
100
AcDbLine
 10
854.257613
 20
288.608777
 30
0.0
 11
854.257613
 21
275.608777
 31
0.0
  0
LINE
  5
39F
102
{ACAD_REACTORS
330
98
102
}
100
AcDbEntity
  8
M01
100
AcDbLine
 10
854.257613
 20
275.608777
 30
0.0
 11
758.257613
 21
275.608777
 31
0.0
  0
LINE
  5
3A0
102
{ACAD_REACTORS
330
95
102
}
100
AcDbEntity
  8
M02
100
AcDbLine
 10
876.257613
 20
288.608777
 30
0.0
 11
876.257613
 21
291.608777
 31
0.0
  0
LINE
  5
3A1
102
{ACAD_REACTORS
330
96
102
}
100
AcDbEntity
  8
M02
100
AcDbLine
 10
840.257613
 20
288.608777
 30
0.0
 11
840.257613
 21
291.608777
 31
0.0
  0
LINE
  5
3A2
100
AcDbEntity
  8
CENTRE
100
AcDbLine
 10
750.257613
 20
271.608777
 30
0.0
 11
866.257613
 21
271.608777
 31
0.0
  0
LINE
  5
3A3
100
AcDbEntity
  8
M01
100
AcDbLine
 10
858.257613
 20
271.608777
 30
0.0
 11
854.257613
 21
275.608777
 31
0.0
  0
LINE
  5
3A4
100
AcDbEntity
  8
CENTRE
100
AcDbLine
 10
858.257613
 20
301.420372
 30
0.0
 11
858.257613
 21
263.608777
 31
0.0
  0
LWPOLYLINE
  5
3A5
100
AcDbEntity
  8
M01
 62
     4
100
AcDbPolyline
 90
        2
 70
     0
 43
0.0
 10
900.531951
 20
615.30797
 10
913.700367
 20
626.546766
1001
ACAD
1000
DSTYLE
1002
{
1070
   144
1040
1.0
1002
}
  0
SOLID
  5
3A6
100
AcDbEntity
  8
M01
 62
     4
100
AcDbTrace
 10
900.207362
 20
615.688289
 30
0.0
 11
898.25004
 21
613.360437
 31
0.0
 12
900.856539
 22
614.927652
 32
0.0
 13
900.856539
 23
614.927652
 33
0.0
1001
ACAD
1000
DSTYLE
1002
{
1070
   144
1040
1.0
1002
}
  0
LINE
  5
3A7
100
AcDbEntity
  8
M01
 62
     4
100
AcDbLine
 10
804.237394
 20
407.992419
 30
0.0
 11
801.237394
 21
407.992419
 31
0.0
1001
ACAD
1000
DSTYLE
1002
{
1070
   144
1040
1.0
1002
}
  0
LINE
  5
3A8
100
AcDbEntity
  8
M01
 62
     4
100
AcDbLine
 10
820.241905
 20
438.150603
 30
0.0
 11
804.237394
 21
407.992419
 31
0.0
1001
ACAD
1000
DSTYLE
1002
{
1070
   144
1040
1.0
1002
}
  0
SOLID
  5
3A9
100
AcDbEntity
  8
M01
 62
     4
100
AcDbTrace
 10
819.800244
 20
438.384986
 30
0.0
 11
821.648204
 21
440.800569
 31
0.0
 12
820.683566
 22
437.91622
 32
0.0
 13
820.683566
 23
437.91622
 33
0.0
1001
ACAD
1000
DSTYLE
1002
{
1070
   144
1040
1.0
1002
}
  0
MTEXT
  5
3AA
100
AcDbEntity
  8
DIMS
 62
     2
100
AcDbMText
 10
764.876564
 20
407.538589
 30
0.0
 40
3.0
 41
0.0
 71
     4
 72
     5
  1
HGX10037 (x2)
  0
LINE
  5
3AB
100
AcDbEntity
  8
M01
100
AcDbLine
 10
361.021945
 20
234.620765
 30
0.0
 11
359.815216
 21
232.641057
 31
0.0
  0
LINE
  5
3AC
100
AcDbEntity
  8
M01
100
AcDbLine
 10
349.568718
 20
226.886798
 30
0.0
 11
340.993906
 21
226.886798
 31
0.0
  0
LINE
  5
3AD
100
AcDbEntity
  8
M01
100
AcDbLine
 10
349.568718
 20
230.886798
 30
0.0
 11
340.993906
 21
230.886798
 31
0.0
  0
ARC
  5
3AE
100
AcDbEntity
  8
M01
100
AcDbCircle
 10
349.568718
 20
238.886798
 30
0.0
 40
12.0
100
AcDbArc
 50
270.0
 51
328.635651
  0
ARC
  5
3AF
100
AcDbEntity
  8
M01
100
AcDbCircle
 10
349.568718
 20
238.886798
 30
0.0
 40
8.0
100
AcDbArc
 50
270.0
 51
321.153546
  0
LINE
  5
3B0
100
AcDbEntity
  8
M01
100
AcDbLine
 10
364.646398
 20
248.252126
 30
0.0
 11
358.41229
 21
238.024714
 31
0.0
  0
LINE
  5
3B1
100
AcDbEntity
  8
M01
100
AcDbLine
 10
368.061897
 20
246.170212
 30
0.0
 11
367.864688
 21
245.84668
 31
0.0
  0
LINE
  5
3B2
100
AcDbEntity
  8
M01
100
AcDbLine
 10
375.064305
 20
247.608777
 30
0.0
 11
375.657613
 21
247.608777
 31
0.0
  0
LINE
  5
3B3
100
AcDbEntity
  8
M01
100
AcDbLine
 10
370.623521
 20
251.608777
 30
0.0
 11
373.349365
 21
251.608777
 31
0.0
  0
ARC
  5
3B4
100
AcDbEntity
  8
M01
100
AcDbCircle
 10
370.623521
 20
244.608777
 30
0.0
 40
3.0
100
AcDbArc
 50
118.327309
 51
148.635651
  0
ARC
  5
3B5
100
AcDbEntity
  8
M01
100
AcDbCircle
 10
370.623521
 20
244.608777
 30
0.0
 40
7.0
100
AcDbArc
 50
90.0
 51
148.635651
  0
ARC
  5
3B6
100
AcDbEntity
  8
M01
100
AcDbCircle
 10
375.657613
 20
244.608777
 30
0.0
 40
7.0
100
AcDbArc
 50
0.0
 51
67.321321
  0
ARC
  5
3B7
100
AcDbEntity
  8
M01
100
AcDbCircle
 10
375.657613
 20
244.608777
 30
0.0
 40
3.0
100
AcDbArc
 50
0.0
 51
90.0
  0
ARC
  5
3B8
100
AcDbEntity
  8
M01
100
AcDbCircle
 10
356.841138
 20
245.868914
 30
0.0
 40
12.0
100
AcDbArc
 50
270.0
 51
316.413007
  0
ARC
  5
3B9
100
AcDbEntity
  8
M01
100
AcDbCircle
 10
356.841138
 20
245.868914
 30
0.0
 40
8.0
100
AcDbArc
 50
270.0
 51
316.413007
  0
LINE
  5
3BA
100
AcDbEntity
  8
M01
100
AcDbLine
 10
378.657613
 20
244.608777
 30
0.0
 11
378.657613
 21
239.608777
 31
0.0
  0
LINE
  5
3BB
100
AcDbEntity
  8
M01
100
AcDbLine
 10
378.657613
 20
243.608777
 30
0.0
 11
382.657613
 21
243.608777
 31
0.0
  0
LINE
  5
3BC
100
AcDbEntity
  8
M01
100
AcDbLine
 10
378.657613
 20
239.608777
 30
0.0
 11
382.657613
 21
239.608777
 31
0.0
  0
LINE
  5
3BD
100
AcDbEntity
  8
M01
100
AcDbLine
 10
382.657613
 20
287.608777
 30
0.0
 11
382.657613
 21
260.384239
 31
0.0
  0
LINE
  5
3BE
100
AcDbEntity
  8
M01
100
AcDbLine
 10
378.657613
 20
260.384239
 30
0.0
 11
378.657613
 21
277.608777
 31
0.0
  0
ARC
  5
3BF
100
AcDbEntity
  8
M01
100
AcDbCircle
 10
370.657613
 20
260.384239
 30
0.0
 40
12.0
100
AcDbArc
 50
316.413007
 51
360.0
  0
ARC
  5
3C0
100
AcDbEntity
  8
M01
100
AcDbCircle
 10
370.657613
 20
260.384239
 30
0.0
 40
8.0
100
AcDbArc
 50
316.413007
 51
360.0
  0
LINE
  5
3C1
100
AcDbEntity
  8
M01
100
AcDbLine
 10
378.657613
 20
273.608777
 30
0.0
 11
382.657613
 21
273.608777
 31
0.0
  0
LINE
  5
3C2
100
AcDbEntity
  8
M01
100
AcDbLine
 10
378.657613
 20
277.608777
 30
0.0
 11
382.657613
 21
277.608777
 31
0.0
  0
LINE
  5
3C3
100
AcDbEntity
  8
M01
100
AcDbLine
 10
365.533079
 20
237.595453
 30
0.0
 11
379.349553
 21
252.110777
 31
0.0
  0
LINE
  5
3C4
100
AcDbEntity
  8
M01
100
AcDbLine
 10
362.635765
 20
240.353273
 30
0.0
 11
376.45224
 21
254.868598
 31
0.0
  0
LINE
  5
3C5
100
AcDbEntity
  8
M01
100
AcDbLine
 10
341.002648
 20
233.868914
 30
0.0
 11
356.841138
 21
233.868914
 31
0.0
  0
LINE
  5
3C6
100
AcDbEntity
  8
M01
100
AcDbLine
 10
341.002648
 20
237.868914
 30
0.0
 11
356.841138
 21
237.868914
 31
0.0
  0
LINE
  5
3C7
100
AcDbEntity
  8
M01
100
AcDbLine
 10
397.313512
 20
237.858777
 30
0.0
 11
397.313512
 21
231.358777
 31
0.0
  0
LINE
  5
3C8
100
AcDbEntity
  8
M01
100
AcDbLine
 10
389.201713
 20
237.858777
 30
0.0
 11
389.201713
 21
231.358777
 31
0.0
  0
LINE
  5
3C9
100
AcDbEntity
  8
M01
100
AcDbLine
 10
397.313512
 20
237.858777
 30
0.0
 11
399.257613
 21
237.858777
 31
0.0
  0
ARC
  5
3CA
100
AcDbEntity
  8
M01
100
AcDbCircle
 10
395.752263
 20
239.108777
 30
0.0
 40
2.0
100
AcDbArc
 50
270.0
 51
321.317813
  0
ARC
  5
3CB
100
AcDbEntity
  8
M01
100
AcDbCircle
 10
390.762962
 20
239.108777
 30
0.0
 40
2.0
100
AcDbArc
 50
218.682187
 51
270.0
  0
LINE
  5
3CC
100
AcDbEntity
  8
M01
100
AcDbLine
 10
387.257613
 20
237.858777
 30
0.0
 11
389.201713
 21
237.858777
 31
0.0
  0
LINE
  5
3CD
100
AcDbEntity
  8
M01
100
AcDbLine
 10
390.762962
 20
237.108777
 30
0.0
 11
395.752263
 21
237.108777
 31
0.0
  0
LINE
  5
3CE
100
AcDbEntity
  8
M01
100
AcDbLine
 10
397.313512
 20
231.358777
 30
0.0
 11
399.257613
 21
231.358777
 31
0.0
  0
ARC
  5
3CF
100
AcDbEntity
  8
M01
100
AcDbCircle
 10
395.752263
 20
230.108777
 30
0.0
 40
2.0
100
AcDbArc
 50
38.682187
 51
90.0
  0
ARC
  5
3D0
100
AcDbEntity
  8
M01
100
AcDbCircle
 10
390.762962
 20
230.108777
 30
0.0
 40
2.0
100
AcDbArc
 50
90.0
 51
141.317813
  0
LINE
  5
3D1
100
AcDbEntity
  8
M01
100
AcDbLine
 10
387.257613
 20
231.358777
 30
0.0
 11
389.201713
 21
231.358777
 31
0.0
  0
LINE
  5
3D2
100
AcDbEntity
  8
M01
100
AcDbLine
 10
390.762962
 20
232.108777
 30
0.0
 11
395.752263
 21
232.108777
 31
0.0
  0
LINE
  5
3D3
100
AcDbEntity
  8
DIMS
 62
     4
100
AcDbLine
 10
877.116346
 20
232.608777
 30
0.0
 11
874.816346
 21
232.608777
 31
0.0
  0
LINE
  5
3D4
100
AcDbEntity
  8
DIMS
 62
     4
100
AcDbLine
 10
883.916346
 20
232.608777
 30
0.0
 11
886.216346
 21
232.608777
 31
0.0
  0
LINE
  5
3D5
100
AcDbEntity
  8
DIMS
 62
     4
100
AcDbLine
 10
880.516346
 20
229.208777
 30
0.0
 11
880.516346
 21
226.908777
 31
0.0
  0
LINE
  5
3D6
100
AcDbEntity
  8
DIMS
 62
     4
100
AcDbLine
 10
880.516346
 20
236.008777
 30
0.0
 11
880.516346
 21
238.308777
 31
0.0
  0
LINE
  5
3D7
100
AcDbEntity
  8
DIMS
 62
     4
100
AcDbLine
 10
882.216346
 20
232.608777
 30
0.0
 11
878.816346
 21
232.608777
 31
0.0
  0
LINE
  5
3D8
100
AcDbEntity
  8
DIMS
 62
     4
100
AcDbLine
 10
880.516346
 20
234.308777
 30
0.0
 11
880.516346
 21
230.908777
 31
0.0
  0
LINE
  5
3D9
100
AcDbEntity
  8
DIMS
 62
     4
100
AcDbLine
 10
877.116346
 20
284.608777
 30
0.0
 11
874.816346
 21
284.608777
 31
0.0
  0
LINE
  5
3DA
100
AcDbEntity
  8
DIMS
 62
     4
100
AcDbLine
 10
883.916346
 20
284.608777
 30
0.0
 11
886.216346
 21
284.608777
 31
0.0
  0
LINE
  5
3DB
100
AcDbEntity
  8
DIMS
 62
     4
100
AcDbLine
 10
880.516346
 20
281.208777
 30
0.0
 11
880.516346
 21
278.908777
 31
0.0
  0
LINE
  5
3DC
100
AcDbEntity
  8
DIMS
 62
     4
100
AcDbLine
 10
880.516346
 20
288.008777
 30
0.0
 11
880.516346
 21
290.308777
 31
0.0
  0
LINE
  5
3DD
100
AcDbEntity
  8
DIMS
 62
     4
100
AcDbLine
 10
882.216346
 20
284.608777
 30
0.0
 11
878.816346
 21
284.608777
 31
0.0
  0
LINE
  5
3DE
100
AcDbEntity
  8
DIMS
 62
     4
100
AcDbLine
 10
880.516346
 20
286.308777
 30
0.0
 11
880.516346
 21
282.908777
 31
0.0
  0
HATCH
  5
3DF
100
AcDbEntity
  8
HATCH
100
AcDbHatch
 10
0.0
 20
0.0
 30
0.0
210
0.0
220
0.0
230
1.0
  2
_U
 70
     0
 71
     1
 91
        2
 92
        7
 72
     1
 73
     1
 93
        2
 10
884.5163457646993
 20
284.608777188405
 42
1.0
 10
876.5163457646993
 20
284.608777188405
 42
1.0
 97
        1
330
3E5
 92
        7
 72
     1
 73
     1
 93
        2
 10
884.5163457646993
 20
232.608777188405
 42
1.0
 10
876.5163457646993
 20
232.608777188405
 42
1.0
 97
        1
330
3E4
 75
     0
 76
     0
 52
135.0
 41
0.8
 77
     0
 78
     1
 53
225.0
 43
1290.075572
 44
1063.198885
 45
-0.565685424949238
 46
0.565685424949238
 79
     0
 47
0.095608
 98
        2
 10
880.816987
 20
284.475429
 10
879.66969
 20
245.451238
  0
LINE
  5
3E0
102
{ACAD_REACTORS
330
98
102
}
100
AcDbEntity
  8
M01
100
AcDbLine
 10
884.516346
 20
232.608777
 30
0.0
 11
884.516346
 21
228.608777
 31
0.0
  0
LINE
  5
3E1
102
{ACAD_REACTORS
330
98
102
}
100
AcDbEntity
  8
M01
100
AcDbLine
 10
876.516346
 20
232.608777
 30
0.0
 11
876.516346
 21
228.608777
 31
0.0
  0
LINE
  5
3E2
102
{ACAD_REACTORS
330
98
102
}
100
AcDbEntity
  8
M01
100
AcDbLine
 10
884.516346
 20
284.608777
 30
0.0
 11
884.516346
 21
288.608777
 31
0.0
  0
LINE
  5
3E3
102
{ACAD_REACTORS
330
98
102
}
100
AcDbEntity
  8
M01
100
AcDbLine
 10
876.516346
 20
284.608777
 30
0.0
 11
876.516346
 21
288.608777
 31
0.0
  0
CIRCLE
  5
3E4
102
{ACAD_REACTORS
330
3DF
330
98
102
}
100
AcDbEntity
  8
M01
100
AcDbCircle
 10
880.516346
 20
232.608777
 30
0.0
 40
4.0
  0
CIRCLE
  5
3E5
102
{ACAD_REACTORS
330
3DF
330
98
102
}
100
AcDbEntity
  8
M01
100
AcDbCircle
 10
880.516346
 20
284.608777
 30
0.0
 40
4.0
  0
DIMENSION
  5
3E6
100
AcDbEntity
  8
DIMS
100
AcDbDimension
  2
*D4
 10
428.757613
 20
323.284942
 30
0.0
 11
446.543327
 21
326.284942
 31
0.0
  1
%%c<> H7
  3
DIM1
100
AcDbAlignedDimension
 13
420.757613
 23
308.608777
 33
0.0
 14
428.757613
 24
308.608777
 34
0.0
100
AcDbRotatedDimension
1001
ACAD
1000
DSTYLE
1002
{
1070
   144
1040
1.0
1002
}
  0
DIMENSION
  5
3F4
100
AcDbEntity
  8
DIMS
100
AcDbDimension
  2
*D3
 10
638.257613
 20
177.29366
 30
0.0
 11
658.257613
 21
180.29366
 31
0.0
 12
-192.561382
 22
244.859853
 32
0.0
  1
%%c<> H7
  3
DIM1
100
AcDbAlignedDimension
 13
678.257613
 23
213.608777
 33
0.0
 14
638.257613
 24
213.608777
 34
0.0
100
AcDbRotatedDimension
1001
ACAD
1000
DSTYLE
1002
{
1070
   144
1040
1.0
1002
}
  0
DIMENSION
  5
401
100
AcDbEntity
  8
DIMS
100
AcDbDimension
  2
*D2
 10
928.73031
 20
295.608777
 30
0.0
 11
899.64031
 21
306.251634
 31
0.0
 12
26.09
 22
0.0
 32
0.0
  1
7.0
  3
DIM1
100
AcDbAlignedDimension
 13
888.257613
 23
288.608777
 33
0.0
 14
897.257613
 24
295.608777
 34
0.0
 50
90.0
100
AcDbRotatedDimension
1001
ACAD
1000
DSTYLE
1002
{
1070
   144
1040
1.0
1002
}
  0
DIMENSION
  5
40F
100
AcDbEntity
  8
DIMS
100
AcDbDimension
  2
*D1
 10
928.73031
 20
221.608777
 30
0.0
 11
899.64031
 21
210.96592
 31
0.0
 12
26.09
 22
0.0
 32
0.0
  1
7.0
  3
DIM1
100
AcDbAlignedDimension
 13
888.257613
 23
228.608777
 33
0.0
 14
908.771004
 24
221.608777
 34
0.0
 50
90.0
100
AcDbRotatedDimension
1001
ACAD
1000
DSTYLE
1002
{
1070
   144
1040
1.0
1002
}
  0
DIMENSION
  5
41D
100
AcDbEntity
  8
DIMS
100
AcDbDimension
  2
*D0
 10
928.73031
 20
228.608777
 30
0.0
 11
899.64031
 21
258.608777
 31
0.0
 12
26.09
 22
0.0
 32
0.0
  3
DIM1
100
AcDbAlignedDimension
 13
888.257613
 23
288.608777
 33
0.0
 14
890.257613
 24
228.608777
 34
0.0
 50
90.0
100
AcDbRotatedDimension
1001
ACAD
1000
DSTYLE
1002
{
1070
   144
1040
1.0
1002
}
  0
LINE
  5
42A
100
AcDbEntity
  8
M01
100
AcDbLine
 10
404.257613
 20
239.608777
 30
0.0
 11
404.257613
 21
229.608777
 31
0.0
  0
LINE
  5
42B
100
AcDbEntity
  8
M01
100
AcDbLine
 10
397.313512
 20
285.858777
 30
0.0
 11
397.313512
 21
279.358777
 31
0.0
  0
LINE
  5
42C
100
AcDbEntity
  8
M01
100
AcDbLine
 10
389.201713
 20
285.858777
 30
0.0
 11
389.201713
 21
279.358777
 31
0.0
  0
LINE
  5
42D
100
AcDbEntity
  8
M01
100
AcDbLine
 10
397.313512
 20
285.858777
 30
0.0
 11
399.257613
 21
285.858777
 31
0.0
  0
ARC
  5
42E
100
AcDbEntity
  8
M01
100
AcDbCircle
 10
395.752263
 20
287.108777
 30
0.0
 40
2.0
100
AcDbArc
 50
270.0
 51
321.317813
  0
ARC
  5
42F
100
AcDbEntity
  8
M01
100
AcDbCircle
 10
390.762962
 20
287.108777
 30
0.0
 40
2.0
100
AcDbArc
 50
218.682187
 51
270.0
  0
LINE
  5
430
100
AcDbEntity
  8
M01
100
AcDbLine
 10
387.257613
 20
285.858777
 30
0.0
 11
389.201713
 21
285.858777
 31
0.0
  0
LINE
  5
431
100
AcDbEntity
  8
M01
100
AcDbLine
 10
390.762962
 20
285.108777
 30
0.0
 11
395.752263
 21
285.108777
 31
0.0
  0
LINE
  5
432
100
AcDbEntity
  8
M01
100
AcDbLine
 10
397.313512
 20
279.358777
 30
0.0
 11
399.257613
 21
279.358777
 31
0.0
  0
ARC
  5
433
100
AcDbEntity
  8
M01
100
AcDbCircle
 10
395.752263
 20
278.108777
 30
0.0
 40
2.0
100
AcDbArc
 50
38.682187
 51
90.0
  0
ARC
  5
434
100
AcDbEntity
  8
M01
100
AcDbCircle
 10
390.762962
 20
278.108777
 30
0.0
 40
2.0
100
AcDbArc
 50
90.0
 51
141.317813
  0
LINE
  5
435
100
AcDbEntity
  8
M01
100
AcDbLine
 10
387.257613
 20
279.358777
 30
0.0
 11
389.201713
 21
279.358777
 31
0.0
  0
LINE
  5
436
100
AcDbEntity
  8
M01
100
AcDbLine
 10
390.762962
 20
280.108777
 30
0.0
 11
395.752263
 21
280.108777
 31
0.0
  0
LINE
  5
437
100
AcDbEntity
  8
M01
100
AcDbLine
 10
404.257613
 20
287.608777
 30
0.0
 11
404.257613
 21
277.608777
 31
0.0
  0
LINE
  5
438
100
AcDbEntity
  8
M01
100
AcDbLine
 10
399.257613
 20
229.608777
 30
0.0
 11
420.257613
 21
229.608777
 31
0.0
  0
LINE
  5
439
100
AcDbEntity
  8
M01
100
AcDbLine
 10
399.257613
 20
239.608777
 30
0.0
 11
419.257613
 21
239.608777
 31
0.0
  0
LINE
  5
43A
100
AcDbEntity
  8
M01
100
AcDbLine
 10
399.257613
 20
287.608777
 30
0.0
 11
420.257613
 21
287.608777
 31
0.0
  0
LINE
  5
43B
100
AcDbEntity
  8
M01
100
AcDbLine
 10
399.257613
 20
277.608777
 30
0.0
 11
419.257613
 21
277.608777
 31
0.0
  0
LINE
  5
43C
100
AcDbEntity
  8
M01
100
AcDbLine
 10
377.357613
 20
237.639866
 30
0.0
 11
377.357613
 21
231.577688
 31
0.0
  0
ARC
  5
43D
100
AcDbEntity
  8
M01
100
AcDbCircle
 10
379.206918
 20
231.577688
 30
0.0
 40
1.150694
100
AcDbArc
 50
298.592423
 51
61.407577
  0
ARC
  5
43E
100
AcDbEntity
  8
M01
100
AcDbCircle
 10
376.654835
 20
234.608777
 30
0.0
 40
3.702778
100
AcDbArc
 50
326.92527
 51
33.07473
  0
ARC
  5
43F
100
AcDbEntity
  8
M01
100
AcDbCircle
 10
379.206918
 20
237.639866
 30
0.0
 40
1.150694
100
AcDbArc
 50
298.592423
 51
61.407577
  0
ARC
  5
440
100
AcDbEntity
  8
M01
100
AcDbCircle
 10
378.508307
 20
231.577688
 30
0.0
 40
1.150694
100
AcDbArc
 50
118.592423
 51
241.407577
  0
ARC
  5
441
100
AcDbEntity
  8
M01
100
AcDbCircle
 10
381.06039
 20
234.608777
 30
0.0
 40
3.702778
100
AcDbArc
 50
146.92527
 51
213.07473
  0
LINE
  5
442
100
AcDbEntity
  8
M01
100
AcDbLine
 10
377.957613
 20
232.588051
 30
0.0
 11
379.757613
 21
232.588051
 31
0.0
  0
LINE
  5
443
100
AcDbEntity
  8
M01
100
AcDbLine
 10
377.957613
 20
230.567325
 30
0.0
 11
379.757613
 21
230.567325
 31
0.0
  0
ARC
  5
444
100
AcDbEntity
  8
M01
100
AcDbCircle
 10
378.508307
 20
237.639866
 30
0.0
 40
1.150694
100
AcDbArc
 50
118.592423
 51
241.407577
  0
LINE
  5
445
100
AcDbEntity
  8
M01
100
AcDbLine
 10
377.957613
 20
236.629503
 30
0.0
 11
379.757613
 21
236.629503
 31
0.0
  0
LINE
  5
446
100
AcDbEntity
  8
M01
100
AcDbLine
 10
377.957613
 20
238.650229
 30
0.0
 11
379.757613
 21
238.650229
 31
0.0
  0
LINE
  5
447
100
AcDbEntity
  8
M01
100
AcDbLine
 10
382.657613
 20
229.608777
 30
0.0
 11
381.157613
 21
229.608777
 31
0.0
  0
LINE
  5
448
100
AcDbEntity
  8
M01
100
AcDbLine
 10
382.657613
 20
239.608777
 30
0.0
 11
381.157613
 21
239.608777
 31
0.0
  0
LINE
  5
449
100
AcDbEntity
  8
M01
100
AcDbLine
 10
381.157613
 20
230.108777
 30
0.0
 11
380.357613
 21
230.108777
 31
0.0
  0
LINE
  5
44A
100
AcDbEntity
  8
M01
100
AcDbLine
 10
381.157613
 20
239.108777
 30
0.0
 11
380.357613
 21
239.108777
 31
0.0
  0
LINE
  5
44B
100
AcDbEntity
  8
M01
100
AcDbLine
 10
380.357613
 20
239.108777
 30
0.0
 11
380.357613
 21
230.108777
 31
0.0
  0
LINE
  5
44C
100
AcDbEntity
  8
M01
100
AcDbLine
 10
381.157613
 20
239.608777
 30
0.0
 11
381.157613
 21
229.608777
 31
0.0
  0
LINE
  5
44D
100
AcDbEntity
  8
M01
100
AcDbLine
 10
383.457613
 20
230.108777
 30
0.0
 11
382.657613
 21
230.108777
 31
0.0
  0
LINE
  5
44E
100
AcDbEntity
  8
M01
100
AcDbLine
 10
383.457613
 20
239.108777
 30
0.0
 11
382.657613
 21
239.108777
 31
0.0
  0
LINE
  5
44F
100
AcDbEntity
  8
M01
100
AcDbLine
 10
382.657613
 20
244.608777
 30
0.0
 11
382.657613
 21
229.608777
 31
0.0
  0
ARC
  5
450
100
AcDbEntity
  8
M01
100
AcDbCircle
 10
385.306918
 20
231.577688
 30
0.0
 40
1.150694
100
AcDbArc
 50
298.592423
 51
61.407577
  0
ARC
  5
451
100
AcDbEntity
  8
M01
100
AcDbCircle
 10
382.754835
 20
234.608777
 30
0.0
 40
3.702778
100
AcDbArc
 50
326.92527
 51
33.07473
  0
ARC
  5
452
100
AcDbEntity
  8
M01
100
AcDbCircle
 10
385.306918
 20
237.639866
 30
0.0
 40
1.150694
100
AcDbArc
 50
298.592423
 51
61.407577
  0
ARC
  5
453
100
AcDbEntity
  8
M01
100
AcDbCircle
 10
384.608307
 20
231.577688
 30
0.0
 40
1.150694
100
AcDbArc
 50
118.592423
 51
241.407577
  0
ARC
  5
454
100
AcDbEntity
  8
M01
100
AcDbCircle
 10
387.16039
 20
234.608777
 30
0.0
 40
3.702778
100
AcDbArc
 50
146.92527
 51
213.07473
  0
LINE
  5
455
100
AcDbEntity
  8
M01
100
AcDbLine
 10
384.057613
 20
232.588051
 30
0.0
 11
385.857613
 21
232.588051
 31
0.0
  0
LINE
  5
456
100
AcDbEntity
  8
M01
100
AcDbLine
 10
384.057613
 20
230.567325
 30
0.0
 11
385.857613
 21
230.567325
 31
0.0
  0
ARC
  5
457
100
AcDbEntity
  8
M01
100
AcDbCircle
 10
384.608307
 20
237.639866
 30
0.0
 40
1.150694
100
AcDbArc
 50
118.592423
 51
241.407577
  0
LINE
  5
458
100
AcDbEntity
  8
M01
100
AcDbLine
 10
384.057613
 20
236.629503
 30
0.0
 11
385.857613
 21
236.629503
 31
0.0
  0
LINE
  5
459
100
AcDbEntity
  8
M01
100
AcDbLine
 10
384.057613
 20
238.650229
 30
0.0
 11
385.857613
 21
238.650229
 31
0.0
  0
LINE
  5
45A
100
AcDbEntity
  8
M01
100
AcDbLine
 10
383.457613
 20
239.108777
 30
0.0
 11
383.457613
 21
230.108777
 31
0.0
  0
LINE
  5
45B
100
AcDbEntity
  8
M01
100
AcDbLine
 10
386.457613
 20
239.108777
 30
0.0
 11
386.457613
 21
230.108777
 31
0.0
  0
LINE
  5
45C
100
AcDbEntity
  8
M01
100
AcDbLine
 10
387.257613
 20
239.108777
 30
0.0
 11
387.257613
 21
230.108777
 31
0.0
  0
LINE
  5
45D
100
AcDbEntity
  8
M01
100
AcDbLine
 10
374.257613
 20
233.108777
 30
0.0
 11
374.757613
 21
232.608777
 31
0.0
  0
LINE
  5
45E
100
AcDbEntity
  8
M01
100
AcDbLine
 10
374.757613
 20
236.608777
 30
0.0
 11
374.257613
 21
236.108777
 31
0.0
  0
LINE
  5
45F
100
AcDbEntity
  8
M01
100
AcDbLine
 10
374.757613
 20
236.608777
 30
0.0
 11
374.757613
 21
232.608777
 31
0.0
  0
LINE
  5
460
100
AcDbEntity
  8
M01
100
AcDbLine
 10
374.257613
 20
233.108777
 30
0.0
 11
377.357613
 21
233.108777
 31
0.0
  0
LINE
  5
461
100
AcDbEntity
  8
M01
100
AcDbLine
 10
374.257613
 20
236.108777
 30
0.0
 11
377.357613
 21
236.108777
 31
0.0
  0
LINE
  5
462
100
AcDbEntity
  8
M01
100
AcDbLine
 10
374.757613
 20
236.608777
 30
0.0
 11
377.357613
 21
236.608777
 31
0.0
  0
LINE
  5
463
100
AcDbEntity
  8
M01
100
AcDbLine
 10
374.757613
 20
232.608777
 30
0.0
 11
377.357613
 21
232.608777
 31
0.0
  0
LINE
  5
464
100
AcDbEntity
  8
M01
100
AcDbLine
 10
374.257613
 20
236.108777
 30
0.0
 11
374.257613
 21
233.108777
 31
0.0
  0
LINE
  5
465
100
AcDbEntity
  8
M01
100
AcDbLine
 10
399.257613
 20
239.608777
 30
0.0
 11
399.257613
 21
229.608777
 31
0.0
  0
LINE
  5
466
100
AcDbEntity
  8
M01
100
AcDbLine
 10
386.457613
 20
230.108777
 30
0.0
 11
387.257613
 21
230.108777
 31
0.0
  0
LINE
  5
467
100
AcDbEntity
  8
M01
100
AcDbLine
 10
386.457613
 20
239.108777
 30
0.0
 11
387.257613
 21
239.108777
 31
0.0
  0
LINE
  5
468
100
AcDbEntity
  8
CENTRE
100
AcDbLine
 10
368.096723
 20
234.608777
 30
0.0
 11
431.690155
 21
234.608777
 31
0.0
  0
LINE
  5
469
100
AcDbEntity
  8
M01
100
AcDbLine
 10
377.357613
 20
279.577688
 30
0.0
 11
377.357613
 21
285.639866
 31
0.0
  0
ARC
  5
46A
100
AcDbEntity
  8
M01
100
AcDbCircle
 10
379.206918
 20
285.639866
 30
0.0
 40
1.150694
100
AcDbArc
 50
298.592423
 51
61.407577
  0
ARC
  5
46B
100
AcDbEntity
  8
M01
100
AcDbCircle
 10
376.654835
 20
282.608777
 30
0.0
 40
3.702778
100
AcDbArc
 50
326.92527
 51
33.07473
  0
ARC
  5
46C
100
AcDbEntity
  8
M01
100
AcDbCircle
 10
379.206918
 20
279.577688
 30
0.0
 40
1.150694
100
AcDbArc
 50
298.592423
 51
61.407577
  0
ARC
  5
46D
100
AcDbEntity
  8
M01
100
AcDbCircle
 10
378.508307
 20
285.639866
 30
0.0
 40
1.150694
100
AcDbArc
 50
118.592423
 51
241.407577
  0
ARC
  5
46E
100
AcDbEntity
  8
M01
100
AcDbCircle
 10
381.06039
 20
282.608777
 30
0.0
 40
3.702778
100
AcDbArc
 50
146.92527
 51
213.07473
  0
LINE
  5
46F
100
AcDbEntity
  8
M01
100
AcDbLine
 10
377.957613
 20
284.629503
 30
0.0
 11
379.757613
 21
284.629503
 31
0.0
  0
LINE
  5
470
100
AcDbEntity
  8
M01
100
AcDbLine
 10
377.957613
 20
286.650229
 30
0.0
 11
379.757613
 21
286.650229
 31
0.0
  0
ARC
  5
471
100
AcDbEntity
  8
M01
100
AcDbCircle
 10
378.508307
 20
279.577688
 30
0.0
 40
1.150694
100
AcDbArc
 50
118.592423
 51
241.407577
  0
LINE
  5
472
100
AcDbEntity
  8
M01
100
AcDbLine
 10
377.957613
 20
280.588051
 30
0.0
 11
379.757613
 21
280.588051
 31
0.0
  0
LINE
  5
473
100
AcDbEntity
  8
M01
100
AcDbLine
 10
377.957613
 20
278.567325
 30
0.0
 11
379.757613
 21
278.567325
 31
0.0
  0
LINE
  5
474
100
AcDbEntity
  8
M01
100
AcDbLine
 10
382.657613
 20
287.608777
 30
0.0
 11
381.157613
 21
287.608777
 31
0.0
  0
LINE
  5
475
100
AcDbEntity
  8
M01
100
AcDbLine
 10
381.157613
 20
287.108777
 30
0.0
 11
380.357613
 21
287.108777
 31
0.0
  0
LINE
  5
476
100
AcDbEntity
  8
M01
100
AcDbLine
 10
381.157613
 20
278.108777
 30
0.0
 11
380.357613
 21
278.108777
 31
0.0
  0
LINE
  5
477
100
AcDbEntity
  8
M01
100
AcDbLine
 10
380.357613
 20
278.108777
 30
0.0
 11
380.357613
 21
287.108777
 31
0.0
  0
LINE
  5
478
100
AcDbEntity
  8
M01
100
AcDbLine
 10
381.157613
 20
277.608777
 30
0.0
 11
381.157613
 21
287.608777
 31
0.0
  0
LINE
  5
479
100
AcDbEntity
  8
M01
100
AcDbLine
 10
383.457613
 20
287.108777
 30
0.0
 11
382.657613
 21
287.108777
 31
0.0
  0
LINE
  5
47A
100
AcDbEntity
  8
M01
100
AcDbLine
 10
383.457613
 20
278.108777
 30
0.0
 11
382.657613
 21
278.108777
 31
0.0
  0
ARC
  5
47B
100
AcDbEntity
  8
M01
100
AcDbCircle
 10
385.306918
 20
285.639866
 30
0.0
 40
1.150694
100
AcDbArc
 50
298.592423
 51
61.407577
  0
ARC
  5
47C
100
AcDbEntity
  8
M01
100
AcDbCircle
 10
382.754835
 20
282.608777
 30
0.0
 40
3.702778
100
AcDbArc
 50
326.92527
 51
33.07473
  0
ARC
  5
47D
100
AcDbEntity
  8
M01
100
AcDbCircle
 10
385.306918
 20
279.577688
 30
0.0
 40
1.150694
100
AcDbArc
 50
298.592423
 51
61.407577
  0
ARC
  5
47E
100
AcDbEntity
  8
M01
100
AcDbCircle
 10
384.608307
 20
285.639866
 30
0.0
 40
1.150694
100
AcDbArc
 50
118.592423
 51
241.407577
  0
ARC
  5
47F
100
AcDbEntity
  8
M01
100
AcDbCircle
 10
387.16039
 20
282.608777
 30
0.0
 40
3.702778
100
AcDbArc
 50
146.92527
 51
213.07473
  0
LINE
  5
480
100
AcDbEntity
  8
M01
100
AcDbLine
 10
384.057613
 20
284.629503
 30
0.0
 11
385.857613
 21
284.629503
 31
0.0
  0
LINE
  5
481
100
AcDbEntity
  8
M01
100
AcDbLine
 10
384.057613
 20
286.650229
 30
0.0
 11
385.857613
 21
286.650229
 31
0.0
  0
ARC
  5
482
100
AcDbEntity
  8
M01
100
AcDbCircle
 10
384.608307
 20
279.577688
 30
0.0
 40
1.150694
100
AcDbArc
 50
118.592423
 51
241.407577
  0
LINE
  5
483
100
AcDbEntity
  8
M01
100
AcDbLine
 10
384.057613
 20
280.588051
 30
0.0
 11
385.857613
 21
280.588051
 31
0.0
  0
LINE
  5
484
100
AcDbEntity
  8
M01
100
AcDbLine
 10
384.057613
 20
278.567325
 30
0.0
 11
385.857613
 21
278.567325
 31
0.0
  0
LINE
  5
485
100
AcDbEntity
  8
M01
100
AcDbLine
 10
383.457613
 20
278.108777
 30
0.0
 11
383.457613
 21
287.108777
 31
0.0
  0
LINE
  5
486
100
AcDbEntity
  8
M01
100
AcDbLine
 10
386.457613
 20
278.108777
 30
0.0
 11
386.457613
 21
287.108777
 31
0.0
  0
LINE
  5
487
100
AcDbEntity
  8
M01
100
AcDbLine
 10
387.257613
 20
278.108777
 30
0.0
 11
387.257613
 21
287.108777
 31
0.0
  0
LINE
  5
488
100
AcDbEntity
  8
M01
100
AcDbLine
 10
374.257613
 20
284.108777
 30
0.0
 11
374.757613
 21
284.608777
 31
0.0
  0
LINE
  5
489
100
AcDbEntity
  8
M01
100
AcDbLine
 10
374.757613
 20
280.608777
 30
0.0
 11
374.257613
 21
281.108777
 31
0.0
  0
LINE
  5
48A
100
AcDbEntity
  8
M01
100
AcDbLine
 10
374.757613
 20
280.608777
 30
0.0
 11
374.757613
 21
284.608777
 31
0.0
  0
LINE
  5
48B
100
AcDbEntity
  8
M01
100
AcDbLine
 10
374.257613
 20
284.108777
 30
0.0
 11
377.357613
 21
284.108777
 31
0.0
  0
LINE
  5
48C
100
AcDbEntity
  8
M01
100
AcDbLine
 10
374.257613
 20
281.108777
 30
0.0
 11
377.357613
 21
281.108777
 31
0.0
  0
LINE
  5
48D
100
AcDbEntity
  8
M01
100
AcDbLine
 10
374.757613
 20
280.608777
 30
0.0
 11
377.357613
 21
280.608777
 31
0.0
  0
LINE
  5
48E
100
AcDbEntity
  8
M01
100
AcDbLine
 10
374.757613
 20
284.608777
 30
0.0
 11
377.357613
 21
284.608777
 31
0.0
  0
LINE
  5
48F
100
AcDbEntity
  8
M01
100
AcDbLine
 10
374.257613
 20
281.108777
 30
0.0
 11
374.257613
 21
284.108777
 31
0.0
  0
LINE
  5
490
100
AcDbEntity
  8
M01
100
AcDbLine
 10
399.257613
 20
277.608777
 30
0.0
 11
399.257613
 21
287.608777
 31
0.0
  0
LINE
  5
491
100
AcDbEntity
  8
M01
100
AcDbLine
 10
386.457613
 20
287.108777
 30
0.0
 11
387.257613
 21
287.108777
 31
0.0
  0
LINE
  5
492
100
AcDbEntity
  8
M01
100
AcDbLine
 10
386.457613
 20
278.108777
 30
0.0
 11
387.257613
 21
278.108777
 31
0.0
  0
LINE
  5
493
102
{ACAD_REACTORS
330
98
102
}
100
AcDbEntity
  8
CENTRE
100
AcDbLine
 10
368.096723
 20
282.608777
 30
0.0
 11
431.690155
 21
282.608777
 31
0.0
  0
LINE
  5
494
100
AcDbEntity
  8
M04
100
AcDbLine
 10
359.257613
 20
249.608777
 30
0.0
 11
349.257613
 21
239.608777
 31
0.0
  0
LINE
  5
495
100
AcDbEntity
  8
M04
100
AcDbLine
 10
338.586134
 20
239.608777
 30
0.0
 11
349.257613
 21
239.608777
 31
0.0
  0
LINE
  5
496
100
AcDbEntity
  8
M04
100
AcDbLine
 10
359.257613
 20
295.608777
 30
0.0
 11
359.257613
 21
221.608777
 31
0.0
  0
LINE
  5
497
102
{ACAD_REACTORS
330
98
102
}
100
AcDbEntity
  8
M01
100
AcDbLine
 10
662.257613
 20
245.608777
 30
0.0
 11
662.257613
 21
238.608777
 31
0.0
  0
LINE
  5
498
102
{ACAD_REACTORS
330
98
102
}
100
AcDbEntity
  8
M01
100
AcDbLine
 10
654.257613
 20
245.608777
 30
0.0
 11
654.257613
 21
238.608777
 31
0.0
  0
LINE
  5
499
102
{ACAD_REACTORS
330
113
102
}
100
AcDbEntity
  8
M04
100
AcDbLine
 10
677.757613
 20
221.608777
 30
0.0
 11
855.257613
 21
221.608777
 31
0.0
  0
LINE
  5
49A
100
AcDbEntity
  8
M02
100
AcDbLine
 10
623.257613
 20
228.608777
 30
0.0
 11
623.257613
 21
225.608777
 31
0.0
  0
LINE
  5
49B
100
AcDbEntity
  8
M04
100
AcDbLine
 10
424.757613
 20
310.918178
 30
0.0
 11
420.757613
 21
308.608777
 31
0.0
  0
LINE
  5
49C
100
AcDbEntity
  8
M04
100
AcDbLine
 10
428.757613
 20
308.608777
 30
0.0
 11
424.757613
 21
310.918178
 31
0.0
  0
LINE
  5
49D
100
AcDbEntity
  8
M04
100
AcDbLine
 10
428.757613
 20
305.608777
 30
0.0
 11
428.757613
 21
308.608777
 31
0.0
  0
LINE
  5
49E
100
AcDbEntity
  8
M04
100
AcDbLine
 10
420.757613
 20
308.608777
 30
0.0
 11
428.757613
 21
308.608777
 31
0.0
  0
LINE
  5
49F
100
AcDbEntity
  8
M04
100
AcDbLine
 10
420.757613
 20
305.608777
 30
0.0
 11
420.757613
 21
308.608777
 31
0.0
  0
ARC
  5
4A0
100
AcDbEntity
  8
M05
100
AcDbCircle
 10
424.757613
 20
296.271073
 30
0.0
 40
10.837705
100
AcDbArc
 50
71.372238
 51
108.627762
  0
LINE
  5
4A1
100
AcDbEntity
  8
M05
100
AcDbLine
 10
428.757613
 20
305.608777
 30
0.0
 11
428.219376
 21
306.541031
 31
0.0
  0
LINE
  5
4A2
100
AcDbEntity
  8
M05
100
AcDbLine
 10
421.295849
 20
306.541031
 30
0.0
 11
428.219376
 21
306.541031
 31
0.0
  0
LINE
  5
4A3
100
AcDbEntity
  8
M05
100
AcDbLine
 10
420.757613
 20
305.608777
 30
0.0
 11
421.295849
 21
306.541031
 31
0.0
  0
LINE
  5
4A4
100
AcDbEntity
  8
M05
100
AcDbLine
 10
420.757613
 20
305.608777
 30
0.0
 11
428.757613
 21
305.608777
 31
0.0
  0
LINE
  5
4A5
100
AcDbEntity
  8
M04
100
AcDbLine
 10
428.757613
 20
295.608777
 30
0.0
 11
636.532613
 21
295.608777
 31
0.0
  0
LINE
  5
4A6
100
AcDbEntity
  8
M04
100
AcDbLine
 10
428.757613
 20
296.108777
 30
0.0
 11
429.257613
 21
295.608777
 31
0.0
  0
LINE
  5
4A7
100
AcDbEntity
  8
M04
100
AcDbLine
 10
420.757613
 20
296.108777
 30
0.0
 11
420.257613
 21
295.608777
 31
0.0
  0
ARC
  5
4A8
100
AcDbEntity
  8
M05
100
AcDbCircle
 10
424.757613
 20
296.742111
 30
0.0
 40
13.633333
100
AcDbArc
 50
252.938469
 51
287.061531
  0
LINE
  5
4A9
100
AcDbEntity
  8
M05
100
AcDbLine
 10
420.757613
 20
283.708777
 30
0.0
 11
428.757613
 21
283.708777
 31
0.0
  0
LINE
  5
4AA
100
AcDbEntity
  8
M05
100
AcDbLine
 10
428.757613
 20
305.608777
 30
0.0
 11
428.757613
 21
283.708777
 31
0.0
  0
LINE
  5
4AB
100
AcDbEntity
  8
M05
100
AcDbLine
 10
420.757613
 20
305.608777
 30
0.0
 11
420.757613
 21
283.708777
 31
0.0
  0
LINE
  5
4AC
102
{ACAD_REACTORS
330
98
102
}
100
AcDbEntity
  8
CENTRE
100
AcDbLine
 10
658.257613
 20
323.976174
 30
0.0
 11
658.257613
 21
193.716737
 31
0.0
  0
LINE
  5
4AD
100
AcDbEntity
  8
CENTRE
100
AcDbLine
 10
424.757613
 20
315.954895
 30
0.0
 11
424.757613
 21
277.865195
 31
0.0
  0
LINE
  5
4AE
100
AcDbEntity
  8
M04
100
AcDbLine
 10
338.586134
 20
221.608777
 30
0.0
 11
638.757613
 21
221.608777
 31
0.0
  0
LINE
  5
4AF
100
AcDbEntity
  8
M04
100
AcDbLine
 10
897.257613
 20
295.608777
 30
0.0
 11
897.257613
 21
221.608777
 31
0.0
  0
LINE
  5
4B0
100
AcDbEntity
  8
M04
100
AcDbLine
 10
359.257613
 20
295.608777
 30
0.0
 11
420.757613
 21
295.608777
 31
0.0
  0
LINE
  5
4B1
100
AcDbEntity
  8
M02
100
AcDbLine
 10
431.257613
 20
288.608777
 30
0.0
 11
431.257613
 21
291.608777
 31
0.0
  0
LINE
  5
4B2
102
{ACAD_REACTORS
330
98
102
}
100
AcDbEntity
  8
M01
100
AcDbLine
 10
431.257613
 20
288.608777
 30
0.0
 11
431.257613
 21
282.608777
 31
0.0
  0
LINE
  5
4B3
100
AcDbEntity
  8
M01
100
AcDbLine
 10
419.257613
 20
282.608777
 30
0.0
 11
431.257613
 21
282.608777
 31
0.0
  0
LINE
  5
4B4
102
{ACAD_REACTORS
330
91
102
}
100
AcDbEntity
  8
M02
100
AcDbLine
 10
421.257613
 20
228.608777
 30
0.0
 11
421.257613
 21
225.608777
 31
0.0
  0
LINE
  5
4B5
102
{ACAD_REACTORS
330
95
102
}
100
AcDbEntity
  8
M02
100
AcDbLine
 10
888.257613
 20
288.608777
 30
0.0
 11
888.257613
 21
291.608777
 31
0.0
  0
LINE
  5
4B6
102
{ACAD_REACTORS
330
91
102
}
100
AcDbEntity
  8
M02
100
AcDbLine
 10
421.257613
 20
225.608777
 30
0.0
 11
624.257613
 21
225.608777
 31
0.0
  0
LINE
  5
4B7
100
AcDbEntity
  8
M02
100
AcDbLine
 10
428.757613
 20
291.608777
 30
0.0
 11
636.532613
 21
291.608777
 31
0.0
  0
LINE
  5
4B8
102
{ACAD_REACTORS
330
98
102
}
100
AcDbEntity
  8
M01
100
AcDbLine
 10
888.257613
 20
228.608777
 30
0.0
 11
890.257613
 21
230.608777
 31
0.0
  0
LINE
  5
4B9
102
{ACAD_REACTORS
330
98
102
}
100
AcDbEntity
  8
M01
100
AcDbLine
 10
419.257613
 20
230.608777
 30
0.0
 11
421.257613
 21
228.608777
 31
0.0
  0
LINE
  5
4BA
100
AcDbEntity
  8
M01
100
AcDbLine
 10
420.257613
 20
287.608777
 30
0.0
 11
419.257613
 21
286.608777
 31
0.0
  0
LINE
  5
4BB
102
{ACAD_REACTORS
330
98
102
}
100
AcDbEntity
  8
M01
100
AcDbLine
 10
890.257613
 20
286.608777
 30
0.0
 11
888.257613
 21
288.608777
 31
0.0
  0
LINE
  5
4BC
102
{ACAD_REACTORS
330
98
330
91
102
}
100
AcDbEntity
  8
M01
100
AcDbLine
 10
421.257613
 20
228.608777
 30
0.0
 11
648.257613
 21
228.608777
 31
0.0
  0
LINE
  5
4BD
102
{ACAD_REACTORS
330
98
102
}
100
AcDbEntity
  8
M01
100
AcDbLine
 10
890.257613
 20
286.608777
 30
0.0
 11
890.257613
 21
230.608777
 31
0.0
  0
LINE
  5
4BE
102
{ACAD_REACTORS
330
98
102
}
100
AcDbEntity
  8
M01
100
AcDbLine
 10
419.257613
 20
286.608777
 30
0.0
 11
419.257613
 21
230.608777
 31
0.0
  0
LINE
  5
4BF
102
{ACAD_REACTORS
330
98
330
96
330
95
102
}
100
AcDbEntity
  8
M01
100
AcDbLine
 10
428.757613
 20
288.608777
 30
0.0
 11
888.257613
 21
288.608777
 31
0.0
  0
LINE
  5
4C0
100
AcDbEntity
  8
M03
100
AcDbLine
 10
758.257613
 20
549.817698
 30
0.0
 11
855.429185
 21
646.989271
 31
0.0
  0
LINE
  5
4C1
100
AcDbEntity
  8
M03
100
AcDbLine
 10
763.914467
 20
544.160844
 30
0.0
 11
861.08604
 21
641.332417
 31
0.0
  0
LINE
  5
4C2
100
AcDbEntity
  8
CENTRE
100
AcDbLine
 10
758.257613
 20
544.160844
 30
0.0
 11
893.796994
 21
679.700225
 31
0.0
  0
LINE
  5
4C3
100
AcDbEntity
  8
M01
100
AcDbLine
 10
372.313512
 20
559.410844
 30
0.0
 11
372.313512
 21
552.910844
 31
0.0
  0
LINE
  5
4C4
100
AcDbEntity
  8
M01
100
AcDbLine
 10
364.201713
 20
559.410844
 30
0.0
 11
364.201713
 21
552.910844
 31
0.0
  0
LINE
  5
4C5
100
AcDbEntity
  8
M01
100
AcDbLine
 10
372.313512
 20
559.410844
 30
0.0
 11
374.257613
 21
559.410844
 31
0.0
  0
ARC
  5
4C6
100
AcDbEntity
  8
M01
100
AcDbCircle
 10
370.752263
 20
560.660844
 30
0.0
 40
2.0
100
AcDbArc
 50
270.0
 51
321.317813
  0
ARC
  5
4C7
100
AcDbEntity
  8
M01
100
AcDbCircle
 10
365.762962
 20
560.660844
 30
0.0
 40
2.0
100
AcDbArc
 50
218.682187
 51
270.0
  0
LINE
  5
4C8
100
AcDbEntity
  8
M01
100
AcDbLine
 10
362.257613
 20
559.410844
 30
0.0
 11
364.201713
 21
559.410844
 31
0.0
  0
LINE
  5
4C9
100
AcDbEntity
  8
M01
100
AcDbLine
 10
365.762962
 20
558.660844
 30
0.0
 11
370.752263
 21
558.660844
 31
0.0
  0
LINE
  5
4CA
100
AcDbEntity
  8
M01
100
AcDbLine
 10
372.313512
 20
552.910844
 30
0.0
 11
374.257613
 21
552.910844
 31
0.0
  0
ARC
  5
4CB
100
AcDbEntity
  8
M01
100
AcDbCircle
 10
370.752263
 20
551.660844
 30
0.0
 40
2.0
100
AcDbArc
 50
38.682187
 51
90.0
  0
ARC
  5
4CC
100
AcDbEntity
  8
M01
100
AcDbCircle
 10
365.762962
 20
551.660844
 30
0.0
 40
2.0
100
AcDbArc
 50
90.0
 51
141.317813
  0
LINE
  5
4CD
100
AcDbEntity
  8
M01
100
AcDbLine
 10
362.257613
 20
552.910844
 30
0.0
 11
364.201713
 21
552.910844
 31
0.0
  0
LINE
  5
4CE
100
AcDbEntity
  8
M01
100
AcDbLine
 10
365.762962
 20
553.660844
 30
0.0
 11
370.752263
 21
553.660844
 31
0.0
  0
LINE
  5
4CF
100
AcDbEntity
  8
M01
100
AcDbLine
 10
362.257613
 20
551.660844
 30
0.0
 11
362.257613
 21
560.660844
 31
0.0
  0
LINE
  5
4D0
100
AcDbEntity
  8
M01
100
AcDbLine
 10
361.457613
 20
560.660844
 30
0.0
 11
362.257613
 21
560.660844
 31
0.0
  0
LINE
  5
4D1
100
AcDbEntity
  8
M01
100
AcDbLine
 10
361.457613
 20
551.660844
 30
0.0
 11
362.257613
 21
551.660844
 31
0.0
  0
LINE
  5
4D2
100
AcDbEntity
  8
M01
100
AcDbLine
 10
372.313512
 20
528.910844
 30
0.0
 11
372.313512
 21
535.410844
 31
0.0
  0
LINE
  5
4D3
100
AcDbEntity
  8
M01
100
AcDbLine
 10
364.201713
 20
528.910844
 30
0.0
 11
364.201713
 21
535.410844
 31
0.0
  0
LINE
  5
4D4
100
AcDbEntity
  8
M01
100
AcDbLine
 10
372.313512
 20
528.910844
 30
0.0
 11
374.257613
 21
528.910844
 31
0.0
  0
ARC
  5
4D5
100
AcDbEntity
  8
M01
100
AcDbCircle
 10
370.752263
 20
527.660844
 30
0.0
 40
2.0
100
AcDbArc
 50
38.682187
 51
90.0
  0
ARC
  5
4D6
100
AcDbEntity
  8
M01
100
AcDbCircle
 10
365.762962
 20
527.660844
 30
0.0
 40
2.0
100
AcDbArc
 50
90.0
 51
141.317813
  0
LINE
  5
4D7
100
AcDbEntity
  8
M01
100
AcDbLine
 10
362.257613
 20
528.910844
 30
0.0
 11
364.201713
 21
528.910844
 31
0.0
  0
LINE
  5
4D8
100
AcDbEntity
  8
M01
100
AcDbLine
 10
365.762962
 20
529.660844
 30
0.0
 11
370.752263
 21
529.660844
 31
0.0
  0
LINE
  5
4D9
100
AcDbEntity
  8
M01
100
AcDbLine
 10
372.313512
 20
535.410844
 30
0.0
 11
374.257613
 21
535.410844
 31
0.0
  0
ARC
  5
4DA
100
AcDbEntity
  8
M01
100
AcDbCircle
 10
370.752263
 20
536.660844
 30
0.0
 40
2.0
100
AcDbArc
 50
270.0
 51
321.317813
  0
ARC
  5
4DB
100
AcDbEntity
  8
M01
100
AcDbCircle
 10
365.762962
 20
536.660844
 30
0.0
 40
2.0
100
AcDbArc
 50
218.682187
 51
270.0
  0
LINE
  5
4DC
100
AcDbEntity
  8
M01
100
AcDbLine
 10
362.257613
 20
535.410844
 30
0.0
 11
364.201713
 21
535.410844
 31
0.0
  0
LINE
  5
4DD
100
AcDbEntity
  8
M01
100
AcDbLine
 10
365.762962
 20
534.660844
 30
0.0
 11
370.752263
 21
534.660844
 31
0.0
  0
LINE
  5
4DE
100
AcDbEntity
  8
M01
100
AcDbLine
 10
379.257613
 20
561.160844
 30
0.0
 11
379.257613
 21
551.160844
 31
0.0
  0
LINE
  5
4DF
100
AcDbEntity
  8
M01
100
AcDbLine
 10
379.257613
 20
527.160844
 30
0.0
 11
379.257613
 21
537.160844
 31
0.0
  0
LINE
  5
4E0
100
AcDbEntity
  8
M01
100
AcDbLine
 10
374.257613
 20
527.160844
 30
0.0
 11
394.257613
 21
527.160844
 31
0.0
  0
LINE
  5
4E1
100
AcDbEntity
  8
M01
100
AcDbLine
 10
374.257613
 20
537.160844
 30
0.0
 11
394.257613
 21
537.160844
 31
0.0
  0
LINE
  5
4E2
100
AcDbEntity
  8
M01
100
AcDbLine
 10
374.257613
 20
551.160844
 30
0.0
 11
394.257613
 21
551.160844
 31
0.0
  0
LINE
  5
4E3
100
AcDbEntity
  8
M01
100
AcDbLine
 10
374.257613
 20
561.160844
 30
0.0
 11
394.257613
 21
561.160844
 31
0.0
  0
LINE
  5
4E4
100
AcDbEntity
  8
DIMS
 62
     4
100
AcDbLine
 10
399.757613
 20
547.560844
 30
0.0
 11
399.757613
 21
549.860844
 31
0.0
  0
LINE
  5
4E5
100
AcDbEntity
  8
DIMS
 62
     4
100
AcDbLine
 10
399.757613
 20
540.760844
 30
0.0
 11
399.757613
 21
538.460844
 31
0.0
  0
LINE
  5
4E6
100
AcDbEntity
  8
DIMS
 62
     4
100
AcDbLine
 10
399.757613
 20
542.460844
 30
0.0
 11
399.757613
 21
545.860844
 31
0.0
  0
LINE
  5
4E7
100
AcDbEntity
  8
M01
100
AcDbLine
 10
352.357613
 20
559.191933
 30
0.0
 11
352.357613
 21
553.129755
 31
0.0
  0
ARC
  5
4E8
100
AcDbEntity
  8
M01
100
AcDbCircle
 10
354.206918
 20
553.129755
 30
0.0
 40
1.150694
100
AcDbArc
 50
298.592423
 51
61.407577
  0
ARC
  5
4E9
100
AcDbEntity
  8
M01
100
AcDbCircle
 10
351.654835
 20
556.160844
 30
0.0
 40
3.702778
100
AcDbArc
 50
326.92527
 51
33.07473
  0
ARC
  5
4EA
100
AcDbEntity
  8
M01
100
AcDbCircle
 10
354.206918
 20
559.191933
 30
0.0
 40
1.150694
100
AcDbArc
 50
298.592423
 51
61.407577
  0
ARC
  5
4EB
100
AcDbEntity
  8
M01
100
AcDbCircle
 10
353.508307
 20
553.129755
 30
0.0
 40
1.150694
100
AcDbArc
 50
118.592423
 51
241.407577
  0
ARC
  5
4EC
100
AcDbEntity
  8
M01
100
AcDbCircle
 10
356.06039
 20
556.160844
 30
0.0
 40
3.702778
100
AcDbArc
 50
146.92527
 51
213.07473
  0
LINE
  5
4ED
100
AcDbEntity
  8
M01
100
AcDbLine
 10
352.957613
 20
554.140118
 30
0.0
 11
354.757613
 21
554.140118
 31
0.0
  0
LINE
  5
4EE
100
AcDbEntity
  8
M01
100
AcDbLine
 10
352.957613
 20
552.119392
 30
0.0
 11
354.757613
 21
552.119392
 31
0.0
  0
ARC
  5
4EF
100
AcDbEntity
  8
M01
100
AcDbCircle
 10
353.508307
 20
559.191933
 30
0.0
 40
1.150694
100
AcDbArc
 50
118.592423
 51
241.407577
  0
LINE
  5
4F0
100
AcDbEntity
  8
M01
100
AcDbLine
 10
352.957613
 20
558.18157
 30
0.0
 11
354.757613
 21
558.18157
 31
0.0
  0
LINE
  5
4F1
100
AcDbEntity
  8
M01
100
AcDbLine
 10
352.957613
 20
560.202296
 30
0.0
 11
354.757613
 21
560.202296
 31
0.0
  0
LINE
  5
4F2
100
AcDbEntity
  8
M01
100
AcDbLine
 10
357.657613
 20
551.160844
 30
0.0
 11
356.157613
 21
551.160844
 31
0.0
  0
LINE
  5
4F3
100
AcDbEntity
  8
M01
100
AcDbLine
 10
357.657613
 20
561.160844
 30
0.0
 11
356.157613
 21
561.160844
 31
0.0
  0
LINE
  5
4F4
100
AcDbEntity
  8
M01
100
AcDbLine
 10
356.157613
 20
551.660844
 30
0.0
 11
355.357613
 21
551.660844
 31
0.0
  0
LINE
  5
4F5
100
AcDbEntity
  8
M01
100
AcDbLine
 10
356.157613
 20
560.660844
 30
0.0
 11
355.357613
 21
560.660844
 31
0.0
  0
LINE
  5
4F6
100
AcDbEntity
  8
M01
100
AcDbLine
 10
355.357613
 20
560.660844
 30
0.0
 11
355.357613
 21
551.660844
 31
0.0
  0
LINE
  5
4F7
100
AcDbEntity
  8
M01
100
AcDbLine
 10
356.157613
 20
561.160844
 30
0.0
 11
356.157613
 21
551.160844
 31
0.0
  0
LINE
  5
4F8
100
AcDbEntity
  8
M01
100
AcDbLine
 10
358.457613
 20
551.660844
 30
0.0
 11
357.657613
 21
551.660844
 31
0.0
  0
LINE
  5
4F9
100
AcDbEntity
  8
M01
100
AcDbLine
 10
358.457613
 20
560.660844
 30
0.0
 11
357.657613
 21
560.660844
 31
0.0
  0
LINE
  5
4FA
100
AcDbEntity
  8
M01
100
AcDbLine
 10
357.657613
 20
561.160844
 30
0.0
 11
357.657613
 21
551.160844
 31
0.0
  0
ARC
  5
4FB
100
AcDbEntity
  8
M01
100
AcDbCircle
 10
360.306918
 20
553.129755
 30
0.0
 40
1.150694
100
AcDbArc
 50
298.592423
 51
61.407577
  0
ARC
  5
4FC
100
AcDbEntity
  8
M01
100
AcDbCircle
 10
357.754835
 20
556.160844
 30
0.0
 40
3.702778
100
AcDbArc
 50
326.92527
 51
33.07473
  0
ARC
  5
4FD
100
AcDbEntity
  8
M01
100
AcDbCircle
 10
360.306918
 20
559.191933
 30
0.0
 40
1.150694
100
AcDbArc
 50
298.592423
 51
61.407577
  0
ARC
  5
4FE
100
AcDbEntity
  8
M01
100
AcDbCircle
 10
359.608307
 20
553.129755
 30
0.0
 40
1.150694
100
AcDbArc
 50
118.592423
 51
241.407577
  0
ARC
  5
4FF
100
AcDbEntity
  8
M01
100
AcDbCircle
 10
362.16039
 20
556.160844
 30
0.0
 40
3.702778
100
AcDbArc
 50
146.92527
 51
213.07473
  0
LINE
  5
500
100
AcDbEntity
  8
M01
100
AcDbLine
 10
359.057613
 20
554.140118
 30
0.0
 11
360.857613
 21
554.140118
 31
0.0
  0
LINE
  5
501
100
AcDbEntity
  8
M01
100
AcDbLine
 10
359.057613
 20
552.119392
 30
0.0
 11
360.857613
 21
552.119392
 31
0.0
  0
ARC
  5
502
100
AcDbEntity
  8
M01
100
AcDbCircle
 10
359.608307
 20
559.191933
 30
0.0
 40
1.150694
100
AcDbArc
 50
118.592423
 51
241.407577
  0
LINE
  5
503
100
AcDbEntity
  8
M01
100
AcDbLine
 10
359.057613
 20
558.18157
 30
0.0
 11
360.857613
 21
558.18157
 31
0.0
  0
LINE
  5
504
100
AcDbEntity
  8
M01
100
AcDbLine
 10
359.057613
 20
560.202296
 30
0.0
 11
360.857613
 21
560.202296
 31
0.0
  0
LINE
  5
505
100
AcDbEntity
  8
M01
100
AcDbLine
 10
358.457613
 20
560.660844
 30
0.0
 11
358.457613
 21
551.660844
 31
0.0
  0
LINE
  5
506
100
AcDbEntity
  8
M01
100
AcDbLine
 10
361.457613
 20
560.660844
 30
0.0
 11
361.457613
 21
551.660844
 31
0.0
  0
LINE
  5
507
100
AcDbEntity
  8
M01
100
AcDbLine
 10
349.257613
 20
554.660844
 30
0.0
 11
349.757613
 21
554.160844
 31
0.0
  0
LINE
  5
508
100
AcDbEntity
  8
M01
100
AcDbLine
 10
349.757613
 20
558.160844
 30
0.0
 11
349.257613
 21
557.660844
 31
0.0
  0
LINE
  5
509
100
AcDbEntity
  8
M01
100
AcDbLine
 10
349.757613
 20
558.160844
 30
0.0
 11
349.757613
 21
554.160844
 31
0.0
  0
LINE
  5
50A
100
AcDbEntity
  8
M01
100
AcDbLine
 10
349.257613
 20
554.660844
 30
0.0
 11
352.357613
 21
554.660844
 31
0.0
  0
LINE
  5
50B
100
AcDbEntity
  8
M01
100
AcDbLine
 10
349.257613
 20
557.660844
 30
0.0
 11
352.357613
 21
557.660844
 31
0.0
  0
LINE
  5
50C
100
AcDbEntity
  8
M01
100
AcDbLine
 10
349.757613
 20
558.160844
 30
0.0
 11
352.357613
 21
558.160844
 31
0.0
  0
LINE
  5
50D
100
AcDbEntity
  8
M01
100
AcDbLine
 10
349.757613
 20
554.160844
 30
0.0
 11
352.357613
 21
554.160844
 31
0.0
  0
LINE
  5
50E
100
AcDbEntity
  8
M01
100
AcDbLine
 10
349.257613
 20
557.660844
 30
0.0
 11
349.257613
 21
554.660844
 31
0.0
  0
LINE
  5
50F
100
AcDbEntity
  8
M01
100
AcDbLine
 10
374.257613
 20
561.160844
 30
0.0
 11
374.257613
 21
551.160844
 31
0.0
  0
LINE
  5
510
100
AcDbEntity
  8
CENTRE
100
AcDbLine
 10
343.096723
 20
556.160844
 30
0.0
 11
406.690155
 21
556.160844
 31
0.0
  0
LINE
  5
511
100
AcDbEntity
  8
M01
100
AcDbLine
 10
352.357613
 20
529.129755
 30
0.0
 11
352.357613
 21
535.191933
 31
0.0
  0
ARC
  5
512
100
AcDbEntity
  8
M01
100
AcDbCircle
 10
354.206918
 20
535.191933
 30
0.0
 40
1.150694
100
AcDbArc
 50
298.592423
 51
61.407577
  0
ARC
  5
513
100
AcDbEntity
  8
M01
100
AcDbCircle
 10
351.654835
 20
532.160844
 30
0.0
 40
3.702778
100
AcDbArc
 50
326.92527
 51
33.07473
  0
ARC
  5
514
100
AcDbEntity
  8
M01
100
AcDbCircle
 10
354.206918
 20
529.129755
 30
0.0
 40
1.150694
100
AcDbArc
 50
298.592423
 51
61.407577
  0
ARC
  5
515
100
AcDbEntity
  8
M01
100
AcDbCircle
 10
353.508307
 20
535.191933
 30
0.0
 40
1.150694
100
AcDbArc
 50
118.592423
 51
241.407577
  0
ARC
  5
516
100
AcDbEntity
  8
M01
100
AcDbCircle
 10
356.06039
 20
532.160844
 30
0.0
 40
3.702778
100
AcDbArc
 50
146.92527
 51
213.07473
  0
LINE
  5
517
100
AcDbEntity
  8
M01
100
AcDbLine
 10
352.957613
 20
534.18157
 30
0.0
 11
354.757613
 21
534.18157
 31
0.0
  0
LINE
  5
518
100
AcDbEntity
  8
M01
100
AcDbLine
 10
352.957613
 20
536.202296
 30
0.0
 11
354.757613
 21
536.202296
 31
0.0
  0
ARC
  5
519
100
AcDbEntity
  8
M01
100
AcDbCircle
 10
353.508307
 20
529.129755
 30
0.0
 40
1.150694
100
AcDbArc
 50
118.592423
 51
241.407577
  0
LINE
  5
51A
100
AcDbEntity
  8
M01
100
AcDbLine
 10
352.957613
 20
530.140118
 30
0.0
 11
354.757613
 21
530.140118
 31
0.0
  0
LINE
  5
51B
100
AcDbEntity
  8
M01
100
AcDbLine
 10
352.957613
 20
528.119392
 30
0.0
 11
354.757613
 21
528.119392
 31
0.0
  0
LINE
  5
51C
100
AcDbEntity
  8
M01
100
AcDbLine
 10
357.657613
 20
537.160844
 30
0.0
 11
356.157613
 21
537.160844
 31
0.0
  0
LINE
  5
51D
100
AcDbEntity
  8
M01
100
AcDbLine
 10
357.657613
 20
527.160844
 30
0.0
 11
356.157613
 21
527.160844
 31
0.0
  0
LINE
  5
51E
100
AcDbEntity
  8
M01
100
AcDbLine
 10
356.157613
 20
536.660844
 30
0.0
 11
355.357613
 21
536.660844
 31
0.0
  0
LINE
  5
51F
100
AcDbEntity
  8
M01
100
AcDbLine
 10
356.157613
 20
527.660844
 30
0.0
 11
355.357613
 21
527.660844
 31
0.0
  0
LINE
  5
520
100
AcDbEntity
  8
M01
100
AcDbLine
 10
355.357613
 20
527.660844
 30
0.0
 11
355.357613
 21
536.660844
 31
0.0
  0
LINE
  5
521
100
AcDbEntity
  8
M01
100
AcDbLine
 10
356.157613
 20
527.160844
 30
0.0
 11
356.157613
 21
537.160844
 31
0.0
  0
LINE
  5
522
100
AcDbEntity
  8
M01
100
AcDbLine
 10
358.457613
 20
536.660844
 30
0.0
 11
357.657613
 21
536.660844
 31
0.0
  0
LINE
  5
523
100
AcDbEntity
  8
M01
100
AcDbLine
 10
358.457613
 20
527.660844
 30
0.0
 11
357.657613
 21
527.660844
 31
0.0
  0
LINE
  5
524
100
AcDbEntity
  8
M01
100
AcDbLine
 10
357.657613
 20
527.160844
 30
0.0
 11
357.657613
 21
537.160844
 31
0.0
  0
ARC
  5
525
100
AcDbEntity
  8
M01
100
AcDbCircle
 10
360.306918
 20
535.191933
 30
0.0
 40
1.150694
100
AcDbArc
 50
298.592423
 51
61.407577
  0
ARC
  5
526
100
AcDbEntity
  8
M01
100
AcDbCircle
 10
357.754835
 20
532.160844
 30
0.0
 40
3.702778
100
AcDbArc
 50
326.92527
 51
33.07473
  0
ARC
  5
527
100
AcDbEntity
  8
M01
100
AcDbCircle
 10
360.306918
 20
529.129755
 30
0.0
 40
1.150694
100
AcDbArc
 50
298.592423
 51
61.407577
  0
ARC
  5
528
100
AcDbEntity
  8
M01
100
AcDbCircle
 10
359.608307
 20
535.191933
 30
0.0
 40
1.150694
100
AcDbArc
 50
118.592423
 51
241.407577
  0
ARC
  5
529
100
AcDbEntity
  8
M01
100
AcDbCircle
 10
362.16039
 20
532.160844
 30
0.0
 40
3.702778
100
AcDbArc
 50
146.92527
 51
213.07473
  0
LINE
  5
52A
100
AcDbEntity
  8
M01
100
AcDbLine
 10
359.057613
 20
534.18157
 30
0.0
 11
360.857613
 21
534.18157
 31
0.0
  0
LINE
  5
52B
100
AcDbEntity
  8
M01
100
AcDbLine
 10
359.057613
 20
536.202296
 30
0.0
 11
360.857613
 21
536.202296
 31
0.0
  0
ARC
  5
52C
100
AcDbEntity
  8
M01
100
AcDbCircle
 10
359.608307
 20
529.129755
 30
0.0
 40
1.150694
100
AcDbArc
 50
118.592423
 51
241.407577
  0
LINE
  5
52D
100
AcDbEntity
  8
M01
100
AcDbLine
 10
359.057613
 20
530.140118
 30
0.0
 11
360.857613
 21
530.140118
 31
0.0
  0
LINE
  5
52E
100
AcDbEntity
  8
M01
100
AcDbLine
 10
359.057613
 20
528.119392
 30
0.0
 11
360.857613
 21
528.119392
 31
0.0
  0
LINE
  5
52F
100
AcDbEntity
  8
M01
100
AcDbLine
 10
358.457613
 20
527.660844
 30
0.0
 11
358.457613
 21
536.660844
 31
0.0
  0
LINE
  5
530
100
AcDbEntity
  8
M01
100
AcDbLine
 10
361.457613
 20
527.660844
 30
0.0
 11
361.457613
 21
536.660844
 31
0.0
  0
LINE
  5
531
100
AcDbEntity
  8
M01
100
AcDbLine
 10
362.257613
 20
527.660844
 30
0.0
 11
362.257613
 21
536.660844
 31
0.0
  0
LINE
  5
532
100
AcDbEntity
  8
M04
100
AcDbLine
 10
334.257613
 20
561.160844
 30
0.0
 11
313.586134
 21
561.160844
 31
0.0
  0
LINE
  5
533
100
AcDbEntity
  8
M04
100
AcDbLine
 10
334.257613
 20
527.160844
 30
0.0
 11
313.586134
 21
527.160844
 31
0.0
  0
ARC
  5
534
100
AcDbEntity
  8
M04
100
AcDbCircle
 10
349.257613
 20
561.160844
 30
0.0
 40
15.0
100
AcDbArc
 50
90.0
 51
180.0
  0
ARC
  5
535
100
AcDbEntity
  8
M04
100
AcDbCircle
 10
349.257613
 20
527.160844
 30
0.0
 40
15.0
100
AcDbArc
 50
180.0
 51
270.0
  0
LINE
  5
536
100
AcDbEntity
  8
M04
100
AcDbLine
 10
334.257613
 20
527.160844
 30
0.0
 11
334.257613
 21
561.160844
 31
0.0
  0
LINE
  5
537
100
AcDbEntity
  8
M01
100
AcDbLine
 10
349.257613
 20
533.660844
 30
0.0
 11
349.757613
 21
534.160844
 31
0.0
  0
LINE
  5
538
100
AcDbEntity
  8
M01
100
AcDbLine
 10
349.757613
 20
530.160844
 30
0.0
 11
349.257613
 21
530.660844
 31
0.0
  0
LINE
  5
539
100
AcDbEntity
  8
M01
100
AcDbLine
 10
349.757613
 20
530.160844
 30
0.0
 11
349.757613
 21
534.160844
 31
0.0
  0
LINE
  5
53A
100
AcDbEntity
  8
M01
100
AcDbLine
 10
349.257613
 20
533.660844
 30
0.0
 11
352.357613
 21
533.660844
 31
0.0
  0
LINE
  5
53B
100
AcDbEntity
  8
M01
100
AcDbLine
 10
349.257613
 20
530.660844
 30
0.0
 11
352.357613
 21
530.660844
 31
0.0
  0
LINE
  5
53C
100
AcDbEntity
  8
M01
100
AcDbLine
 10
349.757613
 20
530.160844
 30
0.0
 11
352.357613
 21
530.160844
 31
0.0
  0
LINE
  5
53D
100
AcDbEntity
  8
M01
100
AcDbLine
 10
349.757613
 20
534.160844
 30
0.0
 11
352.357613
 21
534.160844
 31
0.0
  0
LINE
  5
53E
100
AcDbEntity
  8
M01
100
AcDbLine
 10
349.257613
 20
530.660844
 30
0.0
 11
349.257613
 21
533.660844
 31
0.0
  0
LINE
  5
53F
100
AcDbEntity
  8
M01
100
AcDbLine
 10
374.257613
 20
527.160844
 30
0.0
 11
374.257613
 21
537.160844
 31
0.0
  0
LINE
  5
540
100
AcDbEntity
  8
M01
100
AcDbLine
 10
361.457613
 20
536.660844
 30
0.0
 11
362.257613
 21
536.660844
 31
0.0
  0
LINE
  5
541
100
AcDbEntity
  8
M01
100
AcDbLine
 10
361.457613
 20
527.660844
 30
0.0
 11
362.257613
 21
527.660844
 31
0.0
  0
LINE
  5
542
100
AcDbEntity
  8
CENTRE
100
AcDbLine
 10
343.096723
 20
532.160844
 30
0.0
 11
406.690155
 21
532.160844
 31
0.0
  0
LINE
  5
543
100
AcDbEntity
  8
M04
100
AcDbLine
 10
349.257613
 20
512.160844
 30
0.0
 11
459.032216
 21
512.160844
 31
0.0
  0
LWPOLYLINE
  5
544
100
AcDbEntity
  8
M01
100
AcDbPolyline
 90
        2
 70
     0
 43
4.0
 10
399.757613
 20
546.160844
 42
0.414214
 10
397.757613
 20
544.160844
  0
LWPOLYLINE
  5
545
100
AcDbEntity
  8
M01
100
AcDbPolyline
 90
        2
 70
     0
 43
4.0
 10
399.757613
 20
542.160844
 42
0.414214
 10
401.757613
 20
544.160844
  0
CIRCLE
  5
546
100
AcDbEntity
  8
M01
100
AcDbCircle
 10
399.757613
 20
544.160844
 30
0.0
 40
4.0
  0
LINE
  5
547
100
AcDbEntity
  8
M01
100
AcDbLine
 10
402.257613
 20
548.160844
 30
0.0
 11
394.257613
 21
548.160844
 31
0.0
  0
LINE
  5
548
100
AcDbEntity
  8
M01
100
AcDbLine
 10
402.257613
 20
540.160844
 30
0.0
 11
394.257613
 21
540.160844
 31
0.0
  0
ARC
  5
549
100
AcDbEntity
  8
M01
100
AcDbCircle
 10
402.257613
 20
544.160844
 30
0.0
 40
4.0
100
AcDbArc
 50
270.0
 51
90.0
  0
LINE
  5
54A
100
AcDbEntity
  8
M01
100
AcDbLine
 10
394.257613
 20
564.160844
 30
0.0
 11
396.257613
 21
566.160844
 31
0.0
  0
LINE
  5
54B
100
AcDbEntity
  8
M01
100
AcDbLine
 10
396.257613
 20
522.160844
 30
0.0
 11
394.257613
 21
524.160844
 31
0.0
  0
LINE
  5
54C
100
AcDbEntity
  8
M01
100
AcDbLine
 10
394.257613
 20
524.160844
 30
0.0
 11
394.257613
 21
564.160844
 31
0.0
  0
LINE
  5
54D
100
AcDbEntity
  8
M01
100
AcDbLine
 10
396.257613
 20
566.160844
 30
0.0
 11
462.032216
 21
566.160844
 31
0.0
  0
LINE
  5
54E
100
AcDbEntity
  8
M01
100
AcDbLine
 10
396.257613
 20
522.160844
 30
0.0
 11
462.032216
 21
522.160844
 31
0.0
  0
CIRCLE
  5
54F
100
AcDbEntity
  8
M03
100
AcDbCircle
 10
758.257613
 20
544.160844
 30
0.0
 40
4.0
  0
CIRCLE
  5
550
100
AcDbEntity
  8
M01
100
AcDbCircle
 10
458.257613
 20
644.160844
 30
0.0
 40
4.0
  0
LINE
  5
551
100
AcDbEntity
  8
CENTRE
100
AcDbLine
 10
302.635032
 20
544.160844
 30
0.0
 11
1013.880194
 21
544.160844
 31
0.0
  0
LINE
  5
552
100
AcDbEntity
  8
CENTRE
100
AcDbLine
 10
658.257613
 20
712.19383
 30
0.0
 11
658.257613
 21
376.127857
 31
0.0
  0
ENDSEC
  0
SECTION
  2
OBJECTS
  0
DICTIONARY
  5
1C
100
AcDbDictionary
  3
ACAD_GROUP
350
1A
  3
ACAD_MLINESTYLE
350
1B
  0
DICTIONARY
  5
3
100
AcDbDictionary
280
     1
  3
ACAD_SORTENTS
360
4
  0
DICTIONARY
  5
1A
102
{ACAD_REACTORS
330
1C
102
}
100
AcDbDictionary
  0
DICTIONARY
  5
1B
102
{ACAD_REACTORS
330
1C
102
}
100
AcDbDictionary
  3
STANDARD
350
1E
  0
SORTENTSTABLE
  5
4
102
{ACAD_REACTORS
330
3
102
}
100
AcDbSortentsTable
330
2
  0
MLINESTYLE
  5
1E
102
{ACAD_REACTORS
330
1B
102
}
100
AcDbMlineStyle
  2
STANDARD
 70
     0
  3

 62
   256
 51
90.0
 52
90.0
 71
     2
 49
0.5
 62
   256
  6
BYLAYER
 49
-0.5
 62
   256
  6
BYLAYER
  0
ENDSEC
  0
EOF
