  0
SECTION
  2
HEADER
  9
$ACADVER
  1
AC1014
  9
$ACADMAINTVER
 70
     9
  9
$DWGCODEPAGE
  3
ANSI_1252
  9
$INSBASE
 10
0.0
 20
0.0
 30
0.0
  9
$EXTMIN
 10
173.782646
 20
74.128736
 30
-0.222949
  9
$EXTMAX
 10
1173.151693
 20
734.83391
 30
0.0
  9
$LIMMIN
 10
0.0
 20
0.0
  9
$LIMMAX
 10
1189.0
 20
841.0
  9
$ORTHOMODE
 70
     1
  9
$REGENMODE
 70
     1
  9
$FILLMODE
 70
     1
  9
$QTEXTMODE
 70
     0
  9
$MIRRTEXT
 70
     1
  9
$DRAGMODE
 70
     2
  9
$LTSCALE
 40
8.0
  9
$OSMODE
 70
     0
  9
$ATTMODE
 70
     1
  9
$TEXTSIZE
 40
3.0
  9
$TRACEWID
 40
10.0
  9
$TEXTSTYLE
  7
STANDARD
  9
$CLAYER
  8
DIMS
  9
$CELTYPE
  6
BYLAYER
  9
$CECOLOR
 62
   256
  9
$CELTSCALE
 40
1.0
  9
$DELOBJ
 70
     1
  9
$DISPSILH
 70
     0
  9
$DIMSCALE
 40
1.0
  9
$DIMASZ
 40
3.0
  9
$DIMEXO
 40
1.0
  9
$DIMDLI
 40
10.0
  9
$DIMRND
 40
0.01
  9
$DIMDLE
 40
1.25
  9
$DIMEXE
 40
2.5
  9
$DIMTP
 40
0.05
  9
$DIMTM
 40
0.0
  9
$DIMTXT
 40
3.0
  9
$DIMCEN
 40
-1.7
  9
$DIMTSZ
 40
0.0
  9
$DIMTOL
 70
     0
  9
$DIMLIM
 70
     0
  9
$DIMTIH
 70
     0
  9
$DIMTOH
 70
     0
  9
$DIMSE1
 70
     0
  9
$DIMSE2
 70
     0
  9
$DIMTAD
 70
     3
  9
$DIMZIN
 70
     1
  9
$DIMBLK
  1

  9
$DIMASO
 70
     1
  9
$DIMSHO
 70
     0
  9
$DIMPOST
  1

  9
$DIMAPOST
  1

  9
$DIMALT
 70
     0
  9
$DIMALTD
 70
     2
  9
$DIMALTF
 40
0.039
  9
$DIMLFAC
 40
1.0
  9
$DIMTOFL
 70
     0
  9
$DIMTVP
 40
1.5
  9
$DIMTIX
 70
     0
  9
$DIMSOXD
 70
     0
  9
$DIMSAH
 70
     0
  9
$DIMBLK1
  1

  9
$DIMBLK2
  1

  9
$DIMSTYLE
  2
DIM1
  9
$DIMCLRD
 70
     4
  9
$DIMCLRE
 70
     4
  9
$DIMCLRT
 70
     2
  9
$DIMTFAC
 40
0.7
  9
$DIMGAP
 40
1.5
  9
$DIMJUST
 70
     0
  9
$DIMSD1
 70
     0
  9
$DIMSD2
 70
     0
  9
$DIMTOLJ
 70
     1
  9
$DIMTZIN
 70
     1
  9
$DIMALTZ
 70
     1
  9
$DIMALTTZ
 70
     1
  9
$DIMFIT
 70
     0
  9
$DIMUPT
 70
     0
  9
$DIMUNIT
 70
     2
  9
$DIMDEC
 70
     2
  9
$DIMTDEC
 70
     2
  9
$DIMALTU
 70
     2
  9
$DIMALTTD
 70
     2
  9
$DIMTXSTY
  7
STANDARD
  9
$DIMAUNIT
 70
     0
  9
$LUNITS
 70
     2
  9
$LUPREC
 70
     2
  9
$SKETCHINC
 40
1.0
  9
$FILLETRAD
 40
15.0
  9
$AUNITS
 70
     0
  9
$AUPREC
 70
     3
  9
$MENU
  1
ACAD
  9
$ELEVATION
 40
0.0
  9
$PELEVATION
 40
0.0
  9
$THICKNESS
 40
0.0
  9
$LIMCHECK
 70
     0
  9
$BLIPMODE
 70
     1
  9
$CHAMFERA
 40
7.0
  9
$CHAMFERB
 40
7.0
  9
$CHAMFERC
 40
0.0
  9
$CHAMFERD
 40
0.0
  9
$SKPOLY
 70
     1
  9
$TDCREATE
 40
2449993.725698611
  9
$TDUPDATE
 40
2452213.491197222
  9
$TDINDWG
 40
1.3174046644
  9
$TDUSRTIMER
 40
1.3174046644
  9
$USRTIMER
 70
     1
  9
$ANGBASE
 50
0.0
  9
$ANGDIR
 70
     0
  9
$PDMODE
 70
     3
  9
$PDSIZE
 40
0.0
  9
$PLINEWID
 40
0.0
  9
$COORDS
 70
     2
  9
$SPLFRAME
 70
     0
  9
$SPLINETYPE
 70
     6
  9
$SPLINESEGS
 70
     6
  9
$ATTDIA
 70
     1
  9
$ATTREQ
 70
     1
  9
$HANDLING
 70
     1
  9
$HANDSEED
  5
54C
  9
$SURFTAB1
 70
    12
  9
$SURFTAB2
 70
    12
  9
$SURFTYPE
 70
     6
  9
$SURFU
 70
    12
  9
$SURFV
 70
    12
  9
$UCSNAME
  2

  9
$UCSORG
 10
0.0
 20
0.0
 30
0.0
  9
$UCSXDIR
 10
1.0
 20
0.0
 30
0.0
  9
$UCSYDIR
 10
0.0
 20
1.0
 30
0.0
  9
$PUCSNAME
  2

  9
$PUCSORG
 10
0.0
 20
0.0
 30
0.0
  9
$PUCSXDIR
 10
1.0
 20
0.0
 30
0.0
  9
$PUCSYDIR
 10
0.0
 20
1.0
 30
0.0
  9
$USERI1
 70
     0
  9
$USERI2
 70
     0
  9
$USERI3
 70
     0
  9
$USERI4
 70
     0
  9
$USERI5
 70
     0
  9
$USERR1
 40
0.0
  9
$USERR2
 40
0.0
  9
$USERR3
 40
0.0
  9
$USERR4
 40
0.0
  9
$USERR5
 40
0.0
  9
$WORLDVIEW
 70
     0
  9
$SHADEDGE
 70
     3
  9
$SHADEDIF
 70
    70
  9
$TILEMODE
 70
     1
  9
$MAXACTVP
 70
    16
  9
$PINSBASE
 10
0.0
 20
0.0
 30
0.0
  9
$PLIMCHECK
 70
     0
  9
$PEXTMIN
 10
1.000000E+20
 20
1.000000E+20
 30
1.000000E+20
  9
$PEXTMAX
 10
-1.000000E+20
 20
-1.000000E+20
 30
-1.000000E+20
  9
$PLIMMIN
 10
0.0
 20
0.0
  9
$PLIMMAX
 10
12.0
 20
9.0
  9
$UNITMODE
 70
     0
  9
$VISRETAIN
 70
     0
  9
$PLINEGEN
 70
     0
  9
$PSLTSCALE
 70
     0
  9
$TREEDEPTH
 70
  3020
  9
$PICKSTYLE
 70
     0
  9
$CMLSTYLE
  2
STANDARD
  9
$CMLJUST
 70
     0
  9
$CMLSCALE
 40
1.0
  9
$PROXYGRAPHICS
 70
     1
  9
$MEASUREMENT
 70
     0
  0
ENDSEC
  0
SECTION
  2
CLASSES
  0
CLASS
  1
DICTIONARYVAR
  2
AcDbDictionaryVar
  3
"AutoCAD"
 90
        0
280
     0
281
     0
  0
CLASS
  1
LWPOLYLINE
  2
AcDbPolyline
  3
"AutoCAD"
 90
        0
280
     0
281
     1
  0
CLASS
  1
HATCH
  2
AcDbHatch
  3
"ACAD_SEDONA"
 90
        0
280
     0
281
     1
  0
CLASS
  1
SORTENTSTABLE
  2
AcDbSortentsTable
  3
"AutoCAD"
 90
        0
280
     0
281
     0
  0
CLASS
  1
WIPEOUTVARIABLES
  2
AcDbWipeoutVariables
  3
WIPEOUT
 90
        0
280
     0
281
     0
  0
CLASS
  1
WIPEOUT
  2
AcDbWipeout
  3
WIPEOUT
 90
      127
280
     0
281
     1
  0
ENDSEC
  0
SECTION
  2
TABLES
  0
TABLE
  2
VPORT
  5
14
100
AcDbSymbolTable
 70
     2
  0
VPORT
  5
54B
100
AcDbSymbolTableRecord
100
AcDbViewportTableRecord
  2
*ACTIVE
 70
     0
 10
0.0
 20
0.0
 11
1.0
 21
1.0
 12
602.038644
 22
407.720885
 13
0.0
 23
0.0
 14
10.0
 24
10.0
 15
0.0
 25
0.0
 16
0.0
 26
0.0
 36
1.0
 17
16.313321
 27
12.779115
 37
0.222949
 40
841.0
 41
1.470516
 42
50.0
 43
0.0
 44
0.0
 50
0.0
 51
0.0
 71
     0
 72
  2000
 73
     1
 74
     2
 75
     0
 76
     0
 77
     0
 78
     1
  0
ENDTAB
  0
TABLE
  2
LTYPE
  5
F
100
AcDbSymbolTable
 70
     3
  0
LTYPE
  5
10
100
AcDbSymbolTableRecord
100
AcDbLinetypeTableRecord
  2
BYBLOCK
 70
     0
  3

 72
    65
 73
     0
 40
0.0
  0
LTYPE
  5
11
100
AcDbSymbolTableRecord
100
AcDbLinetypeTableRecord
  2
BYLAYER
 70
     0
  3

 72
    65
 73
     0
 40
0.0
  0
LTYPE
  5
7
100
AcDbSymbolTableRecord
100
AcDbLinetypeTableRecord
  2
CONTINUOUS
 70
     0
  3
Solid line
 72
    65
 73
     0
 40
0.0
  0
LTYPE
  5
115
100
AcDbSymbolTableRecord
100
AcDbLinetypeTableRecord
  2
CENTER
 70
     0
  3
Center ____ _ ____ _ ____ _ ____ _ ____ _ ____
 72
    65
 73
     4
 40
2.0
 49
1.25
 74
     0
 49
-0.25
 74
     0
 49
0.25
 74
     0
 49
-0.25
 74
     0
  0
LTYPE
  5
CF
100
AcDbSymbolTableRecord
100
AcDbLinetypeTableRecord
  2
HIDDEN
 70
     0
  3
Hidden __ __ __ __ __ __ __ __ __ __ __ __ __ _
 72
    65
 73
     2
 40
0.375
 49
0.25
 74
     0
 49
-0.125
 74
     0
  0
ENDTAB
  0
TABLE
  2
LAYER
  5
C
100
AcDbSymbolTable
 70
    11
  0
LAYER
  5
6
100
AcDbSymbolTableRecord
100
AcDbLayerTableRecord
  2
0
 70
     0
 62
     7
  6
CONTINUOUS
  0
LAYER
  5
114
100
AcDbSymbolTableRecord
100
AcDbLayerTableRecord
  2
CENTRE
 70
     0
 62
     3
  6
CENTER
  0
LAYER
  5
32
100
AcDbSymbolTableRecord
100
AcDbLayerTableRecord
  2
M01
 70
     0
 62
     1
  6
CONTINUOUS
  0
LAYER
  5
2B0
100
AcDbSymbolTableRecord
100
AcDbLayerTableRecord
  2
M02
 70
     0
 62
     2
  6
CONTINUOUS
  0
LAYER
  5
CE
100
AcDbSymbolTableRecord
100
AcDbLayerTableRecord
  2
M03
 70
     0
 62
     2
  6
HIDDEN
  0
LAYER
  5
24
100
AcDbSymbolTableRecord
100
AcDbLayerTableRecord
  2
M04
 70
     0
 62
     7
  6
CONTINUOUS
  0
LAYER
  5
D9
100
AcDbSymbolTableRecord
100
AcDbLayerTableRecord
  2
M05
 70
     0
 62
     5
  6
CONTINUOUS
  0
LAYER
  5
1D
100
AcDbSymbolTableRecord
100
AcDbLayerTableRecord
  2
DIMS
 70
     0
 62
     4
  6
CONTINUOUS
  0
LAYER
  5
21
100
AcDbSymbolTableRecord
100
AcDbLayerTableRecord
  2
TEXT
 70
     0
 62
     2
  6
CONTINUOUS
  0
LAYER
  5
8F
100
AcDbSymbolTableRecord
100
AcDbLayerTableRecord
  2
HATCH
 70
     0
 62
     4
  6
CONTINUOUS
  0
LAYER
  5
49
100
AcDbSymbolTableRecord
100
AcDbLayerTableRecord
  2
DEFPOINTS
 70
     0
 62
     7
  6
CONTINUOUS
  0
ENDTAB
  0
TABLE
  2
STYLE
  5
D
100
AcDbSymbolTable
 70
     1
  0
STYLE
  5
E
100
AcDbSymbolTableRecord
100
AcDbTextStyleTableRecord
  2
STANDARD
 70
     0
 40
0.0
 41
1.0
 50
0.0
 71
     0
 42
3.0
  3
SIMPLEX
  4

  0
ENDTAB
  0
TABLE
  2
VIEW
  5
12
100
AcDbSymbolTable
 70
     0
  0
ENDTAB
  0
TABLE
  2
UCS
  5
13
100
AcDbSymbolTable
 70
     0
  0
ENDTAB
  0
TABLE
  2
APPID
  5
16
100
AcDbSymbolTable
 70
     1
  0
APPID
  5
17
100
AcDbSymbolTableRecord
100
AcDbRegAppTableRecord
  2
ACAD
 70
     0
  0
ENDTAB
  0
TABLE
  2
DIMSTYLE
  5
18
100
AcDbSymbolTable
 70
     2
  0
DIMSTYLE
105
1F
102
{ACAD_REACTORS
330
415
330
407
330
3F9
330
3EC
330
3DE
330
BD
330
B0
330
A3
330
96
330
81
330
74
330
67
330
5B
330
4E
330
40
102
}
100
AcDbSymbolTableRecord
100
AcDbDimStyleTableRecord
  2
DIM1
 70
     0
  3

  4

  5

  6

  7

 40
1.0
 41
3.0
 42
1.0
 43
10.0
 44
2.5
 45
0.01
 46
1.25
 47
0.05
 48
0.0
140
3.0
141
-1.7
142
0.0
143
0.039
144
0.2
145
1.5
146
0.7
147
1.5
 71
     0
 72
     0
 73
     0
 74
     0
 75
     0
 76
     0
 77
     3
 78
     1
170
     0
171
     2
172
     0
173
     0
174
     0
175
     0
176
     4
177
     4
178
     2
270
     2
271
     2
272
     2
273
     2
274
     2
340
E
275
     0
280
     0
281
     0
282
     0
283
     1
284
     1
285
     1
286
     1
287
     0
288
     0
  0
DIMSTYLE
105
32C
100
AcDbSymbolTableRecord
100
AcDbDimStyleTableRecord
  2
DIM1$7
 70
     0
  3

  4

  5

  6

  7

 40
1.0
 41
3.0
 42
1.0
 43
10.0
 44
2.5
 45
0.01
 46
1.25
 47
0.0
 48
0.0
140
3.0
141
-1.7
142
0.0
143
0.039
144
1.0
145
0.0
146
1.0
147
1.5
 71
     0
 72
     0
 73
     0
 74
     0
 75
     0
 76
     0
 77
     0
 78
     1
170
     0
171
     2
172
     0
173
     0
174
     0
175
     0
176
     4
177
     4
178
     2
270
     2
271
     2
272
     2
273
     2
274
     2
340
E
275
     0
280
     0
281
     0
282
     0
283
     1
284
     1
285
     1
286
     1
287
     0
288
     0
  0
ENDTAB
  0
TABLE
  2
BLOCK_RECORD
  5
1
100
AcDbSymbolTable
 70
    16
  0
BLOCK_RECORD
  5
2
102
{ACAD_XDICTIONARY
360
3
102
}
100
AcDbSymbolTableRecord
100
AcDbBlockTableRecord
  2
*MODEL_SPACE
  0
BLOCK_RECORD
  5
9
100
AcDbSymbolTableRecord
100
AcDbBlockTableRecord
  2
*PAPER_SPACE
  0
BLOCK_RECORD
  5
416
100
AcDbSymbolTableRecord
100
AcDbBlockTableRecord
  2
*D0
  0
BLOCK_RECORD
  5
408
100
AcDbSymbolTableRecord
100
AcDbBlockTableRecord
  2
*D1
  0
BLOCK_RECORD
  5
3FA
100
AcDbSymbolTableRecord
100
AcDbBlockTableRecord
  2
*D2
  0
BLOCK_RECORD
  5
3ED
100
AcDbSymbolTableRecord
100
AcDbBlockTableRecord
  2
*D3
  0
BLOCK_RECORD
  5
3DF
100
AcDbSymbolTableRecord
100
AcDbBlockTableRecord
  2
*D4
  0
BLOCK_RECORD
  5
215
100
AcDbSymbolTableRecord
100
AcDbBlockTableRecord
  2
ARROW1
  0
BLOCK_RECORD
  5
BE
100
AcDbSymbolTableRecord
100
AcDbBlockTableRecord
  2
*D6
  0
BLOCK_RECORD
  5
B1
100
AcDbSymbolTableRecord
100
AcDbBlockTableRecord
  2
*D7
  0
BLOCK_RECORD
  5
A4
100
AcDbSymbolTableRecord
100
AcDbBlockTableRecord
  2
*D8
  0
BLOCK_RECORD
  5
97
100
AcDbSymbolTableRecord
100
AcDbBlockTableRecord
  2
*D9
  0
BLOCK_RECORD
  5
82
100
AcDbSymbolTableRecord
100
AcDbBlockTableRecord
  2
*D10
  0
BLOCK_RECORD
  5
75
100
AcDbSymbolTableRecord
100
AcDbBlockTableRecord
  2
*D11
  0
BLOCK_RECORD
  5
68
100
AcDbSymbolTableRecord
100
AcDbBlockTableRecord
  2
*D12
  0
BLOCK_RECORD
  5
5C
100
AcDbSymbolTableRecord
100
AcDbBlockTableRecord
  2
*D13
  0
BLOCK_RECORD
  5
4F
100
AcDbSymbolTableRecord
100
AcDbBlockTableRecord
  2
*D14
  0
BLOCK_RECORD
  5
41
100
AcDbSymbolTableRecord
100
AcDbBlockTableRecord
  2
*D15
  0
ENDTAB
  0
ENDSEC
  0
SECTION
  2
BLOCKS
  0
BLOCK
  5
5
100
AcDbEntity
  8
0
100
AcDbBlockBegin
  2
*MODEL_SPACE
 70
     0
 10
0.0
 20
0.0
 30
0.0
  3
*MODEL_SPACE
  1

  0
ENDBLK
  5
8
100
AcDbEntity
  8
0
100
AcDbBlockEnd
  0
BLOCK
  5
A
100
AcDbEntity
 67
     1
  8
0
100
AcDbBlockBegin
  2
*PAPER_SPACE
 70
     0
 10
0.0
 20
0.0
 30
0.0
  3
*PAPER_SPACE
  1

  0
ENDBLK
  5
B
100
AcDbEntity
 67
     1
  8
0
100
AcDbBlockEnd
  0
BLOCK
  5
420
100
AcDbEntity
  8
0
100
AcDbBlockBegin
  2
*D0
 70
     1
 10
0.0
 20
0.0
 30
0.0
  3
*D0
  1

  0
LINE
  5
417
100
AcDbEntity
  8
0
  6
BYBLOCK
 62
     4
100
AcDbLine
 10
863.167613
 20
288.608777
 30
0.0
 11
905.14031
 21
288.608777
 31
0.0
  0
LINE
  5
418
100
AcDbEntity
  8
0
  6
BYBLOCK
 62
     4
100
AcDbLine
 10
865.167613
 20
228.608777
 30
0.0
 11
905.14031
 21
228.608777
 31
0.0
  0
LINE
  5
419
100
AcDbEntity
  8
0
  6
BYBLOCK
 62
     4
100
AcDbLine
 10
902.64031
 20
285.608777
 30
0.0
 11
902.64031
 21
231.608777
 31
0.0
  0
SOLID
  5
41A
100
AcDbEntity
  8
0
  6
BYBLOCK
 62
     4
100
AcDbTrace
 10
902.14031
 20
285.608777
 30
0.0
 11
903.14031
 21
285.608777
 31
0.0
 12
902.64031
 22
288.608777
 32
0.0
 13
902.64031
 23
288.608777
 33
0.0
  0
SOLID
  5
41B
100
AcDbEntity
  8
0
  6
BYBLOCK
 62
     4
100
AcDbTrace
 10
902.14031
 20
231.608777
 30
0.0
 11
903.14031
 21
231.608777
 31
0.0
 12
902.64031
 22
228.608777
 32
0.0
 13
902.64031
 23
228.608777
 33
0.0
  0
MTEXT
  5
41C
100
AcDbEntity
  8
0
  6
BYBLOCK
 62
     2
100
AcDbMText
 10
899.64031
 20
258.608777
 30
0.0
 40
3.0
 41
0.0
 71
     5
 72
     1
  1
\A1;60.00
 11
0.0
 21
1.0
 31
0.0
  0
POINT
  5
41D
100
AcDbEntity
  8
DEFPOINTS
  6
BYBLOCK
 62
     0
100
AcDbPoint
 10
862.167613
 20
288.608777
 30
0.0
  0
POINT
  5
41E
100
AcDbEntity
  8
DEFPOINTS
  6
BYBLOCK
 62
     0
100
AcDbPoint
 10
864.167613
 20
228.608777
 30
0.0
  0
POINT
  5
41F
100
AcDbEntity
  8
DEFPOINTS
  6
BYBLOCK
 62
     0
100
AcDbPoint
 10
902.64031
 20
228.608777
 30
0.0
  0
ENDBLK
  5
421
100
AcDbEntity
  8
0
100
AcDbBlockEnd
  0
BLOCK
  5
413
100
AcDbEntity
  8
0
100
AcDbBlockBegin
  2
*D1
 70
     1
 10
0.0
 20
0.0
 30
0.0
  3
*D1
  1

  0
LINE
  5
409
100
AcDbEntity
  8
0
  6
BYBLOCK
 62
     4
100
AcDbLine
 10
863.167613
 20
228.608777
 30
0.0
 11
905.14031
 21
228.608777
 31
0.0
  0
LINE
  5
40A
100
AcDbEntity
  8
0
  6
BYBLOCK
 62
     4
100
AcDbLine
 10
883.681004
 20
221.608777
 30
0.0
 11
905.14031
 21
221.608777
 31
0.0
  0
LINE
  5
40B
100
AcDbEntity
  8
0
  6
BYBLOCK
 62
     4
100
AcDbLine
 10
902.64031
 20
231.608777
 30
0.0
 11
902.64031
 21
234.608777
 31
0.0
  0
LINE
  5
40C
100
AcDbEntity
  8
0
  6
BYBLOCK
 62
     4
100
AcDbLine
 10
902.64031
 20
218.608777
 30
0.0
 11
902.64031
 21
206.323063
 31
0.0
  0
SOLID
  5
40D
100
AcDbEntity
  8
0
  6
BYBLOCK
 62
     4
100
AcDbTrace
 10
902.14031
 20
231.608777
 30
0.0
 11
903.14031
 21
231.608777
 31
0.0
 12
902.64031
 22
228.608777
 32
0.0
 13
902.64031
 23
228.608777
 33
0.0
  0
SOLID
  5
40E
100
AcDbEntity
  8
0
  6
BYBLOCK
 62
     4
100
AcDbTrace
 10
902.14031
 20
218.608777
 30
0.0
 11
903.14031
 21
218.608777
 31
0.0
 12
902.64031
 22
221.608777
 32
0.0
 13
902.64031
 23
221.608777
 33
0.0
  0
MTEXT
  5
40F
100
AcDbEntity
  8
0
  6
BYBLOCK
 62
     2
100
AcDbMText
 10
899.64031
 20
210.96592
 30
0.0
 40
3.0
 41
0.0
 71
     5
 72
     1
  1
\A1;7.0
 11
0.0
 21
1.0
 31
0.0
  0
POINT
  5
410
100
AcDbEntity
  8
DEFPOINTS
  6
BYBLOCK
 62
     0
100
AcDbPoint
 10
862.167613
 20
228.608777
 30
0.0
  0
POINT
  5
411
100
AcDbEntity
  8
DEFPOINTS
  6
BYBLOCK
 62
     0
100
AcDbPoint
 10
882.681004
 20
221.608777
 30
0.0
  0
POINT
  5
412
100
AcDbEntity
  8
DEFPOINTS
  6
BYBLOCK
 62
     0
100
AcDbPoint
 10
902.64031
 20
221.608777
 30
0.0
  0
ENDBLK
  5
414
100
AcDbEntity
  8
0
100
AcDbBlockEnd
  0
BLOCK
  5
405
100
AcDbEntity
  8
0
100
AcDbBlockBegin
  2
*D2
 70
     1
 10
0.0
 20
0.0
 30
0.0
  3
*D2
  1

  0
LINE
  5
3FB
100
AcDbEntity
  8
0
  6
BYBLOCK
 62
     4
100
AcDbLine
 10
863.167613
 20
288.608777
 30
0.0
 11
905.14031
 21
288.608777
 31
0.0
  0
LINE
  5
3FC
100
AcDbEntity
  8
0
  6
BYBLOCK
 62
     4
100
AcDbLine
 10
872.167613
 20
295.608777
 30
0.0
 11
905.14031
 21
295.608777
 31
0.0
  0
LINE
  5
3FD
100
AcDbEntity
  8
0
  6
BYBLOCK
 62
     4
100
AcDbLine
 10
902.64031
 20
285.608777
 30
0.0
 11
902.64031
 21
282.608777
 31
0.0
  0
LINE
  5
3FE
100
AcDbEntity
  8
0
  6
BYBLOCK
 62
     4
100
AcDbLine
 10
902.64031
 20
298.608777
 30
0.0
 11
902.64031
 21
310.894491
 31
0.0
  0
SOLID
  5
3FF
100
AcDbEntity
  8
0
  6
BYBLOCK
 62
     4
100
AcDbTrace
 10
902.14031
 20
285.608777
 30
0.0
 11
903.14031
 21
285.608777
 31
0.0
 12
902.64031
 22
288.608777
 32
0.0
 13
902.64031
 23
288.608777
 33
0.0
  0
SOLID
  5
400
100
AcDbEntity
  8
0
  6
BYBLOCK
 62
     4
100
AcDbTrace
 10
902.14031
 20
298.608777
 30
0.0
 11
903.14031
 21
298.608777
 31
0.0
 12
902.64031
 22
295.608777
 32
0.0
 13
902.64031
 23
295.608777
 33
0.0
  0
MTEXT
  5
401
100
AcDbEntity
  8
0
  6
BYBLOCK
 62
     2
100
AcDbMText
 10
899.64031
 20
306.251634
 30
0.0
 40
3.0
 41
0.0
 71
     5
 72
     1
  1
\A1;7.0
 11
0.0
 21
1.0
 31
0.0
  0
POINT
  5
402
100
AcDbEntity
  8
DEFPOINTS
  6
BYBLOCK
 62
     0
100
AcDbPoint
 10
862.167613
 20
288.608777
 30
0.0
  0
POINT
  5
403
100
AcDbEntity
  8
DEFPOINTS
  6
BYBLOCK
 62
     0
100
AcDbPoint
 10
871.167613
 20
295.608777
 30
0.0
  0
POINT
  5
404
100
AcDbEntity
  8
DEFPOINTS
  6
BYBLOCK
 62
     0
100
AcDbPoint
 10
902.64031
 20
295.608777
 30
0.0
  0
ENDBLK
  5
406
100
AcDbEntity
  8
0
100
AcDbBlockEnd
  0
BLOCK
  5
3F7
100
AcDbEntity
  8
0
100
AcDbBlockBegin
  2
*D3
 70
     1
 10
0.0
 20
0.0
 30
0.0
  3
*D3
  1

  0
LINE
  5
3EE
100
AcDbEntity
  8
0
  6
BYBLOCK
 62
     4
100
AcDbLine
 10
870.818995
 20
-32.251076
 30
0.0
 11
870.818995
 21
-70.066192
 31
0.0
  0
LINE
  5
3EF
100
AcDbEntity
  8
0
  6
BYBLOCK
 62
     4
100
AcDbLine
 10
830.818995
 20
-32.251076
 30
0.0
 11
830.818995
 21
-70.066192
 31
0.0
  0
LINE
  5
3F0
100
AcDbEntity
  8
0
  6
BYBLOCK
 62
     4
100
AcDbLine
 10
867.818995
 20
-67.566192
 30
0.0
 11
833.818995
 21
-67.566192
 31
0.0
  0
SOLID
  5
3F1
100
AcDbEntity
  8
0
  6
BYBLOCK
 62
     4
100
AcDbTrace
 10
867.818995
 20
-67.066192
 30
0.0
 11
867.818995
 21
-68.066192
 31
0.0
 12
870.818995
 22
-67.566192
 32
0.0
 13
870.818995
 23
-67.566192
 33
0.0
  0
SOLID
  5
3F2
100
AcDbEntity
  8
0
  6
BYBLOCK
 62
     4
100
AcDbTrace
 10
833.818995
 20
-67.066192
 30
0.0
 11
833.818995
 21
-68.066192
 31
0.0
 12
830.818995
 22
-67.566192
 32
0.0
 13
830.818995
 23
-67.566192
 33
0.0
  0
MTEXT
  5
3F3
100
AcDbEntity
  8
0
  6
BYBLOCK
 62
     2
100
AcDbMText
 10
850.818995
 20
-64.566192
 30
0.0
 40
3.0
 41
0.0
 71
     5
 72
     1
  1
\A1;\U+220540.00 H7
  0
POINT
  5
3F4
100
AcDbEntity
  8
DEFPOINTS
  6
BYBLOCK
 62
     0
100
AcDbPoint
 10
870.818995
 20
-31.251076
 30
0.0
  0
POINT
  5
3F5
100
AcDbEntity
  8
DEFPOINTS
  6
BYBLOCK
 62
     0
100
AcDbPoint
 10
830.818995
 20
-31.251076
 30
0.0
  0
POINT
  5
3F6
100
AcDbEntity
  8
DEFPOINTS
  6
BYBLOCK
 62
     0
100
AcDbPoint
 10
830.818995
 20
-67.566192
 30
0.0
  0
ENDBLK
  5
3F8
100
AcDbEntity
  8
0
100
AcDbBlockEnd
  0
BLOCK
  5
3EA
100
AcDbEntity
  8
0
100
AcDbBlockBegin
  2
*D4
 70
     1
 10
0.0
 20
0.0
 30
0.0
  3
*D4
  1

  0
LINE
  5
3E0
100
AcDbEntity
  8
0
  6
BYBLOCK
 62
     4
100
AcDbLine
 10
248.765534
 20
25.51995
 30
0.0
 11
248.765534
 21
41.696115
 31
0.0
  0
LINE
  5
3E1
100
AcDbEntity
  8
0
  6
BYBLOCK
 62
     4
100
AcDbLine
 10
256.765534
 20
25.51995
 30
0.0
 11
256.765534
 21
41.696115
 31
0.0
  0
LINE
  5
3E2
100
AcDbEntity
  8
0
  6
BYBLOCK
 62
     4
100
AcDbLine
 10
245.765534
 20
39.196115
 30
0.0
 11
242.765534
 21
39.196115
 31
0.0
  0
LINE
  5
3E3
100
AcDbEntity
  8
0
  6
BYBLOCK
 62
     4
100
AcDbLine
 10
259.765534
 20
39.196115
 30
0.0
 11
286.336963
 21
39.196115
 31
0.0
  0
SOLID
  5
3E4
100
AcDbEntity
  8
0
  6
BYBLOCK
 62
     4
100
AcDbTrace
 10
245.765534
 20
39.696115
 30
0.0
 11
245.765534
 21
38.696115
 31
0.0
 12
248.765534
 22
39.196115
 32
0.0
 13
248.765534
 23
39.196115
 33
0.0
  0
SOLID
  5
3E5
100
AcDbEntity
  8
0
  6
BYBLOCK
 62
     4
100
AcDbTrace
 10
259.765534
 20
39.696115
 30
0.0
 11
259.765534
 21
38.696115
 31
0.0
 12
256.765534
 22
39.196115
 32
0.0
 13
256.765534
 23
39.196115
 33
0.0
  0
MTEXT
  5
3E6
100
AcDbEntity
  8
0
  6
BYBLOCK
 62
     2
100
AcDbMText
 10
274.551249
 20
42.196115
 30
0.0
 40
3.0
 41
0.0
 71
     5
 72
     1
  1
\A1;\U+22058.00 H7
  0
POINT
  5
3E7
100
AcDbEntity
  8
DEFPOINTS
  6
BYBLOCK
 62
     0
100
AcDbPoint
 10
248.765534
 20
24.51995
 30
0.0
  0
POINT
  5
3E8
100
AcDbEntity
  8
DEFPOINTS
  6
BYBLOCK
 62
     0
100
AcDbPoint
 10
256.765534
 20
24.51995
 30
0.0
  0
POINT
  5
3E9
100
AcDbEntity
  8
DEFPOINTS
  6
BYBLOCK
 62
     0
100
AcDbPoint
 10
256.765534
 20
39.196115
 30
0.0
  0
ENDBLK
  5
3EB
100
AcDbEntity
  8
0
100
AcDbBlockEnd
  0
BLOCK
  5
219
100
AcDbEntity
  8
0
100
AcDbBlockBegin
  2
ARROW1
 70
     0
 10
0.0
 20
0.0
 30
0.0
  3
ARROW1
  1

  0
LINE
  5
216
100
AcDbEntity
  8
0
100
AcDbLine
 10
-1.0
 20
-0.2
 30
0.0
 11
-1.0
 21
0.0
 31
0.0
  0
LINE
  5
217
100
AcDbEntity
  8
0
100
AcDbLine
 10
0.0
 20
0.0
 30
0.0
 11
-1.0
 21
-0.2
 31
0.0
  0
SOLID
  5
218
100
AcDbEntity
  8
0
100
AcDbTrace
 10
0.0
 20
0.0
 30
0.0
 11
-1.0
 21
0.2
 31
0.0
 12
-1.0
 22
0.0
 32
0.0
 13
-1.0
 23
0.0
 33
0.0
  0
ENDBLK
  5
21A
100
AcDbEntity
  8
0
100
AcDbBlockEnd
  0
BLOCK
  5
C8
100
AcDbEntity
  8
0
100
AcDbBlockBegin
  2
*D6
 70
     1
 10
0.0
 20
0.0
 30
0.0
  3
*D6
  1

  0
LINE
  5
BF
100
AcDbEntity
  8
0
  6
BYBLOCK
 62
     4
100
AcDbLine
 10
625.257613
 20
295.608777
 30
0.0
 11
611.927731
 21
295.608777
 31
0.0
  0
LINE
  5
C0
100
AcDbEntity
  8
0
  6
BYBLOCK
 62
     4
100
AcDbLine
 10
635.032613
 20
309.008777
 30
0.0
 11
611.927731
 21
309.008777
 31
0.0
  0
LINE
  5
C1
100
AcDbEntity
  8
0
  6
BYBLOCK
 62
     4
100
AcDbLine
 10
614.427731
 20
298.608777
 30
0.0
 11
614.427731
 21
306.008777
 31
0.0
  0
SOLID
  5
C2
100
AcDbEntity
  8
0
  6
BYBLOCK
 62
     4
100
AcDbTrace
 10
613.927731
 20
298.608777
 30
0.0
 11
614.927731
 21
298.608777
 31
0.0
 12
614.427731
 22
295.608777
 32
0.0
 13
614.427731
 23
295.608777
 33
0.0
  0
SOLID
  5
C3
100
AcDbEntity
  8
0
  6
BYBLOCK
 62
     4
100
AcDbTrace
 10
613.927731
 20
306.008777
 30
0.0
 11
614.927731
 21
306.008777
 31
0.0
 12
614.427731
 22
309.008777
 32
0.0
 13
614.427731
 23
309.008777
 33
0.0
  0
MTEXT
  5
C4
100
AcDbEntity
  8
0
  6
BYBLOCK
 62
     2
100
AcDbMText
 10
611.427731
 20
302.308777
 30
0.0
 40
3.0
 41
0.0
 71
     5
 72
     1
  1
\A1;13.4
 11
0.0
 21
1.0
 31
0.0
  0
POINT
  5
C5
100
AcDbEntity
  8
DEFPOINTS
  6
BYBLOCK
 62
     0
100
AcDbPoint
 10
626.257613
 20
295.608777
 30
0.0
  0
POINT
  5
C6
100
AcDbEntity
  8
DEFPOINTS
  6
BYBLOCK
 62
     0
100
AcDbPoint
 10
636.032613
 20
309.008777
 30
0.0
  0
POINT
  5
C7
100
AcDbEntity
  8
DEFPOINTS
  6
BYBLOCK
 62
     0
100
AcDbPoint
 10
614.427731
 20
309.008777
 30
0.0
  0
ENDBLK
  5
C9
100
AcDbEntity
  8
0
100
AcDbBlockEnd
  0
BLOCK
  5
BB
100
AcDbEntity
  8
0
100
AcDbBlockBegin
  2
*D7
 70
     1
 10
0.0
 20
0.0
 30
0.0
  3
*D7
  1

  0
LINE
  5
B2
100
AcDbEntity
  8
0
  6
BYBLOCK
 62
     4
100
AcDbLine
 10
680.482613
 20
315.008777
 30
0.0
 11
680.482613
 21
333.710438
 31
0.0
  0
LINE
  5
B3
100
AcDbEntity
  8
0
  6
BYBLOCK
 62
     4
100
AcDbLine
 10
636.032613
 20
315.008777
 30
0.0
 11
636.032613
 21
333.710438
 31
0.0
  0
LINE
  5
B4
100
AcDbEntity
  8
0
  6
BYBLOCK
 62
     4
100
AcDbLine
 10
677.482613
 20
331.210438
 30
0.0
 11
639.032613
 21
331.210438
 31
0.0
  0
SOLID
  5
B5
100
AcDbEntity
  8
0
  6
BYBLOCK
 62
     4
100
AcDbTrace
 10
677.482613
 20
331.710438
 30
0.0
 11
677.482613
 21
330.710438
 31
0.0
 12
680.482613
 22
331.210438
 32
0.0
 13
680.482613
 23
331.210438
 33
0.0
  0
SOLID
  5
B6
100
AcDbEntity
  8
0
  6
BYBLOCK
 62
     4
100
AcDbTrace
 10
639.032613
 20
331.710438
 30
0.0
 11
639.032613
 21
330.710438
 31
0.0
 12
636.032613
 22
331.210438
 32
0.0
 13
636.032613
 23
331.210438
 33
0.0
  0
MTEXT
  5
B7
100
AcDbEntity
  8
0
  6
BYBLOCK
 62
     2
100
AcDbMText
 10
659.222824
 20
334.210438
 30
0.0
 40
3.0
 41
0.0
 71
     5
 72
     1
  1
\A1;\U+220544.45 H7
  0
POINT
  5
B8
100
AcDbEntity
  8
DEFPOINTS
  6
BYBLOCK
 62
     0
100
AcDbPoint
 10
680.482613
 20
314.008777
 30
0.0
  0
POINT
  5
B9
100
AcDbEntity
  8
DEFPOINTS
  6
BYBLOCK
 62
     0
100
AcDbPoint
 10
636.032613
 20
314.008777
 30
0.0
  0
POINT
  5
BA
100
AcDbEntity
  8
DEFPOINTS
  6
BYBLOCK
 62
     0
100
AcDbPoint
 10
636.032613
 20
331.210438
 30
0.0
  0
ENDBLK
  5
BC
100
AcDbEntity
  8
0
100
AcDbBlockEnd
  0
BLOCK
  5
AE
100
AcDbEntity
  8
0
100
AcDbBlockBegin
  2
*D8
 70
     1
 10
0.0
 20
0.0
 30
0.0
  3
*D8
  1

  0
LINE
  5
A5
100
AcDbEntity
  8
0
  6
BYBLOCK
 62
     4
100
AcDbLine
 10
635.032613
 20
309.431427
 30
0.0
 11
635.032613
 21
343.75167
 31
0.0
  0
LINE
  5
A6
100
AcDbEntity
  8
0
  6
BYBLOCK
 62
     4
100
AcDbLine
 10
681.482613
 20
309.431427
 30
0.0
 11
681.482613
 21
343.75167
 31
0.0
  0
LINE
  5
A7
100
AcDbEntity
  8
0
  6
BYBLOCK
 62
     4
100
AcDbLine
 10
638.032613
 20
341.25167
 30
0.0
 11
678.482613
 21
341.25167
 31
0.0
  0
SOLID
  5
A8
100
AcDbEntity
  8
0
  6
BYBLOCK
 62
     4
100
AcDbTrace
 10
638.032613
 20
341.75167
 30
0.0
 11
638.032613
 21
340.75167
 31
0.0
 12
635.032613
 22
341.25167
 32
0.0
 13
635.032613
 23
341.25167
 33
0.0
  0
SOLID
  5
A9
100
AcDbEntity
  8
0
  6
BYBLOCK
 62
     4
100
AcDbTrace
 10
678.482613
 20
341.75167
 30
0.0
 11
678.482613
 21
340.75167
 31
0.0
 12
681.482613
 22
341.25167
 32
0.0
 13
681.482613
 23
341.25167
 33
0.0
  0
MTEXT
  5
AA
100
AcDbEntity
  8
0
  6
BYBLOCK
 62
     2
100
AcDbMText
 10
659.563065
 20
344.25167
 30
0.0
 40
3.0
 41
0.0
 71
     5
 72
     1
  1
\A1;\U+220546.5
  0
POINT
  5
AB
100
AcDbEntity
  8
DEFPOINTS
  6
BYBLOCK
 62
     0
100
AcDbPoint
 10
635.032613
 20
308.431427
 30
0.0
  0
POINT
  5
AC
100
AcDbEntity
  8
DEFPOINTS
  6
BYBLOCK
 62
     0
100
AcDbPoint
 10
681.482613
 20
308.431427
 30
0.0
  0
POINT
  5
AD
100
AcDbEntity
  8
DEFPOINTS
  6
BYBLOCK
 62
     0
100
AcDbPoint
 10
681.482613
 20
341.25167
 30
0.0
  0
ENDBLK
  5
AF
100
AcDbEntity
  8
0
100
AcDbBlockEnd
  0
BLOCK
  5
A1
100
AcDbEntity
  8
0
100
AcDbBlockBegin
  2
*D9
 70
     1
 10
0.0
 20
0.0
 30
0.0
  3
*D9
  1

  0
LINE
  5
98
100
AcDbEntity
  8
0
  6
BYBLOCK
 62
     4
100
AcDbLine
 10
682.482613
 20
288.608777
 30
0.0
 11
709.496071
 21
288.608777
 31
0.0
  0
LINE
  5
99
100
AcDbEntity
  8
0
  6
BYBLOCK
 62
     4
100
AcDbLine
 10
681.482613
 20
314.008777
 30
0.0
 11
709.496071
 21
314.008777
 31
0.0
  0
LINE
  5
9A
100
AcDbEntity
  8
0
  6
BYBLOCK
 62
     4
100
AcDbLine
 10
706.996071
 20
291.608777
 30
0.0
 11
706.996071
 21
311.008777
 31
0.0
  0
SOLID
  5
9B
100
AcDbEntity
  8
0
  6
BYBLOCK
 62
     4
100
AcDbTrace
 10
706.496071
 20
291.608777
 30
0.0
 11
707.496071
 21
291.608777
 31
0.0
 12
706.996071
 22
288.608777
 32
0.0
 13
706.996071
 23
288.608777
 33
0.0
  0
SOLID
  5
9C
100
AcDbEntity
  8
0
  6
BYBLOCK
 62
     4
100
AcDbTrace
 10
706.496071
 20
311.008777
 30
0.0
 11
707.496071
 21
311.008777
 31
0.0
 12
706.996071
 22
314.008777
 32
0.0
 13
706.996071
 23
314.008777
 33
0.0
  0
MTEXT
  5
9D
100
AcDbEntity
  8
0
  6
BYBLOCK
 62
     2
100
AcDbMText
 10
703.996071
 20
303.310193
 30
0.0
 40
3.0
 41
0.0
 71
     5
 72
     1
  1
\A1;25.40
 11
0.0
 21
1.0
 31
0.0
  0
POINT
  5
9E
100
AcDbEntity
  8
DEFPOINTS
  6
BYBLOCK
 62
     0
100
AcDbPoint
 10
681.482613
 20
288.608777
 30
0.0
  0
POINT
  5
9F
100
AcDbEntity
  8
DEFPOINTS
  6
BYBLOCK
 62
     0
100
AcDbPoint
 10
680.482613
 20
314.008777
 30
0.0
  0
POINT
  5
A0
100
AcDbEntity
  8
DEFPOINTS
  6
BYBLOCK
 62
     0
100
AcDbPoint
 10
706.996071
 20
314.008777
 30
0.0
  0
ENDBLK
  5
A2
100
AcDbEntity
  8
0
100
AcDbBlockEnd
  0
BLOCK
  5
8C
100
AcDbEntity
  8
0
100
AcDbBlockBegin
  2
*D10
 70
     1
 10
0.0
 20
0.0
 30
0.0
  3
*D10
  1

  0
LINE
  5
83
100
AcDbEntity
  8
0
  6
BYBLOCK
 62
     4
100
AcDbLine
 10
455.557613
 20
456.660844
 30
0.0
 11
307.785416
 21
456.660844
 31
0.0
  0
LINE
  5
84
100
AcDbEntity
  8
0
  6
BYBLOCK
 62
     4
100
AcDbLine
 10
455.557613
 20
631.660844
 30
0.0
 11
307.785416
 21
631.660844
 31
0.0
  0
LINE
  5
85
100
AcDbEntity
  8
0
  6
BYBLOCK
 62
     4
100
AcDbLine
 10
310.285416
 20
459.660844
 30
0.0
 11
310.285416
 21
628.660844
 31
0.0
  0
SOLID
  5
86
100
AcDbEntity
  8
0
  6
BYBLOCK
 62
     4
100
AcDbTrace
 10
309.785416
 20
459.660844
 30
0.0
 11
310.785416
 21
459.660844
 31
0.0
 12
310.285416
 22
456.660844
 32
0.0
 13
310.285416
 23
456.660844
 33
0.0
  0
SOLID
  5
87
100
AcDbEntity
  8
0
  6
BYBLOCK
 62
     4
100
AcDbTrace
 10
309.785416
 20
628.660844
 30
0.0
 11
310.785416
 21
628.660844
 31
0.0
 12
310.285416
 22
631.660844
 32
0.0
 13
310.285416
 23
631.660844
 33
0.0
  0
MTEXT
  5
88
100
AcDbEntity
  8
0
  6
BYBLOCK
 62
     2
100
AcDbMText
 10
307.285416
 20
544.160844
 30
0.0
 40
3.0
 41
0.0
 71
     5
 72
     1
  1
\A1;B=175.00
 11
0.0
 21
1.0
 31
0.0
  0
POINT
  5
89
100
AcDbEntity
  8
DEFPOINTS
  6
BYBLOCK
 62
     0
100
AcDbPoint
 10
456.557613
 20
456.660844
 30
0.0
  0
POINT
  5
8A
100
AcDbEntity
  8
DEFPOINTS
  6
BYBLOCK
 62
     0
100
AcDbPoint
 10
456.557613
 20
631.660844
 30
0.0
  0
POINT
  5
8B
100
AcDbEntity
  8
DEFPOINTS
  6
BYBLOCK
 62
     0
100
AcDbPoint
 10
310.285416
 20
631.660844
 30
0.0
  0
ENDBLK
  5
8D
100
AcDbEntity
  8
0
100
AcDbBlockEnd
  0
BLOCK
  5
7F
100
AcDbEntity
  8
0
100
AcDbBlockBegin
  2
*D11
 70
     1
 10
0.0
 20
0.0
 30
0.0
  3
*D11
  1

  0
LINE
  5
76
100
AcDbEntity
  8
0
  6
BYBLOCK
 62
     4
100
AcDbLine
 10
473.000391
 20
420.660844
 30
0.0
 11
297.775627
 21
420.660844
 31
0.0
  0
LINE
  5
77
100
AcDbEntity
  8
0
  6
BYBLOCK
 62
     4
100
AcDbLine
 10
473.000391
 20
667.660844
 30
0.0
 11
297.775627
 21
667.660844
 31
0.0
  0
LINE
  5
78
100
AcDbEntity
  8
0
  6
BYBLOCK
 62
     4
100
AcDbLine
 10
300.275627
 20
423.660844
 30
0.0
 11
300.275627
 21
664.660844
 31
0.0
  0
SOLID
  5
79
100
AcDbEntity
  8
0
  6
BYBLOCK
 62
     4
100
AcDbTrace
 10
299.775627
 20
423.660844
 30
0.0
 11
300.775627
 21
423.660844
 31
0.0
 12
300.275627
 22
420.660844
 32
0.0
 13
300.275627
 23
420.660844
 33
0.0
  0
SOLID
  5
7A
100
AcDbEntity
  8
0
  6
BYBLOCK
 62
     4
100
AcDbTrace
 10
299.775627
 20
664.660844
 30
0.0
 11
300.775627
 21
664.660844
 31
0.0
 12
300.275627
 22
667.660844
 32
0.0
 13
300.275627
 23
667.660844
 33
0.0
  0
MTEXT
  5
7B
100
AcDbEntity
  8
0
  6
BYBLOCK
 62
     2
100
AcDbMText
 10
297.275627
 20
544.160844
 30
0.0
 40
3.0
 41
0.0
 71
     5
 72
     1
  1
\A1;L1=247.00
 11
0.0
 21
1.0
 31
0.0
  0
POINT
  5
7C
100
AcDbEntity
  8
DEFPOINTS
  6
BYBLOCK
 62
     0
100
AcDbPoint
 10
474.000391
 20
420.660844
 30
0.0
  0
POINT
  5
7D
100
AcDbEntity
  8
DEFPOINTS
  6
BYBLOCK
 62
     0
100
AcDbPoint
 10
474.000391
 20
667.660844
 30
0.0
  0
POINT
  5
7E
100
AcDbEntity
  8
DEFPOINTS
  6
BYBLOCK
 62
     0
100
AcDbPoint
 10
300.275627
 20
667.660844
 30
0.0
  0
ENDBLK
  5
80
100
AcDbEntity
  8
0
100
AcDbBlockEnd
  0
BLOCK
  5
72
100
AcDbEntity
  8
0
100
AcDbBlockBegin
  2
*D12
 70
     1
 10
0.0
 20
0.0
 30
0.0
  3
*D12
  1

  0
LINE
  5
69
100
AcDbEntity
  8
0
  6
BYBLOCK
 62
     4
100
AcDbLine
 10
483.257613
 20
659.360844
 30
0.0
 11
483.257613
 21
722.036293
 31
0.0
  0
LINE
  5
6A
100
AcDbEntity
  8
0
  6
BYBLOCK
 62
     4
100
AcDbLine
 10
658.257613
 20
700.69383
 30
0.0
 11
658.257613
 21
722.036293
 31
0.0
  0
LINE
  5
6B
100
AcDbEntity
  8
0
  6
BYBLOCK
 62
     4
100
AcDbLine
 10
486.257613
 20
719.536293
 30
0.0
 11
655.257613
 21
719.536293
 31
0.0
  0
SOLID
  5
6C
100
AcDbEntity
  8
0
  6
BYBLOCK
 62
     4
100
AcDbTrace
 10
486.257613
 20
720.036293
 30
0.0
 11
486.257613
 21
719.036293
 31
0.0
 12
483.257613
 22
719.536293
 32
0.0
 13
483.257613
 23
719.536293
 33
0.0
  0
SOLID
  5
6D
100
AcDbEntity
  8
0
  6
BYBLOCK
 62
     4
100
AcDbTrace
 10
655.257613
 20
720.036293
 30
0.0
 11
655.257613
 21
719.036293
 31
0.0
 12
658.257613
 22
719.536293
 32
0.0
 13
658.257613
 23
719.536293
 33
0.0
  0
MTEXT
  5
6E
100
AcDbEntity
  8
0
  6
BYBLOCK
 62
     2
100
AcDbMText
 10
570.757613
 20
722.536293
 30
0.0
 40
3.0
 41
0.0
 71
     5
 72
     1
  1
\A1;A=175.00
  0
POINT
  5
6F
100
AcDbEntity
  8
DEFPOINTS
  6
BYBLOCK
 62
     0
100
AcDbPoint
 10
483.257613
 20
658.360844
 30
0.0
  0
POINT
  5
70
100
AcDbEntity
  8
DEFPOINTS
  6
BYBLOCK
 62
     0
100
AcDbPoint
 10
658.257613
 20
699.69383
 30
0.0
  0
POINT
  5
71
100
AcDbEntity
  8
DEFPOINTS
  6
BYBLOCK
 62
     0
100
AcDbPoint
 10
658.257613
 20
719.536293
 30
0.0
  0
ENDBLK
  5
73
100
AcDbEntity
  8
0
100
AcDbBlockEnd
  0
BLOCK
  5
65
100
AcDbEntity
  8
0
100
AcDbBlockBegin
  2
*D13
 70
     1
 10
0.0
 20
0.0
 30
0.0
  3
*D13
  1

  0
LINE
  5
5D
100
AcDbEntity
  8
0
  6
BYBLOCK
 62
     4
100
AcDbLine
 10
833.257613
 20
659.360844
 30
0.0
 11
833.257613
 21
722.036293
 31
0.0
  0
LINE
  5
5E
100
AcDbEntity
  8
0
  6
BYBLOCK
 62
     4
100
AcDbLine
 10
661.257613
 20
719.536293
 30
0.0
 11
830.257613
 21
719.536293
 31
0.0
  0
SOLID
  5
5F
100
AcDbEntity
  8
0
  6
BYBLOCK
 62
     4
100
AcDbTrace
 10
661.257613
 20
720.036293
 30
0.0
 11
661.257613
 21
719.036293
 31
0.0
 12
658.257613
 22
719.536293
 32
0.0
 13
658.257613
 23
719.536293
 33
0.0
  0
SOLID
  5
60
100
AcDbEntity
  8
0
  6
BYBLOCK
 62
     4
100
AcDbTrace
 10
830.257613
 20
720.036293
 30
0.0
 11
830.257613
 21
719.036293
 31
0.0
 12
833.257613
 22
719.536293
 32
0.0
 13
833.257613
 23
719.536293
 33
0.0
  0
MTEXT
  5
61
100
AcDbEntity
  8
0
  6
BYBLOCK
 62
     2
100
AcDbMText
 10
745.757613
 20
722.536293
 30
0.0
 40
3.0
 41
0.0
 71
     5
 72
     1
  1
\A1;A=175.00
  0
POINT
  5
62
100
AcDbEntity
  8
DEFPOINTS
  6
BYBLOCK
 62
     0
100
AcDbPoint
 10
658.257613
 20
699.69383
 30
0.0
  0
POINT
  5
63
100
AcDbEntity
  8
DEFPOINTS
  6
BYBLOCK
 62
     0
100
AcDbPoint
 10
833.257613
 20
658.360844
 30
0.0
  0
POINT
  5
64
100
AcDbEntity
  8
DEFPOINTS
  6
BYBLOCK
 62
     0
100
AcDbPoint
 10
833.257613
 20
719.536293
 30
0.0
  0
ENDBLK
  5
66
100
AcDbEntity
  8
0
100
AcDbBlockEnd
  0
BLOCK
  5
59
100
AcDbEntity
  8
0
100
AcDbBlockBegin
  2
*D14
 70
     1
 10
0.0
 20
0.0
 30
0.0
  3
*D14
  1

  0
LINE
  5
50
100
AcDbEntity
  8
0
  6
BYBLOCK
 62
     4
100
AcDbLine
 10
447.257613
 20
641.918065
 30
0.0
 11
447.257613
 21
732.83391
 31
0.0
  0
LINE
  5
51
100
AcDbEntity
  8
0
  6
BYBLOCK
 62
     4
100
AcDbLine
 10
869.257613
 20
641.918065
 30
0.0
 11
869.257613
 21
732.83391
 31
0.0
  0
LINE
  5
52
100
AcDbEntity
  8
0
  6
BYBLOCK
 62
     4
100
AcDbLine
 10
450.257613
 20
730.33391
 30
0.0
 11
866.257613
 21
730.33391
 31
0.0
  0
SOLID
  5
53
100
AcDbEntity
  8
0
  6
BYBLOCK
 62
     4
100
AcDbTrace
 10
450.257613
 20
730.83391
 30
0.0
 11
450.257613
 21
729.83391
 31
0.0
 12
447.257613
 22
730.33391
 32
0.0
 13
447.257613
 23
730.33391
 33
0.0
  0
SOLID
  5
54
100
AcDbEntity
  8
0
  6
BYBLOCK
 62
     4
100
AcDbTrace
 10
866.257613
 20
730.83391
 30
0.0
 11
866.257613
 21
729.83391
 31
0.0
 12
869.257613
 22
730.33391
 32
0.0
 13
869.257613
 23
730.33391
 33
0.0
  0
MTEXT
  5
55
100
AcDbEntity
  8
0
  6
BYBLOCK
 62
     2
100
AcDbMText
 10
658.257613
 20
733.33391
 30
0.0
 40
3.0
 41
0.0
 71
     5
 72
     1
  1
\A1;L=422.00
  0
POINT
  5
56
100
AcDbEntity
  8
DEFPOINTS
  6
BYBLOCK
 62
     0
100
AcDbPoint
 10
447.257613
 20
640.918065
 30
0.0
  0
POINT
  5
57
100
AcDbEntity
  8
DEFPOINTS
  6
BYBLOCK
 62
     0
100
AcDbPoint
 10
869.257613
 20
640.918065
 30
0.0
  0
POINT
  5
58
100
AcDbEntity
  8
DEFPOINTS
  6
BYBLOCK
 62
     0
100
AcDbPoint
 10
869.257613
 20
730.33391
 30
0.0
  0
ENDBLK
  5
5A
100
AcDbEntity
  8
0
100
AcDbBlockEnd
  0
BLOCK
  5
4C
100
AcDbEntity
  8
0
100
AcDbBlockBegin
  2
*D15
 70
     1
 10
0.0
 20
0.0
 30
0.0
  3
*D15
  1

  0
LINE
  5
42
100
AcDbEntity
  8
0
  6
BYBLOCK
 62
     4
100
AcDbLine
 10
824.709885
 20
419.953737
 30
0.0
 11
859.654249
 21
385.009373
 31
0.0
  0
LINE
  5
43
100
AcDbEntity
  8
0
  6
BYBLOCK
 62
     4
100
AcDbLine
 10
869.964719
 20
465.208571
 30
0.0
 11
904.909083
 21
430.264207
 31
0.0
  0
LINE
  5
44
100
AcDbEntity
  8
0
  6
BYBLOCK
 62
     4
100
AcDbLine
 10
860.007803
 20
388.89846
 30
0.0
 11
901.019996
 21
429.910654
 31
0.0
  0
SOLID
  5
45
100
AcDbEntity
  8
0
  6
BYBLOCK
 62
     4
100
AcDbTrace
 10
859.654249
 20
389.252014
 30
0.0
 11
860.361356
 21
388.544907
 31
0.0
 12
857.886482
 22
386.77714
 32
0.0
 13
857.886482
 23
386.77714
 33
0.0
  0
SOLID
  5
46
100
AcDbEntity
  8
0
  6
BYBLOCK
 62
     4
100
AcDbTrace
 10
900.666443
 20
430.264207
 30
0.0
 11
901.373549
 21
429.5571
 31
0.0
 12
903.141316
 22
432.031974
 32
0.0
 13
903.141316
 23
432.031974
 33
0.0
  0
MTEXT
  5
47
100
AcDbEntity
  8
0
  6
BYBLOCK
 62
     2
100
AcDbMText
 10
878.392579
 20
411.525877
 30
0.0
 40
3.0
 41
0.0
 71
     5
 72
     1
  1
\A1;W=64.00
 11
0.707107
 21
0.707107
 31
0.0
  0
POINT
  5
48
100
AcDbEntity
  8
DEFPOINTS
  6
BYBLOCK
 62
     0
100
AcDbPoint
 10
824.002779
 20
420.660844
 30
0.0
  0
POINT
  5
4A
100
AcDbEntity
  8
DEFPOINTS
  6
BYBLOCK
 62
     0
100
AcDbPoint
 10
869.257613
 20
465.915678
 30
0.0
  0
POINT
  5
4B
100
AcDbEntity
  8
DEFPOINTS
  6
BYBLOCK
 62
     0
100
AcDbPoint
 10
903.141316
 20
432.031974
 30
0.0
  0
ENDBLK
  5
4D
100
AcDbEntity
  8
0
100
AcDbBlockEnd
  0
ENDSEC
  0
SECTION
  2
ENTITIES
  0
TEXT
  5
20
100
AcDbEntity
  8
TEXT
100
AcDbText
 10
933.353919
 20
670.442856
 30
0.0
 40
6.0
  1
depending on the bush size to be used.
100
AcDbText
  0
TEXT
  5
22
100
AcDbEntity
  8
TEXT
100
AcDbText
 10
900.687964
 20
680.539264
 30
0.0
 40
6.0
  1
NOTE: Manifold width `W' can be 50mm or 64mm
100
AcDbText
  0
ARC
  5
23
100
AcDbEntity
  8
M04
100
AcDbCircle
 10
867.199932
 20
631.662038
 30
0.0
 40
15.0
100
AcDbArc
 50
315.0
 51
45.0
  0
ARC
  5
25
100
AcDbEntity
  8
M04
100
AcDbCircle
 10
833.258806
 20
665.603163
 30
0.0
 40
15.0
100
AcDbArc
 50
45.0
 51
135.0
  0
ARC
  5
26
100
AcDbEntity
  8
M04
100
AcDbCircle
 10
658.256419
 20
665.603163
 30
0.0
 40
15.0
100
AcDbArc
 50
45.0
 51
135.0
  0
ARC
  5
27
100
AcDbEntity
  8
M04
100
AcDbCircle
 10
624.315293
 20
631.662038
 30
0.0
 40
15.0
100
AcDbArc
 50
135.0
 51
225.0
  0
ARC
  5
28
100
AcDbEntity
  8
M04
100
AcDbCircle
 10
483.256419
 20
665.603163
 30
0.0
 40
15.0
100
AcDbArc
 50
45.0
 51
135.0
  0
ARC
  5
29
100
AcDbEntity
  8
M04
100
AcDbCircle
 10
449.315293
 20
631.662038
 30
0.0
 40
15.0
100
AcDbArc
 50
135.0
 51
225.0
  0
ARC
  5
2A
100
AcDbEntity
  8
M04
100
AcDbCircle
 10
449.315293
 20
456.65965
 30
0.0
 40
15.0
100
AcDbArc
 50
135.0
 51
225.0
  0
ARC
  5
2B
100
AcDbEntity
  8
M04
100
AcDbCircle
 10
483.256419
 20
422.718525
 30
0.0
 40
15.0
100
AcDbArc
 50
225.0
 51
315.0
  0
ARC
  5
2C
100
AcDbEntity
  8
M04
100
AcDbCircle
 10
658.258807
 20
422.718525
 30
0.0
 40
15.0
100
AcDbArc
 50
225.0
 51
315.0
  0
ARC
  5
2D
100
AcDbEntity
  8
M04
100
AcDbCircle
 10
692.199932
 20
456.65965
 30
0.0
 40
15.0
100
AcDbArc
 50
315.0
 51
45.0
  0
ARC
  5
2E
100
AcDbEntity
  8
M04
100
AcDbCircle
 10
867.199932
 20
456.65965
 30
0.0
 40
15.0
100
AcDbArc
 50
315.0
 51
45.0
  0
ARC
  5
2F
100
AcDbEntity
  8
M04
100
AcDbCircle
 10
833.258806
 20
422.718525
 30
0.0
 40
15.0
100
AcDbArc
 50
225.0
 51
315.0
  0
LINE
  5
30
100
AcDbEntity
  8
M04
100
AcDbLine
 10
877.806534
 20
446.053048
 30
0.0
 11
843.865408
 21
412.111923
 31
0.0
  0
LINE
  5
31
100
AcDbEntity
  8
M01
100
AcDbLine
 10
869.257613
 20
447.403622
 30
0.0
 11
842.514834
 21
420.660844
 31
0.0
  0
LINE
  5
33
100
AcDbEntity
  8
M04
100
AcDbLine
 10
438.708692
 20
446.053048
 30
0.0
 11
472.649817
 21
412.111923
 31
0.0
  0
LINE
  5
34
100
AcDbEntity
  8
M01
100
AcDbLine
 10
447.257613
 20
447.403622
 30
0.0
 11
474.000391
 21
420.660844
 31
0.0
  0
LINE
  5
35
100
AcDbEntity
  8
M01
100
AcDbLine
 10
694.257613
 20
447.403622
 30
0.0
 11
667.514834
 21
420.660844
 31
0.0
  0
LINE
  5
36
100
AcDbEntity
  8
M04
100
AcDbLine
 10
702.806534
 20
446.053048
 30
0.0
 11
668.865408
 21
412.111923
 31
0.0
  0
LINE
  5
37
100
AcDbEntity
  8
M01
100
AcDbLine
 10
447.257613
 20
640.918065
 30
0.0
 11
474.000391
 21
667.660844
 31
0.0
  0
LINE
  5
38
100
AcDbEntity
  8
M04
100
AcDbLine
 10
438.708692
 20
642.26864
 30
0.0
 11
472.649817
 21
676.209765
 31
0.0
  0
LINE
  5
39
100
AcDbEntity
  8
M01
100
AcDbLine
 10
622.257613
 20
640.918065
 30
0.0
 11
649.000391
 21
667.660844
 31
0.0
  0
LINE
  5
3A
100
AcDbEntity
  8
M04
100
AcDbLine
 10
613.708692
 20
642.268639
 30
0.0
 11
647.649817
 21
676.209765
 31
0.0
  0
LINE
  5
3B
100
AcDbEntity
  8
M04
100
AcDbLine
 10
877.806534
 20
642.26864
 30
0.0
 11
843.865408
 21
676.209765
 31
0.0
  0
LINE
  5
3C
100
AcDbEntity
  8
M01
100
AcDbLine
 10
869.257613
 20
640.918065
 30
0.0
 11
842.514834
 21
667.660844
 31
0.0
  0
TEXT
  5
3D
100
AcDbEntity
  8
TEXT
100
AcDbText
 10
295.201734
 20
146.973049
 30
0.0
 40
6.0
  1
design may vary from this example !
100
AcDbText
  0
TEXT
  5
3E
100
AcDbEntity
  8
TEXT
100
AcDbText
 10
295.201734
 20
157.797886
 30
0.0
 40
6.0
  1
you finalize your tool design, as our final system
100
AcDbText
  0
TEXT
  5
3F
100
AcDbEntity
  8
TEXT
100
AcDbText
 10
271.860928
 20
168.857758
 30
0.0
 40
6.0
  1
N.B. ALL designs MUST be approved by Fast Heat BEFORE
100
AcDbText
  0
DIMENSION
  5
40
100
AcDbEntity
  8
DIMS
100
AcDbDimension
  2
*D15
 10
903.141316
 20
432.031974
 30
0.0
 11
878.392579
 21
411.525877
 31
0.0
 70
     1
  1
W=<>
  3
DIM1
100
AcDbAlignedDimension
 13
824.002779
 23
420.660844
 33
0.0
 14
869.257613
 24
465.915678
 34
0.0
1001
ACAD
1000
DSTYLE
1002
{
1070
   144
1040
1.0
1002
}
  0
DIMENSION
  5
4E
100
AcDbEntity
  8
DIMS
100
AcDbDimension
  2
*D14
 10
869.257613
 20
730.33391
 30
0.0
 11
658.257613
 21
733.33391
 31
0.0
  1
L=<>
  3
DIM1
100
AcDbAlignedDimension
 13
447.257613
 23
640.918065
 33
0.0
 14
869.257613
 24
640.918065
 34
0.0
100
AcDbRotatedDimension
1001
ACAD
1000
DSTYLE
1002
{
1070
   144
1040
1.0
1002
}
  0
DIMENSION
  5
5B
100
AcDbEntity
  8
DIMS
100
AcDbDimension
  2
*D13
 10
833.257613
 20
719.536293
 30
0.0
 11
745.757613
 21
722.536293
 31
0.0
  1
A=<>
  3
DIM1
100
AcDbAlignedDimension
 13
658.257613
 23
699.69383
 33
0.0
 14
833.257613
 24
658.360844
 34
0.0
100
AcDbRotatedDimension
1001
ACAD
1000
DSTYLE
1002
{
1070
    75
1070
     1
1070
   144
1040
1.0
1070
   287
1070
     4
1002
}
  0
DIMENSION
  5
67
100
AcDbEntity
  8
DIMS
100
AcDbDimension
  2
*D12
 10
658.257613
 20
719.536293
 30
0.0
 11
570.757613
 21
722.536293
 31
0.0
  1
A=<>
  3
DIM1
100
AcDbAlignedDimension
 13
483.257613
 23
658.360844
 33
0.0
 14
658.257613
 24
699.69383
 34
0.0
100
AcDbRotatedDimension
1001
ACAD
1000
DSTYLE
1002
{
1070
   144
1040
1.0
1002
}
  0
DIMENSION
  5
74
100
AcDbEntity
  8
DIMS
100
AcDbDimension
  2
*D11
 10
300.275627
 20
667.660844
 30
0.0
 11
297.275627
 21
544.160844
 31
0.0
  1
L1=<>
  3
DIM1
100
AcDbAlignedDimension
 13
474.000391
 23
420.660844
 33
0.0
 14
474.000391
 24
667.660844
 34
0.0
 50
90.0
100
AcDbRotatedDimension
1001
ACAD
1000
DSTYLE
1002
{
1070
   144
1040
1.0
1002
}
  0
DIMENSION
  5
81
100
AcDbEntity
  8
DIMS
100
AcDbDimension
  2
*D10
 10
310.285416
 20
631.660844
 30
0.0
 11
307.285416
 21
544.160844
 31
0.0
  1
B=<>
  3
DIM1
100
AcDbAlignedDimension
 13
456.557613
 23
456.660844
 33
0.0
 14
456.557613
 24
631.660844
 34
0.0
 50
90.0
100
AcDbRotatedDimension
1001
ACAD
1000
DSTYLE
1002
{
1070
   144
1040
1.0
1002
}
  0
HATCH
  5
8E
100
AcDbEntity
  8
HATCH
100
AcDbHatch
 10
0.0
 20
0.0
 30
0.0
210
0.0
220
0.0
230
1.0
  2
_U
 70
     0
 71
     1
 91
        1
 92
        7
 72
     0
 73
     1
 93
        4
 10
456.2576125642798
 20
291.608777188405
 10
456.2576125642797
 20
288.6087771884047
 10
635.03261256428
 20
288.6087771884045
 10
635.03261256428
 20
291.6087771884048
 97
        4
330
4AF
330
4A9
330
4B7
330
31E
 75
     0
 76
     0
 52
135.0
 41
0.8
 77
     0
 78
     1
 53
135.0
 43
0.0
 44
0.0
 45
-0.5656854249492382
 46
-0.565685424949238
 79
     0
 47
0.385481
 98
        1
 10
605.413236
 20
290.683511
  0
HATCH
  5
90
100
AcDbEntity
  8
HATCH
100
AcDbHatch
 10
0.0
 20
0.0
 30
0.0
210
0.0
220
0.0
230
1.0
  2
_U
 70
     0
 71
     1
 91
        1
 92
        7
 72
     0
 73
     1
 93
        4
 10
623.2576125642797
 20
228.6087771884047
 10
446.2576125642797
 20
228.608777188405
 10
446.2576125642798
 20
225.608777188405
 10
623.2576125642798
 20
225.6087771884049
 97
        4
330
4B4
330
4AC
330
4AE
330
2ED
 75
     0
 76
     0
 52
135.0
 41
0.8
 77
     0
 78
     1
 53
135.0
 43
0.0
 44
0.0
 45
-0.5656854249492382
 46
-0.565685424949238
 79
     0
 47
0.385481
 98
        1
 10
610.040822
 20
226.693722
  0
HATCH
  5
91
100
AcDbEntity
  8
HATCH
100
AcDbHatch
 10
0.0
 20
0.0
 30
0.0
210
0.0
220
0.0
230
1.0
  2
_U
 70
     0
 71
     1
 91
        1
 92
        7
 72
     0
 73
     1
 93
        4
 10
681.4826125642797
 20
291.6087771884047
 10
681.48261256428
 20
288.6087771884045
 10
815.2576125642799
 20
288.6087771884044
 10
815.2576125642799
 20
291.6087771884046
 97
        4
330
319
330
31F
330
4B7
330
399
 75
     0
 76
     0
 52
135.0
 41
0.8
 77
     0
 78
     1
 53
135.0
 43
0.0
 44
0.0
 45
-0.5656854249492382
 46
-0.565685424949238
 79
     0
 47
0.385481
 98
        1
 10
732.671817
 20
290.683511
  0
HATCH
  5
92
100
AcDbEntity
  8
HATCH
100
AcDbHatch
 10
0.0
 20
0.0
 30
0.0
210
0.0
220
0.0
230
1.0
  2
_U
 70
     0
 71
     1
 91
        1
 92
        7
 72
     0
 73
     1
 93
        4
 10
808.2576125642798
 20
225.6087771884051
 10
808.2576125642798
 20
228.6087771884047
 10
693.2576125642802
 20
228.6087771884047
 10
693.2576125642802
 20
225.608777188405
 97
        4
330
2B4
330
30C
330
2B1
330
359
 75
     0
 76
     0
 52
135.0
 41
0.8
 77
     0
 78
     1
 53
135.0
 43
0.0
 44
0.0
 45
-0.5656854249492382
 46
-0.565685424949238
 79
     0
 47
0.385481
 98
        1
 10
728.429863
 20
227.079202
  0
HATCH
  5
93
100
AcDbEntity
  8
HATCH
100
AcDbHatch
 10
0.0
 20
0.0
 30
0.0
210
0.0
220
0.0
230
1.0
  2
_U
 70
     0
 71
     1
 91
        1
 92
        7
 72
     0
 73
     1
 93
        4
 10
863.2576125642799
 20
225.6087771884052
 10
863.2576125642797
 20
228.6087771884047
 10
858.2576125642798
 20
228.6087771884046
 10
858.2576125642798
 20
225.6087771884052
 97
        4
330
2B4
330
358
330
2AF
330
2B2
 75
     0
 76
     0
 52
135.0
 41
0.8
 77
     0
 78
     1
 53
135.0
 43
0.0
 44
0.0
 45
-0.5656854249492382
 46
-0.565685424949238
 79
     0
 47
0.385481
 98
        1
 10
861.472923
 20
226.308241
  0
HATCH
  5
94
100
AcDbEntity
  8
HATCH
100
AcDbHatch
 10
0.0
 20
0.0
 30
0.0
210
0.0
220
0.0
230
1.0
  2
_U
 70
     0
 71
     1
 91
        1
 92
        7
 72
     0
 73
     1
 93
        4
 10
851.25761256428
 20
291.6087771884045
 10
851.2576125642798
 20
288.6087771884044
 10
863.2576125642799
 20
288.6087771884044
 10
863.2576125642801
 20
291.6087771884046
 97
        4
330
319
330
398
330
4B7
330
4AD
 75
     0
 76
     0
 52
135.0
 41
0.8
 77
     0
 78
     1
 53
135.0
 43
0.0
 44
0.0
 45
-0.5656854249492382
 46
-0.565685424949238
 79
     0
 47
0.385481
 98
        1
 10
853.760283
 20
290.29803
  0
TEXT
  5
95
100
AcDbEntity
  8
TEXT
100
AcDbText
 10
663.596644
 20
291.4468
 30
0.0
 40
2.0
  1
MA010002
 41
0.9
100
AcDbText
  0
DIMENSION
  5
96
100
AcDbEntity
  8
DIMS
100
AcDbDimension
  2
*D9
 10
706.996071
 20
314.008777
 30
0.0
 11
706.996071
 21
303.310193
 31
0.0
 70
   128
  3
DIM1
100
AcDbAlignedDimension
 13
681.482613
 23
288.608777
 33
0.0
 14
680.482613
 24
314.008777
 34
0.0
 50
270.0
100
AcDbRotatedDimension
1001
ACAD
1000
DSTYLE
1002
{
1070
   288
1070
     1
1070
   144
1040
1.0
1002
}
  0
DIMENSION
  5
A3
100
AcDbEntity
  8
DIMS
100
AcDbDimension
  2
*D8
 10
681.482613
 20
341.25167
 30
0.0
 11
659.563065
 21
341.25167
 31
0.0
 70
   128
  1
%%c46.5
  3
DIM1
100
AcDbAlignedDimension
 13
635.032613
 23
308.431427
 33
0.0
 14
681.482613
 24
308.431427
 34
0.0
100
AcDbRotatedDimension
1001
ACAD
1000
DSTYLE
1002
{
1070
   288
1070
     1
1070
   144
1040
1.0
1002
}
  0
DIMENSION
  5
B0
100
AcDbEntity
  8
DIMS
100
AcDbDimension
  2
*D7
 10
636.032613
 20
331.210438
 30
0.0
 11
659.222824
 21
331.210438
 31
0.0
 70
   128
  1
%%c<> H7
  3
DIM1
100
AcDbAlignedDimension
 13
680.482613
 23
314.008777
 33
0.0
 14
636.032613
 24
314.008777
 34
0.0
100
AcDbRotatedDimension
1001
ACAD
1000
DSTYLE
1002
{
1070
   288
1070
     1
1070
   144
1040
1.0
1002
}
  0
DIMENSION
  5
BD
100
AcDbEntity
  8
DIMS
100
AcDbDimension
  2
*D6
 10
614.427731
 20
309.008777
 30
0.0
 11
614.427731
 21
302.308777
 31
0.0
 70
   128
  1
13.4
  3
DIM1
100
AcDbAlignedDimension
 13
626.257613
 23
295.608777
 33
0.0
 14
636.032613
 24
309.008777
 34
0.0
 50
270.0
100
AcDbRotatedDimension
1001
ACAD
1000
DSTYLE
1002
{
1070
   288
1070
     1
1070
   144
1040
1.0
1002
}
  0
POINT
  5
CA
100
AcDbEntity
  8
DEFPOINTS
  6
BYBLOCK
 62
     0
100
AcDbPoint
 10
658.257613
 20
283.608777
 30
0.0
  0
LINE
  5
CB
100
AcDbEntity
  8
M04
100
AcDbLine
 10
648.057613
 20
288.608777
 30
0.0
 11
648.757613
 21
287.908777
 31
0.0
  0
LINE
  5
CC
100
AcDbEntity
  8
M04
100
AcDbLine
 10
668.457613
 20
288.608777
 30
0.0
 11
667.757613
 21
287.908777
 31
0.0
  0
LINE
  5
CD
100
AcDbEntity
  8
M03
100
AcDbLine
 10
660.557613
 20
296.008777
 30
0.0
 11
660.557613
 21
283.608777
 31
0.0
  0
LINE
  5
D0
100
AcDbEntity
  8
M03
100
AcDbLine
 10
655.957613
 20
296.008777
 30
0.0
 11
655.957613
 21
283.608777
 31
0.0
  0
LINE
  5
D1
100
AcDbEntity
  8
M03
100
AcDbLine
 10
655.257613
 20
296.008777
 30
0.0
 11
655.257613
 21
283.608777
 31
0.0
  0
LINE
  5
D2
100
AcDbEntity
  8
M03
100
AcDbLine
 10
661.257613
 20
296.008777
 30
0.0
 11
661.257613
 21
283.608777
 31
0.0
  0
ARC
  5
D3
100
AcDbEntity
  8
M03
100
AcDbCircle
 10
646.757613
 20
301.008777
 30
0.0
 40
5.0
100
AcDbArc
 50
180.0
 51
270.0
  0
ARC
  5
D4
100
AcDbEntity
  8
M03
100
AcDbCircle
 10
669.757613
 20
301.008777
 30
0.0
 40
5.0
100
AcDbArc
 50
270.0
 51
0.0
  0
LINE
  5
D5
100
AcDbEntity
  8
M03
100
AcDbLine
 10
641.757613
 20
314.008777
 30
0.0
 11
641.757613
 21
301.008777
 31
0.0
  0
LINE
  5
D6
100
AcDbEntity
  8
M03
100
AcDbLine
 10
674.757613
 20
314.008777
 30
0.0
 11
674.757613
 21
301.008777
 31
0.0
  0
LINE
  5
D7
100
AcDbEntity
  8
M03
100
AcDbLine
 10
669.757613
 20
296.008777
 30
0.0
 11
646.757613
 21
296.008777
 31
0.0
  0
LINE
  5
D8
100
AcDbEntity
  8
M05
100
AcDbLine
 10
636.532613
 20
289.308777
 30
0.0
 11
679.982613
 21
289.308777
 31
0.0
  0
LINE
  5
DA
100
AcDbEntity
  8
M05
100
AcDbLine
 10
679.282613
 20
288.608777
 30
0.0
 11
679.982613
 21
289.308777
 31
0.0
  0
LINE
  5
DB
100
AcDbEntity
  8
M05
100
AcDbLine
 10
636.532613
 20
289.308777
 30
0.0
 11
637.232613
 21
288.608777
 31
0.0
  0
LINE
  5
DC
100
AcDbEntity
  8
M05
100
AcDbLine
 10
636.532613
 20
309.008777
 30
0.0
 11
636.532613
 21
289.308777
 31
0.0
  0
LINE
  5
DD
100
AcDbEntity
  8
M04
100
AcDbLine
 10
635.032613
 20
308.431427
 30
0.0
 11
636.532613
 21
308.431427
 31
0.0
  0
LINE
  5
DE
100
AcDbEntity
  8
M04
100
AcDbLine
 10
635.032613
 20
308.431427
 30
0.0
 11
635.032613
 21
295.608777
 31
0.0
  0
LINE
  5
DF
100
AcDbEntity
  8
M04
100
AcDbLine
 10
636.032613
 20
309.008777
 30
0.0
 11
635.032613
 21
308.431427
 31
0.0
  0
LINE
  5
E0
100
AcDbEntity
  8
M04
100
AcDbLine
 10
636.032613
 20
313.008777
 30
0.0
 11
636.032613
 21
314.008777
 31
0.0
  0
LINE
  5
E1
100
AcDbEntity
  8
M04
100
AcDbLine
 10
637.032613
 20
314.008777
 30
0.0
 11
636.032613
 21
314.008777
 31
0.0
  0
LINE
  5
E2
100
AcDbEntity
  8
M05
100
AcDbLine
 10
637.032613
 20
314.008777
 30
0.0
 11
636.032613
 21
313.008777
 31
0.0
  0
LINE
  5
E3
100
AcDbEntity
  8
M05
100
AcDbLine
 10
636.032613
 20
313.008777
 30
0.0
 11
636.032613
 21
309.008777
 31
0.0
  0
LINE
  5
E4
100
AcDbEntity
  8
M05
100
AcDbLine
 10
679.982613
 20
309.008777
 30
0.0
 11
679.982613
 21
289.308777
 31
0.0
  0
LINE
  5
E5
100
AcDbEntity
  8
M04
100
AcDbLine
 10
681.482613
 20
308.431427
 30
0.0
 11
679.982613
 21
308.431427
 31
0.0
  0
LINE
  5
E6
100
AcDbEntity
  8
M04
100
AcDbLine
 10
681.482613
 20
308.431427
 30
0.0
 11
681.482613
 21
295.608777
 31
0.0
  0
LINE
  5
E7
100
AcDbEntity
  8
M04
100
AcDbLine
 10
680.482613
 20
309.008777
 30
0.0
 11
681.482613
 21
308.431427
 31
0.0
  0
LINE
  5
E8
100
AcDbEntity
  8
M04
100
AcDbLine
 10
680.482613
 20
313.008777
 30
0.0
 11
680.482613
 21
314.008777
 31
0.0
  0
LINE
  5
E9
100
AcDbEntity
  8
M04
100
AcDbLine
 10
679.482613
 20
314.008777
 30
0.0
 11
680.482613
 21
314.008777
 31
0.0
  0
LINE
  5
EA
100
AcDbEntity
  8
M05
100
AcDbLine
 10
636.032613
 20
313.008777
 30
0.0
 11
680.482613
 21
313.008777
 31
0.0
  0
LINE
  5
EB
100
AcDbEntity
  8
M05
100
AcDbLine
 10
679.482613
 20
314.008777
 30
0.0
 11
680.482613
 21
313.008777
 31
0.0
  0
LINE
  5
EC
100
AcDbEntity
  8
M05
100
AcDbLine
 10
680.482613
 20
313.008777
 30
0.0
 11
680.482613
 21
309.008777
 31
0.0
  0
LINE
  5
ED
100
AcDbEntity
  8
M05
100
AcDbLine
 10
680.482613
 20
309.008777
 30
0.0
 11
636.032613
 21
309.008777
 31
0.0
  0
LINE
  5
EE
100
AcDbEntity
  8
M05
100
AcDbLine
 10
679.482613
 20
314.008777
 30
0.0
 11
637.032613
 21
314.008777
 31
0.0
  0
LINE
  5
EF
100
AcDbEntity
  8
M05
100
AcDbLine
 10
648.757613
 20
288.608777
 30
0.0
 11
648.757613
 21
284.608777
 31
0.0
  0
LINE
  5
F0
100
AcDbEntity
  8
M05
100
AcDbLine
 10
667.757613
 20
288.608777
 30
0.0
 11
667.757613
 21
284.608777
 31
0.0
  0
HATCH
  5
F1
100
AcDbEntity
  8
HATCH
100
AcDbHatch
 10
0.0
 20
0.0
 30
0.0
210
0.0
220
0.0
230
1.0
  2
_U
 70
     0
 71
     0
 91
       16
 92
        7
 72
     1
 73
     1
 93
        5
 10
658.2576125642799
 20
564.160843887023
 42
0.0
 10
658.2576125642799
 20
564.660843887023
 42
-0.1856631955229143
 10
654.5722738197127
 20
566.0781635985614
 42
0.3157147729334966
 10
636.3955306643326
 20
548.160843887023
 42
0.0
 10
638.6616946220146
 20
548.160843887023
 42
-0.3563939586925999
 97
        0
 92
       22
 72
     1
 73
     1
 93
        4
 10
658.2576125642799
 20
564.160843887023
 42
0.3563939586925999
 10
638.6616946220146
 20
548.160843887023
 42
0.0
 10
649.6407685944729
 20
548.160843887023
 42
-0.2919418509678903
 10
658.2576125642799
 20
553.660843887023
 42
0.0
 97
        0
 92
        6
 72
     1
 73
     1
 93
        3
 10
658.2576125642799
 20
553.660843887023
 42
0.2919418509678903
 10
649.6407685944729
 20
548.160843887023
 42
0.0
 10
658.2576125642799
 20
548.160843887023
 42
0.0
 97
        0
 92
        7
 72
     1
 73
     1
 93
        4
 10
658.2576125642799
 20
548.160843887023
 42
0.0
 10
649.6407685944729
 20
548.160843887023
 42
0.1090809576248918
 10
648.7576125642799
 20
544.1608438870229
 42
0.0
 10
654.2576125642799
 20
544.1608438870229
 42
-0.4142135623730992
 97
        0
 92
       22
 72
     1
 73
     1
 93
        3
 10
658.2576125642799
 20
548.160843887023
 42
0.4142135623730992
 10
654.2576125642799
 20
544.1608438870229
 42
0.0
 10
658.2576125642802
 20
544.1608438870227
 42
0.0
 97
        0
 92
        7
 72
     1
 73
     1
 93
        4
 10
649.6407685944729
 20
548.160843887023
 42
0.0
 10
638.6616946220146
 20
548.160843887023
 42
0.0503820444848851
 10
638.2576125642799
 20
544.1608438870229
 42
0.0
 10
648.7576125642799
 20
544.1608438870229
 42
-0.1090809576248918
 97
        0
 92
        7
 72
     1
 73
     1
 93
        5
 10
638.6616946220146
 20
548.160843887023
 42
0.0
 10
636.3955306643326
 20
548.160843887023
 42
0.003593667114849
 10
636.3402928527416
 20
547.84618263159
 42
-0.1856631955229133
 10
637.7576125642799
 20
544.1608438870229
 42
0.0
 10
638.2576125642799
 20
544.1608438870229
 42
-0.0503820444848851
 97
        0
 92
        7
 72
     1
 73
     1
 93
        3
 10
636.3402928527416
 20
547.84618263159
 42
0.0416713391594355
 10
636.03261256428
 20
544.1608438870229
 42
0.0
 10
637.7576125642799
 20
544.1608438870229
 42
0.1856631955229133
 97
        0
 92
       22
 72
     1
 73
     1
 93
        3
 10
662.2576125642799
 20
544.1608438870229
 42
0.0
 10
658.2576125642802
 20
544.1608438870229
 42
0.0
 10
658.2576125642802
 20
540.160843887023
 42
0.4142135623730826
 97
        0
 92
        7
 72
     1
 73
     1
 93
        4
 10
667.7576125642799
 20
544.1608438870229
 42
0.0
 10
662.2576125642799
 20
544.1608438870229
 42
-0.4142135623730909
 10
658.2576125642799
 20
540.160843887023
 42
0.0
 10
666.8744565340871
 20
540.160843887023
 42
0.1090809576248888
 97
        0
 92
        6
 72
     1
 73
     1
 93
        3
 10
666.8744565340871
 20
540.160843887023
 42
0.0
 10
658.2576125642799
 20
540.1608438870229
 42
0.0
 10
658.2576125642799
 20
534.660843887023
 42
0.2919418509678903
 97
        0
 92
       22
 72
     1
 73
     1
 93
        4
 10
677.8535305065454
 20
540.160843887023
 42
0.0
 10
666.8744565340871
 20
540.160843887023
 42
-0.2919418509678903
 10
658.2576125642799
 20
534.660843887023
 42
0.0
 10
658.2576125642799
 20
524.160843887023
 42
0.3563939586925999
 97
        0
 92
        7
 72
     1
 73
     1
 93
        4
 10
678.2576125642799
 20
544.1608438870229
 42
0.0
 10
667.7576125642799
 20
544.1608438870229
 42
-0.1090809576248888
 10
666.8744565340871
 20
540.160843887023
 42
0.0
 10
677.8535305065454
 20
540.160843887023
 42
0.0503820444848837
 97
        0
 92
        7
 72
     1
 73
     1
 93
        5
 10
678.7576125642799
 20
544.1608438870229
 42
0.0
 10
678.2576125642799
 20
544.1608438870229
 42
-0.0503820444848837
 10
677.8535305065454
 20
540.160843887023
 42
0.0
 10
680.1196944642271
 20
540.160843887023
 42
0.003593667114849
 10
680.1749322758184
 20
540.4755051424558
 42
-0.185663195522908
 97
        0
 92
        7
 72
     1
 73
     1
 93
        3
 10
680.4826125642801
 20
544.1608438870229
 42
0.0
 10
678.7576125642799
 20
544.1608438870229
 42
0.185663195522908
 10
680.1749322758184
 20
540.4755051424558
 42
0.0416713391594342
 97
        0
 92
        7
 72
     1
 73
     1
 93
        4
 10
680.1196944642271
 20
540.160843887023
 42
0.0
 10
677.8535305065454
 20
540.160843887023
 42
-0.3563939586925999
 10
658.2576125642799
 20
524.160843887023
 42
0.0
 10
658.2576125642799
 20
521.9358438870228
 42
0.3621506593782504
 97
        0
 75
     0
 76
     0
 52
45.0
 41
2.0
 77
     1
 78
     2
 53
45.0
 43
102.810372
 44
111.601618
 45
-1.414213562373094
 46
1.414213562373095
 79
     0
 53
135.0
 43
102.810372
 44
111.601618
 45
-1.414213562373095
 46
-1.414213562373094
 79
     0
 47
0.113412
 98
       16
 10
645.941458
 20
561.480764
 10
647.643334
 20
557.62477
 10
655.812338
 20
551.273722
 10
652.748961
 20
546.623846
 10
656.946922
 20
546.283611
 10
645.714541
 20
546.1702
 10
637.658995
 20
547.531138
 10
637.091704
 20
545.48973
 10
660.577591
 20
542.087382
 10
664.548634
 20
542.200793
 10
661.258341
 20
537.777741
 10
668.292761
 20
536.076568
 10
672.036888
 20
541.860559
 10
678.617475
 20
541.293501
 10
680.092434
 20
542.541029
 10
678.730934
 20
536.530213
  0
CIRCLE
  5
F2
100
AcDbEntity
  8
M01
100
AcDbCircle
 10
658.257613
 20
544.160844
 30
0.0
 40
22.225
  0
CIRCLE
  5
F3
100
AcDbEntity
  8
M03
100
AcDbCircle
 10
658.257613
 20
544.160844
 30
0.0
 40
9.5
  0
CIRCLE
  5
F4
100
AcDbEntity
  8
M03
100
AcDbCircle
 10
658.257613
 20
544.160844
 30
0.0
 40
4.0
  0
HATCH
  5
F5
100
AcDbEntity
  8
HATCH
100
AcDbHatch
 10
0.0
 20
0.0
 30
0.0
210
0.0
220
0.0
230
1.0
  2
_U
 70
     0
 71
     0
 91
       12
 92
        7
 72
     1
 73
     1
 93
       34
 10
566.7576125642799
 20
271.6087771884044
 42
-1.0
 10
574.7576125642799
 20
271.6087771884044
 42
0.0
 10
574.7576125642799
 20
253.608777188405
 42
0.0
 10
658.2576125642798
 20
253.608777188405
 42
0.0
 10
658.2576125642799
 20
283.6087771884046
 42
0.0
 10
649.7576125642799
 20
283.6087771884045
 42
0.0
 10
648.7576125642799
 20
283.6087771884045
 42
0.0
 10
648.7576125642799
 20
284.6087771884045
 42
0.0
 10
648.7576125642799
 20
288.6087771884046
 42
0.0
 10
456.2576125642797
 20
288.6087771884047
 42
0.0
 10
456.2576125642797
 20
282.6087771884047
 42
0.0
 10
444.2576125642798
 20
282.6087771884047
 42
0.0
 10
444.2576125642798
 20
230.608777188405
 42
0.0
 10
446.2576125642798
 20
228.6087771884049
 42
0.0
 10
629.2576125642799
 20
228.6087771884048
 42
0.0
 10
629.2576125642799
 20
235.9087771884047
 42
0.0
 10
629.2576125642798
 20
238.4087771884045
 42
0.0
 10
629.95761256428
 20
238.4087771884045
 42
0.0
 10
629.95761256428
 20
239.9087771884045
 42
0.0
 10
632.25761256428
 20
241.2366828075407
 42
0.0
 10
634.5576125642799
 20
239.9087771884045
 42
0.0
 10
634.5576125642799
 20
238.4087771884045
 42
0.0
 10
635.2576125642799
 20
238.4087771884046
 42
0.0
 10
635.2576125642799
 20
235.9087771884048
 42
0.0
 10
635.2576125642799
 20
228.6087771884047
 42
0.0
 10
647.7576125642801
 20
228.6087771884047
 42
0.0
 10
648.25761256428
 20
229.1087771884044
 42
0.0
 10
648.25761256428
 20
237.6087771884046
 42
0.0
 10
648.2576125642801
 20
238.6087771884046
 42
0.0
 10
649.2576125642801
 20
238.6087771884046
 42
0.0
 10
654.2576125642798
 20
238.6087771884046
 42
0.0
 10
654.25761256428
 20
245.608777188405
 42
0.0
 10
570.7576125642799
 20
245.608777188405
 42
-0.414213562373096
 10
566.7576125642799
 20
249.608777188405
 42
0.0
 97
        0
 92
        7
 72
     1
 73
     1
 93
       11
 10
741.75761256428
 20
271.6087771884044
 42
-0.4142135623730948
 10
745.75761256428
 20
275.6087771884044
 42
0.0
 10
829.2576125642799
 20
275.6087771884044
 42
0.0
 10
829.2576125642799
 20
288.6087771884044
 42
0.0
 10
667.7576125642799
 20
288.6087771884045
 42
0.0
 10
667.7576125642799
 20
284.6087771884045
 42
0.0
 10
667.7576125642799
 20
283.6087771884045
 42
0.0
 10
666.7576125642799
 20
283.6087771884045
 42
0.0
 10
658.2576125642799
 20
283.6087771884045
 42
0.0
 10
658.2576125642799
 20
253.608777188405
 42
0.0
 10
741.7576125642799
 20
253.608777188405
 42
0.0
 97
        0
 92
        7
 72
     1
 73
     1
 93
       39
 10
745.7576125642799
 20
245.608777188405
 42
0.0
 10
662.2576125642799
 20
245.608777188405
 42
0.0
 10
662.2576125642799
 20
238.6087771884045
 42
0.0
 10
667.2576125642799
 20
238.6087771884045
 42
0.0
 10
668.2576125642797
 20
238.6087771884045
 42
0.0
 10
668.2576125642799
 20
237.6087771884045
 42
0.0
 10
668.2576125642799
 20
229.1087771884043
 42
0.0
 10
668.7576125642796
 20
228.6087771884047
 42
0.0
 10
681.2576125642798
 20
228.6087771884047
 42
0.0
 10
681.2576125642799
 20
235.9087771884047
 42
0.0
 10
681.2576125642799
 20
238.4087771884045
 42
0.0
 10
681.9576125642799
 20
238.4087771884045
 42
0.0
 10
681.9576125642799
 20
239.9087771884046
 42
0.0
 10
684.25761256428
 20
241.2366828075407
 42
0.0
 10
686.5576125642799
 20
239.9087771884046
 42
0.0
 10
686.5576125642799
 20
238.4087771884045
 42
0.0
 10
687.25761256428
 20
238.4087771884046
 42
0.0
 10
687.2576125642799
 20
235.9087771884048
 42
0.0
 10
687.2576125642799
 20
228.6087771884047
 42
0.0
 10
809.25761256428
 20
228.6087771884047
 42
0.0
 10
809.2576125642798
 20
228.9087771884044
 42
0.0
 10
809.95761256428
 20
229.6087771884046
 42
0.0
 10
851.5163457646993
 20
229.6087771884046
 42
0.0
 10
851.5163457646993
 20
232.608777188405
 42
-1.0
 10
859.5163457646993
 20
232.608777188405
 42
0.0
 10
859.5163457646991
 20
228.6087771884047
 42
0.0
 10
862.1676125642796
 20
228.6087771884047
 42
0.0
 10
864.1676125642799
 20
230.6087771884051
 42
0.0
 10
864.1676125642799
 20
286.6087771884048
 42
0.0
 10
862.1676125642803
 20
288.6087771884045
 42
0.0
 10
859.5163457646993
 20
288.6087771884045
 42
0.0
 10
859.5163457646993
 20
284.608777188405
 42
-1.0
 10
851.5163457646993
 20
284.608777188405
 42
0.0
 10
851.5163457646993
 20
288.6087771884045
 42
0.0
 10
837.2576125642799
 20
288.6087771884045
 42
0.0
 10
837.2576125642799
 20
271.6087771884043
 42
-0.4142135623730951
 10
833.2576125642798
 20
267.6087771884043
 42
0.0
 10
749.7576125642798
 20
267.6087771884043
 42
0.0
 10
749.75761256428
 20
249.6087771884051
 42
-0.4142135623731045
 97
        0
 92
       23
 72
     0
 73
     1
 93
        4
 10
851.5163457646993
 20
228.9087771884045
 10
841.4164945517368
 20
228.9087771884045
 10
841.116494551737
 20
228.6087771884047
 10
851.5163457646993
 20
228.6087771884047
 97
        0
 92
       22
 72
     0
 73
     1
 93
        4
 10
851.5163457646993
 20
229.6087771884046
 10
842.1164945517372
 20
229.6087771884046
 10
841.4164945517368
 20
228.9087771884045
 10
851.5163457646993
 20
228.9087771884045
 97
        0
 92
       23
 72
     0
 73
     1
 93
        4
 10
841.4164945517368
 20
228.9087771884045
 10
833.2576125642798
 20
228.9087771884045
 10
833.2576125642798
 20
228.6087771884047
 10
841.1164945517372
 20
228.6087771884047
 97
        0
 92
       22
 72
     0
 73
     1
 93
        4
 10
842.1164945517372
 20
229.6087771884045
 10
833.2576125642798
 20
229.6087771884045
 10
833.2576125642798
 20
228.9087771884045
 10
841.4164945517372
 20
228.9087771884045
 97
        0
 92
        7
 72
     0
 73
     1
 93
        4
 10
833.2576125642797
 20
228.9087771884045
 10
825.0987305768232
 20
228.9087771884046
 10
825.398730576823
 20
228.6087771884047
 10
833.2576125642798
 20
228.6087771884046
 97
        0
 92
       22
 72
     0
 73
     1
 93
        4
 10
833.2576125642798
 20
229.6087771884046
 10
824.3987305768229
 20
229.6087771884046
 10
825.0987305768228
 20
228.9087771884045
 10
833.25761256428
 20
228.9087771884045
 97
        0
 92
       23
 72
     0
 73
     1
 93
        4
 10
825.0987305768232
 20
228.9087771884045
 10
809.25761256428
 20
228.9087771884046
 10
809.25761256428
 20
228.6087771884047
 10
825.398730576823
 20
228.6087771884047
 97
        0
 92
       22
 72
     0
 73
     1
 93
        4
 10
824.3987305768227
 20
229.6087771884046
 10
809.95761256428
 20
229.6087771884046
 10
809.25761256428
 20
228.9087771884045
 10
825.0987305768228
 20
228.9087771884045
 97
        0
 92
       24
 93
        4
 72
     1
 10
812.746089
 20
245.219158
 11
825.831803
 21
245.219158
 72
     1
 10
825.831803
 20
245.219158
 11
825.831803
 21
248.219158
 72
     1
 10
825.831803
 20
248.219158
 11
812.746089
 21
248.219158
 72
     1
 10
812.746089
 20
248.219158
 11
812.746089
 21
245.219158
 97
        0
 75
     0
 76
     0
 52
45.0
 41
6.0
 77
     0
 78
     1
 53
45.0
 43
0.0
 44
0.0
 45
-4.242640687119284
 46
4.242640687119285
 79
     0
 47
0.063192
 98
       11
 10
509.21306
 20
267.565774
 10
694.093407
 20
265.339173
 10
712.80419
 20
241.737218
 10
848.742209
 20
228.741534
 10
848.805427
 20
229.247074
 10
839.133206
 20
228.804728
 10
839.196422
 20
229.120689
 10
828.828814
 20
228.741534
 10
829.208116
 20
229.373457
 10
822.127797
 20
228.804728
 10
822.191015
 20
229.18388
  0
HATCH
  5
F6
100
AcDbEntity
  8
HATCH
100
AcDbHatch
 10
0.0
 20
0.0
 30
0.0
210
0.0
220
0.0
230
1.0
  2
_U
 70
     0
 71
     1
 91
        2
 92
        7
 72
     0
 73
     1
 93
       11
 10
809.9576125642801
 20
228.6087771884046
 10
809.25761256428
 20
227.9087771884047
 10
809.2576125642802
 20
222.3087771884043
 10
809.9576125642801
 20
221.6087771884045
 10
812.7576125642802
 20
221.6087771884045
 10
813.75761256428
 20
222.6087771884045
 10
825.7576125642795
 20
222.6087771884046
 10
826.7576125642792
 20
221.6087771884046
 10
829.75761256428
 20
221.6087771884046
 10
829.7576125642798
 20
224.2498952009476
 10
825.398730576823
 20
228.6087771884047
 97
       10
330
2B4
330
356
330
35B
330
357
330
491
330
324
330
326
330
325
330
344
330
346
 92
        7
 72
     0
 73
     1
 93
       11
 10
841.116494551737
 20
228.6087771884047
 10
836.75761256428
 20
224.2498952009475
 10
836.7576125642798
 20
221.6087771884047
 10
839.757612564281
 20
221.6087771884047
 10
840.7576125642803
 20
222.6087771884045
 10
852.7576125642802
 20
222.6087771884044
 10
853.7576125642793
 20
221.6087771884047
 10
856.5576125642801
 20
221.6087771884047
 10
857.2576125642799
 20
222.3087771884046
 10
857.25761256428
 20
227.9087771884045
 10
856.5576125642799
 20
228.6087771884047
 97
       10
330
351
330
2B4
330
348
330
343
330
2B3
330
328
330
329
330
327
330
352
330
353
 75
     0
 76
     0
 52
135.0
 41
1.5
 77
     0
 78
     1
 53
135.0
 43
0.0
 44
0.0
 45
-1.060660171779821
 46
-1.060660171779821
 79
     0
 47
0.097824
 98
        2
 10
814.941951
 20
226.490481
 10
843.811491
 20
225.610062
  0
HATCH
  5
F7
100
AcDbEntity
  8
M03
100
AcDbHatch
 10
0.0
 20
0.0
 30
0.0
210
0.0
220
0.0
230
1.0
  2
_U
 70
     0
 71
     0
 91
        1
 92
        7
 72
     0
 73
     1
 93
        4
 10
805.6205768316351
 20
444.5584785169838
 10
826.2952897551713
 20
423.8837655934475
 10
824.9517868709169
 20
422.540262709193
 10
804.2770739473805
 20
443.2149756327296
 97
        0
 75
     0
 76
     0
 52
285.0
 41
0.7
 77
     0
 78
     1
 53
165.0
 43
866.913266
 44
-188.725933
 45
0.1811733315717643
 46
0.676148078402348
 79
     0
 47
0.060863
 98
        1
 10
807.390989
 20
441.108785
  0
HATCH
  5
F8
100
AcDbEntity
  8
M03
100
AcDbHatch
 10
0.0
 20
0.0
 30
0.0
210
0.0
220
0.0
230
1.0
  2
_U
 70
     0
 71
     0
 91
        1
 92
        7
 72
     0
 73
     1
 93
        4
 10
805.6205768316351
 20
444.558478516984
 10
826.2952897551715
 20
423.8837655934474
 10
824.9517868709169
 20
422.540262709193
 10
804.2770739473805
 20
443.2149756327296
 97
        0
 75
     0
 76
     0
 52
-15.0
 41
0.7
 77
     0
 78
     1
 53
105.0
 43
866.913266
 44
-188.725933
 45
0.6761480784023478
 46
0.1811733315717645
 79
     0
 47
0.060863
 98
        1
 10
807.692299
 20
441.151769
  0
LINE
  5
F9
100
AcDbEntity
  8
M03
100
AcDbLine
 10
803.494262
 20
465.918097
 30
0.0
 11
806.059579
 21
465.230723
 31
0.0
  0
LINE
  5
FA
100
AcDbEntity
  8
M03
100
AcDbLine
 10
806.746954
 20
462.665406
 30
0.0
 11
806.059579
 21
465.230723
 31
0.0
  0
LINE
  5
FB
100
AcDbEntity
  8
M03
100
AcDbLine
 10
806.746954
 20
462.665406
 30
0.0
 11
803.494262
 21
465.918097
 31
0.0
  0
LINE
  5
FC
100
AcDbEntity
  8
M03
100
AcDbLine
 10
806.181268
 20
461.109771
 30
0.0
 11
801.938627
 21
465.352412
 31
0.0
  0
LINE
  5
FD
100
AcDbEntity
  8
M03
100
AcDbLine
 10
805.620577
 20
444.558479
 30
0.0
 11
826.29529
 21
423.883766
 31
0.0
  0
LINE
  5
FE
100
AcDbEntity
  8
M03
100
AcDbLine
 10
804.277074
 20
443.214976
 30
0.0
 11
824.951787
 21
422.540263
 31
0.0
  0
LINE
  5
FF
100
AcDbEntity
  8
M03
100
AcDbLine
 10
800.882961
 20
449.720358
 30
0.0
 11
790.76634
 21
459.836979
 31
0.0
  0
LINE
  5
100
100
AcDbEntity
  8
M03
100
AcDbLine
 10
805.832709
 20
444.770611
 30
0.0
 11
804.064942
 21
443.002844
 31
0.0
  0
LINE
  5
101
100
AcDbEntity
  8
M03
100
AcDbLine
 10
804.064942
 20
443.002844
 30
0.0
 11
799.115194
 21
447.952591
 31
0.0
  0
LINE
  5
102
100
AcDbEntity
  8
M03
100
AcDbLine
 10
800.882961
 20
449.720358
 30
0.0
 11
799.115194
 21
447.952591
 31
0.0
  0
LINE
  5
103
100
AcDbEntity
  8
M03
100
AcDbLine
 10
791.332026
 20
460.402665
 30
0.0
 11
790.76634
 21
459.836979
 31
0.0
  0
ARC
  5
104
100
AcDbEntity
  8
M03
100
AcDbCircle
 10
797.502336
 20
456.67348
 30
0.0
 40
5.826136
100
AcDbArc
 50
160.69541
 51
289.30459
  0
LINE
  5
105
100
AcDbEntity
  8
M03
100
AcDbLine
 10
800.17086
 20
463.584645
 30
0.0
 11
801.16081
 21
463.584645
 31
0.0
  0
LINE
  5
106
100
AcDbEntity
  8
M03
100
AcDbLine
 10
804.413501
 20
459.342004
 30
0.0
 11
804.413501
 21
460.331954
 31
0.0
  0
LINE
  5
107
100
AcDbEntity
  8
M03
100
AcDbLine
 10
804.413501
 20
459.342004
 30
0.0
 11
800.17086
 21
463.584645
 31
0.0
  0
LINE
  5
108
100
AcDbEntity
  8
M03
100
AcDbLine
 10
804.413501
 20
460.331954
 30
0.0
 11
801.16081
 21
463.584645
 31
0.0
  0
LINE
  5
109
100
AcDbEntity
  8
M03
100
AcDbLine
 10
794.160453
 20
457.574237
 30
0.0
 11
789.210705
 21
462.523985
 31
0.0
  0
LINE
  5
10A
100
AcDbEntity
  8
M03
100
AcDbLine
 10
805.969136
 20
445.765554
 30
0.0
 11
805.403451
 21
445.199869
 31
0.0
  0
LINE
  5
10B
100
AcDbEntity
  8
M03
100
AcDbLine
 10
793.665478
 20
458.069212
 30
0.0
 11
793.099793
 21
457.503527
 31
0.0
  0
LINE
  5
10C
100
AcDbEntity
  8
M03
100
AcDbLine
 10
803.494262
 20
465.918097
 30
0.0
 11
794.089742
 21
456.513577
 31
0.0
  0
LINE
  5
10D
100
AcDbEntity
  8
M03
100
AcDbLine
 10
806.746954
 20
462.665406
 30
0.0
 11
797.342433
 21
453.260886
 31
0.0
  0
LINE
  5
10E
100
AcDbEntity
  8
M03
100
AcDbLine
 10
806.181268
 20
461.109771
 30
0.0
 11
797.837408
 21
452.765911
 31
0.0
  0
LINE
  5
10F
100
AcDbEntity
  8
M03
100
AcDbLine
 10
801.938627
 20
465.352412
 30
0.0
 11
793.594767
 21
457.008552
 31
0.0
  0
LINE
  5
110
100
AcDbEntity
  8
M03
100
AcDbLine
 10
805.832709
 20
444.770611
 30
0.0
 11
801.621721
 21
448.981598
 31
0.0
  0
LINE
  5
111
100
AcDbEntity
  8
M03
100
AcDbLine
 10
789.210705
 20
462.523985
 30
0.0
 11
785.675171
 21
458.988451
 31
0.0
  0
LINE
  5
112
100
AcDbEntity
  8
M03
100
AcDbLine
 10
831.073846
 20
420.660844
 30
0.0
 11
798.403094
 21
453.331597
 31
0.0
  0
LINE
  5
113
100
AcDbEntity
  8
CENTRE
100
AcDbLine
 10
809.150178
 20
468.321322
 30
0.0
 11
789.945052
 21
449.116196
 31
0.0
  0
LINE
  5
116
100
AcDbEntity
  8
DIMS
 62
     4
100
AcDbLine
 10
833.257613
 20
635.060844
 30
0.0
 11
833.257613
 21
658.360844
 31
0.0
  0
LINE
  5
117
100
AcDbEntity
  8
DIMS
 62
     4
100
AcDbLine
 10
833.257613
 20
628.260844
 30
0.0
 11
833.257613
 21
604.960844
 31
0.0
  0
LINE
  5
118
100
AcDbEntity
  8
DIMS
 62
     4
100
AcDbLine
 10
836.657613
 20
631.660844
 30
0.0
 11
859.957613
 21
631.660844
 31
0.0
  0
LINE
  5
119
100
AcDbEntity
  8
DIMS
 62
     4
100
AcDbLine
 10
829.857613
 20
631.660844
 30
0.0
 11
806.557613
 21
631.660844
 31
0.0
  0
LINE
  5
11A
100
AcDbEntity
  8
DIMS
 62
     4
100
AcDbLine
 10
833.257613
 20
629.960844
 30
0.0
 11
833.257613
 21
633.360844
 31
0.0
  0
LINE
  5
11B
100
AcDbEntity
  8
DIMS
 62
     4
100
AcDbLine
 10
831.557613
 20
631.660844
 30
0.0
 11
834.957613
 21
631.660844
 31
0.0
  0
LINE
  5
11C
100
AcDbEntity
  8
DIMS
 62
     4
100
AcDbLine
 10
661.657613
 20
631.660844
 30
0.0
 11
684.957613
 21
631.660844
 31
0.0
  0
LINE
  5
11D
100
AcDbEntity
  8
DIMS
 62
     4
100
AcDbLine
 10
654.857613
 20
631.660844
 30
0.0
 11
631.557613
 21
631.660844
 31
0.0
  0
LINE
  5
11E
100
AcDbEntity
  8
DIMS
 62
     4
100
AcDbLine
 10
656.557613
 20
631.660844
 30
0.0
 11
659.957613
 21
631.660844
 31
0.0
  0
LINE
  5
11F
100
AcDbEntity
  8
DIMS
 62
     4
100
AcDbLine
 10
661.657613
 20
456.660844
 30
0.0
 11
684.957613
 21
456.660844
 31
0.0
  0
LINE
  5
120
100
AcDbEntity
  8
DIMS
 62
     4
100
AcDbLine
 10
654.857613
 20
456.660844
 30
0.0
 11
631.557613
 21
456.660844
 31
0.0
  0
LINE
  5
121
100
AcDbEntity
  8
DIMS
 62
     4
100
AcDbLine
 10
656.557613
 20
456.660844
 30
0.0
 11
659.957613
 21
456.660844
 31
0.0
  0
LINE
  5
122
100
AcDbEntity
  8
DIMS
 62
     4
100
AcDbLine
 10
483.257613
 20
460.060844
 30
0.0
 11
483.257613
 21
483.360844
 31
0.0
  0
LINE
  5
123
100
AcDbEntity
  8
DIMS
 62
     4
100
AcDbLine
 10
483.257613
 20
453.260844
 30
0.0
 11
483.257613
 21
429.960844
 31
0.0
  0
LINE
  5
124
100
AcDbEntity
  8
DIMS
 62
     4
100
AcDbLine
 10
486.657613
 20
456.660844
 30
0.0
 11
509.957613
 21
456.660844
 31
0.0
  0
LINE
  5
125
100
AcDbEntity
  8
DIMS
 62
     4
100
AcDbLine
 10
479.857613
 20
456.660844
 30
0.0
 11
456.557613
 21
456.660844
 31
0.0
  0
LINE
  5
126
100
AcDbEntity
  8
DIMS
 62
     4
100
AcDbLine
 10
483.257613
 20
454.960844
 30
0.0
 11
483.257613
 21
458.360844
 31
0.0
  0
LINE
  5
127
100
AcDbEntity
  8
DIMS
 62
     4
100
AcDbLine
 10
481.557613
 20
456.660844
 30
0.0
 11
484.957613
 21
456.660844
 31
0.0
  0
LINE
  5
128
100
AcDbEntity
  8
DIMS
 62
     4
100
AcDbLine
 10
483.257613
 20
635.060844
 30
0.0
 11
483.257613
 21
658.360844
 31
0.0
  0
LINE
  5
129
100
AcDbEntity
  8
DIMS
 62
     4
100
AcDbLine
 10
483.257613
 20
628.260844
 30
0.0
 11
483.257613
 21
604.960844
 31
0.0
  0
LINE
  5
12A
100
AcDbEntity
  8
DIMS
 62
     4
100
AcDbLine
 10
486.657613
 20
631.660844
 30
0.0
 11
509.957613
 21
631.660844
 31
0.0
  0
LINE
  5
12B
100
AcDbEntity
  8
DIMS
 62
     4
100
AcDbLine
 10
479.857613
 20
631.660844
 30
0.0
 11
456.557613
 21
631.660844
 31
0.0
  0
LINE
  5
12C
100
AcDbEntity
  8
DIMS
 62
     4
100
AcDbLine
 10
483.257613
 20
629.960844
 30
0.0
 11
483.257613
 21
633.360844
 31
0.0
  0
LINE
  5
12D
100
AcDbEntity
  8
DIMS
 62
     4
100
AcDbLine
 10
481.557613
 20
631.660844
 30
0.0
 11
484.957613
 21
631.660844
 31
0.0
  0
ARC
  5
12E
100
AcDbEntity
  8
M04
100
AcDbCircle
 10
745.757613
 20
606.386241
 30
0.0
 40
5.0
100
AcDbArc
 50
225.0
 51
315.0
  0
ARC
  5
12F
100
AcDbEntity
  8
M04
100
AcDbCircle
 10
679.983009
 20
497.160844
 30
0.0
 40
5.0
100
AcDbArc
 50
90.0
 51
225.0
  0
ARC
  5
130
100
AcDbEntity
  8
M04
100
AcDbCircle
 10
730.532216
 20
497.160844
 30
0.0
 40
5.0
100
AcDbArc
 50
45.0
 51
90.0
  0
ARC
  5
131
100
AcDbEntity
  8
M04
100
AcDbCircle
 10
844.983009
 20
507.160844
 30
0.0
 40
5.0
100
AcDbArc
 50
90.0
 51
225.0
  0
LINE
  5
132
100
AcDbEntity
  8
M04
100
AcDbLine
 10
877.806534
 20
467.266252
 30
0.0
 11
841.447475
 21
503.62531
 31
0.0
  0
ARC
  5
133
100
AcDbEntity
  8
M01
100
AcDbCircle
 10
679.983009
 20
497.160844
 30
0.0
 40
12.0
100
AcDbArc
 50
90.0
 51
225.0
  0
ARC
  5
134
100
AcDbEntity
  8
M01
100
AcDbCircle
 10
730.532216
 20
497.160844
 30
0.0
 40
12.0
100
AcDbArc
 50
45.0
 51
90.0
  0
ARC
  5
135
100
AcDbEntity
  8
M01
100
AcDbCircle
 10
841.983009
 20
510.160844
 30
0.0
 40
12.0
100
AcDbArc
 50
90.0
 51
225.0
  0
LINE
  5
136
100
AcDbEntity
  8
DIMS
 62
     4
100
AcDbLine
 10
872.012952
 20
492.016183
 30
0.0
 11
876.812952
 21
492.016183
 31
0.0
  0
LINE
  5
137
100
AcDbEntity
  8
DIMS
 62
     4
100
AcDbLine
 10
865.212952
 20
492.016183
 30
0.0
 11
860.412952
 21
492.016183
 31
0.0
  0
LINE
  5
138
100
AcDbEntity
  8
DIMS
 62
     4
100
AcDbLine
 10
868.612952
 20
495.416183
 30
0.0
 11
868.612952
 21
500.216183
 31
0.0
  0
LINE
  5
139
100
AcDbEntity
  8
DIMS
 62
     4
100
AcDbLine
 10
868.612952
 20
488.616183
 30
0.0
 11
868.612952
 21
483.816183
 31
0.0
  0
LINE
  5
13A
100
AcDbEntity
  8
DIMS
 62
     4
100
AcDbLine
 10
866.912952
 20
492.016183
 30
0.0
 11
870.312952
 21
492.016183
 31
0.0
  0
LINE
  5
13B
100
AcDbEntity
  8
DIMS
 62
     4
100
AcDbLine
 10
868.612952
 20
490.316183
 30
0.0
 11
868.612952
 21
493.716183
 31
0.0
  0
CIRCLE
  5
13C
100
AcDbEntity
  8
M04
100
AcDbCircle
 10
868.612952
 20
492.016183
 30
0.0
 40
6.5
  0
LINE
  5
13D
100
AcDbEntity
  8
M04
100
AcDbLine
 10
822.652205
 20
412.111923
 30
0.0
 11
734.06775
 21
500.696378
 31
0.0
  0
LINE
  5
13E
100
AcDbEntity
  8
M01
100
AcDbLine
 10
869.257613
 20
465.915678
 30
0.0
 11
833.497728
 21
501.675563
 31
0.0
  0
LINE
  5
13F
100
AcDbEntity
  8
M01
100
AcDbLine
 10
824.002779
 20
420.660844
 30
0.0
 11
739.017497
 21
505.646125
 31
0.0
  0
LINE
  5
140
100
AcDbEntity
  8
M01
100
AcDbLine
 10
869.257613
 20
447.403622
 30
0.0
 11
869.257613
 21
465.915678
 31
0.0
  0
LINE
  5
141
100
AcDbEntity
  8
M01
100
AcDbLine
 10
842.514834
 20
420.660844
 30
0.0
 11
824.002779
 21
420.660844
 31
0.0
  0
LINE
  5
142
100
AcDbEntity
  8
DIMS
 62
     4
100
AcDbLine
 10
797.902274
 20
417.905505
 30
0.0
 11
797.902274
 21
413.105505
 31
0.0
  0
LINE
  5
143
100
AcDbEntity
  8
DIMS
 62
     4
100
AcDbLine
 10
797.902274
 20
424.705505
 30
0.0
 11
797.902274
 21
429.505505
 31
0.0
  0
LINE
  5
144
100
AcDbEntity
  8
DIMS
 62
     4
100
AcDbLine
 10
794.502274
 20
421.305505
 30
0.0
 11
789.702274
 21
421.305505
 31
0.0
  0
LINE
  5
145
100
AcDbEntity
  8
DIMS
 62
     4
100
AcDbLine
 10
801.302274
 20
421.305505
 30
0.0
 11
806.102274
 21
421.305505
 31
0.0
  0
LINE
  5
146
100
AcDbEntity
  8
DIMS
 62
     4
100
AcDbLine
 10
797.902274
 20
423.005505
 30
0.0
 11
797.902274
 21
419.605505
 31
0.0
  0
LINE
  5
147
100
AcDbEntity
  8
DIMS
 62
     4
100
AcDbLine
 10
799.602274
 20
421.305505
 30
0.0
 11
796.202274
 21
421.305505
 31
0.0
  0
CIRCLE
  5
148
100
AcDbEntity
  8
M03
100
AcDbCircle
 10
833.257613
 20
456.660844
 30
0.0
 40
25.0
  0
CIRCLE
  5
149
100
AcDbEntity
  8
M03
100
AcDbCircle
 10
833.257613
 20
456.660844
 30
0.0
 40
24.0
  0
CIRCLE
  5
14A
100
AcDbEntity
  8
M04
100
AcDbCircle
 10
797.902274
 20
421.305505
 30
0.0
 40
6.5
  0
CIRCLE
  5
14B
100
AcDbEntity
  8
M03
100
AcDbCircle
 10
833.257613
 20
456.660844
 30
0.0
 40
2.3
  0
ARC
  5
14C
100
AcDbEntity
  8
M03
100
AcDbCircle
 10
833.257613
 20
456.660844
 30
0.0
 40
3.0
100
AcDbArc
 50
347.784636
 51
276.923103
  0
LINE
  5
14D
100
AcDbEntity
  8
M03
100
AcDbLine
 10
832.707613
 20
462.635582
 30
0.0
 11
832.707613
 21
450.686105
 31
0.0
  0
LINE
  5
14E
100
AcDbEntity
  8
M03
100
AcDbLine
 10
833.807613
 20
462.635582
 30
0.0
 11
833.807613
 21
450.686105
 31
0.0
  0
CIRCLE
  5
14F
100
AcDbEntity
  8
M03
100
AcDbCircle
 10
833.257613
 20
456.660844
 30
0.0
 40
7.858882
  0
CIRCLE
  5
150
100
AcDbEntity
  8
M03
100
AcDbCircle
 10
833.257613
 20
456.660844
 30
0.0
 40
6.0
  0
CIRCLE
  5
151
100
AcDbEntity
  8
M01
100
AcDbCircle
 10
833.257613
 20
456.660844
 30
0.0
 40
4.0
  0
LINE
  5
152
100
AcDbEntity
  8
M04
100
AcDbLine
 10
679.983009
 20
502.160844
 30
0.0
 11
730.532216
 21
502.160844
 31
0.0
  0
LINE
  5
153
100
AcDbEntity
  8
M01
100
AcDbLine
 10
679.983009
 20
509.160844
 30
0.0
 11
730.532216
 21
509.160844
 31
0.0
  0
ARC
  5
154
100
AcDbEntity
  8
M01
100
AcDbCircle
 10
841.983009
 20
578.160844
 30
0.0
 40
12.0
100
AcDbArc
 50
135.0
 51
270.0
  0
ARC
  5
155
100
AcDbEntity
  8
M01
100
AcDbCircle
 10
745.757612
 20
606.386241
 30
0.0
 40
12.0
100
AcDbArc
 50
225.0
 51
315.0
  0
ARC
  5
156
100
AcDbEntity
  8
M04
100
AcDbCircle
 10
844.983009
 20
581.160844
 30
0.0
 40
5.0
100
AcDbArc
 50
135.0
 51
270.0
  0
LINE
  5
157
100
AcDbEntity
  8
DIMS
 62
     4
100
AcDbLine
 10
872.012952
 20
596.305505
 30
0.0
 11
876.812952
 21
596.305505
 31
0.0
  0
LINE
  5
158
100
AcDbEntity
  8
DIMS
 62
     4
100
AcDbLine
 10
865.212952
 20
596.305505
 30
0.0
 11
860.412952
 21
596.305505
 31
0.0
  0
LINE
  5
159
100
AcDbEntity
  8
DIMS
 62
     4
100
AcDbLine
 10
868.612952
 20
592.905505
 30
0.0
 11
868.612952
 21
588.105505
 31
0.0
  0
LINE
  5
15A
100
AcDbEntity
  8
DIMS
 62
     4
100
AcDbLine
 10
868.612952
 20
599.705505
 30
0.0
 11
868.612952
 21
604.505505
 31
0.0
  0
LINE
  5
15B
100
AcDbEntity
  8
DIMS
 62
     4
100
AcDbLine
 10
866.912952
 20
596.305505
 30
0.0
 11
870.312952
 21
596.305505
 31
0.0
  0
LINE
  5
15C
100
AcDbEntity
  8
DIMS
 62
     4
100
AcDbLine
 10
868.612952
 20
598.005505
 30
0.0
 11
868.612952
 21
594.605505
 31
0.0
  0
CIRCLE
  5
15D
100
AcDbEntity
  8
M04
100
AcDbCircle
 10
868.612952
 20
596.305505
 30
0.0
 40
6.5
  0
LINE
  5
15E
100
AcDbEntity
  8
M04
100
AcDbLine
 10
877.806534
 20
621.055436
 30
0.0
 11
841.447475
 21
584.696378
 31
0.0
  0
LINE
  5
15F
100
AcDbEntity
  8
M04
100
AcDbLine
 10
822.652205
 20
676.209765
 30
0.0
 11
749.293147
 21
602.850707
 31
0.0
  0
LINE
  5
160
100
AcDbEntity
  8
M01
100
AcDbLine
 10
869.257613
 20
622.40601
 30
0.0
 11
833.497728
 21
586.646125
 31
0.0
  0
LINE
  5
161
100
AcDbEntity
  8
M01
100
AcDbLine
 10
824.002779
 20
667.660844
 30
0.0
 11
754.242894
 21
597.900959
 31
0.0
  0
LINE
  5
162
100
AcDbEntity
  8
M01
100
AcDbLine
 10
869.257613
 20
640.918065
 30
0.0
 11
869.257613
 21
622.40601
 31
0.0
  0
LINE
  5
163
100
AcDbEntity
  8
M01
100
AcDbLine
 10
842.514834
 20
667.660844
 30
0.0
 11
824.002779
 21
667.660844
 31
0.0
  0
LINE
  5
164
100
AcDbEntity
  8
DIMS
 62
     4
100
AcDbLine
 10
797.902274
 20
670.416183
 30
0.0
 11
797.902274
 21
675.216183
 31
0.0
  0
LINE
  5
165
100
AcDbEntity
  8
DIMS
 62
     4
100
AcDbLine
 10
797.902274
 20
663.616183
 30
0.0
 11
797.902274
 21
658.816183
 31
0.0
  0
LINE
  5
166
100
AcDbEntity
  8
DIMS
 62
     4
100
AcDbLine
 10
794.502274
 20
667.016183
 30
0.0
 11
789.702274
 21
667.016183
 31
0.0
  0
LINE
  5
167
100
AcDbEntity
  8
DIMS
 62
     4
100
AcDbLine
 10
801.302274
 20
667.016183
 30
0.0
 11
806.102274
 21
667.016183
 31
0.0
  0
LINE
  5
168
100
AcDbEntity
  8
DIMS
 62
     4
100
AcDbLine
 10
797.902274
 20
665.316183
 30
0.0
 11
797.902274
 21
668.716183
 31
0.0
  0
LINE
  5
169
100
AcDbEntity
  8
DIMS
 62
     4
100
AcDbLine
 10
799.602274
 20
667.016183
 30
0.0
 11
796.202274
 21
667.016183
 31
0.0
  0
CIRCLE
  5
16A
100
AcDbEntity
  8
M03
100
AcDbCircle
 10
833.257613
 20
631.660844
 30
0.0
 40
25.0
  0
CIRCLE
  5
16B
100
AcDbEntity
  8
M03
100
AcDbCircle
 10
833.257613
 20
631.660844
 30
0.0
 40
24.0
  0
CIRCLE
  5
16C
100
AcDbEntity
  8
M04
100
AcDbCircle
 10
797.902274
 20
667.016183
 30
0.0
 40
6.5
  0
CIRCLE
  5
16D
100
AcDbEntity
  8
M03
100
AcDbCircle
 10
833.257613
 20
631.660844
 30
0.0
 40
2.3
  0
ARC
  5
16E
100
AcDbEntity
  8
M03
100
AcDbCircle
 10
833.257613
 20
631.660844
 30
0.0
 40
3.0
100
AcDbArc
 50
83.076897
 51
12.215364
  0
LINE
  5
16F
100
AcDbEntity
  8
M03
100
AcDbLine
 10
832.707613
 20
625.686105
 30
0.0
 11
832.707613
 21
637.635582
 31
0.0
  0
LINE
  5
170
100
AcDbEntity
  8
M03
100
AcDbLine
 10
833.807613
 20
625.686105
 30
0.0
 11
833.807613
 21
637.635582
 31
0.0
  0
CIRCLE
  5
171
100
AcDbEntity
  8
M03
100
AcDbCircle
 10
833.257613
 20
631.660844
 30
0.0
 40
7.858882
  0
CIRCLE
  5
172
100
AcDbEntity
  8
M03
100
AcDbCircle
 10
833.257613
 20
631.660844
 30
0.0
 40
6.0
  0
CIRCLE
  5
173
100
AcDbEntity
  8
M01
100
AcDbCircle
 10
833.257613
 20
631.660844
 30
0.0
 40
4.0
  0
ARC
  5
174
100
AcDbEntity
  8
M01
100
AcDbCircle
 10
570.757613
 20
481.935447
 30
0.0
 40
12.0
100
AcDbArc
 50
45.0
 51
135.0
  0
ARC
  5
175
100
AcDbEntity
  8
M04
100
AcDbCircle
 10
570.757613
 20
481.935447
 30
0.0
 40
5.0
100
AcDbArc
 50
45.0
 51
135.0
  0
LINE
  5
176
100
AcDbEntity
  8
DIMS
 62
     4
100
AcDbLine
 10
697.012952
 20
492.016183
 30
0.0
 11
701.812952
 21
492.016183
 31
0.0
  0
LINE
  5
177
100
AcDbEntity
  8
DIMS
 62
     4
100
AcDbLine
 10
690.212952
 20
492.016183
 30
0.0
 11
685.412952
 21
492.016183
 31
0.0
  0
LINE
  5
178
100
AcDbEntity
  8
DIMS
 62
     4
100
AcDbLine
 10
693.612952
 20
495.416183
 30
0.0
 11
693.612952
 21
500.216183
 31
0.0
  0
LINE
  5
179
100
AcDbEntity
  8
DIMS
 62
     4
100
AcDbLine
 10
693.612952
 20
488.616183
 30
0.0
 11
693.612952
 21
483.816183
 31
0.0
  0
LINE
  5
17A
100
AcDbEntity
  8
DIMS
 62
     4
100
AcDbLine
 10
691.912952
 20
492.016183
 30
0.0
 11
695.312952
 21
492.016183
 31
0.0
  0
LINE
  5
17B
100
AcDbEntity
  8
DIMS
 62
     4
100
AcDbLine
 10
693.612952
 20
490.316183
 30
0.0
 11
693.612952
 21
493.716183
 31
0.0
  0
CIRCLE
  5
17C
100
AcDbEntity
  8
M04
100
AcDbCircle
 10
693.612952
 20
492.016183
 30
0.0
 40
6.5
  0
LINE
  5
17D
100
AcDbEntity
  8
DIMS
 62
     4
100
AcDbLine
 10
622.902274
 20
417.905505
 30
0.0
 11
622.902274
 21
413.105505
 31
0.0
  0
LINE
  5
17E
100
AcDbEntity
  8
DIMS
 62
     4
100
AcDbLine
 10
622.902274
 20
424.705505
 30
0.0
 11
622.902274
 21
429.505505
 31
0.0
  0
LINE
  5
17F
100
AcDbEntity
  8
DIMS
 62
     4
100
AcDbLine
 10
619.502274
 20
421.305505
 30
0.0
 11
614.702274
 21
421.305505
 31
0.0
  0
LINE
  5
180
100
AcDbEntity
  8
DIMS
 62
     4
100
AcDbLine
 10
626.302274
 20
421.305505
 30
0.0
 11
631.102274
 21
421.305505
 31
0.0
  0
LINE
  5
181
100
AcDbEntity
  8
DIMS
 62
     4
100
AcDbLine
 10
622.902274
 20
423.005505
 30
0.0
 11
622.902274
 21
419.605505
 31
0.0
  0
LINE
  5
182
100
AcDbEntity
  8
DIMS
 62
     4
100
AcDbLine
 10
624.602274
 20
421.305505
 30
0.0
 11
621.202274
 21
421.305505
 31
0.0
  0
CIRCLE
  5
183
100
AcDbEntity
  8
M04
100
AcDbCircle
 10
622.902274
 20
421.305505
 30
0.0
 40
6.5
  0
LINE
  5
184
100
AcDbEntity
  8
M04
100
AcDbLine
 10
702.806534
 20
467.266252
 30
0.0
 11
676.447475
 21
493.62531
 31
0.0
  0
LINE
  5
185
100
AcDbEntity
  8
M04
100
AcDbLine
 10
647.652205
 20
412.111923
 30
0.0
 11
574.293146
 21
485.470981
 31
0.0
  0
LINE
  5
186
100
AcDbEntity
  8
M01
100
AcDbLine
 10
694.257613
 20
465.915678
 30
0.0
 11
671.497728
 21
488.675563
 31
0.0
  0
LINE
  5
187
100
AcDbEntity
  8
M01
100
AcDbLine
 10
649.002779
 20
420.660844
 30
0.0
 11
579.242894
 21
490.420729
 31
0.0
  0
LINE
  5
188
100
AcDbEntity
  8
M01
100
AcDbLine
 10
694.257613
 20
447.403622
 30
0.0
 11
694.257613
 21
465.915678
 31
0.0
  0
LINE
  5
189
100
AcDbEntity
  8
M01
100
AcDbLine
 10
667.514834
 20
420.660844
 30
0.0
 11
649.002779
 21
420.660844
 31
0.0
  0
CIRCLE
  5
18A
100
AcDbEntity
  8
M03
100
AcDbCircle
 10
658.257613
 20
456.660844
 30
0.0
 40
25.0
  0
CIRCLE
  5
18B
100
AcDbEntity
  8
M03
100
AcDbCircle
 10
658.257613
 20
456.660844
 30
0.0
 40
24.0
  0
CIRCLE
  5
18C
100
AcDbEntity
  8
M03
100
AcDbCircle
 10
658.257613
 20
456.660844
 30
0.0
 40
2.3
  0
ARC
  5
18D
100
AcDbEntity
  8
M03
100
AcDbCircle
 10
658.257613
 20
456.660844
 30
0.0
 40
3.0
100
AcDbArc
 50
347.784636
 51
276.923103
  0
LINE
  5
18E
100
AcDbEntity
  8
M03
100
AcDbLine
 10
657.707613
 20
462.635582
 30
0.0
 11
657.707613
 21
450.686105
 31
0.0
  0
LINE
  5
18F
100
AcDbEntity
  8
M03
100
AcDbLine
 10
658.807613
 20
462.635582
 30
0.0
 11
658.807613
 21
450.686105
 31
0.0
  0
CIRCLE
  5
190
100
AcDbEntity
  8
M03
100
AcDbCircle
 10
658.257613
 20
456.660844
 30
0.0
 40
7.858882
  0
CIRCLE
  5
191
100
AcDbEntity
  8
M03
100
AcDbCircle
 10
658.257613
 20
456.660844
 30
0.0
 40
6.0
  0
CIRCLE
  5
192
100
AcDbEntity
  8
M01
100
AcDbCircle
 10
658.257613
 20
456.660844
 30
0.0
 40
4.0
  0
LINE
  5
193
100
AcDbEntity
  8
DIMS
 62
     4
100
AcDbLine
 10
619.502274
 20
596.305505
 30
0.0
 11
614.702274
 21
596.305505
 31
0.0
  0
LINE
  5
194
100
AcDbEntity
  8
DIMS
 62
     4
100
AcDbLine
 10
626.302274
 20
596.305505
 30
0.0
 11
631.102274
 21
596.305505
 31
0.0
  0
LINE
  5
195
100
AcDbEntity
  8
DIMS
 62
     4
100
AcDbLine
 10
622.902274
 20
592.905505
 30
0.0
 11
622.902274
 21
588.105505
 31
0.0
  0
LINE
  5
196
100
AcDbEntity
  8
DIMS
 62
     4
100
AcDbLine
 10
622.902274
 20
599.705505
 30
0.0
 11
622.902274
 21
604.505505
 31
0.0
  0
LINE
  5
197
100
AcDbEntity
  8
DIMS
 62
     4
100
AcDbLine
 10
624.602274
 20
596.305505
 30
0.0
 11
621.202274
 21
596.305505
 31
0.0
  0
LINE
  5
198
100
AcDbEntity
  8
DIMS
 62
     4
100
AcDbLine
 10
622.902274
 20
598.005505
 30
0.0
 11
622.902274
 21
594.605505
 31
0.0
  0
CIRCLE
  5
199
100
AcDbEntity
  8
M04
100
AcDbCircle
 10
622.902274
 20
596.305505
 30
0.0
 40
6.5
  0
ARC
  5
19A
100
AcDbEntity
  8
M04
100
AcDbCircle
 10
636.532216
 20
591.160844
 30
0.0
 40
5.0
100
AcDbArc
 50
270.0
 51
45.0
  0
ARC
  5
19B
100
AcDbEntity
  8
M04
100
AcDbCircle
 10
585.983009
 20
591.160844
 30
0.0
 40
5.0
100
AcDbArc
 50
225.0
 51
270.0
  0
ARC
  5
19C
100
AcDbEntity
  8
M04
100
AcDbCircle
 10
471.532216
 20
507.160844
 30
0.0
 40
5.0
100
AcDbArc
 50
315.0
 51
90.0
  0
ARC
  5
19D
100
AcDbEntity
  8
M04
100
AcDbCircle
 10
471.532216
 20
581.160844
 30
0.0
 40
5.0
100
AcDbArc
 50
270.0
 51
45.0
  0
LINE
  5
19E
100
AcDbEntity
  8
DIMS
 62
     4
100
AcDbLine
 10
444.502274
 20
492.016183
 30
0.0
 11
439.702274
 21
492.016183
 31
0.0
  0
LINE
  5
19F
100
AcDbEntity
  8
DIMS
 62
     4
100
AcDbLine
 10
451.302274
 20
492.016183
 30
0.0
 11
456.102274
 21
492.016183
 31
0.0
  0
LINE
  5
1A0
100
AcDbEntity
  8
DIMS
 62
     4
100
AcDbLine
 10
447.902274
 20
495.416183
 30
0.0
 11
447.902274
 21
500.216183
 31
0.0
  0
LINE
  5
1A1
100
AcDbEntity
  8
DIMS
 62
     4
100
AcDbLine
 10
447.902274
 20
488.616183
 30
0.0
 11
447.902274
 21
483.816183
 31
0.0
  0
LINE
  5
1A2
100
AcDbEntity
  8
DIMS
 62
     4
100
AcDbLine
 10
449.602274
 20
492.016183
 30
0.0
 11
446.202274
 21
492.016183
 31
0.0
  0
LINE
  5
1A3
100
AcDbEntity
  8
DIMS
 62
     4
100
AcDbLine
 10
447.902274
 20
490.316183
 30
0.0
 11
447.902274
 21
493.716183
 31
0.0
  0
CIRCLE
  5
1A4
100
AcDbEntity
  8
M04
100
AcDbCircle
 10
447.902274
 20
492.016183
 30
0.0
 40
6.5
  0
LINE
  5
1A5
100
AcDbEntity
  8
DIMS
 62
     4
100
AcDbLine
 10
518.612952
 20
417.905505
 30
0.0
 11
518.612952
 21
413.105505
 31
0.0
  0
LINE
  5
1A6
100
AcDbEntity
  8
DIMS
 62
     4
100
AcDbLine
 10
518.612952
 20
424.705505
 30
0.0
 11
518.612952
 21
429.505505
 31
0.0
  0
LINE
  5
1A7
100
AcDbEntity
  8
DIMS
 62
     4
100
AcDbLine
 10
522.012952
 20
421.305505
 30
0.0
 11
526.812952
 21
421.305505
 31
0.0
  0
LINE
  5
1A8
100
AcDbEntity
  8
DIMS
 62
     4
100
AcDbLine
 10
515.212952
 20
421.305505
 30
0.0
 11
510.412952
 21
421.305505
 31
0.0
  0
LINE
  5
1A9
100
AcDbEntity
  8
DIMS
 62
     4
100
AcDbLine
 10
518.612952
 20
423.005505
 30
0.0
 11
518.612952
 21
419.605505
 31
0.0
  0
LINE
  5
1AA
100
AcDbEntity
  8
DIMS
 62
     4
100
AcDbLine
 10
516.912952
 20
421.305505
 30
0.0
 11
520.312952
 21
421.305505
 31
0.0
  0
CIRCLE
  5
1AB
100
AcDbEntity
  8
M04
100
AcDbCircle
 10
518.612952
 20
421.305505
 30
0.0
 40
6.5
  0
ARC
  5
1AC
100
AcDbEntity
  8
M01
100
AcDbCircle
 10
636.532216
 20
591.160844
 30
0.0
 40
12.0
100
AcDbArc
 50
270.0
 51
45.0
  0
ARC
  5
1AD
100
AcDbEntity
  8
M01
100
AcDbCircle
 10
585.983009
 20
591.160844
 30
0.0
 40
12.0
100
AcDbArc
 50
225.0
 51
270.0
  0
ARC
  5
1AE
100
AcDbEntity
  8
M01
100
AcDbCircle
 10
474.532216
 20
578.160844
 30
0.0
 40
12.0
100
AcDbArc
 50
270.0
 51
45.0
  0
ARC
  5
1AF
100
AcDbEntity
  8
M01
100
AcDbCircle
 10
474.532216
 20
510.160844
 30
0.0
 40
12.0
100
AcDbArc
 50
315.0
 51
90.0
  0
LINE
  5
1B0
100
AcDbEntity
  8
M04
100
AcDbLine
 10
438.708692
 20
467.266252
 30
0.0
 11
475.06775
 21
503.62531
 31
0.0
  0
LINE
  5
1B1
100
AcDbEntity
  8
M04
100
AcDbLine
 10
493.86302
 20
412.111923
 30
0.0
 11
567.222079
 21
485.470981
 31
0.0
  0
LINE
  5
1B2
100
AcDbEntity
  8
M01
100
AcDbLine
 10
447.257613
 20
465.915678
 30
0.0
 11
483.017497
 21
501.675563
 31
0.0
  0
LINE
  5
1B3
100
AcDbEntity
  8
M01
100
AcDbLine
 10
492.512447
 20
420.660844
 30
0.0
 11
562.272331
 21
490.420729
 31
0.0
  0
LINE
  5
1B4
100
AcDbEntity
  8
M01
100
AcDbLine
 10
447.257613
 20
447.403622
 30
0.0
 11
447.257613
 21
465.915678
 31
0.0
  0
LINE
  5
1B5
100
AcDbEntity
  8
M01
100
AcDbLine
 10
474.000391
 20
420.660844
 30
0.0
 11
492.512447
 21
420.660844
 31
0.0
  0
CIRCLE
  5
1B6
100
AcDbEntity
  8
M03
100
AcDbCircle
 10
483.257613
 20
456.660844
 30
0.0
 40
25.0
  0
CIRCLE
  5
1B7
100
AcDbEntity
  8
M03
100
AcDbCircle
 10
483.257613
 20
456.660844
 30
0.0
 40
24.0
  0
CIRCLE
  5
1B8
100
AcDbEntity
  8
M03
100
AcDbCircle
 10
483.257613
 20
456.660844
 30
0.0
 40
2.3
  0
ARC
  5
1B9
100
AcDbEntity
  8
M03
100
AcDbCircle
 10
483.257613
 20
456.660844
 30
0.0
 40
3.0
100
AcDbArc
 50
263.076897
 51
192.215364
  0
LINE
  5
1BA
100
AcDbEntity
  8
M03
100
AcDbLine
 10
483.807613
 20
462.635582
 30
0.0
 11
483.807613
 21
450.686105
 31
0.0
  0
LINE
  5
1BB
100
AcDbEntity
  8
M03
100
AcDbLine
 10
482.707613
 20
462.635582
 30
0.0
 11
482.707613
 21
450.686105
 31
0.0
  0
CIRCLE
  5
1BC
100
AcDbEntity
  8
M03
100
AcDbCircle
 10
483.257613
 20
456.660844
 30
0.0
 40
7.858882
  0
CIRCLE
  5
1BD
100
AcDbEntity
  8
M03
100
AcDbCircle
 10
483.257613
 20
456.660844
 30
0.0
 40
6.0
  0
CIRCLE
  5
1BE
100
AcDbEntity
  8
M01
100
AcDbCircle
 10
483.257613
 20
456.660844
 30
0.0
 40
4.0
  0
LINE
  5
1BF
100
AcDbEntity
  8
M04
100
AcDbLine
 10
613.708692
 20
621.055436
 30
0.0
 11
640.06775
 21
594.696378
 31
0.0
  0
LINE
  5
1C0
100
AcDbEntity
  8
M04
100
AcDbLine
 10
668.86302
 20
676.209765
 30
0.0
 11
742.222079
 21
602.850707
 31
0.0
  0
LINE
  5
1C1
100
AcDbEntity
  8
M01
100
AcDbLine
 10
622.257613
 20
622.40601
 30
0.0
 11
645.017497
 21
599.646125
 31
0.0
  0
LINE
  5
1C2
100
AcDbEntity
  8
M01
100
AcDbLine
 10
667.512447
 20
667.660844
 30
0.0
 11
737.272331
 21
597.900959
 31
0.0
  0
LINE
  5
1C3
100
AcDbEntity
  8
M01
100
AcDbLine
 10
622.257613
 20
640.918065
 30
0.0
 11
622.257613
 21
622.40601
 31
0.0
  0
LINE
  5
1C4
100
AcDbEntity
  8
M01
100
AcDbLine
 10
649.000391
 20
667.660844
 30
0.0
 11
667.512447
 21
667.660844
 31
0.0
  0
LINE
  5
1C5
100
AcDbEntity
  8
DIMS
 62
     4
100
AcDbLine
 10
693.612952
 20
670.416183
 30
0.0
 11
693.612952
 21
675.216183
 31
0.0
  0
LINE
  5
1C6
100
AcDbEntity
  8
DIMS
 62
     4
100
AcDbLine
 10
693.612952
 20
663.616183
 30
0.0
 11
693.612952
 21
658.816183
 31
0.0
  0
LINE
  5
1C7
100
AcDbEntity
  8
DIMS
 62
     4
100
AcDbLine
 10
697.012952
 20
667.016183
 30
0.0
 11
701.812952
 21
667.016183
 31
0.0
  0
LINE
  5
1C8
100
AcDbEntity
  8
DIMS
 62
     4
100
AcDbLine
 10
690.212952
 20
667.016183
 30
0.0
 11
685.412952
 21
667.016183
 31
0.0
  0
LINE
  5
1C9
100
AcDbEntity
  8
DIMS
 62
     4
100
AcDbLine
 10
693.612952
 20
665.316183
 30
0.0
 11
693.612952
 21
668.716183
 31
0.0
  0
LINE
  5
1CA
100
AcDbEntity
  8
DIMS
 62
     4
100
AcDbLine
 10
691.912952
 20
667.016183
 30
0.0
 11
695.312952
 21
667.016183
 31
0.0
  0
CIRCLE
  5
1CB
100
AcDbEntity
  8
M03
100
AcDbCircle
 10
658.257613
 20
631.660844
 30
0.0
 40
25.0
  0
CIRCLE
  5
1CC
100
AcDbEntity
  8
M03
100
AcDbCircle
 10
658.257613
 20
631.660844
 30
0.0
 40
24.0
  0
CIRCLE
  5
1CD
100
AcDbEntity
  8
M04
100
AcDbCircle
 10
693.612952
 20
667.016183
 30
0.0
 40
6.5
  0
CIRCLE
  5
1CE
100
AcDbEntity
  8
M03
100
AcDbCircle
 10
658.257613
 20
631.660844
 30
0.0
 40
2.3
  0
ARC
  5
1CF
100
AcDbEntity
  8
M03
100
AcDbCircle
 10
658.257613
 20
631.660844
 30
0.0
 40
3.0
100
AcDbArc
 50
167.784636
 51
96.923103
  0
LINE
  5
1D0
100
AcDbEntity
  8
M03
100
AcDbLine
 10
658.807613
 20
625.686105
 30
0.0
 11
658.807613
 21
637.635582
 31
0.0
  0
LINE
  5
1D1
100
AcDbEntity
  8
M03
100
AcDbLine
 10
657.707613
 20
625.686105
 30
0.0
 11
657.707613
 21
637.635582
 31
0.0
  0
CIRCLE
  5
1D2
100
AcDbEntity
  8
M03
100
AcDbCircle
 10
658.257613
 20
631.660844
 30
0.0
 40
7.858882
  0
CIRCLE
  5
1D3
100
AcDbEntity
  8
M03
100
AcDbCircle
 10
658.257613
 20
631.660844
 30
0.0
 40
6.0
  0
CIRCLE
  5
1D4
100
AcDbEntity
  8
M01
100
AcDbCircle
 10
658.257613
 20
631.660844
 30
0.0
 40
4.0
  0
LINE
  5
1D5
100
AcDbEntity
  8
DIMS
 62
     4
100
AcDbLine
 10
444.502274
 20
596.305505
 30
0.0
 11
439.702274
 21
596.305505
 31
0.0
  0
LINE
  5
1D6
100
AcDbEntity
  8
DIMS
 62
     4
100
AcDbLine
 10
451.302274
 20
596.305505
 30
0.0
 11
456.102274
 21
596.305505
 31
0.0
  0
LINE
  5
1D7
100
AcDbEntity
  8
DIMS
 62
     4
100
AcDbLine
 10
447.902274
 20
592.905505
 30
0.0
 11
447.902274
 21
588.105505
 31
0.0
  0
LINE
  5
1D8
100
AcDbEntity
  8
DIMS
 62
     4
100
AcDbLine
 10
447.902274
 20
599.705505
 30
0.0
 11
447.902274
 21
604.505505
 31
0.0
  0
LINE
  5
1D9
100
AcDbEntity
  8
DIMS
 62
     4
100
AcDbLine
 10
449.602274
 20
596.305505
 30
0.0
 11
446.202274
 21
596.305505
 31
0.0
  0
LINE
  5
1DA
100
AcDbEntity
  8
DIMS
 62
     4
100
AcDbLine
 10
447.902274
 20
598.005505
 30
0.0
 11
447.902274
 21
594.605505
 31
0.0
  0
CIRCLE
  5
1DB
100
AcDbEntity
  8
M04
100
AcDbCircle
 10
447.902274
 20
596.305505
 30
0.0
 40
6.5
  0
LINE
  5
1DC
100
AcDbEntity
  8
M04
100
AcDbLine
 10
438.708692
 20
621.055436
 30
0.0
 11
475.06775
 21
584.696378
 31
0.0
  0
LINE
  5
1DD
100
AcDbEntity
  8
M04
100
AcDbLine
 10
493.86302
 20
676.209765
 30
0.0
 11
582.447475
 21
587.62531
 31
0.0
  0
LINE
  5
1DE
100
AcDbEntity
  8
M01
100
AcDbLine
 10
447.257613
 20
622.40601
 30
0.0
 11
483.017497
 21
586.646125
 31
0.0
  0
LINE
  5
1DF
100
AcDbEntity
  8
M01
100
AcDbLine
 10
492.512447
 20
667.660844
 30
0.0
 11
577.497728
 21
582.675563
 31
0.0
  0
LINE
  5
1E0
100
AcDbEntity
  8
M01
100
AcDbLine
 10
447.257613
 20
640.918065
 30
0.0
 11
447.257613
 21
622.40601
 31
0.0
  0
LINE
  5
1E1
100
AcDbEntity
  8
M01
100
AcDbLine
 10
474.000391
 20
667.660844
 30
0.0
 11
492.512447
 21
667.660844
 31
0.0
  0
LINE
  5
1E2
100
AcDbEntity
  8
DIMS
 62
     4
100
AcDbLine
 10
518.612952
 20
670.416183
 30
0.0
 11
518.612952
 21
675.216183
 31
0.0
  0
LINE
  5
1E3
100
AcDbEntity
  8
DIMS
 62
     4
100
AcDbLine
 10
518.612952
 20
663.616183
 30
0.0
 11
518.612952
 21
658.816183
 31
0.0
  0
LINE
  5
1E4
100
AcDbEntity
  8
DIMS
 62
     4
100
AcDbLine
 10
522.012952
 20
667.016183
 30
0.0
 11
526.812952
 21
667.016183
 31
0.0
  0
LINE
  5
1E5
100
AcDbEntity
  8
DIMS
 62
     4
100
AcDbLine
 10
515.212952
 20
667.016183
 30
0.0
 11
510.412952
 21
667.016183
 31
0.0
  0
LINE
  5
1E6
100
AcDbEntity
  8
DIMS
 62
     4
100
AcDbLine
 10
518.612952
 20
665.316183
 30
0.0
 11
518.612952
 21
668.716183
 31
0.0
  0
LINE
  5
1E7
100
AcDbEntity
  8
DIMS
 62
     4
100
AcDbLine
 10
516.912952
 20
667.016183
 30
0.0
 11
520.312952
 21
667.016183
 31
0.0
  0
CIRCLE
  5
1E8
100
AcDbEntity
  8
M03
100
AcDbCircle
 10
483.257613
 20
631.660844
 30
0.0
 40
25.0
  0
CIRCLE
  5
1E9
100
AcDbEntity
  8
M03
100
AcDbCircle
 10
483.257613
 20
631.660844
 30
0.0
 40
24.0
  0
CIRCLE
  5
1EA
100
AcDbEntity
  8
M04
100
AcDbCircle
 10
518.612952
 20
667.016183
 30
0.0
 40
6.5
  0
HATCH
  5
1EB
100
AcDbEntity
  8
M03
100
AcDbHatch
 10
0.0
 20
0.0
 30
0.0
210
0.0
220
0.0
230
1.0
  2
_U
 70
     0
 71
     0
 91
        1
 92
        7
 72
     0
 73
     1
 93
        4
 10
510.8946482969249
 20
643.7632092570622
 10
490.2199353733886
 20
664.4379221805984
 10
491.5634382576429
 20
665.781425064853
 10
512.2381511811793
 20
645.1067121413164
 97
        0
 75
     0
 76
     0
 52
285.0
 41
0.7
 77
     0
 78
     1
 53
345.0
 43
449.60196
 44
1277.047621
 45
-0.1811733315717643
 46
-0.676148078402348
 79
     0
 47
0.060863
 98
        1
 10
509.124236
 20
647.212902
  0
HATCH
  5
1EC
100
AcDbEntity
  8
M03
100
AcDbHatch
 10
0.0
 20
0.0
 30
0.0
210
0.0
220
0.0
230
1.0
  2
_U
 70
     0
 71
     0
 91
        1
 92
        7
 72
     0
 73
     1
 93
        4
 10
510.8946482969249
 20
643.763209257062
 10
490.2199353733884
 20
664.4379221805985
 10
491.5634382576429
 20
665.781425064853
 10
512.2381511811793
 20
645.1067121413164
 97
        0
 75
     0
 76
     0
 52
-15.0
 41
0.7
 77
     0
 78
     1
 53
285.0
 43
449.60196
 44
1277.047621
 45
-0.6761480784023478
 46
-0.1811733315717645
 79
     0
 47
0.060863
 98
        1
 10
508.822927
 20
647.169918
  0
LINE
  5
1ED
100
AcDbEntity
  8
M03
100
AcDbLine
 10
513.020963
 20
622.40359
 30
0.0
 11
510.455646
 21
623.090965
 31
0.0
  0
LINE
  5
1EE
100
AcDbEntity
  8
M03
100
AcDbLine
 10
509.768272
 20
625.656282
 30
0.0
 11
510.455646
 21
623.090965
 31
0.0
  0
LINE
  5
1EF
100
AcDbEntity
  8
M03
100
AcDbLine
 10
509.768272
 20
625.656282
 30
0.0
 11
513.020963
 21
622.40359
 31
0.0
  0
LINE
  5
1F0
100
AcDbEntity
  8
M03
100
AcDbLine
 10
510.333957
 20
627.211916
 30
0.0
 11
514.576598
 21
622.969276
 31
0.0
  0
LINE
  5
1F1
100
AcDbEntity
  8
M03
100
AcDbLine
 10
510.894648
 20
643.763209
 30
0.0
 11
490.219935
 21
664.437922
 31
0.0
  0
LINE
  5
1F2
100
AcDbEntity
  8
M03
100
AcDbLine
 10
512.238151
 20
645.106712
 30
0.0
 11
491.563438
 21
665.781425
 31
0.0
  0
LINE
  5
1F3
100
AcDbEntity
  8
M03
100
AcDbLine
 10
515.632264
 20
638.60133
 30
0.0
 11
525.748885
 21
628.484709
 31
0.0
  0
LINE
  5
1F4
100
AcDbEntity
  8
M03
100
AcDbLine
 10
514.327818
 20
638.774404
 30
0.0
 11
514.893504
 21
639.34009
 31
0.0
  0
LINE
  5
1F5
100
AcDbEntity
  8
M03
100
AcDbLine
 10
510.682516
 20
643.551077
 30
0.0
 11
512.450283
 21
645.318844
 31
0.0
  0
LINE
  5
1F6
100
AcDbEntity
  8
M03
100
AcDbLine
 10
512.450283
 20
645.318844
 30
0.0
 11
517.400031
 21
640.369097
 31
0.0
  0
LINE
  5
1F7
100
AcDbEntity
  8
M03
100
AcDbLine
 10
515.632264
 20
638.60133
 30
0.0
 11
517.400031
 21
640.369097
 31
0.0
  0
LINE
  5
1F8
100
AcDbEntity
  8
M03
100
AcDbLine
 10
525.183199
 20
627.919023
 30
0.0
 11
525.748885
 21
628.484709
 31
0.0
  0
ARC
  5
1F9
100
AcDbEntity
  8
M03
100
AcDbCircle
 10
519.012889
 20
631.648208
 30
0.0
 40
5.826136
100
AcDbArc
 50
340.69541
 51
109.30459
  0
LINE
  5
1FA
100
AcDbEntity
  8
M03
100
AcDbLine
 10
516.344365
 20
624.737043
 30
0.0
 11
515.354415
 21
624.737043
 31
0.0
  0
LINE
  5
1FB
100
AcDbEntity
  8
M03
100
AcDbLine
 10
512.101724
 20
628.979683
 30
0.0
 11
512.101724
 21
627.989734
 31
0.0
  0
LINE
  5
1FC
100
AcDbEntity
  8
M03
100
AcDbLine
 10
512.101724
 20
628.979683
 30
0.0
 11
516.344365
 21
624.737043
 31
0.0
  0
LINE
  5
1FD
100
AcDbEntity
  8
M03
100
AcDbLine
 10
512.101724
 20
627.989734
 30
0.0
 11
515.354415
 21
624.737043
 31
0.0
  0
LINE
  5
1FE
100
AcDbEntity
  8
M03
100
AcDbLine
 10
522.354772
 20
630.74745
 30
0.0
 11
527.30452
 21
625.797703
 31
0.0
  0
LINE
  5
1FF
100
AcDbEntity
  8
M03
100
AcDbLine
 10
510.546089
 20
642.556134
 30
0.0
 11
511.111774
 21
643.121819
 31
0.0
  0
LINE
  5
200
100
AcDbEntity
  8
M03
100
AcDbLine
 10
522.849747
 20
630.252476
 30
0.0
 11
523.415432
 21
630.818161
 31
0.0
  0
LINE
  5
201
100
AcDbEntity
  8
M03
100
AcDbLine
 10
513.020963
 20
622.40359
 30
0.0
 11
522.425483
 21
631.808111
 31
0.0
  0
LINE
  5
202
100
AcDbEntity
  8
M03
100
AcDbLine
 10
509.768272
 20
625.656282
 30
0.0
 11
519.172792
 21
635.060802
 31
0.0
  0
LINE
  5
203
100
AcDbEntity
  8
M03
100
AcDbLine
 10
510.333957
 20
627.211916
 30
0.0
 11
518.677817
 21
635.555776
 31
0.0
  0
LINE
  5
204
100
AcDbEntity
  8
M03
100
AcDbLine
 10
514.576598
 20
622.969276
 30
0.0
 11
522.920458
 21
631.313136
 31
0.0
  0
LINE
  5
205
100
AcDbEntity
  8
M03
100
AcDbLine
 10
510.682516
 20
643.551077
 30
0.0
 11
514.893504
 21
639.34009
 31
0.0
  0
LINE
  5
206
100
AcDbEntity
  8
M03
100
AcDbLine
 10
527.30452
 20
625.797703
 30
0.0
 11
530.840054
 21
629.333237
 31
0.0
  0
LINE
  5
207
100
AcDbEntity
  8
M03
100
AcDbLine
 10
485.441379
 20
667.660844
 30
0.0
 11
518.112132
 21
634.990091
 31
0.0
  0
LINE
  5
208
100
AcDbEntity
  8
CENTRE
100
AcDbLine
 10
507.365047
 20
620.000365
 30
0.0
 11
526.570173
 21
639.205492
 31
0.0
  0
LINE
  5
209
100
AcDbEntity
  8
M03
100
AcDbLine
 10
486.08604
 20
634.489271
 30
0.0
 11
661.08604
 21
459.489271
 31
0.0
  0
LINE
  5
20A
100
AcDbEntity
  8
M03
100
AcDbLine
 10
480.429185
 20
628.832417
 30
0.0
 11
565.100758
 21
544.160844
 31
0.0
  0
LINE
  5
20B
100
AcDbEntity
  8
CENTRE
100
AcDbLine
 10
462.044409
 20
652.874047
 30
0.0
 11
679.470816
 21
435.44764
 31
0.0
  0
LINE
  5
20C
100
AcDbEntity
  8
M03
100
AcDbLine
 10
751.414467
 20
544.160844
 30
0.0
 11
836.08604
 21
459.489271
 31
0.0
  0
LINE
  5
20D
100
AcDbEntity
  8
M03
100
AcDbLine
 10
486.08604
 20
453.832417
 30
0.0
 11
570.757613
 21
538.50399
 31
0.0
  0
LINE
  5
20E
100
AcDbEntity
  8
M03
100
AcDbLine
 10
480.429185
 20
459.489271
 30
0.0
 11
565.100758
 21
544.160844
 31
0.0
  0
LINE
  5
20F
100
AcDbEntity
  8
CENTRE
100
AcDbLine
 10
462.044409
 20
435.44764
 30
0.0
 11
570.757613
 21
544.160844
 31
0.0
  0
LINE
  5
210
100
AcDbEntity
  8
M04
100
AcDbLine
 10
585.983009
 20
586.160844
 30
0.0
 11
636.532216
 21
586.160844
 31
0.0
  0
LINE
  5
211
100
AcDbEntity
  8
M03
100
AcDbLine
 10
570.757613
 20
540.160844
 30
0.0
 11
745.757613
 21
540.160844
 31
0.0
  0
LINE
  5
212
100
AcDbEntity
  8
M03
100
AcDbLine
 10
570.757613
 20
548.160844
 30
0.0
 11
745.757613
 21
548.160844
 31
0.0
  0
LINE
  5
213
100
AcDbEntity
  8
DIMS
100
AcDbLine
 10
851.188449
 20
684.80877
 30
0.0
 11
868.796994
 21
667.200225
 31
0.0
  0
INSERT
  5
214
100
AcDbEntity
  8
DIMS
100
AcDbBlockReference
  2
ARROW1
 10
851.188449
 20
684.80877
 30
0.0
 41
10.0
 42
10.0
 43
10.0
 50
135.0
  0
LINE
  5
21B
100
AcDbEntity
  8
DIMS
100
AcDbLine
 10
327.635032
 20
569.063087
 30
0.0
 11
327.635032
 21
544.160844
 31
0.0
  0
INSERT
  5
21C
100
AcDbEntity
  8
DIMS
100
AcDbBlockReference
  2
ARROW1
 10
327.635032
 20
569.063087
 30
0.0
 41
10.0
 42
10.0
 43
10.0
 50
90.0
  0
LINE
  5
21D
100
AcDbEntity
  8
M04
100
AcDbLine
 10
942.257613
 20
576.160844
 30
0.0
 11
844.983009
 21
576.160844
 31
0.0
  0
LINE
  5
21E
100
AcDbEntity
  8
M01
100
AcDbLine
 10
919.201713
 20
559.410844
 30
0.0
 11
919.201713
 21
552.910844
 31
0.0
  0
LINE
  5
21F
100
AcDbEntity
  8
M01
100
AcDbLine
 10
927.313512
 20
559.410844
 30
0.0
 11
927.313512
 21
552.910844
 31
0.0
  0
LINE
  5
220
100
AcDbEntity
  8
M01
100
AcDbLine
 10
919.201713
 20
559.410844
 30
0.0
 11
917.257613
 21
559.410844
 31
0.0
  0
ARC
  5
221
100
AcDbEntity
  8
M01
100
AcDbCircle
 10
920.762962
 20
560.660844
 30
0.0
 40
2.0
100
AcDbArc
 50
218.682187
 51
270.0
  0
ARC
  5
222
100
AcDbEntity
  8
M01
100
AcDbCircle
 10
925.752263
 20
560.660844
 30
0.0
 40
2.0
100
AcDbArc
 50
270.0
 51
321.317813
  0
LINE
  5
223
100
AcDbEntity
  8
M01
100
AcDbLine
 10
929.257613
 20
559.410844
 30
0.0
 11
927.313512
 21
559.410844
 31
0.0
  0
LINE
  5
224
100
AcDbEntity
  8
M01
100
AcDbLine
 10
925.752263
 20
558.660844
 30
0.0
 11
920.762962
 21
558.660844
 31
0.0
  0
LINE
  5
225
100
AcDbEntity
  8
M01
100
AcDbLine
 10
919.201713
 20
552.910844
 30
0.0
 11
917.257613
 21
552.910844
 31
0.0
  0
ARC
  5
226
100
AcDbEntity
  8
M01
100
AcDbCircle
 10
920.762962
 20
551.660844
 30
0.0
 40
2.0
100
AcDbArc
 50
90.0
 51
141.317813
  0
ARC
  5
227
100
AcDbEntity
  8
M01
100
AcDbCircle
 10
925.752263
 20
551.660844
 30
0.0
 40
2.0
100
AcDbArc
 50
38.682187
 51
90.0
  0
LINE
  5
228
100
AcDbEntity
  8
M01
100
AcDbLine
 10
929.257613
 20
552.910844
 30
0.0
 11
927.313512
 21
552.910844
 31
0.0
  0
LINE
  5
229
100
AcDbEntity
  8
M01
100
AcDbLine
 10
925.752263
 20
553.660844
 30
0.0
 11
920.762962
 21
553.660844
 31
0.0
  0
LINE
  5
22A
100
AcDbEntity
  8
M01
100
AcDbLine
 10
929.257613
 20
551.660844
 30
0.0
 11
929.257613
 21
560.660844
 31
0.0
  0
LINE
  5
22B
100
AcDbEntity
  8
M01
100
AcDbLine
 10
930.057613
 20
560.660844
 30
0.0
 11
929.257613
 21
560.660844
 31
0.0
  0
LINE
  5
22C
100
AcDbEntity
  8
M01
100
AcDbLine
 10
930.057613
 20
551.660844
 30
0.0
 11
929.257613
 21
551.660844
 31
0.0
  0
LINE
  5
22D
100
AcDbEntity
  8
M01
100
AcDbLine
 10
919.201713
 20
528.910844
 30
0.0
 11
919.201713
 21
535.410844
 31
0.0
  0
LINE
  5
22E
100
AcDbEntity
  8
M01
100
AcDbLine
 10
927.313512
 20
528.910844
 30
0.0
 11
927.313512
 21
535.410844
 31
0.0
  0
LINE
  5
22F
100
AcDbEntity
  8
M01
100
AcDbLine
 10
919.201713
 20
528.910844
 30
0.0
 11
917.257613
 21
528.910844
 31
0.0
  0
ARC
  5
230
100
AcDbEntity
  8
M01
100
AcDbCircle
 10
920.762962
 20
527.660844
 30
0.0
 40
2.0
100
AcDbArc
 50
90.0
 51
141.317813
  0
ARC
  5
231
100
AcDbEntity
  8
M01
100
AcDbCircle
 10
925.752263
 20
527.660844
 30
0.0
 40
2.0
100
AcDbArc
 50
38.682187
 51
90.0
  0
LINE
  5
232
100
AcDbEntity
  8
M01
100
AcDbLine
 10
929.257613
 20
528.910844
 30
0.0
 11
927.313512
 21
528.910844
 31
0.0
  0
LINE
  5
233
100
AcDbEntity
  8
M01
100
AcDbLine
 10
925.752263
 20
529.660844
 30
0.0
 11
920.762962
 21
529.660844
 31
0.0
  0
LINE
  5
234
100
AcDbEntity
  8
M01
100
AcDbLine
 10
919.201713
 20
535.410844
 30
0.0
 11
917.257613
 21
535.410844
 31
0.0
  0
ARC
  5
235
100
AcDbEntity
  8
M01
100
AcDbCircle
 10
920.762962
 20
536.660844
 30
0.0
 40
2.0
100
AcDbArc
 50
218.682187
 51
270.0
  0
ARC
  5
236
100
AcDbEntity
  8
M01
100
AcDbCircle
 10
925.752263
 20
536.660844
 30
0.0
 40
2.0
100
AcDbArc
 50
270.0
 51
321.317813
  0
LINE
  5
237
100
AcDbEntity
  8
M01
100
AcDbLine
 10
929.257613
 20
535.410844
 30
0.0
 11
927.313512
 21
535.410844
 31
0.0
  0
LINE
  5
238
100
AcDbEntity
  8
M01
100
AcDbLine
 10
925.752263
 20
534.660844
 30
0.0
 11
920.762962
 21
534.660844
 31
0.0
  0
LINE
  5
239
100
AcDbEntity
  8
M01
100
AcDbLine
 10
912.257613
 20
561.160844
 30
0.0
 11
912.257613
 21
551.160844
 31
0.0
  0
LINE
  5
23A
100
AcDbEntity
  8
M01
100
AcDbLine
 10
912.257613
 20
527.160844
 30
0.0
 11
912.257613
 21
537.160844
 31
0.0
  0
LINE
  5
23B
100
AcDbEntity
  8
M01
100
AcDbLine
 10
917.257613
 20
527.160844
 30
0.0
 11
897.257613
 21
527.160844
 31
0.0
  0
LINE
  5
23C
100
AcDbEntity
  8
M01
100
AcDbLine
 10
917.257613
 20
537.160844
 30
0.0
 11
897.257613
 21
537.160844
 31
0.0
  0
LINE
  5
23D
100
AcDbEntity
  8
M01
100
AcDbLine
 10
917.257613
 20
551.160844
 30
0.0
 11
897.257613
 21
551.160844
 31
0.0
  0
LINE
  5
23E
100
AcDbEntity
  8
M01
100
AcDbLine
 10
917.257613
 20
561.160844
 30
0.0
 11
897.257613
 21
561.160844
 31
0.0
  0
LINE
  5
23F
100
AcDbEntity
  8
M01
100
AcDbLine
 10
939.157613
 20
559.191933
 30
0.0
 11
939.157613
 21
553.129755
 31
0.0
  0
ARC
  5
240
100
AcDbEntity
  8
M01
100
AcDbCircle
 10
937.308307
 20
553.129755
 30
0.0
 40
1.150694
100
AcDbArc
 50
118.592423
 51
241.407577
  0
ARC
  5
241
100
AcDbEntity
  8
M01
100
AcDbCircle
 10
939.86039
 20
556.160844
 30
0.0
 40
3.702778
100
AcDbArc
 50
146.92527
 51
213.07473
  0
ARC
  5
242
100
AcDbEntity
  8
M01
100
AcDbCircle
 10
937.308307
 20
559.191933
 30
0.0
 40
1.150694
100
AcDbArc
 50
118.592423
 51
241.407577
  0
ARC
  5
243
100
AcDbEntity
  8
M01
100
AcDbCircle
 10
938.006918
 20
553.129755
 30
0.0
 40
1.150694
100
AcDbArc
 50
298.592423
 51
61.407577
  0
ARC
  5
244
100
AcDbEntity
  8
M01
100
AcDbCircle
 10
935.454835
 20
556.160844
 30
0.0
 40
3.702778
100
AcDbArc
 50
326.92527
 51
33.07473
  0
LINE
  5
245
100
AcDbEntity
  8
M01
100
AcDbLine
 10
938.557613
 20
554.140118
 30
0.0
 11
936.757613
 21
554.140118
 31
0.0
  0
LINE
  5
246
100
AcDbEntity
  8
M01
100
AcDbLine
 10
938.557613
 20
552.119392
 30
0.0
 11
936.757613
 21
552.119392
 31
0.0
  0
ARC
  5
247
100
AcDbEntity
  8
M01
100
AcDbCircle
 10
938.006918
 20
559.191933
 30
0.0
 40
1.150694
100
AcDbArc
 50
298.592423
 51
61.407577
  0
LINE
  5
248
100
AcDbEntity
  8
M01
100
AcDbLine
 10
938.557613
 20
558.18157
 30
0.0
 11
936.757613
 21
558.18157
 31
0.0
  0
LINE
  5
249
100
AcDbEntity
  8
M01
100
AcDbLine
 10
938.557613
 20
560.202296
 30
0.0
 11
936.757613
 21
560.202296
 31
0.0
  0
LINE
  5
24A
100
AcDbEntity
  8
M01
100
AcDbLine
 10
933.857613
 20
551.160844
 30
0.0
 11
935.357613
 21
551.160844
 31
0.0
  0
LINE
  5
24B
100
AcDbEntity
  8
M01
100
AcDbLine
 10
933.857613
 20
561.160844
 30
0.0
 11
935.357613
 21
561.160844
 31
0.0
  0
LINE
  5
24C
100
AcDbEntity
  8
M01
100
AcDbLine
 10
935.357613
 20
551.660844
 30
0.0
 11
936.157613
 21
551.660844
 31
0.0
  0
LINE
  5
24D
100
AcDbEntity
  8
M01
100
AcDbLine
 10
935.357613
 20
560.660844
 30
0.0
 11
936.157613
 21
560.660844
 31
0.0
  0
LINE
  5
24E
100
AcDbEntity
  8
M01
100
AcDbLine
 10
936.157613
 20
560.660844
 30
0.0
 11
936.157613
 21
551.660844
 31
0.0
  0
LINE
  5
24F
100
AcDbEntity
  8
M01
100
AcDbLine
 10
935.357613
 20
561.160844
 30
0.0
 11
935.357613
 21
551.160844
 31
0.0
  0
LINE
  5
250
100
AcDbEntity
  8
M01
100
AcDbLine
 10
933.057613
 20
551.660844
 30
0.0
 11
933.857613
 21
551.660844
 31
0.0
  0
LINE
  5
251
100
AcDbEntity
  8
M01
100
AcDbLine
 10
933.057613
 20
560.660844
 30
0.0
 11
933.857613
 21
560.660844
 31
0.0
  0
LINE
  5
252
100
AcDbEntity
  8
M01
100
AcDbLine
 10
933.857613
 20
561.160844
 30
0.0
 11
933.857613
 21
551.160844
 31
0.0
  0
ARC
  5
253
100
AcDbEntity
  8
M01
100
AcDbCircle
 10
931.208307
 20
553.129755
 30
0.0
 40
1.150694
100
AcDbArc
 50
118.592423
 51
241.407577
  0
ARC
  5
254
100
AcDbEntity
  8
M01
100
AcDbCircle
 10
933.76039
 20
556.160844
 30
0.0
 40
3.702778
100
AcDbArc
 50
146.92527
 51
213.07473
  0
ARC
  5
255
100
AcDbEntity
  8
M01
100
AcDbCircle
 10
931.208307
 20
559.191933
 30
0.0
 40
1.150694
100
AcDbArc
 50
118.592423
 51
241.407577
  0
ARC
  5
256
100
AcDbEntity
  8
M01
100
AcDbCircle
 10
931.906918
 20
553.129755
 30
0.0
 40
1.150694
100
AcDbArc
 50
298.592423
 51
61.407577
  0
ARC
  5
257
100
AcDbEntity
  8
M01
100
AcDbCircle
 10
929.354835
 20
556.160844
 30
0.0
 40
3.702778
100
AcDbArc
 50
326.92527
 51
33.07473
  0
LINE
  5
258
100
AcDbEntity
  8
M01
100
AcDbLine
 10
932.457613
 20
554.140118
 30
0.0
 11
930.657613
 21
554.140118
 31
0.0
  0
LINE
  5
259
100
AcDbEntity
  8
M01
100
AcDbLine
 10
932.457613
 20
552.119392
 30
0.0
 11
930.657613
 21
552.119392
 31
0.0
  0
ARC
  5
25A
100
AcDbEntity
  8
M01
100
AcDbCircle
 10
931.906918
 20
559.191933
 30
0.0
 40
1.150694
100
AcDbArc
 50
298.592423
 51
61.407577
  0
LINE
  5
25B
100
AcDbEntity
  8
M01
100
AcDbLine
 10
932.457613
 20
558.18157
 30
0.0
 11
930.657613
 21
558.18157
 31
0.0
  0
LINE
  5
25C
100
AcDbEntity
  8
M01
100
AcDbLine
 10
932.457613
 20
560.202296
 30
0.0
 11
930.657613
 21
560.202296
 31
0.0
  0
LINE
  5
25D
100
AcDbEntity
  8
M01
100
AcDbLine
 10
933.057613
 20
560.660844
 30
0.0
 11
933.057613
 21
551.660844
 31
0.0
  0
LINE
  5
25E
100
AcDbEntity
  8
M01
100
AcDbLine
 10
930.057613
 20
560.660844
 30
0.0
 11
930.057613
 21
551.660844
 31
0.0
  0
LINE
  5
25F
100
AcDbEntity
  8
M01
100
AcDbLine
 10
942.257613
 20
554.660844
 30
0.0
 11
941.757613
 21
554.160844
 31
0.0
  0
LINE
  5
260
100
AcDbEntity
  8
M01
100
AcDbLine
 10
941.757613
 20
558.160844
 30
0.0
 11
942.257613
 21
557.660844
 31
0.0
  0
LINE
  5
261
100
AcDbEntity
  8
M01
100
AcDbLine
 10
941.757613
 20
558.160844
 30
0.0
 11
941.757613
 21
554.160844
 31
0.0
  0
LINE
  5
262
100
AcDbEntity
  8
M01
100
AcDbLine
 10
942.257613
 20
554.660844
 30
0.0
 11
939.157613
 21
554.660844
 31
0.0
  0
LINE
  5
263
100
AcDbEntity
  8
M01
100
AcDbLine
 10
942.257613
 20
557.660844
 30
0.0
 11
939.157613
 21
557.660844
 31
0.0
  0
LINE
  5
264
100
AcDbEntity
  8
M01
100
AcDbLine
 10
941.757613
 20
558.160844
 30
0.0
 11
939.157613
 21
558.160844
 31
0.0
  0
LINE
  5
265
100
AcDbEntity
  8
M01
100
AcDbLine
 10
941.757613
 20
554.160844
 30
0.0
 11
939.157613
 21
554.160844
 31
0.0
  0
LINE
  5
266
100
AcDbEntity
  8
M01
100
AcDbLine
 10
942.257613
 20
557.660844
 30
0.0
 11
942.257613
 21
554.660844
 31
0.0
  0
LINE
  5
267
100
AcDbEntity
  8
M01
100
AcDbLine
 10
917.257613
 20
561.160844
 30
0.0
 11
917.257613
 21
551.160844
 31
0.0
  0
LINE
  5
268
100
AcDbEntity
  8
CENTRE
100
AcDbLine
 10
948.418502
 20
556.160844
 30
0.0
 11
884.82507
 21
556.160844
 31
0.0
  0
LINE
  5
269
100
AcDbEntity
  8
M01
100
AcDbLine
 10
939.157613
 20
529.129755
 30
0.0
 11
939.157613
 21
535.191933
 31
0.0
  0
ARC
  5
26A
100
AcDbEntity
  8
M01
100
AcDbCircle
 10
937.308307
 20
535.191933
 30
0.0
 40
1.150694
100
AcDbArc
 50
118.592423
 51
241.407577
  0
ARC
  5
26B
100
AcDbEntity
  8
M01
100
AcDbCircle
 10
939.86039
 20
532.160844
 30
0.0
 40
3.702778
100
AcDbArc
 50
146.92527
 51
213.07473
  0
ARC
  5
26C
100
AcDbEntity
  8
M01
100
AcDbCircle
 10
937.308307
 20
529.129755
 30
0.0
 40
1.150694
100
AcDbArc
 50
118.592423
 51
241.407577
  0
ARC
  5
26D
100
AcDbEntity
  8
M01
100
AcDbCircle
 10
938.006918
 20
535.191933
 30
0.0
 40
1.150694
100
AcDbArc
 50
298.592423
 51
61.407577
  0
ARC
  5
26E
100
AcDbEntity
  8
M01
100
AcDbCircle
 10
935.454835
 20
532.160844
 30
0.0
 40
3.702778
100
AcDbArc
 50
326.92527
 51
33.07473
  0
LINE
  5
26F
100
AcDbEntity
  8
M01
100
AcDbLine
 10
938.557613
 20
534.18157
 30
0.0
 11
936.757613
 21
534.18157
 31
0.0
  0
LINE
  5
270
100
AcDbEntity
  8
M01
100
AcDbLine
 10
938.557613
 20
536.202296
 30
0.0
 11
936.757613
 21
536.202296
 31
0.0
  0
ARC
  5
271
100
AcDbEntity
  8
M01
100
AcDbCircle
 10
938.006918
 20
529.129755
 30
0.0
 40
1.150694
100
AcDbArc
 50
298.592423
 51
61.407577
  0
LINE
  5
272
100
AcDbEntity
  8
M01
100
AcDbLine
 10
938.557613
 20
530.140118
 30
0.0
 11
936.757613
 21
530.140118
 31
0.0
  0
LINE
  5
273
100
AcDbEntity
  8
M01
100
AcDbLine
 10
938.557613
 20
528.119392
 30
0.0
 11
936.757613
 21
528.119392
 31
0.0
  0
LINE
  5
274
100
AcDbEntity
  8
M01
100
AcDbLine
 10
933.857613
 20
537.160844
 30
0.0
 11
935.357613
 21
537.160844
 31
0.0
  0
LINE
  5
275
100
AcDbEntity
  8
M01
100
AcDbLine
 10
933.857613
 20
527.160844
 30
0.0
 11
935.357613
 21
527.160844
 31
0.0
  0
LINE
  5
276
100
AcDbEntity
  8
M01
100
AcDbLine
 10
935.357613
 20
536.660844
 30
0.0
 11
936.157613
 21
536.660844
 31
0.0
  0
LINE
  5
277
100
AcDbEntity
  8
M01
100
AcDbLine
 10
935.357613
 20
527.660844
 30
0.0
 11
936.157613
 21
527.660844
 31
0.0
  0
LINE
  5
278
100
AcDbEntity
  8
M01
100
AcDbLine
 10
936.157613
 20
527.660844
 30
0.0
 11
936.157613
 21
536.660844
 31
0.0
  0
LINE
  5
279
100
AcDbEntity
  8
M01
100
AcDbLine
 10
935.357613
 20
527.160844
 30
0.0
 11
935.357613
 21
537.160844
 31
0.0
  0
LINE
  5
27A
100
AcDbEntity
  8
M01
100
AcDbLine
 10
933.057613
 20
536.660844
 30
0.0
 11
933.857613
 21
536.660844
 31
0.0
  0
LINE
  5
27B
100
AcDbEntity
  8
M01
100
AcDbLine
 10
933.057613
 20
527.660844
 30
0.0
 11
933.857613
 21
527.660844
 31
0.0
  0
LINE
  5
27C
100
AcDbEntity
  8
M01
100
AcDbLine
 10
933.857613
 20
527.160844
 30
0.0
 11
933.857613
 21
537.160844
 31
0.0
  0
ARC
  5
27D
100
AcDbEntity
  8
M01
100
AcDbCircle
 10
931.208307
 20
535.191933
 30
0.0
 40
1.150694
100
AcDbArc
 50
118.592423
 51
241.407577
  0
ARC
  5
27E
100
AcDbEntity
  8
M01
100
AcDbCircle
 10
933.76039
 20
532.160844
 30
0.0
 40
3.702778
100
AcDbArc
 50
146.92527
 51
213.07473
  0
ARC
  5
27F
100
AcDbEntity
  8
M01
100
AcDbCircle
 10
931.208307
 20
529.129755
 30
0.0
 40
1.150694
100
AcDbArc
 50
118.592423
 51
241.407577
  0
ARC
  5
280
100
AcDbEntity
  8
M01
100
AcDbCircle
 10
931.906918
 20
535.191933
 30
0.0
 40
1.150694
100
AcDbArc
 50
298.592423
 51
61.407577
  0
ARC
  5
281
100
AcDbEntity
  8
M01
100
AcDbCircle
 10
929.354835
 20
532.160844
 30
0.0
 40
3.702778
100
AcDbArc
 50
326.92527
 51
33.07473
  0
LINE
  5
282
100
AcDbEntity
  8
M01
100
AcDbLine
 10
932.457613
 20
534.18157
 30
0.0
 11
930.657613
 21
534.18157
 31
0.0
  0
LINE
  5
283
100
AcDbEntity
  8
M01
100
AcDbLine
 10
932.457613
 20
536.202296
 30
0.0
 11
930.657613
 21
536.202296
 31
0.0
  0
ARC
  5
284
100
AcDbEntity
  8
M01
100
AcDbCircle
 10
931.906918
 20
529.129755
 30
0.0
 40
1.150694
100
AcDbArc
 50
298.592423
 51
61.407577
  0
LINE
  5
285
100
AcDbEntity
  8
M01
100
AcDbLine
 10
932.457613
 20
530.140118
 30
0.0
 11
930.657613
 21
530.140118
 31
0.0
  0
LINE
  5
286
100
AcDbEntity
  8
M01
100
AcDbLine
 10
932.457613
 20
528.119392
 30
0.0
 11
930.657613
 21
528.119392
 31
0.0
  0
LINE
  5
287
100
AcDbEntity
  8
M01
100
AcDbLine
 10
933.057613
 20
527.660844
 30
0.0
 11
933.057613
 21
536.660844
 31
0.0
  0
LINE
  5
288
100
AcDbEntity
  8
M01
100
AcDbLine
 10
930.057613
 20
527.660844
 30
0.0
 11
930.057613
 21
536.660844
 31
0.0
  0
LINE
  5
289
100
AcDbEntity
  8
M01
100
AcDbLine
 10
929.257613
 20
527.660844
 30
0.0
 11
929.257613
 21
536.660844
 31
0.0
  0
LINE
  5
28A
100
AcDbEntity
  8
M04
100
AcDbLine
 10
957.257613
 20
561.160844
 30
0.0
 11
977.929091
 21
561.160844
 31
0.0
  0
LINE
  5
28B
100
AcDbEntity
  8
M04
100
AcDbLine
 10
957.257613
 20
527.160844
 30
0.0
 11
977.929091
 21
527.160844
 31
0.0
  0
ARC
  5
28C
100
AcDbEntity
  8
M04
100
AcDbCircle
 10
942.257613
 20
561.160844
 30
0.0
 40
15.0
100
AcDbArc
 50
0.0
 51
90.0
  0
ARC
  5
28D
100
AcDbEntity
  8
M04
100
AcDbCircle
 10
942.257613
 20
527.160844
 30
0.0
 40
15.0
100
AcDbArc
 50
270.0
 51
0.0
  0
LINE
  5
28E
100
AcDbEntity
  8
M04
100
AcDbLine
 10
957.257613
 20
527.160844
 30
0.0
 11
957.257613
 21
561.160844
 31
0.0
  0
LINE
  5
28F
100
AcDbEntity
  8
M01
100
AcDbLine
 10
942.257613
 20
533.660844
 30
0.0
 11
941.757613
 21
534.160844
 31
0.0
  0
LINE
  5
290
100
AcDbEntity
  8
M01
100
AcDbLine
 10
941.757613
 20
530.160844
 30
0.0
 11
942.257613
 21
530.660844
 31
0.0
  0
LINE
  5
291
100
AcDbEntity
  8
M01
100
AcDbLine
 10
941.757613
 20
530.160844
 30
0.0
 11
941.757613
 21
534.160844
 31
0.0
  0
LINE
  5
292
100
AcDbEntity
  8
M01
100
AcDbLine
 10
942.257613
 20
533.660844
 30
0.0
 11
939.157613
 21
533.660844
 31
0.0
  0
LINE
  5
293
100
AcDbEntity
  8
M01
100
AcDbLine
 10
942.257613
 20
530.660844
 30
0.0
 11
939.157613
 21
530.660844
 31
0.0
  0
LINE
  5
294
100
AcDbEntity
  8
M01
100
AcDbLine
 10
941.757613
 20
530.160844
 30
0.0
 11
939.157613
 21
530.160844
 31
0.0
  0
LINE
  5
295
100
AcDbEntity
  8
M01
100
AcDbLine
 10
941.757613
 20
534.160844
 30
0.0
 11
939.157613
 21
534.160844
 31
0.0
  0
LINE
  5
296
100
AcDbEntity
  8
M01
100
AcDbLine
 10
942.257613
 20
530.660844
 30
0.0
 11
942.257613
 21
533.660844
 31
0.0
  0
LINE
  5
297
100
AcDbEntity
  8
M01
100
AcDbLine
 10
917.257613
 20
527.160844
 30
0.0
 11
917.257613
 21
537.160844
 31
0.0
  0
LINE
  5
298
100
AcDbEntity
  8
M01
100
AcDbLine
 10
930.057613
 20
536.660844
 30
0.0
 11
929.257613
 21
536.660844
 31
0.0
  0
LINE
  5
299
100
AcDbEntity
  8
M01
100
AcDbLine
 10
930.057613
 20
527.660844
 30
0.0
 11
929.257613
 21
527.660844
 31
0.0
  0
LINE
  5
29A
100
AcDbEntity
  8
CENTRE
100
AcDbLine
 10
948.418502
 20
532.160844
 30
0.0
 11
884.82507
 21
532.160844
 31
0.0
  0
LINE
  5
29B
100
AcDbEntity
  8
M04
100
AcDbLine
 10
942.257613
 20
512.160844
 30
0.0
 11
844.983009
 21
512.160844
 31
0.0
  0
LINE
  5
29C
100
AcDbEntity
  8
M01
100
AcDbLine
 10
897.257613
 20
564.160844
 30
0.0
 11
895.257613
 21
566.160844
 31
0.0
  0
LINE
  5
29D
100
AcDbEntity
  8
M01
100
AcDbLine
 10
895.257613
 20
522.160844
 30
0.0
 11
897.257613
 21
524.160844
 31
0.0
  0
LINE
  5
29E
100
AcDbEntity
  8
M01
100
AcDbLine
 10
897.257613
 20
524.160844
 30
0.0
 11
897.257613
 21
564.160844
 31
0.0
  0
LINE
  5
29F
100
AcDbEntity
  8
M01
100
AcDbLine
 10
895.257613
 20
566.160844
 30
0.0
 11
841.983009
 21
566.160844
 31
0.0
  0
LINE
  5
2A0
100
AcDbEntity
  8
M01
100
AcDbLine
 10
895.257613
 20
522.160844
 30
0.0
 11
841.983009
 21
522.160844
 31
0.0
  0
LINE
  5
2A1
100
AcDbEntity
  8
DIMS
 62
     4
100
AcDbLine
 10
570.757613
 20
547.560844
 30
0.0
 11
570.757613
 21
549.860844
 31
0.0
  0
LINE
  5
2A2
100
AcDbEntity
  8
DIMS
 62
     4
100
AcDbLine
 10
570.757613
 20
540.760844
 30
0.0
 11
570.757613
 21
538.460844
 31
0.0
  0
LINE
  5
2A3
100
AcDbEntity
  8
DIMS
 62
     4
100
AcDbLine
 10
570.757613
 20
542.460844
 30
0.0
 11
570.757613
 21
545.860844
 31
0.0
  0
CIRCLE
  5
2A4
100
AcDbEntity
  8
M03
100
AcDbCircle
 10
570.757613
 20
544.160844
 30
0.0
 40
4.0
  0
LINE
  5
2A5
100
AcDbEntity
  8
M03
100
AcDbLine
 10
570.757613
 20
538.50399
 30
0.0
 11
655.429185
 21
453.832417
 31
0.0
  0
LINE
  5
2A6
100
AcDbEntity
  8
M01
100
AcDbLine
 10
585.983009
 20
579.160844
 30
0.0
 11
636.532216
 21
579.160844
 31
0.0
  0
LINE
  5
2A7
100
AcDbEntity
  8
M03
100
AcDbLine
 10
661.08604
 20
634.489271
 30
0.0
 11
745.757613
 21
549.817698
 31
0.0
  0
LINE
  5
2A8
100
AcDbEntity
  8
M03
100
AcDbLine
 10
655.429185
 20
628.832417
 30
0.0
 11
830.429185
 21
453.832417
 31
0.0
  0
LINE
  5
2A9
100
AcDbEntity
  8
CENTRE
100
AcDbLine
 10
637.044409
 20
652.874047
 30
0.0
 11
854.470816
 21
435.44764
 31
0.0
  0
LINE
  5
2AA
100
AcDbEntity
  8
M04
100
AcDbLine
 10
374.257613
 20
576.160844
 30
0.0
 11
471.532216
 21
576.160844
 31
0.0
  0
MTEXT
  5
2AB
100
AcDbEntity
  8
0
  6
BYBLOCK
 62
     2
100
AcDbMText
 10
891.682849
 20
614.735459
 30
0.0
 40
3.0
 41
0.0
 71
     4
 72
     1
  1
M12 PLATE RETAINING SCREWS SHOULD ALSO BE FITTED.\PMINIMUM 2 PER DROP & ALSO AROUND MANIFOLD POCKET.
  0
LINE
  5
2AC
100
AcDbEntity
  8
DIMS
 62
     4
100
AcDbLine
 10
574.157613
 20
271.608777
 30
0.0
 11
576.457613
 21
271.608777
 31
0.0
  0
LINE
  5
2AD
100
AcDbEntity
  8
DIMS
 62
     4
100
AcDbLine
 10
567.357613
 20
271.608777
 30
0.0
 11
565.057613
 21
271.608777
 31
0.0
  0
LINE
  5
2AE
100
AcDbEntity
  8
DIMS
 62
     4
100
AcDbLine
 10
569.057613
 20
271.608777
 30
0.0
 11
572.457613
 21
271.608777
 31
0.0
  0
LINE
  5
2AF
102
{ACAD_REACTORS
330
93
102
}
100
AcDbEntity
  8
M02
100
AcDbLine
 10
857.257613
 20
225.608777
 30
0.0
 11
863.257613
 21
225.608777
 31
0.0
  0
LINE
  5
2B1
102
{ACAD_REACTORS
330
92
102
}
100
AcDbEntity
  8
M02
100
AcDbLine
 10
692.257613
 20
225.608777
 30
0.0
 11
809.257613
 21
225.608777
 31
0.0
  0
LINE
  5
2B2
102
{ACAD_REACTORS
330
93
102
}
100
AcDbEntity
  8
M02
100
AcDbLine
 10
863.257613
 20
228.608777
 30
0.0
 11
863.257613
 21
225.608777
 31
0.0
  0
LINE
  5
2B3
102
{ACAD_REACTORS
330
F6
102
}
100
AcDbEntity
  8
M04
100
AcDbLine
 10
836.257613
 20
221.608777
 30
0.0
 11
883.771004
 21
221.608777
 31
0.0
  0
LINE
  5
2B4
102
{ACAD_REACTORS
330
F6
330
93
330
92
102
}
100
AcDbEntity
  8
M01
100
AcDbLine
 10
668.257613
 20
228.608777
 30
0.0
 11
863.257613
 21
228.608777
 31
0.0
  0
HATCH
  5
2B5
100
AcDbEntity
  8
DIMS
100
AcDbHatch
 10
0.0
 20
0.0
 30
0.0
210
0.0
220
0.0
230
1.0
  2
_U
 70
     0
 71
     0
 91
        5
 92
        7
 72
     0
 73
     1
 93
        9
 10
689.75761256428
 20
226.6087771884045
 10
689.75761256428
 20
222.6087771884046
 10
691.5576125642803
 20
222.6087771884046
 10
692.2576125642804
 20
223.3087771884046
 10
692.2576125642802
 20
227.9087771884045
 10
691.5576125642798
 20
228.6087771884047
 10
687.95761256428
 20
228.6087771884047
 10
687.95761256428
 20
226.6087771884046
 10
689.5076125642802
 20
226.6087771884046
 97
        0
 92
        7
 72
     1
 73
     1
 93
       16
 10
677.5576125642799
 20
217.6087771884046
 42
0.0
 10
678.2576125642799
 20
218.3087771884044
 42
0.0
 10
678.2576125642799
 20
219.6087771884047
 42
0.0
 10
677.7576125642799
 20
219.6087771884045
 42
0.0
 10
677.7576125642799
 20
222.6087771884046
 42
0.0
 10
678.7576125642801
 20
222.6087771884046
 42
0.0
 10
678.7576125642801
 20
226.6087771884046
 42
0.0
 10
679.0076125642801
 20
226.6087771884046
 42
0.0
 10
680.5576125642801
 20
226.6087771884046
 42
0.0
 10
680.5576125642804
 20
228.6087771884047
 42
0.0
 10
668.2576125642799
 20
228.6087771884047
 42
0.0
 10
668.2576125642799
 20
237.6087771884045
 42
0.0
 10
667.2576125642799
 20
238.6087771884045
 42
0.0
 10
662.2576125642799
 20
238.6087771884045
 42
0.0
 10
661.2984865621759
 20
220.3075628415057
 42
-0.1092323044357264
 10
667.4227639541913
 20
217.6087771884045
 42
0.0
 97
        0
 92
        7
 72
     1
 73
     1
 93
       16
 10
655.2167385663838
 20
220.3075628415057
 42
0.0
 10
654.2576125642799
 20
238.6087771884045
 42
0.0
 10
649.2576125642799
 20
238.6087771884045
 42
0.0
 10
648.25761256428
 20
237.6087771884046
 42
0.0
 10
648.25761256428
 20
228.6087771884047
 42
0.0
 10
635.9576125642802
 20
228.6087771884047
 42
0.0
 10
635.9576125642802
 20
226.6087771884046
 42
0.0
 10
637.5076125642799
 20
226.6087771884046
 42
0.0
 10
637.7576125642799
 20
226.6087771884046
 42
0.0
 10
637.7576125642799
 20
222.6087771884047
 42
0.0
 10
638.7576125642799
 20
222.6087771884047
 42
0.0
 10
638.7576125642799
 20
219.6087771884044
 42
0.0
 10
638.2576125642799
 20
219.6087771884044
 42
0.0
 10
638.2576125642802
 20
218.3087771884042
 42
0.0
 10
638.95761256428
 20
217.6087771884043
 42
0.0
 10
649.0924611743682
 20
217.6087771884043
 42
-0.1092323044357263
 97
        0
 92
        7
 72
     0
 73
     1
 93
        9
 10
626.7576125642799
 20
226.6087771884045
 10
627.0076125642797
 20
226.6087771884045
 10
628.5576125642799
 20
226.6087771884045
 10
628.5576125642801
 20
228.6087771884047
 10
624.95761256428
 20
228.6087771884047
 10
624.2576125642797
 20
227.9087771884046
 10
624.2576125642797
 20
223.3087771884045
 10
624.9576125642797
 20
222.6087771884047
 10
626.7576125642801
 20
222.6087771884047
 97
        0
 92
       24
 93
        4
 72
     1
 10
662.831693
 20
223.676265
 11
677.203122
 21
223.676265
 72
     1
 10
677.203122
 20
223.676265
 11
677.203122
 21
226.676265
 72
     1
 10
677.203122
 20
226.676265
 11
662.831693
 21
226.676265
 72
     1
 10
662.831693
 20
226.676265
 11
662.831693
 21
223.676265
 97
        0
 75
     0
 76
     0
 52
135.0
 41
2.5
 77
     0
 78
     1
 53
135.0
 43
102.810372
 44
-18.877697
 45
-1.767766952966368
 46
-1.767766952966368
 79
     0
 47
0.085632
 98
        4
 10
690.754575
 20
226.966762
 10
673.10713
 20
220.972532
 10
650.319651
 20
222.171378
 10
626.075832
 20
226.966762
  0
LINE
  5
2B6
100
AcDbEntity
  8
M04
100
AcDbLine
 10
635.257613
 20
235.908777
 30
0.0
 11
635.257613
 21
238.408777
 31
0.0
  0
LINE
  5
2B7
100
AcDbEntity
  8
M04
100
AcDbLine
 10
634.557613
 20
236.608777
 30
0.0
 11
634.557613
 21
239.908777
 31
0.0
  0
LINE
  5
2B8
100
AcDbEntity
  8
M04
100
AcDbLine
 10
629.257613
 20
235.908777
 30
0.0
 11
629.257613
 21
238.408777
 31
0.0
  0
LINE
  5
2B9
100
AcDbEntity
  8
M04
100
AcDbLine
 10
629.957613
 20
236.608777
 30
0.0
 11
629.957613
 21
239.908777
 31
0.0
  0
LINE
  5
2BA
100
AcDbEntity
  8
M05
100
AcDbLine
 10
627.007613
 20
226.608777
 30
0.0
 11
637.507613
 21
226.608777
 31
0.0
  0
LINE
  5
2BB
100
AcDbEntity
  8
M04
100
AcDbLine
 10
637.507613
 20
226.608777
 30
0.0
 11
637.757613
 21
226.608777
 31
0.0
  0
LINE
  5
2BC
100
AcDbEntity
  8
M04
100
AcDbLine
 10
626.757613
 20
226.608777
 30
0.0
 11
626.757613
 21
222.608777
 31
0.0
  0
LINE
  5
2BD
100
AcDbEntity
  8
M04
100
AcDbLine
 10
637.757613
 20
226.608777
 30
0.0
 11
637.757613
 21
222.608777
 31
0.0
  0
LINE
  5
2BE
100
AcDbEntity
  8
M05
100
AcDbLine
 10
635.257613
 20
227.608777
 30
0.0
 11
629.257613
 21
227.608777
 31
0.0
  0
LINE
  5
2BF
100
AcDbEntity
  8
M04
100
AcDbLine
 10
629.957613
 20
239.908777
 30
0.0
 11
632.257613
 21
241.236683
 31
0.0
  0
LINE
  5
2C0
100
AcDbEntity
  8
M04
100
AcDbLine
 10
634.557613
 20
239.908777
 30
0.0
 11
632.257613
 21
241.236683
 31
0.0
  0
LINE
  5
2C1
100
AcDbEntity
  8
M04
100
AcDbLine
 10
634.557613
 20
239.908777
 30
0.0
 11
629.957613
 21
239.908777
 31
0.0
  0
LINE
  5
2C2
100
AcDbEntity
  8
M04
100
AcDbLine
 10
635.257613
 20
238.408777
 30
0.0
 11
629.257613
 21
238.408777
 31
0.0
  0
ARC
  5
2C3
100
AcDbEntity
  8
M05
100
AcDbCircle
 10
632.257613
 20
229.134914
 30
0.0
 40
5.826136
100
AcDbArc
 50
205.69541
 51
334.30459
  0
LINE
  5
2C4
100
AcDbEntity
  8
M05
100
AcDbLine
 10
629.257613
 20
235.908777
 30
0.0
 11
629.957613
 21
236.608777
 31
0.0
  0
LINE
  5
2C5
100
AcDbEntity
  8
M05
100
AcDbLine
 10
635.257613
 20
235.908777
 30
0.0
 11
634.557613
 21
236.608777
 31
0.0
  0
LINE
  5
2C6
100
AcDbEntity
  8
M05
100
AcDbLine
 10
635.257613
 20
235.908777
 30
0.0
 11
629.257613
 21
235.908777
 31
0.0
  0
LINE
  5
2C7
100
AcDbEntity
  8
M05
100
AcDbLine
 10
634.557613
 20
236.608777
 30
0.0
 11
629.957613
 21
236.608777
 31
0.0
  0
LINE
  5
2C8
100
AcDbEntity
  8
M04
100
AcDbLine
 10
635.957613
 20
228.608777
 30
0.0
 11
635.957613
 21
226.608777
 31
0.0
  0
LINE
  5
2C9
100
AcDbEntity
  8
M04
100
AcDbLine
 10
628.557613
 20
228.608777
 30
0.0
 11
628.557613
 21
226.608777
 31
0.0
  0
LINE
  5
2CA
100
AcDbEntity
  8
M05
100
AcDbLine
 10
629.957613
 20
236.608777
 30
0.0
 11
629.957613
 21
227.608777
 31
0.0
  0
LINE
  5
2CB
100
AcDbEntity
  8
M05
100
AcDbLine
 10
634.557613
 20
236.608777
 30
0.0
 11
634.557613
 21
227.608777
 31
0.0
  0
LINE
  5
2CC
100
AcDbEntity
  8
M05
100
AcDbLine
 10
635.257613
 20
235.908777
 30
0.0
 11
635.257613
 21
226.608777
 31
0.0
  0
LINE
  5
2CD
100
AcDbEntity
  8
M05
100
AcDbLine
 10
629.257613
 20
235.908777
 30
0.0
 11
629.257613
 21
226.608777
 31
0.0
  0
LINE
  5
2CE
100
AcDbEntity
  8
M04
100
AcDbLine
 10
626.757613
 20
226.608777
 30
0.0
 11
627.007613
 21
226.608777
 31
0.0
  0
LINE
  5
2CF
100
AcDbEntity
  8
CENTRE
100
AcDbLine
 10
632.257613
 20
243.875278
 30
0.0
 11
632.257613
 21
218.962589
 31
0.0
  0
LINE
  5
2D0
100
AcDbEntity
  8
M04
100
AcDbLine
 10
681.257613
 20
235.908777
 30
0.0
 11
681.257613
 21
238.408777
 31
0.0
  0
LINE
  5
2D1
100
AcDbEntity
  8
M04
100
AcDbLine
 10
681.957613
 20
236.608777
 30
0.0
 11
681.957613
 21
239.908777
 31
0.0
  0
LINE
  5
2D2
100
AcDbEntity
  8
M04
100
AcDbLine
 10
687.257613
 20
235.908777
 30
0.0
 11
687.257613
 21
238.408777
 31
0.0
  0
LINE
  5
2D3
100
AcDbEntity
  8
M04
100
AcDbLine
 10
686.557613
 20
236.608777
 30
0.0
 11
686.557613
 21
239.908777
 31
0.0
  0
LINE
  5
2D4
100
AcDbEntity
  8
M05
100
AcDbLine
 10
689.507613
 20
226.608777
 30
0.0
 11
679.007613
 21
226.608777
 31
0.0
  0
LINE
  5
2D5
100
AcDbEntity
  8
M04
100
AcDbLine
 10
679.007613
 20
226.608777
 30
0.0
 11
678.757613
 21
226.608777
 31
0.0
  0
LINE
  5
2D6
100
AcDbEntity
  8
M04
100
AcDbLine
 10
689.757613
 20
226.608777
 30
0.0
 11
689.757613
 21
222.608777
 31
0.0
  0
LINE
  5
2D7
100
AcDbEntity
  8
M04
100
AcDbLine
 10
678.757613
 20
226.608777
 30
0.0
 11
678.757613
 21
222.608777
 31
0.0
  0
LINE
  5
2D8
100
AcDbEntity
  8
M05
100
AcDbLine
 10
681.257613
 20
227.608777
 30
0.0
 11
687.257613
 21
227.608777
 31
0.0
  0
LINE
  5
2D9
100
AcDbEntity
  8
M04
100
AcDbLine
 10
686.557613
 20
239.908777
 30
0.0
 11
684.257613
 21
241.236683
 31
0.0
  0
LINE
  5
2DA
100
AcDbEntity
  8
M04
100
AcDbLine
 10
681.957613
 20
239.908777
 30
0.0
 11
684.257613
 21
241.236683
 31
0.0
  0
LINE
  5
2DB
100
AcDbEntity
  8
M04
100
AcDbLine
 10
681.957613
 20
239.908777
 30
0.0
 11
686.557613
 21
239.908777
 31
0.0
  0
LINE
  5
2DC
100
AcDbEntity
  8
M04
100
AcDbLine
 10
681.257613
 20
238.408777
 30
0.0
 11
687.257613
 21
238.408777
 31
0.0
  0
ARC
  5
2DD
100
AcDbEntity
  8
M05
100
AcDbCircle
 10
684.257613
 20
229.134914
 30
0.0
 40
5.826136
100
AcDbArc
 50
205.69541
 51
334.30459
  0
LINE
  5
2DE
100
AcDbEntity
  8
M05
100
AcDbLine
 10
687.257613
 20
235.908777
 30
0.0
 11
686.557613
 21
236.608777
 31
0.0
  0
LINE
  5
2DF
100
AcDbEntity
  8
M05
100
AcDbLine
 10
681.257613
 20
235.908777
 30
0.0
 11
681.957613
 21
236.608777
 31
0.0
  0
LINE
  5
2E0
100
AcDbEntity
  8
M05
100
AcDbLine
 10
681.257613
 20
235.908777
 30
0.0
 11
687.257613
 21
235.908777
 31
0.0
  0
LINE
  5
2E1
100
AcDbEntity
  8
M05
100
AcDbLine
 10
681.957613
 20
236.608777
 30
0.0
 11
686.557613
 21
236.608777
 31
0.0
  0
LINE
  5
2E2
100
AcDbEntity
  8
M04
100
AcDbLine
 10
680.557613
 20
228.608777
 30
0.0
 11
680.557613
 21
226.608777
 31
0.0
  0
LINE
  5
2E3
100
AcDbEntity
  8
M04
100
AcDbLine
 10
687.957613
 20
228.608777
 30
0.0
 11
687.957613
 21
226.608777
 31
0.0
  0
LINE
  5
2E4
100
AcDbEntity
  8
M05
100
AcDbLine
 10
686.557613
 20
236.608777
 30
0.0
 11
686.557613
 21
227.608777
 31
0.0
  0
LINE
  5
2E5
100
AcDbEntity
  8
M05
100
AcDbLine
 10
681.957613
 20
236.608777
 30
0.0
 11
681.957613
 21
227.608777
 31
0.0
  0
LINE
  5
2E6
100
AcDbEntity
  8
M05
100
AcDbLine
 10
681.257613
 20
235.908777
 30
0.0
 11
681.257613
 21
226.608777
 31
0.0
  0
LINE
  5
2E7
100
AcDbEntity
  8
M05
100
AcDbLine
 10
687.257613
 20
235.908777
 30
0.0
 11
687.257613
 21
226.608777
 31
0.0
  0
LINE
  5
2E8
100
AcDbEntity
  8
M04
100
AcDbLine
 10
689.757613
 20
226.608777
 30
0.0
 11
689.507613
 21
226.608777
 31
0.0
  0
LINE
  5
2E9
100
AcDbEntity
  8
CENTRE
100
AcDbLine
 10
684.257613
 20
243.875278
 30
0.0
 11
684.257613
 21
218.962589
 31
0.0
  0
TEXT
  5
2EA
100
AcDbEntity
  8
TEXT
100
AcDbText
 10
663.331693
 20
224.176265
 30
0.0
 40
2.0
  1
MA010000
 41
0.9
100
AcDbText
  0
LINE
  5
2EB
100
AcDbEntity
  8
M04
100
AcDbLine
 10
628.257613
 20
203.608777
 30
0.0
 11
628.257613
 21
194.608777
 31
0.0
  0
LINE
  5
2EC
100
AcDbEntity
  8
M05
100
AcDbLine
 10
624.257613
 20
223.308777
 30
0.0
 11
624.957613
 21
222.608777
 31
0.0
  0
LINE
  5
2ED
102
{ACAD_REACTORS
330
90
102
}
100
AcDbEntity
  8
M02
100
AcDbLine
 10
623.257613
 20
228.608777
 30
0.0
 11
623.257613
 21
225.608777
 31
0.0
  0
LINE
  5
2EE
100
AcDbEntity
  8
M04
100
AcDbLine
 10
628.257613
 20
203.608777
 30
0.0
 11
688.257613
 21
203.608777
 31
0.0
  0
LINE
  5
2EF
100
AcDbEntity
  8
M04
100
AcDbLine
 10
638.257613
 20
213.608777
 30
0.0
 11
628.257613
 21
203.608777
 31
0.0
  0
LINE
  5
2F0
100
AcDbEntity
  8
M04
100
AcDbLine
 10
688.257613
 20
203.608777
 30
0.0
 11
688.257613
 21
194.608777
 31
0.0
  0
LINE
  5
2F1
100
AcDbEntity
  8
M04
100
AcDbLine
 10
678.257613
 20
213.608777
 30
0.0
 11
688.257613
 21
203.608777
 31
0.0
  0
LINE
  5
2F2
100
AcDbEntity
  8
M05
100
AcDbLine
 10
655.216739
 20
220.307563
 30
0.0
 11
661.298487
 21
220.307563
 31
0.0
  0
ARC
  5
2F3
100
AcDbEntity
  8
M05
100
AcDbCircle
 10
658.257613
 20
205.108777
 30
0.0
 40
15.5
100
AcDbArc
 50
101.313981
 51
126.249321
  0
LINE
  5
2F4
100
AcDbEntity
  8
M05
100
AcDbLine
 10
654.257613
 20
238.608777
 30
0.0
 11
655.216739
 21
220.307563
 31
0.0
  0
LINE
  5
2F5
100
AcDbEntity
  8
M05
100
AcDbLine
 10
662.257613
 20
238.608777
 30
0.0
 11
661.298487
 21
220.307563
 31
0.0
  0
ARC
  5
2F6
100
AcDbEntity
  8
M05
100
AcDbCircle
 10
658.257613
 20
205.108777
 30
0.0
 40
15.5
100
AcDbArc
 50
53.750679
 51
78.686019
  0
LINE
  5
2F7
100
AcDbEntity
  8
M04
100
AcDbLine
 10
638.257613
 20
219.608777
 30
0.0
 11
638.257613
 21
221.608777
 31
0.0
  0
LINE
  5
2F8
100
AcDbEntity
  8
M04
100
AcDbLine
 10
638.257613
 20
218.308777
 30
0.0
 11
638.257613
 21
213.608777
 31
0.0
  0
LINE
  5
2F9
100
AcDbEntity
  8
M04
100
AcDbLine
 10
678.257613
 20
219.608777
 30
0.0
 11
678.257613
 21
221.608777
 31
0.0
  0
LINE
  5
2FA
100
AcDbEntity
  8
M04
100
AcDbLine
 10
678.257613
 20
218.308777
 30
0.0
 11
678.257613
 21
213.608777
 31
0.0
  0
LINE
  5
2FB
100
AcDbEntity
  8
M04
100
AcDbLine
 10
678.257613
 20
213.608777
 30
0.0
 11
638.257613
 21
213.608777
 31
0.0
  0
LINE
  5
2FC
100
AcDbEntity
  8
M05
100
AcDbLine
 10
638.757613
 20
219.608777
 30
0.0
 11
638.257613
 21
219.608777
 31
0.0
  0
LINE
  5
2FD
100
AcDbEntity
  8
M05
100
AcDbLine
 10
638.757613
 20
222.608777
 30
0.0
 11
624.957613
 21
222.608777
 31
0.0
  0
LINE
  5
2FE
100
AcDbEntity
  8
M05
100
AcDbLine
 10
638.757613
 20
222.608777
 30
0.0
 11
638.757613
 21
219.608777
 31
0.0
  0
LINE
  5
2FF
100
AcDbEntity
  8
M05
100
AcDbLine
 10
677.757613
 20
222.608777
 30
0.0
 11
677.757613
 21
219.608777
 31
0.0
  0
LINE
  5
300
100
AcDbEntity
  8
M05
100
AcDbLine
 10
678.257613
 20
219.608777
 30
0.0
 11
677.757613
 21
219.608777
 31
0.0
  0
LINE
  5
301
100
AcDbEntity
  8
M05
100
AcDbLine
 10
638.957613
 20
217.608777
 30
0.0
 11
638.257613
 21
218.308777
 31
0.0
  0
LINE
  5
302
100
AcDbEntity
  8
M05
100
AcDbLine
 10
677.557613
 20
217.608777
 30
0.0
 11
678.257613
 21
218.308777
 31
0.0
  0
LINE
  5
303
100
AcDbEntity
  8
M05
100
AcDbLine
 10
677.557613
 20
217.608777
 30
0.0
 11
638.957613
 21
217.608777
 31
0.0
  0
LINE
  5
304
100
AcDbEntity
  8
M05
100
AcDbLine
 10
638.257613
 20
219.608777
 30
0.0
 11
638.257613
 21
218.308777
 31
0.0
  0
LINE
  5
305
100
AcDbEntity
  8
M05
100
AcDbLine
 10
678.257613
 20
219.608777
 30
0.0
 11
678.257613
 21
218.308777
 31
0.0
  0
LINE
  5
306
100
AcDbEntity
  8
M04
100
AcDbLine
 10
648.257613
 20
229.108777
 30
0.0
 11
647.757613
 21
228.608777
 31
0.0
  0
LINE
  5
307
100
AcDbEntity
  8
M04
100
AcDbLine
 10
668.257613
 20
229.108777
 30
0.0
 11
668.757613
 21
228.608777
 31
0.0
  0
LINE
  5
308
100
AcDbEntity
  8
M05
100
AcDbLine
 10
624.257613
 20
227.908777
 30
0.0
 11
624.957613
 21
228.608777
 31
0.0
  0
LINE
  5
309
100
AcDbEntity
  8
M05
100
AcDbLine
 10
624.257613
 20
227.908777
 30
0.0
 11
624.257613
 21
223.308777
 31
0.0
  0
LINE
  5
30A
100
AcDbEntity
  8
M05
100
AcDbLine
 10
692.257613
 20
227.908777
 30
0.0
 11
691.557613
 21
228.608777
 31
0.0
  0
LINE
  5
30B
100
AcDbEntity
  8
M05
100
AcDbLine
 10
692.257613
 20
223.308777
 30
0.0
 11
691.557613
 21
222.608777
 31
0.0
  0
LINE
  5
30C
102
{ACAD_REACTORS
330
92
102
}
100
AcDbEntity
  8
M02
100
AcDbLine
 10
693.257613
 20
228.608777
 30
0.0
 11
693.257613
 21
225.608777
 31
0.0
  0
LINE
  5
30D
100
AcDbEntity
  8
M05
100
AcDbLine
 10
691.557613
 20
222.608777
 30
0.0
 11
677.757613
 21
222.608777
 31
0.0
  0
LINE
  5
30E
100
AcDbEntity
  8
M05
100
AcDbLine
 10
692.257613
 20
227.908777
 30
0.0
 11
692.257613
 21
223.308777
 31
0.0
  0
LINE
  5
30F
100
AcDbEntity
  8
M04
100
AcDbLine
 10
648.257613
 20
237.608777
 30
0.0
 11
648.257613
 21
238.608777
 31
0.0
  0
LINE
  5
310
100
AcDbEntity
  8
M04
100
AcDbLine
 10
649.257613
 20
238.608777
 30
0.0
 11
648.257613
 21
238.608777
 31
0.0
  0
LINE
  5
311
100
AcDbEntity
  8
M04
100
AcDbLine
 10
668.257613
 20
237.608777
 30
0.0
 11
668.257613
 21
238.608777
 31
0.0
  0
LINE
  5
312
100
AcDbEntity
  8
M04
100
AcDbLine
 10
667.257613
 20
238.608777
 30
0.0
 11
668.257613
 21
238.608777
 31
0.0
  0
LINE
  5
313
100
AcDbEntity
  8
M05
100
AcDbLine
 10
667.257613
 20
238.608777
 30
0.0
 11
668.257613
 21
237.608777
 31
0.0
  0
LINE
  5
314
100
AcDbEntity
  8
M05
100
AcDbLine
 10
648.257613
 20
237.608777
 30
0.0
 11
649.257613
 21
238.608777
 31
0.0
  0
LINE
  5
315
100
AcDbEntity
  8
M05
100
AcDbLine
 10
667.257613
 20
238.608777
 30
0.0
 11
649.257613
 21
238.608777
 31
0.0
  0
LINE
  5
316
100
AcDbEntity
  8
M05
100
AcDbLine
 10
648.257613
 20
237.608777
 30
0.0
 11
648.257613
 21
228.608777
 31
0.0
  0
LINE
  5
317
100
AcDbEntity
  8
M05
100
AcDbLine
 10
668.257613
 20
237.608777
 30
0.0
 11
668.257613
 21
228.608777
 31
0.0
  0
LINE
  5
318
100
AcDbEntity
  8
M04
100
AcDbLine
 10
679.982613
 20
295.608777
 30
0.0
 11
872.257613
 21
295.608777
 31
0.0
  0
LINE
  5
319
102
{ACAD_REACTORS
330
94
330
91
102
}
100
AcDbEntity
  8
M02
100
AcDbLine
 10
679.982613
 20
291.608777
 30
0.0
 11
863.257613
 21
291.608777
 31
0.0
  0
LINE
  5
31A
100
AcDbEntity
  8
M04
100
AcDbLine
 10
649.757613
 20
283.608777
 30
0.0
 11
648.757613
 21
283.608777
 31
0.0
  0
LINE
  5
31B
100
AcDbEntity
  8
M04
100
AcDbLine
 10
648.757613
 20
284.608777
 30
0.0
 11
648.757613
 21
283.608777
 31
0.0
  0
LINE
  5
31C
100
AcDbEntity
  8
M04
100
AcDbLine
 10
666.757613
 20
283.608777
 30
0.0
 11
667.757613
 21
283.608777
 31
0.0
  0
LINE
  5
31D
100
AcDbEntity
  8
M04
100
AcDbLine
 10
667.757613
 20
284.608777
 30
0.0
 11
667.757613
 21
283.608777
 31
0.0
  0
LINE
  5
31E
102
{ACAD_REACTORS
330
8E
102
}
100
AcDbEntity
  8
M02
100
AcDbLine
 10
635.032613
 20
291.608777
 30
0.0
 11
635.032613
 21
288.608777
 31
0.0
  0
LINE
  5
31F
102
{ACAD_REACTORS
330
91
102
}
100
AcDbEntity
  8
M02
100
AcDbLine
 10
681.482613
 20
291.608777
 30
0.0
 11
681.482613
 21
288.608777
 31
0.0
  0
LINE
  5
320
100
AcDbEntity
  8
M05
100
AcDbLine
 10
648.757613
 20
284.608777
 30
0.0
 11
667.757613
 21
284.608777
 31
0.0
  0
LINE
  5
321
100
AcDbEntity
  8
M05
100
AcDbLine
 10
649.757613
 20
283.608777
 30
0.0
 11
648.757613
 21
284.608777
 31
0.0
  0
LINE
  5
322
100
AcDbEntity
  8
M05
100
AcDbLine
 10
667.757613
 20
284.608777
 30
0.0
 11
666.757613
 21
283.608777
 31
0.0
  0
LINE
  5
323
100
AcDbEntity
  8
M05
100
AcDbLine
 10
666.757613
 20
283.608777
 30
0.0
 11
649.757613
 21
283.608777
 31
0.0
  0
LINE
  5
324
102
{ACAD_REACTORS
330
F6
102
}
100
AcDbEntity
  8
M05
100
AcDbLine
 10
813.757613
 20
222.608777
 30
0.0
 11
812.757613
 21
221.608777
 31
0.0
  0
LINE
  5
325
102
{ACAD_REACTORS
330
F6
102
}
100
AcDbEntity
  8
M05
100
AcDbLine
 10
825.757613
 20
222.608777
 30
0.0
 11
826.757613
 21
221.608777
 31
0.0
  0
LINE
  5
326
102
{ACAD_REACTORS
330
F6
102
}
100
AcDbEntity
  8
M05
100
AcDbLine
 10
813.757613
 20
222.608777
 30
0.0
 11
825.757613
 21
222.608777
 31
0.0
  0
LINE
  5
327
102
{ACAD_REACTORS
330
F6
102
}
100
AcDbEntity
  8
M05
100
AcDbLine
 10
852.757613
 20
222.608777
 30
0.0
 11
853.757613
 21
221.608777
 31
0.0
  0
LINE
  5
328
102
{ACAD_REACTORS
330
F6
102
}
100
AcDbEntity
  8
M05
100
AcDbLine
 10
840.757613
 20
222.608777
 30
0.0
 11
839.757613
 21
221.608777
 31
0.0
  0
LINE
  5
329
102
{ACAD_REACTORS
330
F6
102
}
100
AcDbEntity
  8
M05
100
AcDbLine
 10
852.757613
 20
222.608777
 30
0.0
 11
840.757613
 21
222.608777
 31
0.0
  0
MTEXT
  5
32A
102
{ACAD_REACTORS
330
32B
102
}
100
AcDbEntity
  8
HATCH
 62
     2
100
AcDbMText
 10
869.120989
 20
202.53711
 30
0.0
 40
3.0
 41
0.0
 71
     1
 72
     5
  1
MA010004 (x6)
  0
LEADER
  5
32B
100
AcDbEntity
  8
HATCH
 62
     4
100
AcDbLeader
  3
DIM1$7
 73
     0
 74
     0
 75
     1
 40
4.571429
 41
34.142857
 76
     3
 10
850.025724
 20
223.239491
 30
0.0
 10
864.620989
 20
201.03711
 30
0.0
 10
867.620989
 20
201.03711
 30
0.0
 77
   256
340
32A
213
0.0
223
-1.5
233
0.0
1001
ACAD
1000
DSTYLE
1002
{
1070
   144
1040
1.0
1002
}
  0
LINE
  5
32D
100
AcDbEntity
  8
M04
100
AcDbLine
 10
833.257613
 20
203.780872
 30
0.0
 11
835.557613
 21
205.108777
 31
0.0
  0
LINE
  5
32E
100
AcDbEntity
  8
M04
100
AcDbLine
 10
830.957613
 20
205.108777
 30
0.0
 11
833.257613
 21
203.780872
 31
0.0
  0
LINE
  5
32F
100
AcDbEntity
  8
M04
100
AcDbLine
 10
830.957613
 20
205.108777
 30
0.0
 11
835.557613
 21
205.108777
 31
0.0
  0
LINE
  5
330
100
AcDbEntity
  8
M04
100
AcDbLine
 10
830.257613
 20
210.169895
 30
0.0
 11
830.257613
 21
206.608777
 31
0.0
  0
LINE
  5
331
100
AcDbEntity
  8
M04
100
AcDbLine
 10
830.957613
 20
209.469895
 30
0.0
 11
830.957613
 21
205.108777
 31
0.0
  0
LINE
  5
332
100
AcDbEntity
  8
M04
100
AcDbLine
 10
836.257613
 20
210.169895
 30
0.0
 11
836.257613
 21
206.608777
 31
0.0
  0
LINE
  5
333
100
AcDbEntity
  8
M04
100
AcDbLine
 10
835.557613
 20
209.469895
 30
0.0
 11
835.557613
 21
205.108777
 31
0.0
  0
LINE
  5
334
100
AcDbEntity
  8
M05
100
AcDbLine
 10
835.557613
 20
209.469895
 30
0.0
 11
836.257613
 21
210.169895
 31
0.0
  0
LINE
  5
335
100
AcDbEntity
  8
M05
100
AcDbLine
 10
830.257613
 20
210.169895
 30
0.0
 11
830.957613
 21
209.469895
 31
0.0
  0
LINE
  5
336
100
AcDbEntity
  8
M05
100
AcDbLine
 10
835.557613
 20
222.249895
 30
0.0
 11
835.557613
 21
209.469895
 31
0.0
  0
LINE
  5
337
100
AcDbEntity
  8
M05
100
AcDbLine
 10
830.957613
 20
222.249895
 30
0.0
 11
830.957613
 21
209.469895
 31
0.0
  0
LINE
  5
338
100
AcDbEntity
  8
M05
100
AcDbLine
 10
830.257613
 20
210.169895
 30
0.0
 11
836.257613
 21
210.169895
 31
0.0
  0
LINE
  5
339
100
AcDbEntity
  8
M04
100
AcDbLine
 10
830.257613
 20
206.608777
 30
0.0
 11
836.257613
 21
206.608777
 31
0.0
  0
LINE
  5
33A
100
AcDbEntity
  8
M05
100
AcDbLine
 10
830.957613
 20
209.469895
 30
0.0
 11
835.557613
 21
209.469895
 31
0.0
  0
LINE
  5
33B
100
AcDbEntity
  8
M05
  6
HIDDEN
100
AcDbLine
 10
825.098731
 20
228.908777
 30
0.0
 11
824.398731
 21
229.608777
 31
0.0
  0
LINE
  5
33C
100
AcDbEntity
  8
M05
  6
HIDDEN
100
AcDbLine
 10
841.416495
 20
228.908777
 30
0.0
 11
842.116495
 21
229.608777
 31
0.0
  0
LINE
  5
33D
100
AcDbEntity
  8
M05
100
AcDbLine
 10
830.257613
 20
222.249895
 30
0.0
 11
836.257613
 21
222.249895
 31
0.0
  0
LINE
  5
33E
100
AcDbEntity
  8
M05
100
AcDbLine
 10
833.807613
 20
226.749895
 30
0.0
 11
839.257613
 21
226.749895
 31
0.0
  0
LINE
  5
33F
100
AcDbEntity
  8
M05
100
AcDbLine
 10
833.807613
 20
227.469895
 30
0.0
 11
839.257613
 21
227.469895
 31
0.0
  0
LINE
  5
340
100
AcDbEntity
  8
M05
100
AcDbLine
 10
833.807613
 20
227.469895
 30
0.0
 11
833.807613
 21
225.969895
 31
0.0
  0
LINE
  5
341
100
AcDbEntity
  8
M05
100
AcDbLine
 10
832.707613
 20
227.469895
 30
0.0
 11
832.707613
 21
225.969895
 31
0.0
  0
LINE
  5
342
100
AcDbEntity
  8
M05
100
AcDbLine
 10
832.707613
 20
225.969895
 30
0.0
 11
833.807613
 21
225.969895
 31
0.0
  0
LINE
  5
343
102
{ACAD_REACTORS
330
F6
102
}
100
AcDbEntity
  8
M05
100
AcDbLine
 10
836.757613
 20
224.249895
 30
0.0
 11
836.757613
 21
221.608777
 31
0.0
  0
LINE
  5
344
102
{ACAD_REACTORS
330
F6
102
}
100
AcDbEntity
  8
M05
100
AcDbLine
 10
829.757613
 20
224.249895
 30
0.0
 11
829.757613
 21
221.608777
 31
0.0
  0
LINE
  5
345
100
AcDbEntity
  8
M05
100
AcDbLine
 10
827.257613
 20
226.749895
 30
0.0
 11
832.707613
 21
226.749895
 31
0.0
  0
LINE
  5
346
102
{ACAD_REACTORS
330
F6
102
}
100
AcDbEntity
  8
M05
100
AcDbLine
 10
830.257613
 20
223.749895
 30
0.0
 11
825.098731
 21
228.908777
 31
0.0
  0
LINE
  5
347
100
AcDbEntity
  8
M05
100
AcDbLine
 10
827.257613
 20
227.469895
 30
0.0
 11
827.257613
 21
226.749895
 31
0.0
  0
LINE
  5
348
102
{ACAD_REACTORS
330
F6
102
}
100
AcDbEntity
  8
M05
100
AcDbLine
 10
836.257613
 20
223.749895
 30
0.0
 11
841.416495
 21
228.908777
 31
0.0
  0
LINE
  5
349
100
AcDbEntity
  8
M05
100
AcDbLine
 10
830.257613
 20
223.749895
 30
0.0
 11
836.257613
 21
223.749895
 31
0.0
  0
LINE
  5
34A
100
AcDbEntity
  8
M05
100
AcDbLine
 10
830.257613
 20
223.749895
 30
0.0
 11
830.257613
 21
210.169895
 31
0.0
  0
LINE
  5
34B
100
AcDbEntity
  8
M05
100
AcDbLine
 10
836.257613
 20
223.749895
 30
0.0
 11
836.257613
 21
210.169895
 31
0.0
  0
LINE
  5
34C
100
AcDbEntity
  8
M05
100
AcDbLine
 10
839.257613
 20
227.469895
 30
0.0
 11
839.257613
 21
226.749895
 31
0.0
  0
LINE
  5
34D
100
AcDbEntity
  8
M05
100
AcDbLine
 10
827.257613
 20
227.469895
 30
0.0
 11
832.707613
 21
227.469895
 31
0.0
  0
LINE
  5
34E
100
AcDbEntity
  8
M05
  6
HIDDEN
100
AcDbLine
 10
809.257613
 20
228.908777
 30
0.0
 11
857.257613
 21
228.908777
 31
0.0
  0
LINE
  5
34F
100
AcDbEntity
  8
M05
  6
HIDDEN
100
AcDbLine
 10
857.257613
 20
228.908777
 30
0.0
 11
856.557613
 21
229.608777
 31
0.0
  0
LINE
  5
350
100
AcDbEntity
  8
M05
  6
HIDDEN
100
AcDbLine
 10
857.257613
 20
227.908777
 30
0.0
 11
857.257613
 21
228.908777
 31
0.0
  0
LINE
  5
351
102
{ACAD_REACTORS
330
F6
102
}
100
AcDbEntity
  8
M05
100
AcDbLine
 10
857.257613
 20
227.908777
 30
0.0
 11
856.557613
 21
228.608777
 31
0.0
  0
LINE
  5
352
102
{ACAD_REACTORS
330
F6
102
}
100
AcDbEntity
  8
M05
100
AcDbLine
 10
857.257613
 20
222.308777
 30
0.0
 11
856.557613
 21
221.608777
 31
0.0
  0
LINE
  5
353
102
{ACAD_REACTORS
330
F6
102
}
100
AcDbEntity
  8
M05
100
AcDbLine
 10
857.257613
 20
227.908777
 30
0.0
 11
857.257613
 21
222.308777
 31
0.0
  0
LINE
  5
354
100
AcDbEntity
  8
M05
  6
HIDDEN
100
AcDbLine
 10
809.257613
 20
228.908777
 30
0.0
 11
809.957613
 21
229.608777
 31
0.0
  0
LINE
  5
355
100
AcDbEntity
  8
M05
  6
HIDDEN
100
AcDbLine
 10
809.257613
 20
227.908777
 30
0.0
 11
809.257613
 21
228.908777
 31
0.0
  0
LINE
  5
356
102
{ACAD_REACTORS
330
F6
102
}
100
AcDbEntity
  8
M05
100
AcDbLine
 10
809.257613
 20
227.908777
 30
0.0
 11
809.957613
 21
228.608777
 31
0.0
  0
LINE
  5
357
102
{ACAD_REACTORS
330
F6
102
}
100
AcDbEntity
  8
M05
100
AcDbLine
 10
809.257613
 20
222.308777
 30
0.0
 11
809.957613
 21
221.608777
 31
0.0
  0
LINE
  5
358
102
{ACAD_REACTORS
330
93
102
}
100
AcDbEntity
  8
M02
100
AcDbLine
 10
858.257613
 20
228.608777
 30
0.0
 11
858.257613
 21
225.608777
 31
0.0
  0
LINE
  5
359
102
{ACAD_REACTORS
330
92
102
}
100
AcDbEntity
  8
M02
100
AcDbLine
 10
808.257613
 20
228.608777
 30
0.0
 11
808.257613
 21
225.608777
 31
0.0
  0
LINE
  5
35A
100
AcDbEntity
  8
M05
  6
HIDDEN
100
AcDbLine
 10
809.957613
 20
229.608777
 30
0.0
 11
856.557613
 21
229.608777
 31
0.0
  0
LINE
  5
35B
102
{ACAD_REACTORS
330
F6
102
}
100
AcDbEntity
  8
M05
100
AcDbLine
 10
809.257613
 20
227.908777
 30
0.0
 11
809.257613
 21
222.308777
 31
0.0
  0
LINE
  5
35C
100
AcDbEntity
  8
CENTRE
100
AcDbLine
 10
833.257613
 20
234.117888
 30
0.0
 11
833.257613
 21
201.03955
 31
0.0
  0
LINE
  5
35D
100
AcDbEntity
  8
DIMS
 62
     4
100
AcDbLine
 10
745.757613
 20
540.760844
 30
0.0
 11
745.757613
 21
538.460844
 31
0.0
  0
LINE
  5
35E
100
AcDbEntity
  8
DIMS
 62
     4
100
AcDbLine
 10
745.757613
 20
542.460844
 30
0.0
 11
745.757613
 21
545.860844
 31
0.0
  0
CIRCLE
  5
35F
100
AcDbEntity
  8
M03
100
AcDbCircle
 10
483.257613
 20
631.660844
 30
0.0
 40
2.3
  0
ARC
  5
360
100
AcDbEntity
  8
M03
100
AcDbCircle
 10
483.257613
 20
631.660844
 30
0.0
 40
3.0
100
AcDbArc
 50
167.784636
 51
96.923103
  0
LINE
  5
361
100
AcDbEntity
  8
M03
100
AcDbLine
 10
483.807613
 20
625.686105
 30
0.0
 11
483.807613
 21
637.635582
 31
0.0
  0
LINE
  5
362
100
AcDbEntity
  8
M03
100
AcDbLine
 10
482.707613
 20
625.686105
 30
0.0
 11
482.707613
 21
637.635582
 31
0.0
  0
CIRCLE
  5
363
100
AcDbEntity
  8
M03
100
AcDbCircle
 10
483.257613
 20
631.660844
 30
0.0
 40
7.858882
  0
CIRCLE
  5
364
100
AcDbEntity
  8
M03
100
AcDbCircle
 10
483.257613
 20
631.660844
 30
0.0
 40
6.0
  0
LINE
  5
365
100
AcDbEntity
  8
DIMS
 62
     4
100
AcDbLine
 10
661.657613
 20
518.160844
 30
0.0
 11
665.457613
 21
518.160844
 31
0.0
  0
LINE
  5
366
100
AcDbEntity
  8
DIMS
 62
     4
100
AcDbLine
 10
654.857613
 20
518.160844
 30
0.0
 11
651.057613
 21
518.160844
 31
0.0
  0
LINE
  5
367
100
AcDbEntity
  8
DIMS
 62
     4
100
AcDbLine
 10
656.557613
 20
518.160844
 30
0.0
 11
659.957613
 21
518.160844
 31
0.0
  0
CIRCLE
  5
368
100
AcDbEntity
  8
M03
100
AcDbCircle
 10
658.257613
 20
518.160844
 30
0.0
 40
2.3
  0
ARC
  5
369
100
AcDbEntity
  8
M03
100
AcDbCircle
 10
658.257613
 20
518.160844
 30
0.0
 40
3.0
100
AcDbArc
 50
167.784636
 51
96.923103
  0
CIRCLE
  5
36A
100
AcDbEntity
  8
M03
100
AcDbCircle
 10
658.257613
 20
518.160844
 30
0.0
 40
5.5
  0
CIRCLE
  5
36B
100
AcDbEntity
  8
M03
100
AcDbCircle
 10
658.257613
 20
544.160844
 30
0.0
 40
34.0
  0
LINE
  5
36C
100
AcDbEntity
  8
DIMS
 62
     4
100
AcDbLine
 10
632.257613
 20
547.560844
 30
0.0
 11
632.257613
 21
551.360844
 31
0.0
  0
LINE
  5
36D
100
AcDbEntity
  8
DIMS
 62
     4
100
AcDbLine
 10
632.257613
 20
540.760844
 30
0.0
 11
632.257613
 21
536.960844
 31
0.0
  0
LINE
  5
36E
100
AcDbEntity
  8
DIMS
 62
     4
100
AcDbLine
 10
632.257613
 20
542.460844
 30
0.0
 11
632.257613
 21
545.860844
 31
0.0
  0
LINE
  5
36F
100
AcDbEntity
  8
DIMS
 62
     4
100
AcDbLine
 10
684.257613
 20
547.560844
 30
0.0
 11
684.257613
 21
551.360844
 31
0.0
  0
LINE
  5
370
100
AcDbEntity
  8
DIMS
 62
     4
100
AcDbLine
 10
684.257613
 20
540.760844
 30
0.0
 11
684.257613
 21
536.960844
 31
0.0
  0
LINE
  5
371
100
AcDbEntity
  8
DIMS
 62
     4
100
AcDbLine
 10
684.257613
 20
542.460844
 30
0.0
 11
684.257613
 21
545.860844
 31
0.0
  0
LINE
  5
372
100
AcDbEntity
  8
DIMS
 62
     4
100
AcDbLine
 10
661.657613
 20
570.160844
 30
0.0
 11
665.457613
 21
570.160844
 31
0.0
  0
LINE
  5
373
100
AcDbEntity
  8
DIMS
 62
     4
100
AcDbLine
 10
654.857613
 20
570.160844
 30
0.0
 11
651.057613
 21
570.160844
 31
0.0
  0
LINE
  5
374
100
AcDbEntity
  8
DIMS
 62
     4
100
AcDbLine
 10
656.557613
 20
570.160844
 30
0.0
 11
659.957613
 21
570.160844
 31
0.0
  0
CIRCLE
  5
375
100
AcDbEntity
  8
M03
100
AcDbCircle
 10
684.257613
 20
544.160844
 30
0.0
 40
2.3
  0
ARC
  5
376
100
AcDbEntity
  8
M03
100
AcDbCircle
 10
684.257613
 20
544.160844
 30
0.0
 40
3.0
100
AcDbArc
 50
167.784636
 51
96.923103
  0
CIRCLE
  5
377
100
AcDbEntity
  8
M03
100
AcDbCircle
 10
684.257613
 20
544.160844
 30
0.0
 40
5.5
  0
CIRCLE
  5
378
100
AcDbEntity
  8
M03
100
AcDbCircle
 10
632.257613
 20
544.160844
 30
0.0
 40
2.3
  0
ARC
  5
379
100
AcDbEntity
  8
M03
100
AcDbCircle
 10
632.257613
 20
544.160844
 30
0.0
 40
3.0
100
AcDbArc
 50
167.784636
 51
96.923103
  0
CIRCLE
  5
37A
100
AcDbEntity
  8
M03
100
AcDbCircle
 10
632.257613
 20
544.160844
 30
0.0
 40
5.5
  0
CIRCLE
  5
37B
100
AcDbEntity
  8
M03
100
AcDbCircle
 10
658.257613
 20
570.160844
 30
0.0
 40
2.3
  0
ARC
  5
37C
100
AcDbEntity
  8
M03
100
AcDbCircle
 10
658.257613
 20
570.160844
 30
0.0
 40
3.0
100
AcDbArc
 50
167.784636
 51
96.923103
  0
CIRCLE
  5
37D
100
AcDbEntity
  8
M03
100
AcDbCircle
 10
658.257613
 20
570.160844
 30
0.0
 40
5.5
  0
CIRCLE
  5
37E
100
AcDbEntity
  8
M03
100
AcDbCircle
 10
658.257613
 20
544.160844
 30
0.0
 40
20.0
  0
TEXT
  5
37F
100
AcDbEntity
  8
TEXT
100
AcDbText
 10
813.246089
 20
245.719158
 30
0.0
 40
2.0
  1
MM010111
 41
0.9
100
AcDbText
  0
CIRCLE
  5
380
100
AcDbEntity
  8
M01
100
AcDbCircle
 10
570.757613
 20
271.608777
 30
0.0
 40
4.0
  0
LINE
  5
381
100
AcDbEntity
  8
M01
100
AcDbLine
 10
662.257613
 20
245.608777
 30
0.0
 11
745.757613
 21
245.608777
 31
0.0
  0
LINE
  5
382
100
AcDbEntity
  8
M01
100
AcDbLine
 10
658.257613
 20
249.608777
 30
0.0
 11
662.257613
 21
245.608777
 31
0.0
  0
LINE
  5
383
100
AcDbEntity
  8
M01
100
AcDbLine
 10
654.257613
 20
245.608777
 30
0.0
 11
658.257613
 21
249.608777
 31
0.0
  0
LINE
  5
384
100
AcDbEntity
  8
M01
100
AcDbLine
 10
574.757613
 20
253.608777
 30
0.0
 11
570.757613
 21
249.608777
 31
0.0
  0
ARC
  5
385
100
AcDbEntity
  8
M01
100
AcDbCircle
 10
570.757613
 20
249.608777
 30
0.0
 40
4.0
100
AcDbArc
 50
180.0
 51
270.0
  0
LINE
  5
386
100
AcDbEntity
  8
M01
100
AcDbLine
 10
574.757613
 20
271.608777
 30
0.0
 11
574.757613
 21
253.608777
 31
0.0
  0
LINE
  5
387
100
AcDbEntity
  8
M01
100
AcDbLine
 10
566.757613
 20
271.608777
 30
0.0
 11
566.757613
 21
249.608777
 31
0.0
  0
LINE
  5
388
100
AcDbEntity
  8
CENTRE
100
AcDbLine
 10
570.757613
 20
279.608777
 30
0.0
 11
570.757613
 21
241.608777
 31
0.0
  0
LINE
  5
389
100
AcDbEntity
  8
M01
100
AcDbLine
 10
741.757613
 20
253.608777
 30
0.0
 11
745.757613
 21
249.608777
 31
0.0
  0
ARC
  5
38A
100
AcDbEntity
  8
M01
100
AcDbCircle
 10
745.757613
 20
249.608777
 30
0.0
 40
4.0
100
AcDbArc
 50
270.0
 51
0.0
  0
LINE
  5
38B
100
AcDbEntity
  8
CENTRE
100
AcDbLine
 10
562.757613
 20
249.608777
 30
0.0
 11
753.757613
 21
249.608777
 31
0.0
  0
LINE
  5
38C
100
AcDbEntity
  8
M01
100
AcDbLine
 10
570.757613
 20
245.608777
 30
0.0
 11
654.257613
 21
245.608777
 31
0.0
  0
LINE
  5
38D
100
AcDbEntity
  8
M01
100
AcDbLine
 10
574.757613
 20
253.608777
 30
0.0
 11
741.757613
 21
253.608777
 31
0.0
  0
ARC
  5
38E
100
AcDbEntity
  8
M01
100
AcDbCircle
 10
745.757613
 20
271.608777
 30
0.0
 40
4.0
100
AcDbArc
 50
90.0
 51
180.0
  0
LINE
  5
38F
100
AcDbEntity
  8
M01
100
AcDbLine
 10
745.757613
 20
271.608777
 30
0.0
 11
749.757613
 21
267.608777
 31
0.0
  0
LINE
  5
390
100
AcDbEntity
  8
M01
100
AcDbLine
 10
741.757613
 20
271.608777
 30
0.0
 11
741.757613
 21
253.608777
 31
0.0
  0
LINE
  5
391
100
AcDbEntity
  8
M01
100
AcDbLine
 10
749.757613
 20
267.608777
 30
0.0
 11
749.757613
 21
249.608777
 31
0.0
  0
LINE
  5
392
100
AcDbEntity
  8
CENTRE
100
AcDbLine
 10
745.757613
 20
279.608777
 30
0.0
 11
745.757613
 21
241.608777
 31
0.0
  0
LINE
  5
393
100
AcDbEntity
  8
M01
100
AcDbLine
 10
833.257613
 20
267.608777
 30
0.0
 11
749.757613
 21
267.608777
 31
0.0
  0
ARC
  5
394
100
AcDbEntity
  8
M01
100
AcDbCircle
 10
833.257613
 20
271.608777
 30
0.0
 40
4.0
100
AcDbArc
 50
270.0
 51
0.0
  0
LINE
  5
395
100
AcDbEntity
  8
M01
100
AcDbLine
 10
837.257613
 20
288.608777
 30
0.0
 11
837.257613
 21
271.608777
 31
0.0
  0
LINE
  5
396
100
AcDbEntity
  8
M01
100
AcDbLine
 10
829.257613
 20
288.608777
 30
0.0
 11
829.257613
 21
275.608777
 31
0.0
  0
LINE
  5
397
100
AcDbEntity
  8
M01
100
AcDbLine
 10
829.257613
 20
275.608777
 30
0.0
 11
745.757613
 21
275.608777
 31
0.0
  0
LINE
  5
398
102
{ACAD_REACTORS
330
94
102
}
100
AcDbEntity
  8
M02
100
AcDbLine
 10
851.257613
 20
288.608777
 30
0.0
 11
851.257613
 21
291.608777
 31
0.0
  0
LINE
  5
399
102
{ACAD_REACTORS
330
91
102
}
100
AcDbEntity
  8
M02
100
AcDbLine
 10
815.257613
 20
288.608777
 30
0.0
 11
815.257613
 21
291.608777
 31
0.0
  0
LINE
  5
39A
100
AcDbEntity
  8
CENTRE
100
AcDbLine
 10
737.757613
 20
271.608777
 30
0.0
 11
841.257613
 21
271.608777
 31
0.0
  0
LINE
  5
39B
100
AcDbEntity
  8
M01
100
AcDbLine
 10
833.257613
 20
271.608777
 30
0.0
 11
829.257613
 21
275.608777
 31
0.0
  0
LINE
  5
39C
100
AcDbEntity
  8
CENTRE
100
AcDbLine
 10
833.257613
 20
301.420372
 30
0.0
 11
833.257613
 21
263.608777
 31
0.0
  0
LWPOLYLINE
  5
39D
100
AcDbEntity
  8
M01
 62
     4
100
AcDbPolyline
 90
        2
 70
     0
 43
0.0
 10
875.531951
 20
602.80797
 10
888.700367
 20
614.046766
1001
ACAD
1000
DSTYLE
1002
{
1070
   144
1040
1.0
1002
}
  0
SOLID
  5
39E
100
AcDbEntity
  8
M01
 62
     4
100
AcDbTrace
 10
875.207362
 20
603.188289
 30
0.0
 11
873.25004
 21
600.860437
 31
0.0
 12
875.856539
 22
602.427652
 32
0.0
 13
875.856539
 23
602.427652
 33
0.0
1001
ACAD
1000
DSTYLE
1002
{
1070
   144
1040
1.0
1002
}
  0
LINE
  5
39F
100
AcDbEntity
  8
M01
 62
     4
100
AcDbLine
 10
779.237394
 20
420.492419
 30
0.0
 11
776.237394
 21
420.492419
 31
0.0
1001
ACAD
1000
DSTYLE
1002
{
1070
   144
1040
1.0
1002
}
  0
LINE
  5
3A0
100
AcDbEntity
  8
M01
 62
     4
100
AcDbLine
 10
795.241905
 20
450.650603
 30
0.0
 11
779.237394
 21
420.492419
 31
0.0
1001
ACAD
1000
DSTYLE
1002
{
1070
   144
1040
1.0
1002
}
  0
SOLID
  5
3A1
100
AcDbEntity
  8
M01
 62
     4
100
AcDbTrace
 10
794.800244
 20
450.884986
 30
0.0
 11
796.648204
 21
453.300569
 31
0.0
 12
795.683566
 22
450.41622
 32
0.0
 13
795.683566
 23
450.41622
 33
0.0
1001
ACAD
1000
DSTYLE
1002
{
1070
   144
1040
1.0
1002
}
  0
MTEXT
  5
3A2
100
AcDbEntity
  8
DIMS
 62
     2
100
AcDbMText
 10
739.876564
 20
420.038589
 30
0.0
 40
3.0
 41
0.0
 71
     4
 72
     5
  1
HGX10037 (x2)
  0
LINE
  5
3A3
100
AcDbEntity
  8
M01
100
AcDbLine
 10
386.021945
 20
234.620765
 30
0.0
 11
384.815216
 21
232.641057
 31
0.0
  0
LINE
  5
3A4
100
AcDbEntity
  8
M01
100
AcDbLine
 10
374.568718
 20
226.886798
 30
0.0
 11
365.993906
 21
226.886798
 31
0.0
  0
LINE
  5
3A5
100
AcDbEntity
  8
M01
100
AcDbLine
 10
374.568718
 20
230.886798
 30
0.0
 11
365.993906
 21
230.886798
 31
0.0
  0
ARC
  5
3A6
100
AcDbEntity
  8
M01
100
AcDbCircle
 10
374.568718
 20
238.886798
 30
0.0
 40
12.0
100
AcDbArc
 50
270.0
 51
328.635651
  0
ARC
  5
3A7
100
AcDbEntity
  8
M01
100
AcDbCircle
 10
374.568718
 20
238.886798
 30
0.0
 40
8.0
100
AcDbArc
 50
270.0
 51
321.153546
  0
LINE
  5
3A8
100
AcDbEntity
  8
M01
100
AcDbLine
 10
389.646398
 20
248.252126
 30
0.0
 11
383.41229
 21
238.024714
 31
0.0
  0
LINE
  5
3A9
100
AcDbEntity
  8
M01
100
AcDbLine
 10
393.061897
 20
246.170212
 30
0.0
 11
392.864688
 21
245.84668
 31
0.0
  0
LINE
  5
3AA
100
AcDbEntity
  8
M01
100
AcDbLine
 10
400.064305
 20
247.608777
 30
0.0
 11
400.657613
 21
247.608777
 31
0.0
  0
LINE
  5
3AB
100
AcDbEntity
  8
M01
100
AcDbLine
 10
395.623521
 20
251.608777
 30
0.0
 11
398.349365
 21
251.608777
 31
0.0
  0
ARC
  5
3AC
100
AcDbEntity
  8
M01
100
AcDbCircle
 10
395.623521
 20
244.608777
 30
0.0
 40
3.0
100
AcDbArc
 50
118.327309
 51
148.635651
  0
ARC
  5
3AD
100
AcDbEntity
  8
M01
100
AcDbCircle
 10
395.623521
 20
244.608777
 30
0.0
 40
7.0
100
AcDbArc
 50
90.0
 51
148.635651
  0
ARC
  5
3AE
100
AcDbEntity
  8
M01
100
AcDbCircle
 10
400.657613
 20
244.608777
 30
0.0
 40
7.0
100
AcDbArc
 50
0.0
 51
67.321321
  0
ARC
  5
3AF
100
AcDbEntity
  8
M01
100
AcDbCircle
 10
400.657613
 20
244.608777
 30
0.0
 40
3.0
100
AcDbArc
 50
0.0
 51
90.0
  0
ARC
  5
3B0
100
AcDbEntity
  8
M01
100
AcDbCircle
 10
381.841138
 20
245.868914
 30
0.0
 40
12.0
100
AcDbArc
 50
270.0
 51
316.413007
  0
ARC
  5
3B1
100
AcDbEntity
  8
M01
100
AcDbCircle
 10
381.841138
 20
245.868914
 30
0.0
 40
8.0
100
AcDbArc
 50
270.0
 51
316.413007
  0
LINE
  5
3B2
100
AcDbEntity
  8
M01
100
AcDbLine
 10
403.657613
 20
244.608777
 30
0.0
 11
403.657613
 21
239.608777
 31
0.0
  0
LINE
  5
3B3
100
AcDbEntity
  8
M01
100
AcDbLine
 10
403.657613
 20
243.608777
 30
0.0
 11
407.657613
 21
243.608777
 31
0.0
  0
LINE
  5
3B4
100
AcDbEntity
  8
M01
100
AcDbLine
 10
403.657613
 20
239.608777
 30
0.0
 11
407.657613
 21
239.608777
 31
0.0
  0
LINE
  5
3B5
100
AcDbEntity
  8
M01
100
AcDbLine
 10
407.657613
 20
287.608777
 30
0.0
 11
407.657613
 21
260.384239
 31
0.0
  0
LINE
  5
3B6
100
AcDbEntity
  8
M01
100
AcDbLine
 10
403.657613
 20
260.384239
 30
0.0
 11
403.657613
 21
277.608777
 31
0.0
  0
ARC
  5
3B7
100
AcDbEntity
  8
M01
100
AcDbCircle
 10
395.657613
 20
260.384239
 30
0.0
 40
12.0
100
AcDbArc
 50
316.413007
 51
360.0
  0
ARC
  5
3B8
100
AcDbEntity
  8
M01
100
AcDbCircle
 10
395.657613
 20
260.384239
 30
0.0
 40
8.0
100
AcDbArc
 50
316.413007
 51
360.0
  0
LINE
  5
3B9
100
AcDbEntity
  8
M01
100
AcDbLine
 10
403.657613
 20
273.608777
 30
0.0
 11
407.657613
 21
273.608777
 31
0.0
  0
LINE
  5
3BA
100
AcDbEntity
  8
M01
100
AcDbLine
 10
403.657613
 20
277.608777
 30
0.0
 11
407.657613
 21
277.608777
 31
0.0
  0
LINE
  5
3BB
100
AcDbEntity
  8
M01
100
AcDbLine
 10
390.533079
 20
237.595453
 30
0.0
 11
404.349553
 21
252.110777
 31
0.0
  0
LINE
  5
3BC
100
AcDbEntity
  8
M01
100
AcDbLine
 10
387.635765
 20
240.353273
 30
0.0
 11
401.45224
 21
254.868598
 31
0.0
  0
LINE
  5
3BD
100
AcDbEntity
  8
M01
100
AcDbLine
 10
366.002648
 20
233.868914
 30
0.0
 11
381.841138
 21
233.868914
 31
0.0
  0
LINE
  5
3BE
100
AcDbEntity
  8
M01
100
AcDbLine
 10
366.002648
 20
237.868914
 30
0.0
 11
381.841138
 21
237.868914
 31
0.0
  0
LINE
  5
3BF
100
AcDbEntity
  8
M01
100
AcDbLine
 10
422.313512
 20
237.858777
 30
0.0
 11
422.313512
 21
231.358777
 31
0.0
  0
LINE
  5
3C0
100
AcDbEntity
  8
M01
100
AcDbLine
 10
414.201713
 20
237.858777
 30
0.0
 11
414.201713
 21
231.358777
 31
0.0
  0
LINE
  5
3C1
100
AcDbEntity
  8
M01
100
AcDbLine
 10
422.313512
 20
237.858777
 30
0.0
 11
424.257613
 21
237.858777
 31
0.0
  0
ARC
  5
3C2
100
AcDbEntity
  8
M01
100
AcDbCircle
 10
420.752263
 20
239.108777
 30
0.0
 40
2.0
100
AcDbArc
 50
270.0
 51
321.317813
  0
ARC
  5
3C3
100
AcDbEntity
  8
M01
100
AcDbCircle
 10
415.762962
 20
239.108777
 30
0.0
 40
2.0
100
AcDbArc
 50
218.682187
 51
270.0
  0
LINE
  5
3C4
100
AcDbEntity
  8
M01
100
AcDbLine
 10
412.257613
 20
237.858777
 30
0.0
 11
414.201713
 21
237.858777
 31
0.0
  0
LINE
  5
3C5
100
AcDbEntity
  8
M01
100
AcDbLine
 10
415.762962
 20
237.108777
 30
0.0
 11
420.752263
 21
237.108777
 31
0.0
  0
LINE
  5
3C6
100
AcDbEntity
  8
M01
100
AcDbLine
 10
422.313512
 20
231.358777
 30
0.0
 11
424.257613
 21
231.358777
 31
0.0
  0
ARC
  5
3C7
100
AcDbEntity
  8
M01
100
AcDbCircle
 10
420.752263
 20
230.108777
 30
0.0
 40
2.0
100
AcDbArc
 50
38.682187
 51
90.0
  0
ARC
  5
3C8
100
AcDbEntity
  8
M01
100
AcDbCircle
 10
415.762962
 20
230.108777
 30
0.0
 40
2.0
100
AcDbArc
 50
90.0
 51
141.317813
  0
LINE
  5
3C9
100
AcDbEntity
  8
M01
100
AcDbLine
 10
412.257613
 20
231.358777
 30
0.0
 11
414.201713
 21
231.358777
 31
0.0
  0
LINE
  5
3CA
100
AcDbEntity
  8
M01
100
AcDbLine
 10
415.762962
 20
232.108777
 30
0.0
 11
420.752263
 21
232.108777
 31
0.0
  0
LINE
  5
3CB
100
AcDbEntity
  8
DIMS
 62
     4
100
AcDbLine
 10
852.116346
 20
232.608777
 30
0.0
 11
849.816346
 21
232.608777
 31
0.0
  0
LINE
  5
3CC
100
AcDbEntity
  8
DIMS
 62
     4
100
AcDbLine
 10
858.916346
 20
232.608777
 30
0.0
 11
861.216346
 21
232.608777
 31
0.0
  0
LINE
  5
3CD
100
AcDbEntity
  8
DIMS
 62
     4
100
AcDbLine
 10
855.516346
 20
229.208777
 30
0.0
 11
855.516346
 21
226.908777
 31
0.0
  0
LINE
  5
3CE
100
AcDbEntity
  8
DIMS
 62
     4
100
AcDbLine
 10
855.516346
 20
236.008777
 30
0.0
 11
855.516346
 21
238.308777
 31
0.0
  0
LINE
  5
3CF
100
AcDbEntity
  8
DIMS
 62
     4
100
AcDbLine
 10
857.216346
 20
232.608777
 30
0.0
 11
853.816346
 21
232.608777
 31
0.0
  0
LINE
  5
3D0
100
AcDbEntity
  8
DIMS
 62
     4
100
AcDbLine
 10
855.516346
 20
234.308777
 30
0.0
 11
855.516346
 21
230.908777
 31
0.0
  0
LINE
  5
3D1
100
AcDbEntity
  8
DIMS
 62
     4
100
AcDbLine
 10
852.116346
 20
284.608777
 30
0.0
 11
849.816346
 21
284.608777
 31
0.0
  0
LINE
  5
3D2
100
AcDbEntity
  8
DIMS
 62
     4
100
AcDbLine
 10
858.916346
 20
284.608777
 30
0.0
 11
861.216346
 21
284.608777
 31
0.0
  0
LINE
  5
3D3
100
AcDbEntity
  8
DIMS
 62
     4
100
AcDbLine
 10
855.516346
 20
281.208777
 30
0.0
 11
855.516346
 21
278.908777
 31
0.0
  0
LINE
  5
3D4
100
AcDbEntity
  8
DIMS
 62
     4
100
AcDbLine
 10
855.516346
 20
288.008777
 30
0.0
 11
855.516346
 21
290.308777
 31
0.0
  0
LINE
  5
3D5
100
AcDbEntity
  8
DIMS
 62
     4
100
AcDbLine
 10
857.216346
 20
284.608777
 30
0.0
 11
853.816346
 21
284.608777
 31
0.0
  0
LINE
  5
3D6
100
AcDbEntity
  8
DIMS
 62
     4
100
AcDbLine
 10
855.516346
 20
286.308777
 30
0.0
 11
855.516346
 21
282.908777
 31
0.0
  0
HATCH
  5
3D7
100
AcDbEntity
  8
HATCH
100
AcDbHatch
 10
0.0
 20
0.0
 30
0.0
210
0.0
220
0.0
230
1.0
  2
_U
 70
     0
 71
     1
 91
        2
 92
        7
 72
     1
 73
     1
 93
        2
 10
859.5163457646993
 20
284.608777188405
 42
1.0
 10
851.5163457646993
 20
284.608777188405
 42
1.0
 97
        1
330
3DD
 92
        7
 72
     1
 73
     1
 93
        2
 10
859.5163457646993
 20
232.608777188405
 42
1.0
 10
851.5163457646993
 20
232.608777188405
 42
1.0
 97
        1
330
3DC
 75
     0
 76
     0
 52
135.0
 41
0.8
 77
     0
 78
     1
 53
225.0
 43
1265.075572
 44
1063.198885
 45
-0.565685424949238
 46
0.565685424949238
 79
     0
 47
0.095608
 98
        2
 10
855.816987
 20
284.475429
 10
854.66969
 20
245.451238
  0
LINE
  5
3D8
100
AcDbEntity
  8
M01
100
AcDbLine
 10
859.516346
 20
232.608777
 30
0.0
 11
859.516346
 21
228.608777
 31
0.0
  0
LINE
  5
3D9
100
AcDbEntity
  8
M01
100
AcDbLine
 10
851.516346
 20
232.608777
 30
0.0
 11
851.516346
 21
228.608777
 31
0.0
  0
LINE
  5
3DA
100
AcDbEntity
  8
M01
100
AcDbLine
 10
859.516346
 20
284.608777
 30
0.0
 11
859.516346
 21
288.608777
 31
0.0
  0
LINE
  5
3DB
100
AcDbEntity
  8
M01
100
AcDbLine
 10
851.516346
 20
284.608777
 30
0.0
 11
851.516346
 21
288.608777
 31
0.0
  0
CIRCLE
  5
3DC
102
{ACAD_REACTORS
330
3D7
102
}
100
AcDbEntity
  8
M01
100
AcDbCircle
 10
855.516346
 20
232.608777
 30
0.0
 40
4.0
  0
CIRCLE
  5
3DD
102
{ACAD_REACTORS
330
3D7
102
}
100
AcDbEntity
  8
M01
100
AcDbCircle
 10
855.516346
 20
284.608777
 30
0.0
 40
4.0
  0
DIMENSION
  5
3DE
100
AcDbEntity
  8
DIMS
100
AcDbDimension
  2
*D4
 10
453.757613
 20
323.284942
 30
0.0
 11
509.543327
 21
326.284942
 31
0.0
 12
196.992078
 22
284.088827
 32
0.0
  1
%%c<> H7
  3
DIM1
100
AcDbAlignedDimension
 13
445.757613
 23
308.608777
 33
0.0
 14
453.757613
 24
308.608777
 34
0.0
100
AcDbRotatedDimension
1001
ACAD
1000
DSTYLE
1002
{
1070
   144
1040
1.0
1002
}
  0
DIMENSION
  5
3EC
100
AcDbEntity
  8
DIMS
100
AcDbDimension
  2
*D3
 10
638.257613
 20
177.29366
 30
0.0
 11
658.257613
 21
180.29366
 31
0.0
 12
-192.561382
 22
244.859853
 32
0.0
  1
%%c<> H7
  3
DIM1
100
AcDbAlignedDimension
 13
678.257613
 23
213.608777
 33
0.0
 14
638.257613
 24
213.608777
 34
0.0
100
AcDbRotatedDimension
1001
ACAD
1000
DSTYLE
1002
{
1070
   144
1040
1.0
1002
}
  0
DIMENSION
  5
3F9
100
AcDbEntity
  8
DIMS
100
AcDbDimension
  2
*D2
 10
903.73031
 20
295.608777
 30
0.0
 11
899.64031
 21
306.251634
 31
0.0
 12
1.09
 22
0.0
 32
0.0
  1
7.0
  3
DIM1
100
AcDbAlignedDimension
 13
863.257613
 23
288.608777
 33
0.0
 14
872.257613
 24
295.608777
 34
0.0
 50
90.0
100
AcDbRotatedDimension
1001
ACAD
1000
DSTYLE
1002
{
1070
   144
1040
1.0
1002
}
  0
DIMENSION
  5
407
100
AcDbEntity
  8
DIMS
100
AcDbDimension
  2
*D1
 10
903.73031
 20
221.608777
 30
0.0
 11
899.64031
 21
210.96592
 31
0.0
 12
1.09
 22
0.0
 32
0.0
  1
7.0
  3
DIM1
100
AcDbAlignedDimension
 13
863.257613
 23
228.608777
 33
0.0
 14
883.771004
 24
221.608777
 34
0.0
 50
90.0
100
AcDbRotatedDimension
1001
ACAD
1000
DSTYLE
1002
{
1070
   144
1040
1.0
1002
}
  0
DIMENSION
  5
415
100
AcDbEntity
  8
DIMS
100
AcDbDimension
  2
*D0
 10
903.73031
 20
228.608777
 30
0.0
 11
899.64031
 21
258.608777
 31
0.0
 12
1.09
 22
0.0
 32
0.0
  3
DIM1
100
AcDbAlignedDimension
 13
863.257613
 23
288.608777
 33
0.0
 14
865.257613
 24
228.608777
 34
0.0
 50
90.0
100
AcDbRotatedDimension
1001
ACAD
1000
DSTYLE
1002
{
1070
   144
1040
1.0
1002
}
  0
LINE
  5
422
100
AcDbEntity
  8
M01
100
AcDbLine
 10
429.257613
 20
239.608777
 30
0.0
 11
429.257613
 21
229.608777
 31
0.0
  0
LINE
  5
423
100
AcDbEntity
  8
M01
100
AcDbLine
 10
422.313512
 20
285.858777
 30
0.0
 11
422.313512
 21
279.358777
 31
0.0
  0
LINE
  5
424
100
AcDbEntity
  8
M01
100
AcDbLine
 10
414.201713
 20
285.858777
 30
0.0
 11
414.201713
 21
279.358777
 31
0.0
  0
LINE
  5
425
100
AcDbEntity
  8
M01
100
AcDbLine
 10
422.313512
 20
285.858777
 30
0.0
 11
424.257613
 21
285.858777
 31
0.0
  0
ARC
  5
426
100
AcDbEntity
  8
M01
100
AcDbCircle
 10
420.752263
 20
287.108777
 30
0.0
 40
2.0
100
AcDbArc
 50
270.0
 51
321.317813
  0
ARC
  5
427
100
AcDbEntity
  8
M01
100
AcDbCircle
 10
415.762962
 20
287.108777
 30
0.0
 40
2.0
100
AcDbArc
 50
218.682187
 51
270.0
  0
LINE
  5
428
100
AcDbEntity
  8
M01
100
AcDbLine
 10
412.257613
 20
285.858777
 30
0.0
 11
414.201713
 21
285.858777
 31
0.0
  0
LINE
  5
429
100
AcDbEntity
  8
M01
100
AcDbLine
 10
415.762962
 20
285.108777
 30
0.0
 11
420.752263
 21
285.108777
 31
0.0
  0
LINE
  5
42A
100
AcDbEntity
  8
M01
100
AcDbLine
 10
422.313512
 20
279.358777
 30
0.0
 11
424.257613
 21
279.358777
 31
0.0
  0
ARC
  5
42B
100
AcDbEntity
  8
M01
100
AcDbCircle
 10
420.752263
 20
278.108777
 30
0.0
 40
2.0
100
AcDbArc
 50
38.682187
 51
90.0
  0
ARC
  5
42C
100
AcDbEntity
  8
M01
100
AcDbCircle
 10
415.762962
 20
278.108777
 30
0.0
 40
2.0
100
AcDbArc
 50
90.0
 51
141.317813
  0
LINE
  5
42D
100
AcDbEntity
  8
M01
100
AcDbLine
 10
412.257613
 20
279.358777
 30
0.0
 11
414.201713
 21
279.358777
 31
0.0
  0
LINE
  5
42E
100
AcDbEntity
  8
M01
100
AcDbLine
 10
415.762962
 20
280.108777
 30
0.0
 11
420.752263
 21
280.108777
 31
0.0
  0
LINE
  5
42F
100
AcDbEntity
  8
M01
100
AcDbLine
 10
429.257613
 20
287.608777
 30
0.0
 11
429.257613
 21
277.608777
 31
0.0
  0
LINE
  5
430
100
AcDbEntity
  8
M01
100
AcDbLine
 10
424.257613
 20
229.608777
 30
0.0
 11
445.257613
 21
229.608777
 31
0.0
  0
LINE
  5
431
100
AcDbEntity
  8
M01
100
AcDbLine
 10
424.257613
 20
239.608777
 30
0.0
 11
444.257613
 21
239.608777
 31
0.0
  0
LINE
  5
432
100
AcDbEntity
  8
M01
100
AcDbLine
 10
424.257613
 20
287.608777
 30
0.0
 11
445.257613
 21
287.608777
 31
0.0
  0
LINE
  5
433
100
AcDbEntity
  8
M01
100
AcDbLine
 10
424.257613
 20
277.608777
 30
0.0
 11
444.257613
 21
277.608777
 31
0.0
  0
LINE
  5
434
100
AcDbEntity
  8
M01
100
AcDbLine
 10
402.357613
 20
237.639866
 30
0.0
 11
402.357613
 21
231.577688
 31
0.0
  0
ARC
  5
435
100
AcDbEntity
  8
M01
100
AcDbCircle
 10
404.206918
 20
231.577688
 30
0.0
 40
1.150694
100
AcDbArc
 50
298.592423
 51
61.407577
  0
ARC
  5
436
100
AcDbEntity
  8
M01
100
AcDbCircle
 10
401.654835
 20
234.608777
 30
0.0
 40
3.702778
100
AcDbArc
 50
326.92527
 51
33.07473
  0
ARC
  5
437
100
AcDbEntity
  8
M01
100
AcDbCircle
 10
404.206918
 20
237.639866
 30
0.0
 40
1.150694
100
AcDbArc
 50
298.592423
 51
61.407577
  0
ARC
  5
438
100
AcDbEntity
  8
M01
100
AcDbCircle
 10
403.508307
 20
231.577688
 30
0.0
 40
1.150694
100
AcDbArc
 50
118.592423
 51
241.407577
  0
ARC
  5
439
100
AcDbEntity
  8
M01
100
AcDbCircle
 10
406.06039
 20
234.608777
 30
0.0
 40
3.702778
100
AcDbArc
 50
146.92527
 51
213.07473
  0
LINE
  5
43A
100
AcDbEntity
  8
M01
100
AcDbLine
 10
402.957613
 20
232.588051
 30
0.0
 11
404.757613
 21
232.588051
 31
0.0
  0
LINE
  5
43B
100
AcDbEntity
  8
M01
100
AcDbLine
 10
402.957613
 20
230.567325
 30
0.0
 11
404.757613
 21
230.567325
 31
0.0
  0
ARC
  5
43C
100
AcDbEntity
  8
M01
100
AcDbCircle
 10
403.508307
 20
237.639866
 30
0.0
 40
1.150694
100
AcDbArc
 50
118.592423
 51
241.407577
  0
LINE
  5
43D
100
AcDbEntity
  8
M01
100
AcDbLine
 10
402.957613
 20
236.629503
 30
0.0
 11
404.757613
 21
236.629503
 31
0.0
  0
LINE
  5
43E
100
AcDbEntity
  8
M01
100
AcDbLine
 10
402.957613
 20
238.650229
 30
0.0
 11
404.757613
 21
238.650229
 31
0.0
  0
LINE
  5
43F
100
AcDbEntity
  8
M01
100
AcDbLine
 10
407.657613
 20
229.608777
 30
0.0
 11
406.157613
 21
229.608777
 31
0.0
  0
LINE
  5
440
100
AcDbEntity
  8
M01
100
AcDbLine
 10
407.657613
 20
239.608777
 30
0.0
 11
406.157613
 21
239.608777
 31
0.0
  0
LINE
  5
441
100
AcDbEntity
  8
M01
100
AcDbLine
 10
406.157613
 20
230.108777
 30
0.0
 11
405.357613
 21
230.108777
 31
0.0
  0
LINE
  5
442
100
AcDbEntity
  8
M01
100
AcDbLine
 10
406.157613
 20
239.108777
 30
0.0
 11
405.357613
 21
239.108777
 31
0.0
  0
LINE
  5
443
100
AcDbEntity
  8
M01
100
AcDbLine
 10
405.357613
 20
239.108777
 30
0.0
 11
405.357613
 21
230.108777
 31
0.0
  0
LINE
  5
444
100
AcDbEntity
  8
M01
100
AcDbLine
 10
406.157613
 20
239.608777
 30
0.0
 11
406.157613
 21
229.608777
 31
0.0
  0
LINE
  5
445
100
AcDbEntity
  8
M01
100
AcDbLine
 10
408.457613
 20
230.108777
 30
0.0
 11
407.657613
 21
230.108777
 31
0.0
  0
LINE
  5
446
100
AcDbEntity
  8
M01
100
AcDbLine
 10
408.457613
 20
239.108777
 30
0.0
 11
407.657613
 21
239.108777
 31
0.0
  0
LINE
  5
447
100
AcDbEntity
  8
M01
100
AcDbLine
 10
407.657613
 20
244.608777
 30
0.0
 11
407.657613
 21
229.608777
 31
0.0
  0
ARC
  5
448
100
AcDbEntity
  8
M01
100
AcDbCircle
 10
410.306918
 20
231.577688
 30
0.0
 40
1.150694
100
AcDbArc
 50
298.592423
 51
61.407577
  0
ARC
  5
449
100
AcDbEntity
  8
M01
100
AcDbCircle
 10
407.754835
 20
234.608777
 30
0.0
 40
3.702778
100
AcDbArc
 50
326.92527
 51
33.07473
  0
ARC
  5
44A
100
AcDbEntity
  8
M01
100
AcDbCircle
 10
410.306918
 20
237.639866
 30
0.0
 40
1.150694
100
AcDbArc
 50
298.592423
 51
61.407577
  0
ARC
  5
44B
100
AcDbEntity
  8
M01
100
AcDbCircle
 10
409.608307
 20
231.577688
 30
0.0
 40
1.150694
100
AcDbArc
 50
118.592423
 51
241.407577
  0
ARC
  5
44C
100
AcDbEntity
  8
M01
100
AcDbCircle
 10
412.16039
 20
234.608777
 30
0.0
 40
3.702778
100
AcDbArc
 50
146.92527
 51
213.07473
  0
LINE
  5
44D
100
AcDbEntity
  8
M01
100
AcDbLine
 10
409.057613
 20
232.588051
 30
0.0
 11
410.857613
 21
232.588051
 31
0.0
  0
LINE
  5
44E
100
AcDbEntity
  8
M01
100
AcDbLine
 10
409.057613
 20
230.567325
 30
0.0
 11
410.857613
 21
230.567325
 31
0.0
  0
ARC
  5
44F
100
AcDbEntity
  8
M01
100
AcDbCircle
 10
409.608307
 20
237.639866
 30
0.0
 40
1.150694
100
AcDbArc
 50
118.592423
 51
241.407577
  0
LINE
  5
450
100
AcDbEntity
  8
M01
100
AcDbLine
 10
409.057613
 20
236.629503
 30
0.0
 11
410.857613
 21
236.629503
 31
0.0
  0
LINE
  5
451
100
AcDbEntity
  8
M01
100
AcDbLine
 10
409.057613
 20
238.650229
 30
0.0
 11
410.857613
 21
238.650229
 31
0.0
  0
LINE
  5
452
100
AcDbEntity
  8
M01
100
AcDbLine
 10
408.457613
 20
239.108777
 30
0.0
 11
408.457613
 21
230.108777
 31
0.0
  0
LINE
  5
453
100
AcDbEntity
  8
M01
100
AcDbLine
 10
411.457613
 20
239.108777
 30
0.0
 11
411.457613
 21
230.108777
 31
0.0
  0
LINE
  5
454
100
AcDbEntity
  8
M01
100
AcDbLine
 10
412.257613
 20
239.108777
 30
0.0
 11
412.257613
 21
230.108777
 31
0.0
  0
LINE
  5
455
100
AcDbEntity
  8
M01
100
AcDbLine
 10
399.257613
 20
233.108777
 30
0.0
 11
399.757613
 21
232.608777
 31
0.0
  0
LINE
  5
456
100
AcDbEntity
  8
M01
100
AcDbLine
 10
399.757613
 20
236.608777
 30
0.0
 11
399.257613
 21
236.108777
 31
0.0
  0
LINE
  5
457
100
AcDbEntity
  8
M01
100
AcDbLine
 10
399.757613
 20
236.608777
 30
0.0
 11
399.757613
 21
232.608777
 31
0.0
  0
LINE
  5
458
100
AcDbEntity
  8
M01
100
AcDbLine
 10
399.257613
 20
233.108777
 30
0.0
 11
402.357613
 21
233.108777
 31
0.0
  0
LINE
  5
459
100
AcDbEntity
  8
M01
100
AcDbLine
 10
399.257613
 20
236.108777
 30
0.0
 11
402.357613
 21
236.108777
 31
0.0
  0
LINE
  5
45A
100
AcDbEntity
  8
M01
100
AcDbLine
 10
399.757613
 20
236.608777
 30
0.0
 11
402.357613
 21
236.608777
 31
0.0
  0
LINE
  5
45B
100
AcDbEntity
  8
M01
100
AcDbLine
 10
399.757613
 20
232.608777
 30
0.0
 11
402.357613
 21
232.608777
 31
0.0
  0
LINE
  5
45C
100
AcDbEntity
  8
M01
100
AcDbLine
 10
399.257613
 20
236.108777
 30
0.0
 11
399.257613
 21
233.108777
 31
0.0
  0
LINE
  5
45D
100
AcDbEntity
  8
M01
100
AcDbLine
 10
424.257613
 20
239.608777
 30
0.0
 11
424.257613
 21
229.608777
 31
0.0
  0
LINE
  5
45E
100
AcDbEntity
  8
M01
100
AcDbLine
 10
411.457613
 20
230.108777
 30
0.0
 11
412.257613
 21
230.108777
 31
0.0
  0
LINE
  5
45F
100
AcDbEntity
  8
M01
100
AcDbLine
 10
411.457613
 20
239.108777
 30
0.0
 11
412.257613
 21
239.108777
 31
0.0
  0
LINE
  5
460
100
AcDbEntity
  8
CENTRE
100
AcDbLine
 10
393.096723
 20
234.608777
 30
0.0
 11
456.690155
 21
234.608777
 31
0.0
  0
LINE
  5
461
100
AcDbEntity
  8
M01
100
AcDbLine
 10
402.357613
 20
279.577688
 30
0.0
 11
402.357613
 21
285.639866
 31
0.0
  0
ARC
  5
462
100
AcDbEntity
  8
M01
100
AcDbCircle
 10
404.206918
 20
285.639866
 30
0.0
 40
1.150694
100
AcDbArc
 50
298.592423
 51
61.407577
  0
ARC
  5
463
100
AcDbEntity
  8
M01
100
AcDbCircle
 10
401.654835
 20
282.608777
 30
0.0
 40
3.702778
100
AcDbArc
 50
326.92527
 51
33.07473
  0
ARC
  5
464
100
AcDbEntity
  8
M01
100
AcDbCircle
 10
404.206918
 20
279.577688
 30
0.0
 40
1.150694
100
AcDbArc
 50
298.592423
 51
61.407577
  0
ARC
  5
465
100
AcDbEntity
  8
M01
100
AcDbCircle
 10
403.508307
 20
285.639866
 30
0.0
 40
1.150694
100
AcDbArc
 50
118.592423
 51
241.407577
  0
ARC
  5
466
100
AcDbEntity
  8
M01
100
AcDbCircle
 10
406.06039
 20
282.608777
 30
0.0
 40
3.702778
100
AcDbArc
 50
146.92527
 51
213.07473
  0
LINE
  5
467
100
AcDbEntity
  8
M01
100
AcDbLine
 10
402.957613
 20
284.629503
 30
0.0
 11
404.757613
 21
284.629503
 31
0.0
  0
LINE
  5
468
100
AcDbEntity
  8
M01
100
AcDbLine
 10
402.957613
 20
286.650229
 30
0.0
 11
404.757613
 21
286.650229
 31
0.0
  0
ARC
  5
469
100
AcDbEntity
  8
M01
100
AcDbCircle
 10
403.508307
 20
279.577688
 30
0.0
 40
1.150694
100
AcDbArc
 50
118.592423
 51
241.407577
  0
LINE
  5
46A
100
AcDbEntity
  8
M01
100
AcDbLine
 10
402.957613
 20
280.588051
 30
0.0
 11
404.757613
 21
280.588051
 31
0.0
  0
LINE
  5
46B
100
AcDbEntity
  8
M01
100
AcDbLine
 10
402.957613
 20
278.567325
 30
0.0
 11
404.757613
 21
278.567325
 31
0.0
  0
LINE
  5
46C
100
AcDbEntity
  8
M01
100
AcDbLine
 10
407.657613
 20
287.608777
 30
0.0
 11
406.157613
 21
287.608777
 31
0.0
  0
LINE
  5
46D
100
AcDbEntity
  8
M01
100
AcDbLine
 10
406.157613
 20
287.108777
 30
0.0
 11
405.357613
 21
287.108777
 31
0.0
  0
LINE
  5
46E
100
AcDbEntity
  8
M01
100
AcDbLine
 10
406.157613
 20
278.108777
 30
0.0
 11
405.357613
 21
278.108777
 31
0.0
  0
LINE
  5
46F
100
AcDbEntity
  8
M01
100
AcDbLine
 10
405.357613
 20
278.108777
 30
0.0
 11
405.357613
 21
287.108777
 31
0.0
  0
LINE
  5
470
100
AcDbEntity
  8
M01
100
AcDbLine
 10
406.157613
 20
277.608777
 30
0.0
 11
406.157613
 21
287.608777
 31
0.0
  0
LINE
  5
471
100
AcDbEntity
  8
M01
100
AcDbLine
 10
408.457613
 20
287.108777
 30
0.0
 11
407.657613
 21
287.108777
 31
0.0
  0
LINE
  5
472
100
AcDbEntity
  8
M01
100
AcDbLine
 10
408.457613
 20
278.108777
 30
0.0
 11
407.657613
 21
278.108777
 31
0.0
  0
ARC
  5
473
100
AcDbEntity
  8
M01
100
AcDbCircle
 10
410.306918
 20
285.639866
 30
0.0
 40
1.150694
100
AcDbArc
 50
298.592423
 51
61.407577
  0
ARC
  5
474
100
AcDbEntity
  8
M01
100
AcDbCircle
 10
407.754835
 20
282.608777
 30
0.0
 40
3.702778
100
AcDbArc
 50
326.92527
 51
33.07473
  0
ARC
  5
475
100
AcDbEntity
  8
M01
100
AcDbCircle
 10
410.306918
 20
279.577688
 30
0.0
 40
1.150694
100
AcDbArc
 50
298.592423
 51
61.407577
  0
ARC
  5
476
100
AcDbEntity
  8
M01
100
AcDbCircle
 10
409.608307
 20
285.639866
 30
0.0
 40
1.150694
100
AcDbArc
 50
118.592423
 51
241.407577
  0
ARC
  5
477
100
AcDbEntity
  8
M01
100
AcDbCircle
 10
412.16039
 20
282.608777
 30
0.0
 40
3.702778
100
AcDbArc
 50
146.92527
 51
213.07473
  0
LINE
  5
478
100
AcDbEntity
  8
M01
100
AcDbLine
 10
409.057613
 20
284.629503
 30
0.0
 11
410.857613
 21
284.629503
 31
0.0
  0
LINE
  5
479
100
AcDbEntity
  8
M01
100
AcDbLine
 10
409.057613
 20
286.650229
 30
0.0
 11
410.857613
 21
286.650229
 31
0.0
  0
ARC
  5
47A
100
AcDbEntity
  8
M01
100
AcDbCircle
 10
409.608307
 20
279.577688
 30
0.0
 40
1.150694
100
AcDbArc
 50
118.592423
 51
241.407577
  0
LINE
  5
47B
100
AcDbEntity
  8
M01
100
AcDbLine
 10
409.057613
 20
280.588051
 30
0.0
 11
410.857613
 21
280.588051
 31
0.0
  0
LINE
  5
47C
100
AcDbEntity
  8
M01
100
AcDbLine
 10
409.057613
 20
278.567325
 30
0.0
 11
410.857613
 21
278.567325
 31
0.0
  0
LINE
  5
47D
100
AcDbEntity
  8
M01
100
AcDbLine
 10
408.457613
 20
278.108777
 30
0.0
 11
408.457613
 21
287.108777
 31
0.0
  0
LINE
  5
47E
100
AcDbEntity
  8
M01
100
AcDbLine
 10
411.457613
 20
278.108777
 30
0.0
 11
411.457613
 21
287.108777
 31
0.0
  0
LINE
  5
47F
100
AcDbEntity
  8
M01
100
AcDbLine
 10
412.257613
 20
278.108777
 30
0.0
 11
412.257613
 21
287.108777
 31
0.0
  0
LINE
  5
480
100
AcDbEntity
  8
M01
100
AcDbLine
 10
399.257613
 20
284.108777
 30
0.0
 11
399.757613
 21
284.608777
 31
0.0
  0
LINE
  5
481
100
AcDbEntity
  8
M01
100
AcDbLine
 10
399.757613
 20
280.608777
 30
0.0
 11
399.257613
 21
281.108777
 31
0.0
  0
LINE
  5
482
100
AcDbEntity
  8
M01
100
AcDbLine
 10
399.757613
 20
280.608777
 30
0.0
 11
399.757613
 21
284.608777
 31
0.0
  0
LINE
  5
483
100
AcDbEntity
  8
M01
100
AcDbLine
 10
399.257613
 20
284.108777
 30
0.0
 11
402.357613
 21
284.108777
 31
0.0
  0
LINE
  5
484
100
AcDbEntity
  8
M01
100
AcDbLine
 10
399.257613
 20
281.108777
 30
0.0
 11
402.357613
 21
281.108777
 31
0.0
  0
LINE
  5
485
100
AcDbEntity
  8
M01
100
AcDbLine
 10
399.757613
 20
280.608777
 30
0.0
 11
402.357613
 21
280.608777
 31
0.0
  0
LINE
  5
486
100
AcDbEntity
  8
M01
100
AcDbLine
 10
399.757613
 20
284.608777
 30
0.0
 11
402.357613
 21
284.608777
 31
0.0
  0
LINE
  5
487
100
AcDbEntity
  8
M01
100
AcDbLine
 10
399.257613
 20
281.108777
 30
0.0
 11
399.257613
 21
284.108777
 31
0.0
  0
LINE
  5
488
100
AcDbEntity
  8
M01
100
AcDbLine
 10
424.257613
 20
277.608777
 30
0.0
 11
424.257613
 21
287.608777
 31
0.0
  0
LINE
  5
489
100
AcDbEntity
  8
M01
100
AcDbLine
 10
411.457613
 20
287.108777
 30
0.0
 11
412.257613
 21
287.108777
 31
0.0
  0
LINE
  5
48A
100
AcDbEntity
  8
M01
100
AcDbLine
 10
411.457613
 20
278.108777
 30
0.0
 11
412.257613
 21
278.108777
 31
0.0
  0
LINE
  5
48B
100
AcDbEntity
  8
CENTRE
100
AcDbLine
 10
393.096723
 20
282.608777
 30
0.0
 11
456.690155
 21
282.608777
 31
0.0
  0
LINE
  5
48C
100
AcDbEntity
  8
M04
100
AcDbLine
 10
384.257613
 20
249.608777
 30
0.0
 11
374.257613
 21
239.608777
 31
0.0
  0
LINE
  5
48D
100
AcDbEntity
  8
M04
100
AcDbLine
 10
363.586134
 20
239.608777
 30
0.0
 11
374.257613
 21
239.608777
 31
0.0
  0
LINE
  5
48E
100
AcDbEntity
  8
M04
100
AcDbLine
 10
384.257613
 20
295.608777
 30
0.0
 11
384.257613
 21
221.608777
 31
0.0
  0
LINE
  5
48F
100
AcDbEntity
  8
M01
100
AcDbLine
 10
662.257613
 20
245.608777
 30
0.0
 11
662.257613
 21
238.608777
 31
0.0
  0
LINE
  5
490
100
AcDbEntity
  8
M01
100
AcDbLine
 10
654.257613
 20
245.608777
 30
0.0
 11
654.257613
 21
238.608777
 31
0.0
  0
LINE
  5
491
102
{ACAD_REACTORS
330
F6
102
}
100
AcDbEntity
  8
M04
100
AcDbLine
 10
677.757613
 20
221.608777
 30
0.0
 11
830.257613
 21
221.608777
 31
0.0
  0
LINE
  5
492
100
AcDbEntity
  8
M02
100
AcDbLine
 10
623.257613
 20
228.608777
 30
0.0
 11
623.257613
 21
225.608777
 31
0.0
  0
LINE
  5
493
100
AcDbEntity
  8
M04
100
AcDbLine
 10
449.757613
 20
310.918178
 30
0.0
 11
445.757613
 21
308.608777
 31
0.0
  0
LINE
  5
494
100
AcDbEntity
  8
M04
100
AcDbLine
 10
453.757613
 20
308.608777
 30
0.0
 11
449.757613
 21
310.918178
 31
0.0
  0
LINE
  5
495
100
AcDbEntity
  8
M04
100
AcDbLine
 10
453.757613
 20
305.608777
 30
0.0
 11
453.757613
 21
308.608777
 31
0.0
  0
LINE
  5
496
100
AcDbEntity
  8
M04
100
AcDbLine
 10
445.757613
 20
308.608777
 30
0.0
 11
453.757613
 21
308.608777
 31
0.0
  0
LINE
  5
497
100
AcDbEntity
  8
M04
100
AcDbLine
 10
445.757613
 20
305.608777
 30
0.0
 11
445.757613
 21
308.608777
 31
0.0
  0
ARC
  5
498
100
AcDbEntity
  8
M05
100
AcDbCircle
 10
449.757613
 20
296.271073
 30
0.0
 40
10.837705
100
AcDbArc
 50
71.372238
 51
108.627762
  0
LINE
  5
499
100
AcDbEntity
  8
M05
100
AcDbLine
 10
453.757613
 20
305.608777
 30
0.0
 11
453.219376
 21
306.541031
 31
0.0
  0
LINE
  5
49A
100
AcDbEntity
  8
M05
100
AcDbLine
 10
446.295849
 20
306.541031
 30
0.0
 11
453.219376
 21
306.541031
 31
0.0
  0
LINE
  5
49B
100
AcDbEntity
  8
M05
100
AcDbLine
 10
445.757613
 20
305.608777
 30
0.0
 11
446.295849
 21
306.541031
 31
0.0
  0
LINE
  5
49C
100
AcDbEntity
  8
M05
100
AcDbLine
 10
445.757613
 20
305.608777
 30
0.0
 11
453.757613
 21
305.608777
 31
0.0
  0
LINE
  5
49D
100
AcDbEntity
  8
M04
100
AcDbLine
 10
453.757613
 20
295.608777
 30
0.0
 11
636.532613
 21
295.608777
 31
0.0
  0
LINE
  5
49E
100
AcDbEntity
  8
M04
100
AcDbLine
 10
453.757613
 20
296.108777
 30
0.0
 11
454.257613
 21
295.608777
 31
0.0
  0
LINE
  5
49F
100
AcDbEntity
  8
M04
100
AcDbLine
 10
445.757613
 20
296.108777
 30
0.0
 11
445.257613
 21
295.608777
 31
0.0
  0
ARC
  5
4A0
100
AcDbEntity
  8
M05
100
AcDbCircle
 10
449.757613
 20
296.742111
 30
0.0
 40
13.633333
100
AcDbArc
 50
252.938469
 51
287.061531
  0
LINE
  5
4A1
100
AcDbEntity
  8
M05
100
AcDbLine
 10
445.757613
 20
283.708777
 30
0.0
 11
453.757613
 21
283.708777
 31
0.0
  0
LINE
  5
4A2
100
AcDbEntity
  8
M05
100
AcDbLine
 10
453.757613
 20
305.608777
 30
0.0
 11
453.757613
 21
283.708777
 31
0.0
  0
LINE
  5
4A3
100
AcDbEntity
  8
M05
100
AcDbLine
 10
445.757613
 20
305.608777
 30
0.0
 11
445.757613
 21
283.708777
 31
0.0
  0
LINE
  5
4A4
100
AcDbEntity
  8
CENTRE
100
AcDbLine
 10
658.257613
 20
323.976174
 30
0.0
 11
658.257613
 21
193.716737
 31
0.0
  0
LINE
  5
4A5
100
AcDbEntity
  8
CENTRE
100
AcDbLine
 10
449.757613
 20
315.954895
 30
0.0
 11
449.757613
 21
277.865195
 31
0.0
  0
LINE
  5
4A6
100
AcDbEntity
  8
M04
100
AcDbLine
 10
363.586134
 20
221.608777
 30
0.0
 11
638.757613
 21
221.608777
 31
0.0
  0
LINE
  5
4A7
100
AcDbEntity
  8
M04
100
AcDbLine
 10
872.257613
 20
295.608777
 30
0.0
 11
872.257613
 21
221.608777
 31
0.0
  0
LINE
  5
4A8
100
AcDbEntity
  8
M04
100
AcDbLine
 10
384.257613
 20
295.608777
 30
0.0
 11
445.757613
 21
295.608777
 31
0.0
  0
LINE
  5
4A9
102
{ACAD_REACTORS
330
8E
102
}
100
AcDbEntity
  8
M02
100
AcDbLine
 10
456.257613
 20
288.608777
 30
0.0
 11
456.257613
 21
291.608777
 31
0.0
  0
LINE
  5
4AA
100
AcDbEntity
  8
M01
100
AcDbLine
 10
456.257613
 20
288.608777
 30
0.0
 11
456.257613
 21
282.608777
 31
0.0
  0
LINE
  5
4AB
100
AcDbEntity
  8
M01
100
AcDbLine
 10
444.257613
 20
282.608777
 30
0.0
 11
456.257613
 21
282.608777
 31
0.0
  0
LINE
  5
4AC
102
{ACAD_REACTORS
330
90
102
}
100
AcDbEntity
  8
M02
100
AcDbLine
 10
446.257613
 20
228.608777
 30
0.0
 11
446.257613
 21
225.608777
 31
0.0
  0
LINE
  5
4AD
102
{ACAD_REACTORS
330
94
102
}
100
AcDbEntity
  8
M02
100
AcDbLine
 10
863.257613
 20
288.608777
 30
0.0
 11
863.257613
 21
291.608777
 31
0.0
  0
LINE
  5
4AE
102
{ACAD_REACTORS
330
90
102
}
100
AcDbEntity
  8
M02
100
AcDbLine
 10
446.257613
 20
225.608777
 30
0.0
 11
624.257613
 21
225.608777
 31
0.0
  0
LINE
  5
4AF
102
{ACAD_REACTORS
330
8E
102
}
100
AcDbEntity
  8
M02
100
AcDbLine
 10
453.757613
 20
291.608777
 30
0.0
 11
636.532613
 21
291.608777
 31
0.0
  0
LINE
  5
4B0
100
AcDbEntity
  8
M01
100
AcDbLine
 10
863.257613
 20
228.608777
 30
0.0
 11
865.257613
 21
230.608777
 31
0.0
  0
LINE
  5
4B1
100
AcDbEntity
  8
M01
100
AcDbLine
 10
444.257613
 20
230.608777
 30
0.0
 11
446.257613
 21
228.608777
 31
0.0
  0
LINE
  5
4B2
100
AcDbEntity
  8
M01
100
AcDbLine
 10
445.257613
 20
287.608777
 30
0.0
 11
444.257613
 21
286.608777
 31
0.0
  0
LINE
  5
4B3
100
AcDbEntity
  8
M01
100
AcDbLine
 10
865.257613
 20
286.608777
 30
0.0
 11
863.257613
 21
288.608777
 31
0.0
  0
LINE
  5
4B4
102
{ACAD_REACTORS
330
90
102
}
100
AcDbEntity
  8
M01
100
AcDbLine
 10
446.257613
 20
228.608777
 30
0.0
 11
648.257613
 21
228.608777
 31
0.0
  0
LINE
  5
4B5
100
AcDbEntity
  8
M01
100
AcDbLine
 10
865.257613
 20
286.608777
 30
0.0
 11
865.257613
 21
230.608777
 31
0.0
  0
LINE
  5
4B6
100
AcDbEntity
  8
M01
100
AcDbLine
 10
444.257613
 20
286.608777
 30
0.0
 11
444.257613
 21
230.608777
 31
0.0
  0
LINE
  5
4B7
102
{ACAD_REACTORS
330
94
330
91
330
8E
102
}
100
AcDbEntity
  8
M01
100
AcDbLine
 10
453.757613
 20
288.608777
 30
0.0
 11
863.257613
 21
288.608777
 31
0.0
  0
LINE
  5
4B8
100
AcDbEntity
  8
M03
100
AcDbLine
 10
745.757613
 20
549.817698
 30
0.0
 11
830.429185
 21
634.489271
 31
0.0
  0
LINE
  5
4B9
100
AcDbEntity
  8
M03
100
AcDbLine
 10
751.414467
 20
544.160844
 30
0.0
 11
836.08604
 21
628.832417
 31
0.0
  0
LINE
  5
4BA
100
AcDbEntity
  8
CENTRE
100
AcDbLine
 10
745.757613
 20
544.160844
 30
0.0
 11
868.796994
 21
667.200225
 31
0.0
  0
LINE
  5
4BB
100
AcDbEntity
  8
M01
100
AcDbLine
 10
397.313512
 20
559.410844
 30
0.0
 11
397.313512
 21
552.910844
 31
0.0
  0
LINE
  5
4BC
100
AcDbEntity
  8
M01
100
AcDbLine
 10
389.201713
 20
559.410844
 30
0.0
 11
389.201713
 21
552.910844
 31
0.0
  0
LINE
  5
4BD
100
AcDbEntity
  8
M01
100
AcDbLine
 10
397.313512
 20
559.410844
 30
0.0
 11
399.257613
 21
559.410844
 31
0.0
  0
ARC
  5
4BE
100
AcDbEntity
  8
M01
100
AcDbCircle
 10
395.752263
 20
560.660844
 30
0.0
 40
2.0
100
AcDbArc
 50
270.0
 51
321.317813
  0
ARC
  5
4BF
100
AcDbEntity
  8
M01
100
AcDbCircle
 10
390.762962
 20
560.660844
 30
0.0
 40
2.0
100
AcDbArc
 50
218.682187
 51
270.0
  0
LINE
  5
4C0
100
AcDbEntity
  8
M01
100
AcDbLine
 10
387.257613
 20
559.410844
 30
0.0
 11
389.201713
 21
559.410844
 31
0.0
  0
LINE
  5
4C1
100
AcDbEntity
  8
M01
100
AcDbLine
 10
390.762962
 20
558.660844
 30
0.0
 11
395.752263
 21
558.660844
 31
0.0
  0
LINE
  5
4C2
100
AcDbEntity
  8
M01
100
AcDbLine
 10
397.313512
 20
552.910844
 30
0.0
 11
399.257613
 21
552.910844
 31
0.0
  0
ARC
  5
4C3
100
AcDbEntity
  8
M01
100
AcDbCircle
 10
395.752263
 20
551.660844
 30
0.0
 40
2.0
100
AcDbArc
 50
38.682187
 51
90.0
  0
ARC
  5
4C4
100
AcDbEntity
  8
M01
100
AcDbCircle
 10
390.762962
 20
551.660844
 30
0.0
 40
2.0
100
AcDbArc
 50
90.0
 51
141.317813
  0
LINE
  5
4C5
100
AcDbEntity
  8
M01
100
AcDbLine
 10
387.257613
 20
552.910844
 30
0.0
 11
389.201713
 21
552.910844
 31
0.0
  0
LINE
  5
4C6
100
AcDbEntity
  8
M01
100
AcDbLine
 10
390.762962
 20
553.660844
 30
0.0
 11
395.752263
 21
553.660844
 31
0.0
  0
LINE
  5
4C7
100
AcDbEntity
  8
M01
100
AcDbLine
 10
387.257613
 20
551.660844
 30
0.0
 11
387.257613
 21
560.660844
 31
0.0
  0
LINE
  5
4C8
100
AcDbEntity
  8
M01
100
AcDbLine
 10
386.457613
 20
560.660844
 30
0.0
 11
387.257613
 21
560.660844
 31
0.0
  0
LINE
  5
4C9
100
AcDbEntity
  8
M01
100
AcDbLine
 10
386.457613
 20
551.660844
 30
0.0
 11
387.257613
 21
551.660844
 31
0.0
  0
LINE
  5
4CA
100
AcDbEntity
  8
M01
100
AcDbLine
 10
397.313512
 20
528.910844
 30
0.0
 11
397.313512
 21
535.410844
 31
0.0
  0
LINE
  5
4CB
100
AcDbEntity
  8
M01
100
AcDbLine
 10
389.201713
 20
528.910844
 30
0.0
 11
389.201713
 21
535.410844
 31
0.0
  0
LINE
  5
4CC
100
AcDbEntity
  8
M01
100
AcDbLine
 10
397.313512
 20
528.910844
 30
0.0
 11
399.257613
 21
528.910844
 31
0.0
  0
ARC
  5
4CD
100
AcDbEntity
  8
M01
100
AcDbCircle
 10
395.752263
 20
527.660844
 30
0.0
 40
2.0
100
AcDbArc
 50
38.682187
 51
90.0
  0
ARC
  5
4CE
100
AcDbEntity
  8
M01
100
AcDbCircle
 10
390.762962
 20
527.660844
 30
0.0
 40
2.0
100
AcDbArc
 50
90.0
 51
141.317813
  0
LINE
  5
4CF
100
AcDbEntity
  8
M01
100
AcDbLine
 10
387.257613
 20
528.910844
 30
0.0
 11
389.201713
 21
528.910844
 31
0.0
  0
LINE
  5
4D0
100
AcDbEntity
  8
M01
100
AcDbLine
 10
390.762962
 20
529.660844
 30
0.0
 11
395.752263
 21
529.660844
 31
0.0
  0
LINE
  5
4D1
100
AcDbEntity
  8
M01
100
AcDbLine
 10
397.313512
 20
535.410844
 30
0.0
 11
399.257613
 21
535.410844
 31
0.0
  0
ARC
  5
4D2
100
AcDbEntity
  8
M01
100
AcDbCircle
 10
395.752263
 20
536.660844
 30
0.0
 40
2.0
100
AcDbArc
 50
270.0
 51
321.317813
  0
ARC
  5
4D3
100
AcDbEntity
  8
M01
100
AcDbCircle
 10
390.762962
 20
536.660844
 30
0.0
 40
2.0
100
AcDbArc
 50
218.682187
 51
270.0
  0
LINE
  5
4D4
100
AcDbEntity
  8
M01
100
AcDbLine
 10
387.257613
 20
535.410844
 30
0.0
 11
389.201713
 21
535.410844
 31
0.0
  0
LINE
  5
4D5
100
AcDbEntity
  8
M01
100
AcDbLine
 10
390.762962
 20
534.660844
 30
0.0
 11
395.752263
 21
534.660844
 31
0.0
  0
LINE
  5
4D6
100
AcDbEntity
  8
M01
100
AcDbLine
 10
404.257613
 20
561.160844
 30
0.0
 11
404.257613
 21
551.160844
 31
0.0
  0
LINE
  5
4D7
100
AcDbEntity
  8
M01
100
AcDbLine
 10
404.257613
 20
527.160844
 30
0.0
 11
404.257613
 21
537.160844
 31
0.0
  0
LINE
  5
4D8
100
AcDbEntity
  8
M01
100
AcDbLine
 10
399.257613
 20
527.160844
 30
0.0
 11
419.257613
 21
527.160844
 31
0.0
  0
LINE
  5
4D9
100
AcDbEntity
  8
M01
100
AcDbLine
 10
399.257613
 20
537.160844
 30
0.0
 11
419.257613
 21
537.160844
 31
0.0
  0
LINE
  5
4DA
100
AcDbEntity
  8
M01
100
AcDbLine
 10
399.257613
 20
551.160844
 30
0.0
 11
419.257613
 21
551.160844
 31
0.0
  0
LINE
  5
4DB
100
AcDbEntity
  8
M01
100
AcDbLine
 10
399.257613
 20
561.160844
 30
0.0
 11
419.257613
 21
561.160844
 31
0.0
  0
LINE
  5
4DC
100
AcDbEntity
  8
DIMS
 62
     4
100
AcDbLine
 10
424.757613
 20
547.560844
 30
0.0
 11
424.757613
 21
549.860844
 31
0.0
  0
LINE
  5
4DD
100
AcDbEntity
  8
DIMS
 62
     4
100
AcDbLine
 10
424.757613
 20
540.760844
 30
0.0
 11
424.757613
 21
538.460844
 31
0.0
  0
LINE
  5
4DE
100
AcDbEntity
  8
DIMS
 62
     4
100
AcDbLine
 10
424.757613
 20
542.460844
 30
0.0
 11
424.757613
 21
545.860844
 31
0.0
  0
LINE
  5
4DF
100
AcDbEntity
  8
M01
100
AcDbLine
 10
377.357613
 20
559.191933
 30
0.0
 11
377.357613
 21
553.129755
 31
0.0
  0
ARC
  5
4E0
100
AcDbEntity
  8
M01
100
AcDbCircle
 10
379.206918
 20
553.129755
 30
0.0
 40
1.150694
100
AcDbArc
 50
298.592423
 51
61.407577
  0
ARC
  5
4E1
100
AcDbEntity
  8
M01
100
AcDbCircle
 10
376.654835
 20
556.160844
 30
0.0
 40
3.702778
100
AcDbArc
 50
326.92527
 51
33.07473
  0
ARC
  5
4E2
100
AcDbEntity
  8
M01
100
AcDbCircle
 10
379.206918
 20
559.191933
 30
0.0
 40
1.150694
100
AcDbArc
 50
298.592423
 51
61.407577
  0
ARC
  5
4E3
100
AcDbEntity
  8
M01
100
AcDbCircle
 10
378.508307
 20
553.129755
 30
0.0
 40
1.150694
100
AcDbArc
 50
118.592423
 51
241.407577
  0
ARC
  5
4E4
100
AcDbEntity
  8
M01
100
AcDbCircle
 10
381.06039
 20
556.160844
 30
0.0
 40
3.702778
100
AcDbArc
 50
146.92527
 51
213.07473
  0
LINE
  5
4E5
100
AcDbEntity
  8
M01
100
AcDbLine
 10
377.957613
 20
554.140118
 30
0.0
 11
379.757613
 21
554.140118
 31
0.0
  0
LINE
  5
4E6
100
AcDbEntity
  8
M01
100
AcDbLine
 10
377.957613
 20
552.119392
 30
0.0
 11
379.757613
 21
552.119392
 31
0.0
  0
ARC
  5
4E7
100
AcDbEntity
  8
M01
100
AcDbCircle
 10
378.508307
 20
559.191933
 30
0.0
 40
1.150694
100
AcDbArc
 50
118.592423
 51
241.407577
  0
LINE
  5
4E8
100
AcDbEntity
  8
M01
100
AcDbLine
 10
377.957613
 20
558.18157
 30
0.0
 11
379.757613
 21
558.18157
 31
0.0
  0
LINE
  5
4E9
100
AcDbEntity
  8
M01
100
AcDbLine
 10
377.957613
 20
560.202296
 30
0.0
 11
379.757613
 21
560.202296
 31
0.0
  0
LINE
  5
4EA
100
AcDbEntity
  8
M01
100
AcDbLine
 10
382.657613
 20
551.160844
 30
0.0
 11
381.157613
 21
551.160844
 31
0.0
  0
LINE
  5
4EB
100
AcDbEntity
  8
M01
100
AcDbLine
 10
382.657613
 20
561.160844
 30
0.0
 11
381.157613
 21
561.160844
 31
0.0
  0
LINE
  5
4EC
100
AcDbEntity
  8
M01
100
AcDbLine
 10
381.157613
 20
551.660844
 30
0.0
 11
380.357613
 21
551.660844
 31
0.0
  0
LINE
  5
4ED
100
AcDbEntity
  8
M01
100
AcDbLine
 10
381.157613
 20
560.660844
 30
0.0
 11
380.357613
 21
560.660844
 31
0.0
  0
LINE
  5
4EE
100
AcDbEntity
  8
M01
100
AcDbLine
 10
380.357613
 20
560.660844
 30
0.0
 11
380.357613
 21
551.660844
 31
0.0
  0
LINE
  5
4EF
100
AcDbEntity
  8
M01
100
AcDbLine
 10
381.157613
 20
561.160844
 30
0.0
 11
381.157613
 21
551.160844
 31
0.0
  0
LINE
  5
4F0
100
AcDbEntity
  8
M01
100
AcDbLine
 10
383.457613
 20
551.660844
 30
0.0
 11
382.657613
 21
551.660844
 31
0.0
  0
LINE
  5
4F1
100
AcDbEntity
  8
M01
100
AcDbLine
 10
383.457613
 20
560.660844
 30
0.0
 11
382.657613
 21
560.660844
 31
0.0
  0
LINE
  5
4F2
100
AcDbEntity
  8
M01
100
AcDbLine
 10
382.657613
 20
561.160844
 30
0.0
 11
382.657613
 21
551.160844
 31
0.0
  0
ARC
  5
4F3
100
AcDbEntity
  8
M01
100
AcDbCircle
 10
385.306918
 20
553.129755
 30
0.0
 40
1.150694
100
AcDbArc
 50
298.592423
 51
61.407577
  0
ARC
  5
4F4
100
AcDbEntity
  8
M01
100
AcDbCircle
 10
382.754835
 20
556.160844
 30
0.0
 40
3.702778
100
AcDbArc
 50
326.92527
 51
33.07473
  0
ARC
  5
4F5
100
AcDbEntity
  8
M01
100
AcDbCircle
 10
385.306918
 20
559.191933
 30
0.0
 40
1.150694
100
AcDbArc
 50
298.592423
 51
61.407577
  0
ARC
  5
4F6
100
AcDbEntity
  8
M01
100
AcDbCircle
 10
384.608307
 20
553.129755
 30
0.0
 40
1.150694
100
AcDbArc
 50
118.592423
 51
241.407577
  0
ARC
  5
4F7
100
AcDbEntity
  8
M01
100
AcDbCircle
 10
387.16039
 20
556.160844
 30
0.0
 40
3.702778
100
AcDbArc
 50
146.92527
 51
213.07473
  0
LINE
  5
4F8
100
AcDbEntity
  8
M01
100
AcDbLine
 10
384.057613
 20
554.140118
 30
0.0
 11
385.857613
 21
554.140118
 31
0.0
  0
LINE
  5
4F9
100
AcDbEntity
  8
M01
100
AcDbLine
 10
384.057613
 20
552.119392
 30
0.0
 11
385.857613
 21
552.119392
 31
0.0
  0
ARC
  5
4FA
100
AcDbEntity
  8
M01
100
AcDbCircle
 10
384.608307
 20
559.191933
 30
0.0
 40
1.150694
100
AcDbArc
 50
118.592423
 51
241.407577
  0
LINE
  5
4FB
100
AcDbEntity
  8
M01
100
AcDbLine
 10
384.057613
 20
558.18157
 30
0.0
 11
385.857613
 21
558.18157
 31
0.0
  0
LINE
  5
4FC
100
AcDbEntity
  8
M01
100
AcDbLine
 10
384.057613
 20
560.202296
 30
0.0
 11
385.857613
 21
560.202296
 31
0.0
  0
LINE
  5
4FD
100
AcDbEntity
  8
M01
100
AcDbLine
 10
383.457613
 20
560.660844
 30
0.0
 11
383.457613
 21
551.660844
 31
0.0
  0
LINE
  5
4FE
100
AcDbEntity
  8
M01
100
AcDbLine
 10
386.457613
 20
560.660844
 30
0.0
 11
386.457613
 21
551.660844
 31
0.0
  0
LINE
  5
4FF
100
AcDbEntity
  8
M01
100
AcDbLine
 10
374.257613
 20
554.660844
 30
0.0
 11
374.757613
 21
554.160844
 31
0.0
  0
LINE
  5
500
100
AcDbEntity
  8
M01
100
AcDbLine
 10
374.757613
 20
558.160844
 30
0.0
 11
374.257613
 21
557.660844
 31
0.0
  0
LINE
  5
501
100
AcDbEntity
  8
M01
100
AcDbLine
 10
374.757613
 20
558.160844
 30
0.0
 11
374.757613
 21
554.160844
 31
0.0
  0
LINE
  5
502
100
AcDbEntity
  8
M01
100
AcDbLine
 10
374.257613
 20
554.660844
 30
0.0
 11
377.357613
 21
554.660844
 31
0.0
  0
LINE
  5
503
100
AcDbEntity
  8
M01
100
AcDbLine
 10
374.257613
 20
557.660844
 30
0.0
 11
377.357613
 21
557.660844
 31
0.0
  0
LINE
  5
504
100
AcDbEntity
  8
M01
100
AcDbLine
 10
374.757613
 20
558.160844
 30
0.0
 11
377.357613
 21
558.160844
 31
0.0
  0
LINE
  5
505
100
AcDbEntity
  8
M01
100
AcDbLine
 10
374.757613
 20
554.160844
 30
0.0
 11
377.357613
 21
554.160844
 31
0.0
  0
LINE
  5
506
100
AcDbEntity
  8
M01
100
AcDbLine
 10
374.257613
 20
557.660844
 30
0.0
 11
374.257613
 21
554.660844
 31
0.0
  0
LINE
  5
507
100
AcDbEntity
  8
M01
100
AcDbLine
 10
399.257613
 20
561.160844
 30
0.0
 11
399.257613
 21
551.160844
 31
0.0
  0
LINE
  5
508
100
AcDbEntity
  8
CENTRE
100
AcDbLine
 10
368.096723
 20
556.160844
 30
0.0
 11
431.690155
 21
556.160844
 31
0.0
  0
LINE
  5
509
100
AcDbEntity
  8
M01
100
AcDbLine
 10
377.357613
 20
529.129755
 30
0.0
 11
377.357613
 21
535.191933
 31
0.0
  0
ARC
  5
50A
100
AcDbEntity
  8
M01
100
AcDbCircle
 10
379.206918
 20
535.191933
 30
0.0
 40
1.150694
100
AcDbArc
 50
298.592423
 51
61.407577
  0
ARC
  5
50B
100
AcDbEntity
  8
M01
100
AcDbCircle
 10
376.654835
 20
532.160844
 30
0.0
 40
3.702778
100
AcDbArc
 50
326.92527
 51
33.07473
  0
ARC
  5
50C
100
AcDbEntity
  8
M01
100
AcDbCircle
 10
379.206918
 20
529.129755
 30
0.0
 40
1.150694
100
AcDbArc
 50
298.592423
 51
61.407577
  0
ARC
  5
50D
100
AcDbEntity
  8
M01
100
AcDbCircle
 10
378.508307
 20
535.191933
 30
0.0
 40
1.150694
100
AcDbArc
 50
118.592423
 51
241.407577
  0
ARC
  5
50E
100
AcDbEntity
  8
M01
100
AcDbCircle
 10
381.06039
 20
532.160844
 30
0.0
 40
3.702778
100
AcDbArc
 50
146.92527
 51
213.07473
  0
LINE
  5
50F
100
AcDbEntity
  8
M01
100
AcDbLine
 10
377.957613
 20
534.18157
 30
0.0
 11
379.757613
 21
534.18157
 31
0.0
  0
LINE
  5
510
100
AcDbEntity
  8
M01
100
AcDbLine
 10
377.957613
 20
536.202296
 30
0.0
 11
379.757613
 21
536.202296
 31
0.0
  0
ARC
  5
511
100
AcDbEntity
  8
M01
100
AcDbCircle
 10
378.508307
 20
529.129755
 30
0.0
 40
1.150694
100
AcDbArc
 50
118.592423
 51
241.407577
  0
LINE
  5
512
100
AcDbEntity
  8
M01
100
AcDbLine
 10
377.957613
 20
530.140118
 30
0.0
 11
379.757613
 21
530.140118
 31
0.0
  0
LINE
  5
513
100
AcDbEntity
  8
M01
100
AcDbLine
 10
377.957613
 20
528.119392
 30
0.0
 11
379.757613
 21
528.119392
 31
0.0
  0
LINE
  5
514
100
AcDbEntity
  8
M01
100
AcDbLine
 10
382.657613
 20
537.160844
 30
0.0
 11
381.157613
 21
537.160844
 31
0.0
  0
LINE
  5
515
100
AcDbEntity
  8
M01
100
AcDbLine
 10
382.657613
 20
527.160844
 30
0.0
 11
381.157613
 21
527.160844
 31
0.0
  0
LINE
  5
516
100
AcDbEntity
  8
M01
100
AcDbLine
 10
381.157613
 20
536.660844
 30
0.0
 11
380.357613
 21
536.660844
 31
0.0
  0
LINE
  5
517
100
AcDbEntity
  8
M01
100
AcDbLine
 10
381.157613
 20
527.660844
 30
0.0
 11
380.357613
 21
527.660844
 31
0.0
  0
LINE
  5
518
100
AcDbEntity
  8
M01
100
AcDbLine
 10
380.357613
 20
527.660844
 30
0.0
 11
380.357613
 21
536.660844
 31
0.0
  0
LINE
  5
519
100
AcDbEntity
  8
M01
100
AcDbLine
 10
381.157613
 20
527.160844
 30
0.0
 11
381.157613
 21
537.160844
 31
0.0
  0
LINE
  5
51A
100
AcDbEntity
  8
M01
100
AcDbLine
 10
383.457613
 20
536.660844
 30
0.0
 11
382.657613
 21
536.660844
 31
0.0
  0
LINE
  5
51B
100
AcDbEntity
  8
M01
100
AcDbLine
 10
383.457613
 20
527.660844
 30
0.0
 11
382.657613
 21
527.660844
 31
0.0
  0
LINE
  5
51C
100
AcDbEntity
  8
M01
100
AcDbLine
 10
382.657613
 20
527.160844
 30
0.0
 11
382.657613
 21
537.160844
 31
0.0
  0
ARC
  5
51D
100
AcDbEntity
  8
M01
100
AcDbCircle
 10
385.306918
 20
535.191933
 30
0.0
 40
1.150694
100
AcDbArc
 50
298.592423
 51
61.407577
  0
ARC
  5
51E
100
AcDbEntity
  8
M01
100
AcDbCircle
 10
382.754835
 20
532.160844
 30
0.0
 40
3.702778
100
AcDbArc
 50
326.92527
 51
33.07473
  0
ARC
  5
51F
100
AcDbEntity
  8
M01
100
AcDbCircle
 10
385.306918
 20
529.129755
 30
0.0
 40
1.150694
100
AcDbArc
 50
298.592423
 51
61.407577
  0
ARC
  5
520
100
AcDbEntity
  8
M01
100
AcDbCircle
 10
384.608307
 20
535.191933
 30
0.0
 40
1.150694
100
AcDbArc
 50
118.592423
 51
241.407577
  0
ARC
  5
521
100
AcDbEntity
  8
M01
100
AcDbCircle
 10
387.16039
 20
532.160844
 30
0.0
 40
3.702778
100
AcDbArc
 50
146.92527
 51
213.07473
  0
LINE
  5
522
100
AcDbEntity
  8
M01
100
AcDbLine
 10
384.057613
 20
534.18157
 30
0.0
 11
385.857613
 21
534.18157
 31
0.0
  0
LINE
  5
523
100
AcDbEntity
  8
M01
100
AcDbLine
 10
384.057613
 20
536.202296
 30
0.0
 11
385.857613
 21
536.202296
 31
0.0
  0
ARC
  5
524
100
AcDbEntity
  8
M01
100
AcDbCircle
 10
384.608307
 20
529.129755
 30
0.0
 40
1.150694
100
AcDbArc
 50
118.592423
 51
241.407577
  0
LINE
  5
525
100
AcDbEntity
  8
M01
100
AcDbLine
 10
384.057613
 20
530.140118
 30
0.0
 11
385.857613
 21
530.140118
 31
0.0
  0
LINE
  5
526
100
AcDbEntity
  8
M01
100
AcDbLine
 10
384.057613
 20
528.119392
 30
0.0
 11
385.857613
 21
528.119392
 31
0.0
  0
LINE
  5
527
100
AcDbEntity
  8
M01
100
AcDbLine
 10
383.457613
 20
527.660844
 30
0.0
 11
383.457613
 21
536.660844
 31
0.0
  0
LINE
  5
528
100
AcDbEntity
  8
M01
100
AcDbLine
 10
386.457613
 20
527.660844
 30
0.0
 11
386.457613
 21
536.660844
 31
0.0
  0
LINE
  5
529
100
AcDbEntity
  8
M01
100
AcDbLine
 10
387.257613
 20
527.660844
 30
0.0
 11
387.257613
 21
536.660844
 31
0.0
  0
LINE
  5
52A
100
AcDbEntity
  8
M04
100
AcDbLine
 10
359.257613
 20
561.160844
 30
0.0
 11
338.586134
 21
561.160844
 31
0.0
  0
LINE
  5
52B
100
AcDbEntity
  8
M04
100
AcDbLine
 10
359.257613
 20
527.160844
 30
0.0
 11
338.586134
 21
527.160844
 31
0.0
  0
ARC
  5
52C
100
AcDbEntity
  8
M04
100
AcDbCircle
 10
374.257613
 20
561.160844
 30
0.0
 40
15.0
100
AcDbArc
 50
90.0
 51
180.0
  0
ARC
  5
52D
100
AcDbEntity
  8
M04
100
AcDbCircle
 10
374.257613
 20
527.160844
 30
0.0
 40
15.0
100
AcDbArc
 50
180.0
 51
270.0
  0
LINE
  5
52E
100
AcDbEntity
  8
M04
100
AcDbLine
 10
359.257613
 20
527.160844
 30
0.0
 11
359.257613
 21
561.160844
 31
0.0
  0
LINE
  5
52F
100
AcDbEntity
  8
M01
100
AcDbLine
 10
374.257613
 20
533.660844
 30
0.0
 11
374.757613
 21
534.160844
 31
0.0
  0
LINE
  5
530
100
AcDbEntity
  8
M01
100
AcDbLine
 10
374.757613
 20
530.160844
 30
0.0
 11
374.257613
 21
530.660844
 31
0.0
  0
LINE
  5
531
100
AcDbEntity
  8
M01
100
AcDbLine
 10
374.757613
 20
530.160844
 30
0.0
 11
374.757613
 21
534.160844
 31
0.0
  0
LINE
  5
532
100
AcDbEntity
  8
M01
100
AcDbLine
 10
374.257613
 20
533.660844
 30
0.0
 11
377.357613
 21
533.660844
 31
0.0
  0
LINE
  5
533
100
AcDbEntity
  8
M01
100
AcDbLine
 10
374.257613
 20
530.660844
 30
0.0
 11
377.357613
 21
530.660844
 31
0.0
  0
LINE
  5
534
100
AcDbEntity
  8
M01
100
AcDbLine
 10
374.757613
 20
530.160844
 30
0.0
 11
377.357613
 21
530.160844
 31
0.0
  0
LINE
  5
535
100
AcDbEntity
  8
M01
100
AcDbLine
 10
374.757613
 20
534.160844
 30
0.0
 11
377.357613
 21
534.160844
 31
0.0
  0
LINE
  5
536
100
AcDbEntity
  8
M01
100
AcDbLine
 10
374.257613
 20
530.660844
 30
0.0
 11
374.257613
 21
533.660844
 31
0.0
  0
LINE
  5
537
100
AcDbEntity
  8
M01
100
AcDbLine
 10
399.257613
 20
527.160844
 30
0.0
 11
399.257613
 21
537.160844
 31
0.0
  0
LINE
  5
538
100
AcDbEntity
  8
M01
100
AcDbLine
 10
386.457613
 20
536.660844
 30
0.0
 11
387.257613
 21
536.660844
 31
0.0
  0
LINE
  5
539
100
AcDbEntity
  8
M01
100
AcDbLine
 10
386.457613
 20
527.660844
 30
0.0
 11
387.257613
 21
527.660844
 31
0.0
  0
LINE
  5
53A
100
AcDbEntity
  8
CENTRE
100
AcDbLine
 10
368.096723
 20
532.160844
 30
0.0
 11
431.690155
 21
532.160844
 31
0.0
  0
LINE
  5
53B
100
AcDbEntity
  8
M04
100
AcDbLine
 10
374.257613
 20
512.160844
 30
0.0
 11
471.532216
 21
512.160844
 31
0.0
  0
LWPOLYLINE
  5
53C
100
AcDbEntity
  8
M01
100
AcDbPolyline
 90
        2
 70
     0
 43
4.0
 10
424.757613
 20
546.160844
 42
0.414214
 10
422.757613
 20
544.160844
  0
LWPOLYLINE
  5
53D
100
AcDbEntity
  8
M01
100
AcDbPolyline
 90
        2
 70
     0
 43
4.0
 10
424.757613
 20
542.160844
 42
0.414214
 10
426.757613
 20
544.160844
  0
CIRCLE
  5
53E
100
AcDbEntity
  8
M01
100
AcDbCircle
 10
424.757613
 20
544.160844
 30
0.0
 40
4.0
  0
LINE
  5
53F
100
AcDbEntity
  8
M01
100
AcDbLine
 10
427.257613
 20
548.160844
 30
0.0
 11
419.257613
 21
548.160844
 31
0.0
  0
LINE
  5
540
100
AcDbEntity
  8
M01
100
AcDbLine
 10
427.257613
 20
540.160844
 30
0.0
 11
419.257613
 21
540.160844
 31
0.0
  0
ARC
  5
541
100
AcDbEntity
  8
M01
100
AcDbCircle
 10
427.257613
 20
544.160844
 30
0.0
 40
4.0
100
AcDbArc
 50
270.0
 51
90.0
  0
LINE
  5
542
100
AcDbEntity
  8
M01
100
AcDbLine
 10
419.257613
 20
564.160844
 30
0.0
 11
421.257613
 21
566.160844
 31
0.0
  0
LINE
  5
543
100
AcDbEntity
  8
M01
100
AcDbLine
 10
421.257613
 20
522.160844
 30
0.0
 11
419.257613
 21
524.160844
 31
0.0
  0
LINE
  5
544
100
AcDbEntity
  8
M01
100
AcDbLine
 10
419.257613
 20
524.160844
 30
0.0
 11
419.257613
 21
564.160844
 31
0.0
  0
LINE
  5
545
100
AcDbEntity
  8
M01
100
AcDbLine
 10
421.257613
 20
566.160844
 30
0.0
 11
474.532216
 21
566.160844
 31
0.0
  0
LINE
  5
546
100
AcDbEntity
  8
M01
100
AcDbLine
 10
421.257613
 20
522.160844
 30
0.0
 11
474.532216
 21
522.160844
 31
0.0
  0
CIRCLE
  5
547
100
AcDbEntity
  8
M03
100
AcDbCircle
 10
745.757613
 20
544.160844
 30
0.0
 40
4.0
  0
CIRCLE
  5
548
100
AcDbEntity
  8
M01
100
AcDbCircle
 10
483.257613
 20
631.660844
 30
0.0
 40
4.0
  0
LINE
  5
549
100
AcDbEntity
  8
CENTRE
100
AcDbLine
 10
327.635032
 20
544.160844
 30
0.0
 11
988.880194
 21
544.160844
 31
0.0
  0
LINE
  5
54A
100
AcDbEntity
  8
CENTRE
100
AcDbLine
 10
658.257613
 20
699.69383
 30
0.0
 11
658.257613
 21
388.627857
 31
0.0
  0
ENDSEC
  0
SECTION
  2
OBJECTS
  0
DICTIONARY
  5
1C
100
AcDbDictionary
  3
ACAD_GROUP
350
1A
  3
ACAD_MLINESTYLE
350
1B
  0
DICTIONARY
  5
3
100
AcDbDictionary
280
     1
  3
ACAD_SORTENTS
360
4
  0
DICTIONARY
  5
1A
102
{ACAD_REACTORS
330
1C
102
}
100
AcDbDictionary
  0
DICTIONARY
  5
1B
102
{ACAD_REACTORS
330
1C
102
}
100
AcDbDictionary
  3
STANDARD
350
1E
  0
SORTENTSTABLE
  5
4
102
{ACAD_REACTORS
330
3
102
}
100
AcDbSortentsTable
330
2
  0
MLINESTYLE
  5
1E
102
{ACAD_REACTORS
330
1B
102
}
100
AcDbMlineStyle
  2
STANDARD
 70
     0
  3

 62
   256
 51
90.0
 52
90.0
 71
     2
 49
0.5
 62
   256
  6
BYLAYER
 49
-0.5
 62
   256
  6
BYLAYER
  0
ENDSEC
  0
EOF
