  0
SECTION
  2
HEADER
  9
$ACADVER
  1
AC1014
  9
$ACADMAINTVER
 70
     9
  9
$DWGCODEPAGE
  3
ANSI_1252
  9
$INSBASE
 10
0.0
 20
0.0
 30
0.0
  9
$EXTMIN
 10
173.782646
 20
74.128736
 30
-0.222949
  9
$EXTMAX
 10
1173.151693
 20
726.150925
 30
0.0
  9
$LIMMIN
 10
0.0
 20
0.0
  9
$LIMMAX
 10
1189.0
 20
841.0
  9
$ORTHOMODE
 70
     1
  9
$REGENMODE
 70
     1
  9
$FILLMODE
 70
     1
  9
$QTEXTMODE
 70
     0
  9
$MIRRTEXT
 70
     1
  9
$DRAGMODE
 70
     2
  9
$LTSCALE
 40
8.0
  9
$OSMODE
 70
     0
  9
$ATTMODE
 70
     1
  9
$TEXTSIZE
 40
3.0
  9
$TRACEWID
 40
10.0
  9
$TEXTSTYLE
  7
STANDARD
  9
$CLAYER
  8
HATCH
  9
$CELTYPE
  6
BYLAYER
  9
$CECOLOR
 62
   256
  9
$CELTSCALE
 40
1.0
  9
$DELOBJ
 70
     1
  9
$DISPSILH
 70
     0
  9
$DIMSCALE
 40
1.0
  9
$DIMASZ
 40
3.0
  9
$DIMEXO
 40
1.0
  9
$DIMDLI
 40
10.0
  9
$DIMRND
 40
0.01
  9
$DIMDLE
 40
1.25
  9
$DIMEXE
 40
2.5
  9
$DIMTP
 40
0.05
  9
$DIMTM
 40
0.0
  9
$DIMTXT
 40
3.0
  9
$DIMCEN
 40
-1.7
  9
$DIMTSZ
 40
0.0
  9
$DIMTOL
 70
     0
  9
$DIMLIM
 70
     0
  9
$DIMTIH
 70
     0
  9
$DIMTOH
 70
     0
  9
$DIMSE1
 70
     0
  9
$DIMSE2
 70
     0
  9
$DIMTAD
 70
     3
  9
$DIMZIN
 70
     1
  9
$DIMBLK
  1

  9
$DIMASO
 70
     1
  9
$DIMSHO
 70
     0
  9
$DIMPOST
  1

  9
$DIMAPOST
  1

  9
$DIMALT
 70
     0
  9
$DIMALTD
 70
     2
  9
$DIMALTF
 40
0.039
  9
$DIMLFAC
 40
1.0
  9
$DIMTOFL
 70
     0
  9
$DIMTVP
 40
1.5
  9
$DIMTIX
 70
     0
  9
$DIMSOXD
 70
     0
  9
$DIMSAH
 70
     0
  9
$DIMBLK1
  1

  9
$DIMBLK2
  1

  9
$DIMSTYLE
  2
DIM1
  9
$DIMCLRD
 70
     4
  9
$DIMCLRE
 70
     4
  9
$DIMCLRT
 70
     2
  9
$DIMTFAC
 40
0.7
  9
$DIMGAP
 40
1.5
  9
$DIMJUST
 70
     0
  9
$DIMSD1
 70
     0
  9
$DIMSD2
 70
     0
  9
$DIMTOLJ
 70
     1
  9
$DIMTZIN
 70
     1
  9
$DIMALTZ
 70
     1
  9
$DIMALTTZ
 70
     1
  9
$DIMFIT
 70
     0
  9
$DIMUPT
 70
     0
  9
$DIMUNIT
 70
     2
  9
$DIMDEC
 70
     2
  9
$DIMTDEC
 70
     2
  9
$DIMALTU
 70
     2
  9
$DIMALTTD
 70
     2
  9
$DIMTXSTY
  7
STANDARD
  9
$DIMAUNIT
 70
     0
  9
$LUNITS
 70
     2
  9
$LUPREC
 70
     2
  9
$SKETCHINC
 40
1.0
  9
$FILLETRAD
 40
15.0
  9
$AUNITS
 70
     0
  9
$AUPREC
 70
     3
  9
$MENU
  1
ACAD
  9
$ELEVATION
 40
0.0
  9
$PELEVATION
 40
0.0
  9
$THICKNESS
 40
0.0
  9
$LIMCHECK
 70
     0
  9
$BLIPMODE
 70
     1
  9
$CHAMFERA
 40
7.0
  9
$CHAMFERB
 40
7.0
  9
$CHAMFERC
 40
0.0
  9
$CHAMFERD
 40
0.0
  9
$SKPOLY
 70
     1
  9
$TDCREATE
 40
2449993.725698611
  9
$TDUPDATE
 40
2452213.499629606
  9
$TDINDWG
 40
1.2836607755
  9
$TDUSRTIMER
 40
1.2836607755
  9
$USRTIMER
 70
     1
  9
$ANGBASE
 50
0.0
  9
$ANGDIR
 70
     0
  9
$PDMODE
 70
     3
  9
$PDSIZE
 40
0.0
  9
$PLINEWID
 40
0.0
  9
$COORDS
 70
     2
  9
$SPLFRAME
 70
     0
  9
$SPLINETYPE
 70
     6
  9
$SPLINESEGS
 70
     6
  9
$ATTDIA
 70
     1
  9
$ATTREQ
 70
     1
  9
$HANDLING
 70
     1
  9
$HANDSEED
  5
546
  9
$SURFTAB1
 70
    12
  9
$SURFTAB2
 70
    12
  9
$SURFTYPE
 70
     6
  9
$SURFU
 70
    12
  9
$SURFV
 70
    12
  9
$UCSNAME
  2

  9
$UCSORG
 10
0.0
 20
0.0
 30
0.0
  9
$UCSXDIR
 10
1.0
 20
0.0
 30
0.0
  9
$UCSYDIR
 10
0.0
 20
1.0
 30
0.0
  9
$PUCSNAME
  2

  9
$PUCSORG
 10
0.0
 20
0.0
 30
0.0
  9
$PUCSXDIR
 10
1.0
 20
0.0
 30
0.0
  9
$PUCSYDIR
 10
0.0
 20
1.0
 30
0.0
  9
$USERI1
 70
     0
  9
$USERI2
 70
     0
  9
$USERI3
 70
     0
  9
$USERI4
 70
     0
  9
$USERI5
 70
     0
  9
$USERR1
 40
0.0
  9
$USERR2
 40
0.0
  9
$USERR3
 40
0.0
  9
$USERR4
 40
0.0
  9
$USERR5
 40
0.0
  9
$WORLDVIEW
 70
     0
  9
$SHADEDGE
 70
     3
  9
$SHADEDIF
 70
    70
  9
$TILEMODE
 70
     1
  9
$MAXACTVP
 70
    16
  9
$PINSBASE
 10
0.0
 20
0.0
 30
0.0
  9
$PLIMCHECK
 70
     0
  9
$PEXTMIN
 10
1.000000E+20
 20
1.000000E+20
 30
1.000000E+20
  9
$PEXTMAX
 10
-1.000000E+20
 20
-1.000000E+20
 30
-1.000000E+20
  9
$PLIMMIN
 10
0.0
 20
0.0
  9
$PLIMMAX
 10
12.0
 20
9.0
  9
$UNITMODE
 70
     0
  9
$VISRETAIN
 70
     0
  9
$PLINEGEN
 70
     0
  9
$PSLTSCALE
 70
     0
  9
$TREEDEPTH
 70
  3020
  9
$PICKSTYLE
 70
     1
  9
$CMLSTYLE
  2
STANDARD
  9
$CMLJUST
 70
     0
  9
$CMLSCALE
 40
1.0
  9
$PROXYGRAPHICS
 70
     1
  9
$MEASUREMENT
 70
     0
  0
ENDSEC
  0
SECTION
  2
CLASSES
  0
CLASS
  1
DICTIONARYVAR
  2
AcDbDictionaryVar
  3
"AutoCAD"
 90
        0
280
     0
281
     0
  0
CLASS
  1
LWPOLYLINE
  2
AcDbPolyline
  3
"AutoCAD"
 90
        0
280
     0
281
     1
  0
CLASS
  1
HATCH
  2
AcDbHatch
  3
"ACAD_SEDONA"
 90
        0
280
     0
281
     1
  0
CLASS
  1
SORTENTSTABLE
  2
AcDbSortentsTable
  3
"AutoCAD"
 90
        0
280
     0
281
     0
  0
CLASS
  1
WIPEOUTVARIABLES
  2
AcDbWipeoutVariables
  3
WIPEOUT
 90
        0
280
     0
281
     0
  0
CLASS
  1
WIPEOUT
  2
AcDbWipeout
  3
WIPEOUT
 90
      127
280
     0
281
     1
  0
ENDSEC
  0
SECTION
  2
TABLES
  0
TABLE
  2
VPORT
  5
14
100
AcDbSymbolTable
 70
     2
  0
VPORT
  5
545
100
AcDbSymbolTableRecord
100
AcDbViewportTableRecord
  2
*ACTIVE
 70
     0
 10
0.0
 20
0.0
 11
1.0
 21
1.0
 12
602.038644
 22
407.720885
 13
0.0
 23
0.0
 14
10.0
 24
10.0
 15
0.0
 25
0.0
 16
0.0
 26
0.0
 36
1.0
 17
16.313321
 27
12.779115
 37
0.222949
 40
841.0
 41
1.470516
 42
50.0
 43
0.0
 44
0.0
 50
0.0
 51
0.0
 71
     0
 72
  2000
 73
     1
 74
     2
 75
     0
 76
     0
 77
     0
 78
     1
  0
ENDTAB
  0
TABLE
  2
LTYPE
  5
F
100
AcDbSymbolTable
 70
     3
  0
LTYPE
  5
10
100
AcDbSymbolTableRecord
100
AcDbLinetypeTableRecord
  2
BYBLOCK
 70
     0
  3

 72
    65
 73
     0
 40
0.0
  0
LTYPE
  5
11
100
AcDbSymbolTableRecord
100
AcDbLinetypeTableRecord
  2
BYLAYER
 70
     0
  3

 72
    65
 73
     0
 40
0.0
  0
LTYPE
  5
7
100
AcDbSymbolTableRecord
100
AcDbLinetypeTableRecord
  2
CONTINUOUS
 70
     0
  3
Solid line
 72
    65
 73
     0
 40
0.0
  0
LTYPE
  5
B3
100
AcDbSymbolTableRecord
100
AcDbLinetypeTableRecord
  2
CENTER
 70
     0
  3
Center ____ _ ____ _ ____ _ ____ _ ____ _ ____
 72
    65
 73
     4
 40
2.0
 49
1.25
 74
     0
 49
-0.25
 74
     0
 49
0.25
 74
     0
 49
-0.25
 74
     0
  0
LTYPE
  5
94
100
AcDbSymbolTableRecord
100
AcDbLinetypeTableRecord
  2
HIDDEN
 70
     0
  3
Hidden __ __ __ __ __ __ __ __ __ __ __ __ __ _
 72
    65
 73
     2
 40
0.375
 49
0.25
 74
     0
 49
-0.125
 74
     0
  0
ENDTAB
  0
TABLE
  2
LAYER
  5
C
100
AcDbSymbolTable
 70
    11
  0
LAYER
  5
6
100
AcDbSymbolTableRecord
100
AcDbLayerTableRecord
  2
0
 70
     0
 62
     7
  6
CONTINUOUS
  0
LAYER
  5
B2
100
AcDbSymbolTableRecord
100
AcDbLayerTableRecord
  2
CENTRE
 70
     0
 62
     3
  6
CENTER
  0
LAYER
  5
32
100
AcDbSymbolTableRecord
100
AcDbLayerTableRecord
  2
M01
 70
     0
 62
     1
  6
CONTINUOUS
  0
LAYER
  5
22C
100
AcDbSymbolTableRecord
100
AcDbLayerTableRecord
  2
M02
 70
     0
 62
     2
  6
CONTINUOUS
  0
LAYER
  5
93
100
AcDbSymbolTableRecord
100
AcDbLayerTableRecord
  2
M03
 70
     0
 62
     2
  6
HIDDEN
  0
LAYER
  5
24
100
AcDbSymbolTableRecord
100
AcDbLayerTableRecord
  2
M04
 70
     0
 62
     7
  6
CONTINUOUS
  0
LAYER
  5
237
100
AcDbSymbolTableRecord
100
AcDbLayerTableRecord
  2
M05
 70
     0
 62
     5
  6
CONTINUOUS
  0
LAYER
  5
42
100
AcDbSymbolTableRecord
100
AcDbLayerTableRecord
  2
DIMS
 70
     0
 62
     4
  6
CONTINUOUS
  0
LAYER
  5
21
100
AcDbSymbolTableRecord
100
AcDbLayerTableRecord
  2
TEXT
 70
     0
 62
     2
  6
CONTINUOUS
  0
LAYER
  5
1D
100
AcDbSymbolTableRecord
100
AcDbLayerTableRecord
  2
HATCH
 70
     0
 62
     4
  6
CONTINUOUS
  0
LAYER
  5
4B
100
AcDbSymbolTableRecord
100
AcDbLayerTableRecord
  2
DEFPOINTS
 70
     0
 62
     7
  6
CONTINUOUS
  0
ENDTAB
  0
TABLE
  2
STYLE
  5
D
100
AcDbSymbolTable
 70
     1
  0
STYLE
  5
E
100
AcDbSymbolTableRecord
100
AcDbTextStyleTableRecord
  2
STANDARD
 70
     0
 40
0.0
 41
1.0
 50
0.0
 71
     0
 42
3.0
  3
SIMPLEX
  4

  0
ENDTAB
  0
TABLE
  2
VIEW
  5
12
100
AcDbSymbolTable
 70
     0
  0
ENDTAB
  0
TABLE
  2
UCS
  5
13
100
AcDbSymbolTable
 70
     0
  0
ENDTAB
  0
TABLE
  2
APPID
  5
16
100
AcDbSymbolTable
 70
     1
  0
APPID
  5
17
100
AcDbSymbolTableRecord
100
AcDbRegAppTableRecord
  2
ACAD
 70
     0
  0
ENDTAB
  0
TABLE
  2
DIMSTYLE
  5
18
100
AcDbSymbolTable
 70
     2
  0
DIMSTYLE
105
1F
102
{ACAD_REACTORS
330
3EC
330
3DE
330
3D0
330
3C3
330
3B5
330
2C1
330
2B3
330
2A6
330
298
330
83
330
76
330
69
330
5C
330
50
330
41
102
}
100
AcDbSymbolTableRecord
100
AcDbDimStyleTableRecord
  2
DIM1
 70
     0
  3

  4

  5

  6

  7

 40
1.0
 41
3.0
 42
1.0
 43
10.0
 44
2.5
 45
0.01
 46
1.25
 47
0.05
 48
0.0
140
3.0
141
-1.7
142
0.0
143
0.039
144
0.2
145
1.5
146
0.7
147
1.5
 71
     0
 72
     0
 73
     0
 74
     0
 75
     0
 76
     0
 77
     3
 78
     1
170
     0
171
     2
172
     0
173
     0
174
     0
175
     0
176
     4
177
     4
178
     2
270
     2
271
     2
272
     2
273
     2
274
     2
340
E
275
     0
280
     0
281
     0
282
     0
283
     1
284
     1
285
     1
286
     1
287
     0
288
     0
  0
DIMSTYLE
105
2F6
100
AcDbSymbolTableRecord
100
AcDbDimStyleTableRecord
  2
DIM1$7
 70
     0
  3

  4

  5

  6

  7

 40
1.0
 41
3.0
 42
1.0
 43
10.0
 44
2.5
 45
0.01
 46
1.25
 47
0.0
 48
0.0
140
3.0
141
-1.7
142
0.0
143
0.039
144
1.0
145
0.0
146
1.0
147
1.5
 71
     0
 72
     0
 73
     0
 74
     0
 75
     0
 76
     0
 77
     0
 78
     1
170
     0
171
     2
172
     0
173
     0
174
     0
175
     0
176
     4
177
     4
178
     2
270
     2
271
     2
272
     2
273
     2
274
     2
340
E
275
     0
280
     0
281
     0
282
     0
283
     1
284
     1
285
     1
286
     1
287
     0
288
     0
  0
ENDTAB
  0
TABLE
  2
BLOCK_RECORD
  5
1
100
AcDbSymbolTable
 70
    16
  0
BLOCK_RECORD
  5
2
102
{ACAD_XDICTIONARY
360
3
102
}
100
AcDbSymbolTableRecord
100
AcDbBlockTableRecord
  2
*MODEL_SPACE
  0
BLOCK_RECORD
  5
9
100
AcDbSymbolTableRecord
100
AcDbBlockTableRecord
  2
*PAPER_SPACE
  0
BLOCK_RECORD
  5
3ED
100
AcDbSymbolTableRecord
100
AcDbBlockTableRecord
  2
*D0
  0
BLOCK_RECORD
  5
3DF
100
AcDbSymbolTableRecord
100
AcDbBlockTableRecord
  2
*D1
  0
BLOCK_RECORD
  5
3D1
100
AcDbSymbolTableRecord
100
AcDbBlockTableRecord
  2
*D2
  0
BLOCK_RECORD
  5
3C4
100
AcDbSymbolTableRecord
100
AcDbBlockTableRecord
  2
*D3
  0
BLOCK_RECORD
  5
3B6
100
AcDbSymbolTableRecord
100
AcDbBlockTableRecord
  2
*D4
  0
BLOCK_RECORD
  5
2C2
100
AcDbSymbolTableRecord
100
AcDbBlockTableRecord
  2
*D5
  0
BLOCK_RECORD
  5
2B4
100
AcDbSymbolTableRecord
100
AcDbBlockTableRecord
  2
*D6
  0
BLOCK_RECORD
  5
2A7
100
AcDbSymbolTableRecord
100
AcDbBlockTableRecord
  2
*D7
  0
BLOCK_RECORD
  5
299
100
AcDbSymbolTableRecord
100
AcDbBlockTableRecord
  2
*D8
  0
BLOCK_RECORD
  5
172
100
AcDbSymbolTableRecord
100
AcDbBlockTableRecord
  2
ARROW1
  0
BLOCK_RECORD
  5
84
100
AcDbSymbolTableRecord
100
AcDbBlockTableRecord
  2
*D10
  0
BLOCK_RECORD
  5
77
100
AcDbSymbolTableRecord
100
AcDbBlockTableRecord
  2
*D11
  0
BLOCK_RECORD
  5
6A
100
AcDbSymbolTableRecord
100
AcDbBlockTableRecord
  2
*D12
  0
BLOCK_RECORD
  5
5D
100
AcDbSymbolTableRecord
100
AcDbBlockTableRecord
  2
*D13
  0
BLOCK_RECORD
  5
51
100
AcDbSymbolTableRecord
100
AcDbBlockTableRecord
  2
*D14
  0
BLOCK_RECORD
  5
43
100
AcDbSymbolTableRecord
100
AcDbBlockTableRecord
  2
*D15
  0
ENDTAB
  0
ENDSEC
  0
SECTION
  2
BLOCKS
  0
BLOCK
  5
5
100
AcDbEntity
  8
0
100
AcDbBlockBegin
  2
*MODEL_SPACE
 70
     0
 10
0.0
 20
0.0
 30
0.0
  3
*MODEL_SPACE
  1

  0
ENDBLK
  5
8
100
AcDbEntity
  8
0
100
AcDbBlockEnd
  0
BLOCK
  5
A
100
AcDbEntity
 67
     1
  8
0
100
AcDbBlockBegin
  2
*PAPER_SPACE
 70
     0
 10
0.0
 20
0.0
 30
0.0
  3
*PAPER_SPACE
  1

  0
ENDBLK
  5
B
100
AcDbEntity
 67
     1
  8
0
100
AcDbBlockEnd
  0
BLOCK
  5
3F7
100
AcDbEntity
  8
0
100
AcDbBlockBegin
  2
*D0
 70
     1
 10
0.0
 20
0.0
 30
0.0
  3
*D0
  1

  0
LINE
  5
3EE
100
AcDbEntity
  8
0
  6
BYBLOCK
 62
     4
100
AcDbLine
 10
838.167613
 20
320.597735
 30
0.0
 11
880.14031
 21
320.597735
 31
0.0
  0
LINE
  5
3EF
100
AcDbEntity
  8
0
  6
BYBLOCK
 62
     4
100
AcDbLine
 10
840.167613
 20
260.597735
 30
0.0
 11
880.14031
 21
260.597735
 31
0.0
  0
LINE
  5
3F0
100
AcDbEntity
  8
0
  6
BYBLOCK
 62
     4
100
AcDbLine
 10
877.64031
 20
317.597735
 30
0.0
 11
877.64031
 21
263.597735
 31
0.0
  0
SOLID
  5
3F1
100
AcDbEntity
  8
0
  6
BYBLOCK
 62
     4
100
AcDbTrace
 10
877.14031
 20
317.597735
 30
0.0
 11
878.14031
 21
317.597735
 31
0.0
 12
877.64031
 22
320.597735
 32
0.0
 13
877.64031
 23
320.597735
 33
0.0
  0
SOLID
  5
3F2
100
AcDbEntity
  8
0
  6
BYBLOCK
 62
     4
100
AcDbTrace
 10
877.14031
 20
263.597735
 30
0.0
 11
878.14031
 21
263.597735
 31
0.0
 12
877.64031
 22
260.597735
 32
0.0
 13
877.64031
 23
260.597735
 33
0.0
  0
MTEXT
  5
3F3
100
AcDbEntity
  8
0
  6
BYBLOCK
 62
     2
100
AcDbMText
 10
874.64031
 20
290.597735
 30
0.0
 40
3.0
 41
0.0
 71
     5
 72
     1
  1
\A1;60.00
 11
0.0
 21
1.0
 31
0.0
  0
POINT
  5
3F4
100
AcDbEntity
  8
DEFPOINTS
  6
BYBLOCK
 62
     0
100
AcDbPoint
 10
837.167613
 20
320.597735
 30
0.0
  0
POINT
  5
3F5
100
AcDbEntity
  8
DEFPOINTS
  6
BYBLOCK
 62
     0
100
AcDbPoint
 10
839.167613
 20
260.597735
 30
0.0
  0
POINT
  5
3F6
100
AcDbEntity
  8
DEFPOINTS
  6
BYBLOCK
 62
     0
100
AcDbPoint
 10
877.64031
 20
260.597735
 30
0.0
  0
ENDBLK
  5
3F8
100
AcDbEntity
  8
0
100
AcDbBlockEnd
  0
BLOCK
  5
3EA
100
AcDbEntity
  8
0
100
AcDbBlockBegin
  2
*D1
 70
     1
 10
0.0
 20
0.0
 30
0.0
  3
*D1
  1

  0
LINE
  5
3E0
100
AcDbEntity
  8
0
  6
BYBLOCK
 62
     4
100
AcDbLine
 10
838.167613
 20
260.597735
 30
0.0
 11
880.14031
 21
260.597735
 31
0.0
  0
LINE
  5
3E1
100
AcDbEntity
  8
0
  6
BYBLOCK
 62
     4
100
AcDbLine
 10
858.681004
 20
253.597735
 30
0.0
 11
880.14031
 21
253.597735
 31
0.0
  0
LINE
  5
3E2
100
AcDbEntity
  8
0
  6
BYBLOCK
 62
     4
100
AcDbLine
 10
877.64031
 20
263.597735
 30
0.0
 11
877.64031
 21
266.597735
 31
0.0
  0
LINE
  5
3E3
100
AcDbEntity
  8
0
  6
BYBLOCK
 62
     4
100
AcDbLine
 10
877.64031
 20
250.597735
 30
0.0
 11
877.64031
 21
238.312021
 31
0.0
  0
SOLID
  5
3E4
100
AcDbEntity
  8
0
  6
BYBLOCK
 62
     4
100
AcDbTrace
 10
877.14031
 20
263.597735
 30
0.0
 11
878.14031
 21
263.597735
 31
0.0
 12
877.64031
 22
260.597735
 32
0.0
 13
877.64031
 23
260.597735
 33
0.0
  0
SOLID
  5
3E5
100
AcDbEntity
  8
0
  6
BYBLOCK
 62
     4
100
AcDbTrace
 10
877.14031
 20
250.597735
 30
0.0
 11
878.14031
 21
250.597735
 31
0.0
 12
877.64031
 22
253.597735
 32
0.0
 13
877.64031
 23
253.597735
 33
0.0
  0
MTEXT
  5
3E6
100
AcDbEntity
  8
0
  6
BYBLOCK
 62
     2
100
AcDbMText
 10
874.64031
 20
242.954878
 30
0.0
 40
3.0
 41
0.0
 71
     5
 72
     1
  1
\A1;7.0
 11
0.0
 21
1.0
 31
0.0
  0
POINT
  5
3E7
100
AcDbEntity
  8
DEFPOINTS
  6
BYBLOCK
 62
     0
100
AcDbPoint
 10
837.167613
 20
260.597735
 30
0.0
  0
POINT
  5
3E8
100
AcDbEntity
  8
DEFPOINTS
  6
BYBLOCK
 62
     0
100
AcDbPoint
 10
857.681004
 20
253.597735
 30
0.0
  0
POINT
  5
3E9
100
AcDbEntity
  8
DEFPOINTS
  6
BYBLOCK
 62
     0
100
AcDbPoint
 10
877.64031
 20
253.597735
 30
0.0
  0
ENDBLK
  5
3EB
100
AcDbEntity
  8
0
100
AcDbBlockEnd
  0
BLOCK
  5
3DC
100
AcDbEntity
  8
0
100
AcDbBlockBegin
  2
*D2
 70
     1
 10
0.0
 20
0.0
 30
0.0
  3
*D2
  1

  0
LINE
  5
3D2
100
AcDbEntity
  8
0
  6
BYBLOCK
 62
     4
100
AcDbLine
 10
838.167613
 20
320.597735
 30
0.0
 11
880.14031
 21
320.597735
 31
0.0
  0
LINE
  5
3D3
100
AcDbEntity
  8
0
  6
BYBLOCK
 62
     4
100
AcDbLine
 10
847.167613
 20
327.597735
 30
0.0
 11
880.14031
 21
327.597735
 31
0.0
  0
LINE
  5
3D4
100
AcDbEntity
  8
0
  6
BYBLOCK
 62
     4
100
AcDbLine
 10
877.64031
 20
317.597735
 30
0.0
 11
877.64031
 21
314.597735
 31
0.0
  0
LINE
  5
3D5
100
AcDbEntity
  8
0
  6
BYBLOCK
 62
     4
100
AcDbLine
 10
877.64031
 20
330.597735
 30
0.0
 11
877.64031
 21
342.88345
 31
0.0
  0
SOLID
  5
3D6
100
AcDbEntity
  8
0
  6
BYBLOCK
 62
     4
100
AcDbTrace
 10
877.14031
 20
317.597735
 30
0.0
 11
878.14031
 21
317.597735
 31
0.0
 12
877.64031
 22
320.597735
 32
0.0
 13
877.64031
 23
320.597735
 33
0.0
  0
SOLID
  5
3D7
100
AcDbEntity
  8
0
  6
BYBLOCK
 62
     4
100
AcDbTrace
 10
877.14031
 20
330.597735
 30
0.0
 11
878.14031
 21
330.597735
 31
0.0
 12
877.64031
 22
327.597735
 32
0.0
 13
877.64031
 23
327.597735
 33
0.0
  0
MTEXT
  5
3D8
100
AcDbEntity
  8
0
  6
BYBLOCK
 62
     2
100
AcDbMText
 10
874.64031
 20
338.240593
 30
0.0
 40
3.0
 41
0.0
 71
     5
 72
     1
  1
\A1;7.0
 11
0.0
 21
1.0
 31
0.0
  0
POINT
  5
3D9
100
AcDbEntity
  8
DEFPOINTS
  6
BYBLOCK
 62
     0
100
AcDbPoint
 10
837.167613
 20
320.597735
 30
0.0
  0
POINT
  5
3DA
100
AcDbEntity
  8
DEFPOINTS
  6
BYBLOCK
 62
     0
100
AcDbPoint
 10
846.167613
 20
327.597735
 30
0.0
  0
POINT
  5
3DB
100
AcDbEntity
  8
DEFPOINTS
  6
BYBLOCK
 62
     0
100
AcDbPoint
 10
877.64031
 20
327.597735
 30
0.0
  0
ENDBLK
  5
3DD
100
AcDbEntity
  8
0
100
AcDbBlockEnd
  0
BLOCK
  5
3CE
100
AcDbEntity
  8
0
100
AcDbBlockBegin
  2
*D3
 70
     1
 10
0.0
 20
0.0
 30
0.0
  3
*D3
  1

  0
LINE
  5
3C5
100
AcDbEntity
  8
0
  6
BYBLOCK
 62
     4
100
AcDbLine
 10
870.818995
 20
-32.251076
 30
0.0
 11
870.818995
 21
-70.066192
 31
0.0
  0
LINE
  5
3C6
100
AcDbEntity
  8
0
  6
BYBLOCK
 62
     4
100
AcDbLine
 10
830.818995
 20
-32.251076
 30
0.0
 11
830.818995
 21
-70.066192
 31
0.0
  0
LINE
  5
3C7
100
AcDbEntity
  8
0
  6
BYBLOCK
 62
     4
100
AcDbLine
 10
867.818995
 20
-67.566192
 30
0.0
 11
833.818995
 21
-67.566192
 31
0.0
  0
SOLID
  5
3C8
100
AcDbEntity
  8
0
  6
BYBLOCK
 62
     4
100
AcDbTrace
 10
867.818995
 20
-67.066192
 30
0.0
 11
867.818995
 21
-68.066192
 31
0.0
 12
870.818995
 22
-67.566192
 32
0.0
 13
870.818995
 23
-67.566192
 33
0.0
  0
SOLID
  5
3C9
100
AcDbEntity
  8
0
  6
BYBLOCK
 62
     4
100
AcDbTrace
 10
833.818995
 20
-67.066192
 30
0.0
 11
833.818995
 21
-68.066192
 31
0.0
 12
830.818995
 22
-67.566192
 32
0.0
 13
830.818995
 23
-67.566192
 33
0.0
  0
MTEXT
  5
3CA
100
AcDbEntity
  8
0
  6
BYBLOCK
 62
     2
100
AcDbMText
 10
850.818995
 20
-64.566192
 30
0.0
 40
3.0
 41
0.0
 71
     5
 72
     1
  1
\A1;\U+220540.00 H7
  0
POINT
  5
3CB
100
AcDbEntity
  8
DEFPOINTS
  6
BYBLOCK
 62
     0
100
AcDbPoint
 10
870.818995
 20
-31.251076
 30
0.0
  0
POINT
  5
3CC
100
AcDbEntity
  8
DEFPOINTS
  6
BYBLOCK
 62
     0
100
AcDbPoint
 10
830.818995
 20
-31.251076
 30
0.0
  0
POINT
  5
3CD
100
AcDbEntity
  8
DEFPOINTS
  6
BYBLOCK
 62
     0
100
AcDbPoint
 10
830.818995
 20
-67.566192
 30
0.0
  0
ENDBLK
  5
3CF
100
AcDbEntity
  8
0
100
AcDbBlockEnd
  0
BLOCK
  5
3C1
100
AcDbEntity
  8
0
100
AcDbBlockBegin
  2
*D4
 70
     1
 10
0.0
 20
0.0
 30
0.0
  3
*D4
  1

  0
LINE
  5
3B7
100
AcDbEntity
  8
0
  6
BYBLOCK
 62
     4
100
AcDbLine
 10
248.765534
 20
25.51995
 30
0.0
 11
248.765534
 21
41.696115
 31
0.0
  0
LINE
  5
3B8
100
AcDbEntity
  8
0
  6
BYBLOCK
 62
     4
100
AcDbLine
 10
256.765534
 20
25.51995
 30
0.0
 11
256.765534
 21
41.696115
 31
0.0
  0
LINE
  5
3B9
100
AcDbEntity
  8
0
  6
BYBLOCK
 62
     4
100
AcDbLine
 10
245.765534
 20
39.196115
 30
0.0
 11
242.765534
 21
39.196115
 31
0.0
  0
LINE
  5
3BA
100
AcDbEntity
  8
0
  6
BYBLOCK
 62
     4
100
AcDbLine
 10
259.765534
 20
39.196115
 30
0.0
 11
286.336963
 21
39.196115
 31
0.0
  0
SOLID
  5
3BB
100
AcDbEntity
  8
0
  6
BYBLOCK
 62
     4
100
AcDbTrace
 10
245.765534
 20
39.696115
 30
0.0
 11
245.765534
 21
38.696115
 31
0.0
 12
248.765534
 22
39.196115
 32
0.0
 13
248.765534
 23
39.196115
 33
0.0
  0
SOLID
  5
3BC
100
AcDbEntity
  8
0
  6
BYBLOCK
 62
     4
100
AcDbTrace
 10
259.765534
 20
39.696115
 30
0.0
 11
259.765534
 21
38.696115
 31
0.0
 12
256.765534
 22
39.196115
 32
0.0
 13
256.765534
 23
39.196115
 33
0.0
  0
MTEXT
  5
3BD
100
AcDbEntity
  8
0
  6
BYBLOCK
 62
     2
100
AcDbMText
 10
274.551249
 20
42.196115
 30
0.0
 40
3.0
 41
0.0
 71
     5
 72
     1
  1
\A1;\U+22058.00 H7
  0
POINT
  5
3BE
100
AcDbEntity
  8
DEFPOINTS
  6
BYBLOCK
 62
     0
100
AcDbPoint
 10
248.765534
 20
24.51995
 30
0.0
  0
POINT
  5
3BF
100
AcDbEntity
  8
DEFPOINTS
  6
BYBLOCK
 62
     0
100
AcDbPoint
 10
256.765534
 20
24.51995
 30
0.0
  0
POINT
  5
3C0
100
AcDbEntity
  8
DEFPOINTS
  6
BYBLOCK
 62
     0
100
AcDbPoint
 10
256.765534
 20
39.196115
 30
0.0
  0
ENDBLK
  5
3C2
100
AcDbEntity
  8
0
100
AcDbBlockEnd
  0
BLOCK
  5
2CD
100
AcDbEntity
  8
0
100
AcDbBlockBegin
  2
*D5
 70
     1
 10
0.0
 20
0.0
 30
0.0
  3
*D5
  1

  0
LINE
  5
2C3
100
AcDbEntity
  8
0
  6
BYBLOCK
 62
     4
100
AcDbLine
 10
1180.619986
 20
-78.194062
 30
0.0
 11
1198.907003
 21
-78.194062
 31
0.0
  0
LINE
  5
2C4
100
AcDbEntity
  8
0
  6
BYBLOCK
 62
     4
100
AcDbLine
 10
1181.119986
 20
-61.194062
 30
0.0
 11
1198.907003
 21
-61.194062
 31
0.0
  0
LINE
  5
2C5
100
AcDbEntity
  8
0
  6
BYBLOCK
 62
     4
100
AcDbLine
 10
1196.407003
 20
-81.194062
 30
0.0
 11
1196.407003
 21
-84.194062
 31
0.0
  0
LINE
  5
2C6
100
AcDbEntity
  8
0
  6
BYBLOCK
 62
     4
100
AcDbLine
 10
1196.407003
 20
-58.194062
 30
0.0
 11
1196.407003
 21
-40.76549
 31
0.0
  0
SOLID
  5
2C7
100
AcDbEntity
  8
0
  6
BYBLOCK
 62
     4
100
AcDbTrace
 10
1195.907003
 20
-81.194062
 30
0.0
 11
1196.907003
 21
-81.194062
 31
0.0
 12
1196.407003
 22
-78.194062
 32
0.0
 13
1196.407003
 23
-78.194062
 33
0.0
  0
SOLID
  5
2C8
100
AcDbEntity
  8
0
  6
BYBLOCK
 62
     4
100
AcDbTrace
 10
1195.907003
 20
-58.194062
 30
0.0
 11
1196.907003
 21
-58.194062
 31
0.0
 12
1196.407003
 22
-61.194062
 32
0.0
 13
1196.407003
 23
-61.194062
 33
0.0
  0
MTEXT
  5
2C9
100
AcDbEntity
  8
0
  6
BYBLOCK
 62
     2
100
AcDbMText
 10
1193.407003
 20
-47.979776
 30
0.0
 40
3.0
 41
0.0
 71
     5
 72
     1
  1
\A1;17.00
 11
0.0
 21
1.0
 31
0.0
  0
POINT
  5
2CA
100
AcDbEntity
  8
DEFPOINTS
  6
BYBLOCK
 62
     0
100
AcDbPoint
 10
1179.619986
 20
-78.194062
 30
0.0
  0
POINT
  5
2CB
100
AcDbEntity
  8
DEFPOINTS
  6
BYBLOCK
 62
     0
100
AcDbPoint
 10
1180.119986
 20
-61.194062
 30
0.0
  0
POINT
  5
2CC
100
AcDbEntity
  8
DEFPOINTS
  6
BYBLOCK
 62
     0
100
AcDbPoint
 10
1196.407003
 20
-61.194062
 30
0.0
  0
ENDBLK
  5
2CE
100
AcDbEntity
  8
0
100
AcDbBlockEnd
  0
BLOCK
  5
2BF
100
AcDbEntity
  8
0
100
AcDbBlockBegin
  2
*D6
 70
     1
 10
0.0
 20
0.0
 30
0.0
  3
*D6
  1

  0
LINE
  5
2B5
100
AcDbEntity
  8
0
  6
BYBLOCK
 62
     4
100
AcDbLine
 10
1180.119986
 20
-60.194062
 30
0.0
 11
1180.119986
 21
-41.044247
 31
0.0
  0
LINE
  5
2B6
100
AcDbEntity
  8
0
  6
BYBLOCK
 62
     4
100
AcDbLine
 10
1160.119986
 20
-60.194062
 30
0.0
 11
1160.119986
 21
-41.044247
 31
0.0
  0
LINE
  5
2B7
100
AcDbEntity
  8
0
  6
BYBLOCK
 62
     4
100
AcDbLine
 10
1183.119986
 20
-43.544247
 30
0.0
 11
1186.119986
 21
-43.544247
 31
0.0
  0
LINE
  5
2B8
100
AcDbEntity
  8
0
  6
BYBLOCK
 62
     4
100
AcDbLine
 10
1157.119986
 20
-43.544247
 30
0.0
 11
1127.691415
 21
-43.544247
 31
0.0
  0
SOLID
  5
2B9
100
AcDbEntity
  8
0
  6
BYBLOCK
 62
     4
100
AcDbTrace
 10
1183.119986
 20
-43.044247
 30
0.0
 11
1183.119986
 21
-44.044247
 31
0.0
 12
1180.119986
 22
-43.544247
 32
0.0
 13
1180.119986
 23
-43.544247
 33
0.0
  0
SOLID
  5
2BA
100
AcDbEntity
  8
0
  6
BYBLOCK
 62
     4
100
AcDbTrace
 10
1157.119986
 20
-43.044247
 30
0.0
 11
1157.119986
 21
-44.044247
 31
0.0
 12
1160.119986
 22
-43.544247
 32
0.0
 13
1160.119986
 23
-43.544247
 33
0.0
  0
MTEXT
  5
2BB
100
AcDbEntity
  8
0
  6
BYBLOCK
 62
     2
100
AcDbMText
 10
1140.905701
 20
-40.544247
 30
0.0
 40
3.0
 41
0.0
 71
     5
 72
     1
  1
\A1;\U+220520.00 H7
  0
POINT
  5
2BC
100
AcDbEntity
  8
DEFPOINTS
  6
BYBLOCK
 62
     0
100
AcDbPoint
 10
1180.119986
 20
-61.194062
 30
0.0
  0
POINT
  5
2BD
100
AcDbEntity
  8
DEFPOINTS
  6
BYBLOCK
 62
     0
100
AcDbPoint
 10
1160.119986
 20
-61.194062
 30
0.0
  0
POINT
  5
2BE
100
AcDbEntity
  8
DEFPOINTS
  6
BYBLOCK
 62
     0
100
AcDbPoint
 10
1160.119986
 20
-43.544247
 30
0.0
  0
ENDBLK
  5
2C0
100
AcDbEntity
  8
0
100
AcDbBlockEnd
  0
BLOCK
  5
2B1
100
AcDbEntity
  8
0
100
AcDbBlockBegin
  2
*D7
 70
     1
 10
0.0
 20
0.0
 30
0.0
  3
*D7
  1

  0
LINE
  5
2A8
100
AcDbEntity
  8
0
  6
BYBLOCK
 62
     4
100
AcDbLine
 10
1181.119986
 20
-65.771412
 30
0.0
 11
1181.119986
 21
-31.166834
 31
0.0
  0
LINE
  5
2A9
100
AcDbEntity
  8
0
  6
BYBLOCK
 62
     4
100
AcDbLine
 10
1159.119986
 20
-65.771412
 30
0.0
 11
1159.119986
 21
-31.166834
 31
0.0
  0
LINE
  5
2AA
100
AcDbEntity
  8
0
  6
BYBLOCK
 62
     4
100
AcDbLine
 10
1178.119986
 20
-33.666834
 30
0.0
 11
1162.119986
 21
-33.666834
 31
0.0
  0
SOLID
  5
2AB
100
AcDbEntity
  8
0
  6
BYBLOCK
 62
     4
100
AcDbTrace
 10
1178.119986
 20
-33.166834
 30
0.0
 11
1178.119986
 21
-34.166834
 31
0.0
 12
1181.119986
 22
-33.666834
 32
0.0
 13
1181.119986
 23
-33.666834
 33
0.0
  0
SOLID
  5
2AC
100
AcDbEntity
  8
0
  6
BYBLOCK
 62
     4
100
AcDbTrace
 10
1162.119986
 20
-33.166834
 30
0.0
 11
1162.119986
 21
-34.166834
 31
0.0
 12
1159.119986
 22
-33.666834
 32
0.0
 13
1159.119986
 23
-33.666834
 33
0.0
  0
MTEXT
  5
2AD
100
AcDbEntity
  8
0
  6
BYBLOCK
 62
     2
100
AcDbMText
 10
1170.119986
 20
-30.666834
 30
0.0
 40
3.0
 41
0.0
 71
     5
 72
     1
  1
\A1;22.00
  0
POINT
  5
2AE
100
AcDbEntity
  8
DEFPOINTS
  6
BYBLOCK
 62
     0
100
AcDbPoint
 10
1181.119986
 20
-66.771412
 30
0.0
  0
POINT
  5
2AF
100
AcDbEntity
  8
DEFPOINTS
  6
BYBLOCK
 62
     0
100
AcDbPoint
 10
1159.119986
 20
-66.771412
 30
0.0
  0
POINT
  5
2B0
100
AcDbEntity
  8
DEFPOINTS
  6
BYBLOCK
 62
     0
100
AcDbPoint
 10
1159.119986
 20
-33.666834
 30
0.0
  0
ENDBLK
  5
2B2
100
AcDbEntity
  8
0
100
AcDbBlockEnd
  0
BLOCK
  5
2A4
100
AcDbEntity
  8
0
100
AcDbBlockBegin
  2
*D8
 70
     1
 10
0.0
 20
0.0
 30
0.0
  3
*D8
  1

  0
LINE
  5
29A
100
AcDbEntity
  8
0
  6
BYBLOCK
 62
     4
100
AcDbLine
 10
1158.119986
 20
-71.194062
 30
0.0
 11
1134.331964
 21
-71.194062
 31
0.0
  0
LINE
  5
29B
100
AcDbEntity
  8
0
  6
BYBLOCK
 62
     4
100
AcDbLine
 10
1159.119986
 20
-66.194062
 30
0.0
 11
1134.331964
 21
-66.194062
 31
0.0
  0
LINE
  5
29C
100
AcDbEntity
  8
0
  6
BYBLOCK
 62
     4
100
AcDbLine
 10
1136.831964
 20
-74.194062
 30
0.0
 11
1136.831964
 21
-77.194062
 31
0.0
  0
LINE
  5
29D
100
AcDbEntity
  8
0
  6
BYBLOCK
 62
     4
100
AcDbLine
 10
1136.831964
 20
-63.194062
 30
0.0
 11
1136.831964
 21
-50.908347
 31
0.0
  0
SOLID
  5
29E
100
AcDbEntity
  8
0
  6
BYBLOCK
 62
     4
100
AcDbTrace
 10
1136.331964
 20
-74.194062
 30
0.0
 11
1137.331964
 21
-74.194062
 31
0.0
 12
1136.831964
 22
-71.194062
 32
0.0
 13
1136.831964
 23
-71.194062
 33
0.0
  0
SOLID
  5
29F
100
AcDbEntity
  8
0
  6
BYBLOCK
 62
     4
100
AcDbTrace
 10
1136.331964
 20
-63.194062
 30
0.0
 11
1137.331964
 21
-63.194062
 31
0.0
 12
1136.831964
 22
-66.194062
 32
0.0
 13
1136.831964
 23
-66.194062
 33
0.0
  0
MTEXT
  5
2A0
100
AcDbEntity
  8
0
  6
BYBLOCK
 62
     2
100
AcDbMText
 10
1133.831964
 20
-55.551204
 30
0.0
 40
3.0
 41
0.0
 71
     5
 72
     1
  1
\A1;5.0
 11
0.0
 21
1.0
 31
0.0
  0
POINT
  5
2A1
100
AcDbEntity
  8
DEFPOINTS
  6
BYBLOCK
 62
     0
100
AcDbPoint
 10
1159.119986
 20
-71.194062
 30
0.0
  0
POINT
  5
2A2
100
AcDbEntity
  8
DEFPOINTS
  6
BYBLOCK
 62
     0
100
AcDbPoint
 10
1160.119986
 20
-66.194062
 30
0.0
  0
POINT
  5
2A3
100
AcDbEntity
  8
DEFPOINTS
  6
BYBLOCK
 62
     0
100
AcDbPoint
 10
1136.831964
 20
-66.194062
 30
0.0
  0
ENDBLK
  5
2A5
100
AcDbEntity
  8
0
100
AcDbBlockEnd
  0
BLOCK
  5
176
100
AcDbEntity
  8
0
100
AcDbBlockBegin
  2
ARROW1
 70
     0
 10
0.0
 20
0.0
 30
0.0
  3
ARROW1
  1

  0
LINE
  5
173
100
AcDbEntity
  8
0
100
AcDbLine
 10
-1.0
 20
-0.2
 30
0.0
 11
-1.0
 21
0.0
 31
0.0
  0
LINE
  5
174
100
AcDbEntity
  8
0
100
AcDbLine
 10
0.0
 20
0.0
 30
0.0
 11
-1.0
 21
-0.2
 31
0.0
  0
SOLID
  5
175
100
AcDbEntity
  8
0
100
AcDbTrace
 10
0.0
 20
0.0
 30
0.0
 11
-1.0
 21
0.2
 31
0.0
 12
-1.0
 22
0.0
 32
0.0
 13
-1.0
 23
0.0
 33
0.0
  0
ENDBLK
  5
177
100
AcDbEntity
  8
0
100
AcDbBlockEnd
  0
BLOCK
  5
8E
100
AcDbEntity
  8
0
100
AcDbBlockBegin
  2
*D10
 70
     1
 10
0.0
 20
0.0
 30
0.0
  3
*D10
  1

  0
LINE
  5
85
100
AcDbEntity
  8
0
  6
BYBLOCK
 62
     4
100
AcDbLine
 10
799.709885
 20
432.453737
 30
0.0
 11
832.463977
 21
399.699645
 31
0.0
  0
LINE
  5
86
100
AcDbEntity
  8
0
  6
BYBLOCK
 62
     4
100
AcDbLine
 10
844.964719
 20
477.708571
 30
0.0
 11
877.718811
 21
444.954479
 31
0.0
  0
LINE
  5
87
100
AcDbEntity
  8
0
  6
BYBLOCK
 62
     4
100
AcDbLine
 10
832.81753
 20
403.588733
 30
0.0
 11
873.829724
 21
444.600926
 31
0.0
  0
SOLID
  5
88
100
AcDbEntity
  8
0
  6
BYBLOCK
 62
     4
100
AcDbTrace
 10
832.463977
 20
403.942286
 30
0.0
 11
833.171084
 21
403.235179
 31
0.0
 12
830.69621
 22
401.467412
 32
0.0
 13
830.69621
 23
401.467412
 33
0.0
  0
SOLID
  5
89
100
AcDbEntity
  8
0
  6
BYBLOCK
 62
     4
100
AcDbTrace
 10
873.47617
 20
444.954479
 30
0.0
 11
874.183277
 21
444.247373
 31
0.0
 12
875.951044
 22
446.722246
 32
0.0
 13
875.951044
 23
446.722246
 33
0.0
  0
MTEXT
  5
8A
100
AcDbEntity
  8
0
  6
BYBLOCK
 62
     2
100
AcDbMText
 10
851.202307
 20
426.21615
 30
0.0
 40
3.0
 41
0.0
 71
     5
 72
     1
  1
\A1;W=64.00
 11
0.707107
 21
0.707107
 31
0.0
  0
POINT
  5
8B
100
AcDbEntity
  8
DEFPOINTS
  6
BYBLOCK
 62
     0
100
AcDbPoint
 10
799.002779
 20
433.160844
 30
0.0
  0
POINT
  5
8C
100
AcDbEntity
  8
DEFPOINTS
  6
BYBLOCK
 62
     0
100
AcDbPoint
 10
844.257613
 20
478.415678
 30
0.0
  0
POINT
  5
8D
100
AcDbEntity
  8
DEFPOINTS
  6
BYBLOCK
 62
     0
100
AcDbPoint
 10
875.951044
 20
446.722246
 30
0.0
  0
ENDBLK
  5
8F
100
AcDbEntity
  8
0
100
AcDbBlockEnd
  0
BLOCK
  5
81
100
AcDbEntity
  8
0
100
AcDbBlockBegin
  2
*D11
 70
     1
 10
0.0
 20
0.0
 30
0.0
  3
*D11
  1

  0
LINE
  5
78
100
AcDbEntity
  8
0
  6
BYBLOCK
 62
     4
100
AcDbLine
 10
490.557613
 20
469.160844
 30
0.0
 11
337.566031
 21
469.160844
 31
0.0
  0
LINE
  5
79
100
AcDbEntity
  8
0
  6
BYBLOCK
 62
     4
100
AcDbLine
 10
490.557613
 20
619.160844
 30
0.0
 11
337.566031
 21
619.160844
 31
0.0
  0
LINE
  5
7A
100
AcDbEntity
  8
0
  6
BYBLOCK
 62
     4
100
AcDbLine
 10
340.066031
 20
472.160844
 30
0.0
 11
340.066031
 21
616.160844
 31
0.0
  0
SOLID
  5
7B
100
AcDbEntity
  8
0
  6
BYBLOCK
 62
     4
100
AcDbTrace
 10
339.566031
 20
472.160844
 30
0.0
 11
340.566031
 21
472.160844
 31
0.0
 12
340.066031
 22
469.160844
 32
0.0
 13
340.066031
 23
469.160844
 33
0.0
  0
SOLID
  5
7C
100
AcDbEntity
  8
0
  6
BYBLOCK
 62
     4
100
AcDbTrace
 10
339.566031
 20
616.160844
 30
0.0
 11
340.566031
 21
616.160844
 31
0.0
 12
340.066031
 22
619.160844
 32
0.0
 13
340.066031
 23
619.160844
 33
0.0
  0
MTEXT
  5
7D
100
AcDbEntity
  8
0
  6
BYBLOCK
 62
     2
100
AcDbMText
 10
337.066031
 20
544.160844
 30
0.0
 40
3.0
 41
0.0
 71
     5
 72
     1
  1
\A1;B=150.00
 11
0.0
 21
1.0
 31
0.0
  0
POINT
  5
7E
100
AcDbEntity
  8
DEFPOINTS
  6
BYBLOCK
 62
     0
100
AcDbPoint
 10
491.557613
 20
469.160844
 30
0.0
  0
POINT
  5
7F
100
AcDbEntity
  8
DEFPOINTS
  6
BYBLOCK
 62
     0
100
AcDbPoint
 10
491.557613
 20
619.160844
 30
0.0
  0
POINT
  5
80
100
AcDbEntity
  8
DEFPOINTS
  6
BYBLOCK
 62
     0
100
AcDbPoint
 10
340.066031
 20
619.160844
 30
0.0
  0
ENDBLK
  5
82
100
AcDbEntity
  8
0
100
AcDbBlockEnd
  0
BLOCK
  5
74
100
AcDbEntity
  8
0
100
AcDbBlockBegin
  2
*D12
 70
     1
 10
0.0
 20
0.0
 30
0.0
  3
*D12
  1

  0
LINE
  5
6B
100
AcDbEntity
  8
0
  6
BYBLOCK
 62
     4
100
AcDbLine
 10
498.000391
 20
433.160844
 30
0.0
 11
327.966207
 21
433.160844
 31
0.0
  0
LINE
  5
6C
100
AcDbEntity
  8
0
  6
BYBLOCK
 62
     4
100
AcDbLine
 10
498.000391
 20
655.160844
 30
0.0
 11
327.966207
 21
655.160844
 31
0.0
  0
LINE
  5
6D
100
AcDbEntity
  8
0
  6
BYBLOCK
 62
     4
100
AcDbLine
 10
330.466207
 20
436.160844
 30
0.0
 11
330.466207
 21
652.160844
 31
0.0
  0
SOLID
  5
6E
100
AcDbEntity
  8
0
  6
BYBLOCK
 62
     4
100
AcDbTrace
 10
329.966207
 20
436.160844
 30
0.0
 11
330.966207
 21
436.160844
 31
0.0
 12
330.466207
 22
433.160844
 32
0.0
 13
330.466207
 23
433.160844
 33
0.0
  0
SOLID
  5
6F
100
AcDbEntity
  8
0
  6
BYBLOCK
 62
     4
100
AcDbTrace
 10
329.966207
 20
652.160844
 30
0.0
 11
330.966207
 21
652.160844
 31
0.0
 12
330.466207
 22
655.160844
 32
0.0
 13
330.466207
 23
655.160844
 33
0.0
  0
MTEXT
  5
70
100
AcDbEntity
  8
0
  6
BYBLOCK
 62
     2
100
AcDbMText
 10
327.466207
 20
544.160844
 30
0.0
 40
3.0
 41
0.0
 71
     5
 72
     1
  1
\A1;L1=222.00
 11
0.0
 21
1.0
 31
0.0
  0
POINT
  5
71
100
AcDbEntity
  8
DEFPOINTS
  6
BYBLOCK
 62
     0
100
AcDbPoint
 10
499.000391
 20
433.160844
 30
0.0
  0
POINT
  5
72
100
AcDbEntity
  8
DEFPOINTS
  6
BYBLOCK
 62
     0
100
AcDbPoint
 10
499.000391
 20
655.160844
 30
0.0
  0
POINT
  5
73
100
AcDbEntity
  8
DEFPOINTS
  6
BYBLOCK
 62
     0
100
AcDbPoint
 10
330.466207
 20
655.160844
 30
0.0
  0
ENDBLK
  5
75
100
AcDbEntity
  8
0
100
AcDbBlockEnd
  0
BLOCK
  5
67
100
AcDbEntity
  8
0
100
AcDbBlockBegin
  2
*D13
 70
     1
 10
0.0
 20
0.0
 30
0.0
  3
*D13
  1

  0
LINE
  5
5E
100
AcDbEntity
  8
0
  6
BYBLOCK
 62
     4
100
AcDbLine
 10
508.257613
 20
636.860844
 30
0.0
 11
508.257613
 21
696.992543
 31
0.0
  0
LINE
  5
5F
100
AcDbEntity
  8
0
  6
BYBLOCK
 62
     4
100
AcDbLine
 10
658.257613
 20
675.69383
 30
0.0
 11
658.257613
 21
696.992543
 31
0.0
  0
LINE
  5
60
100
AcDbEntity
  8
0
  6
BYBLOCK
 62
     4
100
AcDbLine
 10
511.257613
 20
694.492543
 30
0.0
 11
655.257613
 21
694.492543
 31
0.0
  0
SOLID
  5
61
100
AcDbEntity
  8
0
  6
BYBLOCK
 62
     4
100
AcDbTrace
 10
511.257613
 20
694.992543
 30
0.0
 11
511.257613
 21
693.992543
 31
0.0
 12
508.257613
 22
694.492543
 32
0.0
 13
508.257613
 23
694.492543
 33
0.0
  0
SOLID
  5
62
100
AcDbEntity
  8
0
  6
BYBLOCK
 62
     4
100
AcDbTrace
 10
655.257613
 20
694.992543
 30
0.0
 11
655.257613
 21
693.992543
 31
0.0
 12
658.257613
 22
694.492543
 32
0.0
 13
658.257613
 23
694.492543
 33
0.0
  0
MTEXT
  5
63
100
AcDbEntity
  8
0
  6
BYBLOCK
 62
     2
100
AcDbMText
 10
583.257613
 20
697.492543
 30
0.0
 40
3.0
 41
0.0
 71
     5
 72
     1
  1
\A1;A=150.00
  0
POINT
  5
64
100
AcDbEntity
  8
DEFPOINTS
  6
BYBLOCK
 62
     0
100
AcDbPoint
 10
508.257613
 20
635.860844
 30
0.0
  0
POINT
  5
65
100
AcDbEntity
  8
DEFPOINTS
  6
BYBLOCK
 62
     0
100
AcDbPoint
 10
658.257613
 20
674.69383
 30
0.0
  0
POINT
  5
66
100
AcDbEntity
  8
DEFPOINTS
  6
BYBLOCK
 62
     0
100
AcDbPoint
 10
658.257613
 20
694.492543
 30
0.0
  0
ENDBLK
  5
68
100
AcDbEntity
  8
0
100
AcDbBlockEnd
  0
BLOCK
  5
5A
100
AcDbEntity
  8
0
100
AcDbBlockBegin
  2
*D14
 70
     1
 10
0.0
 20
0.0
 30
0.0
  3
*D14
  1

  0
LINE
  5
52
100
AcDbEntity
  8
0
  6
BYBLOCK
 62
     4
100
AcDbLine
 10
808.257613
 20
636.860844
 30
0.0
 11
808.257613
 21
696.992543
 31
0.0
  0
LINE
  5
53
100
AcDbEntity
  8
0
  6
BYBLOCK
 62
     4
100
AcDbLine
 10
661.257613
 20
694.492543
 30
0.0
 11
805.257613
 21
694.492543
 31
0.0
  0
SOLID
  5
54
100
AcDbEntity
  8
0
  6
BYBLOCK
 62
     4
100
AcDbTrace
 10
661.257613
 20
694.992543
 30
0.0
 11
661.257613
 21
693.992543
 31
0.0
 12
658.257613
 22
694.492543
 32
0.0
 13
658.257613
 23
694.492543
 33
0.0
  0
SOLID
  5
55
100
AcDbEntity
  8
0
  6
BYBLOCK
 62
     4
100
AcDbTrace
 10
805.257613
 20
694.992543
 30
0.0
 11
805.257613
 21
693.992543
 31
0.0
 12
808.257613
 22
694.492543
 32
0.0
 13
808.257613
 23
694.492543
 33
0.0
  0
MTEXT
  5
56
100
AcDbEntity
  8
0
  6
BYBLOCK
 62
     2
100
AcDbMText
 10
733.257613
 20
697.492543
 30
0.0
 40
3.0
 41
0.0
 71
     5
 72
     1
  1
\A1;A=150.00
  0
POINT
  5
57
100
AcDbEntity
  8
DEFPOINTS
  6
BYBLOCK
 62
     0
100
AcDbPoint
 10
658.257613
 20
674.69383
 30
0.0
  0
POINT
  5
58
100
AcDbEntity
  8
DEFPOINTS
  6
BYBLOCK
 62
     0
100
AcDbPoint
 10
808.257613
 20
635.860844
 30
0.0
  0
POINT
  5
59
100
AcDbEntity
  8
DEFPOINTS
  6
BYBLOCK
 62
     0
100
AcDbPoint
 10
808.257613
 20
694.492543
 30
0.0
  0
ENDBLK
  5
5B
100
AcDbEntity
  8
0
100
AcDbBlockEnd
  0
BLOCK
  5
4E
100
AcDbEntity
  8
0
100
AcDbBlockBegin
  2
*D15
 70
     1
 10
0.0
 20
0.0
 30
0.0
  3
*D15
  1

  0
LINE
  5
44
100
AcDbEntity
  8
0
  6
BYBLOCK
 62
     4
100
AcDbLine
 10
472.257613
 20
629.418065
 30
0.0
 11
472.257613
 21
706.514042
 31
0.0
  0
LINE
  5
45
100
AcDbEntity
  8
0
  6
BYBLOCK
 62
     4
100
AcDbLine
 10
844.257613
 20
629.418065
 30
0.0
 11
844.257613
 21
706.514042
 31
0.0
  0
LINE
  5
46
100
AcDbEntity
  8
0
  6
BYBLOCK
 62
     4
100
AcDbLine
 10
475.257613
 20
704.014042
 30
0.0
 11
841.257613
 21
704.014042
 31
0.0
  0
SOLID
  5
47
100
AcDbEntity
  8
0
  6
BYBLOCK
 62
     4
100
AcDbTrace
 10
475.257613
 20
704.514042
 30
0.0
 11
475.257613
 21
703.514042
 31
0.0
 12
472.257613
 22
704.014042
 32
0.0
 13
472.257613
 23
704.014042
 33
0.0
  0
SOLID
  5
48
100
AcDbEntity
  8
0
  6
BYBLOCK
 62
     4
100
AcDbTrace
 10
841.257613
 20
704.514042
 30
0.0
 11
841.257613
 21
703.514042
 31
0.0
 12
844.257613
 22
704.014042
 32
0.0
 13
844.257613
 23
704.014042
 33
0.0
  0
MTEXT
  5
49
100
AcDbEntity
  8
0
  6
BYBLOCK
 62
     2
100
AcDbMText
 10
658.257613
 20
707.014042
 30
0.0
 40
3.0
 41
0.0
 71
     5
 72
     1
  1
\A1;L=372.00
  0
POINT
  5
4A
100
AcDbEntity
  8
DEFPOINTS
  6
BYBLOCK
 62
     0
100
AcDbPoint
 10
472.257613
 20
628.418065
 30
0.0
  0
POINT
  5
4C
100
AcDbEntity
  8
DEFPOINTS
  6
BYBLOCK
 62
     0
100
AcDbPoint
 10
844.257613
 20
628.418065
 30
0.0
  0
POINT
  5
4D
100
AcDbEntity
  8
DEFPOINTS
  6
BYBLOCK
 62
     0
100
AcDbPoint
 10
844.257613
 20
704.014042
 30
0.0
  0
ENDBLK
  5
4F
100
AcDbEntity
  8
0
100
AcDbBlockEnd
  0
ENDSEC
  0
SECTION
  2
ENTITIES
  0
TEXT
  5
20
100
AcDbEntity
  8
TEXT
100
AcDbText
 10
911.675469
 20
655.99623
 30
0.0
 40
6.0
  1
depending on the bush size to be used.
100
AcDbText
  0
TEXT
  5
22
100
AcDbEntity
  8
TEXT
100
AcDbText
 10
879.009513
 20
666.092638
 30
0.0
 40
6.0
  1
NOTE: Manifold width `W' can be 50mm or 64mm
100
AcDbText
  0
ARC
  5
23
100
AcDbEntity
  8
M04
100
AcDbCircle
 10
842.199932
 20
469.15965
 30
0.0
 40
15.0
100
AcDbArc
 50
315.0
 51
45.0
  0
ARC
  5
25
100
AcDbEntity
  8
M04
100
AcDbCircle
 10
808.258806
 20
435.218525
 30
0.0
 40
15.0
100
AcDbArc
 50
225.0
 51
315.0
  0
ARC
  5
26
100
AcDbEntity
  8
M04
100
AcDbCircle
 10
692.199932
 20
469.15965
 30
0.0
 40
15.0
100
AcDbArc
 50
315.0
 51
45.0
  0
ARC
  5
27
100
AcDbEntity
  8
M04
100
AcDbCircle
 10
658.258807
 20
435.218525
 30
0.0
 40
15.0
100
AcDbArc
 50
225.0
 51
315.0
  0
ARC
  5
28
100
AcDbEntity
  8
M04
100
AcDbCircle
 10
842.199932
 20
619.162038
 30
0.0
 40
15.0
100
AcDbArc
 50
315.0
 51
45.0
  0
ARC
  5
29
100
AcDbEntity
  8
M04
100
AcDbCircle
 10
808.258806
 20
653.103163
 30
0.0
 40
15.0
100
AcDbArc
 50
45.0
 51
135.0
  0
ARC
  5
2A
100
AcDbEntity
  8
M04
100
AcDbCircle
 10
658.256419
 20
653.103163
 30
0.0
 40
15.0
100
AcDbArc
 50
45.0
 51
135.0
  0
ARC
  5
2B
100
AcDbEntity
  8
M04
100
AcDbCircle
 10
624.315293
 20
619.162038
 30
0.0
 40
15.0
100
AcDbArc
 50
135.0
 51
225.0
  0
ARC
  5
2C
100
AcDbEntity
  8
M04
100
AcDbCircle
 10
508.256419
 20
653.103163
 30
0.0
 40
15.0
100
AcDbArc
 50
45.0
 51
135.0
  0
ARC
  5
2D
100
AcDbEntity
  8
M04
100
AcDbCircle
 10
474.315293
 20
619.162038
 30
0.0
 40
15.0
100
AcDbArc
 50
135.0
 51
225.0
  0
ARC
  5
2E
100
AcDbEntity
  8
M04
100
AcDbCircle
 10
474.315293
 20
469.15965
 30
0.0
 40
15.0
100
AcDbArc
 50
135.0
 51
225.0
  0
ARC
  5
2F
100
AcDbEntity
  8
M04
100
AcDbCircle
 10
508.256419
 20
435.218525
 30
0.0
 40
15.0
100
AcDbArc
 50
225.0
 51
315.0
  0
LINE
  5
30
100
AcDbEntity
  8
M04
100
AcDbLine
 10
463.708692
 20
458.553048
 30
0.0
 11
497.649817
 21
424.611923
 31
0.0
  0
LINE
  5
31
100
AcDbEntity
  8
M01
100
AcDbLine
 10
472.257613
 20
459.903622
 30
0.0
 11
499.000391
 21
433.160844
 31
0.0
  0
LINE
  5
33
100
AcDbEntity
  8
M01
100
AcDbLine
 10
694.257613
 20
459.903622
 30
0.0
 11
667.514834
 21
433.160844
 31
0.0
  0
LINE
  5
34
100
AcDbEntity
  8
M04
100
AcDbLine
 10
702.806534
 20
458.553048
 30
0.0
 11
668.865408
 21
424.611923
 31
0.0
  0
LINE
  5
35
100
AcDbEntity
  8
M01
100
AcDbLine
 10
844.257613
 20
459.903622
 30
0.0
 11
817.514834
 21
433.160844
 31
0.0
  0
LINE
  5
36
100
AcDbEntity
  8
M04
100
AcDbLine
 10
852.806534
 20
458.553048
 30
0.0
 11
818.865408
 21
424.611923
 31
0.0
  0
LINE
  5
37
100
AcDbEntity
  8
M04
100
AcDbLine
 10
852.806534
 20
629.76864
 30
0.0
 11
818.865408
 21
663.709765
 31
0.0
  0
LINE
  5
38
100
AcDbEntity
  8
M01
100
AcDbLine
 10
844.257613
 20
628.418065
 30
0.0
 11
817.514834
 21
655.160844
 31
0.0
  0
LINE
  5
39
100
AcDbEntity
  8
M01
100
AcDbLine
 10
622.257613
 20
628.418065
 30
0.0
 11
649.000391
 21
655.160844
 31
0.0
  0
LINE
  5
3A
100
AcDbEntity
  8
M04
100
AcDbLine
 10
613.708692
 20
629.76864
 30
0.0
 11
647.649817
 21
663.709765
 31
0.0
  0
LINE
  5
3B
100
AcDbEntity
  8
M01
100
AcDbLine
 10
472.257613
 20
628.418065
 30
0.0
 11
499.000391
 21
655.160844
 31
0.0
  0
LINE
  5
3C
100
AcDbEntity
  8
M04
100
AcDbLine
 10
463.708692
 20
629.76864
 30
0.0
 11
497.649817
 21
663.709765
 31
0.0
  0
TEXT
  5
3D
100
AcDbEntity
  8
TEXT
100
AcDbText
 10
328.72174
 20
187.735405
 30
0.0
 40
6.0
  1
design may vary from this example !
100
AcDbText
  0
TEXT
  5
3E
100
AcDbEntity
  8
TEXT
100
AcDbText
 10
328.340873
 20
197.831813
 30
0.0
 40
6.0
  1
you finalize your tool design, as our final system
100
AcDbText
  0
TEXT
  5
3F
100
AcDbEntity
  8
TEXT
100
AcDbText
 10
305.046753
 20
207.928221
 30
0.0
 40
6.0
  1
N.B. ALL designs MUST be approved by Fast Heat BEFORE
100
AcDbText
  0
HATCH
  5
40
100
AcDbEntity
  8
HATCH
100
AcDbHatch
 10
0.0
 20
0.0
 30
0.0
210
0.0
220
0.0
230
1.0
  2
_U
 70
     0
 71
     1
 91
       12
 92
        7
 72
     1
 73
     1
 93
       34
 10
629.2576125642799
 20
260.5977354083922
 42
0.0
 10
629.2576125642799
 20
267.897735408392
 42
0.0
 10
629.2576125642798
 20
270.3977354083919
 42
0.0
 10
629.95761256428
 20
270.3977354083919
 42
0.0
 10
629.95761256428
 20
271.8977354083919
 42
0.0
 10
632.2576125642799
 20
273.2256410275279
 42
0.0
 10
634.55761256428
 20
271.8977354083918
 42
0.0
 10
634.5576125642799
 20
270.3977354083919
 42
0.0
 10
635.2576125642799
 20
270.3977354083919
 42
0.0
 10
635.2576125642799
 20
267.8977354083921
 42
0.0
 10
635.2576125642799
 20
260.5977354083922
 42
0.0
 10
647.7576125642801
 20
260.5977354083921
 42
0.0
 10
648.25761256428
 20
261.0977354083917
 42
0.0
 10
648.25761256428
 20
269.597735408392
 42
0.0
 10
648.2576125642801
 20
270.5977354083919
 42
0.0
 10
649.2576125642801
 20
270.5977354083919
 42
0.0
 10
654.2576125642798
 20
270.5977354083919
 42
0.0
 10
654.2576125642799
 20
277.5977354083924
 42
0.0
 10
583.2576125642799
 20
277.5977354083924
 42
-0.414213562373096
 10
579.2576125642799
 20
281.5977354083924
 42
0.0
 10
579.2576125642799
 20
303.5977354083917
 42
-1.0
 10
587.2576125642799
 20
303.5977354083917
 42
0.0
 10
587.2576125642799
 20
285.5977354083924
 42
0.0
 10
658.2576125642798
 20
285.5977354083924
 42
0.0
 10
658.2576125642798
 20
315.5977354083919
 42
0.0
 10
649.7576125642799
 20
315.5977354083919
 42
0.0
 10
648.7576125642799
 20
315.5977354083919
 42
0.0
 10
648.7576125642799
 20
316.5977354083919
 42
0.0
 10
648.7576125642799
 20
320.5977354083919
 42
0.0
 10
481.2576125642797
 20
320.5977354083921
 42
0.0
 10
481.2576125642798
 20
314.5977354083921
 42
0.0
 10
469.2576125642798
 20
314.5977354083921
 42
0.0
 10
469.2576125642798
 20
262.5977354083924
 42
0.0
 10
471.2576125642797
 20
260.5977354083923
 42
0.0
 97
       32
330
356
330
35C
330
363
330
47C
330
2EC
330
2D5
330
2D6
330
2EA
330
48F
330
482
330
463
330
48E
330
489
330
48C
330
24A
330
234
330
23F
330
235
330
23C
330
23D
330
233
330
232
330
249
330
283
330
293
330
28C
330
28D
330
292
330
468
330
362
330
35B
330
35D
 92
        7
 72
     1
 73
     1
 93
       11
 10
729.2576125642798
 20
285.5977354083923
 42
0.0
 10
729.25761256428
 20
303.5977354083918
 42
-0.4142135623730905
 10
733.25761256428
 20
307.5977354083917
 42
0.0
 10
804.2576125642799
 20
307.5977354083918
 42
0.0
 10
804.2576125642799
 20
320.5977354083918
 42
0.0
 10
667.7576125642799
 20
320.597735408392
 42
0.0
 10
667.7576125642799
 20
316.5977354083919
 42
0.0
 10
667.7576125642799
 20
315.5977354083919
 42
0.0
 10
666.7576125642799
 20
315.5977354083919
 42
0.0
 10
658.2576125642799
 20
315.5977354083919
 42
0.0
 10
658.2576125642799
 20
285.5977354083924
 42
0.0
 97
       11
330
364
330
36D
330
36C
330
297
330
2EB
330
2DD
330
2DC
330
2EC
330
47C
330
363
330
366
 92
        7
 72
     1
 73
     1
 93
       42
 10
794.25761256428
 20
260.5977354083921
 42
0.0
 10
794.25761256428
 20
260.897735408392
 42
0.0
 10
794.95761256428
 20
261.5977354083919
 42
0.0
 10
821.5576125642796
 20
261.5977354083919
 42
0.0
 10
822.2576125642799
 20
260.897735408392
 42
0.0
 10
822.2576125642799
 20
260.597735408392
 42
0.0
 10
826.5163457646993
 20
260.5977354083921
 42
0.0
 10
826.5163457646993
 20
264.5977354083924
 42
-1.0
 10
834.5163457646993
 20
264.5977354083924
 42
0.0
 10
834.5163457646993
 20
260.597735408392
 42
0.0
 10
838.2576125642797
 20
260.597735408392
 42
0.0
 10
840.25761256428
 20
262.5977354083924
 42
0.0
 10
840.2576125642799
 20
318.597735408392
 42
0.0
 10
838.2576125642803
 20
320.5977354083919
 42
0.0
 10
834.5163457646993
 20
320.5977354083919
 42
0.0
 10
834.5163457646993
 20
316.5977354083924
 42
-1.0
 10
826.5163457646993
 20
316.5977354083924
 42
0.0
 10
826.5163457646993
 20
320.5977354083918
 42
0.0
 10
812.2576125642799
 20
320.5977354083918
 42
0.0
 10
812.2576125642799
 20
303.5977354083917
 42
-0.4142135623730951
 10
808.2576125642798
 20
299.5977354083917
 42
0.0
 10
737.2576125642799
 20
299.5977354083917
 42
0.0
 10
737.25761256428
 20
281.5977354083924
 42
-0.414213562373096
 10
733.25761256428
 20
277.5977354083924
 42
0.0
 10
662.2576125642799
 20
277.5977354083924
 42
0.0
 10
662.2576125642799
 20
270.5977354083919
 42
0.0
 10
667.2576125642799
 20
270.5977354083918
 42
0.0
 10
668.2576125642797
 20
270.5977354083918
 42
0.0
 10
668.2576125642799
 20
269.5977354083918
 42
0.0
 10
668.2576125642799
 20
261.0977354083916
 42
0.0
 10
668.7576125642796
 20
260.5977354083921
 42
0.0
 10
681.2576125642799
 20
260.5977354083921
 42
0.0
 10
681.2576125642799
 20
267.897735408392
 42
0.0
 10
681.2576125642799
 20
270.3977354083919
 42
0.0
 10
681.9576125642799
 20
270.3977354083919
 42
0.0
 10
681.9576125642799
 20
271.897735408392
 42
0.0
 10
684.2576125642799
 20
273.2256410275279
 42
0.0
 10
686.55761256428
 20
271.8977354083919
 42
0.0
 10
686.5576125642799
 20
270.3977354083919
 42
0.0
 10
687.25761256428
 20
270.3977354083919
 42
0.0
 10
687.2576125642799
 20
267.8977354083921
 42
0.0
 10
687.2576125642799
 20
260.5977354083921
 42
0.0
 97
       37
330
48B
330
297
330
3B1
330
3B4
330
3B2
330
36B
330
36A
330
369
330
367
330
360
330
357
330
467
330
292
330
28F
330
28E
330
294
330
284
330
230
330
263
330
24D
330
259
330
24E
330
257
330
256
330
250
330
24F
330
264
330
31F
330
31E
330
324
330
319
330
31A
330
3B0
330
3B3
330
3AF
330
488
330
48D
 92
       22
 72
     0
 73
     1
 93
        4
 10
794.95761256428
 20
261.5977354083919
 10
794.25761256428
 20
260.8977354083919
 10
800.0987305768227
 20
260.8977354083919
 10
799.3987305768227
 20
261.5977354083919
 97
        4
330
324
330
31E
330
318
330
305
 92
       22
 72
     0
 73
     1
 93
        4
 10
794.25761256428
 20
260.8977354083919
 10
794.25761256428
 20
260.597735408392
 10
800.398730576823
 20
260.597735408392
 10
800.0987305768232
 20
260.8977354083919
 97
        4
330
318
330
31F
330
230
330
310
 92
       23
 72
     0
 73
     1
 93
        4
 10
808.2576125642798
 20
260.8977354083919
 10
808.25761256428
 20
261.5977354083919
 10
799.3987305768228
 20
261.5977354083919
 10
800.0987305768227
 20
260.8977354083919
 97
        4
330
324
330
305
330
318
330
326
 92
        7
 72
     0
 73
     1
 93
        4
 10
800.098730576823
 20
260.8977354083919
 10
800.3987305768228
 20
260.597735408392
 10
808.2576125642798
 20
260.597735408392
 10
808.2576125642798
 20
260.8977354083919
 97
        4
330
318
330
310
330
230
330
326
 92
       23
 72
     0
 73
     1
 93
        4
 10
816.416494551737
 20
260.8977354083919
 10
817.1164945517372
 20
261.5977354083919
 10
808.25761256428
 20
261.5977354083919
 10
808.25761256428
 20
260.8977354083919
 97
        4
330
324
330
326
330
318
330
306
 92
       23
 72
     0
 73
     1
 93
        4
 10
808.25761256428
 20
260.8977354083919
 10
808.2576125642802
 20
260.597735408392
 10
816.1164945517372
 20
260.5977354083921
 10
816.416494551737
 20
260.8977354083919
 97
        4
330
318
330
326
330
230
330
312
 92
       23
 72
     0
 73
     1
 93
        4
 10
817.116494551737
 20
261.5977354083919
 10
816.4164945517368
 20
260.8977354083919
 10
822.2576125642799
 20
260.8977354083918
 10
821.5576125642799
 20
261.5977354083919
 97
        4
330
324
330
306
330
318
330
319
 92
       22
 72
     0
 73
     1
 93
        4
 10
822.2576125642801
 20
260.597735408392
 10
822.2576125642799
 20
260.8977354083919
 10
816.416494551737
 20
260.8977354083919
 10
816.116494551737
 20
260.597735408392
 97
        4
330
318
330
312
330
230
330
31A
 92
       24
 93
        4
 72
     1
 10
787.746089
 20
277.208116
 11
801.860374
 21
277.208116
 72
     1
 10
801.860374
 20
277.208116
 11
801.860374
 21
280.208116
 72
     1
 10
801.860374
 20
280.208116
 11
787.746089
 21
280.208116
 72
     1
 10
787.746089
 20
280.208116
 11
787.746089
 21
277.208116
 97
        1
330
355
 75
     0
 76
     0
 52
45.0
 41
6.0
 77
     0
 78
     1
 53
45.0
 43
0.0
 44
0.0
 45
-4.242640687119284
 46
4.242640687119285
 79
     0
 47
0.038481
 98
       11
 10
537.068549
 20
281.461995
 10
691.947365
 20
302.591003
 10
753.437711
 20
274.162881
 10
796.931995
 20
261.365868
 10
796.662524
 20
260.788659
 10
800.743062
 20
261.173464
 10
800.974035
 20
260.750178
 10
810.944404
 20
261.211945
 10
810.674936
 20
260.788659
 10
818.297069
 20
261.250426
 10
817.75813
 20
260.673217
  0
DIMENSION
  5
41
100
AcDbEntity
  8
DIMS
100
AcDbDimension
  2
*D15
 10
844.257613
 20
704.014042
 30
0.0
 11
658.257613
 21
707.014042
 31
0.0
  1
L=<>
  3
DIM1
100
AcDbAlignedDimension
 13
472.257613
 23
628.418065
 33
0.0
 14
844.257613
 24
628.418065
 34
0.0
100
AcDbRotatedDimension
1001
ACAD
1000
DSTYLE
1002
{
1070
   144
1040
1.0
1002
}
  0
DIMENSION
  5
50
100
AcDbEntity
  8
DIMS
100
AcDbDimension
  2
*D14
 10
808.257613
 20
694.492543
 30
0.0
 11
733.257613
 21
697.492543
 31
0.0
  1
A=<>
  3
DIM1
100
AcDbAlignedDimension
 13
658.257613
 23
674.69383
 33
0.0
 14
808.257613
 24
635.860844
 34
0.0
100
AcDbRotatedDimension
1001
ACAD
1000
DSTYLE
1002
{
1070
    75
1070
     1
1070
   144
1040
1.0
1070
   287
1070
     4
1002
}
  0
DIMENSION
  5
5C
100
AcDbEntity
  8
DIMS
100
AcDbDimension
  2
*D13
 10
658.257613
 20
694.492543
 30
0.0
 11
583.257613
 21
697.492543
 31
0.0
  1
A=<>
  3
DIM1
100
AcDbAlignedDimension
 13
508.257613
 23
635.860844
 33
0.0
 14
658.257613
 24
674.69383
 34
0.0
100
AcDbRotatedDimension
1001
ACAD
1000
DSTYLE
1002
{
1070
   144
1040
1.0
1002
}
  0
DIMENSION
  5
69
100
AcDbEntity
  8
DIMS
100
AcDbDimension
  2
*D12
 10
330.466207
 20
655.160844
 30
0.0
 11
327.466207
 21
544.160844
 31
0.0
  1
L1=<>
  3
DIM1
100
AcDbAlignedDimension
 13
499.000391
 23
433.160844
 33
0.0
 14
499.000391
 24
655.160844
 34
0.0
 50
90.0
100
AcDbRotatedDimension
1001
ACAD
1000
DSTYLE
1002
{
1070
   144
1040
1.0
1002
}
  0
DIMENSION
  5
76
100
AcDbEntity
  8
DIMS
100
AcDbDimension
  2
*D11
 10
340.066031
 20
619.160844
 30
0.0
 11
337.066031
 21
544.160844
 31
0.0
  1
B=<>
  3
DIM1
100
AcDbAlignedDimension
 13
491.557613
 23
469.160844
 33
0.0
 14
491.557613
 24
619.160844
 34
0.0
 50
90.0
100
AcDbRotatedDimension
1001
ACAD
1000
DSTYLE
1002
{
1070
   144
1040
1.0
1002
}
  0
DIMENSION
  5
83
100
AcDbEntity
  8
DIMS
100
AcDbDimension
  2
*D10
 10
875.951044
 20
446.722246
 30
0.0
 11
851.202307
 21
426.21615
 31
0.0
 70
     1
  1
W=<>
  3
DIM1
100
AcDbAlignedDimension
 13
799.002779
 23
433.160844
 33
0.0
 14
844.257613
 24
478.415678
 34
0.0
1001
ACAD
1000
DSTYLE
1002
{
1070
   144
1040
1.0
1002
}
  0
HATCH
  5
90
100
AcDbEntity
  8
HATCH
100
AcDbHatch
 10
0.0
 20
0.0
 30
0.0
210
0.0
220
0.0
230
1.0
  2
_U
 70
     0
 71
     1
 91
        1
 92
        7
 72
     0
 73
     1
 93
        4
 10
793.2576125642799
 20
257.5977354083925
 10
793.2576125642801
 20
260.5977354083921
 10
693.2576125642802
 20
260.5977354083921
 10
693.2576125642801
 20
257.5977354083923
 97
        4
330
230
330
289
330
22D
330
323
 75
     0
 76
     0
 52
135.0
 41
0.8
 77
     0
 78
     1
 53
135.0
 43
0.0
 44
0.0
 45
-0.5656854249492382
 46
-0.565685424949238
 79
     0
 47
0.250777
 98
        1
 10
734.143572
 20
258.469136
  0
HATCH
  5
91
100
AcDbEntity
  8
HATCH
100
AcDbHatch
 10
0.0
 20
0.0
 30
0.0
210
0.0
220
0.0
230
1.0
  2
_U
 70
     0
 71
     1
 91
        2
 92
        7
 72
     0
 73
     1
 93
        4
 10
669.25761256428
 20
323.597735408392
 10
669.25761256428
 20
320.597735408392
 10
790.2576125642799
 20
320.5977354083918
 10
790.25761256428
 20
323.5977354083919
 97
        4
330
296
330
2DF
330
297
330
370
 92
        7
 72
     0
 73
     1
 93
        4
 10
826.25761256428
 20
323.5977354083918
 10
826.25761256428
 20
320.5977354083918
 10
838.2576125642799
 20
320.5977354083918
 10
838.2576125642799
 20
323.5977354083918
 97
        4
330
296
330
36F
330
297
330
485
 75
     0
 76
     0
 52
135.0
 41
0.8
 77
     0
 78
     1
 53
135.0
 43
0.0
 44
0.0
 45
-0.5656854249492382
 46
-0.565685424949238
 79
     0
 47
0.250777
 98
        2
 10
730.380448
 20
322.166382
 10
828.97434
 20
322.166382
  0
HATCH
  5
92
100
AcDbEntity
  8
M03
100
AcDbHatch
 10
0.0
 20
0.0
 30
0.0
210
0.0
220
0.0
230
1.0
  2
_U
 70
     0
 71
     0
 91
        1
 92
        7
 72
     0
 73
     1
 93
        4
 10
780.620576831635
 20
457.0584785169838
 10
801.2952897551713
 20
436.3837655934475
 10
799.951786870917
 20
435.040262709193
 10
779.2770739473805
 20
455.7149756327296
 97
        0
 75
     0
 76
     0
 52
285.0
 41
0.7
 77
     0
 78
     1
 53
165.0
 43
841.913266
 44
-176.225933
 45
0.1811733315717643
 46
0.676148078402348
 79
     0
 47
0.060863
 98
        1
 10
782.390989
 20
453.608785
  0
HATCH
  5
95
100
AcDbEntity
  8
M03
100
AcDbHatch
 10
0.0
 20
0.0
 30
0.0
210
0.0
220
0.0
230
1.0
  2
_U
 70
     0
 71
     0
 91
        1
 92
        7
 72
     0
 73
     1
 93
        4
 10
780.620576831635
 20
457.058478516984
 10
801.2952897551715
 20
436.3837655934474
 10
799.951786870917
 20
435.040262709193
 10
779.2770739473805
 20
455.7149756327296
 97
        0
 75
     0
 76
     0
 52
-15.0
 41
0.7
 77
     0
 78
     1
 53
105.0
 43
841.913266
 44
-176.225933
 45
0.6761480784023478
 46
0.1811733315717645
 79
     0
 47
0.060863
 98
        1
 10
782.692299
 20
453.651769
  0
LINE
  5
96
100
AcDbEntity
  8
M03
100
AcDbLine
 10
778.494262
 20
478.418097
 30
0.0
 11
781.059579
 21
477.730723
 31
0.0
  0
LINE
  5
97
100
AcDbEntity
  8
M03
100
AcDbLine
 10
781.746954
 20
475.165406
 30
0.0
 11
781.059579
 21
477.730723
 31
0.0
  0
LINE
  5
98
100
AcDbEntity
  8
M03
100
AcDbLine
 10
781.746954
 20
475.165406
 30
0.0
 11
778.494262
 21
478.418097
 31
0.0
  0
LINE
  5
99
100
AcDbEntity
  8
M03
100
AcDbLine
 10
781.181268
 20
473.609771
 30
0.0
 11
776.938627
 21
477.852412
 31
0.0
  0
LINE
  5
9A
100
AcDbEntity
  8
M03
100
AcDbLine
 10
780.620577
 20
457.058479
 30
0.0
 11
801.29529
 21
436.383766
 31
0.0
  0
LINE
  5
9B
100
AcDbEntity
  8
M03
100
AcDbLine
 10
779.277074
 20
455.714976
 30
0.0
 11
799.951787
 21
435.040263
 31
0.0
  0
LINE
  5
9C
100
AcDbEntity
  8
M03
100
AcDbLine
 10
775.882961
 20
462.220358
 30
0.0
 11
765.76634
 21
472.336979
 31
0.0
  0
LINE
  5
9D
100
AcDbEntity
  8
M03
100
AcDbLine
 10
777.187407
 20
462.047284
 30
0.0
 11
776.621721
 21
461.481598
 31
0.0
  0
LINE
  5
9E
100
AcDbEntity
  8
M03
100
AcDbLine
 10
780.832709
 20
457.270611
 30
0.0
 11
779.064942
 21
455.502844
 31
0.0
  0
LINE
  5
9F
100
AcDbEntity
  8
M03
100
AcDbLine
 10
779.064942
 20
455.502844
 30
0.0
 11
774.115194
 21
460.452591
 31
0.0
  0
LINE
  5
A0
100
AcDbEntity
  8
M03
100
AcDbLine
 10
775.882961
 20
462.220358
 30
0.0
 11
774.115194
 21
460.452591
 31
0.0
  0
LINE
  5
A1
100
AcDbEntity
  8
M03
100
AcDbLine
 10
766.332026
 20
472.902665
 30
0.0
 11
765.76634
 21
472.336979
 31
0.0
  0
ARC
  5
A2
100
AcDbEntity
  8
M03
100
AcDbCircle
 10
772.502336
 20
469.17348
 30
0.0
 40
5.826136
100
AcDbArc
 50
160.69541
 51
289.30459
  0
LINE
  5
A3
100
AcDbEntity
  8
M03
100
AcDbLine
 10
775.17086
 20
476.084645
 30
0.0
 11
776.16081
 21
476.084645
 31
0.0
  0
LINE
  5
A4
100
AcDbEntity
  8
M03
100
AcDbLine
 10
779.413501
 20
471.842004
 30
0.0
 11
779.413501
 21
472.831954
 31
0.0
  0
LINE
  5
A5
100
AcDbEntity
  8
M03
100
AcDbLine
 10
779.413501
 20
471.842004
 30
0.0
 11
775.17086
 21
476.084645
 31
0.0
  0
LINE
  5
A6
100
AcDbEntity
  8
M03
100
AcDbLine
 10
779.413501
 20
472.831954
 30
0.0
 11
776.16081
 21
476.084645
 31
0.0
  0
LINE
  5
A7
100
AcDbEntity
  8
M03
100
AcDbLine
 10
769.160453
 20
470.074237
 30
0.0
 11
764.210705
 21
475.023985
 31
0.0
  0
LINE
  5
A8
100
AcDbEntity
  8
M03
100
AcDbLine
 10
780.969136
 20
458.265554
 30
0.0
 11
780.403451
 21
457.699869
 31
0.0
  0
LINE
  5
A9
100
AcDbEntity
  8
M03
100
AcDbLine
 10
768.665478
 20
470.569212
 30
0.0
 11
768.099793
 21
470.003527
 31
0.0
  0
LINE
  5
AA
100
AcDbEntity
  8
M03
100
AcDbLine
 10
778.494262
 20
478.418097
 30
0.0
 11
769.089742
 21
469.013577
 31
0.0
  0
LINE
  5
AB
100
AcDbEntity
  8
M03
100
AcDbLine
 10
781.746954
 20
475.165406
 30
0.0
 11
772.342433
 21
465.760886
 31
0.0
  0
LINE
  5
AC
100
AcDbEntity
  8
M03
100
AcDbLine
 10
781.181268
 20
473.609771
 30
0.0
 11
772.837408
 21
465.265911
 31
0.0
  0
LINE
  5
AD
100
AcDbEntity
  8
M03
100
AcDbLine
 10
776.938627
 20
477.852412
 30
0.0
 11
768.594767
 21
469.508552
 31
0.0
  0
LINE
  5
AE
100
AcDbEntity
  8
M03
100
AcDbLine
 10
780.832709
 20
457.270611
 30
0.0
 11
776.621721
 21
461.481598
 31
0.0
  0
LINE
  5
AF
100
AcDbEntity
  8
M03
100
AcDbLine
 10
764.210705
 20
475.023985
 30
0.0
 11
760.675171
 21
471.488451
 31
0.0
  0
LINE
  5
B0
100
AcDbEntity
  8
M03
100
AcDbLine
 10
806.073846
 20
433.160844
 30
0.0
 11
773.403094
 21
465.831597
 31
0.0
  0
LINE
  5
B1
100
AcDbEntity
  8
CENTRE
100
AcDbLine
 10
784.150178
 20
480.821322
 30
0.0
 11
764.945052
 21
461.616196
 31
0.0
  0
LINE
  5
B4
100
AcDbEntity
  8
DIMS
 62
     4
100
AcDbLine
 10
772.902274
 20
430.405505
 30
0.0
 11
772.902274
 21
425.605505
 31
0.0
  0
LINE
  5
B5
100
AcDbEntity
  8
DIMS
 62
     4
100
AcDbLine
 10
772.902274
 20
437.205505
 30
0.0
 11
772.902274
 21
442.005505
 31
0.0
  0
LINE
  5
B6
100
AcDbEntity
  8
DIMS
 62
     4
100
AcDbLine
 10
769.502274
 20
433.805505
 30
0.0
 11
764.702274
 21
433.805505
 31
0.0
  0
LINE
  5
B7
100
AcDbEntity
  8
DIMS
 62
     4
100
AcDbLine
 10
776.302274
 20
433.805505
 30
0.0
 11
781.102274
 21
433.805505
 31
0.0
  0
LINE
  5
B8
100
AcDbEntity
  8
DIMS
 62
     4
100
AcDbLine
 10
772.902274
 20
435.505505
 30
0.0
 11
772.902274
 21
432.105505
 31
0.0
  0
LINE
  5
B9
100
AcDbEntity
  8
DIMS
 62
     4
100
AcDbLine
 10
774.602274
 20
433.805505
 30
0.0
 11
771.202274
 21
433.805505
 31
0.0
  0
CIRCLE
  5
BA
100
AcDbEntity
  8
M04
100
AcDbCircle
 10
772.902274
 20
433.805505
 30
0.0
 40
6.5
  0
LINE
  5
BB
100
AcDbEntity
  8
DIMS
 62
     4
100
AcDbLine
 10
808.257613
 20
465.760844
 30
0.0
 11
808.257613
 21
452.460844
 31
0.0
  0
LINE
  5
BC
100
AcDbEntity
  8
DIMS
 62
     4
100
AcDbLine
 10
808.257613
 20
472.560844
 30
0.0
 11
808.257613
 21
485.860844
 31
0.0
  0
LINE
  5
BD
100
AcDbEntity
  8
DIMS
 62
     4
100
AcDbLine
 10
804.857613
 20
469.160844
 30
0.0
 11
791.557613
 21
469.160844
 31
0.0
  0
LINE
  5
BE
100
AcDbEntity
  8
DIMS
 62
     4
100
AcDbLine
 10
811.657613
 20
469.160844
 30
0.0
 11
824.957613
 21
469.160844
 31
0.0
  0
LINE
  5
BF
100
AcDbEntity
  8
DIMS
 62
     4
100
AcDbLine
 10
808.257613
 20
470.860844
 30
0.0
 11
808.257613
 21
467.460844
 31
0.0
  0
LINE
  5
C0
100
AcDbEntity
  8
DIMS
 62
     4
100
AcDbLine
 10
809.957613
 20
469.160844
 30
0.0
 11
806.557613
 21
469.160844
 31
0.0
  0
CIRCLE
  5
C1
100
AcDbEntity
  8
M03
100
AcDbCircle
 10
808.257613
 20
469.160844
 30
0.0
 40
2.3
  0
ARC
  5
C2
100
AcDbEntity
  8
M03
100
AcDbCircle
 10
808.257613
 20
469.160844
 30
0.0
 40
3.0
100
AcDbArc
 50
347.784636
 51
276.923103
  0
LINE
  5
C3
100
AcDbEntity
  8
M03
100
AcDbLine
 10
807.707613
 20
475.135582
 30
0.0
 11
807.707613
 21
463.186105
 31
0.0
  0
LINE
  5
C4
100
AcDbEntity
  8
M03
100
AcDbLine
 10
808.807613
 20
475.135582
 30
0.0
 11
808.807613
 21
463.186105
 31
0.0
  0
CIRCLE
  5
C5
100
AcDbEntity
  8
M03
100
AcDbCircle
 10
808.257613
 20
469.160844
 30
0.0
 40
15.0
  0
CIRCLE
  5
C6
100
AcDbEntity
  8
M03
100
AcDbCircle
 10
808.257613
 20
469.160844
 30
0.0
 40
14.0
  0
CIRCLE
  5
C7
100
AcDbEntity
  8
M03
100
AcDbCircle
 10
808.257613
 20
469.160844
 30
0.0
 40
7.858882
  0
CIRCLE
  5
C8
100
AcDbEntity
  8
M03
100
AcDbCircle
 10
808.257613
 20
469.160844
 30
0.0
 40
6.0
  0
CIRCLE
  5
C9
100
AcDbEntity
  8
M01
100
AcDbCircle
 10
808.257613
 20
469.160844
 30
0.0
 40
4.0
  0
LINE
  5
CA
100
AcDbEntity
  8
DIMS
 62
     4
100
AcDbLine
 10
849.257613
 20
497.760844
 30
0.0
 11
849.257613
 21
492.960844
 31
0.0
  0
LINE
  5
CB
100
AcDbEntity
  8
DIMS
 62
     4
100
AcDbLine
 10
849.257613
 20
504.560844
 30
0.0
 11
849.257613
 21
509.360844
 31
0.0
  0
LINE
  5
CC
100
AcDbEntity
  8
DIMS
 62
     4
100
AcDbLine
 10
845.857613
 20
501.160844
 30
0.0
 11
841.057613
 21
501.160844
 31
0.0
  0
LINE
  5
CD
100
AcDbEntity
  8
DIMS
 62
     4
100
AcDbLine
 10
852.657613
 20
501.160844
 30
0.0
 11
857.457613
 21
501.160844
 31
0.0
  0
LINE
  5
CE
100
AcDbEntity
  8
DIMS
 62
     4
100
AcDbLine
 10
849.257613
 20
502.860844
 30
0.0
 11
849.257613
 21
499.460844
 31
0.0
  0
LINE
  5
CF
100
AcDbEntity
  8
DIMS
 62
     4
100
AcDbLine
 10
850.957613
 20
501.160844
 30
0.0
 11
847.557613
 21
501.160844
 31
0.0
  0
CIRCLE
  5
D0
100
AcDbEntity
  8
M04
100
AcDbCircle
 10
849.257613
 20
501.160844
 30
0.0
 40
6.5
  0
ARC
  5
D1
100
AcDbEntity
  8
M01
100
AcDbCircle
 10
829.483009
 20
510.160844
 30
0.0
 40
12.0
100
AcDbArc
 50
90.0
 51
225.0
  0
ARC
  5
D2
100
AcDbEntity
  8
M04
100
AcDbCircle
 10
837.311436
 20
505.160844
 30
0.0
 40
7.0
100
AcDbArc
 50
90.0
 51
225.0
  0
LINE
  5
D3
100
AcDbEntity
  8
M04
100
AcDbLine
 10
852.806534
 20
479.766252
 30
0.0
 11
832.361689
 21
500.211096
 31
0.0
  0
LINE
  5
D4
100
AcDbEntity
  8
M04
100
AcDbLine
 10
797.652205
 20
424.611923
 30
0.0
 11
721.567661
 21
500.696466
 31
0.0
  0
LINE
  5
D5
100
AcDbEntity
  8
M01
100
AcDbLine
 10
844.257613
 20
478.415678
 30
0.0
 11
820.997728
 21
501.675563
 31
0.0
  0
LINE
  5
D6
100
AcDbEntity
  8
M01
100
AcDbLine
 10
799.002779
 20
433.160844
 30
0.0
 11
726.517497
 21
505.646125
 31
0.0
  0
LINE
  5
D7
100
AcDbEntity
  8
M01
100
AcDbLine
 10
844.257613
 20
459.903622
 30
0.0
 11
844.257613
 21
478.415678
 31
0.0
  0
LINE
  5
D8
100
AcDbEntity
  8
M01
100
AcDbLine
 10
817.514834
 20
433.160844
 30
0.0
 11
799.002779
 21
433.160844
 31
0.0
  0
ARC
  5
D9
100
AcDbEntity
  8
M01
100
AcDbCircle
 10
583.257612
 20
481.935447
 30
0.0
 40
12.0
100
AcDbArc
 50
45.0
 51
135.0
  0
ARC
  5
DA
100
AcDbEntity
  8
M04
100
AcDbCircle
 10
583.257613
 20
481.935447
 30
0.0
 40
5.0
100
AcDbArc
 50
45.0
 51
135.0
  0
LINE
  5
DB
100
AcDbEntity
  8
DIMS
 62
     4
100
AcDbLine
 10
710.257613
 20
487.760844
 30
0.0
 11
710.257613
 21
482.960844
 31
0.0
  0
LINE
  5
DC
100
AcDbEntity
  8
DIMS
 62
     4
100
AcDbLine
 10
710.257613
 20
494.560844
 30
0.0
 11
710.257613
 21
499.360844
 31
0.0
  0
LINE
  5
DD
100
AcDbEntity
  8
DIMS
 62
     4
100
AcDbLine
 10
706.857613
 20
491.160844
 30
0.0
 11
702.057613
 21
491.160844
 31
0.0
  0
LINE
  5
DE
100
AcDbEntity
  8
DIMS
 62
     4
100
AcDbLine
 10
713.657613
 20
491.160844
 30
0.0
 11
718.457613
 21
491.160844
 31
0.0
  0
LINE
  5
DF
100
AcDbEntity
  8
DIMS
 62
     4
100
AcDbLine
 10
710.257613
 20
492.860844
 30
0.0
 11
710.257613
 21
489.460844
 31
0.0
  0
LINE
  5
E0
100
AcDbEntity
  8
DIMS
 62
     4
100
AcDbLine
 10
711.957613
 20
491.160844
 30
0.0
 11
708.557613
 21
491.160844
 31
0.0
  0
CIRCLE
  5
E1
100
AcDbEntity
  8
M04
100
AcDbCircle
 10
710.257613
 20
491.160844
 30
0.0
 40
6.5
  0
LINE
  5
E2
100
AcDbEntity
  8
DIMS
 62
     4
100
AcDbLine
 10
622.902274
 20
430.405505
 30
0.0
 11
622.902274
 21
425.605505
 31
0.0
  0
LINE
  5
E3
100
AcDbEntity
  8
DIMS
 62
     4
100
AcDbLine
 10
622.902274
 20
437.205505
 30
0.0
 11
622.902274
 21
442.005505
 31
0.0
  0
LINE
  5
E4
100
AcDbEntity
  8
DIMS
 62
     4
100
AcDbLine
 10
619.502274
 20
433.805505
 30
0.0
 11
614.702274
 21
433.805505
 31
0.0
  0
LINE
  5
E5
100
AcDbEntity
  8
DIMS
 62
     4
100
AcDbLine
 10
626.302274
 20
433.805505
 30
0.0
 11
631.102274
 21
433.805505
 31
0.0
  0
LINE
  5
E6
100
AcDbEntity
  8
DIMS
 62
     4
100
AcDbLine
 10
622.902274
 20
435.505505
 30
0.0
 11
622.902274
 21
432.105505
 31
0.0
  0
LINE
  5
E7
100
AcDbEntity
  8
DIMS
 62
     4
100
AcDbLine
 10
624.602274
 20
433.805505
 30
0.0
 11
621.202274
 21
433.805505
 31
0.0
  0
CIRCLE
  5
E8
100
AcDbEntity
  8
M04
100
AcDbCircle
 10
622.902274
 20
433.805505
 30
0.0
 40
6.5
  0
ARC
  5
E9
100
AcDbEntity
  8
M04
100
AcDbCircle
 10
718.032216
 20
497.160844
 30
0.0
 40
5.0
100
AcDbArc
 50
45.0
 51
90.0
  0
LINE
  5
EA
100
AcDbEntity
  8
M04
100
AcDbLine
 10
718.032216
 20
502.160844
 30
0.0
 11
692.483009
 21
502.160844
 31
0.0
  0
ARC
  5
EB
100
AcDbEntity
  8
M04
100
AcDbCircle
 10
692.483009
 20
497.160844
 30
0.0
 40
5.0
100
AcDbArc
 50
90.0
 51
225.0
  0
LINE
  5
EC
100
AcDbEntity
  8
M04
100
AcDbLine
 10
702.806534
 20
479.766251
 30
0.0
 11
688.947475
 21
493.62531
 31
0.0
  0
ARC
  5
ED
100
AcDbEntity
  8
M01
100
AcDbCircle
 10
692.483009
 20
497.160844
 30
0.0
 40
12.0
100
AcDbArc
 50
90.0
 51
225.0
  0
ARC
  5
EE
100
AcDbEntity
  8
M01
100
AcDbCircle
 10
718.032216
 20
497.160844
 30
0.0
 40
12.0
100
AcDbArc
 50
45.0
 51
90.0
  0
LINE
  5
EF
100
AcDbEntity
  8
M04
100
AcDbLine
 10
647.652205
 20
424.611923
 30
0.0
 11
586.793146
 21
485.470981
 31
0.0
  0
LINE
  5
F0
100
AcDbEntity
  8
M01
100
AcDbLine
 10
694.257613
 20
478.415678
 30
0.0
 11
683.997728
 21
488.675563
 31
0.0
  0
LINE
  5
F1
100
AcDbEntity
  8
M01
100
AcDbLine
 10
649.002779
 20
433.160844
 30
0.0
 11
591.742894
 21
490.420728
 31
0.0
  0
LINE
  5
F2
100
AcDbEntity
  8
M01
100
AcDbLine
 10
694.257613
 20
459.903622
 30
0.0
 11
694.257613
 21
478.415678
 31
0.0
  0
LINE
  5
F3
100
AcDbEntity
  8
M01
100
AcDbLine
 10
667.514834
 20
433.160844
 30
0.0
 11
649.002779
 21
433.160844
 31
0.0
  0
LINE
  5
F4
100
AcDbEntity
  8
M01
100
AcDbLine
 10
718.032216
 20
509.160844
 30
0.0
 11
692.483009
 21
509.160844
 31
0.0
  0
LINE
  5
F5
100
AcDbEntity
  8
DIMS
 62
     4
100
AcDbLine
 10
661.657613
 20
469.160844
 30
0.0
 11
674.957613
 21
469.160844
 31
0.0
  0
LINE
  5
F6
100
AcDbEntity
  8
DIMS
 62
     4
100
AcDbLine
 10
654.857613
 20
469.160844
 30
0.0
 11
641.557613
 21
469.160844
 31
0.0
  0
LINE
  5
F7
100
AcDbEntity
  8
DIMS
 62
     4
100
AcDbLine
 10
656.557613
 20
469.160844
 30
0.0
 11
659.957613
 21
469.160844
 31
0.0
  0
CIRCLE
  5
F8
100
AcDbEntity
  8
M03
100
AcDbCircle
 10
658.257613
 20
469.160844
 30
0.0
 40
2.3
  0
ARC
  5
F9
100
AcDbEntity
  8
M03
100
AcDbCircle
 10
658.257613
 20
469.160844
 30
0.0
 40
3.0
100
AcDbArc
 50
263.076897
 51
192.215364
  0
LINE
  5
FA
100
AcDbEntity
  8
M03
100
AcDbLine
 10
658.807613
 20
475.135582
 30
0.0
 11
658.807613
 21
463.186105
 31
0.0
  0
LINE
  5
FB
100
AcDbEntity
  8
M03
100
AcDbLine
 10
657.707613
 20
475.135582
 30
0.0
 11
657.707613
 21
463.186105
 31
0.0
  0
CIRCLE
  5
FC
100
AcDbEntity
  8
M03
100
AcDbCircle
 10
658.257613
 20
469.160844
 30
0.0
 40
15.0
  0
CIRCLE
  5
FD
100
AcDbEntity
  8
M03
100
AcDbCircle
 10
658.257613
 20
469.160844
 30
0.0
 40
14.0
  0
CIRCLE
  5
FE
100
AcDbEntity
  8
M03
100
AcDbCircle
 10
658.257613
 20
469.160844
 30
0.0
 40
7.858882
  0
CIRCLE
  5
FF
100
AcDbEntity
  8
M03
100
AcDbCircle
 10
658.257613
 20
469.160844
 30
0.0
 40
6.0
  0
CIRCLE
  5
100
100
AcDbEntity
  8
M01
100
AcDbCircle
 10
658.257613
 20
469.160844
 30
0.0
 40
4.0
  0
LINE
  5
101
100
AcDbEntity
  8
DIMS
 62
     4
100
AcDbLine
 10
808.257613
 20
622.560844
 30
0.0
 11
808.257613
 21
635.860844
 31
0.0
  0
LINE
  5
102
100
AcDbEntity
  8
DIMS
 62
     4
100
AcDbLine
 10
808.257613
 20
615.760844
 30
0.0
 11
808.257613
 21
602.460844
 31
0.0
  0
LINE
  5
103
100
AcDbEntity
  8
DIMS
 62
     4
100
AcDbLine
 10
804.857613
 20
619.160844
 30
0.0
 11
791.557613
 21
619.160844
 31
0.0
  0
LINE
  5
104
100
AcDbEntity
  8
DIMS
 62
     4
100
AcDbLine
 10
811.657613
 20
619.160844
 30
0.0
 11
824.957613
 21
619.160844
 31
0.0
  0
LINE
  5
105
100
AcDbEntity
  8
DIMS
 62
     4
100
AcDbLine
 10
808.257613
 20
617.460844
 30
0.0
 11
808.257613
 21
620.860844
 31
0.0
  0
LINE
  5
106
100
AcDbEntity
  8
DIMS
 62
     4
100
AcDbLine
 10
809.957613
 20
619.160844
 30
0.0
 11
806.557613
 21
619.160844
 31
0.0
  0
CIRCLE
  5
107
100
AcDbEntity
  8
M03
100
AcDbCircle
 10
808.257613
 20
619.160844
 30
0.0
 40
2.3
  0
ARC
  5
108
100
AcDbEntity
  8
M03
100
AcDbCircle
 10
808.257613
 20
619.160844
 30
0.0
 40
3.0
100
AcDbArc
 50
83.076897
 51
12.215364
  0
LINE
  5
109
100
AcDbEntity
  8
M03
100
AcDbLine
 10
807.707613
 20
613.186105
 30
0.0
 11
807.707613
 21
625.135582
 31
0.0
  0
LINE
  5
10A
100
AcDbEntity
  8
M03
100
AcDbLine
 10
808.807613
 20
613.186105
 30
0.0
 11
808.807613
 21
625.135582
 31
0.0
  0
CIRCLE
  5
10B
100
AcDbEntity
  8
M03
100
AcDbCircle
 10
808.257613
 20
619.160844
 30
0.0
 40
15.0
  0
CIRCLE
  5
10C
100
AcDbEntity
  8
M03
100
AcDbCircle
 10
808.257613
 20
619.160844
 30
0.0
 40
14.0
  0
CIRCLE
  5
10D
100
AcDbEntity
  8
M03
100
AcDbCircle
 10
808.257613
 20
619.160844
 30
0.0
 40
7.858882
  0
CIRCLE
  5
10E
100
AcDbEntity
  8
M03
100
AcDbCircle
 10
808.257613
 20
619.160844
 30
0.0
 40
6.0
  0
CIRCLE
  5
10F
100
AcDbEntity
  8
M01
100
AcDbCircle
 10
808.257613
 20
619.160844
 30
0.0
 40
4.0
  0
LINE
  5
110
100
AcDbEntity
  8
DIMS
 62
     4
100
AcDbLine
 10
849.257613
 20
590.560844
 30
0.0
 11
849.257613
 21
595.360844
 31
0.0
  0
LINE
  5
111
100
AcDbEntity
  8
DIMS
 62
     4
100
AcDbLine
 10
849.257613
 20
583.760844
 30
0.0
 11
849.257613
 21
578.960844
 31
0.0
  0
LINE
  5
112
100
AcDbEntity
  8
DIMS
 62
     4
100
AcDbLine
 10
845.857613
 20
587.160844
 30
0.0
 11
841.057613
 21
587.160844
 31
0.0
  0
LINE
  5
113
100
AcDbEntity
  8
DIMS
 62
     4
100
AcDbLine
 10
852.657613
 20
587.160844
 30
0.0
 11
857.457613
 21
587.160844
 31
0.0
  0
LINE
  5
114
100
AcDbEntity
  8
DIMS
 62
     4
100
AcDbLine
 10
849.257613
 20
585.460844
 30
0.0
 11
849.257613
 21
588.860844
 31
0.0
  0
LINE
  5
115
100
AcDbEntity
  8
DIMS
 62
     4
100
AcDbLine
 10
850.957613
 20
587.160844
 30
0.0
 11
847.557613
 21
587.160844
 31
0.0
  0
CIRCLE
  5
116
100
AcDbEntity
  8
M04
100
AcDbCircle
 10
849.257613
 20
587.160844
 30
0.0
 40
6.5
  0
ARC
  5
117
100
AcDbEntity
  8
M01
100
AcDbCircle
 10
829.483009
 20
578.160844
 30
0.0
 40
12.0
100
AcDbArc
 50
135.0
 51
270.0
  0
ARC
  5
118
100
AcDbEntity
  8
M04
100
AcDbCircle
 10
837.311436
 20
583.160844
 30
0.0
 40
7.0
100
AcDbArc
 50
135.0
 51
270.0
  0
ARC
  5
119
100
AcDbEntity
  8
M01
100
AcDbCircle
 10
733.257613
 20
606.386241
 30
0.0
 40
12.0
100
AcDbArc
 50
225.0
 51
315.0
  0
ARC
  5
11A
100
AcDbEntity
  8
M04
100
AcDbCircle
 10
733.257613
 20
606.386241
 30
0.0
 40
5.0
100
AcDbArc
 50
225.0
 51
315.0
  0
LINE
  5
11B
100
AcDbEntity
  8
M04
100
AcDbLine
 10
852.806534
 20
608.555436
 30
0.0
 11
832.361689
 21
588.110591
 31
0.0
  0
LINE
  5
11C
100
AcDbEntity
  8
M04
100
AcDbLine
 10
797.652205
 20
663.709765
 30
0.0
 11
736.793146
 21
602.850707
 31
0.0
  0
LINE
  5
11D
100
AcDbEntity
  8
M01
100
AcDbLine
 10
844.257613
 20
609.90601
 30
0.0
 11
820.997728
 21
586.646125
 31
0.0
  0
LINE
  5
11E
100
AcDbEntity
  8
M01
100
AcDbLine
 10
799.002779
 20
655.160844
 30
0.0
 11
741.742894
 21
597.900959
 31
0.0
  0
LINE
  5
11F
100
AcDbEntity
  8
M01
100
AcDbLine
 10
844.257613
 20
628.418065
 30
0.0
 11
844.257613
 21
609.90601
 31
0.0
  0
LINE
  5
120
100
AcDbEntity
  8
M01
100
AcDbLine
 10
817.514834
 20
655.160844
 30
0.0
 11
799.002779
 21
655.160844
 31
0.0
  0
LINE
  5
121
100
AcDbEntity
  8
DIMS
 62
     4
100
AcDbLine
 10
772.902274
 20
657.916183
 30
0.0
 11
772.902274
 21
662.716183
 31
0.0
  0
LINE
  5
122
100
AcDbEntity
  8
DIMS
 62
     4
100
AcDbLine
 10
772.902274
 20
651.116183
 30
0.0
 11
772.902274
 21
646.316183
 31
0.0
  0
LINE
  5
123
100
AcDbEntity
  8
DIMS
 62
     4
100
AcDbLine
 10
769.502274
 20
654.516183
 30
0.0
 11
764.702274
 21
654.516183
 31
0.0
  0
LINE
  5
124
100
AcDbEntity
  8
DIMS
 62
     4
100
AcDbLine
 10
776.302274
 20
654.516183
 30
0.0
 11
781.102274
 21
654.516183
 31
0.0
  0
LINE
  5
125
100
AcDbEntity
  8
DIMS
 62
     4
100
AcDbLine
 10
772.902274
 20
652.816183
 30
0.0
 11
772.902274
 21
656.216183
 31
0.0
  0
LINE
  5
126
100
AcDbEntity
  8
DIMS
 62
     4
100
AcDbLine
 10
774.602274
 20
654.516183
 30
0.0
 11
771.202274
 21
654.516183
 31
0.0
  0
CIRCLE
  5
127
100
AcDbEntity
  8
M04
100
AcDbCircle
 10
772.902274
 20
654.516183
 30
0.0
 40
6.5
  0
LINE
  5
128
100
AcDbEntity
  8
M03
100
AcDbLine
 10
738.914467
 20
544.160844
 30
0.0
 11
811.08604
 21
471.989271
 31
0.0
  0
LINE
  5
129
100
AcDbEntity
  8
DIMS
 62
     4
100
AcDbLine
 10
606.257613
 20
600.560844
 30
0.0
 11
606.257613
 21
605.360844
 31
0.0
  0
LINE
  5
12A
100
AcDbEntity
  8
DIMS
 62
     4
100
AcDbLine
 10
606.257613
 20
593.760844
 30
0.0
 11
606.257613
 21
588.960844
 31
0.0
  0
LINE
  5
12B
100
AcDbEntity
  8
DIMS
 62
     4
100
AcDbLine
 10
609.657613
 20
597.160844
 30
0.0
 11
614.457613
 21
597.160844
 31
0.0
  0
LINE
  5
12C
100
AcDbEntity
  8
DIMS
 62
     4
100
AcDbLine
 10
602.857613
 20
597.160844
 30
0.0
 11
598.057613
 21
597.160844
 31
0.0
  0
LINE
  5
12D
100
AcDbEntity
  8
DIMS
 62
     4
100
AcDbLine
 10
606.257613
 20
595.460844
 30
0.0
 11
606.257613
 21
598.860844
 31
0.0
  0
LINE
  5
12E
100
AcDbEntity
  8
DIMS
 62
     4
100
AcDbLine
 10
604.557613
 20
597.160844
 30
0.0
 11
607.957613
 21
597.160844
 31
0.0
  0
CIRCLE
  5
12F
100
AcDbEntity
  8
M04
100
AcDbCircle
 10
606.257613
 20
597.160844
 30
0.0
 40
6.5
  0
LINE
  5
130
100
AcDbEntity
  8
DIMS
 62
     4
100
AcDbLine
 10
508.257613
 20
465.760844
 30
0.0
 11
508.257613
 21
452.460844
 31
0.0
  0
LINE
  5
131
100
AcDbEntity
  8
DIMS
 62
     4
100
AcDbLine
 10
508.257613
 20
472.560844
 30
0.0
 11
508.257613
 21
485.860844
 31
0.0
  0
LINE
  5
132
100
AcDbEntity
  8
DIMS
 62
     4
100
AcDbLine
 10
511.657613
 20
469.160844
 30
0.0
 11
524.957613
 21
469.160844
 31
0.0
  0
LINE
  5
133
100
AcDbEntity
  8
DIMS
 62
     4
100
AcDbLine
 10
504.857613
 20
469.160844
 30
0.0
 11
491.557613
 21
469.160844
 31
0.0
  0
LINE
  5
134
100
AcDbEntity
  8
DIMS
 62
     4
100
AcDbLine
 10
508.257613
 20
470.860844
 30
0.0
 11
508.257613
 21
467.460844
 31
0.0
  0
LINE
  5
135
100
AcDbEntity
  8
DIMS
 62
     4
100
AcDbLine
 10
506.557613
 20
469.160844
 30
0.0
 11
509.957613
 21
469.160844
 31
0.0
  0
CIRCLE
  5
136
100
AcDbEntity
  8
M03
100
AcDbCircle
 10
508.257613
 20
469.160844
 30
0.0
 40
2.3
  0
ARC
  5
137
100
AcDbEntity
  8
M03
100
AcDbCircle
 10
508.257613
 20
469.160844
 30
0.0
 40
3.0
100
AcDbArc
 50
263.076897
 51
192.215364
  0
LINE
  5
138
100
AcDbEntity
  8
M03
100
AcDbLine
 10
508.807613
 20
475.135582
 30
0.0
 11
508.807613
 21
463.186105
 31
0.0
  0
LINE
  5
139
100
AcDbEntity
  8
M03
100
AcDbLine
 10
507.707613
 20
475.135582
 30
0.0
 11
507.707613
 21
463.186105
 31
0.0
  0
CIRCLE
  5
13A
100
AcDbEntity
  8
M03
100
AcDbCircle
 10
508.257613
 20
469.160844
 30
0.0
 40
15.0
  0
CIRCLE
  5
13B
100
AcDbEntity
  8
M03
100
AcDbCircle
 10
508.257613
 20
469.160844
 30
0.0
 40
14.0
  0
CIRCLE
  5
13C
100
AcDbEntity
  8
M03
100
AcDbCircle
 10
508.257613
 20
469.160844
 30
0.0
 40
7.858882
  0
CIRCLE
  5
13D
100
AcDbEntity
  8
M03
100
AcDbCircle
 10
508.257613
 20
469.160844
 30
0.0
 40
6.0
  0
LINE
  5
13E
100
AcDbEntity
  8
M03
100
AcDbLine
 10
511.08604
 20
466.332417
 30
0.0
 11
583.257613
 21
538.50399
 31
0.0
  0
LINE
  5
13F
100
AcDbEntity
  8
M03
100
AcDbLine
 10
505.429185
 20
471.989271
 30
0.0
 11
577.600758
 21
544.160844
 31
0.0
  0
LINE
  5
140
100
AcDbEntity
  8
CENTRE
100
AcDbLine
 10
494.115477
 20
455.018708
 30
0.0
 11
583.257613
 21
544.160844
 31
0.0
  0
CIRCLE
  5
141
100
AcDbEntity
  8
M01
100
AcDbCircle
 10
508.257613
 20
469.160844
 30
0.0
 40
4.0
  0
ARC
  5
142
100
AcDbEntity
  8
M01
100
AcDbCircle
 10
487.032216
 20
510.160844
 30
0.0
 40
12.0
100
AcDbArc
 50
315.0
 51
90.0
  0
ARC
  5
143
100
AcDbEntity
  8
M04
100
AcDbCircle
 10
479.203789
 20
505.160844
 30
0.0
 40
7.0
100
AcDbArc
 50
315.0
 51
90.0
  0
LINE
  5
144
100
AcDbEntity
  8
DIMS
 62
     4
100
AcDbLine
 10
467.257613
 20
497.760844
 30
0.0
 11
467.257613
 21
492.960844
 31
0.0
  0
LINE
  5
145
100
AcDbEntity
  8
DIMS
 62
     4
100
AcDbLine
 10
467.257613
 20
504.560844
 30
0.0
 11
467.257613
 21
509.360844
 31
0.0
  0
LINE
  5
146
100
AcDbEntity
  8
DIMS
 62
     4
100
AcDbLine
 10
470.657613
 20
501.160844
 30
0.0
 11
475.457613
 21
501.160844
 31
0.0
  0
LINE
  5
147
100
AcDbEntity
  8
DIMS
 62
     4
100
AcDbLine
 10
463.857613
 20
501.160844
 30
0.0
 11
459.057613
 21
501.160844
 31
0.0
  0
LINE
  5
148
100
AcDbEntity
  8
DIMS
 62
     4
100
AcDbLine
 10
467.257613
 20
502.860844
 30
0.0
 11
467.257613
 21
499.460844
 31
0.0
  0
LINE
  5
149
100
AcDbEntity
  8
DIMS
 62
     4
100
AcDbLine
 10
465.557613
 20
501.160844
 30
0.0
 11
468.957613
 21
501.160844
 31
0.0
  0
CIRCLE
  5
14A
100
AcDbEntity
  8
M04
100
AcDbCircle
 10
467.257613
 20
501.160844
 30
0.0
 40
6.5
  0
LINE
  5
14B
100
AcDbEntity
  8
M04
100
AcDbLine
 10
463.708692
 20
479.766252
 30
0.0
 11
484.153536
 21
500.211096
 31
0.0
  0
LINE
  5
14C
100
AcDbEntity
  8
M04
100
AcDbLine
 10
518.86302
 20
424.611923
 30
0.0
 11
579.722079
 21
485.470981
 31
0.0
  0
LINE
  5
14D
100
AcDbEntity
  8
M01
100
AcDbLine
 10
472.257613
 20
478.415678
 30
0.0
 11
495.517497
 21
501.675563
 31
0.0
  0
LINE
  5
14E
100
AcDbEntity
  8
M01
100
AcDbLine
 10
517.512447
 20
433.160844
 30
0.0
 11
574.772531
 21
490.420929
 31
0.0
  0
LINE
  5
14F
100
AcDbEntity
  8
M01
100
AcDbLine
 10
472.257613
 20
459.903622
 30
0.0
 11
472.257613
 21
478.415678
 31
0.0
  0
LINE
  5
150
100
AcDbEntity
  8
M01
100
AcDbLine
 10
499.000391
 20
433.160844
 30
0.0
 11
517.512447
 21
433.160844
 31
0.0
  0
LINE
  5
151
100
AcDbEntity
  8
DIMS
 62
     4
100
AcDbLine
 10
543.612952
 20
430.405505
 30
0.0
 11
543.612952
 21
425.605505
 31
0.0
  0
LINE
  5
152
100
AcDbEntity
  8
DIMS
 62
     4
100
AcDbLine
 10
543.612952
 20
437.205505
 30
0.0
 11
543.612952
 21
442.005505
 31
0.0
  0
LINE
  5
153
100
AcDbEntity
  8
DIMS
 62
     4
100
AcDbLine
 10
547.012952
 20
433.805505
 30
0.0
 11
551.812952
 21
433.805505
 31
0.0
  0
LINE
  5
154
100
AcDbEntity
  8
DIMS
 62
     4
100
AcDbLine
 10
540.212952
 20
433.805505
 30
0.0
 11
535.412952
 21
433.805505
 31
0.0
  0
LINE
  5
155
100
AcDbEntity
  8
DIMS
 62
     4
100
AcDbLine
 10
543.612952
 20
435.505505
 30
0.0
 11
543.612952
 21
432.105505
 31
0.0
  0
LINE
  5
156
100
AcDbEntity
  8
DIMS
 62
     4
100
AcDbLine
 10
541.912952
 20
433.805505
 30
0.0
 11
545.312952
 21
433.805505
 31
0.0
  0
CIRCLE
  5
157
100
AcDbEntity
  8
M04
100
AcDbCircle
 10
543.612952
 20
433.805505
 30
0.0
 40
6.5
  0
ARC
  5
158
100
AcDbEntity
  8
M01
100
AcDbCircle
 10
487.032216
 20
578.160844
 30
0.0
 40
12.0
100
AcDbArc
 50
270.0
 51
45.0
  0
LINE
  5
159
100
AcDbEntity
  8
DIMS
 62
     4
100
AcDbLine
 10
693.612952
 20
657.916183
 30
0.0
 11
693.612952
 21
662.716183
 31
0.0
  0
LINE
  5
15A
100
AcDbEntity
  8
DIMS
 62
     4
100
AcDbLine
 10
693.612952
 20
651.116183
 30
0.0
 11
693.612952
 21
646.316183
 31
0.0
  0
LINE
  5
15B
100
AcDbEntity
  8
DIMS
 62
     4
100
AcDbLine
 10
697.012952
 20
654.516183
 30
0.0
 11
701.812952
 21
654.516183
 31
0.0
  0
LINE
  5
15C
100
AcDbEntity
  8
DIMS
 62
     4
100
AcDbLine
 10
690.212952
 20
654.516183
 30
0.0
 11
685.412952
 21
654.516183
 31
0.0
  0
LINE
  5
15D
100
AcDbEntity
  8
DIMS
 62
     4
100
AcDbLine
 10
693.612952
 20
652.816183
 30
0.0
 11
693.612952
 21
656.216183
 31
0.0
  0
LINE
  5
15E
100
AcDbEntity
  8
DIMS
 62
     4
100
AcDbLine
 10
691.912952
 20
654.516183
 30
0.0
 11
695.312952
 21
654.516183
 31
0.0
  0
CIRCLE
  5
15F
100
AcDbEntity
  8
M04
100
AcDbCircle
 10
693.612952
 20
654.516183
 30
0.0
 40
6.5
  0
ARC
  5
160
100
AcDbEntity
  8
M04
100
AcDbCircle
 10
479.203789
 20
583.160844
 30
0.0
 40
7.0
100
AcDbArc
 50
270.0
 51
45.0
  0
ARC
  5
161
100
AcDbEntity
  8
M04
100
AcDbCircle
 10
598.483009
 20
591.160844
 30
0.0
 40
5.0
100
AcDbArc
 50
225.0
 51
270.0
  0
LINE
  5
162
100
AcDbEntity
  8
M04
100
AcDbLine
 10
598.483009
 20
586.160844
 30
0.0
 11
624.032216
 21
586.160844
 31
0.0
  0
ARC
  5
163
100
AcDbEntity
  8
M04
100
AcDbCircle
 10
624.032216
 20
591.160844
 30
0.0
 40
5.0
100
AcDbArc
 50
270.0
 51
45.0
  0
LINE
  5
164
100
AcDbEntity
  8
M04
100
AcDbLine
 10
613.708691
 20
608.555436
 30
0.0
 11
627.56775
 21
594.696378
 31
0.0
  0
ARC
  5
165
100
AcDbEntity
  8
M01
100
AcDbCircle
 10
624.032216
 20
591.160844
 30
0.0
 40
12.0
100
AcDbArc
 50
270.0
 51
45.0
  0
ARC
  5
166
100
AcDbEntity
  8
M01
100
AcDbCircle
 10
598.483009
 20
591.160844
 30
0.0
 40
12.0
100
AcDbArc
 50
225.0
 51
270.0
  0
LINE
  5
167
100
AcDbEntity
  8
M03
100
AcDbLine
 10
583.257613
 20
540.160844
 30
0.0
 11
733.257613
 21
540.160844
 31
0.0
  0
LINE
  5
168
100
AcDbEntity
  8
M03
100
AcDbLine
 10
583.257613
 20
548.160844
 30
0.0
 11
733.257613
 21
548.160844
 31
0.0
  0
LINE
  5
169
100
AcDbEntity
  8
DIMS
 62
     4
100
AcDbLine
 10
467.257613
 20
590.560844
 30
0.0
 11
467.257613
 21
595.360844
 31
0.0
  0
LINE
  5
16A
100
AcDbEntity
  8
DIMS
 62
     4
100
AcDbLine
 10
467.257613
 20
583.760844
 30
0.0
 11
467.257613
 21
578.960844
 31
0.0
  0
LINE
  5
16B
100
AcDbEntity
  8
DIMS
 62
     4
100
AcDbLine
 10
470.657613
 20
587.160844
 30
0.0
 11
475.457613
 21
587.160844
 31
0.0
  0
LINE
  5
16C
100
AcDbEntity
  8
DIMS
 62
     4
100
AcDbLine
 10
463.857613
 20
587.160844
 30
0.0
 11
459.057613
 21
587.160844
 31
0.0
  0
LINE
  5
16D
100
AcDbEntity
  8
DIMS
 62
     4
100
AcDbLine
 10
467.257613
 20
585.460844
 30
0.0
 11
467.257613
 21
588.860844
 31
0.0
  0
LINE
  5
16E
100
AcDbEntity
  8
DIMS
 62
     4
100
AcDbLine
 10
465.557613
 20
587.160844
 30
0.0
 11
468.957613
 21
587.160844
 31
0.0
  0
CIRCLE
  5
16F
100
AcDbEntity
  8
M04
100
AcDbCircle
 10
467.257613
 20
587.160844
 30
0.0
 40
6.5
  0
LINE
  5
170
100
AcDbEntity
  8
DIMS
100
AcDbLine
 10
823.499198
 20
669.619519
 30
0.0
 11
841.107743
 21
652.010974
 31
0.0
  0
INSERT
  5
171
100
AcDbEntity
  8
DIMS
100
AcDbBlockReference
  2
ARROW1
 10
823.499198
 20
669.619519
 30
0.0
 41
10.0
 42
10.0
 43
10.0
 50
135.0
  0
LINE
  5
178
100
AcDbEntity
  8
DIMS
100
AcDbLine
 10
352.635032
 20
569.063087
 30
0.0
 11
352.635032
 21
544.160844
 31
0.0
  0
INSERT
  5
179
100
AcDbEntity
  8
DIMS
100
AcDbBlockReference
  2
ARROW1
 10
352.635032
 20
569.063087
 30
0.0
 41
10.0
 42
10.0
 43
10.0
 50
90.0
  0
HATCH
  5
17A
100
AcDbEntity
  8
HATCH
100
AcDbHatch
 10
0.0
 20
0.0
 30
0.0
210
0.0
220
0.0
230
1.0
  2
_U
 70
     0
 71
     1
 91
        1
 92
        7
 72
     0
 73
     1
 93
        4
 10
647.2576125642799
 20
320.597735408392
 10
647.2576125642799
 20
323.5977354083921
 10
481.2576125642798
 20
323.5977354083923
 10
481.2576125642798
 20
320.597735408392
 97
        4
330
487
330
481
330
48F
330
2DE
 75
     0
 76
     0
 52
135.0
 41
0.8
 77
     0
 78
     1
 53
135.0
 43
0.0
 44
-10.51527
 45
-0.5656854249492382
 46
-0.565685424949238
 79
     0
 47
0.187714
 98
        1
 10
562.936302
 20
321.646221
  0
LINE
  5
17B
100
AcDbEntity
  8
M04
100
AcDbLine
 10
917.257613
 20
576.160844
 30
0.0
 11
837.311436
 21
576.160844
 31
0.0
  0
LINE
  5
17C
100
AcDbEntity
  8
M01
100
AcDbLine
 10
894.201713
 20
559.410844
 30
0.0
 11
894.201713
 21
552.910844
 31
0.0
  0
LINE
  5
17D
100
AcDbEntity
  8
M01
100
AcDbLine
 10
902.313512
 20
559.410844
 30
0.0
 11
902.313512
 21
552.910844
 31
0.0
  0
LINE
  5
17E
100
AcDbEntity
  8
M01
100
AcDbLine
 10
894.201713
 20
559.410844
 30
0.0
 11
892.257613
 21
559.410844
 31
0.0
  0
ARC
  5
17F
100
AcDbEntity
  8
M01
100
AcDbCircle
 10
895.762962
 20
560.660844
 30
0.0
 40
2.0
100
AcDbArc
 50
218.682187
 51
270.0
  0
ARC
  5
180
100
AcDbEntity
  8
M01
100
AcDbCircle
 10
900.752263
 20
560.660844
 30
0.0
 40
2.0
100
AcDbArc
 50
270.0
 51
321.317813
  0
LINE
  5
181
100
AcDbEntity
  8
M01
100
AcDbLine
 10
904.257613
 20
559.410844
 30
0.0
 11
902.313512
 21
559.410844
 31
0.0
  0
LINE
  5
182
100
AcDbEntity
  8
M01
100
AcDbLine
 10
900.752263
 20
558.660844
 30
0.0
 11
895.762962
 21
558.660844
 31
0.0
  0
LINE
  5
183
100
AcDbEntity
  8
M01
100
AcDbLine
 10
894.201713
 20
552.910844
 30
0.0
 11
892.257613
 21
552.910844
 31
0.0
  0
ARC
  5
184
100
AcDbEntity
  8
M01
100
AcDbCircle
 10
895.762962
 20
551.660844
 30
0.0
 40
2.0
100
AcDbArc
 50
90.0
 51
141.317813
  0
ARC
  5
185
100
AcDbEntity
  8
M01
100
AcDbCircle
 10
900.752263
 20
551.660844
 30
0.0
 40
2.0
100
AcDbArc
 50
38.682187
 51
90.0
  0
LINE
  5
186
100
AcDbEntity
  8
M01
100
AcDbLine
 10
904.257613
 20
552.910844
 30
0.0
 11
902.313512
 21
552.910844
 31
0.0
  0
LINE
  5
187
100
AcDbEntity
  8
M01
100
AcDbLine
 10
900.752263
 20
553.660844
 30
0.0
 11
895.762962
 21
553.660844
 31
0.0
  0
LINE
  5
188
100
AcDbEntity
  8
M01
100
AcDbLine
 10
904.257613
 20
551.660844
 30
0.0
 11
904.257613
 21
560.660844
 31
0.0
  0
LINE
  5
189
100
AcDbEntity
  8
M01
100
AcDbLine
 10
905.057613
 20
560.660844
 30
0.0
 11
904.257613
 21
560.660844
 31
0.0
  0
LINE
  5
18A
100
AcDbEntity
  8
M01
100
AcDbLine
 10
905.057613
 20
551.660844
 30
0.0
 11
904.257613
 21
551.660844
 31
0.0
  0
LINE
  5
18B
100
AcDbEntity
  8
M01
100
AcDbLine
 10
894.201713
 20
528.910844
 30
0.0
 11
894.201713
 21
535.410844
 31
0.0
  0
LINE
  5
18C
100
AcDbEntity
  8
M01
100
AcDbLine
 10
902.313512
 20
528.910844
 30
0.0
 11
902.313512
 21
535.410844
 31
0.0
  0
LINE
  5
18D
100
AcDbEntity
  8
M01
100
AcDbLine
 10
894.201713
 20
528.910844
 30
0.0
 11
892.257613
 21
528.910844
 31
0.0
  0
ARC
  5
18E
100
AcDbEntity
  8
M01
100
AcDbCircle
 10
895.762962
 20
527.660844
 30
0.0
 40
2.0
100
AcDbArc
 50
90.0
 51
141.317813
  0
ARC
  5
18F
100
AcDbEntity
  8
M01
100
AcDbCircle
 10
900.752263
 20
527.660844
 30
0.0
 40
2.0
100
AcDbArc
 50
38.682187
 51
90.0
  0
LINE
  5
190
100
AcDbEntity
  8
M01
100
AcDbLine
 10
904.257613
 20
528.910844
 30
0.0
 11
902.313512
 21
528.910844
 31
0.0
  0
LINE
  5
191
100
AcDbEntity
  8
M01
100
AcDbLine
 10
900.752263
 20
529.660844
 30
0.0
 11
895.762962
 21
529.660844
 31
0.0
  0
LINE
  5
192
100
AcDbEntity
  8
M01
100
AcDbLine
 10
894.201713
 20
535.410844
 30
0.0
 11
892.257613
 21
535.410844
 31
0.0
  0
ARC
  5
193
100
AcDbEntity
  8
M01
100
AcDbCircle
 10
895.762962
 20
536.660844
 30
0.0
 40
2.0
100
AcDbArc
 50
218.682187
 51
270.0
  0
ARC
  5
194
100
AcDbEntity
  8
M01
100
AcDbCircle
 10
900.752263
 20
536.660844
 30
0.0
 40
2.0
100
AcDbArc
 50
270.0
 51
321.317813
  0
LINE
  5
195
100
AcDbEntity
  8
M01
100
AcDbLine
 10
904.257613
 20
535.410844
 30
0.0
 11
902.313512
 21
535.410844
 31
0.0
  0
LINE
  5
196
100
AcDbEntity
  8
M01
100
AcDbLine
 10
900.752263
 20
534.660844
 30
0.0
 11
895.762962
 21
534.660844
 31
0.0
  0
LINE
  5
197
100
AcDbEntity
  8
M01
100
AcDbLine
 10
887.257613
 20
561.160844
 30
0.0
 11
887.257613
 21
551.160844
 31
0.0
  0
LINE
  5
198
100
AcDbEntity
  8
M01
100
AcDbLine
 10
887.257613
 20
527.160844
 30
0.0
 11
887.257613
 21
537.160844
 31
0.0
  0
LINE
  5
199
100
AcDbEntity
  8
M01
100
AcDbLine
 10
892.257613
 20
527.160844
 30
0.0
 11
872.257613
 21
527.160844
 31
0.0
  0
LINE
  5
19A
100
AcDbEntity
  8
M01
100
AcDbLine
 10
892.257613
 20
537.160844
 30
0.0
 11
872.257613
 21
537.160844
 31
0.0
  0
LINE
  5
19B
100
AcDbEntity
  8
M01
100
AcDbLine
 10
892.257613
 20
551.160844
 30
0.0
 11
872.257613
 21
551.160844
 31
0.0
  0
LINE
  5
19C
100
AcDbEntity
  8
M01
100
AcDbLine
 10
892.257613
 20
561.160844
 30
0.0
 11
872.257613
 21
561.160844
 31
0.0
  0
LINE
  5
19D
100
AcDbEntity
  8
M01
100
AcDbLine
 10
914.157613
 20
559.191933
 30
0.0
 11
914.157613
 21
553.129755
 31
0.0
  0
ARC
  5
19E
100
AcDbEntity
  8
M01
100
AcDbCircle
 10
912.308307
 20
553.129755
 30
0.0
 40
1.150694
100
AcDbArc
 50
118.592423
 51
241.407577
  0
ARC
  5
19F
100
AcDbEntity
  8
M01
100
AcDbCircle
 10
914.86039
 20
556.160844
 30
0.0
 40
3.702778
100
AcDbArc
 50
146.92527
 51
213.07473
  0
ARC
  5
1A0
100
AcDbEntity
  8
M01
100
AcDbCircle
 10
912.308307
 20
559.191933
 30
0.0
 40
1.150694
100
AcDbArc
 50
118.592423
 51
241.407577
  0
ARC
  5
1A1
100
AcDbEntity
  8
M01
100
AcDbCircle
 10
913.006918
 20
553.129755
 30
0.0
 40
1.150694
100
AcDbArc
 50
298.592423
 51
61.407577
  0
ARC
  5
1A2
100
AcDbEntity
  8
M01
100
AcDbCircle
 10
910.454835
 20
556.160844
 30
0.0
 40
3.702778
100
AcDbArc
 50
326.92527
 51
33.07473
  0
LINE
  5
1A3
100
AcDbEntity
  8
M01
100
AcDbLine
 10
913.557613
 20
554.140118
 30
0.0
 11
911.757613
 21
554.140118
 31
0.0
  0
LINE
  5
1A4
100
AcDbEntity
  8
M01
100
AcDbLine
 10
913.557613
 20
552.119392
 30
0.0
 11
911.757613
 21
552.119392
 31
0.0
  0
ARC
  5
1A5
100
AcDbEntity
  8
M01
100
AcDbCircle
 10
913.006918
 20
559.191933
 30
0.0
 40
1.150694
100
AcDbArc
 50
298.592423
 51
61.407577
  0
LINE
  5
1A6
100
AcDbEntity
  8
M01
100
AcDbLine
 10
913.557613
 20
558.18157
 30
0.0
 11
911.757613
 21
558.18157
 31
0.0
  0
LINE
  5
1A7
100
AcDbEntity
  8
M01
100
AcDbLine
 10
913.557613
 20
560.202296
 30
0.0
 11
911.757613
 21
560.202296
 31
0.0
  0
LINE
  5
1A8
100
AcDbEntity
  8
M01
100
AcDbLine
 10
908.857613
 20
551.160844
 30
0.0
 11
910.357613
 21
551.160844
 31
0.0
  0
LINE
  5
1A9
100
AcDbEntity
  8
M01
100
AcDbLine
 10
908.857613
 20
561.160844
 30
0.0
 11
910.357613
 21
561.160844
 31
0.0
  0
LINE
  5
1AA
100
AcDbEntity
  8
M01
100
AcDbLine
 10
910.357613
 20
551.660844
 30
0.0
 11
911.157613
 21
551.660844
 31
0.0
  0
LINE
  5
1AB
100
AcDbEntity
  8
M01
100
AcDbLine
 10
910.357613
 20
560.660844
 30
0.0
 11
911.157613
 21
560.660844
 31
0.0
  0
LINE
  5
1AC
100
AcDbEntity
  8
M01
100
AcDbLine
 10
911.157613
 20
560.660844
 30
0.0
 11
911.157613
 21
551.660844
 31
0.0
  0
LINE
  5
1AD
100
AcDbEntity
  8
M01
100
AcDbLine
 10
910.357613
 20
561.160844
 30
0.0
 11
910.357613
 21
551.160844
 31
0.0
  0
LINE
  5
1AE
100
AcDbEntity
  8
M01
100
AcDbLine
 10
908.057613
 20
551.660844
 30
0.0
 11
908.857613
 21
551.660844
 31
0.0
  0
LINE
  5
1AF
100
AcDbEntity
  8
M01
100
AcDbLine
 10
908.057613
 20
560.660844
 30
0.0
 11
908.857613
 21
560.660844
 31
0.0
  0
LINE
  5
1B0
100
AcDbEntity
  8
M01
100
AcDbLine
 10
908.857613
 20
561.160844
 30
0.0
 11
908.857613
 21
551.160844
 31
0.0
  0
ARC
  5
1B1
100
AcDbEntity
  8
M01
100
AcDbCircle
 10
906.208307
 20
553.129755
 30
0.0
 40
1.150694
100
AcDbArc
 50
118.592423
 51
241.407577
  0
ARC
  5
1B2
100
AcDbEntity
  8
M01
100
AcDbCircle
 10
908.76039
 20
556.160844
 30
0.0
 40
3.702778
100
AcDbArc
 50
146.92527
 51
213.07473
  0
ARC
  5
1B3
100
AcDbEntity
  8
M01
100
AcDbCircle
 10
906.208307
 20
559.191933
 30
0.0
 40
1.150694
100
AcDbArc
 50
118.592423
 51
241.407577
  0
ARC
  5
1B4
100
AcDbEntity
  8
M01
100
AcDbCircle
 10
906.906918
 20
553.129755
 30
0.0
 40
1.150694
100
AcDbArc
 50
298.592423
 51
61.407577
  0
ARC
  5
1B5
100
AcDbEntity
  8
M01
100
AcDbCircle
 10
904.354835
 20
556.160844
 30
0.0
 40
3.702778
100
AcDbArc
 50
326.92527
 51
33.07473
  0
LINE
  5
1B6
100
AcDbEntity
  8
M01
100
AcDbLine
 10
907.457613
 20
554.140118
 30
0.0
 11
905.657613
 21
554.140118
 31
0.0
  0
LINE
  5
1B7
100
AcDbEntity
  8
M01
100
AcDbLine
 10
907.457613
 20
552.119392
 30
0.0
 11
905.657613
 21
552.119392
 31
0.0
  0
ARC
  5
1B8
100
AcDbEntity
  8
M01
100
AcDbCircle
 10
906.906918
 20
559.191933
 30
0.0
 40
1.150694
100
AcDbArc
 50
298.592423
 51
61.407577
  0
LINE
  5
1B9
100
AcDbEntity
  8
M01
100
AcDbLine
 10
907.457613
 20
558.18157
 30
0.0
 11
905.657613
 21
558.18157
 31
0.0
  0
LINE
  5
1BA
100
AcDbEntity
  8
M01
100
AcDbLine
 10
907.457613
 20
560.202296
 30
0.0
 11
905.657613
 21
560.202296
 31
0.0
  0
LINE
  5
1BB
100
AcDbEntity
  8
M01
100
AcDbLine
 10
908.057613
 20
560.660844
 30
0.0
 11
908.057613
 21
551.660844
 31
0.0
  0
LINE
  5
1BC
100
AcDbEntity
  8
M01
100
AcDbLine
 10
905.057613
 20
560.660844
 30
0.0
 11
905.057613
 21
551.660844
 31
0.0
  0
LINE
  5
1BD
100
AcDbEntity
  8
M01
100
AcDbLine
 10
917.257613
 20
554.660844
 30
0.0
 11
916.757613
 21
554.160844
 31
0.0
  0
LINE
  5
1BE
100
AcDbEntity
  8
M01
100
AcDbLine
 10
916.757613
 20
558.160844
 30
0.0
 11
917.257613
 21
557.660844
 31
0.0
  0
LINE
  5
1BF
100
AcDbEntity
  8
M01
100
AcDbLine
 10
916.757613
 20
558.160844
 30
0.0
 11
916.757613
 21
554.160844
 31
0.0
  0
LINE
  5
1C0
100
AcDbEntity
  8
M01
100
AcDbLine
 10
917.257613
 20
554.660844
 30
0.0
 11
914.157613
 21
554.660844
 31
0.0
  0
LINE
  5
1C1
100
AcDbEntity
  8
M01
100
AcDbLine
 10
917.257613
 20
557.660844
 30
0.0
 11
914.157613
 21
557.660844
 31
0.0
  0
LINE
  5
1C2
100
AcDbEntity
  8
M01
100
AcDbLine
 10
916.757613
 20
558.160844
 30
0.0
 11
914.157613
 21
558.160844
 31
0.0
  0
LINE
  5
1C3
100
AcDbEntity
  8
M01
100
AcDbLine
 10
916.757613
 20
554.160844
 30
0.0
 11
914.157613
 21
554.160844
 31
0.0
  0
LINE
  5
1C4
100
AcDbEntity
  8
M01
100
AcDbLine
 10
917.257613
 20
557.660844
 30
0.0
 11
917.257613
 21
554.660844
 31
0.0
  0
LINE
  5
1C5
100
AcDbEntity
  8
M01
100
AcDbLine
 10
892.257613
 20
561.160844
 30
0.0
 11
892.257613
 21
551.160844
 31
0.0
  0
LINE
  5
1C6
100
AcDbEntity
  8
CENTRE
100
AcDbLine
 10
923.418502
 20
556.160844
 30
0.0
 11
859.82507
 21
556.160844
 31
0.0
  0
LINE
  5
1C7
100
AcDbEntity
  8
M01
100
AcDbLine
 10
914.157613
 20
529.129755
 30
0.0
 11
914.157613
 21
535.191933
 31
0.0
  0
ARC
  5
1C8
100
AcDbEntity
  8
M01
100
AcDbCircle
 10
912.308307
 20
535.191933
 30
0.0
 40
1.150694
100
AcDbArc
 50
118.592423
 51
241.407577
  0
ARC
  5
1C9
100
AcDbEntity
  8
M01
100
AcDbCircle
 10
914.86039
 20
532.160844
 30
0.0
 40
3.702778
100
AcDbArc
 50
146.92527
 51
213.07473
  0
ARC
  5
1CA
100
AcDbEntity
  8
M01
100
AcDbCircle
 10
912.308307
 20
529.129755
 30
0.0
 40
1.150694
100
AcDbArc
 50
118.592423
 51
241.407577
  0
ARC
  5
1CB
100
AcDbEntity
  8
M01
100
AcDbCircle
 10
913.006918
 20
535.191933
 30
0.0
 40
1.150694
100
AcDbArc
 50
298.592423
 51
61.407577
  0
ARC
  5
1CC
100
AcDbEntity
  8
M01
100
AcDbCircle
 10
910.454835
 20
532.160844
 30
0.0
 40
3.702778
100
AcDbArc
 50
326.92527
 51
33.07473
  0
LINE
  5
1CD
100
AcDbEntity
  8
M01
100
AcDbLine
 10
913.557613
 20
534.18157
 30
0.0
 11
911.757613
 21
534.18157
 31
0.0
  0
LINE
  5
1CE
100
AcDbEntity
  8
M01
100
AcDbLine
 10
913.557613
 20
536.202296
 30
0.0
 11
911.757613
 21
536.202296
 31
0.0
  0
ARC
  5
1CF
100
AcDbEntity
  8
M01
100
AcDbCircle
 10
913.006918
 20
529.129755
 30
0.0
 40
1.150694
100
AcDbArc
 50
298.592423
 51
61.407577
  0
LINE
  5
1D0
100
AcDbEntity
  8
M01
100
AcDbLine
 10
913.557613
 20
530.140118
 30
0.0
 11
911.757613
 21
530.140118
 31
0.0
  0
LINE
  5
1D1
100
AcDbEntity
  8
M01
100
AcDbLine
 10
913.557613
 20
528.119392
 30
0.0
 11
911.757613
 21
528.119392
 31
0.0
  0
LINE
  5
1D2
100
AcDbEntity
  8
M01
100
AcDbLine
 10
908.857613
 20
537.160844
 30
0.0
 11
910.357613
 21
537.160844
 31
0.0
  0
LINE
  5
1D3
100
AcDbEntity
  8
M01
100
AcDbLine
 10
908.857613
 20
527.160844
 30
0.0
 11
910.357613
 21
527.160844
 31
0.0
  0
LINE
  5
1D4
100
AcDbEntity
  8
M01
100
AcDbLine
 10
910.357613
 20
536.660844
 30
0.0
 11
911.157613
 21
536.660844
 31
0.0
  0
LINE
  5
1D5
100
AcDbEntity
  8
M01
100
AcDbLine
 10
910.357613
 20
527.660844
 30
0.0
 11
911.157613
 21
527.660844
 31
0.0
  0
LINE
  5
1D6
100
AcDbEntity
  8
M01
100
AcDbLine
 10
911.157613
 20
527.660844
 30
0.0
 11
911.157613
 21
536.660844
 31
0.0
  0
LINE
  5
1D7
100
AcDbEntity
  8
M01
100
AcDbLine
 10
910.357613
 20
527.160844
 30
0.0
 11
910.357613
 21
537.160844
 31
0.0
  0
LINE
  5
1D8
100
AcDbEntity
  8
M01
100
AcDbLine
 10
908.057613
 20
536.660844
 30
0.0
 11
908.857613
 21
536.660844
 31
0.0
  0
LINE
  5
1D9
100
AcDbEntity
  8
M01
100
AcDbLine
 10
908.057613
 20
527.660844
 30
0.0
 11
908.857613
 21
527.660844
 31
0.0
  0
LINE
  5
1DA
100
AcDbEntity
  8
M01
100
AcDbLine
 10
908.857613
 20
527.160844
 30
0.0
 11
908.857613
 21
537.160844
 31
0.0
  0
ARC
  5
1DB
100
AcDbEntity
  8
M01
100
AcDbCircle
 10
906.208307
 20
535.191933
 30
0.0
 40
1.150694
100
AcDbArc
 50
118.592423
 51
241.407577
  0
ARC
  5
1DC
100
AcDbEntity
  8
M01
100
AcDbCircle
 10
908.76039
 20
532.160844
 30
0.0
 40
3.702778
100
AcDbArc
 50
146.92527
 51
213.07473
  0
ARC
  5
1DD
100
AcDbEntity
  8
M01
100
AcDbCircle
 10
906.208307
 20
529.129755
 30
0.0
 40
1.150694
100
AcDbArc
 50
118.592423
 51
241.407577
  0
ARC
  5
1DE
100
AcDbEntity
  8
M01
100
AcDbCircle
 10
906.906918
 20
535.191933
 30
0.0
 40
1.150694
100
AcDbArc
 50
298.592423
 51
61.407577
  0
ARC
  5
1DF
100
AcDbEntity
  8
M01
100
AcDbCircle
 10
904.354835
 20
532.160844
 30
0.0
 40
3.702778
100
AcDbArc
 50
326.92527
 51
33.07473
  0
LINE
  5
1E0
100
AcDbEntity
  8
M01
100
AcDbLine
 10
907.457613
 20
534.18157
 30
0.0
 11
905.657613
 21
534.18157
 31
0.0
  0
LINE
  5
1E1
100
AcDbEntity
  8
M01
100
AcDbLine
 10
907.457613
 20
536.202296
 30
0.0
 11
905.657613
 21
536.202296
 31
0.0
  0
ARC
  5
1E2
100
AcDbEntity
  8
M01
100
AcDbCircle
 10
906.906918
 20
529.129755
 30
0.0
 40
1.150694
100
AcDbArc
 50
298.592423
 51
61.407577
  0
LINE
  5
1E3
100
AcDbEntity
  8
M01
100
AcDbLine
 10
907.457613
 20
530.140118
 30
0.0
 11
905.657613
 21
530.140118
 31
0.0
  0
LINE
  5
1E4
100
AcDbEntity
  8
M01
100
AcDbLine
 10
907.457613
 20
528.119392
 30
0.0
 11
905.657613
 21
528.119392
 31
0.0
  0
LINE
  5
1E5
100
AcDbEntity
  8
M01
100
AcDbLine
 10
908.057613
 20
527.660844
 30
0.0
 11
908.057613
 21
536.660844
 31
0.0
  0
LINE
  5
1E6
100
AcDbEntity
  8
M01
100
AcDbLine
 10
905.057613
 20
527.660844
 30
0.0
 11
905.057613
 21
536.660844
 31
0.0
  0
LINE
  5
1E7
100
AcDbEntity
  8
M01
100
AcDbLine
 10
904.257613
 20
527.660844
 30
0.0
 11
904.257613
 21
536.660844
 31
0.0
  0
LINE
  5
1E8
100
AcDbEntity
  8
M04
100
AcDbLine
 10
932.257613
 20
561.160844
 30
0.0
 11
952.929091
 21
561.160844
 31
0.0
  0
LINE
  5
1E9
100
AcDbEntity
  8
M04
100
AcDbLine
 10
932.257613
 20
527.160844
 30
0.0
 11
952.929091
 21
527.160844
 31
0.0
  0
ARC
  5
1EA
100
AcDbEntity
  8
M04
100
AcDbCircle
 10
917.257613
 20
561.160844
 30
0.0
 40
15.0
100
AcDbArc
 50
0.0
 51
90.0
  0
ARC
  5
1EB
100
AcDbEntity
  8
M04
100
AcDbCircle
 10
917.257613
 20
527.160844
 30
0.0
 40
15.0
100
AcDbArc
 50
270.0
 51
0.0
  0
LINE
  5
1EC
100
AcDbEntity
  8
M04
100
AcDbLine
 10
932.257613
 20
527.160844
 30
0.0
 11
932.257613
 21
561.160844
 31
0.0
  0
LINE
  5
1ED
100
AcDbEntity
  8
M01
100
AcDbLine
 10
917.257613
 20
533.660844
 30
0.0
 11
916.757613
 21
534.160844
 31
0.0
  0
LINE
  5
1EE
100
AcDbEntity
  8
M01
100
AcDbLine
 10
916.757613
 20
530.160844
 30
0.0
 11
917.257613
 21
530.660844
 31
0.0
  0
LINE
  5
1EF
100
AcDbEntity
  8
M01
100
AcDbLine
 10
916.757613
 20
530.160844
 30
0.0
 11
916.757613
 21
534.160844
 31
0.0
  0
LINE
  5
1F0
100
AcDbEntity
  8
M01
100
AcDbLine
 10
917.257613
 20
533.660844
 30
0.0
 11
914.157613
 21
533.660844
 31
0.0
  0
LINE
  5
1F1
100
AcDbEntity
  8
M01
100
AcDbLine
 10
917.257613
 20
530.660844
 30
0.0
 11
914.157613
 21
530.660844
 31
0.0
  0
LINE
  5
1F2
100
AcDbEntity
  8
M01
100
AcDbLine
 10
916.757613
 20
530.160844
 30
0.0
 11
914.157613
 21
530.160844
 31
0.0
  0
LINE
  5
1F3
100
AcDbEntity
  8
M01
100
AcDbLine
 10
916.757613
 20
534.160844
 30
0.0
 11
914.157613
 21
534.160844
 31
0.0
  0
LINE
  5
1F4
100
AcDbEntity
  8
M01
100
AcDbLine
 10
917.257613
 20
530.660844
 30
0.0
 11
917.257613
 21
533.660844
 31
0.0
  0
LINE
  5
1F5
100
AcDbEntity
  8
M01
100
AcDbLine
 10
892.257613
 20
527.160844
 30
0.0
 11
892.257613
 21
537.160844
 31
0.0
  0
LINE
  5
1F6
100
AcDbEntity
  8
M01
100
AcDbLine
 10
905.057613
 20
536.660844
 30
0.0
 11
904.257613
 21
536.660844
 31
0.0
  0
LINE
  5
1F7
100
AcDbEntity
  8
M01
100
AcDbLine
 10
905.057613
 20
527.660844
 30
0.0
 11
904.257613
 21
527.660844
 31
0.0
  0
LINE
  5
1F8
100
AcDbEntity
  8
CENTRE
100
AcDbLine
 10
923.418502
 20
532.160844
 30
0.0
 11
859.82507
 21
532.160844
 31
0.0
  0
LINE
  5
1F9
100
AcDbEntity
  8
M04
100
AcDbLine
 10
917.257613
 20
512.160844
 30
0.0
 11
837.311436
 21
512.160844
 31
0.0
  0
LINE
  5
1FA
100
AcDbEntity
  8
M01
100
AcDbLine
 10
872.257613
 20
564.160844
 30
0.0
 11
870.257613
 21
566.160844
 31
0.0
  0
LINE
  5
1FB
100
AcDbEntity
  8
M01
100
AcDbLine
 10
870.257613
 20
522.160844
 30
0.0
 11
872.257613
 21
524.160844
 31
0.0
  0
LINE
  5
1FC
100
AcDbEntity
  8
M01
100
AcDbLine
 10
872.257613
 20
524.160844
 30
0.0
 11
872.257613
 21
564.160844
 31
0.0
  0
LINE
  5
1FD
100
AcDbEntity
  8
M01
100
AcDbLine
 10
870.257613
 20
566.160844
 30
0.0
 11
829.483009
 21
566.160844
 31
0.0
  0
LINE
  5
1FE
100
AcDbEntity
  8
M01
100
AcDbLine
 10
870.257613
 20
522.160844
 30
0.0
 11
829.483009
 21
522.160844
 31
0.0
  0
LINE
  5
1FF
100
AcDbEntity
  8
DIMS
 62
     4
100
AcDbLine
 10
583.257613
 20
547.560844
 30
0.0
 11
583.257613
 21
549.860844
 31
0.0
  0
LINE
  5
200
100
AcDbEntity
  8
DIMS
 62
     4
100
AcDbLine
 10
583.257613
 20
540.760844
 30
0.0
 11
583.257613
 21
538.460844
 31
0.0
  0
LINE
  5
201
100
AcDbEntity
  8
DIMS
 62
     4
100
AcDbLine
 10
583.257613
 20
542.460844
 30
0.0
 11
583.257613
 21
545.860844
 31
0.0
  0
CIRCLE
  5
202
100
AcDbEntity
  8
M03
100
AcDbCircle
 10
583.257613
 20
544.160844
 30
0.0
 40
4.0
  0
LINE
  5
203
100
AcDbEntity
  8
M03
100
AcDbLine
 10
583.257613
 20
538.50399
 30
0.0
 11
655.429185
 21
466.332417
 31
0.0
  0
LINE
  5
204
100
AcDbEntity
  8
M04
100
AcDbLine
 10
668.86302
 20
663.709765
 30
0.0
 11
729.722079
 21
602.850707
 31
0.0
  0
LINE
  5
205
100
AcDbEntity
  8
M01
100
AcDbLine
 10
622.257613
 20
609.90601
 30
0.0
 11
632.517497
 21
599.646125
 31
0.0
  0
LINE
  5
206
100
AcDbEntity
  8
M01
100
AcDbLine
 10
667.512447
 20
655.160844
 30
0.0
 11
724.772331
 21
597.900959
 31
0.0
  0
LINE
  5
207
100
AcDbEntity
  8
M01
100
AcDbLine
 10
622.257613
 20
628.418065
 30
0.0
 11
622.257613
 21
609.90601
 31
0.0
  0
LINE
  5
208
100
AcDbEntity
  8
M01
100
AcDbLine
 10
649.000391
 20
655.160844
 30
0.0
 11
667.512447
 21
655.160844
 31
0.0
  0
LINE
  5
209
100
AcDbEntity
  8
M04
100
AcDbLine
 10
463.708692
 20
608.555436
 30
0.0
 11
484.153536
 21
588.110591
 31
0.0
  0
LINE
  5
20A
100
AcDbEntity
  8
M04
100
AcDbLine
 10
518.86302
 20
663.709765
 30
0.0
 11
594.947475
 21
587.62531
 31
0.0
  0
LINE
  5
20B
100
AcDbEntity
  8
M01
100
AcDbLine
 10
472.257613
 20
609.90601
 30
0.0
 11
495.517497
 21
586.646125
 31
0.0
  0
LINE
  5
20C
100
AcDbEntity
  8
M01
100
AcDbLine
 10
517.512447
 20
655.160844
 30
0.0
 11
589.997728
 21
582.675563
 31
0.0
  0
LINE
  5
20D
100
AcDbEntity
  8
M01
100
AcDbLine
 10
598.483009
 20
579.160844
 30
0.0
 11
624.032216
 21
579.160844
 31
0.0
  0
LINE
  5
20E
100
AcDbEntity
  8
DIMS
 62
     4
100
AcDbLine
 10
661.657613
 20
619.160844
 30
0.0
 11
674.957613
 21
619.160844
 31
0.0
  0
LINE
  5
20F
100
AcDbEntity
  8
DIMS
 62
     4
100
AcDbLine
 10
654.857613
 20
619.160844
 30
0.0
 11
641.557613
 21
619.160844
 31
0.0
  0
LINE
  5
210
100
AcDbEntity
  8
DIMS
 62
     4
100
AcDbLine
 10
656.557613
 20
619.160844
 30
0.0
 11
659.957613
 21
619.160844
 31
0.0
  0
CIRCLE
  5
211
100
AcDbEntity
  8
M03
100
AcDbCircle
 10
658.257613
 20
619.160844
 30
0.0
 40
2.3
  0
ARC
  5
212
100
AcDbEntity
  8
M03
100
AcDbCircle
 10
658.257613
 20
619.160844
 30
0.0
 40
3.0
100
AcDbArc
 50
167.784636
 51
96.923103
  0
LINE
  5
213
100
AcDbEntity
  8
M03
100
AcDbLine
 10
658.807613
 20
613.186105
 30
0.0
 11
658.807613
 21
625.135582
 31
0.0
  0
LINE
  5
214
100
AcDbEntity
  8
M03
100
AcDbLine
 10
657.707613
 20
613.186105
 30
0.0
 11
657.707613
 21
625.135582
 31
0.0
  0
CIRCLE
  5
215
100
AcDbEntity
  8
M03
100
AcDbCircle
 10
658.257613
 20
619.160844
 30
0.0
 40
15.0
  0
CIRCLE
  5
216
100
AcDbEntity
  8
M03
100
AcDbCircle
 10
658.257613
 20
619.160844
 30
0.0
 40
14.0
  0
CIRCLE
  5
217
100
AcDbEntity
  8
M03
100
AcDbCircle
 10
658.257613
 20
619.160844
 30
0.0
 40
7.858882
  0
CIRCLE
  5
218
100
AcDbEntity
  8
M03
100
AcDbCircle
 10
658.257613
 20
619.160844
 30
0.0
 40
6.0
  0
LINE
  5
219
100
AcDbEntity
  8
M03
100
AcDbLine
 10
661.08604
 20
621.989271
 30
0.0
 11
733.257613
 21
549.817698
 31
0.0
  0
LINE
  5
21A
100
AcDbEntity
  8
M03
100
AcDbLine
 10
655.429185
 20
616.332417
 30
0.0
 11
805.429185
 21
466.332417
 31
0.0
  0
LINE
  5
21B
100
AcDbEntity
  8
CENTRE
100
AcDbLine
 10
644.115477
 20
633.30298
 30
0.0
 11
822.399748
 21
455.018708
 31
0.0
  0
CIRCLE
  5
21C
100
AcDbEntity
  8
M01
100
AcDbCircle
 10
658.257613
 20
619.160844
 30
0.0
 40
4.0
  0
LINE
  5
21D
100
AcDbEntity
  8
M04
100
AcDbLine
 10
399.257613
 20
576.160844
 30
0.0
 11
479.203789
 21
576.160844
 31
0.0
  0
LINE
  5
21E
100
AcDbEntity
  8
M01
100
AcDbLine
 10
472.257613
 20
628.418065
 30
0.0
 11
472.257613
 21
609.90601
 31
0.0
  0
LINE
  5
21F
100
AcDbEntity
  8
M01
100
AcDbLine
 10
499.000391
 20
655.160844
 30
0.0
 11
517.512447
 21
655.160844
 31
0.0
  0
MTEXT
  5
220
100
AcDbEntity
  8
0
  6
BYBLOCK
 62
     2
100
AcDbMText
 10
864.619041
 20
616.15608
 30
0.0
 40
3.0
 41
0.0
 71
     4
 72
     1
  1
M12 PLATE RETAINING SCREWS SHOULD ALSO BE FITTED.\PMINIMUM 2 PER DROP & ALSO AROUND MANIFOLD POCKET.
  0
LINE
  5
221
100
AcDbEntity
  8
DIMS
 62
     4
100
AcDbLine
 10
543.612952
 20
657.916183
 30
0.0
 11
543.612952
 21
662.716183
 31
0.0
  0
LINE
  5
222
100
AcDbEntity
  8
DIMS
 62
     4
100
AcDbLine
 10
543.612952
 20
651.116183
 30
0.0
 11
543.612952
 21
646.316183
 31
0.0
  0
LINE
  5
223
100
AcDbEntity
  8
DIMS
 62
     4
100
AcDbLine
 10
547.012952
 20
654.516183
 30
0.0
 11
551.812952
 21
654.516183
 31
0.0
  0
LINE
  5
224
100
AcDbEntity
  8
DIMS
 62
     4
100
AcDbLine
 10
540.212952
 20
654.516183
 30
0.0
 11
535.412952
 21
654.516183
 31
0.0
  0
LINE
  5
225
100
AcDbEntity
  8
DIMS
 62
     4
100
AcDbLine
 10
543.612952
 20
652.816183
 30
0.0
 11
543.612952
 21
656.216183
 31
0.0
  0
LINE
  5
226
100
AcDbEntity
  8
DIMS
 62
     4
100
AcDbLine
 10
541.912952
 20
654.516183
 30
0.0
 11
545.312952
 21
654.516183
 31
0.0
  0
LINE
  5
227
100
AcDbEntity
  8
DIMS
 62
     4
100
AcDbLine
 10
586.657613
 20
303.597735
 30
0.0
 11
588.957613
 21
303.597735
 31
0.0
  0
LINE
  5
228
100
AcDbEntity
  8
DIMS
 62
     4
100
AcDbLine
 10
579.857613
 20
303.597735
 30
0.0
 11
577.557613
 21
303.597735
 31
0.0
  0
LINE
  5
229
100
AcDbEntity
  8
DIMS
 62
     4
100
AcDbLine
 10
581.557613
 20
303.597735
 30
0.0
 11
584.957613
 21
303.597735
 31
0.0
  0
HATCH
  5
22A
100
AcDbEntity
  8
HATCH
100
AcDbHatch
 10
0.0
 20
0.0
 30
0.0
210
0.0
220
0.0
230
1.0
  2
_U
 70
     0
 71
     1
 91
        1
 92
        7
 72
     0
 73
     1
 93
        4
 10
823.2576125642799
 20
260.597735408392
 10
823.2576125642799
 20
257.5977354083925
 10
838.2576125642797
 20
257.5977354083925
 10
838.2576125642799
 20
260.597735408392
 97
        4
330
230
330
322
330
22B
330
22E
 75
     0
 76
     0
 52
135.0
 41
0.8
 77
     0
 78
     1
 53
135.0
 43
50.0
 44
-53.854265
 45
-0.5656854249492382
 46
-0.565685424949238
 79
     0
 47
0.110181
 98
        1
 10
828.068155
 20
259.203583
  0
LINE
  5
22B
102
{ACAD_REACTORS
330
22A
102
}
100
AcDbEntity
  8
M02
100
AcDbLine
 10
822.257613
 20
257.597735
 30
0.0
 11
838.257613
 21
257.597735
 31
0.0
  0
LINE
  5
22D
102
{ACAD_REACTORS
330
90
102
}
100
AcDbEntity
  8
M02
100
AcDbLine
 10
692.257613
 20
257.597735
 30
0.0
 11
794.257613
 21
257.597735
 31
0.0
  0
LINE
  5
22E
102
{ACAD_REACTORS
330
22A
102
}
100
AcDbEntity
  8
M02
100
AcDbLine
 10
838.257613
 20
260.597735
 30
0.0
 11
838.257613
 21
257.597735
 31
0.0
  0
LINE
  5
22F
100
AcDbEntity
  8
M04
100
AcDbLine
 10
811.257613
 20
253.597735
 30
0.0
 11
858.771004
 21
253.597735
 31
0.0
  0
LINE
  5
230
102
{ACAD_REACTORS
330
22A
330
90
330
40
102
}
100
AcDbEntity
  8
M01
100
AcDbLine
 10
668.257613
 20
260.597735
 30
0.0
 11
838.257613
 21
260.597735
 31
0.0
  0
HATCH
  5
231
100
AcDbEntity
  8
DIMS
100
AcDbHatch
 10
0.0
 20
0.0
 30
0.0
210
0.0
220
0.0
230
1.0
  2
_U
 70
     0
 71
     0
 91
        5
 92
        7
 72
     0
 73
     1
 93
        9
 10
689.75761256428
 20
258.5977354083918
 10
689.75761256428
 20
254.597735408392
 10
691.5576125642803
 20
254.597735408392
 10
692.2576125642804
 20
255.2977354083919
 10
692.2576125642802
 20
259.8977354083919
 10
691.5576125642798
 20
260.5977354083921
 10
687.95761256428
 20
260.5977354083921
 10
687.95761256428
 20
258.597735408392
 10
689.5076125642802
 20
258.597735408392
 97
        0
 92
        7
 72
     1
 73
     1
 93
       16
 10
677.5576125642799
 20
249.5977354083919
 42
0.0
 10
678.2576125642799
 20
250.2977354083918
 42
0.0
 10
678.2576125642799
 20
251.5977354083921
 42
0.0
 10
677.7576125642799
 20
251.5977354083919
 42
0.0
 10
677.7576125642799
 20
254.597735408392
 42
0.0
 10
678.7576125642801
 20
254.597735408392
 42
0.0
 10
678.7576125642801
 20
258.597735408392
 42
0.0
 10
679.0076125642801
 20
258.597735408392
 42
0.0
 10
680.5576125642801
 20
258.597735408392
 42
0.0
 10
680.5576125642804
 20
260.5977354083921
 42
0.0
 10
668.2576125642799
 20
260.5977354083921
 42
0.0
 10
668.2576125642799
 20
269.5977354083918
 42
0.0
 10
667.2576125642799
 20
270.5977354083918
 42
0.0
 10
662.2576125642799
 20
270.5977354083919
 42
0.0
 10
661.2984865621759
 20
252.2965210614931
 42
-0.1092323044357264
 10
667.4227639541913
 20
249.5977354083918
 42
0.0
 97
        0
 92
        7
 72
     1
 73
     1
 93
       16
 10
655.2167385663838
 20
252.296521061493
 42
0.0
 10
654.2576125642799
 20
270.5977354083919
 42
0.0
 10
649.2576125642799
 20
270.5977354083919
 42
0.0
 10
648.25761256428
 20
269.5977354083919
 42
0.0
 10
648.25761256428
 20
260.5977354083921
 42
0.0
 10
635.9576125642802
 20
260.5977354083921
 42
0.0
 10
635.9576125642802
 20
258.597735408392
 42
0.0
 10
637.5076125642799
 20
258.597735408392
 42
0.0
 10
637.7576125642799
 20
258.597735408392
 42
0.0
 10
637.7576125642799
 20
254.5977354083921
 42
0.0
 10
638.7576125642799
 20
254.5977354083921
 42
0.0
 10
638.7576125642799
 20
251.5977354083917
 42
0.0
 10
638.2576125642799
 20
251.5977354083917
 42
0.0
 10
638.2576125642802
 20
250.2977354083916
 42
0.0
 10
638.95761256428
 20
249.5977354083916
 42
0.0
 10
649.0924611743682
 20
249.5977354083917
 42
-0.1092323044357263
 97
        0
 92
        7
 72
     0
 73
     1
 93
        9
 10
626.7576125642799
 20
258.5977354083918
 10
627.0076125642797
 20
258.5977354083918
 10
628.5576125642799
 20
258.5977354083919
 10
628.5576125642801
 20
260.5977354083921
 10
624.95761256428
 20
260.5977354083921
 10
624.2576125642797
 20
259.897735408392
 10
624.2576125642797
 20
255.2977354083918
 10
624.9576125642797
 20
254.5977354083921
 10
626.7576125642801
 20
254.5977354083921
 97
        0
 92
       24
 93
        4
 72
     1
 10
662.831693
 20
255.665223
 11
677.203122
 21
255.665223
 72
     1
 10
677.203122
 20
255.665223
 11
677.203122
 21
258.665223
 72
     1
 10
677.203122
 20
258.665223
 11
662.831693
 21
258.665223
 72
     1
 10
662.831693
 20
258.665223
 11
662.831693
 21
255.665223
 97
        0
 75
     0
 76
     0
 52
135.0
 41
2.5
 77
     0
 78
     1
 53
135.0
 43
102.810372
 44
13.111261
 45
-1.767766952966368
 46
-1.767766952966368
 79
     0
 47
0.085632
 98
        4
 10
690.754575
 20
258.95572
 10
673.10713
 20
252.96149
 10
650.319651
 20
254.160337
 10
626.075832
 20
258.95572
  0
LINE
  5
232
102
{ACAD_REACTORS
330
40
102
}
100
AcDbEntity
  8
M04
100
AcDbLine
 10
635.257613
 20
267.897735
 30
0.0
 11
635.257613
 21
270.397735
 31
0.0
  0
LINE
  5
233
102
{ACAD_REACTORS
330
40
102
}
100
AcDbEntity
  8
M04
100
AcDbLine
 10
634.557613
 20
268.597735
 30
0.0
 11
634.557613
 21
271.897735
 31
0.0
  0
LINE
  5
234
102
{ACAD_REACTORS
330
40
102
}
100
AcDbEntity
  8
M04
100
AcDbLine
 10
629.257613
 20
267.897735
 30
0.0
 11
629.257613
 21
270.397735
 31
0.0
  0
LINE
  5
235
102
{ACAD_REACTORS
330
40
102
}
100
AcDbEntity
  8
M04
100
AcDbLine
 10
629.957613
 20
268.597735
 30
0.0
 11
629.957613
 21
271.897735
 31
0.0
  0
LINE
  5
236
100
AcDbEntity
  8
M05
100
AcDbLine
 10
627.007613
 20
258.597735
 30
0.0
 11
637.507613
 21
258.597735
 31
0.0
  0
LINE
  5
238
100
AcDbEntity
  8
M04
100
AcDbLine
 10
637.507613
 20
258.597735
 30
0.0
 11
637.757613
 21
258.597735
 31
0.0
  0
LINE
  5
239
100
AcDbEntity
  8
M04
100
AcDbLine
 10
626.757613
 20
258.597735
 30
0.0
 11
626.757613
 21
254.597735
 31
0.0
  0
LINE
  5
23A
100
AcDbEntity
  8
M04
100
AcDbLine
 10
637.757613
 20
258.597735
 30
0.0
 11
637.757613
 21
254.597735
 31
0.0
  0
LINE
  5
23B
100
AcDbEntity
  8
M05
100
AcDbLine
 10
635.257613
 20
259.597735
 30
0.0
 11
629.257613
 21
259.597735
 31
0.0
  0
LINE
  5
23C
102
{ACAD_REACTORS
330
40
102
}
100
AcDbEntity
  8
M04
100
AcDbLine
 10
629.957613
 20
271.897735
 30
0.0
 11
632.257613
 21
273.225641
 31
0.0
  0
LINE
  5
23D
102
{ACAD_REACTORS
330
40
102
}
100
AcDbEntity
  8
M04
100
AcDbLine
 10
634.557613
 20
271.897735
 30
0.0
 11
632.257613
 21
273.225641
 31
0.0
  0
LINE
  5
23E
100
AcDbEntity
  8
M04
100
AcDbLine
 10
634.557613
 20
271.897735
 30
0.0
 11
629.957613
 21
271.897735
 31
0.0
  0
LINE
  5
23F
102
{ACAD_REACTORS
330
40
102
}
100
AcDbEntity
  8
M04
100
AcDbLine
 10
635.257613
 20
270.397735
 30
0.0
 11
629.257613
 21
270.397735
 31
0.0
  0
ARC
  5
240
100
AcDbEntity
  8
M05
100
AcDbCircle
 10
632.257613
 20
261.123872
 30
0.0
 40
5.826136
100
AcDbArc
 50
205.69541
 51
334.30459
  0
LINE
  5
241
100
AcDbEntity
  8
M05
100
AcDbLine
 10
629.257613
 20
267.897735
 30
0.0
 11
629.957613
 21
268.597735
 31
0.0
  0
LINE
  5
242
100
AcDbEntity
  8
M05
100
AcDbLine
 10
635.257613
 20
267.897735
 30
0.0
 11
634.557613
 21
268.597735
 31
0.0
  0
LINE
  5
243
100
AcDbEntity
  8
M05
100
AcDbLine
 10
635.257613
 20
267.897735
 30
0.0
 11
629.257613
 21
267.897735
 31
0.0
  0
LINE
  5
244
100
AcDbEntity
  8
M05
100
AcDbLine
 10
634.557613
 20
268.597735
 30
0.0
 11
629.957613
 21
268.597735
 31
0.0
  0
LINE
  5
245
100
AcDbEntity
  8
M04
100
AcDbLine
 10
635.957613
 20
260.597735
 30
0.0
 11
635.957613
 21
258.597735
 31
0.0
  0
LINE
  5
246
100
AcDbEntity
  8
M04
100
AcDbLine
 10
628.557613
 20
260.597735
 30
0.0
 11
628.557613
 21
258.597735
 31
0.0
  0
LINE
  5
247
100
AcDbEntity
  8
M05
100
AcDbLine
 10
629.957613
 20
268.597735
 30
0.0
 11
629.957613
 21
259.597735
 31
0.0
  0
LINE
  5
248
100
AcDbEntity
  8
M05
100
AcDbLine
 10
634.557613
 20
268.597735
 30
0.0
 11
634.557613
 21
259.597735
 31
0.0
  0
LINE
  5
249
102
{ACAD_REACTORS
330
40
102
}
100
AcDbEntity
  8
M05
100
AcDbLine
 10
635.257613
 20
267.897735
 30
0.0
 11
635.257613
 21
258.597735
 31
0.0
  0
LINE
  5
24A
102
{ACAD_REACTORS
330
40
102
}
100
AcDbEntity
  8
M05
100
AcDbLine
 10
629.257613
 20
267.897735
 30
0.0
 11
629.257613
 21
258.597735
 31
0.0
  0
LINE
  5
24B
100
AcDbEntity
  8
M04
100
AcDbLine
 10
626.757613
 20
258.597735
 30
0.0
 11
627.007613
 21
258.597735
 31
0.0
  0
LINE
  5
24C
100
AcDbEntity
  8
CENTRE
100
AcDbLine
 10
632.257613
 20
275.864236
 30
0.0
 11
632.257613
 21
250.951547
 31
0.0
  0
LINE
  5
24D
102
{ACAD_REACTORS
330
40
102
}
100
AcDbEntity
  8
M04
100
AcDbLine
 10
681.257613
 20
267.897735
 30
0.0
 11
681.257613
 21
270.397735
 31
0.0
  0
LINE
  5
24E
102
{ACAD_REACTORS
330
40
102
}
100
AcDbEntity
  8
M04
100
AcDbLine
 10
681.957613
 20
268.597735
 30
0.0
 11
681.957613
 21
271.897735
 31
0.0
  0
LINE
  5
24F
102
{ACAD_REACTORS
330
40
102
}
100
AcDbEntity
  8
M04
100
AcDbLine
 10
687.257613
 20
267.897735
 30
0.0
 11
687.257613
 21
270.397735
 31
0.0
  0
LINE
  5
250
102
{ACAD_REACTORS
330
40
102
}
100
AcDbEntity
  8
M04
100
AcDbLine
 10
686.557613
 20
268.597735
 30
0.0
 11
686.557613
 21
271.897735
 31
0.0
  0
LINE
  5
251
100
AcDbEntity
  8
M05
100
AcDbLine
 10
689.507613
 20
258.597735
 30
0.0
 11
679.007613
 21
258.597735
 31
0.0
  0
LINE
  5
252
100
AcDbEntity
  8
M04
100
AcDbLine
 10
679.007613
 20
258.597735
 30
0.0
 11
678.757613
 21
258.597735
 31
0.0
  0
LINE
  5
253
100
AcDbEntity
  8
M04
100
AcDbLine
 10
689.757613
 20
258.597735
 30
0.0
 11
689.757613
 21
254.597735
 31
0.0
  0
LINE
  5
254
100
AcDbEntity
  8
M04
100
AcDbLine
 10
678.757613
 20
258.597735
 30
0.0
 11
678.757613
 21
254.597735
 31
0.0
  0
LINE
  5
255
100
AcDbEntity
  8
M05
100
AcDbLine
 10
681.257613
 20
259.597735
 30
0.0
 11
687.257613
 21
259.597735
 31
0.0
  0
LINE
  5
256
102
{ACAD_REACTORS
330
40
102
}
100
AcDbEntity
  8
M04
100
AcDbLine
 10
686.557613
 20
271.897735
 30
0.0
 11
684.257613
 21
273.225641
 31
0.0
  0
LINE
  5
257
102
{ACAD_REACTORS
330
40
102
}
100
AcDbEntity
  8
M04
100
AcDbLine
 10
681.957613
 20
271.897735
 30
0.0
 11
684.257613
 21
273.225641
 31
0.0
  0
LINE
  5
258
100
AcDbEntity
  8
M04
100
AcDbLine
 10
681.957613
 20
271.897735
 30
0.0
 11
686.557613
 21
271.897735
 31
0.0
  0
LINE
  5
259
102
{ACAD_REACTORS
330
40
102
}
100
AcDbEntity
  8
M04
100
AcDbLine
 10
681.257613
 20
270.397735
 30
0.0
 11
687.257613
 21
270.397735
 31
0.0
  0
ARC
  5
25A
100
AcDbEntity
  8
M05
100
AcDbCircle
 10
684.257613
 20
261.123872
 30
0.0
 40
5.826136
100
AcDbArc
 50
205.69541
 51
334.30459
  0
LINE
  5
25B
100
AcDbEntity
  8
M05
100
AcDbLine
 10
687.257613
 20
267.897735
 30
0.0
 11
686.557613
 21
268.597735
 31
0.0
  0
LINE
  5
25C
100
AcDbEntity
  8
M05
100
AcDbLine
 10
681.257613
 20
267.897735
 30
0.0
 11
681.957613
 21
268.597735
 31
0.0
  0
LINE
  5
25D
100
AcDbEntity
  8
M05
100
AcDbLine
 10
681.257613
 20
267.897735
 30
0.0
 11
687.257613
 21
267.897735
 31
0.0
  0
LINE
  5
25E
100
AcDbEntity
  8
M05
100
AcDbLine
 10
681.957613
 20
268.597735
 30
0.0
 11
686.557613
 21
268.597735
 31
0.0
  0
LINE
  5
25F
100
AcDbEntity
  8
M04
100
AcDbLine
 10
680.557613
 20
260.597735
 30
0.0
 11
680.557613
 21
258.597735
 31
0.0
  0
LINE
  5
260
100
AcDbEntity
  8
M04
100
AcDbLine
 10
687.957613
 20
260.597735
 30
0.0
 11
687.957613
 21
258.597735
 31
0.0
  0
LINE
  5
261
100
AcDbEntity
  8
M05
100
AcDbLine
 10
686.557613
 20
268.597735
 30
0.0
 11
686.557613
 21
259.597735
 31
0.0
  0
LINE
  5
262
100
AcDbEntity
  8
M05
100
AcDbLine
 10
681.957613
 20
268.597735
 30
0.0
 11
681.957613
 21
259.597735
 31
0.0
  0
LINE
  5
263
102
{ACAD_REACTORS
330
40
102
}
100
AcDbEntity
  8
M05
100
AcDbLine
 10
681.257613
 20
267.897735
 30
0.0
 11
681.257613
 21
258.597735
 31
0.0
  0
LINE
  5
264
102
{ACAD_REACTORS
330
40
102
}
100
AcDbEntity
  8
M05
100
AcDbLine
 10
687.257613
 20
267.897735
 30
0.0
 11
687.257613
 21
258.597735
 31
0.0
  0
LINE
  5
265
100
AcDbEntity
  8
M04
100
AcDbLine
 10
689.757613
 20
258.597735
 30
0.0
 11
689.507613
 21
258.597735
 31
0.0
  0
LINE
  5
266
100
AcDbEntity
  8
CENTRE
100
AcDbLine
 10
684.257613
 20
275.864236
 30
0.0
 11
684.257613
 21
250.951547
 31
0.0
  0
TEXT
  5
267
100
AcDbEntity
  8
TEXT
100
AcDbText
 10
663.331693
 20
256.165223
 30
0.0
 40
2.0
  1
MA010000
 41
0.9
100
AcDbText
  0
LINE
  5
268
100
AcDbEntity
  8
M04
100
AcDbLine
 10
628.257613
 20
235.597735
 30
0.0
 11
628.257613
 21
226.597735
 31
0.0
  0
LINE
  5
269
100
AcDbEntity
  8
M05
100
AcDbLine
 10
624.257613
 20
255.297735
 30
0.0
 11
624.957613
 21
254.597735
 31
0.0
  0
LINE
  5
26A
100
AcDbEntity
  8
M02
100
AcDbLine
 10
623.257613
 20
260.597735
 30
0.0
 11
623.257613
 21
257.597735
 31
0.0
  0
LINE
  5
26B
100
AcDbEntity
  8
M04
100
AcDbLine
 10
628.257613
 20
235.597735
 30
0.0
 11
688.257613
 21
235.597735
 31
0.0
  0
LINE
  5
26C
100
AcDbEntity
  8
M04
100
AcDbLine
 10
638.257613
 20
245.597735
 30
0.0
 11
628.257613
 21
235.597735
 31
0.0
  0
LINE
  5
26D
100
AcDbEntity
  8
M04
100
AcDbLine
 10
688.257613
 20
235.597735
 30
0.0
 11
688.257613
 21
226.597735
 31
0.0
  0
LINE
  5
26E
100
AcDbEntity
  8
M04
100
AcDbLine
 10
678.257613
 20
245.597735
 30
0.0
 11
688.257613
 21
235.597735
 31
0.0
  0
LINE
  5
26F
100
AcDbEntity
  8
M05
100
AcDbLine
 10
655.216739
 20
252.296521
 30
0.0
 11
661.298487
 21
252.296521
 31
0.0
  0
ARC
  5
270
100
AcDbEntity
  8
M05
100
AcDbCircle
 10
658.257613
 20
237.097735
 30
0.0
 40
15.5
100
AcDbArc
 50
101.313981
 51
126.249321
  0
LINE
  5
271
100
AcDbEntity
  8
M05
100
AcDbLine
 10
654.257613
 20
270.597735
 30
0.0
 11
655.216739
 21
252.296521
 31
0.0
  0
LINE
  5
272
100
AcDbEntity
  8
M05
100
AcDbLine
 10
662.257613
 20
270.597735
 30
0.0
 11
661.298487
 21
252.296521
 31
0.0
  0
ARC
  5
273
100
AcDbEntity
  8
M05
100
AcDbCircle
 10
658.257613
 20
237.097735
 30
0.0
 40
15.5
100
AcDbArc
 50
53.750679
 51
78.686019
  0
LINE
  5
274
100
AcDbEntity
  8
M04
100
AcDbLine
 10
638.257613
 20
251.597735
 30
0.0
 11
638.257613
 21
253.597735
 31
0.0
  0
LINE
  5
275
100
AcDbEntity
  8
M04
100
AcDbLine
 10
638.257613
 20
250.297735
 30
0.0
 11
638.257613
 21
245.597735
 31
0.0
  0
LINE
  5
276
100
AcDbEntity
  8
M04
100
AcDbLine
 10
678.257613
 20
251.597735
 30
0.0
 11
678.257613
 21
253.597735
 31
0.0
  0
LINE
  5
277
100
AcDbEntity
  8
M04
100
AcDbLine
 10
678.257613
 20
250.297735
 30
0.0
 11
678.257613
 21
245.597735
 31
0.0
  0
LINE
  5
278
100
AcDbEntity
  8
M04
100
AcDbLine
 10
678.257613
 20
245.597735
 30
0.0
 11
638.257613
 21
245.597735
 31
0.0
  0
LINE
  5
279
100
AcDbEntity
  8
M05
100
AcDbLine
 10
638.757613
 20
251.597735
 30
0.0
 11
638.257613
 21
251.597735
 31
0.0
  0
LINE
  5
27A
100
AcDbEntity
  8
M05
100
AcDbLine
 10
638.757613
 20
254.597735
 30
0.0
 11
624.957613
 21
254.597735
 31
0.0
  0
LINE
  5
27B
100
AcDbEntity
  8
M05
100
AcDbLine
 10
638.757613
 20
254.597735
 30
0.0
 11
638.757613
 21
251.597735
 31
0.0
  0
LINE
  5
27C
100
AcDbEntity
  8
M05
100
AcDbLine
 10
677.757613
 20
254.597735
 30
0.0
 11
677.757613
 21
251.597735
 31
0.0
  0
LINE
  5
27D
100
AcDbEntity
  8
M05
100
AcDbLine
 10
678.257613
 20
251.597735
 30
0.0
 11
677.757613
 21
251.597735
 31
0.0
  0
LINE
  5
27E
100
AcDbEntity
  8
M05
100
AcDbLine
 10
638.957613
 20
249.597735
 30
0.0
 11
638.257613
 21
250.297735
 31
0.0
  0
LINE
  5
27F
100
AcDbEntity
  8
M05
100
AcDbLine
 10
677.557613
 20
249.597735
 30
0.0
 11
678.257613
 21
250.297735
 31
0.0
  0
LINE
  5
280
100
AcDbEntity
  8
M05
100
AcDbLine
 10
677.557613
 20
249.597735
 30
0.0
 11
638.957613
 21
249.597735
 31
0.0
  0
LINE
  5
281
100
AcDbEntity
  8
M05
100
AcDbLine
 10
638.257613
 20
251.597735
 30
0.0
 11
638.257613
 21
250.297735
 31
0.0
  0
LINE
  5
282
100
AcDbEntity
  8
M05
100
AcDbLine
 10
678.257613
 20
251.597735
 30
0.0
 11
678.257613
 21
250.297735
 31
0.0
  0
LINE
  5
283
102
{ACAD_REACTORS
330
40
102
}
100
AcDbEntity
  8
M04
100
AcDbLine
 10
648.257613
 20
261.097735
 30
0.0
 11
647.757613
 21
260.597735
 31
0.0
  0
LINE
  5
284
102
{ACAD_REACTORS
330
40
102
}
100
AcDbEntity
  8
M04
100
AcDbLine
 10
668.257613
 20
261.097735
 30
0.0
 11
668.757613
 21
260.597735
 31
0.0
  0
LINE
  5
285
100
AcDbEntity
  8
M05
100
AcDbLine
 10
624.257613
 20
259.897735
 30
0.0
 11
624.957613
 21
260.597735
 31
0.0
  0
LINE
  5
286
100
AcDbEntity
  8
M05
100
AcDbLine
 10
624.257613
 20
259.897735
 30
0.0
 11
624.257613
 21
255.297735
 31
0.0
  0
LINE
  5
287
100
AcDbEntity
  8
M05
100
AcDbLine
 10
692.257613
 20
259.897735
 30
0.0
 11
691.557613
 21
260.597735
 31
0.0
  0
LINE
  5
288
100
AcDbEntity
  8
M05
100
AcDbLine
 10
692.257613
 20
255.297735
 30
0.0
 11
691.557613
 21
254.597735
 31
0.0
  0
LINE
  5
289
102
{ACAD_REACTORS
330
90
102
}
100
AcDbEntity
  8
M02
100
AcDbLine
 10
693.257613
 20
260.597735
 30
0.0
 11
693.257613
 21
257.597735
 31
0.0
  0
LINE
  5
28A
100
AcDbEntity
  8
M05
100
AcDbLine
 10
691.557613
 20
254.597735
 30
0.0
 11
677.757613
 21
254.597735
 31
0.0
  0
LINE
  5
28B
100
AcDbEntity
  8
M05
100
AcDbLine
 10
692.257613
 20
259.897735
 30
0.0
 11
692.257613
 21
255.297735
 31
0.0
  0
LINE
  5
28C
102
{ACAD_REACTORS
330
40
102
}
100
AcDbEntity
  8
M04
100
AcDbLine
 10
648.257613
 20
269.597735
 30
0.0
 11
648.257613
 21
270.597735
 31
0.0
  0
LINE
  5
28D
102
{ACAD_REACTORS
330
40
102
}
100
AcDbEntity
  8
M04
100
AcDbLine
 10
649.257613
 20
270.597735
 30
0.0
 11
648.257613
 21
270.597735
 31
0.0
  0
LINE
  5
28E
102
{ACAD_REACTORS
330
40
102
}
100
AcDbEntity
  8
M04
100
AcDbLine
 10
668.257613
 20
269.597735
 30
0.0
 11
668.257613
 21
270.597735
 31
0.0
  0
LINE
  5
28F
102
{ACAD_REACTORS
330
40
102
}
100
AcDbEntity
  8
M04
100
AcDbLine
 10
667.257613
 20
270.597735
 30
0.0
 11
668.257613
 21
270.597735
 31
0.0
  0
LINE
  5
290
100
AcDbEntity
  8
M05
100
AcDbLine
 10
667.257613
 20
270.597735
 30
0.0
 11
668.257613
 21
269.597735
 31
0.0
  0
LINE
  5
291
100
AcDbEntity
  8
M05
100
AcDbLine
 10
648.257613
 20
269.597735
 30
0.0
 11
649.257613
 21
270.597735
 31
0.0
  0
LINE
  5
292
102
{ACAD_REACTORS
330
40
102
}
100
AcDbEntity
  8
M05
100
AcDbLine
 10
667.257613
 20
270.597735
 30
0.0
 11
649.257613
 21
270.597735
 31
0.0
  0
LINE
  5
293
102
{ACAD_REACTORS
330
40
102
}
100
AcDbEntity
  8
M05
100
AcDbLine
 10
648.257613
 20
269.597735
 30
0.0
 11
648.257613
 21
260.597735
 31
0.0
  0
LINE
  5
294
102
{ACAD_REACTORS
330
40
102
}
100
AcDbEntity
  8
M05
100
AcDbLine
 10
668.257613
 20
269.597735
 30
0.0
 11
668.257613
 21
260.597735
 31
0.0
  0
LINE
  5
295
100
AcDbEntity
  8
M04
100
AcDbLine
 10
667.757613
 20
327.597735
 30
0.0
 11
847.257613
 21
327.597735
 31
0.0
  0
LINE
  5
296
102
{ACAD_REACTORS
330
91
102
}
100
AcDbEntity
  8
M02
100
AcDbLine
 10
667.757613
 20
323.597735
 30
0.0
 11
838.257613
 21
323.597735
 31
0.0
  0
LINE
  5
297
102
{ACAD_REACTORS
330
91
330
40
102
}
100
AcDbEntity
  8
M01
100
AcDbLine
 10
667.757613
 20
320.597735
 30
0.0
 11
838.257613
 21
320.597735
 31
0.0
  0
DIMENSION
  5
298
100
AcDbEntity
  8
DIMS
100
AcDbDimension
  2
*D8
 10
624.96959
 20
332.597735
 30
0.0
 11
621.96959
 21
343.240593
 31
0.0
 12
-511.862374
 22
398.791797
 32
0.0
  1
5.0
  3
DIM1
100
AcDbAlignedDimension
 13
647.257613
 23
327.597735
 33
0.0
 14
648.257613
 24
332.597735
 34
0.0
 50
270.0
100
AcDbRotatedDimension
1001
ACAD
1000
DSTYLE
1002
{
1070
   144
1040
1.0
1002
}
  0
DIMENSION
  5
2A6
100
AcDbEntity
  8
DIMS
100
AcDbDimension
  2
*D7
 10
647.257613
 20
365.124963
 30
0.0
 11
658.257613
 21
368.124963
 31
0.0
 12
-511.862374
 22
398.791797
 32
0.0
  3
DIM1
100
AcDbAlignedDimension
 13
669.257613
 23
332.020385
 33
0.0
 14
647.257613
 24
332.020385
 34
0.0
100
AcDbRotatedDimension
1001
ACAD
1000
DSTYLE
1002
{
1070
   144
1040
1.0
1002
}
  0
DIMENSION
  5
2B3
100
AcDbEntity
  8
DIMS
100
AcDbDimension
  2
*D6
 10
648.257613
 20
355.24755
 30
0.0
 11
629.043327
 21
358.24755
 31
0.0
 12
-511.862374
 22
398.791797
 32
0.0
  1
%%c<> H7
  3
DIM1
100
AcDbAlignedDimension
 13
668.257613
 23
337.597735
 33
0.0
 14
648.257613
 24
337.597735
 34
0.0
100
AcDbRotatedDimension
1001
ACAD
1000
DSTYLE
1002
{
1070
   144
1040
1.0
1002
}
  0
DIMENSION
  5
2C1
100
AcDbEntity
  8
DIMS
100
AcDbDimension
  2
*D5
 10
684.54463
 20
337.597735
 30
0.0
 11
684.54463
 21
350.812021
 31
0.0
 12
-511.862374
 22
398.791797
 32
0.0
 70
   128
  3
DIM1
100
AcDbAlignedDimension
 13
667.757613
 23
320.597735
 33
0.0
 14
668.257613
 24
337.597735
 34
0.0
 50
270.0
100
AcDbRotatedDimension
1001
ACAD
1000
DSTYLE
1002
{
1070
   144
1040
1.0
1002
}
  0
TEXT
  5
2CF
100
AcDbEntity
  8
TEXT
100
AcDbText
 10
660.969779
 20
331.233512
 30
0.0
 40
2.0
  1
MA010008
 50
270.0
 41
0.9
100
AcDbText
  0
LINE
  5
2D0
100
AcDbEntity
  8
M04
100
AcDbLine
 10
647.257613
 20
332.020385
 30
0.0
 11
648.757613
 21
332.020385
 31
0.0
  0
LINE
  5
2D1
100
AcDbEntity
  8
M04
100
AcDbLine
 10
647.257613
 20
332.020385
 30
0.0
 11
647.257613
 21
327.597735
 31
0.0
  0
LINE
  5
2D2
100
AcDbEntity
  8
M04
100
AcDbLine
 10
648.257613
 20
332.597735
 30
0.0
 11
647.257613
 21
332.020385
 31
0.0
  0
LINE
  5
2D3
100
AcDbEntity
  8
M04
100
AcDbLine
 10
648.257613
 20
336.597735
 30
0.0
 11
648.257613
 21
337.597735
 31
0.0
  0
LINE
  5
2D4
100
AcDbEntity
  8
M04
100
AcDbLine
 10
649.257613
 20
337.597735
 30
0.0
 11
648.257613
 21
337.597735
 31
0.0
  0
LINE
  5
2D5
102
{ACAD_REACTORS
330
40
102
}
100
AcDbEntity
  8
M04
100
AcDbLine
 10
649.757613
 20
315.597735
 30
0.0
 11
648.757613
 21
315.597735
 31
0.0
  0
LINE
  5
2D6
102
{ACAD_REACTORS
330
40
102
}
100
AcDbEntity
  8
M04
100
AcDbLine
 10
648.757613
 20
316.597735
 30
0.0
 11
648.757613
 21
315.597735
 31
0.0
  0
LINE
  5
2D7
100
AcDbEntity
  8
M04
100
AcDbLine
 10
669.257613
 20
332.020385
 30
0.0
 11
667.757613
 21
332.020385
 31
0.0
  0
LINE
  5
2D8
100
AcDbEntity
  8
M04
100
AcDbLine
 10
669.257613
 20
332.020385
 30
0.0
 11
669.257613
 21
327.597735
 31
0.0
  0
LINE
  5
2D9
100
AcDbEntity
  8
M04
100
AcDbLine
 10
668.257613
 20
332.597735
 30
0.0
 11
669.257613
 21
332.020385
 31
0.0
  0
LINE
  5
2DA
100
AcDbEntity
  8
M04
100
AcDbLine
 10
668.257613
 20
336.597735
 30
0.0
 11
668.257613
 21
337.597735
 31
0.0
  0
LINE
  5
2DB
100
AcDbEntity
  8
M04
100
AcDbLine
 10
667.257613
 20
337.597735
 30
0.0
 11
668.257613
 21
337.597735
 31
0.0
  0
LINE
  5
2DC
102
{ACAD_REACTORS
330
40
102
}
100
AcDbEntity
  8
M04
100
AcDbLine
 10
666.757613
 20
315.597735
 30
0.0
 11
667.757613
 21
315.597735
 31
0.0
  0
LINE
  5
2DD
102
{ACAD_REACTORS
330
40
102
}
100
AcDbEntity
  8
M04
100
AcDbLine
 10
667.757613
 20
316.597735
 30
0.0
 11
667.757613
 21
315.597735
 31
0.0
  0
LINE
  5
2DE
102
{ACAD_REACTORS
330
17A
102
}
100
AcDbEntity
  8
M02
100
AcDbLine
 10
647.257613
 20
323.597735
 30
0.0
 11
647.257613
 21
320.597735
 31
0.0
  0
LINE
  5
2DF
102
{ACAD_REACTORS
330
91
102
}
100
AcDbEntity
  8
M02
100
AcDbLine
 10
669.257613
 20
323.597735
 30
0.0
 11
669.257613
 21
320.597735
 31
0.0
  0
LINE
  5
2E0
100
AcDbEntity
  8
M05
100
AcDbLine
 10
648.757613
 20
316.597735
 30
0.0
 11
667.757613
 21
316.597735
 31
0.0
  0
LINE
  5
2E1
100
AcDbEntity
  8
M05
100
AcDbLine
 10
648.257613
 20
336.597735
 30
0.0
 11
668.257613
 21
336.597735
 31
0.0
  0
LINE
  5
2E2
100
AcDbEntity
  8
M05
100
AcDbLine
 10
649.757613
 20
315.597735
 30
0.0
 11
648.757613
 21
316.597735
 31
0.0
  0
LINE
  5
2E3
100
AcDbEntity
  8
M05
100
AcDbLine
 10
667.757613
 20
316.597735
 30
0.0
 11
666.757613
 21
315.597735
 31
0.0
  0
LINE
  5
2E4
100
AcDbEntity
  8
M05
100
AcDbLine
 10
667.257613
 20
337.597735
 30
0.0
 11
668.257613
 21
336.597735
 31
0.0
  0
LINE
  5
2E5
100
AcDbEntity
  8
M05
100
AcDbLine
 10
648.257613
 20
336.597735
 30
0.0
 11
649.257613
 21
337.597735
 31
0.0
  0
LINE
  5
2E6
100
AcDbEntity
  8
M05
100
AcDbLine
 10
668.257613
 20
336.597735
 30
0.0
 11
668.257613
 21
332.597735
 31
0.0
  0
LINE
  5
2E7
100
AcDbEntity
  8
M05
100
AcDbLine
 10
648.257613
 20
336.597735
 30
0.0
 11
648.257613
 21
332.597735
 31
0.0
  0
LINE
  5
2E8
100
AcDbEntity
  8
M05
100
AcDbLine
 10
668.257613
 20
332.597735
 30
0.0
 11
648.257613
 21
332.597735
 31
0.0
  0
LINE
  5
2E9
100
AcDbEntity
  8
M05
100
AcDbLine
 10
667.257613
 20
337.597735
 30
0.0
 11
649.257613
 21
337.597735
 31
0.0
  0
LINE
  5
2EA
102
{ACAD_REACTORS
330
40
102
}
100
AcDbEntity
  8
M05
100
AcDbLine
 10
648.757613
 20
332.597735
 30
0.0
 11
648.757613
 21
316.597735
 31
0.0
  0
LINE
  5
2EB
102
{ACAD_REACTORS
330
40
102
}
100
AcDbEntity
  8
M05
100
AcDbLine
 10
667.757613
 20
332.597735
 30
0.0
 11
667.757613
 21
316.597735
 31
0.0
  0
LINE
  5
2EC
102
{ACAD_REACTORS
330
40
102
}
100
AcDbEntity
  8
M05
100
AcDbLine
 10
666.757613
 20
315.597735
 30
0.0
 11
649.757613
 21
315.597735
 31
0.0
  0
HATCH
  5
2ED
100
AcDbEntity
  8
HATCH
100
AcDbHatch
 10
0.0
 20
0.0
 30
0.0
210
0.0
220
0.0
230
1.0
  2
_U
 70
     0
 71
     0
 91
        2
 92
        7
 72
     0
 73
     1
 93
       11
 10
800.3987305768228
 20
260.597735408392
 10
794.9576125642802
 20
260.597735408392
 10
794.25761256428
 20
259.897735408392
 10
794.25761256428
 20
254.2977354083918
 10
794.95761256428
 20
253.5977354083919
 10
797.7576125642801
 20
253.5977354083919
 10
798.7576125642799
 20
254.5977354083918
 10
800.7576125642797
 20
254.5977354083919
 10
801.7576125642792
 20
253.5977354083919
 10
804.75761256428
 20
253.5977354083919
 10
804.75761256428
 20
256.2388534209349
 97
        0
 92
        7
 72
     0
 73
     1
 93
       11
 10
822.2576125642799
 20
259.897735408392
 10
821.5576125642799
 20
260.5977354083919
 10
816.1164945517368
 20
260.5977354083919
 10
811.7576125642798
 20
256.2388534209349
 10
811.7576125642798
 20
253.5977354083919
 10
814.7576125642807
 20
253.5977354083919
 10
815.7576125642803
 20
254.5977354083919
 10
817.7576125642799
 20
254.5977354083918
 10
818.7576125642797
 20
253.5977354083918
 10
821.5576125642799
 20
253.5977354083919
 10
822.2576125642797
 20
254.2977354083917
 97
        0
 75
     0
 76
     0
 52
135.0
 41
1.5
 77
     0
 78
     1
 53
135.0
 43
197.810372
 44
13.111261
 45
-1.060660171779821
 46
-1.060660171779821
 79
     0
 47
0.151518
 98
        2
 10
798.733543
 20
257.281773
 10
817.377953
 20
257.887844
  0
LINE
  5
2EE
100
AcDbEntity
  8
M05
100
AcDbLine
 10
798.757613
 20
254.597735
 30
0.0
 11
797.757613
 21
253.597735
 31
0.0
  0
LINE
  5
2EF
100
AcDbEntity
  8
M05
100
AcDbLine
 10
800.757613
 20
254.597735
 30
0.0
 11
801.757613
 21
253.597735
 31
0.0
  0
LINE
  5
2F0
100
AcDbEntity
  8
M05
100
AcDbLine
 10
798.757613
 20
254.597735
 30
0.0
 11
800.757613
 21
254.597735
 31
0.0
  0
LINE
  5
2F1
100
AcDbEntity
  8
M05
100
AcDbLine
 10
817.757613
 20
254.597735
 30
0.0
 11
818.757613
 21
253.597735
 31
0.0
  0
LINE
  5
2F2
100
AcDbEntity
  8
M05
100
AcDbLine
 10
815.757613
 20
254.597735
 30
0.0
 11
814.757613
 21
253.597735
 31
0.0
  0
LINE
  5
2F3
100
AcDbEntity
  8
M05
100
AcDbLine
 10
817.757613
 20
254.597735
 30
0.0
 11
815.757613
 21
254.597735
 31
0.0
  0
MTEXT
  5
2F4
102
{ACAD_REACTORS
330
2F5
102
}
100
AcDbEntity
  8
HATCH
 62
     2
100
AcDbMText
 10
831.897792
 20
242.756509
 30
0.0
 40
3.0
 41
0.0
 71
     1
 72
     5
  1
MA010006 (x6)
  0
LEADER
  5
2F5
100
AcDbEntity
  8
HATCH
 62
     4
100
AcDbLeader
  3
DIM1$7
 73
     0
 74
     0
 75
     1
 40
4.571429
 41
34.142857
 76
     3
 10
817.974967
 20
255.228449
 30
0.0
 10
827.397792
 20
241.256509
 30
0.0
 10
830.397792
 20
241.256509
 30
0.0
 77
   256
340
2F4
213
0.0
223
-1.5
233
0.0
1001
ACAD
1000
DSTYLE
1002
{
1070
   144
1040
1.0
1002
}
  0
LINE
  5
2F7
100
AcDbEntity
  8
M04
100
AcDbLine
 10
808.257613
 20
235.76983
 30
0.0
 11
810.557613
 21
237.097735
 31
0.0
  0
LINE
  5
2F8
100
AcDbEntity
  8
M04
100
AcDbLine
 10
805.957613
 20
237.097735
 30
0.0
 11
808.257613
 21
235.76983
 31
0.0
  0
LINE
  5
2F9
100
AcDbEntity
  8
M04
100
AcDbLine
 10
805.957613
 20
237.097735
 30
0.0
 11
810.557613
 21
237.097735
 31
0.0
  0
LINE
  5
2FA
100
AcDbEntity
  8
M04
100
AcDbLine
 10
805.257613
 20
242.158853
 30
0.0
 11
805.257613
 21
238.597735
 31
0.0
  0
LINE
  5
2FB
100
AcDbEntity
  8
M04
100
AcDbLine
 10
805.957613
 20
241.458853
 30
0.0
 11
805.957613
 21
237.097735
 31
0.0
  0
LINE
  5
2FC
100
AcDbEntity
  8
M04
100
AcDbLine
 10
811.257613
 20
242.158853
 30
0.0
 11
811.257613
 21
238.597735
 31
0.0
  0
LINE
  5
2FD
100
AcDbEntity
  8
M04
100
AcDbLine
 10
810.557613
 20
241.458853
 30
0.0
 11
810.557613
 21
237.097735
 31
0.0
  0
LINE
  5
2FE
100
AcDbEntity
  8
M05
100
AcDbLine
 10
810.557613
 20
241.458853
 30
0.0
 11
811.257613
 21
242.158853
 31
0.0
  0
LINE
  5
2FF
100
AcDbEntity
  8
M05
100
AcDbLine
 10
805.257613
 20
242.158853
 30
0.0
 11
805.957613
 21
241.458853
 31
0.0
  0
LINE
  5
300
100
AcDbEntity
  8
M05
100
AcDbLine
 10
810.557613
 20
254.238853
 30
0.0
 11
810.557613
 21
241.458853
 31
0.0
  0
LINE
  5
301
100
AcDbEntity
  8
M05
100
AcDbLine
 10
805.957613
 20
254.238853
 30
0.0
 11
805.957613
 21
241.458853
 31
0.0
  0
LINE
  5
302
100
AcDbEntity
  8
M05
100
AcDbLine
 10
805.257613
 20
242.158853
 30
0.0
 11
811.257613
 21
242.158853
 31
0.0
  0
LINE
  5
303
100
AcDbEntity
  8
M04
100
AcDbLine
 10
805.257613
 20
238.597735
 30
0.0
 11
811.257613
 21
238.597735
 31
0.0
  0
LINE
  5
304
100
AcDbEntity
  8
M05
100
AcDbLine
 10
805.957613
 20
241.458853
 30
0.0
 11
810.557613
 21
241.458853
 31
0.0
  0
LINE
  5
305
102
{ACAD_REACTORS
330
40
102
}
100
AcDbEntity
  8
M05
  6
HIDDEN
100
AcDbLine
 10
800.098731
 20
260.897735
 30
0.0
 11
799.398731
 21
261.597735
 31
0.0
  0
LINE
  5
306
102
{ACAD_REACTORS
330
40
102
}
100
AcDbEntity
  8
M05
  6
HIDDEN
100
AcDbLine
 10
816.416495
 20
260.897735
 30
0.0
 11
817.116495
 21
261.597735
 31
0.0
  0
LINE
  5
307
100
AcDbEntity
  8
M05
100
AcDbLine
 10
805.257613
 20
254.238853
 30
0.0
 11
811.257613
 21
254.238853
 31
0.0
  0
LINE
  5
308
100
AcDbEntity
  8
M05
100
AcDbLine
 10
808.807613
 20
258.738853
 30
0.0
 11
814.257613
 21
258.738853
 31
0.0
  0
LINE
  5
309
100
AcDbEntity
  8
M05
100
AcDbLine
 10
808.807613
 20
259.458853
 30
0.0
 11
814.257613
 21
259.458853
 31
0.0
  0
LINE
  5
30A
100
AcDbEntity
  8
M05
100
AcDbLine
 10
808.807613
 20
259.458853
 30
0.0
 11
808.807613
 21
257.958853
 31
0.0
  0
LINE
  5
30B
100
AcDbEntity
  8
M05
100
AcDbLine
 10
807.707613
 20
259.458853
 30
0.0
 11
807.707613
 21
257.958853
 31
0.0
  0
LINE
  5
30C
100
AcDbEntity
  8
M05
100
AcDbLine
 10
807.707613
 20
257.958853
 30
0.0
 11
808.807613
 21
257.958853
 31
0.0
  0
LINE
  5
30D
100
AcDbEntity
  8
M05
100
AcDbLine
 10
811.757613
 20
256.238853
 30
0.0
 11
811.757613
 21
253.597735
 31
0.0
  0
LINE
  5
30E
100
AcDbEntity
  8
M05
100
AcDbLine
 10
804.757613
 20
256.238853
 30
0.0
 11
804.757613
 21
253.597735
 31
0.0
  0
LINE
  5
30F
100
AcDbEntity
  8
M05
100
AcDbLine
 10
802.257613
 20
258.738853
 30
0.0
 11
807.707613
 21
258.738853
 31
0.0
  0
LINE
  5
310
102
{ACAD_REACTORS
330
40
102
}
100
AcDbEntity
  8
M05
100
AcDbLine
 10
805.257613
 20
255.738853
 30
0.0
 11
800.098731
 21
260.897735
 31
0.0
  0
LINE
  5
311
100
AcDbEntity
  8
M05
100
AcDbLine
 10
802.257613
 20
259.458853
 30
0.0
 11
802.257613
 21
258.738853
 31
0.0
  0
LINE
  5
312
102
{ACAD_REACTORS
330
40
102
}
100
AcDbEntity
  8
M05
100
AcDbLine
 10
811.257613
 20
255.738853
 30
0.0
 11
816.416495
 21
260.897735
 31
0.0
  0
LINE
  5
313
100
AcDbEntity
  8
M05
100
AcDbLine
 10
805.257613
 20
255.738853
 30
0.0
 11
811.257613
 21
255.738853
 31
0.0
  0
LINE
  5
314
100
AcDbEntity
  8
M05
100
AcDbLine
 10
805.257613
 20
255.738853
 30
0.0
 11
805.257613
 21
242.158853
 31
0.0
  0
LINE
  5
315
100
AcDbEntity
  8
M05
100
AcDbLine
 10
811.257613
 20
255.738853
 30
0.0
 11
811.257613
 21
242.158853
 31
0.0
  0
LINE
  5
316
100
AcDbEntity
  8
M05
100
AcDbLine
 10
814.257613
 20
259.458853
 30
0.0
 11
814.257613
 21
258.738853
 31
0.0
  0
LINE
  5
317
100
AcDbEntity
  8
M05
100
AcDbLine
 10
802.257613
 20
259.458853
 30
0.0
 11
807.707613
 21
259.458853
 31
0.0
  0
LINE
  5
318
102
{ACAD_REACTORS
330
40
102
}
100
AcDbEntity
  8
M05
  6
HIDDEN
100
AcDbLine
 10
794.257613
 20
260.897735
 30
0.0
 11
822.257613
 21
260.897735
 31
0.0
  0
LINE
  5
319
102
{ACAD_REACTORS
330
40
102
}
100
AcDbEntity
  8
M05
  6
HIDDEN
100
AcDbLine
 10
822.257613
 20
260.897735
 30
0.0
 11
821.557613
 21
261.597735
 31
0.0
  0
LINE
  5
31A
102
{ACAD_REACTORS
330
40
102
}
100
AcDbEntity
  8
M05
  6
HIDDEN
100
AcDbLine
 10
822.257613
 20
259.897735
 30
0.0
 11
822.257613
 21
260.897735
 31
0.0
  0
LINE
  5
31B
100
AcDbEntity
  8
M05
100
AcDbLine
 10
822.257613
 20
259.897735
 30
0.0
 11
821.557613
 21
260.597735
 31
0.0
  0
LINE
  5
31C
100
AcDbEntity
  8
M05
100
AcDbLine
 10
822.257613
 20
254.297735
 30
0.0
 11
821.557613
 21
253.597735
 31
0.0
  0
LINE
  5
31D
100
AcDbEntity
  8
M05
100
AcDbLine
 10
822.257613
 20
259.897735
 30
0.0
 11
822.257613
 21
254.297735
 31
0.0
  0
LINE
  5
31E
102
{ACAD_REACTORS
330
40
102
}
100
AcDbEntity
  8
M05
  6
HIDDEN
100
AcDbLine
 10
794.257613
 20
260.897735
 30
0.0
 11
794.957613
 21
261.597735
 31
0.0
  0
LINE
  5
31F
102
{ACAD_REACTORS
330
40
102
}
100
AcDbEntity
  8
M05
  6
HIDDEN
100
AcDbLine
 10
794.257613
 20
259.897735
 30
0.0
 11
794.257613
 21
260.897735
 31
0.0
  0
LINE
  5
320
100
AcDbEntity
  8
M05
100
AcDbLine
 10
794.257613
 20
259.897735
 30
0.0
 11
794.957613
 21
260.597735
 31
0.0
  0
LINE
  5
321
100
AcDbEntity
  8
M05
100
AcDbLine
 10
794.257613
 20
254.297735
 30
0.0
 11
794.957613
 21
253.597735
 31
0.0
  0
LINE
  5
322
102
{ACAD_REACTORS
330
22A
102
}
100
AcDbEntity
  8
M02
100
AcDbLine
 10
823.257613
 20
260.597735
 30
0.0
 11
823.257613
 21
257.597735
 31
0.0
  0
LINE
  5
323
102
{ACAD_REACTORS
330
90
102
}
100
AcDbEntity
  8
M02
100
AcDbLine
 10
793.257613
 20
260.597735
 30
0.0
 11
793.257613
 21
257.597735
 31
0.0
  0
LINE
  5
324
102
{ACAD_REACTORS
330
40
102
}
100
AcDbEntity
  8
M05
  6
HIDDEN
100
AcDbLine
 10
794.957613
 20
261.597735
 30
0.0
 11
821.557613
 21
261.597735
 31
0.0
  0
LINE
  5
325
100
AcDbEntity
  8
M05
100
AcDbLine
 10
794.257613
 20
259.897735
 30
0.0
 11
794.257613
 21
254.297735
 31
0.0
  0
LINE
  5
326
102
{ACAD_REACTORS
330
40
102
}
100
AcDbEntity
  8
CENTRE
100
AcDbLine
 10
808.257613
 20
266.106846
 30
0.0
 11
808.257613
 21
233.028508
 31
0.0
  0
LINE
  5
327
100
AcDbEntity
  8
DIMS
 62
     4
100
AcDbLine
 10
733.257613
 20
540.760844
 30
0.0
 11
733.257613
 21
538.460844
 31
0.0
  0
LINE
  5
328
100
AcDbEntity
  8
DIMS
 62
     4
100
AcDbLine
 10
733.257613
 20
542.460844
 30
0.0
 11
733.257613
 21
545.860844
 31
0.0
  0
LINE
  5
329
100
AcDbEntity
  8
DIMS
 62
     4
100
AcDbLine
 10
508.257613
 20
622.560844
 30
0.0
 11
508.257613
 21
635.860844
 31
0.0
  0
LINE
  5
32A
100
AcDbEntity
  8
DIMS
 62
     4
100
AcDbLine
 10
508.257613
 20
615.760844
 30
0.0
 11
508.257613
 21
602.460844
 31
0.0
  0
LINE
  5
32B
100
AcDbEntity
  8
DIMS
 62
     4
100
AcDbLine
 10
511.657613
 20
619.160844
 30
0.0
 11
524.957613
 21
619.160844
 31
0.0
  0
LINE
  5
32C
100
AcDbEntity
  8
DIMS
 62
     4
100
AcDbLine
 10
504.857613
 20
619.160844
 30
0.0
 11
491.557613
 21
619.160844
 31
0.0
  0
LINE
  5
32D
100
AcDbEntity
  8
DIMS
 62
     4
100
AcDbLine
 10
508.257613
 20
617.460844
 30
0.0
 11
508.257613
 21
620.860844
 31
0.0
  0
LINE
  5
32E
100
AcDbEntity
  8
DIMS
 62
     4
100
AcDbLine
 10
506.557613
 20
619.160844
 30
0.0
 11
509.957613
 21
619.160844
 31
0.0
  0
CIRCLE
  5
32F
100
AcDbEntity
  8
M03
100
AcDbCircle
 10
508.257613
 20
619.160844
 30
0.0
 40
2.3
  0
ARC
  5
330
100
AcDbEntity
  8
M03
100
AcDbCircle
 10
508.257613
 20
619.160844
 30
0.0
 40
3.0
100
AcDbArc
 50
167.784636
 51
96.923103
  0
LINE
  5
331
100
AcDbEntity
  8
M03
100
AcDbLine
 10
508.807613
 20
613.186105
 30
0.0
 11
508.807613
 21
625.135582
 31
0.0
  0
LINE
  5
332
100
AcDbEntity
  8
M03
100
AcDbLine
 10
507.707613
 20
613.186105
 30
0.0
 11
507.707613
 21
625.135582
 31
0.0
  0
CIRCLE
  5
333
100
AcDbEntity
  8
M03
100
AcDbCircle
 10
508.257613
 20
619.160844
 30
0.0
 40
15.0
  0
CIRCLE
  5
334
100
AcDbEntity
  8
M03
100
AcDbCircle
 10
508.257613
 20
619.160844
 30
0.0
 40
14.0
  0
CIRCLE
  5
335
100
AcDbEntity
  8
M03
100
AcDbCircle
 10
508.257613
 20
619.160844
 30
0.0
 40
7.858882
  0
CIRCLE
  5
336
100
AcDbEntity
  8
M03
100
AcDbCircle
 10
508.257613
 20
619.160844
 30
0.0
 40
6.0
  0
LINE
  5
337
100
AcDbEntity
  8
DIMS
 62
     4
100
AcDbLine
 10
661.657613
 20
518.160844
 30
0.0
 11
665.457613
 21
518.160844
 31
0.0
  0
LINE
  5
338
100
AcDbEntity
  8
DIMS
 62
     4
100
AcDbLine
 10
654.857613
 20
518.160844
 30
0.0
 11
651.057613
 21
518.160844
 31
0.0
  0
LINE
  5
339
100
AcDbEntity
  8
DIMS
 62
     4
100
AcDbLine
 10
656.557613
 20
518.160844
 30
0.0
 11
659.957613
 21
518.160844
 31
0.0
  0
CIRCLE
  5
33A
100
AcDbEntity
  8
M03
100
AcDbCircle
 10
658.257613
 20
518.160844
 30
0.0
 40
2.3
  0
ARC
  5
33B
100
AcDbEntity
  8
M03
100
AcDbCircle
 10
658.257613
 20
518.160844
 30
0.0
 40
3.0
100
AcDbArc
 50
167.784636
 51
96.923103
  0
CIRCLE
  5
33C
100
AcDbEntity
  8
M03
100
AcDbCircle
 10
658.257613
 20
518.160844
 30
0.0
 40
5.5
  0
CIRCLE
  5
33D
100
AcDbEntity
  8
M03
100
AcDbCircle
 10
658.257613
 20
544.160844
 30
0.0
 40
34.0
  0
LINE
  5
33E
100
AcDbEntity
  8
DIMS
 62
     4
100
AcDbLine
 10
632.257613
 20
547.560844
 30
0.0
 11
632.257613
 21
551.360844
 31
0.0
  0
LINE
  5
33F
100
AcDbEntity
  8
DIMS
 62
     4
100
AcDbLine
 10
632.257613
 20
540.760844
 30
0.0
 11
632.257613
 21
536.960844
 31
0.0
  0
LINE
  5
340
100
AcDbEntity
  8
DIMS
 62
     4
100
AcDbLine
 10
632.257613
 20
542.460844
 30
0.0
 11
632.257613
 21
545.860844
 31
0.0
  0
LINE
  5
341
100
AcDbEntity
  8
DIMS
 62
     4
100
AcDbLine
 10
684.257613
 20
547.560844
 30
0.0
 11
684.257613
 21
551.360844
 31
0.0
  0
LINE
  5
342
100
AcDbEntity
  8
DIMS
 62
     4
100
AcDbLine
 10
684.257613
 20
540.760844
 30
0.0
 11
684.257613
 21
536.960844
 31
0.0
  0
LINE
  5
343
100
AcDbEntity
  8
DIMS
 62
     4
100
AcDbLine
 10
684.257613
 20
542.460844
 30
0.0
 11
684.257613
 21
545.860844
 31
0.0
  0
LINE
  5
344
100
AcDbEntity
  8
DIMS
 62
     4
100
AcDbLine
 10
661.657613
 20
570.160844
 30
0.0
 11
665.457613
 21
570.160844
 31
0.0
  0
LINE
  5
345
100
AcDbEntity
  8
DIMS
 62
     4
100
AcDbLine
 10
654.857613
 20
570.160844
 30
0.0
 11
651.057613
 21
570.160844
 31
0.0
  0
LINE
  5
346
100
AcDbEntity
  8
DIMS
 62
     4
100
AcDbLine
 10
656.557613
 20
570.160844
 30
0.0
 11
659.957613
 21
570.160844
 31
0.0
  0
CIRCLE
  5
347
100
AcDbEntity
  8
M03
100
AcDbCircle
 10
684.257613
 20
544.160844
 30
0.0
 40
2.3
  0
ARC
  5
348
100
AcDbEntity
  8
M03
100
AcDbCircle
 10
684.257613
 20
544.160844
 30
0.0
 40
3.0
100
AcDbArc
 50
167.784636
 51
96.923103
  0
CIRCLE
  5
349
100
AcDbEntity
  8
M03
100
AcDbCircle
 10
684.257613
 20
544.160844
 30
0.0
 40
5.5
  0
CIRCLE
  5
34A
100
AcDbEntity
  8
M03
100
AcDbCircle
 10
632.257613
 20
544.160844
 30
0.0
 40
2.3
  0
ARC
  5
34B
100
AcDbEntity
  8
M03
100
AcDbCircle
 10
632.257613
 20
544.160844
 30
0.0
 40
3.0
100
AcDbArc
 50
167.784636
 51
96.923103
  0
CIRCLE
  5
34C
100
AcDbEntity
  8
M03
100
AcDbCircle
 10
632.257613
 20
544.160844
 30
0.0
 40
5.5
  0
CIRCLE
  5
34D
100
AcDbEntity
  8
M03
100
AcDbCircle
 10
658.257613
 20
570.160844
 30
0.0
 40
2.3
  0
ARC
  5
34E
100
AcDbEntity
  8
M03
100
AcDbCircle
 10
658.257613
 20
570.160844
 30
0.0
 40
3.0
100
AcDbArc
 50
167.784636
 51
96.923103
  0
CIRCLE
  5
34F
100
AcDbEntity
  8
M03
100
AcDbCircle
 10
658.257613
 20
570.160844
 30
0.0
 40
5.5
  0
CIRCLE
  5
350
100
AcDbEntity
  8
M03
100
AcDbCircle
 10
658.257613
 20
544.160844
 30
0.0
 40
20.0
  0
HATCH
  5
351
100
AcDbEntity
  8
M01
 62
     4
100
AcDbHatch
 10
0.0
 20
0.0
 30
0.0
210
0.0
220
0.0
230
1.0
  2
_U
 70
     0
 71
     0
 91
       13
 92
        7
 72
     1
 73
     1
 93
        4
 10
652.25761256428
 20
551.5263038183511
 42
0.0
 10
652.25761256428
 20
548.160843887023
 42
0.0
 10
658.2576125642799
 20
548.160843887023
 42
0.0
 10
658.2576125642799
 20
553.660843887023
 42
0.1725804109198133
 97
        0
 92
        7
 72
     1
 73
     1
 93
        4
 10
658.2576125642799
 20
548.160843887023
 42
0.0
 10
652.25761256428
 20
548.160843887023
 42
0.0
 10
652.25761256428
 20
544.160843887023
 42
0.0
 10
654.2576125642799
 20
544.160843887023
 42
-0.4142135623730992
 97
        0
 92
       22
 72
     1
 73
     1
 93
        3
 10
658.2576125642799
 20
548.160843887023
 42
0.4142135623730909
 10
654.2576125642799
 20
544.160843887023
 42
0.0
 10
658.2576125642799
 20
544.160843887023
 42
0.0
 97
        0
 92
        7
 72
     1
 73
     1
 93
        4
 10
652.25761256428
 20
548.160843887023
 42
0.0
 10
649.6407685944729
 20
548.160843887023
 42
0.1090809576248918
 10
648.7576125642799
 20
544.160843887023
 42
0.0
 10
652.25761256428
 20
544.160843887023
 42
0.0
 97
        0
 92
       22
 72
     1
 73
     1
 93
        3
 10
652.25761256428
 20
551.526303818351
 42
0.1136360637262233
 10
649.6407685944729
 20
548.160843887023
 42
0.0
 10
652.2576125642797
 20
548.160843887023
 42
0.0
 97
        0
 92
        7
 72
     1
 73
     1
 93
        4
 10
648.25761256428
 20
544.160843887023
 42
0.0
 10
648.7576125642799
 20
544.160843887023
 42
-0.1090809576248918
 10
649.6407685944729
 20
548.160843887023
 42
0.0
 10
649.0924611743682
 20
548.160843887023
 42
0.1032437171755979
 97
        0
 92
        7
 72
     1
 73
     1
 93
        4
 10
649.0924611743682
 20
548.160843887023
 42
0.0
 10
649.6407685944729
 20
548.160843887023
 42
-0.1136360637262264
 10
652.25761256428
 20
551.5263038183511
 42
0.0
 10
652.25761256428
 20
552.160843887023
 42
0.1296640194076911
 97
        0
 92
        7
 72
     1
 73
     1
 93
        4
 10
658.2576125642799
 20
553.660843887023
 42
0.0
 10
658.2576125642799
 20
554.160843887023
 42
0.1622776601683798
 10
652.25761256428
 20
552.160843887023
 42
0.0
 10
652.25761256428
 20
551.5263038183511
 42
-0.1725804109198127
 97
        0
 92
       23
 72
     1
 73
     1
 93
        3
 10
658.2576125642799
 20
544.160843887023
 42
0.0
 10
658.2576125642799
 20
540.160843887023
 42
0.4142135623730909
 10
662.2576125642799
 20
544.160843887023
 42
0.0
 97
        0
 92
        7
 72
     1
 73
     1
 93
        4
 10
662.2576125642799
 20
544.160843887023
 42
-0.4142135623730909
 10
658.2576125642799
 20
540.160843887023
 42
0.0
 10
666.8744565340871
 20
540.160843887023
 42
0.1090809576248888
 10
667.7576125642799
 20
544.160843887023
 42
0.0
 97
        0
 92
       23
 72
     1
 73
     1
 93
        3
 10
658.2576125642799
 20
540.160843887023
 42
0.0
 10
658.2576125642799
 20
534.660843887023
 42
0.2919418509678903
 10
666.8744565340871
 20
540.160843887023
 42
0.0
 97
        0
 92
        7
 72
     1
 73
     1
 93
        4
 10
667.4227639541916
 20
540.160843887023
 42
0.0
 10
666.8744565340871
 20
540.160843887023
 42
-0.2919418509678903
 10
658.2576125642799
 20
534.660843887023
 42
0.0
 10
658.2576125642799
 20
534.160843887023
 42
0.2982166266986068
 97
        0
 92
        7
 72
     1
 73
     1
 93
        4
 10
668.2576125642799
 20
544.160843887023
 42
0.0
 10
667.7576125642799
 20
544.160843887023
 42
-0.1090809576248888
 10
666.8744565340871
 20
540.160843887023
 42
0.0
 10
667.4227639541916
 20
540.160843887023
 42
0.1032437171755951
 97
        0
 75
     0
 76
     0
 52
45.0
 41
1.0
 77
     1
 78
     2
 53
45.0
 43
102.810372
 44
111.601618
 45
-0.7071067811865475
 46
0.7071067811865476
 79
     0
 53
135.0
 43
102.810372
 44
111.601618
 45
-0.7071067811865476
 46
-0.7071067811865475
 79
     0
 47
0.087843
 98
       13
 10
655.588582
 20
550.97638
 10
654.006757
 20
546.584233
 10
656.994649
 20
546.057175
 10
651.106744
 20
546.057175
 10
651.54614
 20
549.043835
 10
648.821886
 20
546.759919
 10
651.721899
 20
551.415595
 10
654.358274
 20
553.08461
 10
659.982542
 20
542.982673
 10
664.112863
 20
542.192087
 10
661.828005
 20
538.590527
 10
660.773455
 20
534.637595
 10
667.891669
 20
542.279929
  0
CIRCLE
  5
352
100
AcDbEntity
  8
M01
100
AcDbCircle
 10
658.257613
 20
544.160844
 30
0.0
 40
10.0
  0
CIRCLE
  5
353
100
AcDbEntity
  8
M03
100
AcDbCircle
 10
658.257613
 20
544.160844
 30
0.0
 40
9.5
  0
WIPEOUT
  5
354
100
AcDbEntity
  8
TEXT
 92
      140
310
8C00000001000000840000000600000005000000AE2B40FDF79988404A114171544B71400000000000000000BD15E10BE21289404A114171544B71400000000000000000BE15E10BE212894049114171548B71400000000000000000B02B40FDF79988404B114171548B71400000000000000000AE2B40FDF79988404A1141
310
71544B71400000000000000000
100
AcDbWipeout
 90
        0
 10
752.544735
 20
230.892477
 30
0.0
 11
49.815639
 21
0.0
 31
0.0
 12
0.0
 22
49.815639
 32
0.0
 13
0.0
 23
0.0
340
0
 70
     7
280
     1
281
    50
282
    50
283
     0
360
0
 71
     2
 91
        5
 14
0.196596
 24
-0.419704
 14
0.5
 24
-0.419704
 14
0.5
 24
-0.5
 14
0.196596
 24
-0.5
 14
0.196596
 24
-0.419704
  0
TEXT
  5
355
102
{ACAD_REACTORS
330
40
102
}
100
AcDbEntity
  8
TEXT
100
AcDbText
 10
788.246089
 20
277.708116
 30
0.0
 40
2.0
  1
MM010109
 41
0.9
100
AcDbText
  0
CIRCLE
  5
356
102
{ACAD_REACTORS
330
40
102
}
100
AcDbEntity
  8
M01
100
AcDbCircle
 10
583.257613
 20
303.597735
 30
0.0
 40
4.0
  0
LINE
  5
357
102
{ACAD_REACTORS
330
40
102
}
100
AcDbEntity
  8
M01
100
AcDbLine
 10
662.257613
 20
277.597735
 30
0.0
 11
733.257613
 21
277.597735
 31
0.0
  0
LINE
  5
358
100
AcDbEntity
  8
M01
100
AcDbLine
 10
658.257613
 20
281.597735
 30
0.0
 11
662.257613
 21
277.597735
 31
0.0
  0
LINE
  5
359
100
AcDbEntity
  8
M01
100
AcDbLine
 10
654.257613
 20
277.597735
 30
0.0
 11
658.257613
 21
281.597735
 31
0.0
  0
LINE
  5
35A
100
AcDbEntity
  8
M01
100
AcDbLine
 10
587.257613
 20
285.597735
 30
0.0
 11
583.257613
 21
281.597735
 31
0.0
  0
ARC
  5
35B
102
{ACAD_REACTORS
330
40
102
}
100
AcDbEntity
  8
M01
100
AcDbCircle
 10
583.257613
 20
281.597735
 30
0.0
 40
4.0
100
AcDbArc
 50
180.0
 51
270.0
  0
LINE
  5
35C
102
{ACAD_REACTORS
330
40
102
}
100
AcDbEntity
  8
M01
100
AcDbLine
 10
587.257613
 20
303.597735
 30
0.0
 11
587.257613
 21
285.597735
 31
0.0
  0
LINE
  5
35D
102
{ACAD_REACTORS
330
40
102
}
100
AcDbEntity
  8
M01
100
AcDbLine
 10
579.257613
 20
303.597735
 30
0.0
 11
579.257613
 21
281.597735
 31
0.0
  0
LINE
  5
35E
100
AcDbEntity
  8
CENTRE
100
AcDbLine
 10
583.257613
 20
311.597735
 30
0.0
 11
583.257613
 21
273.597735
 31
0.0
  0
LINE
  5
35F
100
AcDbEntity
  8
M01
100
AcDbLine
 10
729.257613
 20
285.597735
 30
0.0
 11
733.257613
 21
281.597735
 31
0.0
  0
ARC
  5
360
102
{ACAD_REACTORS
330
40
102
}
100
AcDbEntity
  8
M01
100
AcDbCircle
 10
733.257613
 20
281.597735
 30
0.0
 40
4.0
100
AcDbArc
 50
270.0
 51
0.0
  0
LINE
  5
361
100
AcDbEntity
  8
CENTRE
100
AcDbLine
 10
575.257613
 20
281.597735
 30
0.0
 11
741.257613
 21
281.597735
 31
0.0
  0
LINE
  5
362
102
{ACAD_REACTORS
330
40
102
}
100
AcDbEntity
  8
M01
100
AcDbLine
 10
583.257613
 20
277.597735
 30
0.0
 11
654.257613
 21
277.597735
 31
0.0
  0
LINE
  5
363
102
{ACAD_REACTORS
330
40
102
}
100
AcDbEntity
  8
M01
100
AcDbLine
 10
587.257613
 20
285.597735
 30
0.0
 11
729.257613
 21
285.597735
 31
0.0
  0
ARC
  5
364
102
{ACAD_REACTORS
330
40
102
}
100
AcDbEntity
  8
M01
100
AcDbCircle
 10
733.257613
 20
303.597735
 30
0.0
 40
4.0
100
AcDbArc
 50
90.0
 51
180.0
  0
LINE
  5
365
100
AcDbEntity
  8
M01
100
AcDbLine
 10
733.257613
 20
303.597735
 30
0.0
 11
737.257613
 21
299.597735
 31
0.0
  0
LINE
  5
366
102
{ACAD_REACTORS
330
40
102
}
100
AcDbEntity
  8
M01
100
AcDbLine
 10
729.257613
 20
303.597735
 30
0.0
 11
729.257613
 21
285.597735
 31
0.0
  0
LINE
  5
367
102
{ACAD_REACTORS
330
40
102
}
100
AcDbEntity
  8
M01
100
AcDbLine
 10
737.257613
 20
299.597735
 30
0.0
 11
737.257613
 21
281.597735
 31
0.0
  0
LINE
  5
368
100
AcDbEntity
  8
CENTRE
100
AcDbLine
 10
733.257613
 20
311.597735
 30
0.0
 11
733.257613
 21
273.597735
 31
0.0
  0
LINE
  5
369
102
{ACAD_REACTORS
330
40
102
}
100
AcDbEntity
  8
M01
100
AcDbLine
 10
808.257613
 20
299.597735
 30
0.0
 11
737.257613
 21
299.597735
 31
0.0
  0
ARC
  5
36A
102
{ACAD_REACTORS
330
40
102
}
100
AcDbEntity
  8
M01
100
AcDbCircle
 10
808.257613
 20
303.597735
 30
0.0
 40
4.0
100
AcDbArc
 50
270.0
 51
0.0
  0
LINE
  5
36B
102
{ACAD_REACTORS
330
40
102
}
100
AcDbEntity
  8
M01
100
AcDbLine
 10
812.257613
 20
320.597735
 30
0.0
 11
812.257613
 21
303.597735
 31
0.0
  0
LINE
  5
36C
102
{ACAD_REACTORS
330
40
102
}
100
AcDbEntity
  8
M01
100
AcDbLine
 10
804.257613
 20
320.597735
 30
0.0
 11
804.257613
 21
307.597735
 31
0.0
  0
LINE
  5
36D
102
{ACAD_REACTORS
330
40
102
}
100
AcDbEntity
  8
M01
100
AcDbLine
 10
804.257613
 20
307.597735
 30
0.0
 11
733.257613
 21
307.597735
 31
0.0
  0
CIRCLE
  5
36E
100
AcDbEntity
  8
M03
100
AcDbCircle
 10
658.257613
 20
544.160844
 30
0.0
 40
4.0
  0
LINE
  5
36F
102
{ACAD_REACTORS
330
91
102
}
100
AcDbEntity
  8
M02
100
AcDbLine
 10
826.257613
 20
320.597735
 30
0.0
 11
826.257613
 21
323.597735
 31
0.0
  0
LINE
  5
370
102
{ACAD_REACTORS
330
91
102
}
100
AcDbEntity
  8
M02
100
AcDbLine
 10
790.257613
 20
320.597735
 30
0.0
 11
790.257613
 21
323.597735
 31
0.0
  0
LINE
  5
371
100
AcDbEntity
  8
CENTRE
100
AcDbLine
 10
725.257613
 20
303.597735
 30
0.0
 11
816.257613
 21
303.597735
 31
0.0
  0
LINE
  5
372
100
AcDbEntity
  8
M01
100
AcDbLine
 10
808.257613
 20
303.597735
 30
0.0
 11
804.257613
 21
307.597735
 31
0.0
  0
LINE
  5
373
100
AcDbEntity
  8
CENTRE
100
AcDbLine
 10
808.257613
 20
333.40933
 30
0.0
 11
808.257613
 21
295.597735
 31
0.0
  0
LWPOLYLINE
  5
374
100
AcDbEntity
  8
M01
 62
     4
100
AcDbPolyline
 90
        2
 70
     0
 43
0.0
 10
855.504825
 20
594.328277
 10
864.407317
 20
609.176285
1001
ACAD
1000
DSTYLE
1002
{
1070
   144
1040
1.0
1002
}
  0
SOLID
  5
375
100
AcDbEntity
  8
M01
 62
     4
100
AcDbTrace
 10
855.075998
 20
594.585391
 30
0.0
 11
853.962142
 21
591.755316
 31
0.0
 12
855.933651
 22
594.071163
 32
0.0
 13
855.933651
 23
594.071163
 33
0.0
1001
ACAD
1000
DSTYLE
1002
{
1070
   144
1040
1.0
1002
}
  0
LINE
  5
376
100
AcDbEntity
  8
M01
 62
     4
100
AcDbLine
 10
754.10103
 20
433.334849
 30
0.0
 11
751.10103
 21
433.334849
 31
0.0
1001
ACAD
1000
DSTYLE
1002
{
1070
   144
1040
1.0
1002
}
  0
LINE
  5
377
100
AcDbEntity
  8
M01
 62
     4
100
AcDbLine
 10
770.10554
 20
463.493033
 30
0.0
 11
754.10103
 21
433.334849
 31
0.0
1001
ACAD
1000
DSTYLE
1002
{
1070
   144
1040
1.0
1002
}
  0
SOLID
  5
378
100
AcDbEntity
  8
M01
 62
     4
100
AcDbTrace
 10
769.663879
 20
463.727416
 30
0.0
 11
771.511839
 21
466.143
 31
0.0
 12
770.547202
 22
463.25865
 32
0.0
 13
770.547202
 23
463.25865
 33
0.0
1001
ACAD
1000
DSTYLE
1002
{
1070
   144
1040
1.0
1002
}
  0
MTEXT
  5
379
100
AcDbEntity
  8
DIMS
 62
     2
100
AcDbMText
 10
714.7402
 20
432.881019
 30
0.0
 40
3.0
 41
0.0
 71
     4
 72
     5
  1
HGX10037 (x2)
  0
LINE
  5
37A
100
AcDbEntity
  8
M01
100
AcDbLine
 10
411.021945
 20
266.609724
 30
0.0
 11
409.815216
 21
264.630015
 31
0.0
  0
LINE
  5
37B
100
AcDbEntity
  8
M01
100
AcDbLine
 10
399.568718
 20
258.875756
 30
0.0
 11
390.993906
 21
258.875756
 31
0.0
  0
LINE
  5
37C
100
AcDbEntity
  8
M01
100
AcDbLine
 10
399.568718
 20
262.875756
 30
0.0
 11
390.993906
 21
262.875756
 31
0.0
  0
ARC
  5
37D
100
AcDbEntity
  8
M01
100
AcDbCircle
 10
399.568718
 20
270.875756
 30
0.0
 40
12.0
100
AcDbArc
 50
270.0
 51
328.635651
  0
ARC
  5
37E
100
AcDbEntity
  8
M01
100
AcDbCircle
 10
399.568718
 20
270.875756
 30
0.0
 40
8.0
100
AcDbArc
 50
270.0
 51
321.153546
  0
LINE
  5
37F
100
AcDbEntity
  8
M01
100
AcDbLine
 10
414.646398
 20
280.241084
 30
0.0
 11
408.41229
 21
270.013672
 31
0.0
  0
LINE
  5
380
100
AcDbEntity
  8
M01
100
AcDbLine
 10
418.061897
 20
278.159171
 30
0.0
 11
417.864688
 21
277.835638
 31
0.0
  0
LINE
  5
381
100
AcDbEntity
  8
M01
100
AcDbLine
 10
425.064305
 20
279.597735
 30
0.0
 11
425.657613
 21
279.597735
 31
0.0
  0
LINE
  5
382
100
AcDbEntity
  8
M01
100
AcDbLine
 10
420.623521
 20
283.597735
 30
0.0
 11
423.349365
 21
283.597735
 31
0.0
  0
ARC
  5
383
100
AcDbEntity
  8
M01
100
AcDbCircle
 10
420.623521
 20
276.597735
 30
0.0
 40
3.0
100
AcDbArc
 50
118.327309
 51
148.635651
  0
ARC
  5
384
100
AcDbEntity
  8
M01
100
AcDbCircle
 10
420.623521
 20
276.597735
 30
0.0
 40
7.0
100
AcDbArc
 50
90.0
 51
148.635651
  0
ARC
  5
385
100
AcDbEntity
  8
M01
100
AcDbCircle
 10
425.657613
 20
276.597735
 30
0.0
 40
7.0
100
AcDbArc
 50
0.0
 51
67.321321
  0
ARC
  5
386
100
AcDbEntity
  8
M01
100
AcDbCircle
 10
425.657613
 20
276.597735
 30
0.0
 40
3.0
100
AcDbArc
 50
0.0
 51
90.0
  0
ARC
  5
387
100
AcDbEntity
  8
M01
100
AcDbCircle
 10
406.841138
 20
277.857873
 30
0.0
 40
12.0
100
AcDbArc
 50
270.0
 51
316.413007
  0
ARC
  5
388
100
AcDbEntity
  8
M01
100
AcDbCircle
 10
406.841138
 20
277.857873
 30
0.0
 40
8.0
100
AcDbArc
 50
270.0
 51
316.413007
  0
LINE
  5
389
100
AcDbEntity
  8
M01
100
AcDbLine
 10
428.657613
 20
276.597735
 30
0.0
 11
428.657613
 21
271.597735
 31
0.0
  0
LINE
  5
38A
100
AcDbEntity
  8
M01
100
AcDbLine
 10
428.657613
 20
275.597735
 30
0.0
 11
432.657613
 21
275.597735
 31
0.0
  0
LINE
  5
38B
100
AcDbEntity
  8
M01
100
AcDbLine
 10
428.657613
 20
271.597735
 30
0.0
 11
432.657613
 21
271.597735
 31
0.0
  0
LINE
  5
38C
100
AcDbEntity
  8
M01
100
AcDbLine
 10
432.657613
 20
319.597735
 30
0.0
 11
432.657613
 21
292.373197
 31
0.0
  0
LINE
  5
38D
100
AcDbEntity
  8
M01
100
AcDbLine
 10
428.657613
 20
292.373197
 30
0.0
 11
428.657613
 21
309.597735
 31
0.0
  0
ARC
  5
38E
100
AcDbEntity
  8
M01
100
AcDbCircle
 10
420.657613
 20
292.373197
 30
0.0
 40
12.0
100
AcDbArc
 50
316.413007
 51
360.0
  0
ARC
  5
38F
100
AcDbEntity
  8
M01
100
AcDbCircle
 10
420.657613
 20
292.373197
 30
0.0
 40
8.0
100
AcDbArc
 50
316.413007
 51
360.0
  0
LINE
  5
390
100
AcDbEntity
  8
M01
100
AcDbLine
 10
428.657613
 20
305.597735
 30
0.0
 11
432.657613
 21
305.597735
 31
0.0
  0
LINE
  5
391
100
AcDbEntity
  8
M01
100
AcDbLine
 10
428.657613
 20
309.597735
 30
0.0
 11
432.657613
 21
309.597735
 31
0.0
  0
LINE
  5
392
100
AcDbEntity
  8
M01
100
AcDbLine
 10
415.533079
 20
269.584411
 30
0.0
 11
429.349553
 21
284.099735
 31
0.0
  0
LINE
  5
393
100
AcDbEntity
  8
M01
100
AcDbLine
 10
412.635765
 20
272.342232
 30
0.0
 11
426.45224
 21
286.857556
 31
0.0
  0
LINE
  5
394
100
AcDbEntity
  8
M01
100
AcDbLine
 10
391.002648
 20
265.857873
 30
0.0
 11
406.841138
 21
265.857873
 31
0.0
  0
LINE
  5
395
100
AcDbEntity
  8
M01
100
AcDbLine
 10
391.002648
 20
269.857873
 30
0.0
 11
406.841138
 21
269.857873
 31
0.0
  0
LINE
  5
396
100
AcDbEntity
  8
M01
100
AcDbLine
 10
447.313512
 20
269.847735
 30
0.0
 11
447.313512
 21
263.347735
 31
0.0
  0
LINE
  5
397
100
AcDbEntity
  8
M01
100
AcDbLine
 10
439.201713
 20
269.847735
 30
0.0
 11
439.201713
 21
263.347735
 31
0.0
  0
LINE
  5
398
100
AcDbEntity
  8
M01
100
AcDbLine
 10
447.313512
 20
269.847735
 30
0.0
 11
449.257613
 21
269.847735
 31
0.0
  0
ARC
  5
399
100
AcDbEntity
  8
M01
100
AcDbCircle
 10
445.752263
 20
271.097735
 30
0.0
 40
2.0
100
AcDbArc
 50
270.0
 51
321.317813
  0
ARC
  5
39A
100
AcDbEntity
  8
M01
100
AcDbCircle
 10
440.762962
 20
271.097735
 30
0.0
 40
2.0
100
AcDbArc
 50
218.682187
 51
270.0
  0
LINE
  5
39B
100
AcDbEntity
  8
M01
100
AcDbLine
 10
437.257613
 20
269.847735
 30
0.0
 11
439.201713
 21
269.847735
 31
0.0
  0
LINE
  5
39C
100
AcDbEntity
  8
M01
100
AcDbLine
 10
440.762962
 20
269.097735
 30
0.0
 11
445.752263
 21
269.097735
 31
0.0
  0
LINE
  5
39D
100
AcDbEntity
  8
M01
100
AcDbLine
 10
447.313512
 20
263.347735
 30
0.0
 11
449.257613
 21
263.347735
 31
0.0
  0
ARC
  5
39E
100
AcDbEntity
  8
M01
100
AcDbCircle
 10
445.752263
 20
262.097735
 30
0.0
 40
2.0
100
AcDbArc
 50
38.682187
 51
90.0
  0
ARC
  5
39F
100
AcDbEntity
  8
M01
100
AcDbCircle
 10
440.762962
 20
262.097735
 30
0.0
 40
2.0
100
AcDbArc
 50
90.0
 51
141.317813
  0
LINE
  5
3A0
100
AcDbEntity
  8
M01
100
AcDbLine
 10
437.257613
 20
263.347735
 30
0.0
 11
439.201713
 21
263.347735
 31
0.0
  0
LINE
  5
3A1
100
AcDbEntity
  8
M01
100
AcDbLine
 10
440.762962
 20
264.097735
 30
0.0
 11
445.752263
 21
264.097735
 31
0.0
  0
LINE
  5
3A2
100
AcDbEntity
  8
DIMS
 62
     4
100
AcDbLine
 10
827.116346
 20
264.597735
 30
0.0
 11
824.816346
 21
264.597735
 31
0.0
  0
LINE
  5
3A3
100
AcDbEntity
  8
DIMS
 62
     4
100
AcDbLine
 10
833.916346
 20
264.597735
 30
0.0
 11
836.216346
 21
264.597735
 31
0.0
  0
LINE
  5
3A4
100
AcDbEntity
  8
DIMS
 62
     4
100
AcDbLine
 10
830.516346
 20
261.197735
 30
0.0
 11
830.516346
 21
258.897735
 31
0.0
  0
LINE
  5
3A5
100
AcDbEntity
  8
DIMS
 62
     4
100
AcDbLine
 10
830.516346
 20
267.997735
 30
0.0
 11
830.516346
 21
270.297735
 31
0.0
  0
LINE
  5
3A6
100
AcDbEntity
  8
DIMS
 62
     4
100
AcDbLine
 10
832.216346
 20
264.597735
 30
0.0
 11
828.816346
 21
264.597735
 31
0.0
  0
LINE
  5
3A7
100
AcDbEntity
  8
DIMS
 62
     4
100
AcDbLine
 10
830.516346
 20
266.297735
 30
0.0
 11
830.516346
 21
262.897735
 31
0.0
  0
LINE
  5
3A8
100
AcDbEntity
  8
DIMS
 62
     4
100
AcDbLine
 10
827.116346
 20
316.597735
 30
0.0
 11
824.816346
 21
316.597735
 31
0.0
  0
LINE
  5
3A9
100
AcDbEntity
  8
DIMS
 62
     4
100
AcDbLine
 10
833.916346
 20
316.597735
 30
0.0
 11
836.216346
 21
316.597735
 31
0.0
  0
LINE
  5
3AA
100
AcDbEntity
  8
DIMS
 62
     4
100
AcDbLine
 10
830.516346
 20
313.197735
 30
0.0
 11
830.516346
 21
310.897735
 31
0.0
  0
LINE
  5
3AB
100
AcDbEntity
  8
DIMS
 62
     4
100
AcDbLine
 10
830.516346
 20
319.997735
 30
0.0
 11
830.516346
 21
322.297735
 31
0.0
  0
LINE
  5
3AC
100
AcDbEntity
  8
DIMS
 62
     4
100
AcDbLine
 10
832.216346
 20
316.597735
 30
0.0
 11
828.816346
 21
316.597735
 31
0.0
  0
LINE
  5
3AD
100
AcDbEntity
  8
DIMS
 62
     4
100
AcDbLine
 10
830.516346
 20
318.297735
 30
0.0
 11
830.516346
 21
314.897735
 31
0.0
  0
HATCH
  5
3AE
100
AcDbEntity
  8
HATCH
100
AcDbHatch
 10
0.0
 20
0.0
 30
0.0
210
0.0
220
0.0
230
1.0
  2
_U
 70
     0
 71
     1
 91
        2
 92
        7
 72
     1
 73
     1
 93
        2
 10
834.5163457646993
 20
316.5977354083924
 42
1.0
 10
826.5163457646993
 20
316.5977354083924
 42
1.0
 97
        1
330
3B4
 92
        7
 72
     1
 73
     1
 93
        2
 10
834.5163457646993
 20
264.5977354083924
 42
1.0
 10
826.5163457646993
 20
264.5977354083924
 42
1.0
 97
        1
330
3B3
 75
     0
 76
     0
 52
135.0
 41
0.8
 77
     0
 78
     1
 53
225.0
 43
1240.075572
 44
1095.187843
 45
-0.565685424949238
 46
0.565685424949238
 79
     0
 47
0.095608
 98
        2
 10
830.816987
 20
316.464387
 10
829.66969
 20
277.440196
  0
LINE
  5
3AF
102
{ACAD_REACTORS
330
40
102
}
100
AcDbEntity
  8
M01
100
AcDbLine
 10
834.516346
 20
264.597735
 30
0.0
 11
834.516346
 21
260.597735
 31
0.0
  0
LINE
  5
3B0
102
{ACAD_REACTORS
330
40
102
}
100
AcDbEntity
  8
M01
100
AcDbLine
 10
826.516346
 20
264.597735
 30
0.0
 11
826.516346
 21
260.597735
 31
0.0
  0
LINE
  5
3B1
102
{ACAD_REACTORS
330
40
102
}
100
AcDbEntity
  8
M01
100
AcDbLine
 10
834.516346
 20
316.597735
 30
0.0
 11
834.516346
 21
320.597735
 31
0.0
  0
LINE
  5
3B2
102
{ACAD_REACTORS
330
40
102
}
100
AcDbEntity
  8
M01
100
AcDbLine
 10
826.516346
 20
316.597735
 30
0.0
 11
826.516346
 21
320.597735
 31
0.0
  0
CIRCLE
  5
3B3
102
{ACAD_REACTORS
330
3AE
330
40
102
}
100
AcDbEntity
  8
M01
100
AcDbCircle
 10
830.516346
 20
264.597735
 30
0.0
 40
4.0
  0
CIRCLE
  5
3B4
102
{ACAD_REACTORS
330
3AE
330
40
102
}
100
AcDbEntity
  8
M01
100
AcDbCircle
 10
830.516346
 20
316.597735
 30
0.0
 40
4.0
  0
DIMENSION
  5
3B5
100
AcDbEntity
  8
DIMS
100
AcDbDimension
  2
*D4
 10
478.757613
 20
355.2739
 30
0.0
 11
509.543327
 21
358.2739
 31
0.0
 12
221.992078
 22
316.077785
 32
0.0
  1
%%c<> H7
  3
DIM1
100
AcDbAlignedDimension
 13
470.757613
 23
340.597735
 33
0.0
 14
478.757613
 24
340.597735
 34
0.0
100
AcDbRotatedDimension
1001
ACAD
1000
DSTYLE
1002
{
1070
   144
1040
1.0
1002
}
  0
DIMENSION
  5
3C3
100
AcDbEntity
  8
DIMS
100
AcDbDimension
  2
*D3
 10
638.257613
 20
209.282619
 30
0.0
 11
658.257613
 21
212.282619
 31
0.0
 12
-192.561382
 22
276.848811
 32
0.0
  1
%%c<> H7
  3
DIM1
100
AcDbAlignedDimension
 13
678.257613
 23
245.597735
 33
0.0
 14
638.257613
 24
245.597735
 34
0.0
100
AcDbRotatedDimension
1001
ACAD
1000
DSTYLE
1002
{
1070
   144
1040
1.0
1002
}
  0
DIMENSION
  5
3D0
100
AcDbEntity
  8
DIMS
100
AcDbDimension
  2
*D2
 10
878.73031
 20
327.597735
 30
0.0
 11
874.64031
 21
338.240593
 31
0.0
 12
1.09
 22
0.0
 32
0.0
  1
7.0
  3
DIM1
100
AcDbAlignedDimension
 13
838.257613
 23
320.597735
 33
0.0
 14
847.257613
 24
327.597735
 34
0.0
 50
90.0
100
AcDbRotatedDimension
1001
ACAD
1000
DSTYLE
1002
{
1070
   144
1040
1.0
1002
}
  0
DIMENSION
  5
3DE
100
AcDbEntity
  8
DIMS
100
AcDbDimension
  2
*D1
 10
878.73031
 20
253.597735
 30
0.0
 11
874.64031
 21
242.954878
 31
0.0
 12
1.09
 22
0.0
 32
0.0
  1
7.0
  3
DIM1
100
AcDbAlignedDimension
 13
838.257613
 23
260.597735
 33
0.0
 14
858.771004
 24
253.597735
 34
0.0
 50
90.0
100
AcDbRotatedDimension
1001
ACAD
1000
DSTYLE
1002
{
1070
   144
1040
1.0
1002
}
  0
DIMENSION
  5
3EC
100
AcDbEntity
  8
DIMS
100
AcDbDimension
  2
*D0
 10
878.73031
 20
260.597735
 30
0.0
 11
874.64031
 21
290.597735
 31
0.0
 12
1.09
 22
0.0
 32
0.0
  3
DIM1
100
AcDbAlignedDimension
 13
838.257613
 23
320.597735
 33
0.0
 14
840.257613
 24
260.597735
 34
0.0
 50
90.0
100
AcDbRotatedDimension
1001
ACAD
1000
DSTYLE
1002
{
1070
   144
1040
1.0
1002
}
  0
LINE
  5
3F9
100
AcDbEntity
  8
M01
100
AcDbLine
 10
454.257613
 20
271.597735
 30
0.0
 11
454.257613
 21
261.597735
 31
0.0
  0
LINE
  5
3FA
100
AcDbEntity
  8
M01
100
AcDbLine
 10
447.313512
 20
317.847735
 30
0.0
 11
447.313512
 21
311.347735
 31
0.0
  0
LINE
  5
3FB
100
AcDbEntity
  8
M01
100
AcDbLine
 10
439.201713
 20
317.847735
 30
0.0
 11
439.201713
 21
311.347735
 31
0.0
  0
LINE
  5
3FC
100
AcDbEntity
  8
M01
100
AcDbLine
 10
447.313512
 20
317.847735
 30
0.0
 11
449.257613
 21
317.847735
 31
0.0
  0
ARC
  5
3FD
100
AcDbEntity
  8
M01
100
AcDbCircle
 10
445.752263
 20
319.097735
 30
0.0
 40
2.0
100
AcDbArc
 50
270.0
 51
321.317813
  0
ARC
  5
3FE
100
AcDbEntity
  8
M01
100
AcDbCircle
 10
440.762962
 20
319.097735
 30
0.0
 40
2.0
100
AcDbArc
 50
218.682187
 51
270.0
  0
LINE
  5
3FF
100
AcDbEntity
  8
M01
100
AcDbLine
 10
437.257613
 20
317.847735
 30
0.0
 11
439.201713
 21
317.847735
 31
0.0
  0
LINE
  5
400
100
AcDbEntity
  8
M01
100
AcDbLine
 10
440.762962
 20
317.097735
 30
0.0
 11
445.752263
 21
317.097735
 31
0.0
  0
LINE
  5
401
100
AcDbEntity
  8
M01
100
AcDbLine
 10
447.313512
 20
311.347735
 30
0.0
 11
449.257613
 21
311.347735
 31
0.0
  0
ARC
  5
402
100
AcDbEntity
  8
M01
100
AcDbCircle
 10
445.752263
 20
310.097735
 30
0.0
 40
2.0
100
AcDbArc
 50
38.682187
 51
90.0
  0
ARC
  5
403
100
AcDbEntity
  8
M01
100
AcDbCircle
 10
440.762962
 20
310.097735
 30
0.0
 40
2.0
100
AcDbArc
 50
90.0
 51
141.317813
  0
LINE
  5
404
100
AcDbEntity
  8
M01
100
AcDbLine
 10
437.257613
 20
311.347735
 30
0.0
 11
439.201713
 21
311.347735
 31
0.0
  0
LINE
  5
405
100
AcDbEntity
  8
M01
100
AcDbLine
 10
440.762962
 20
312.097735
 30
0.0
 11
445.752263
 21
312.097735
 31
0.0
  0
LINE
  5
406
100
AcDbEntity
  8
M01
100
AcDbLine
 10
454.257613
 20
319.597735
 30
0.0
 11
454.257613
 21
309.597735
 31
0.0
  0
LINE
  5
407
100
AcDbEntity
  8
M01
100
AcDbLine
 10
449.257613
 20
261.597735
 30
0.0
 11
470.257613
 21
261.597735
 31
0.0
  0
LINE
  5
408
100
AcDbEntity
  8
M01
100
AcDbLine
 10
449.257613
 20
271.597735
 30
0.0
 11
469.257613
 21
271.597735
 31
0.0
  0
LINE
  5
409
100
AcDbEntity
  8
M01
100
AcDbLine
 10
449.257613
 20
319.597735
 30
0.0
 11
470.257613
 21
319.597735
 31
0.0
  0
LINE
  5
40A
100
AcDbEntity
  8
M01
100
AcDbLine
 10
449.257613
 20
309.597735
 30
0.0
 11
469.257613
 21
309.597735
 31
0.0
  0
HATCH
  5
40B
100
AcDbEntity
  8
HATCH
100
AcDbHatch
 10
0.0
 20
0.0
 30
0.0
210
0.0
220
0.0
230
1.0
  2
_U
 70
     0
 71
     1
 91
        1
 92
        7
 72
     0
 73
     1
 93
        4
 10
623.25761256428
 20
257.5977354083923
 10
623.2576125642797
 20
260.5977354083922
 10
471.2576125642797
 20
260.5977354083923
 10
471.2576125642798
 20
257.5977354083923
 97
        4
330
484
330
48C
330
46A
330
486
 75
     0
 76
     0
 52
225.0
 41
0.8
 77
     0
 78
     1
 53
135.0
 43
990.816839
 44
1082.187843
 45
0.565685424949238
 46
0.5656854249492382
 79
     0
 47
0.167139
 98
        1
 10
495.980053
 20
258.702693
  0
LINE
  5
40C
100
AcDbEntity
  8
M01
100
AcDbLine
 10
427.357613
 20
269.628824
 30
0.0
 11
427.357613
 21
263.566646
 31
0.0
  0
ARC
  5
40D
100
AcDbEntity
  8
M01
100
AcDbCircle
 10
429.206918
 20
263.566646
 30
0.0
 40
1.150694
100
AcDbArc
 50
298.592423
 51
61.407577
  0
ARC
  5
40E
100
AcDbEntity
  8
M01
100
AcDbCircle
 10
426.654835
 20
266.597735
 30
0.0
 40
3.702778
100
AcDbArc
 50
326.92527
 51
33.07473
  0
ARC
  5
40F
100
AcDbEntity
  8
M01
100
AcDbCircle
 10
429.206918
 20
269.628824
 30
0.0
 40
1.150694
100
AcDbArc
 50
298.592423
 51
61.407577
  0
ARC
  5
410
100
AcDbEntity
  8
M01
100
AcDbCircle
 10
428.508307
 20
263.566646
 30
0.0
 40
1.150694
100
AcDbArc
 50
118.592423
 51
241.407577
  0
ARC
  5
411
100
AcDbEntity
  8
M01
100
AcDbCircle
 10
431.06039
 20
266.597735
 30
0.0
 40
3.702778
100
AcDbArc
 50
146.92527
 51
213.07473
  0
LINE
  5
412
100
AcDbEntity
  8
M01
100
AcDbLine
 10
427.957613
 20
264.577009
 30
0.0
 11
429.757613
 21
264.577009
 31
0.0
  0
LINE
  5
413
100
AcDbEntity
  8
M01
100
AcDbLine
 10
427.957613
 20
262.556284
 30
0.0
 11
429.757613
 21
262.556284
 31
0.0
  0
ARC
  5
414
100
AcDbEntity
  8
M01
100
AcDbCircle
 10
428.508307
 20
269.628824
 30
0.0
 40
1.150694
100
AcDbArc
 50
118.592423
 51
241.407577
  0
LINE
  5
415
100
AcDbEntity
  8
M01
100
AcDbLine
 10
427.957613
 20
268.618461
 30
0.0
 11
429.757613
 21
268.618461
 31
0.0
  0
LINE
  5
416
100
AcDbEntity
  8
M01
100
AcDbLine
 10
427.957613
 20
270.639187
 30
0.0
 11
429.757613
 21
270.639187
 31
0.0
  0
LINE
  5
417
100
AcDbEntity
  8
M01
100
AcDbLine
 10
432.657613
 20
261.597735
 30
0.0
 11
431.157613
 21
261.597735
 31
0.0
  0
LINE
  5
418
100
AcDbEntity
  8
M01
100
AcDbLine
 10
432.657613
 20
271.597735
 30
0.0
 11
431.157613
 21
271.597735
 31
0.0
  0
LINE
  5
419
100
AcDbEntity
  8
M01
100
AcDbLine
 10
431.157613
 20
262.097735
 30
0.0
 11
430.357613
 21
262.097735
 31
0.0
  0
LINE
  5
41A
100
AcDbEntity
  8
M01
100
AcDbLine
 10
431.157613
 20
271.097735
 30
0.0
 11
430.357613
 21
271.097735
 31
0.0
  0
LINE
  5
41B
100
AcDbEntity
  8
M01
100
AcDbLine
 10
430.357613
 20
271.097735
 30
0.0
 11
430.357613
 21
262.097735
 31
0.0
  0
LINE
  5
41C
100
AcDbEntity
  8
M01
100
AcDbLine
 10
431.157613
 20
271.597735
 30
0.0
 11
431.157613
 21
261.597735
 31
0.0
  0
LINE
  5
41D
100
AcDbEntity
  8
M01
100
AcDbLine
 10
433.457613
 20
262.097735
 30
0.0
 11
432.657613
 21
262.097735
 31
0.0
  0
LINE
  5
41E
100
AcDbEntity
  8
M01
100
AcDbLine
 10
433.457613
 20
271.097735
 30
0.0
 11
432.657613
 21
271.097735
 31
0.0
  0
LINE
  5
41F
100
AcDbEntity
  8
M01
100
AcDbLine
 10
432.657613
 20
276.597735
 30
0.0
 11
432.657613
 21
261.597735
 31
0.0
  0
ARC
  5
420
100
AcDbEntity
  8
M01
100
AcDbCircle
 10
435.306918
 20
263.566646
 30
0.0
 40
1.150694
100
AcDbArc
 50
298.592423
 51
61.407577
  0
ARC
  5
421
100
AcDbEntity
  8
M01
100
AcDbCircle
 10
432.754835
 20
266.597735
 30
0.0
 40
3.702778
100
AcDbArc
 50
326.92527
 51
33.07473
  0
ARC
  5
422
100
AcDbEntity
  8
M01
100
AcDbCircle
 10
435.306918
 20
269.628824
 30
0.0
 40
1.150694
100
AcDbArc
 50
298.592423
 51
61.407577
  0
ARC
  5
423
100
AcDbEntity
  8
M01
100
AcDbCircle
 10
434.608307
 20
263.566646
 30
0.0
 40
1.150694
100
AcDbArc
 50
118.592423
 51
241.407577
  0
ARC
  5
424
100
AcDbEntity
  8
M01
100
AcDbCircle
 10
437.16039
 20
266.597735
 30
0.0
 40
3.702778
100
AcDbArc
 50
146.92527
 51
213.07473
  0
LINE
  5
425
100
AcDbEntity
  8
M01
100
AcDbLine
 10
434.057613
 20
264.577009
 30
0.0
 11
435.857613
 21
264.577009
 31
0.0
  0
LINE
  5
426
100
AcDbEntity
  8
M01
100
AcDbLine
 10
434.057613
 20
262.556284
 30
0.0
 11
435.857613
 21
262.556284
 31
0.0
  0
ARC
  5
427
100
AcDbEntity
  8
M01
100
AcDbCircle
 10
434.608307
 20
269.628824
 30
0.0
 40
1.150694
100
AcDbArc
 50
118.592423
 51
241.407577
  0
LINE
  5
428
100
AcDbEntity
  8
M01
100
AcDbLine
 10
434.057613
 20
268.618461
 30
0.0
 11
435.857613
 21
268.618461
 31
0.0
  0
LINE
  5
429
100
AcDbEntity
  8
M01
100
AcDbLine
 10
434.057613
 20
270.639187
 30
0.0
 11
435.857613
 21
270.639187
 31
0.0
  0
LINE
  5
42A
100
AcDbEntity
  8
M01
100
AcDbLine
 10
433.457613
 20
271.097735
 30
0.0
 11
433.457613
 21
262.097735
 31
0.0
  0
LINE
  5
42B
100
AcDbEntity
  8
M01
100
AcDbLine
 10
436.457613
 20
271.097735
 30
0.0
 11
436.457613
 21
262.097735
 31
0.0
  0
LINE
  5
42C
100
AcDbEntity
  8
M01
100
AcDbLine
 10
437.257613
 20
271.097735
 30
0.0
 11
437.257613
 21
262.097735
 31
0.0
  0
LINE
  5
42D
100
AcDbEntity
  8
M01
100
AcDbLine
 10
424.257613
 20
265.097735
 30
0.0
 11
424.757613
 21
264.597735
 31
0.0
  0
LINE
  5
42E
100
AcDbEntity
  8
M01
100
AcDbLine
 10
424.757613
 20
268.597735
 30
0.0
 11
424.257613
 21
268.097735
 31
0.0
  0
LINE
  5
42F
100
AcDbEntity
  8
M01
100
AcDbLine
 10
424.757613
 20
268.597735
 30
0.0
 11
424.757613
 21
264.597735
 31
0.0
  0
LINE
  5
430
100
AcDbEntity
  8
M01
100
AcDbLine
 10
424.257613
 20
265.097735
 30
0.0
 11
427.357613
 21
265.097735
 31
0.0
  0
LINE
  5
431
100
AcDbEntity
  8
M01
100
AcDbLine
 10
424.257613
 20
268.097735
 30
0.0
 11
427.357613
 21
268.097735
 31
0.0
  0
LINE
  5
432
100
AcDbEntity
  8
M01
100
AcDbLine
 10
424.757613
 20
268.597735
 30
0.0
 11
427.357613
 21
268.597735
 31
0.0
  0
LINE
  5
433
100
AcDbEntity
  8
M01
100
AcDbLine
 10
424.757613
 20
264.597735
 30
0.0
 11
427.357613
 21
264.597735
 31
0.0
  0
LINE
  5
434
100
AcDbEntity
  8
M01
100
AcDbLine
 10
424.257613
 20
268.097735
 30
0.0
 11
424.257613
 21
265.097735
 31
0.0
  0
LINE
  5
435
100
AcDbEntity
  8
M01
100
AcDbLine
 10
449.257613
 20
271.597735
 30
0.0
 11
449.257613
 21
261.597735
 31
0.0
  0
LINE
  5
436
100
AcDbEntity
  8
M01
100
AcDbLine
 10
436.457613
 20
262.097735
 30
0.0
 11
437.257613
 21
262.097735
 31
0.0
  0
LINE
  5
437
100
AcDbEntity
  8
M01
100
AcDbLine
 10
436.457613
 20
271.097735
 30
0.0
 11
437.257613
 21
271.097735
 31
0.0
  0
LINE
  5
438
100
AcDbEntity
  8
CENTRE
100
AcDbLine
 10
418.096723
 20
266.597735
 30
0.0
 11
481.690155
 21
266.597735
 31
0.0
  0
LINE
  5
439
100
AcDbEntity
  8
M01
100
AcDbLine
 10
427.357613
 20
311.566646
 30
0.0
 11
427.357613
 21
317.628824
 31
0.0
  0
ARC
  5
43A
100
AcDbEntity
  8
M01
100
AcDbCircle
 10
429.206918
 20
317.628824
 30
0.0
 40
1.150694
100
AcDbArc
 50
298.592423
 51
61.407577
  0
ARC
  5
43B
100
AcDbEntity
  8
M01
100
AcDbCircle
 10
426.654835
 20
314.597735
 30
0.0
 40
3.702778
100
AcDbArc
 50
326.92527
 51
33.07473
  0
ARC
  5
43C
100
AcDbEntity
  8
M01
100
AcDbCircle
 10
429.206918
 20
311.566646
 30
0.0
 40
1.150694
100
AcDbArc
 50
298.592423
 51
61.407577
  0
ARC
  5
43D
100
AcDbEntity
  8
M01
100
AcDbCircle
 10
428.508307
 20
317.628824
 30
0.0
 40
1.150694
100
AcDbArc
 50
118.592423
 51
241.407577
  0
ARC
  5
43E
100
AcDbEntity
  8
M01
100
AcDbCircle
 10
431.06039
 20
314.597735
 30
0.0
 40
3.702778
100
AcDbArc
 50
146.92527
 51
213.07473
  0
LINE
  5
43F
100
AcDbEntity
  8
M01
100
AcDbLine
 10
427.957613
 20
316.618461
 30
0.0
 11
429.757613
 21
316.618461
 31
0.0
  0
LINE
  5
440
100
AcDbEntity
  8
M01
100
AcDbLine
 10
427.957613
 20
318.639187
 30
0.0
 11
429.757613
 21
318.639187
 31
0.0
  0
ARC
  5
441
100
AcDbEntity
  8
M01
100
AcDbCircle
 10
428.508307
 20
311.566646
 30
0.0
 40
1.150694
100
AcDbArc
 50
118.592423
 51
241.407577
  0
LINE
  5
442
100
AcDbEntity
  8
M01
100
AcDbLine
 10
427.957613
 20
312.577009
 30
0.0
 11
429.757613
 21
312.577009
 31
0.0
  0
LINE
  5
443
100
AcDbEntity
  8
M01
100
AcDbLine
 10
427.957613
 20
310.556284
 30
0.0
 11
429.757613
 21
310.556284
 31
0.0
  0
LINE
  5
444
100
AcDbEntity
  8
M01
100
AcDbLine
 10
432.657613
 20
319.597735
 30
0.0
 11
431.157613
 21
319.597735
 31
0.0
  0
LINE
  5
445
100
AcDbEntity
  8
M01
100
AcDbLine
 10
431.157613
 20
319.097735
 30
0.0
 11
430.357613
 21
319.097735
 31
0.0
  0
LINE
  5
446
100
AcDbEntity
  8
M01
100
AcDbLine
 10
431.157613
 20
310.097735
 30
0.0
 11
430.357613
 21
310.097735
 31
0.0
  0
LINE
  5
447
100
AcDbEntity
  8
M01
100
AcDbLine
 10
430.357613
 20
310.097735
 30
0.0
 11
430.357613
 21
319.097735
 31
0.0
  0
LINE
  5
448
100
AcDbEntity
  8
M01
100
AcDbLine
 10
431.157613
 20
309.597735
 30
0.0
 11
431.157613
 21
319.597735
 31
0.0
  0
LINE
  5
449
100
AcDbEntity
  8
M01
100
AcDbLine
 10
433.457613
 20
319.097735
 30
0.0
 11
432.657613
 21
319.097735
 31
0.0
  0
LINE
  5
44A
100
AcDbEntity
  8
M01
100
AcDbLine
 10
433.457613
 20
310.097735
 30
0.0
 11
432.657613
 21
310.097735
 31
0.0
  0
ARC
  5
44B
100
AcDbEntity
  8
M01
100
AcDbCircle
 10
435.306918
 20
317.628824
 30
0.0
 40
1.150694
100
AcDbArc
 50
298.592423
 51
61.407577
  0
ARC
  5
44C
100
AcDbEntity
  8
M01
100
AcDbCircle
 10
432.754835
 20
314.597735
 30
0.0
 40
3.702778
100
AcDbArc
 50
326.92527
 51
33.07473
  0
ARC
  5
44D
100
AcDbEntity
  8
M01
100
AcDbCircle
 10
435.306918
 20
311.566646
 30
0.0
 40
1.150694
100
AcDbArc
 50
298.592423
 51
61.407577
  0
ARC
  5
44E
100
AcDbEntity
  8
M01
100
AcDbCircle
 10
434.608307
 20
317.628824
 30
0.0
 40
1.150694
100
AcDbArc
 50
118.592423
 51
241.407577
  0
ARC
  5
44F
100
AcDbEntity
  8
M01
100
AcDbCircle
 10
437.16039
 20
314.597735
 30
0.0
 40
3.702778
100
AcDbArc
 50
146.92527
 51
213.07473
  0
LINE
  5
450
100
AcDbEntity
  8
M01
100
AcDbLine
 10
434.057613
 20
316.618461
 30
0.0
 11
435.857613
 21
316.618461
 31
0.0
  0
LINE
  5
451
100
AcDbEntity
  8
M01
100
AcDbLine
 10
434.057613
 20
318.639187
 30
0.0
 11
435.857613
 21
318.639187
 31
0.0
  0
ARC
  5
452
100
AcDbEntity
  8
M01
100
AcDbCircle
 10
434.608307
 20
311.566646
 30
0.0
 40
1.150694
100
AcDbArc
 50
118.592423
 51
241.407577
  0
LINE
  5
453
100
AcDbEntity
  8
M01
100
AcDbLine
 10
434.057613
 20
312.577009
 30
0.0
 11
435.857613
 21
312.577009
 31
0.0
  0
LINE
  5
454
100
AcDbEntity
  8
M01
100
AcDbLine
 10
434.057613
 20
310.556284
 30
0.0
 11
435.857613
 21
310.556284
 31
0.0
  0
LINE
  5
455
100
AcDbEntity
  8
M01
100
AcDbLine
 10
433.457613
 20
310.097735
 30
0.0
 11
433.457613
 21
319.097735
 31
0.0
  0
LINE
  5
456
100
AcDbEntity
  8
M01
100
AcDbLine
 10
436.457613
 20
310.097735
 30
0.0
 11
436.457613
 21
319.097735
 31
0.0
  0
LINE
  5
457
100
AcDbEntity
  8
M01
100
AcDbLine
 10
437.257613
 20
310.097735
 30
0.0
 11
437.257613
 21
319.097735
 31
0.0
  0
LINE
  5
458
100
AcDbEntity
  8
M01
100
AcDbLine
 10
424.257613
 20
316.097735
 30
0.0
 11
424.757613
 21
316.597735
 31
0.0
  0
LINE
  5
459
100
AcDbEntity
  8
M01
100
AcDbLine
 10
424.757613
 20
312.597735
 30
0.0
 11
424.257613
 21
313.097735
 31
0.0
  0
LINE
  5
45A
100
AcDbEntity
  8
M01
100
AcDbLine
 10
424.757613
 20
312.597735
 30
0.0
 11
424.757613
 21
316.597735
 31
0.0
  0
LINE
  5
45B
100
AcDbEntity
  8
M01
100
AcDbLine
 10
424.257613
 20
316.097735
 30
0.0
 11
427.357613
 21
316.097735
 31
0.0
  0
LINE
  5
45C
100
AcDbEntity
  8
M01
100
AcDbLine
 10
424.257613
 20
313.097735
 30
0.0
 11
427.357613
 21
313.097735
 31
0.0
  0
LINE
  5
45D
100
AcDbEntity
  8
M01
100
AcDbLine
 10
424.757613
 20
312.597735
 30
0.0
 11
427.357613
 21
312.597735
 31
0.0
  0
LINE
  5
45E
100
AcDbEntity
  8
M01
100
AcDbLine
 10
424.757613
 20
316.597735
 30
0.0
 11
427.357613
 21
316.597735
 31
0.0
  0
LINE
  5
45F
100
AcDbEntity
  8
M01
100
AcDbLine
 10
424.257613
 20
313.097735
 30
0.0
 11
424.257613
 21
316.097735
 31
0.0
  0
LINE
  5
460
100
AcDbEntity
  8
M01
100
AcDbLine
 10
449.257613
 20
309.597735
 30
0.0
 11
449.257613
 21
319.597735
 31
0.0
  0
LINE
  5
461
100
AcDbEntity
  8
M01
100
AcDbLine
 10
436.457613
 20
319.097735
 30
0.0
 11
437.257613
 21
319.097735
 31
0.0
  0
LINE
  5
462
100
AcDbEntity
  8
M01
100
AcDbLine
 10
436.457613
 20
310.097735
 30
0.0
 11
437.257613
 21
310.097735
 31
0.0
  0
LINE
  5
463
102
{ACAD_REACTORS
330
40
102
}
100
AcDbEntity
  8
CENTRE
100
AcDbLine
 10
418.096723
 20
314.597735
 30
0.0
 11
481.690155
 21
314.597735
 31
0.0
  0
LINE
  5
464
100
AcDbEntity
  8
M04
100
AcDbLine
 10
409.257613
 20
281.597735
 30
0.0
 11
399.257613
 21
271.597735
 31
0.0
  0
LINE
  5
465
100
AcDbEntity
  8
M04
100
AcDbLine
 10
388.586134
 20
271.597735
 30
0.0
 11
399.257613
 21
271.597735
 31
0.0
  0
LINE
  5
466
100
AcDbEntity
  8
M04
100
AcDbLine
 10
409.257613
 20
327.597735
 30
0.0
 11
409.257613
 21
253.597735
 31
0.0
  0
LINE
  5
467
102
{ACAD_REACTORS
330
40
102
}
100
AcDbEntity
  8
M01
100
AcDbLine
 10
662.257613
 20
277.597735
 30
0.0
 11
662.257613
 21
270.597735
 31
0.0
  0
LINE
  5
468
102
{ACAD_REACTORS
330
40
102
}
100
AcDbEntity
  8
M01
100
AcDbLine
 10
654.257613
 20
277.597735
 30
0.0
 11
654.257613
 21
270.597735
 31
0.0
  0
LINE
  5
469
100
AcDbEntity
  8
M04
100
AcDbLine
 10
677.757613
 20
253.597735
 30
0.0
 11
805.257613
 21
253.597735
 31
0.0
  0
LINE
  5
46A
102
{ACAD_REACTORS
330
40B
102
}
100
AcDbEntity
  8
M02
100
AcDbLine
 10
623.257613
 20
260.597735
 30
0.0
 11
623.257613
 21
257.597735
 31
0.0
  0
LINE
  5
46B
100
AcDbEntity
  8
M04
100
AcDbLine
 10
474.757613
 20
342.907136
 30
0.0
 11
470.757613
 21
340.597735
 31
0.0
  0
LINE
  5
46C
100
AcDbEntity
  8
M04
100
AcDbLine
 10
478.757613
 20
340.597735
 30
0.0
 11
474.757613
 21
342.907136
 31
0.0
  0
LINE
  5
46D
100
AcDbEntity
  8
M04
100
AcDbLine
 10
478.757613
 20
337.597735
 30
0.0
 11
478.757613
 21
340.597735
 31
0.0
  0
LINE
  5
46E
100
AcDbEntity
  8
M04
100
AcDbLine
 10
470.757613
 20
340.597735
 30
0.0
 11
478.757613
 21
340.597735
 31
0.0
  0
LINE
  5
46F
100
AcDbEntity
  8
M04
100
AcDbLine
 10
470.757613
 20
337.597735
 30
0.0
 11
470.757613
 21
340.597735
 31
0.0
  0
ARC
  5
470
100
AcDbEntity
  8
M05
100
AcDbCircle
 10
474.757613
 20
328.260031
 30
0.0
 40
10.837705
100
AcDbArc
 50
71.372238
 51
108.627762
  0
LINE
  5
471
100
AcDbEntity
  8
M05
100
AcDbLine
 10
478.757613
 20
337.597735
 30
0.0
 11
478.219376
 21
338.529989
 31
0.0
  0
LINE
  5
472
100
AcDbEntity
  8
M05
100
AcDbLine
 10
471.295849
 20
338.529989
 30
0.0
 11
478.219376
 21
338.529989
 31
0.0
  0
LINE
  5
473
100
AcDbEntity
  8
M05
100
AcDbLine
 10
470.757613
 20
337.597735
 30
0.0
 11
471.295849
 21
338.529989
 31
0.0
  0
LINE
  5
474
100
AcDbEntity
  8
M05
100
AcDbLine
 10
470.757613
 20
337.597735
 30
0.0
 11
478.757613
 21
337.597735
 31
0.0
  0
LINE
  5
475
100
AcDbEntity
  8
M04
100
AcDbLine
 10
478.757613
 20
327.597735
 30
0.0
 11
648.757613
 21
327.597735
 31
0.0
  0
LINE
  5
476
100
AcDbEntity
  8
M04
100
AcDbLine
 10
478.757613
 20
328.097735
 30
0.0
 11
479.257613
 21
327.597735
 31
0.0
  0
LINE
  5
477
100
AcDbEntity
  8
M04
100
AcDbLine
 10
470.757613
 20
328.097735
 30
0.0
 11
470.257613
 21
327.597735
 31
0.0
  0
ARC
  5
478
100
AcDbEntity
  8
M05
100
AcDbCircle
 10
474.757613
 20
328.731069
 30
0.0
 40
13.633333
100
AcDbArc
 50
252.938469
 51
287.061531
  0
LINE
  5
479
100
AcDbEntity
  8
M05
100
AcDbLine
 10
470.757613
 20
315.697735
 30
0.0
 11
478.757613
 21
315.697735
 31
0.0
  0
LINE
  5
47A
100
AcDbEntity
  8
M05
100
AcDbLine
 10
478.757613
 20
337.597735
 30
0.0
 11
478.757613
 21
315.697735
 31
0.0
  0
LINE
  5
47B
100
AcDbEntity
  8
M05
100
AcDbLine
 10
470.757613
 20
337.597735
 30
0.0
 11
470.757613
 21
315.697735
 31
0.0
  0
LINE
  5
47C
102
{ACAD_REACTORS
330
40
102
}
100
AcDbEntity
  8
CENTRE
100
AcDbLine
 10
658.257613
 20
343.422658
 30
0.0
 11
658.257613
 21
220.705695
 31
0.0
  0
LINE
  5
47D
100
AcDbEntity
  8
CENTRE
100
AcDbLine
 10
474.757613
 20
347.943853
 30
0.0
 11
474.757613
 21
309.854154
 31
0.0
  0
LINE
  5
47E
100
AcDbEntity
  8
M04
100
AcDbLine
 10
388.586134
 20
253.597735
 30
0.0
 11
638.757613
 21
253.597735
 31
0.0
  0
LINE
  5
47F
100
AcDbEntity
  8
M04
100
AcDbLine
 10
847.257613
 20
327.597735
 30
0.0
 11
847.257613
 21
253.597735
 31
0.0
  0
LINE
  5
480
100
AcDbEntity
  8
M04
100
AcDbLine
 10
409.257613
 20
327.597735
 30
0.0
 11
470.757613
 21
327.597735
 31
0.0
  0
LINE
  5
481
102
{ACAD_REACTORS
330
17A
102
}
100
AcDbEntity
  8
M02
100
AcDbLine
 10
481.257613
 20
320.597735
 30
0.0
 11
481.257613
 21
323.597735
 31
0.0
  0
LINE
  5
482
102
{ACAD_REACTORS
330
40
102
}
100
AcDbEntity
  8
M01
100
AcDbLine
 10
481.257613
 20
320.597735
 30
0.0
 11
481.257613
 21
314.597735
 31
0.0
  0
LINE
  5
483
100
AcDbEntity
  8
M01
100
AcDbLine
 10
469.257613
 20
314.597735
 30
0.0
 11
481.257613
 21
314.597735
 31
0.0
  0
LINE
  5
484
102
{ACAD_REACTORS
330
40B
102
}
100
AcDbEntity
  8
M02
100
AcDbLine
 10
471.257613
 20
260.597735
 30
0.0
 11
471.257613
 21
257.597735
 31
0.0
  0
LINE
  5
485
102
{ACAD_REACTORS
330
91
102
}
100
AcDbEntity
  8
M02
100
AcDbLine
 10
838.257613
 20
320.597735
 30
0.0
 11
838.257613
 21
323.597735
 31
0.0
  0
LINE
  5
486
102
{ACAD_REACTORS
330
40B
102
}
100
AcDbEntity
  8
M02
100
AcDbLine
 10
471.257613
 20
257.597735
 30
0.0
 11
624.257613
 21
257.597735
 31
0.0
  0
LINE
  5
487
102
{ACAD_REACTORS
330
17A
102
}
100
AcDbEntity
  8
M02
100
AcDbLine
 10
478.757613
 20
323.597735
 30
0.0
 11
648.757613
 21
323.597735
 31
0.0
  0
LINE
  5
488
102
{ACAD_REACTORS
330
40
102
}
100
AcDbEntity
  8
M01
100
AcDbLine
 10
838.257613
 20
260.597735
 30
0.0
 11
840.257613
 21
262.597735
 31
0.0
  0
LINE
  5
489
102
{ACAD_REACTORS
330
40
102
}
100
AcDbEntity
  8
M01
100
AcDbLine
 10
469.257613
 20
262.597735
 30
0.0
 11
471.257613
 21
260.597735
 31
0.0
  0
LINE
  5
48A
100
AcDbEntity
  8
M01
100
AcDbLine
 10
470.257613
 20
319.597735
 30
0.0
 11
469.257613
 21
318.597735
 31
0.0
  0
LINE
  5
48B
102
{ACAD_REACTORS
330
40
102
}
100
AcDbEntity
  8
M01
100
AcDbLine
 10
840.257613
 20
318.597735
 30
0.0
 11
838.257613
 21
320.597735
 31
0.0
  0
LINE
  5
48C
102
{ACAD_REACTORS
330
40B
330
40
102
}
100
AcDbEntity
  8
M01
100
AcDbLine
 10
471.257613
 20
260.597735
 30
0.0
 11
648.257613
 21
260.597735
 31
0.0
  0
LINE
  5
48D
102
{ACAD_REACTORS
330
40
102
}
100
AcDbEntity
  8
M01
100
AcDbLine
 10
840.257613
 20
318.597735
 30
0.0
 11
840.257613
 21
262.597735
 31
0.0
  0
LINE
  5
48E
102
{ACAD_REACTORS
330
40
102
}
100
AcDbEntity
  8
M01
100
AcDbLine
 10
469.257613
 20
318.597735
 30
0.0
 11
469.257613
 21
262.597735
 31
0.0
  0
LINE
  5
48F
102
{ACAD_REACTORS
330
17A
330
40
102
}
100
AcDbEntity
  8
M01
100
AcDbLine
 10
478.757613
 20
320.597735
 30
0.0
 11
648.757613
 21
320.597735
 31
0.0
  0
CIRCLE
  5
490
100
AcDbEntity
  8
M04
100
AcDbCircle
 10
543.612952
 20
654.516183
 30
0.0
 40
6.5
  0
HATCH
  5
491
100
AcDbEntity
  8
M03
100
AcDbHatch
 10
0.0
 20
0.0
 30
0.0
210
0.0
220
0.0
230
1.0
  2
_U
 70
     0
 71
     0
 91
        1
 92
        7
 72
     0
 73
     1
 93
        4
 10
535.8946482969249
 20
631.2632092570622
 10
515.2199353733886
 20
651.9379221805984
 10
516.5634382576429
 20
653.281425064853
 10
537.2381511811793
 20
632.6067121413164
 97
        0
 75
     0
 76
     0
 52
285.0
 41
0.7
 77
     0
 78
     1
 53
345.0
 43
474.60196
 44
1264.547621
 45
-0.1811733315717643
 46
-0.676148078402348
 79
     0
 47
0.060863
 98
        1
 10
534.124236
 20
634.712902
  0
HATCH
  5
492
100
AcDbEntity
  8
M03
100
AcDbHatch
 10
0.0
 20
0.0
 30
0.0
210
0.0
220
0.0
230
1.0
  2
_U
 70
     0
 71
     0
 91
        1
 92
        7
 72
     0
 73
     1
 93
        4
 10
535.8946482969249
 20
631.263209257062
 10
515.2199353733884
 20
651.9379221805985
 10
516.5634382576429
 20
653.281425064853
 10
537.2381511811793
 20
632.6067121413164
 97
        0
 75
     0
 76
     0
 52
-15.0
 41
0.7
 77
     0
 78
     1
 53
285.0
 43
474.60196
 44
1264.547621
 45
-0.6761480784023478
 46
-0.1811733315717645
 79
     0
 47
0.060863
 98
        1
 10
533.822927
 20
634.669918
  0
LINE
  5
493
100
AcDbEntity
  8
M03
100
AcDbLine
 10
538.020963
 20
609.90359
 30
0.0
 11
535.455646
 21
610.590965
 31
0.0
  0
LINE
  5
494
100
AcDbEntity
  8
M03
100
AcDbLine
 10
534.768272
 20
613.156282
 30
0.0
 11
535.455646
 21
610.590965
 31
0.0
  0
LINE
  5
495
100
AcDbEntity
  8
M03
100
AcDbLine
 10
534.768272
 20
613.156282
 30
0.0
 11
538.020963
 21
609.90359
 31
0.0
  0
LINE
  5
496
100
AcDbEntity
  8
M03
100
AcDbLine
 10
535.333957
 20
614.711916
 30
0.0
 11
539.576598
 21
610.469276
 31
0.0
  0
LINE
  5
497
100
AcDbEntity
  8
M03
100
AcDbLine
 10
535.894648
 20
631.263209
 30
0.0
 11
515.219935
 21
651.937922
 31
0.0
  0
LINE
  5
498
100
AcDbEntity
  8
M03
100
AcDbLine
 10
537.238151
 20
632.606712
 30
0.0
 11
516.563438
 21
653.281425
 31
0.0
  0
LINE
  5
499
100
AcDbEntity
  8
M03
100
AcDbLine
 10
540.632264
 20
626.10133
 30
0.0
 11
550.748885
 21
615.984709
 31
0.0
  0
LINE
  5
49A
100
AcDbEntity
  8
M03
100
AcDbLine
 10
539.327818
 20
626.274404
 30
0.0
 11
539.893504
 21
626.84009
 31
0.0
  0
LINE
  5
49B
100
AcDbEntity
  8
M03
100
AcDbLine
 10
535.682516
 20
631.051077
 30
0.0
 11
537.450283
 21
632.818844
 31
0.0
  0
LINE
  5
49C
100
AcDbEntity
  8
M03
100
AcDbLine
 10
537.450283
 20
632.818844
 30
0.0
 11
542.400031
 21
627.869097
 31
0.0
  0
LINE
  5
49D
100
AcDbEntity
  8
M03
100
AcDbLine
 10
540.632264
 20
626.10133
 30
0.0
 11
542.400031
 21
627.869097
 31
0.0
  0
LINE
  5
49E
100
AcDbEntity
  8
M03
100
AcDbLine
 10
550.183199
 20
615.419023
 30
0.0
 11
550.748885
 21
615.984709
 31
0.0
  0
ARC
  5
49F
100
AcDbEntity
  8
M03
100
AcDbCircle
 10
544.012889
 20
619.148208
 30
0.0
 40
5.826136
100
AcDbArc
 50
340.69541
 51
109.30459
  0
LINE
  5
4A0
100
AcDbEntity
  8
M03
100
AcDbLine
 10
541.344365
 20
612.237043
 30
0.0
 11
540.354415
 21
612.237043
 31
0.0
  0
LINE
  5
4A1
100
AcDbEntity
  8
M03
100
AcDbLine
 10
537.101724
 20
616.479683
 30
0.0
 11
537.101724
 21
615.489734
 31
0.0
  0
LINE
  5
4A2
100
AcDbEntity
  8
M03
100
AcDbLine
 10
537.101724
 20
616.479683
 30
0.0
 11
541.344365
 21
612.237043
 31
0.0
  0
LINE
  5
4A3
100
AcDbEntity
  8
M03
100
AcDbLine
 10
537.101724
 20
615.489734
 30
0.0
 11
540.354415
 21
612.237043
 31
0.0
  0
LINE
  5
4A4
100
AcDbEntity
  8
M03
100
AcDbLine
 10
547.354772
 20
618.24745
 30
0.0
 11
552.30452
 21
613.297703
 31
0.0
  0
LINE
  5
4A5
100
AcDbEntity
  8
M03
100
AcDbLine
 10
535.546089
 20
630.056134
 30
0.0
 11
536.111774
 21
630.621819
 31
0.0
  0
LINE
  5
4A6
100
AcDbEntity
  8
M03
100
AcDbLine
 10
547.849747
 20
617.752476
 30
0.0
 11
548.415432
 21
618.318161
 31
0.0
  0
LINE
  5
4A7
100
AcDbEntity
  8
M03
100
AcDbLine
 10
538.020963
 20
609.90359
 30
0.0
 11
547.425483
 21
619.308111
 31
0.0
  0
LINE
  5
4A8
100
AcDbEntity
  8
M03
100
AcDbLine
 10
534.768272
 20
613.156282
 30
0.0
 11
544.172792
 21
622.560802
 31
0.0
  0
LINE
  5
4A9
100
AcDbEntity
  8
M03
100
AcDbLine
 10
535.333957
 20
614.711916
 30
0.0
 11
543.677817
 21
623.055776
 31
0.0
  0
LINE
  5
4AA
100
AcDbEntity
  8
M03
100
AcDbLine
 10
539.576598
 20
610.469276
 30
0.0
 11
547.920458
 21
618.813136
 31
0.0
  0
LINE
  5
4AB
100
AcDbEntity
  8
M03
100
AcDbLine
 10
535.682516
 20
631.051077
 30
0.0
 11
539.893504
 21
626.84009
 31
0.0
  0
LINE
  5
4AC
100
AcDbEntity
  8
M03
100
AcDbLine
 10
552.30452
 20
613.297703
 30
0.0
 11
555.840054
 21
616.833237
 31
0.0
  0
LINE
  5
4AD
100
AcDbEntity
  8
M03
100
AcDbLine
 10
510.441379
 20
655.160844
 30
0.0
 11
543.112132
 21
622.490091
 31
0.0
  0
LINE
  5
4AE
100
AcDbEntity
  8
CENTRE
100
AcDbLine
 10
532.365047
 20
607.500365
 30
0.0
 11
551.570173
 21
626.705492
 31
0.0
  0
LINE
  5
4AF
100
AcDbEntity
  8
M03
100
AcDbLine
 10
733.257613
 20
549.817698
 30
0.0
 11
805.429185
 21
621.989271
 31
0.0
  0
LINE
  5
4B0
100
AcDbEntity
  8
M03
100
AcDbLine
 10
738.914467
 20
544.160844
 30
0.0
 11
811.08604
 21
616.332417
 31
0.0
  0
LINE
  5
4B1
100
AcDbEntity
  8
CENTRE
100
AcDbLine
 10
733.257613
 20
544.160844
 30
0.0
 11
841.107743
 21
652.010974
 31
0.0
  0
LINE
  5
4B2
100
AcDbEntity
  8
M01
100
AcDbLine
 10
422.313512
 20
559.410844
 30
0.0
 11
422.313512
 21
552.910844
 31
0.0
  0
LINE
  5
4B3
100
AcDbEntity
  8
M01
100
AcDbLine
 10
414.201713
 20
559.410844
 30
0.0
 11
414.201713
 21
552.910844
 31
0.0
  0
LINE
  5
4B4
100
AcDbEntity
  8
M01
100
AcDbLine
 10
422.313512
 20
559.410844
 30
0.0
 11
424.257613
 21
559.410844
 31
0.0
  0
ARC
  5
4B5
100
AcDbEntity
  8
M01
100
AcDbCircle
 10
420.752263
 20
560.660844
 30
0.0
 40
2.0
100
AcDbArc
 50
270.0
 51
321.317813
  0
ARC
  5
4B6
100
AcDbEntity
  8
M01
100
AcDbCircle
 10
415.762962
 20
560.660844
 30
0.0
 40
2.0
100
AcDbArc
 50
218.682187
 51
270.0
  0
LINE
  5
4B7
100
AcDbEntity
  8
M01
100
AcDbLine
 10
412.257613
 20
559.410844
 30
0.0
 11
414.201713
 21
559.410844
 31
0.0
  0
LINE
  5
4B8
100
AcDbEntity
  8
M01
100
AcDbLine
 10
415.762962
 20
558.660844
 30
0.0
 11
420.752263
 21
558.660844
 31
0.0
  0
LINE
  5
4B9
100
AcDbEntity
  8
M01
100
AcDbLine
 10
422.313512
 20
552.910844
 30
0.0
 11
424.257613
 21
552.910844
 31
0.0
  0
ARC
  5
4BA
100
AcDbEntity
  8
M01
100
AcDbCircle
 10
420.752263
 20
551.660844
 30
0.0
 40
2.0
100
AcDbArc
 50
38.682187
 51
90.0
  0
ARC
  5
4BB
100
AcDbEntity
  8
M01
100
AcDbCircle
 10
415.762962
 20
551.660844
 30
0.0
 40
2.0
100
AcDbArc
 50
90.0
 51
141.317813
  0
LINE
  5
4BC
100
AcDbEntity
  8
M01
100
AcDbLine
 10
412.257613
 20
552.910844
 30
0.0
 11
414.201713
 21
552.910844
 31
0.0
  0
LINE
  5
4BD
100
AcDbEntity
  8
M01
100
AcDbLine
 10
415.762962
 20
553.660844
 30
0.0
 11
420.752263
 21
553.660844
 31
0.0
  0
LINE
  5
4BE
100
AcDbEntity
  8
M01
100
AcDbLine
 10
412.257613
 20
551.660844
 30
0.0
 11
412.257613
 21
560.660844
 31
0.0
  0
LINE
  5
4BF
100
AcDbEntity
  8
M01
100
AcDbLine
 10
411.457613
 20
560.660844
 30
0.0
 11
412.257613
 21
560.660844
 31
0.0
  0
LINE
  5
4C0
100
AcDbEntity
  8
M01
100
AcDbLine
 10
411.457613
 20
551.660844
 30
0.0
 11
412.257613
 21
551.660844
 31
0.0
  0
LINE
  5
4C1
100
AcDbEntity
  8
M01
100
AcDbLine
 10
422.313512
 20
528.910844
 30
0.0
 11
422.313512
 21
535.410844
 31
0.0
  0
LINE
  5
4C2
100
AcDbEntity
  8
M01
100
AcDbLine
 10
414.201713
 20
528.910844
 30
0.0
 11
414.201713
 21
535.410844
 31
0.0
  0
LINE
  5
4C3
100
AcDbEntity
  8
M01
100
AcDbLine
 10
422.313512
 20
528.910844
 30
0.0
 11
424.257613
 21
528.910844
 31
0.0
  0
ARC
  5
4C4
100
AcDbEntity
  8
M01
100
AcDbCircle
 10
420.752263
 20
527.660844
 30
0.0
 40
2.0
100
AcDbArc
 50
38.682187
 51
90.0
  0
ARC
  5
4C5
100
AcDbEntity
  8
M01
100
AcDbCircle
 10
415.762962
 20
527.660844
 30
0.0
 40
2.0
100
AcDbArc
 50
90.0
 51
141.317813
  0
LINE
  5
4C6
100
AcDbEntity
  8
M01
100
AcDbLine
 10
412.257613
 20
528.910844
 30
0.0
 11
414.201713
 21
528.910844
 31
0.0
  0
LINE
  5
4C7
100
AcDbEntity
  8
M01
100
AcDbLine
 10
415.762962
 20
529.660844
 30
0.0
 11
420.752263
 21
529.660844
 31
0.0
  0
LINE
  5
4C8
100
AcDbEntity
  8
M01
100
AcDbLine
 10
422.313512
 20
535.410844
 30
0.0
 11
424.257613
 21
535.410844
 31
0.0
  0
ARC
  5
4C9
100
AcDbEntity
  8
M01
100
AcDbCircle
 10
420.752263
 20
536.660844
 30
0.0
 40
2.0
100
AcDbArc
 50
270.0
 51
321.317813
  0
ARC
  5
4CA
100
AcDbEntity
  8
M01
100
AcDbCircle
 10
415.762962
 20
536.660844
 30
0.0
 40
2.0
100
AcDbArc
 50
218.682187
 51
270.0
  0
LINE
  5
4CB
100
AcDbEntity
  8
M01
100
AcDbLine
 10
412.257613
 20
535.410844
 30
0.0
 11
414.201713
 21
535.410844
 31
0.0
  0
LINE
  5
4CC
100
AcDbEntity
  8
M01
100
AcDbLine
 10
415.762962
 20
534.660844
 30
0.0
 11
420.752263
 21
534.660844
 31
0.0
  0
LINE
  5
4CD
100
AcDbEntity
  8
M01
100
AcDbLine
 10
429.257613
 20
561.160844
 30
0.0
 11
429.257613
 21
551.160844
 31
0.0
  0
LINE
  5
4CE
100
AcDbEntity
  8
M01
100
AcDbLine
 10
429.257613
 20
527.160844
 30
0.0
 11
429.257613
 21
537.160844
 31
0.0
  0
LINE
  5
4CF
100
AcDbEntity
  8
M01
100
AcDbLine
 10
424.257613
 20
527.160844
 30
0.0
 11
444.257613
 21
527.160844
 31
0.0
  0
LINE
  5
4D0
100
AcDbEntity
  8
M01
100
AcDbLine
 10
424.257613
 20
537.160844
 30
0.0
 11
444.257613
 21
537.160844
 31
0.0
  0
LINE
  5
4D1
100
AcDbEntity
  8
M01
100
AcDbLine
 10
424.257613
 20
551.160844
 30
0.0
 11
444.257613
 21
551.160844
 31
0.0
  0
LINE
  5
4D2
100
AcDbEntity
  8
M01
100
AcDbLine
 10
424.257613
 20
561.160844
 30
0.0
 11
444.257613
 21
561.160844
 31
0.0
  0
LINE
  5
4D3
100
AcDbEntity
  8
DIMS
 62
     4
100
AcDbLine
 10
449.757613
 20
547.560844
 30
0.0
 11
449.757613
 21
549.860844
 31
0.0
  0
LINE
  5
4D4
100
AcDbEntity
  8
DIMS
 62
     4
100
AcDbLine
 10
449.757613
 20
540.760844
 30
0.0
 11
449.757613
 21
538.460844
 31
0.0
  0
LINE
  5
4D5
100
AcDbEntity
  8
DIMS
 62
     4
100
AcDbLine
 10
449.757613
 20
542.460844
 30
0.0
 11
449.757613
 21
545.860844
 31
0.0
  0
LINE
  5
4D6
100
AcDbEntity
  8
M01
100
AcDbLine
 10
402.357613
 20
559.191933
 30
0.0
 11
402.357613
 21
553.129755
 31
0.0
  0
ARC
  5
4D7
100
AcDbEntity
  8
M01
100
AcDbCircle
 10
404.206918
 20
553.129755
 30
0.0
 40
1.150694
100
AcDbArc
 50
298.592423
 51
61.407577
  0
ARC
  5
4D8
100
AcDbEntity
  8
M01
100
AcDbCircle
 10
401.654835
 20
556.160844
 30
0.0
 40
3.702778
100
AcDbArc
 50
326.92527
 51
33.07473
  0
ARC
  5
4D9
100
AcDbEntity
  8
M01
100
AcDbCircle
 10
404.206918
 20
559.191933
 30
0.0
 40
1.150694
100
AcDbArc
 50
298.592423
 51
61.407577
  0
ARC
  5
4DA
100
AcDbEntity
  8
M01
100
AcDbCircle
 10
403.508307
 20
553.129755
 30
0.0
 40
1.150694
100
AcDbArc
 50
118.592423
 51
241.407577
  0
ARC
  5
4DB
100
AcDbEntity
  8
M01
100
AcDbCircle
 10
406.06039
 20
556.160844
 30
0.0
 40
3.702778
100
AcDbArc
 50
146.92527
 51
213.07473
  0
LINE
  5
4DC
100
AcDbEntity
  8
M01
100
AcDbLine
 10
402.957613
 20
554.140118
 30
0.0
 11
404.757613
 21
554.140118
 31
0.0
  0
LINE
  5
4DD
100
AcDbEntity
  8
M01
100
AcDbLine
 10
402.957613
 20
552.119392
 30
0.0
 11
404.757613
 21
552.119392
 31
0.0
  0
ARC
  5
4DE
100
AcDbEntity
  8
M01
100
AcDbCircle
 10
403.508307
 20
559.191933
 30
0.0
 40
1.150694
100
AcDbArc
 50
118.592423
 51
241.407577
  0
LINE
  5
4DF
100
AcDbEntity
  8
M01
100
AcDbLine
 10
402.957613
 20
558.18157
 30
0.0
 11
404.757613
 21
558.18157
 31
0.0
  0
LINE
  5
4E0
100
AcDbEntity
  8
M01
100
AcDbLine
 10
402.957613
 20
560.202296
 30
0.0
 11
404.757613
 21
560.202296
 31
0.0
  0
LINE
  5
4E1
100
AcDbEntity
  8
M01
100
AcDbLine
 10
407.657613
 20
551.160844
 30
0.0
 11
406.157613
 21
551.160844
 31
0.0
  0
LINE
  5
4E2
100
AcDbEntity
  8
M01
100
AcDbLine
 10
407.657613
 20
561.160844
 30
0.0
 11
406.157613
 21
561.160844
 31
0.0
  0
LINE
  5
4E3
100
AcDbEntity
  8
M01
100
AcDbLine
 10
406.157613
 20
551.660844
 30
0.0
 11
405.357613
 21
551.660844
 31
0.0
  0
LINE
  5
4E4
100
AcDbEntity
  8
M01
100
AcDbLine
 10
406.157613
 20
560.660844
 30
0.0
 11
405.357613
 21
560.660844
 31
0.0
  0
LINE
  5
4E5
100
AcDbEntity
  8
M01
100
AcDbLine
 10
405.357613
 20
560.660844
 30
0.0
 11
405.357613
 21
551.660844
 31
0.0
  0
LINE
  5
4E6
100
AcDbEntity
  8
M01
100
AcDbLine
 10
406.157613
 20
561.160844
 30
0.0
 11
406.157613
 21
551.160844
 31
0.0
  0
LINE
  5
4E7
100
AcDbEntity
  8
M01
100
AcDbLine
 10
408.457613
 20
551.660844
 30
0.0
 11
407.657613
 21
551.660844
 31
0.0
  0
LINE
  5
4E8
100
AcDbEntity
  8
M01
100
AcDbLine
 10
408.457613
 20
560.660844
 30
0.0
 11
407.657613
 21
560.660844
 31
0.0
  0
LINE
  5
4E9
100
AcDbEntity
  8
M01
100
AcDbLine
 10
407.657613
 20
561.160844
 30
0.0
 11
407.657613
 21
551.160844
 31
0.0
  0
ARC
  5
4EA
100
AcDbEntity
  8
M01
100
AcDbCircle
 10
410.306918
 20
553.129755
 30
0.0
 40
1.150694
100
AcDbArc
 50
298.592423
 51
61.407577
  0
ARC
  5
4EB
100
AcDbEntity
  8
M01
100
AcDbCircle
 10
407.754835
 20
556.160844
 30
0.0
 40
3.702778
100
AcDbArc
 50
326.92527
 51
33.07473
  0
ARC
  5
4EC
100
AcDbEntity
  8
M01
100
AcDbCircle
 10
410.306918
 20
559.191933
 30
0.0
 40
1.150694
100
AcDbArc
 50
298.592423
 51
61.407577
  0
ARC
  5
4ED
100
AcDbEntity
  8
M01
100
AcDbCircle
 10
409.608307
 20
553.129755
 30
0.0
 40
1.150694
100
AcDbArc
 50
118.592423
 51
241.407577
  0
ARC
  5
4EE
100
AcDbEntity
  8
M01
100
AcDbCircle
 10
412.16039
 20
556.160844
 30
0.0
 40
3.702778
100
AcDbArc
 50
146.92527
 51
213.07473
  0
LINE
  5
4EF
100
AcDbEntity
  8
M01
100
AcDbLine
 10
409.057613
 20
554.140118
 30
0.0
 11
410.857613
 21
554.140118
 31
0.0
  0
LINE
  5
4F0
100
AcDbEntity
  8
M01
100
AcDbLine
 10
409.057613
 20
552.119392
 30
0.0
 11
410.857613
 21
552.119392
 31
0.0
  0
ARC
  5
4F1
100
AcDbEntity
  8
M01
100
AcDbCircle
 10
409.608307
 20
559.191933
 30
0.0
 40
1.150694
100
AcDbArc
 50
118.592423
 51
241.407577
  0
LINE
  5
4F2
100
AcDbEntity
  8
M01
100
AcDbLine
 10
409.057613
 20
558.18157
 30
0.0
 11
410.857613
 21
558.18157
 31
0.0
  0
LINE
  5
4F3
100
AcDbEntity
  8
M01
100
AcDbLine
 10
409.057613
 20
560.202296
 30
0.0
 11
410.857613
 21
560.202296
 31
0.0
  0
LINE
  5
4F4
100
AcDbEntity
  8
M01
100
AcDbLine
 10
408.457613
 20
560.660844
 30
0.0
 11
408.457613
 21
551.660844
 31
0.0
  0
LINE
  5
4F5
100
AcDbEntity
  8
M01
100
AcDbLine
 10
411.457613
 20
560.660844
 30
0.0
 11
411.457613
 21
551.660844
 31
0.0
  0
LINE
  5
4F6
100
AcDbEntity
  8
M01
100
AcDbLine
 10
399.257613
 20
554.660844
 30
0.0
 11
399.757613
 21
554.160844
 31
0.0
  0
LINE
  5
4F7
100
AcDbEntity
  8
M01
100
AcDbLine
 10
399.757613
 20
558.160844
 30
0.0
 11
399.257613
 21
557.660844
 31
0.0
  0
LINE
  5
4F8
100
AcDbEntity
  8
M01
100
AcDbLine
 10
399.757613
 20
558.160844
 30
0.0
 11
399.757613
 21
554.160844
 31
0.0
  0
LINE
  5
4F9
100
AcDbEntity
  8
M01
100
AcDbLine
 10
399.257613
 20
554.660844
 30
0.0
 11
402.357613
 21
554.660844
 31
0.0
  0
LINE
  5
4FA
100
AcDbEntity
  8
M01
100
AcDbLine
 10
399.257613
 20
557.660844
 30
0.0
 11
402.357613
 21
557.660844
 31
0.0
  0
LINE
  5
4FB
100
AcDbEntity
  8
M01
100
AcDbLine
 10
399.757613
 20
558.160844
 30
0.0
 11
402.357613
 21
558.160844
 31
0.0
  0
LINE
  5
4FC
100
AcDbEntity
  8
M01
100
AcDbLine
 10
399.757613
 20
554.160844
 30
0.0
 11
402.357613
 21
554.160844
 31
0.0
  0
LINE
  5
4FD
100
AcDbEntity
  8
M01
100
AcDbLine
 10
399.257613
 20
557.660844
 30
0.0
 11
399.257613
 21
554.660844
 31
0.0
  0
LINE
  5
4FE
100
AcDbEntity
  8
M01
100
AcDbLine
 10
424.257613
 20
561.160844
 30
0.0
 11
424.257613
 21
551.160844
 31
0.0
  0
LINE
  5
4FF
100
AcDbEntity
  8
CENTRE
100
AcDbLine
 10
393.096723
 20
556.160844
 30
0.0
 11
456.690155
 21
556.160844
 31
0.0
  0
LINE
  5
500
100
AcDbEntity
  8
M01
100
AcDbLine
 10
402.357613
 20
529.129755
 30
0.0
 11
402.357613
 21
535.191933
 31
0.0
  0
ARC
  5
501
100
AcDbEntity
  8
M01
100
AcDbCircle
 10
404.206918
 20
535.191933
 30
0.0
 40
1.150694
100
AcDbArc
 50
298.592423
 51
61.407577
  0
ARC
  5
502
100
AcDbEntity
  8
M01
100
AcDbCircle
 10
401.654835
 20
532.160844
 30
0.0
 40
3.702778
100
AcDbArc
 50
326.92527
 51
33.07473
  0
ARC
  5
503
100
AcDbEntity
  8
M01
100
AcDbCircle
 10
404.206918
 20
529.129755
 30
0.0
 40
1.150694
100
AcDbArc
 50
298.592423
 51
61.407577
  0
ARC
  5
504
100
AcDbEntity
  8
M01
100
AcDbCircle
 10
403.508307
 20
535.191933
 30
0.0
 40
1.150694
100
AcDbArc
 50
118.592423
 51
241.407577
  0
ARC
  5
505
100
AcDbEntity
  8
M01
100
AcDbCircle
 10
406.06039
 20
532.160844
 30
0.0
 40
3.702778
100
AcDbArc
 50
146.92527
 51
213.07473
  0
LINE
  5
506
100
AcDbEntity
  8
M01
100
AcDbLine
 10
402.957613
 20
534.18157
 30
0.0
 11
404.757613
 21
534.18157
 31
0.0
  0
LINE
  5
507
100
AcDbEntity
  8
M01
100
AcDbLine
 10
402.957613
 20
536.202296
 30
0.0
 11
404.757613
 21
536.202296
 31
0.0
  0
ARC
  5
508
100
AcDbEntity
  8
M01
100
AcDbCircle
 10
403.508307
 20
529.129755
 30
0.0
 40
1.150694
100
AcDbArc
 50
118.592423
 51
241.407577
  0
LINE
  5
509
100
AcDbEntity
  8
M01
100
AcDbLine
 10
402.957613
 20
530.140118
 30
0.0
 11
404.757613
 21
530.140118
 31
0.0
  0
LINE
  5
50A
100
AcDbEntity
  8
M01
100
AcDbLine
 10
402.957613
 20
528.119392
 30
0.0
 11
404.757613
 21
528.119392
 31
0.0
  0
LINE
  5
50B
100
AcDbEntity
  8
M01
100
AcDbLine
 10
407.657613
 20
537.160844
 30
0.0
 11
406.157613
 21
537.160844
 31
0.0
  0
LINE
  5
50C
100
AcDbEntity
  8
M01
100
AcDbLine
 10
407.657613
 20
527.160844
 30
0.0
 11
406.157613
 21
527.160844
 31
0.0
  0
LINE
  5
50D
100
AcDbEntity
  8
M01
100
AcDbLine
 10
406.157613
 20
536.660844
 30
0.0
 11
405.357613
 21
536.660844
 31
0.0
  0
LINE
  5
50E
100
AcDbEntity
  8
M01
100
AcDbLine
 10
406.157613
 20
527.660844
 30
0.0
 11
405.357613
 21
527.660844
 31
0.0
  0
LINE
  5
50F
100
AcDbEntity
  8
M01
100
AcDbLine
 10
405.357613
 20
527.660844
 30
0.0
 11
405.357613
 21
536.660844
 31
0.0
  0
LINE
  5
510
100
AcDbEntity
  8
M01
100
AcDbLine
 10
406.157613
 20
527.160844
 30
0.0
 11
406.157613
 21
537.160844
 31
0.0
  0
LINE
  5
511
100
AcDbEntity
  8
M01
100
AcDbLine
 10
408.457613
 20
536.660844
 30
0.0
 11
407.657613
 21
536.660844
 31
0.0
  0
LINE
  5
512
100
AcDbEntity
  8
M01
100
AcDbLine
 10
408.457613
 20
527.660844
 30
0.0
 11
407.657613
 21
527.660844
 31
0.0
  0
LINE
  5
513
100
AcDbEntity
  8
M01
100
AcDbLine
 10
407.657613
 20
527.160844
 30
0.0
 11
407.657613
 21
537.160844
 31
0.0
  0
ARC
  5
514
100
AcDbEntity
  8
M01
100
AcDbCircle
 10
410.306918
 20
535.191933
 30
0.0
 40
1.150694
100
AcDbArc
 50
298.592423
 51
61.407577
  0
ARC
  5
515
100
AcDbEntity
  8
M01
100
AcDbCircle
 10
407.754835
 20
532.160844
 30
0.0
 40
3.702778
100
AcDbArc
 50
326.92527
 51
33.07473
  0
ARC
  5
516
100
AcDbEntity
  8
M01
100
AcDbCircle
 10
410.306918
 20
529.129755
 30
0.0
 40
1.150694
100
AcDbArc
 50
298.592423
 51
61.407577
  0
ARC
  5
517
100
AcDbEntity
  8
M01
100
AcDbCircle
 10
409.608307
 20
535.191933
 30
0.0
 40
1.150694
100
AcDbArc
 50
118.592423
 51
241.407577
  0
ARC
  5
518
100
AcDbEntity
  8
M01
100
AcDbCircle
 10
412.16039
 20
532.160844
 30
0.0
 40
3.702778
100
AcDbArc
 50
146.92527
 51
213.07473
  0
LINE
  5
519
100
AcDbEntity
  8
M01
100
AcDbLine
 10
409.057613
 20
534.18157
 30
0.0
 11
410.857613
 21
534.18157
 31
0.0
  0
LINE
  5
51A
100
AcDbEntity
  8
M01
100
AcDbLine
 10
409.057613
 20
536.202296
 30
0.0
 11
410.857613
 21
536.202296
 31
0.0
  0
ARC
  5
51B
100
AcDbEntity
  8
M01
100
AcDbCircle
 10
409.608307
 20
529.129755
 30
0.0
 40
1.150694
100
AcDbArc
 50
118.592423
 51
241.407577
  0
LINE
  5
51C
100
AcDbEntity
  8
M01
100
AcDbLine
 10
409.057613
 20
530.140118
 30
0.0
 11
410.857613
 21
530.140118
 31
0.0
  0
LINE
  5
51D
100
AcDbEntity
  8
M01
100
AcDbLine
 10
409.057613
 20
528.119392
 30
0.0
 11
410.857613
 21
528.119392
 31
0.0
  0
LINE
  5
51E
100
AcDbEntity
  8
M01
100
AcDbLine
 10
408.457613
 20
527.660844
 30
0.0
 11
408.457613
 21
536.660844
 31
0.0
  0
LINE
  5
51F
100
AcDbEntity
  8
M01
100
AcDbLine
 10
411.457613
 20
527.660844
 30
0.0
 11
411.457613
 21
536.660844
 31
0.0
  0
LINE
  5
520
100
AcDbEntity
  8
M01
100
AcDbLine
 10
412.257613
 20
527.660844
 30
0.0
 11
412.257613
 21
536.660844
 31
0.0
  0
LINE
  5
521
100
AcDbEntity
  8
M04
100
AcDbLine
 10
384.257613
 20
561.160844
 30
0.0
 11
363.586134
 21
561.160844
 31
0.0
  0
LINE
  5
522
100
AcDbEntity
  8
M04
100
AcDbLine
 10
384.257613
 20
527.160844
 30
0.0
 11
363.586134
 21
527.160844
 31
0.0
  0
ARC
  5
523
100
AcDbEntity
  8
M04
100
AcDbCircle
 10
399.257613
 20
561.160844
 30
0.0
 40
15.0
100
AcDbArc
 50
90.0
 51
180.0
  0
ARC
  5
524
100
AcDbEntity
  8
M04
100
AcDbCircle
 10
399.257613
 20
527.160844
 30
0.0
 40
15.0
100
AcDbArc
 50
180.0
 51
270.0
  0
LINE
  5
525
100
AcDbEntity
  8
M04
100
AcDbLine
 10
384.257613
 20
527.160844
 30
0.0
 11
384.257613
 21
561.160844
 31
0.0
  0
LINE
  5
526
100
AcDbEntity
  8
M01
100
AcDbLine
 10
399.257613
 20
533.660844
 30
0.0
 11
399.757613
 21
534.160844
 31
0.0
  0
LINE
  5
527
100
AcDbEntity
  8
M01
100
AcDbLine
 10
399.757613
 20
530.160844
 30
0.0
 11
399.257613
 21
530.660844
 31
0.0
  0
LINE
  5
528
100
AcDbEntity
  8
M01
100
AcDbLine
 10
399.757613
 20
530.160844
 30
0.0
 11
399.757613
 21
534.160844
 31
0.0
  0
LINE
  5
529
100
AcDbEntity
  8
M01
100
AcDbLine
 10
399.257613
 20
533.660844
 30
0.0
 11
402.357613
 21
533.660844
 31
0.0
  0
LINE
  5
52A
100
AcDbEntity
  8
M01
100
AcDbLine
 10
399.257613
 20
530.660844
 30
0.0
 11
402.357613
 21
530.660844
 31
0.0
  0
LINE
  5
52B
100
AcDbEntity
  8
M01
100
AcDbLine
 10
399.757613
 20
530.160844
 30
0.0
 11
402.357613
 21
530.160844
 31
0.0
  0
LINE
  5
52C
100
AcDbEntity
  8
M01
100
AcDbLine
 10
399.757613
 20
534.160844
 30
0.0
 11
402.357613
 21
534.160844
 31
0.0
  0
LINE
  5
52D
100
AcDbEntity
  8
M01
100
AcDbLine
 10
399.257613
 20
530.660844
 30
0.0
 11
399.257613
 21
533.660844
 31
0.0
  0
LINE
  5
52E
100
AcDbEntity
  8
M01
100
AcDbLine
 10
424.257613
 20
527.160844
 30
0.0
 11
424.257613
 21
537.160844
 31
0.0
  0
LINE
  5
52F
100
AcDbEntity
  8
M01
100
AcDbLine
 10
411.457613
 20
536.660844
 30
0.0
 11
412.257613
 21
536.660844
 31
0.0
  0
LINE
  5
530
100
AcDbEntity
  8
M01
100
AcDbLine
 10
411.457613
 20
527.660844
 30
0.0
 11
412.257613
 21
527.660844
 31
0.0
  0
LINE
  5
531
100
AcDbEntity
  8
CENTRE
100
AcDbLine
 10
393.096723
 20
532.160844
 30
0.0
 11
456.690155
 21
532.160844
 31
0.0
  0
LINE
  5
532
100
AcDbEntity
  8
M04
100
AcDbLine
 10
399.257613
 20
512.160844
 30
0.0
 11
479.203789
 21
512.160844
 31
0.0
  0
LWPOLYLINE
  5
533
100
AcDbEntity
  8
M01
100
AcDbPolyline
 90
        2
 70
     0
 43
4.0
 10
449.757613
 20
546.160844
 42
0.414214
 10
447.757613
 20
544.160844
  0
LWPOLYLINE
  5
534
100
AcDbEntity
  8
M01
100
AcDbPolyline
 90
        2
 70
     0
 43
4.0
 10
449.757613
 20
542.160844
 42
0.414214
 10
451.757613
 20
544.160844
  0
CIRCLE
  5
535
100
AcDbEntity
  8
M01
100
AcDbCircle
 10
449.757613
 20
544.160844
 30
0.0
 40
4.0
  0
LINE
  5
536
100
AcDbEntity
  8
M01
100
AcDbLine
 10
452.257613
 20
548.160844
 30
0.0
 11
444.257613
 21
548.160844
 31
0.0
  0
LINE
  5
537
100
AcDbEntity
  8
M01
100
AcDbLine
 10
452.257613
 20
540.160844
 30
0.0
 11
444.257613
 21
540.160844
 31
0.0
  0
ARC
  5
538
100
AcDbEntity
  8
M01
100
AcDbCircle
 10
452.257613
 20
544.160844
 30
0.0
 40
4.0
100
AcDbArc
 50
270.0
 51
90.0
  0
LINE
  5
539
100
AcDbEntity
  8
M01
100
AcDbLine
 10
444.257613
 20
564.160844
 30
0.0
 11
446.257613
 21
566.160844
 31
0.0
  0
LINE
  5
53A
100
AcDbEntity
  8
M01
100
AcDbLine
 10
446.257613
 20
522.160844
 30
0.0
 11
444.257613
 21
524.160844
 31
0.0
  0
LINE
  5
53B
100
AcDbEntity
  8
M01
100
AcDbLine
 10
444.257613
 20
524.160844
 30
0.0
 11
444.257613
 21
564.160844
 31
0.0
  0
LINE
  5
53C
100
AcDbEntity
  8
M01
100
AcDbLine
 10
446.257613
 20
566.160844
 30
0.0
 11
487.032216
 21
566.160844
 31
0.0
  0
LINE
  5
53D
100
AcDbEntity
  8
M01
100
AcDbLine
 10
446.257613
 20
522.160844
 30
0.0
 11
487.032216
 21
522.160844
 31
0.0
  0
LINE
  5
53E
100
AcDbEntity
  8
M03
100
AcDbLine
 10
511.08604
 20
621.989271
 30
0.0
 11
661.08604
 21
471.989271
 31
0.0
  0
LINE
  5
53F
100
AcDbEntity
  8
M03
100
AcDbLine
 10
505.429185
 20
616.332417
 30
0.0
 11
577.600758
 21
544.160844
 31
0.0
  0
LINE
  5
540
100
AcDbEntity
  8
CENTRE
100
AcDbLine
 10
494.115477
 20
633.30298
 30
0.0
 11
672.399748
 21
455.018708
 31
0.0
  0
CIRCLE
  5
541
100
AcDbEntity
  8
M03
100
AcDbCircle
 10
733.257613
 20
544.160844
 30
0.0
 40
4.0
  0
CIRCLE
  5
542
100
AcDbEntity
  8
M01
100
AcDbCircle
 10
508.257613
 20
619.160844
 30
0.0
 40
4.0
  0
LINE
  5
543
100
AcDbEntity
  8
CENTRE
100
AcDbLine
 10
352.635032
 20
544.160844
 30
0.0
 11
963.880194
 21
544.160844
 31
0.0
  0
LINE
  5
544
100
AcDbEntity
  8
CENTRE
100
AcDbLine
 10
658.257613
 20
674.69383
 30
0.0
 11
658.257613
 21
413.627857
 31
0.0
  0
ENDSEC
  0
SECTION
  2
OBJECTS
  0
DICTIONARY
  5
1C
100
AcDbDictionary
  3
ACAD_GROUP
350
1A
  3
ACAD_MLINESTYLE
350
1B
  0
DICTIONARY
  5
3
100
AcDbDictionary
280
     1
  3
ACAD_SORTENTS
360
4
  0
DICTIONARY
  5
1A
102
{ACAD_REACTORS
330
1C
102
}
100
AcDbDictionary
  0
DICTIONARY
  5
1B
102
{ACAD_REACTORS
330
1C
102
}
100
AcDbDictionary
  3
STANDARD
350
1E
  0
SORTENTSTABLE
  5
4
102
{ACAD_REACTORS
330
3
102
}
100
AcDbSortentsTable
330
2
  0
MLINESTYLE
  5
1E
102
{ACAD_REACTORS
330
1B
102
}
100
AcDbMlineStyle
  2
STANDARD
 70
     0
  3

 62
   256
 51
90.0
 52
90.0
 71
     2
 49
0.5
 62
   256
  6
BYLAYER
 49
-0.5
 62
   256
  6
BYLAYER
  0
ENDSEC
  0
EOF
