  0
SECTION
  2
HEADER
  9
$ACADVER
  1
AC1014
  9
$ACADMAINTVER
 70
     9
  9
$DWGCODEPAGE
  3
ANSI_1252
  9
$INSBASE
 10
0.0
 20
0.0
 30
0.0
  9
$EXTMIN
 10
173.782646
 20
74.128736
 30
-0.222949
  9
$EXTMAX
 10
1173.151693
 20
726.150925
 30
0.0
  9
$LIMMIN
 10
0.0
 20
0.0
  9
$LIMMAX
 10
1189.0
 20
841.0
  9
$ORTHOMODE
 70
     1
  9
$REGENMODE
 70
     1
  9
$FILLMODE
 70
     1
  9
$QTEXTMODE
 70
     0
  9
$MIRRTEXT
 70
     1
  9
$DRAGMODE
 70
     2
  9
$LTSCALE
 40
8.0
  9
$OSMODE
 70
     0
  9
$ATTMODE
 70
     1
  9
$TEXTSIZE
 40
3.0
  9
$TRACEWID
 40
10.0
  9
$TEXTSTYLE
  7
STANDARD
  9
$CLAYER
  8
HATCH
  9
$CELTYPE
  6
BYLAYER
  9
$CECOLOR
 62
   256
  9
$CELTSCALE
 40
1.0
  9
$DELOBJ
 70
     1
  9
$DISPSILH
 70
     0
  9
$DIMSCALE
 40
1.0
  9
$DIMASZ
 40
3.0
  9
$DIMEXO
 40
1.0
  9
$DIMDLI
 40
10.0
  9
$DIMRND
 40
0.01
  9
$DIMDLE
 40
1.25
  9
$DIMEXE
 40
2.5
  9
$DIMTP
 40
0.05
  9
$DIMTM
 40
0.0
  9
$DIMTXT
 40
3.0
  9
$DIMCEN
 40
-1.7
  9
$DIMTSZ
 40
0.0
  9
$DIMTOL
 70
     0
  9
$DIMLIM
 70
     0
  9
$DIMTIH
 70
     0
  9
$DIMTOH
 70
     0
  9
$DIMSE1
 70
     0
  9
$DIMSE2
 70
     0
  9
$DIMTAD
 70
     3
  9
$DIMZIN
 70
     1
  9
$DIMBLK
  1

  9
$DIMASO
 70
     1
  9
$DIMSHO
 70
     0
  9
$DIMPOST
  1

  9
$DIMAPOST
  1

  9
$DIMALT
 70
     0
  9
$DIMALTD
 70
     2
  9
$DIMALTF
 40
0.039
  9
$DIMLFAC
 40
1.0
  9
$DIMTOFL
 70
     0
  9
$DIMTVP
 40
1.5
  9
$DIMTIX
 70
     0
  9
$DIMSOXD
 70
     0
  9
$DIMSAH
 70
     0
  9
$DIMBLK1
  1

  9
$DIMBLK2
  1

  9
$DIMSTYLE
  2
DIM1
  9
$DIMCLRD
 70
     4
  9
$DIMCLRE
 70
     4
  9
$DIMCLRT
 70
     2
  9
$DIMTFAC
 40
0.7
  9
$DIMGAP
 40
1.5
  9
$DIMJUST
 70
     0
  9
$DIMSD1
 70
     0
  9
$DIMSD2
 70
     0
  9
$DIMTOLJ
 70
     1
  9
$DIMTZIN
 70
     1
  9
$DIMALTZ
 70
     1
  9
$DIMALTTZ
 70
     1
  9
$DIMFIT
 70
     0
  9
$DIMUPT
 70
     0
  9
$DIMUNIT
 70
     2
  9
$DIMDEC
 70
     2
  9
$DIMTDEC
 70
     2
  9
$DIMALTU
 70
     2
  9
$DIMALTTD
 70
     2
  9
$DIMTXSTY
  7
STANDARD
  9
$DIMAUNIT
 70
     0
  9
$LUNITS
 70
     2
  9
$LUPREC
 70
     2
  9
$SKETCHINC
 40
1.0
  9
$FILLETRAD
 40
15.0
  9
$AUNITS
 70
     0
  9
$AUPREC
 70
     3
  9
$MENU
  1
ACAD
  9
$ELEVATION
 40
0.0
  9
$PELEVATION
 40
0.0
  9
$THICKNESS
 40
0.0
  9
$LIMCHECK
 70
     0
  9
$BLIPMODE
 70
     1
  9
$CHAMFERA
 40
7.0
  9
$CHAMFERB
 40
7.0
  9
$CHAMFERC
 40
0.0
  9
$CHAMFERD
 40
0.0
  9
$SKPOLY
 70
     1
  9
$TDCREATE
 40
2449993.725698611
  9
$TDUPDATE
 40
2452213.503818379
  9
$TDINDWG
 40
1.2527185995
  9
$TDUSRTIMER
 40
1.2527185995
  9
$USRTIMER
 70
     1
  9
$ANGBASE
 50
0.0
  9
$ANGDIR
 70
     0
  9
$PDMODE
 70
     3
  9
$PDSIZE
 40
0.0
  9
$PLINEWID
 40
0.0
  9
$COORDS
 70
     2
  9
$SPLFRAME
 70
     0
  9
$SPLINETYPE
 70
     6
  9
$SPLINESEGS
 70
     6
  9
$ATTDIA
 70
     1
  9
$ATTREQ
 70
     1
  9
$HANDLING
 70
     1
  9
$HANDSEED
  5
545
  9
$SURFTAB1
 70
    12
  9
$SURFTAB2
 70
    12
  9
$SURFTYPE
 70
     6
  9
$SURFU
 70
    12
  9
$SURFV
 70
    12
  9
$UCSNAME
  2

  9
$UCSORG
 10
0.0
 20
0.0
 30
0.0
  9
$UCSXDIR
 10
1.0
 20
0.0
 30
0.0
  9
$UCSYDIR
 10
0.0
 20
1.0
 30
0.0
  9
$PUCSNAME
  2

  9
$PUCSORG
 10
0.0
 20
0.0
 30
0.0
  9
$PUCSXDIR
 10
1.0
 20
0.0
 30
0.0
  9
$PUCSYDIR
 10
0.0
 20
1.0
 30
0.0
  9
$USERI1
 70
     0
  9
$USERI2
 70
     0
  9
$USERI3
 70
     0
  9
$USERI4
 70
     0
  9
$USERI5
 70
     0
  9
$USERR1
 40
0.0
  9
$USERR2
 40
0.0
  9
$USERR3
 40
0.0
  9
$USERR4
 40
0.0
  9
$USERR5
 40
0.0
  9
$WORLDVIEW
 70
     0
  9
$SHADEDGE
 70
     3
  9
$SHADEDIF
 70
    70
  9
$TILEMODE
 70
     1
  9
$MAXACTVP
 70
    16
  9
$PINSBASE
 10
0.0
 20
0.0
 30
0.0
  9
$PLIMCHECK
 70
     0
  9
$PEXTMIN
 10
1.000000E+20
 20
1.000000E+20
 30
1.000000E+20
  9
$PEXTMAX
 10
-1.000000E+20
 20
-1.000000E+20
 30
-1.000000E+20
  9
$PLIMMIN
 10
0.0
 20
0.0
  9
$PLIMMAX
 10
12.0
 20
9.0
  9
$UNITMODE
 70
     0
  9
$VISRETAIN
 70
     0
  9
$PLINEGEN
 70
     0
  9
$PSLTSCALE
 70
     0
  9
$TREEDEPTH
 70
  3020
  9
$PICKSTYLE
 70
     1
  9
$CMLSTYLE
  2
STANDARD
  9
$CMLJUST
 70
     0
  9
$CMLSCALE
 40
1.0
  9
$PROXYGRAPHICS
 70
     1
  9
$MEASUREMENT
 70
     0
  0
ENDSEC
  0
SECTION
  2
CLASSES
  0
CLASS
  1
DICTIONARYVAR
  2
AcDbDictionaryVar
  3
"AutoCAD"
 90
        0
280
     0
281
     0
  0
CLASS
  1
LWPOLYLINE
  2
AcDbPolyline
  3
"AutoCAD"
 90
        0
280
     0
281
     1
  0
CLASS
  1
HATCH
  2
AcDbHatch
  3
"ACAD_SEDONA"
 90
        0
280
     0
281
     1
  0
CLASS
  1
SORTENTSTABLE
  2
AcDbSortentsTable
  3
"AutoCAD"
 90
        0
280
     0
281
     0
  0
CLASS
  1
WIPEOUTVARIABLES
  2
AcDbWipeoutVariables
  3
WIPEOUT
 90
        0
280
     0
281
     0
  0
CLASS
  1
WIPEOUT
  2
AcDbWipeout
  3
WIPEOUT
 90
      127
280
     0
281
     1
  0
ENDSEC
  0
SECTION
  2
TABLES
  0
TABLE
  2
VPORT
  5
14
100
AcDbSymbolTable
 70
     2
  0
VPORT
  5
544
100
AcDbSymbolTableRecord
100
AcDbViewportTableRecord
  2
*ACTIVE
 70
     0
 10
0.0
 20
0.0
 11
1.0
 21
1.0
 12
602.038644
 22
407.720885
 13
0.0
 23
0.0
 14
10.0
 24
10.0
 15
0.0
 25
0.0
 16
0.0
 26
0.0
 36
1.0
 17
16.313321
 27
12.779115
 37
0.222949
 40
841.0
 41
1.470516
 42
50.0
 43
0.0
 44
0.0
 50
0.0
 51
0.0
 71
     0
 72
  2000
 73
     1
 74
     2
 75
     0
 76
     0
 77
     0
 78
     1
  0
ENDTAB
  0
TABLE
  2
LTYPE
  5
F
100
AcDbSymbolTable
 70
     3
  0
LTYPE
  5
10
100
AcDbSymbolTableRecord
100
AcDbLinetypeTableRecord
  2
BYBLOCK
 70
     0
  3

 72
    65
 73
     0
 40
0.0
  0
LTYPE
  5
11
100
AcDbSymbolTableRecord
100
AcDbLinetypeTableRecord
  2
BYLAYER
 70
     0
  3

 72
    65
 73
     0
 40
0.0
  0
LTYPE
  5
7
100
AcDbSymbolTableRecord
100
AcDbLinetypeTableRecord
  2
CONTINUOUS
 70
     0
  3
Solid line
 72
    65
 73
     0
 40
0.0
  0
LTYPE
  5
13F
100
AcDbSymbolTableRecord
100
AcDbLinetypeTableRecord
  2
CENTER
 70
     0
  3
Center ____ _ ____ _ ____ _ ____ _ ____ _ ____
 72
    65
 73
     4
 40
2.0
 49
1.25
 74
     0
 49
-0.25
 74
     0
 49
0.25
 74
     0
 49
-0.25
 74
     0
  0
LTYPE
  5
54
100
AcDbSymbolTableRecord
100
AcDbLinetypeTableRecord
  2
HIDDEN
 70
     0
  3
Hidden __ __ __ __ __ __ __ __ __ __ __ __ __ _
 72
    65
 73
     2
 40
0.375
 49
0.25
 74
     0
 49
-0.125
 74
     0
  0
ENDTAB
  0
TABLE
  2
LAYER
  5
C
100
AcDbSymbolTable
 70
    11
  0
LAYER
  5
6
100
AcDbSymbolTableRecord
100
AcDbLayerTableRecord
  2
0
 70
     0
 62
     7
  6
CONTINUOUS
  0
LAYER
  5
13E
100
AcDbSymbolTableRecord
100
AcDbLayerTableRecord
  2
CENTRE
 70
     0
 62
     3
  6
CENTER
  0
LAYER
  5
31
100
AcDbSymbolTableRecord
100
AcDbLayerTableRecord
  2
M01
 70
     0
 62
     1
  6
CONTINUOUS
  0
LAYER
  5
229
100
AcDbSymbolTableRecord
100
AcDbLayerTableRecord
  2
M02
 70
     0
 62
     2
  6
CONTINUOUS
  0
LAYER
  5
53
100
AcDbSymbolTableRecord
100
AcDbLayerTableRecord
  2
M03
 70
     0
 62
     2
  6
HIDDEN
  0
LAYER
  5
24
100
AcDbSymbolTableRecord
100
AcDbLayerTableRecord
  2
M04
 70
     0
 62
     7
  6
CONTINUOUS
  0
LAYER
  5
234
100
AcDbSymbolTableRecord
100
AcDbLayerTableRecord
  2
M05
 70
     0
 62
     5
  6
CONTINUOUS
  0
LAYER
  5
44
100
AcDbSymbolTableRecord
100
AcDbLayerTableRecord
  2
DIMS
 70
     0
 62
     4
  6
CONTINUOUS
  0
LAYER
  5
21
100
AcDbSymbolTableRecord
100
AcDbLayerTableRecord
  2
TEXT
 70
     0
 62
     2
  6
CONTINUOUS
  0
LAYER
  5
1D
100
AcDbSymbolTableRecord
100
AcDbLayerTableRecord
  2
HATCH
 70
     0
 62
     4
  6
CONTINUOUS
  0
LAYER
  5
4D
100
AcDbSymbolTableRecord
100
AcDbLayerTableRecord
  2
DEFPOINTS
 70
     0
 62
     7
  6
CONTINUOUS
  0
ENDTAB
  0
TABLE
  2
STYLE
  5
D
100
AcDbSymbolTable
 70
     1
  0
STYLE
  5
E
100
AcDbSymbolTableRecord
100
AcDbTextStyleTableRecord
  2
STANDARD
 70
     0
 40
0.0
 41
1.0
 50
0.0
 71
     0
 42
3.0
  3
SIMPLEX
  4

  0
ENDTAB
  0
TABLE
  2
VIEW
  5
12
100
AcDbSymbolTable
 70
     0
  0
ENDTAB
  0
TABLE
  2
UCS
  5
13
100
AcDbSymbolTable
 70
     0
  0
ENDTAB
  0
TABLE
  2
APPID
  5
16
100
AcDbSymbolTable
 70
     1
  0
APPID
  5
17
100
AcDbSymbolTableRecord
100
AcDbRegAppTableRecord
  2
ACAD
 70
     0
  0
ENDTAB
  0
TABLE
  2
DIMSTYLE
  5
18
100
AcDbSymbolTable
 70
     2
  0
DIMSTYLE
105
1F
102
{ACAD_REACTORS
330
3EA
330
3DC
330
3CE
330
3C1
330
3B3
330
2BE
330
2B0
330
2A3
330
295
330
89
330
7C
330
6F
330
62
330
56
330
43
102
}
100
AcDbSymbolTableRecord
100
AcDbDimStyleTableRecord
  2
DIM1
 70
     0
  3

  4

  5

  6

  7

 40
1.0
 41
3.0
 42
1.0
 43
10.0
 44
2.5
 45
0.01
 46
1.25
 47
0.05
 48
0.0
140
3.0
141
-1.7
142
0.0
143
0.039
144
0.2
145
1.5
146
0.7
147
1.5
 71
     0
 72
     0
 73
     0
 74
     0
 75
     0
 76
     0
 77
     3
 78
     1
170
     0
171
     2
172
     0
173
     0
174
     0
175
     0
176
     4
177
     4
178
     2
270
     2
271
     2
272
     2
273
     2
274
     2
340
E
275
     0
280
     0
281
     0
282
     0
283
     1
284
     1
285
     1
286
     1
287
     0
288
     0
  0
DIMSTYLE
105
2F3
100
AcDbSymbolTableRecord
100
AcDbDimStyleTableRecord
  2
DIM1$7
 70
     0
  3

  4

  5

  6

  7

 40
1.0
 41
3.0
 42
1.0
 43
10.0
 44
2.5
 45
0.01
 46
1.25
 47
0.0
 48
0.0
140
3.0
141
-1.7
142
0.0
143
0.039
144
1.0
145
0.0
146
1.0
147
1.5
 71
     0
 72
     0
 73
     0
 74
     0
 75
     0
 76
     0
 77
     0
 78
     1
170
     0
171
     2
172
     0
173
     0
174
     0
175
     0
176
     4
177
     4
178
     2
270
     2
271
     2
272
     2
273
     2
274
     2
340
E
275
     0
280
     0
281
     0
282
     0
283
     1
284
     1
285
     1
286
     1
287
     0
288
     0
  0
ENDTAB
  0
TABLE
  2
BLOCK_RECORD
  5
1
100
AcDbSymbolTable
 70
    16
  0
BLOCK_RECORD
  5
2
102
{ACAD_XDICTIONARY
360
3
102
}
100
AcDbSymbolTableRecord
100
AcDbBlockTableRecord
  2
*MODEL_SPACE
  0
BLOCK_RECORD
  5
9
100
AcDbSymbolTableRecord
100
AcDbBlockTableRecord
  2
*PAPER_SPACE
  0
BLOCK_RECORD
  5
3EB
100
AcDbSymbolTableRecord
100
AcDbBlockTableRecord
  2
*D0
  0
BLOCK_RECORD
  5
3DD
100
AcDbSymbolTableRecord
100
AcDbBlockTableRecord
  2
*D1
  0
BLOCK_RECORD
  5
3CF
100
AcDbSymbolTableRecord
100
AcDbBlockTableRecord
  2
*D2
  0
BLOCK_RECORD
  5
3C2
100
AcDbSymbolTableRecord
100
AcDbBlockTableRecord
  2
*D3
  0
BLOCK_RECORD
  5
3B4
100
AcDbSymbolTableRecord
100
AcDbBlockTableRecord
  2
*D4
  0
BLOCK_RECORD
  5
2BF
100
AcDbSymbolTableRecord
100
AcDbBlockTableRecord
  2
*D5
  0
BLOCK_RECORD
  5
2B1
100
AcDbSymbolTableRecord
100
AcDbBlockTableRecord
  2
*D6
  0
BLOCK_RECORD
  5
2A4
100
AcDbSymbolTableRecord
100
AcDbBlockTableRecord
  2
*D7
  0
BLOCK_RECORD
  5
296
100
AcDbSymbolTableRecord
100
AcDbBlockTableRecord
  2
*D8
  0
BLOCK_RECORD
  5
E5
100
AcDbSymbolTableRecord
100
AcDbBlockTableRecord
  2
ARROW1
  0
BLOCK_RECORD
  5
8A
100
AcDbSymbolTableRecord
100
AcDbBlockTableRecord
  2
*D10
  0
BLOCK_RECORD
  5
7D
100
AcDbSymbolTableRecord
100
AcDbBlockTableRecord
  2
*D11
  0
BLOCK_RECORD
  5
70
100
AcDbSymbolTableRecord
100
AcDbBlockTableRecord
  2
*D12
  0
BLOCK_RECORD
  5
63
100
AcDbSymbolTableRecord
100
AcDbBlockTableRecord
  2
*D13
  0
BLOCK_RECORD
  5
57
100
AcDbSymbolTableRecord
100
AcDbBlockTableRecord
  2
*D14
  0
BLOCK_RECORD
  5
45
100
AcDbSymbolTableRecord
100
AcDbBlockTableRecord
  2
*D15
  0
ENDTAB
  0
ENDSEC
  0
SECTION
  2
BLOCKS
  0
BLOCK
  5
5
100
AcDbEntity
  8
0
100
AcDbBlockBegin
  2
*MODEL_SPACE
 70
     0
 10
0.0
 20
0.0
 30
0.0
  3
*MODEL_SPACE
  1

  0
ENDBLK
  5
8
100
AcDbEntity
  8
0
100
AcDbBlockEnd
  0
BLOCK
  5
A
100
AcDbEntity
 67
     1
  8
0
100
AcDbBlockBegin
  2
*PAPER_SPACE
 70
     0
 10
0.0
 20
0.0
 30
0.0
  3
*PAPER_SPACE
  1

  0
ENDBLK
  5
B
100
AcDbEntity
 67
     1
  8
0
100
AcDbBlockEnd
  0
BLOCK
  5
3F5
100
AcDbEntity
  8
0
100
AcDbBlockBegin
  2
*D0
 70
     1
 10
0.0
 20
0.0
 30
0.0
  3
*D0
  1

  0
LINE
  5
3EC
100
AcDbEntity
  8
0
  6
BYBLOCK
 62
     4
100
AcDbLine
 10
813.167613
 20
342.742476
 30
0.0
 11
859.392082
 21
342.742476
 31
0.0
  0
LINE
  5
3ED
100
AcDbEntity
  8
0
  6
BYBLOCK
 62
     4
100
AcDbLine
 10
815.167613
 20
282.742476
 30
0.0
 11
859.392082
 21
282.742476
 31
0.0
  0
LINE
  5
3EE
100
AcDbEntity
  8
0
  6
BYBLOCK
 62
     4
100
AcDbLine
 10
856.892082
 20
339.742476
 30
0.0
 11
856.892082
 21
285.742476
 31
0.0
  0
SOLID
  5
3EF
100
AcDbEntity
  8
0
  6
BYBLOCK
 62
     4
100
AcDbTrace
 10
856.392082
 20
339.742476
 30
0.0
 11
857.392082
 21
339.742476
 31
0.0
 12
856.892082
 22
342.742476
 32
0.0
 13
856.892082
 23
342.742476
 33
0.0
  0
SOLID
  5
3F0
100
AcDbEntity
  8
0
  6
BYBLOCK
 62
     4
100
AcDbTrace
 10
856.392082
 20
285.742476
 30
0.0
 11
857.392082
 21
285.742476
 31
0.0
 12
856.892082
 22
282.742476
 32
0.0
 13
856.892082
 23
282.742476
 33
0.0
  0
MTEXT
  5
3F1
100
AcDbEntity
  8
0
  6
BYBLOCK
 62
     2
100
AcDbMText
 10
853.892082
 20
312.742476
 30
0.0
 40
3.0
 41
0.0
 71
     5
 72
     1
  1
\A1;60.00
 11
0.0
 21
1.0
 31
0.0
  0
POINT
  5
3F2
100
AcDbEntity
  8
DEFPOINTS
  6
BYBLOCK
 62
     0
100
AcDbPoint
 10
812.167613
 20
342.742476
 30
0.0
  0
POINT
  5
3F3
100
AcDbEntity
  8
DEFPOINTS
  6
BYBLOCK
 62
     0
100
AcDbPoint
 10
814.167613
 20
282.742476
 30
0.0
  0
POINT
  5
3F4
100
AcDbEntity
  8
DEFPOINTS
  6
BYBLOCK
 62
     0
100
AcDbPoint
 10
856.892082
 20
282.742476
 30
0.0
  0
ENDBLK
  5
3F6
100
AcDbEntity
  8
0
100
AcDbBlockEnd
  0
BLOCK
  5
3E8
100
AcDbEntity
  8
0
100
AcDbBlockBegin
  2
*D1
 70
     1
 10
0.0
 20
0.0
 30
0.0
  3
*D1
  1

  0
LINE
  5
3DE
100
AcDbEntity
  8
0
  6
BYBLOCK
 62
     4
100
AcDbLine
 10
813.167613
 20
282.742476
 30
0.0
 11
859.392082
 21
282.742476
 31
0.0
  0
LINE
  5
3DF
100
AcDbEntity
  8
0
  6
BYBLOCK
 62
     4
100
AcDbLine
 10
833.681004
 20
275.742476
 30
0.0
 11
859.392082
 21
275.742476
 31
0.0
  0
LINE
  5
3E0
100
AcDbEntity
  8
0
  6
BYBLOCK
 62
     4
100
AcDbLine
 10
856.892082
 20
285.742476
 30
0.0
 11
856.892082
 21
288.742476
 31
0.0
  0
LINE
  5
3E1
100
AcDbEntity
  8
0
  6
BYBLOCK
 62
     4
100
AcDbLine
 10
856.892082
 20
272.742476
 30
0.0
 11
856.892082
 21
260.456761
 31
0.0
  0
SOLID
  5
3E2
100
AcDbEntity
  8
0
  6
BYBLOCK
 62
     4
100
AcDbTrace
 10
856.392082
 20
285.742476
 30
0.0
 11
857.392082
 21
285.742476
 31
0.0
 12
856.892082
 22
282.742476
 32
0.0
 13
856.892082
 23
282.742476
 33
0.0
  0
SOLID
  5
3E3
100
AcDbEntity
  8
0
  6
BYBLOCK
 62
     4
100
AcDbTrace
 10
856.392082
 20
272.742476
 30
0.0
 11
857.392082
 21
272.742476
 31
0.0
 12
856.892082
 22
275.742476
 32
0.0
 13
856.892082
 23
275.742476
 33
0.0
  0
MTEXT
  5
3E4
100
AcDbEntity
  8
0
  6
BYBLOCK
 62
     2
100
AcDbMText
 10
853.892082
 20
265.099619
 30
0.0
 40
3.0
 41
0.0
 71
     5
 72
     1
  1
\A1;7.0
 11
0.0
 21
1.0
 31
0.0
  0
POINT
  5
3E5
100
AcDbEntity
  8
DEFPOINTS
  6
BYBLOCK
 62
     0
100
AcDbPoint
 10
812.167613
 20
282.742476
 30
0.0
  0
POINT
  5
3E6
100
AcDbEntity
  8
DEFPOINTS
  6
BYBLOCK
 62
     0
100
AcDbPoint
 10
832.681004
 20
275.742476
 30
0.0
  0
POINT
  5
3E7
100
AcDbEntity
  8
DEFPOINTS
  6
BYBLOCK
 62
     0
100
AcDbPoint
 10
856.892082
 20
275.742476
 30
0.0
  0
ENDBLK
  5
3E9
100
AcDbEntity
  8
0
100
AcDbBlockEnd
  0
BLOCK
  5
3DA
100
AcDbEntity
  8
0
100
AcDbBlockBegin
  2
*D2
 70
     1
 10
0.0
 20
0.0
 30
0.0
  3
*D2
  1

  0
LINE
  5
3D0
100
AcDbEntity
  8
0
  6
BYBLOCK
 62
     4
100
AcDbLine
 10
813.167613
 20
342.742476
 30
0.0
 11
859.392082
 21
342.742476
 31
0.0
  0
LINE
  5
3D1
100
AcDbEntity
  8
0
  6
BYBLOCK
 62
     4
100
AcDbLine
 10
822.167613
 20
349.742476
 30
0.0
 11
859.392082
 21
349.742476
 31
0.0
  0
LINE
  5
3D2
100
AcDbEntity
  8
0
  6
BYBLOCK
 62
     4
100
AcDbLine
 10
856.892082
 20
339.742476
 30
0.0
 11
856.892082
 21
336.742476
 31
0.0
  0
LINE
  5
3D3
100
AcDbEntity
  8
0
  6
BYBLOCK
 62
     4
100
AcDbLine
 10
856.892082
 20
352.742476
 30
0.0
 11
856.892082
 21
365.02819
 31
0.0
  0
SOLID
  5
3D4
100
AcDbEntity
  8
0
  6
BYBLOCK
 62
     4
100
AcDbTrace
 10
856.392082
 20
339.742476
 30
0.0
 11
857.392082
 21
339.742476
 31
0.0
 12
856.892082
 22
342.742476
 32
0.0
 13
856.892082
 23
342.742476
 33
0.0
  0
SOLID
  5
3D5
100
AcDbEntity
  8
0
  6
BYBLOCK
 62
     4
100
AcDbTrace
 10
856.392082
 20
352.742476
 30
0.0
 11
857.392082
 21
352.742476
 31
0.0
 12
856.892082
 22
349.742476
 32
0.0
 13
856.892082
 23
349.742476
 33
0.0
  0
MTEXT
  5
3D6
100
AcDbEntity
  8
0
  6
BYBLOCK
 62
     2
100
AcDbMText
 10
853.892082
 20
360.385333
 30
0.0
 40
3.0
 41
0.0
 71
     5
 72
     1
  1
\A1;7.0
 11
0.0
 21
1.0
 31
0.0
  0
POINT
  5
3D7
100
AcDbEntity
  8
DEFPOINTS
  6
BYBLOCK
 62
     0
100
AcDbPoint
 10
812.167613
 20
342.742476
 30
0.0
  0
POINT
  5
3D8
100
AcDbEntity
  8
DEFPOINTS
  6
BYBLOCK
 62
     0
100
AcDbPoint
 10
821.167613
 20
349.742476
 30
0.0
  0
POINT
  5
3D9
100
AcDbEntity
  8
DEFPOINTS
  6
BYBLOCK
 62
     0
100
AcDbPoint
 10
856.892082
 20
349.742476
 30
0.0
  0
ENDBLK
  5
3DB
100
AcDbEntity
  8
0
100
AcDbBlockEnd
  0
BLOCK
  5
3CC
100
AcDbEntity
  8
0
100
AcDbBlockBegin
  2
*D3
 70
     1
 10
0.0
 20
0.0
 30
0.0
  3
*D3
  1

  0
LINE
  5
3C3
100
AcDbEntity
  8
0
  6
BYBLOCK
 62
     4
100
AcDbLine
 10
870.818995
 20
-32.251076
 30
0.0
 11
870.818995
 21
-70.066192
 31
0.0
  0
LINE
  5
3C4
100
AcDbEntity
  8
0
  6
BYBLOCK
 62
     4
100
AcDbLine
 10
830.818995
 20
-32.251076
 30
0.0
 11
830.818995
 21
-70.066192
 31
0.0
  0
LINE
  5
3C5
100
AcDbEntity
  8
0
  6
BYBLOCK
 62
     4
100
AcDbLine
 10
867.818995
 20
-67.566192
 30
0.0
 11
833.818995
 21
-67.566192
 31
0.0
  0
SOLID
  5
3C6
100
AcDbEntity
  8
0
  6
BYBLOCK
 62
     4
100
AcDbTrace
 10
867.818995
 20
-67.066192
 30
0.0
 11
867.818995
 21
-68.066192
 31
0.0
 12
870.818995
 22
-67.566192
 32
0.0
 13
870.818995
 23
-67.566192
 33
0.0
  0
SOLID
  5
3C7
100
AcDbEntity
  8
0
  6
BYBLOCK
 62
     4
100
AcDbTrace
 10
833.818995
 20
-67.066192
 30
0.0
 11
833.818995
 21
-68.066192
 31
0.0
 12
830.818995
 22
-67.566192
 32
0.0
 13
830.818995
 23
-67.566192
 33
0.0
  0
MTEXT
  5
3C8
100
AcDbEntity
  8
0
  6
BYBLOCK
 62
     2
100
AcDbMText
 10
850.818995
 20
-64.566192
 30
0.0
 40
3.0
 41
0.0
 71
     5
 72
     1
  1
\A1;\U+220540.00 H7
  0
POINT
  5
3C9
100
AcDbEntity
  8
DEFPOINTS
  6
BYBLOCK
 62
     0
100
AcDbPoint
 10
870.818995
 20
-31.251076
 30
0.0
  0
POINT
  5
3CA
100
AcDbEntity
  8
DEFPOINTS
  6
BYBLOCK
 62
     0
100
AcDbPoint
 10
830.818995
 20
-31.251076
 30
0.0
  0
POINT
  5
3CB
100
AcDbEntity
  8
DEFPOINTS
  6
BYBLOCK
 62
     0
100
AcDbPoint
 10
830.818995
 20
-67.566192
 30
0.0
  0
ENDBLK
  5
3CD
100
AcDbEntity
  8
0
100
AcDbBlockEnd
  0
BLOCK
  5
3BF
100
AcDbEntity
  8
0
100
AcDbBlockBegin
  2
*D4
 70
     1
 10
0.0
 20
0.0
 30
0.0
  3
*D4
  1

  0
LINE
  5
3B5
100
AcDbEntity
  8
0
  6
BYBLOCK
 62
     4
100
AcDbLine
 10
248.765534
 20
25.51995
 30
0.0
 11
248.765534
 21
41.696115
 31
0.0
  0
LINE
  5
3B6
100
AcDbEntity
  8
0
  6
BYBLOCK
 62
     4
100
AcDbLine
 10
256.765534
 20
25.51995
 30
0.0
 11
256.765534
 21
41.696115
 31
0.0
  0
LINE
  5
3B7
100
AcDbEntity
  8
0
  6
BYBLOCK
 62
     4
100
AcDbLine
 10
245.765534
 20
39.196115
 30
0.0
 11
242.765534
 21
39.196115
 31
0.0
  0
LINE
  5
3B8
100
AcDbEntity
  8
0
  6
BYBLOCK
 62
     4
100
AcDbLine
 10
259.765534
 20
39.196115
 30
0.0
 11
286.336963
 21
39.196115
 31
0.0
  0
SOLID
  5
3B9
100
AcDbEntity
  8
0
  6
BYBLOCK
 62
     4
100
AcDbTrace
 10
245.765534
 20
39.696115
 30
0.0
 11
245.765534
 21
38.696115
 31
0.0
 12
248.765534
 22
39.196115
 32
0.0
 13
248.765534
 23
39.196115
 33
0.0
  0
SOLID
  5
3BA
100
AcDbEntity
  8
0
  6
BYBLOCK
 62
     4
100
AcDbTrace
 10
259.765534
 20
39.696115
 30
0.0
 11
259.765534
 21
38.696115
 31
0.0
 12
256.765534
 22
39.196115
 32
0.0
 13
256.765534
 23
39.196115
 33
0.0
  0
MTEXT
  5
3BB
100
AcDbEntity
  8
0
  6
BYBLOCK
 62
     2
100
AcDbMText
 10
274.551249
 20
42.196115
 30
0.0
 40
3.0
 41
0.0
 71
     5
 72
     1
  1
\A1;\U+22058.00 H7
  0
POINT
  5
3BC
100
AcDbEntity
  8
DEFPOINTS
  6
BYBLOCK
 62
     0
100
AcDbPoint
 10
248.765534
 20
24.51995
 30
0.0
  0
POINT
  5
3BD
100
AcDbEntity
  8
DEFPOINTS
  6
BYBLOCK
 62
     0
100
AcDbPoint
 10
256.765534
 20
24.51995
 30
0.0
  0
POINT
  5
3BE
100
AcDbEntity
  8
DEFPOINTS
  6
BYBLOCK
 62
     0
100
AcDbPoint
 10
256.765534
 20
39.196115
 30
0.0
  0
ENDBLK
  5
3C0
100
AcDbEntity
  8
0
100
AcDbBlockEnd
  0
BLOCK
  5
2CA
100
AcDbEntity
  8
0
100
AcDbBlockBegin
  2
*D5
 70
     1
 10
0.0
 20
0.0
 30
0.0
  3
*D5
  1

  0
LINE
  5
2C0
100
AcDbEntity
  8
0
  6
BYBLOCK
 62
     4
100
AcDbLine
 10
1180.619986
 20
-78.194062
 30
0.0
 11
1198.907003
 21
-78.194062
 31
0.0
  0
LINE
  5
2C1
100
AcDbEntity
  8
0
  6
BYBLOCK
 62
     4
100
AcDbLine
 10
1181.119986
 20
-61.194062
 30
0.0
 11
1198.907003
 21
-61.194062
 31
0.0
  0
LINE
  5
2C2
100
AcDbEntity
  8
0
  6
BYBLOCK
 62
     4
100
AcDbLine
 10
1196.407003
 20
-81.194062
 30
0.0
 11
1196.407003
 21
-84.194062
 31
0.0
  0
LINE
  5
2C3
100
AcDbEntity
  8
0
  6
BYBLOCK
 62
     4
100
AcDbLine
 10
1196.407003
 20
-58.194062
 30
0.0
 11
1196.407003
 21
-40.76549
 31
0.0
  0
SOLID
  5
2C4
100
AcDbEntity
  8
0
  6
BYBLOCK
 62
     4
100
AcDbTrace
 10
1195.907003
 20
-81.194062
 30
0.0
 11
1196.907003
 21
-81.194062
 31
0.0
 12
1196.407003
 22
-78.194062
 32
0.0
 13
1196.407003
 23
-78.194062
 33
0.0
  0
SOLID
  5
2C5
100
AcDbEntity
  8
0
  6
BYBLOCK
 62
     4
100
AcDbTrace
 10
1195.907003
 20
-58.194062
 30
0.0
 11
1196.907003
 21
-58.194062
 31
0.0
 12
1196.407003
 22
-61.194062
 32
0.0
 13
1196.407003
 23
-61.194062
 33
0.0
  0
MTEXT
  5
2C6
100
AcDbEntity
  8
0
  6
BYBLOCK
 62
     2
100
AcDbMText
 10
1193.407003
 20
-47.979776
 30
0.0
 40
3.0
 41
0.0
 71
     5
 72
     1
  1
\A1;17.00
 11
0.0
 21
1.0
 31
0.0
  0
POINT
  5
2C7
100
AcDbEntity
  8
DEFPOINTS
  6
BYBLOCK
 62
     0
100
AcDbPoint
 10
1179.619986
 20
-78.194062
 30
0.0
  0
POINT
  5
2C8
100
AcDbEntity
  8
DEFPOINTS
  6
BYBLOCK
 62
     0
100
AcDbPoint
 10
1180.119986
 20
-61.194062
 30
0.0
  0
POINT
  5
2C9
100
AcDbEntity
  8
DEFPOINTS
  6
BYBLOCK
 62
     0
100
AcDbPoint
 10
1196.407003
 20
-61.194062
 30
0.0
  0
ENDBLK
  5
2CB
100
AcDbEntity
  8
0
100
AcDbBlockEnd
  0
BLOCK
  5
2BC
100
AcDbEntity
  8
0
100
AcDbBlockBegin
  2
*D6
 70
     1
 10
0.0
 20
0.0
 30
0.0
  3
*D6
  1

  0
LINE
  5
2B2
100
AcDbEntity
  8
0
  6
BYBLOCK
 62
     4
100
AcDbLine
 10
1180.119986
 20
-60.194062
 30
0.0
 11
1180.119986
 21
-41.044247
 31
0.0
  0
LINE
  5
2B3
100
AcDbEntity
  8
0
  6
BYBLOCK
 62
     4
100
AcDbLine
 10
1160.119986
 20
-60.194062
 30
0.0
 11
1160.119986
 21
-41.044247
 31
0.0
  0
LINE
  5
2B4
100
AcDbEntity
  8
0
  6
BYBLOCK
 62
     4
100
AcDbLine
 10
1183.119986
 20
-43.544247
 30
0.0
 11
1186.119986
 21
-43.544247
 31
0.0
  0
LINE
  5
2B5
100
AcDbEntity
  8
0
  6
BYBLOCK
 62
     4
100
AcDbLine
 10
1157.119986
 20
-43.544247
 30
0.0
 11
1127.691415
 21
-43.544247
 31
0.0
  0
SOLID
  5
2B6
100
AcDbEntity
  8
0
  6
BYBLOCK
 62
     4
100
AcDbTrace
 10
1183.119986
 20
-43.044247
 30
0.0
 11
1183.119986
 21
-44.044247
 31
0.0
 12
1180.119986
 22
-43.544247
 32
0.0
 13
1180.119986
 23
-43.544247
 33
0.0
  0
SOLID
  5
2B7
100
AcDbEntity
  8
0
  6
BYBLOCK
 62
     4
100
AcDbTrace
 10
1157.119986
 20
-43.044247
 30
0.0
 11
1157.119986
 21
-44.044247
 31
0.0
 12
1160.119986
 22
-43.544247
 32
0.0
 13
1160.119986
 23
-43.544247
 33
0.0
  0
MTEXT
  5
2B8
100
AcDbEntity
  8
0
  6
BYBLOCK
 62
     2
100
AcDbMText
 10
1140.905701
 20
-40.544247
 30
0.0
 40
3.0
 41
0.0
 71
     5
 72
     1
  1
\A1;\U+220520.00 H7
  0
POINT
  5
2B9
100
AcDbEntity
  8
DEFPOINTS
  6
BYBLOCK
 62
     0
100
AcDbPoint
 10
1180.119986
 20
-61.194062
 30
0.0
  0
POINT
  5
2BA
100
AcDbEntity
  8
DEFPOINTS
  6
BYBLOCK
 62
     0
100
AcDbPoint
 10
1160.119986
 20
-61.194062
 30
0.0
  0
POINT
  5
2BB
100
AcDbEntity
  8
DEFPOINTS
  6
BYBLOCK
 62
     0
100
AcDbPoint
 10
1160.119986
 20
-43.544247
 30
0.0
  0
ENDBLK
  5
2BD
100
AcDbEntity
  8
0
100
AcDbBlockEnd
  0
BLOCK
  5
2AE
100
AcDbEntity
  8
0
100
AcDbBlockBegin
  2
*D7
 70
     1
 10
0.0
 20
0.0
 30
0.0
  3
*D7
  1

  0
LINE
  5
2A5
100
AcDbEntity
  8
0
  6
BYBLOCK
 62
     4
100
AcDbLine
 10
1181.119986
 20
-65.771412
 30
0.0
 11
1181.119986
 21
-31.166834
 31
0.0
  0
LINE
  5
2A6
100
AcDbEntity
  8
0
  6
BYBLOCK
 62
     4
100
AcDbLine
 10
1159.119986
 20
-65.771412
 30
0.0
 11
1159.119986
 21
-31.166834
 31
0.0
  0
LINE
  5
2A7
100
AcDbEntity
  8
0
  6
BYBLOCK
 62
     4
100
AcDbLine
 10
1178.119986
 20
-33.666834
 30
0.0
 11
1162.119986
 21
-33.666834
 31
0.0
  0
SOLID
  5
2A8
100
AcDbEntity
  8
0
  6
BYBLOCK
 62
     4
100
AcDbTrace
 10
1178.119986
 20
-33.166834
 30
0.0
 11
1178.119986
 21
-34.166834
 31
0.0
 12
1181.119986
 22
-33.666834
 32
0.0
 13
1181.119986
 23
-33.666834
 33
0.0
  0
SOLID
  5
2A9
100
AcDbEntity
  8
0
  6
BYBLOCK
 62
     4
100
AcDbTrace
 10
1162.119986
 20
-33.166834
 30
0.0
 11
1162.119986
 21
-34.166834
 31
0.0
 12
1159.119986
 22
-33.666834
 32
0.0
 13
1159.119986
 23
-33.666834
 33
0.0
  0
MTEXT
  5
2AA
100
AcDbEntity
  8
0
  6
BYBLOCK
 62
     2
100
AcDbMText
 10
1170.119986
 20
-30.666834
 30
0.0
 40
3.0
 41
0.0
 71
     5
 72
     1
  1
\A1;22.00
  0
POINT
  5
2AB
100
AcDbEntity
  8
DEFPOINTS
  6
BYBLOCK
 62
     0
100
AcDbPoint
 10
1181.119986
 20
-66.771412
 30
0.0
  0
POINT
  5
2AC
100
AcDbEntity
  8
DEFPOINTS
  6
BYBLOCK
 62
     0
100
AcDbPoint
 10
1159.119986
 20
-66.771412
 30
0.0
  0
POINT
  5
2AD
100
AcDbEntity
  8
DEFPOINTS
  6
BYBLOCK
 62
     0
100
AcDbPoint
 10
1159.119986
 20
-33.666834
 30
0.0
  0
ENDBLK
  5
2AF
100
AcDbEntity
  8
0
100
AcDbBlockEnd
  0
BLOCK
  5
2A1
100
AcDbEntity
  8
0
100
AcDbBlockBegin
  2
*D8
 70
     1
 10
0.0
 20
0.0
 30
0.0
  3
*D8
  1

  0
LINE
  5
297
100
AcDbEntity
  8
0
  6
BYBLOCK
 62
     4
100
AcDbLine
 10
1158.119986
 20
-71.194062
 30
0.0
 11
1134.331964
 21
-71.194062
 31
0.0
  0
LINE
  5
298
100
AcDbEntity
  8
0
  6
BYBLOCK
 62
     4
100
AcDbLine
 10
1159.119986
 20
-66.194062
 30
0.0
 11
1134.331964
 21
-66.194062
 31
0.0
  0
LINE
  5
299
100
AcDbEntity
  8
0
  6
BYBLOCK
 62
     4
100
AcDbLine
 10
1136.831964
 20
-74.194062
 30
0.0
 11
1136.831964
 21
-77.194062
 31
0.0
  0
LINE
  5
29A
100
AcDbEntity
  8
0
  6
BYBLOCK
 62
     4
100
AcDbLine
 10
1136.831964
 20
-63.194062
 30
0.0
 11
1136.831964
 21
-50.908347
 31
0.0
  0
SOLID
  5
29B
100
AcDbEntity
  8
0
  6
BYBLOCK
 62
     4
100
AcDbTrace
 10
1136.331964
 20
-74.194062
 30
0.0
 11
1137.331964
 21
-74.194062
 31
0.0
 12
1136.831964
 22
-71.194062
 32
0.0
 13
1136.831964
 23
-71.194062
 33
0.0
  0
SOLID
  5
29C
100
AcDbEntity
  8
0
  6
BYBLOCK
 62
     4
100
AcDbTrace
 10
1136.331964
 20
-63.194062
 30
0.0
 11
1137.331964
 21
-63.194062
 31
0.0
 12
1136.831964
 22
-66.194062
 32
0.0
 13
1136.831964
 23
-66.194062
 33
0.0
  0
MTEXT
  5
29D
100
AcDbEntity
  8
0
  6
BYBLOCK
 62
     2
100
AcDbMText
 10
1133.831964
 20
-55.551204
 30
0.0
 40
3.0
 41
0.0
 71
     5
 72
     1
  1
\A1;5.0
 11
0.0
 21
1.0
 31
0.0
  0
POINT
  5
29E
100
AcDbEntity
  8
DEFPOINTS
  6
BYBLOCK
 62
     0
100
AcDbPoint
 10
1159.119986
 20
-71.194062
 30
0.0
  0
POINT
  5
29F
100
AcDbEntity
  8
DEFPOINTS
  6
BYBLOCK
 62
     0
100
AcDbPoint
 10
1160.119986
 20
-66.194062
 30
0.0
  0
POINT
  5
2A0
100
AcDbEntity
  8
DEFPOINTS
  6
BYBLOCK
 62
     0
100
AcDbPoint
 10
1136.831964
 20
-66.194062
 30
0.0
  0
ENDBLK
  5
2A2
100
AcDbEntity
  8
0
100
AcDbBlockEnd
  0
BLOCK
  5
E9
100
AcDbEntity
  8
0
100
AcDbBlockBegin
  2
ARROW1
 70
     0
 10
0.0
 20
0.0
 30
0.0
  3
ARROW1
  1

  0
LINE
  5
E6
100
AcDbEntity
  8
0
100
AcDbLine
 10
-1.0
 20
-0.2
 30
0.0
 11
-1.0
 21
0.0
 31
0.0
  0
LINE
  5
E7
100
AcDbEntity
  8
0
100
AcDbLine
 10
0.0
 20
0.0
 30
0.0
 11
-1.0
 21
-0.2
 31
0.0
  0
SOLID
  5
E8
100
AcDbEntity
  8
0
100
AcDbTrace
 10
0.0
 20
0.0
 30
0.0
 11
-1.0
 21
0.2
 31
0.0
 12
-1.0
 22
0.0
 32
0.0
 13
-1.0
 23
0.0
 33
0.0
  0
ENDBLK
  5
EA
100
AcDbEntity
  8
0
100
AcDbBlockEnd
  0
BLOCK
  5
94
100
AcDbEntity
  8
0
100
AcDbBlockBegin
  2
*D10
 70
     1
 10
0.0
 20
0.0
 30
0.0
  3
*D10
  1

  0
LINE
  5
8B
100
AcDbEntity
  8
0
  6
BYBLOCK
 62
     4
100
AcDbLine
 10
515.557613
 20
481.660844
 30
0.0
 11
362.572563
 21
481.660844
 31
0.0
  0
LINE
  5
8C
100
AcDbEntity
  8
0
  6
BYBLOCK
 62
     4
100
AcDbLine
 10
515.557613
 20
606.660844
 30
0.0
 11
362.572563
 21
606.660844
 31
0.0
  0
LINE
  5
8D
100
AcDbEntity
  8
0
  6
BYBLOCK
 62
     4
100
AcDbLine
 10
365.072563
 20
484.660844
 30
0.0
 11
365.072563
 21
603.660844
 31
0.0
  0
SOLID
  5
8E
100
AcDbEntity
  8
0
  6
BYBLOCK
 62
     4
100
AcDbTrace
 10
364.572563
 20
484.660844
 30
0.0
 11
365.572563
 21
484.660844
 31
0.0
 12
365.072563
 22
481.660844
 32
0.0
 13
365.072563
 23
481.660844
 33
0.0
  0
SOLID
  5
8F
100
AcDbEntity
  8
0
  6
BYBLOCK
 62
     4
100
AcDbTrace
 10
364.572563
 20
603.660844
 30
0.0
 11
365.572563
 21
603.660844
 31
0.0
 12
365.072563
 22
606.660844
 32
0.0
 13
365.072563
 23
606.660844
 33
0.0
  0
MTEXT
  5
90
100
AcDbEntity
  8
0
  6
BYBLOCK
 62
     2
100
AcDbMText
 10
362.072563
 20
544.160844
 30
0.0
 40
3.0
 41
0.0
 71
     5
 72
     1
  1
\A1;B=125.00
 11
0.0
 21
1.0
 31
0.0
  0
POINT
  5
91
100
AcDbEntity
  8
DEFPOINTS
  6
BYBLOCK
 62
     0
100
AcDbPoint
 10
516.557613
 20
481.660844
 30
0.0
  0
POINT
  5
92
100
AcDbEntity
  8
DEFPOINTS
  6
BYBLOCK
 62
     0
100
AcDbPoint
 10
516.557613
 20
606.660844
 30
0.0
  0
POINT
  5
93
100
AcDbEntity
  8
DEFPOINTS
  6
BYBLOCK
 62
     0
100
AcDbPoint
 10
365.072563
 20
606.660844
 30
0.0
  0
ENDBLK
  5
95
100
AcDbEntity
  8
0
100
AcDbBlockEnd
  0
BLOCK
  5
87
100
AcDbEntity
  8
0
100
AcDbBlockBegin
  2
*D11
 70
     1
 10
0.0
 20
0.0
 30
0.0
  3
*D11
  1

  0
LINE
  5
7E
100
AcDbEntity
  8
0
  6
BYBLOCK
 62
     4
100
AcDbLine
 10
523.000391
 20
445.660844
 30
0.0
 11
352.819476
 21
445.660844
 31
0.0
  0
LINE
  5
7F
100
AcDbEntity
  8
0
  6
BYBLOCK
 62
     4
100
AcDbLine
 10
523.000391
 20
642.660844
 30
0.0
 11
352.819476
 21
642.660844
 31
0.0
  0
LINE
  5
80
100
AcDbEntity
  8
0
  6
BYBLOCK
 62
     4
100
AcDbLine
 10
355.319476
 20
448.660844
 30
0.0
 11
355.319476
 21
639.660844
 31
0.0
  0
SOLID
  5
81
100
AcDbEntity
  8
0
  6
BYBLOCK
 62
     4
100
AcDbTrace
 10
354.819476
 20
448.660844
 30
0.0
 11
355.819476
 21
448.660844
 31
0.0
 12
355.319476
 22
445.660844
 32
0.0
 13
355.319476
 23
445.660844
 33
0.0
  0
SOLID
  5
82
100
AcDbEntity
  8
0
  6
BYBLOCK
 62
     4
100
AcDbTrace
 10
354.819476
 20
639.660844
 30
0.0
 11
355.819476
 21
639.660844
 31
0.0
 12
355.319476
 22
642.660844
 32
0.0
 13
355.319476
 23
642.660844
 33
0.0
  0
MTEXT
  5
83
100
AcDbEntity
  8
0
  6
BYBLOCK
 62
     2
100
AcDbMText
 10
352.319476
 20
544.160844
 30
0.0
 40
3.0
 41
0.0
 71
     5
 72
     1
  1
\A1;L1=197.00
 11
0.0
 21
1.0
 31
0.0
  0
POINT
  5
84
100
AcDbEntity
  8
DEFPOINTS
  6
BYBLOCK
 62
     0
100
AcDbPoint
 10
524.000391
 20
445.660844
 30
0.0
  0
POINT
  5
85
100
AcDbEntity
  8
DEFPOINTS
  6
BYBLOCK
 62
     0
100
AcDbPoint
 10
524.000391
 20
642.660844
 30
0.0
  0
POINT
  5
86
100
AcDbEntity
  8
DEFPOINTS
  6
BYBLOCK
 62
     0
100
AcDbPoint
 10
355.319476
 20
642.660844
 30
0.0
  0
ENDBLK
  5
88
100
AcDbEntity
  8
0
100
AcDbBlockEnd
  0
BLOCK
  5
7A
100
AcDbEntity
  8
0
100
AcDbBlockBegin
  2
*D12
 70
     1
 10
0.0
 20
0.0
 30
0.0
  3
*D12
  1

  0
LINE
  5
71
100
AcDbEntity
  8
0
  6
BYBLOCK
 62
     4
100
AcDbLine
 10
774.709885
 20
444.953737
 30
0.0
 11
810.895972
 21
408.767651
 31
0.0
  0
LINE
  5
72
100
AcDbEntity
  8
0
  6
BYBLOCK
 62
     4
100
AcDbLine
 10
819.964719
 20
490.208571
 30
0.0
 11
856.150806
 21
454.022485
 31
0.0
  0
LINE
  5
73
100
AcDbEntity
  8
0
  6
BYBLOCK
 62
     4
100
AcDbLine
 10
811.249525
 20
412.656738
 30
0.0
 11
852.261719
 21
453.668931
 31
0.0
  0
SOLID
  5
74
100
AcDbEntity
  8
0
  6
BYBLOCK
 62
     4
100
AcDbTrace
 10
810.895972
 20
413.010291
 30
0.0
 11
811.603079
 21
412.303185
 31
0.0
 12
809.128205
 22
410.535418
 32
0.0
 13
809.128205
 23
410.535418
 33
0.0
  0
SOLID
  5
75
100
AcDbEntity
  8
0
  6
BYBLOCK
 62
     4
100
AcDbTrace
 10
851.908165
 20
454.022485
 30
0.0
 11
852.615272
 21
453.315378
 31
0.0
 12
854.383039
 22
455.790252
 32
0.0
 13
854.383039
 23
455.790252
 33
0.0
  0
MTEXT
  5
76
100
AcDbEntity
  8
0
  6
BYBLOCK
 62
     2
100
AcDbMText
 10
829.634302
 20
435.284155
 30
0.0
 40
3.0
 41
0.0
 71
     5
 72
     1
  1
\A1;W=64.00
 11
0.707107
 21
0.707107
 31
0.0
  0
POINT
  5
77
100
AcDbEntity
  8
DEFPOINTS
  6
BYBLOCK
 62
     0
100
AcDbPoint
 10
774.002779
 20
445.660844
 30
0.0
  0
POINT
  5
78
100
AcDbEntity
  8
DEFPOINTS
  6
BYBLOCK
 62
     0
100
AcDbPoint
 10
819.257613
 20
490.915678
 30
0.0
  0
POINT
  5
79
100
AcDbEntity
  8
DEFPOINTS
  6
BYBLOCK
 62
     0
100
AcDbPoint
 10
854.383039
 20
455.790252
 30
0.0
  0
ENDBLK
  5
7B
100
AcDbEntity
  8
0
100
AcDbBlockEnd
  0
BLOCK
  5
6D
100
AcDbEntity
  8
0
100
AcDbBlockBegin
  2
*D13
 70
     1
 10
0.0
 20
0.0
 30
0.0
  3
*D13
  1

  0
LINE
  5
64
100
AcDbEntity
  8
0
  6
BYBLOCK
 62
     4
100
AcDbLine
 10
533.257613
 20
624.360844
 30
0.0
 11
533.257613
 21
692.168115
 31
0.0
  0
LINE
  5
65
100
AcDbEntity
  8
0
  6
BYBLOCK
 62
     4
100
AcDbLine
 10
658.257613
 20
675.69383
 30
0.0
 11
658.257613
 21
692.168115
 31
0.0
  0
LINE
  5
66
100
AcDbEntity
  8
0
  6
BYBLOCK
 62
     4
100
AcDbLine
 10
536.257613
 20
689.668115
 30
0.0
 11
655.257613
 21
689.668115
 31
0.0
  0
SOLID
  5
67
100
AcDbEntity
  8
0
  6
BYBLOCK
 62
     4
100
AcDbTrace
 10
536.257613
 20
690.168115
 30
0.0
 11
536.257613
 21
689.168115
 31
0.0
 12
533.257613
 22
689.668115
 32
0.0
 13
533.257613
 23
689.668115
 33
0.0
  0
SOLID
  5
68
100
AcDbEntity
  8
0
  6
BYBLOCK
 62
     4
100
AcDbTrace
 10
655.257613
 20
690.168115
 30
0.0
 11
655.257613
 21
689.168115
 31
0.0
 12
658.257613
 22
689.668115
 32
0.0
 13
658.257613
 23
689.668115
 33
0.0
  0
MTEXT
  5
69
100
AcDbEntity
  8
0
  6
BYBLOCK
 62
     2
100
AcDbMText
 10
595.757613
 20
692.668115
 30
0.0
 40
3.0
 41
0.0
 71
     5
 72
     1
  1
\A1;A=125.00
  0
POINT
  5
6A
100
AcDbEntity
  8
DEFPOINTS
  6
BYBLOCK
 62
     0
100
AcDbPoint
 10
533.257613
 20
623.360844
 30
0.0
  0
POINT
  5
6B
100
AcDbEntity
  8
DEFPOINTS
  6
BYBLOCK
 62
     0
100
AcDbPoint
 10
658.257613
 20
674.69383
 30
0.0
  0
POINT
  5
6C
100
AcDbEntity
  8
DEFPOINTS
  6
BYBLOCK
 62
     0
100
AcDbPoint
 10
658.257613
 20
689.668115
 30
0.0
  0
ENDBLK
  5
6E
100
AcDbEntity
  8
0
100
AcDbBlockEnd
  0
BLOCK
  5
60
100
AcDbEntity
  8
0
100
AcDbBlockBegin
  2
*D14
 70
     1
 10
0.0
 20
0.0
 30
0.0
  3
*D14
  1

  0
LINE
  5
58
100
AcDbEntity
  8
0
  6
BYBLOCK
 62
     4
100
AcDbLine
 10
783.257613
 20
624.360844
 30
0.0
 11
783.257613
 21
692.168115
 31
0.0
  0
LINE
  5
59
100
AcDbEntity
  8
0
  6
BYBLOCK
 62
     4
100
AcDbLine
 10
661.257613
 20
689.668115
 30
0.0
 11
780.257613
 21
689.668115
 31
0.0
  0
SOLID
  5
5A
100
AcDbEntity
  8
0
  6
BYBLOCK
 62
     4
100
AcDbTrace
 10
661.257613
 20
690.168115
 30
0.0
 11
661.257613
 21
689.168115
 31
0.0
 12
658.257613
 22
689.668115
 32
0.0
 13
658.257613
 23
689.668115
 33
0.0
  0
SOLID
  5
5B
100
AcDbEntity
  8
0
  6
BYBLOCK
 62
     4
100
AcDbTrace
 10
780.257613
 20
690.168115
 30
0.0
 11
780.257613
 21
689.168115
 31
0.0
 12
783.257613
 22
689.668115
 32
0.0
 13
783.257613
 23
689.668115
 33
0.0
  0
MTEXT
  5
5C
100
AcDbEntity
  8
0
  6
BYBLOCK
 62
     2
100
AcDbMText
 10
720.757613
 20
692.668115
 30
0.0
 40
3.0
 41
0.0
 71
     5
 72
     1
  1
\A1;A=125.00
  0
POINT
  5
5D
100
AcDbEntity
  8
DEFPOINTS
  6
BYBLOCK
 62
     0
100
AcDbPoint
 10
658.257613
 20
674.69383
 30
0.0
  0
POINT
  5
5E
100
AcDbEntity
  8
DEFPOINTS
  6
BYBLOCK
 62
     0
100
AcDbPoint
 10
783.257613
 20
623.360844
 30
0.0
  0
POINT
  5
5F
100
AcDbEntity
  8
DEFPOINTS
  6
BYBLOCK
 62
     0
100
AcDbPoint
 10
783.257613
 20
689.668115
 30
0.0
  0
ENDBLK
  5
61
100
AcDbEntity
  8
0
100
AcDbBlockEnd
  0
BLOCK
  5
50
100
AcDbEntity
  8
0
100
AcDbBlockBegin
  2
*D15
 70
     1
 10
0.0
 20
0.0
 30
0.0
  3
*D15
  1

  0
LINE
  5
46
100
AcDbEntity
  8
0
  6
BYBLOCK
 62
     4
100
AcDbLine
 10
497.257613
 20
616.918065
 30
0.0
 11
497.257613
 21
700.524621
 31
0.0
  0
LINE
  5
47
100
AcDbEntity
  8
0
  6
BYBLOCK
 62
     4
100
AcDbLine
 10
819.257613
 20
616.918065
 30
0.0
 11
819.257613
 21
700.524621
 31
0.0
  0
LINE
  5
48
100
AcDbEntity
  8
0
  6
BYBLOCK
 62
     4
100
AcDbLine
 10
500.257613
 20
698.024621
 30
0.0
 11
816.257613
 21
698.024621
 31
0.0
  0
SOLID
  5
49
100
AcDbEntity
  8
0
  6
BYBLOCK
 62
     4
100
AcDbTrace
 10
500.257613
 20
698.524621
 30
0.0
 11
500.257613
 21
697.524621
 31
0.0
 12
497.257613
 22
698.024621
 32
0.0
 13
497.257613
 23
698.024621
 33
0.0
  0
SOLID
  5
4A
100
AcDbEntity
  8
0
  6
BYBLOCK
 62
     4
100
AcDbTrace
 10
816.257613
 20
698.524621
 30
0.0
 11
816.257613
 21
697.524621
 31
0.0
 12
819.257613
 22
698.024621
 32
0.0
 13
819.257613
 23
698.024621
 33
0.0
  0
MTEXT
  5
4B
100
AcDbEntity
  8
0
  6
BYBLOCK
 62
     2
100
AcDbMText
 10
658.257613
 20
701.024621
 30
0.0
 40
3.0
 41
0.0
 71
     5
 72
     1
  1
\A1;L=322.00
  0
POINT
  5
4C
100
AcDbEntity
  8
DEFPOINTS
  6
BYBLOCK
 62
     0
100
AcDbPoint
 10
497.257613
 20
615.918065
 30
0.0
  0
POINT
  5
4E
100
AcDbEntity
  8
DEFPOINTS
  6
BYBLOCK
 62
     0
100
AcDbPoint
 10
819.257613
 20
615.918065
 30
0.0
  0
POINT
  5
4F
100
AcDbEntity
  8
DEFPOINTS
  6
BYBLOCK
 62
     0
100
AcDbPoint
 10
819.257613
 20
698.024621
 30
0.0
  0
ENDBLK
  5
51
100
AcDbEntity
  8
0
100
AcDbBlockEnd
  0
ENDSEC
  0
SECTION
  2
ENTITIES
  0
TEXT
  5
20
100
AcDbEntity
  8
TEXT
100
AcDbText
 10
872.4478
 20
660.123838
 30
0.0
 40
6.0
  1
depending on the bush size to be used.
100
AcDbText
  0
TEXT
  5
22
100
AcDbEntity
  8
TEXT
100
AcDbText
 10
839.781844
 20
670.220246
 30
0.0
 40
6.0
  1
NOTE: Manifold width `W' can be 50mm or 64mm
100
AcDbText
  0
ARC
  5
23
100
AcDbEntity
  8
M04
100
AcDbCircle
 10
499.315293
 20
606.662038
 30
0.0
 40
15.0
100
AcDbArc
 50
135.0
 51
225.0
  0
ARC
  5
25
100
AcDbEntity
  8
M04
100
AcDbCircle
 10
533.256419
 20
640.603163
 30
0.0
 40
15.0
100
AcDbArc
 50
45.0
 51
135.0
  0
ARC
  5
26
100
AcDbEntity
  8
M04
100
AcDbCircle
 10
624.315293
 20
606.662038
 30
0.0
 40
15.0
100
AcDbArc
 50
135.0
 51
225.0
  0
ARC
  5
27
100
AcDbEntity
  8
M04
100
AcDbCircle
 10
658.256419
 20
640.603163
 30
0.0
 40
15.0
100
AcDbArc
 50
45.0
 51
135.0
  0
ARC
  5
28
100
AcDbEntity
  8
M04
100
AcDbCircle
 10
817.199932
 20
481.65965
 30
0.0
 40
15.0
100
AcDbArc
 50
315.0
 51
45.0
  0
ARC
  5
29
100
AcDbEntity
  8
M04
100
AcDbCircle
 10
783.258806
 20
447.718525
 30
0.0
 40
15.0
100
AcDbArc
 50
225.0
 51
315.0
  0
ARC
  5
2A
100
AcDbEntity
  8
M04
100
AcDbCircle
 10
783.258807
 20
640.603163
 30
0.0
 40
15.0
100
AcDbArc
 50
45.0
 51
135.0
  0
ARC
  5
2B
100
AcDbEntity
  8
M04
100
AcDbCircle
 10
817.199932
 20
606.662038
 30
0.0
 40
15.0
100
AcDbArc
 50
315.0
 51
45.0
  0
ARC
  5
2C
100
AcDbEntity
  8
M04
100
AcDbCircle
 10
692.199932
 20
481.65965
 30
0.0
 40
15.0
100
AcDbArc
 50
315.0
 51
45.0
  0
ARC
  5
2D
100
AcDbEntity
  8
M04
100
AcDbCircle
 10
658.258807
 20
447.718525
 30
0.0
 40
15.0
100
AcDbArc
 50
225.0
 51
315.0
  0
ARC
  5
2E
100
AcDbEntity
  8
M04
100
AcDbCircle
 10
499.315293
 20
481.65965
 30
0.0
 40
15.0
100
AcDbArc
 50
135.0
 51
225.0
  0
ARC
  5
2F
100
AcDbEntity
  8
M04
100
AcDbCircle
 10
533.256419
 20
447.718525
 30
0.0
 40
15.0
100
AcDbArc
 50
225.0
 51
315.0
  0
LINE
  5
30
100
AcDbEntity
  8
M01
100
AcDbLine
 10
819.257613
 20
472.403622
 30
0.0
 11
792.514834
 21
445.660844
 31
0.0
  0
LINE
  5
32
100
AcDbEntity
  8
M04
100
AcDbLine
 10
827.806534
 20
471.053048
 30
0.0
 11
793.865408
 21
437.111923
 31
0.0
  0
LINE
  5
33
100
AcDbEntity
  8
M01
100
AcDbLine
 10
694.257613
 20
472.403622
 30
0.0
 11
667.514834
 21
445.660844
 31
0.0
  0
LINE
  5
34
100
AcDbEntity
  8
M04
100
AcDbLine
 10
702.806534
 20
471.053048
 30
0.0
 11
668.865408
 21
437.111923
 31
0.0
  0
LINE
  5
35
100
AcDbEntity
  8
M01
100
AcDbLine
 10
497.257613
 20
472.403622
 30
0.0
 11
524.000391
 21
445.660844
 31
0.0
  0
LINE
  5
36
100
AcDbEntity
  8
M04
100
AcDbLine
 10
488.708692
 20
471.053048
 30
0.0
 11
522.649817
 21
437.111923
 31
0.0
  0
LINE
  5
37
100
AcDbEntity
  8
M01
100
AcDbLine
 10
497.257613
 20
615.918065
 30
0.0
 11
524.000391
 21
642.660844
 31
0.0
  0
LINE
  5
38
100
AcDbEntity
  8
M04
100
AcDbLine
 10
488.708692
 20
617.268639
 30
0.0
 11
522.649817
 21
651.209765
 31
0.0
  0
LINE
  5
39
100
AcDbEntity
  8
M04
100
AcDbLine
 10
613.708692
 20
617.268639
 30
0.0
 11
647.649817
 21
651.209765
 31
0.0
  0
LINE
  5
3A
100
AcDbEntity
  8
M01
100
AcDbLine
 10
622.257613
 20
615.918065
 30
0.0
 11
649.000391
 21
642.660844
 31
0.0
  0
LINE
  5
3B
100
AcDbEntity
  8
M01
100
AcDbLine
 10
819.257613
 20
615.918065
 30
0.0
 11
792.514834
 21
642.660844
 31
0.0
  0
LINE
  5
3C
100
AcDbEntity
  8
M04
100
AcDbLine
 10
827.806534
 20
617.268639
 30
0.0
 11
793.865408
 21
651.209765
 31
0.0
  0
TEXT
  5
3D
100
AcDbEntity
  8
TEXT
100
AcDbText
 10
316.334056
 20
209.405344
 30
0.0
 40
6.0
  1
design may vary from this example !
100
AcDbText
  0
TEXT
  5
3E
100
AcDbEntity
  8
TEXT
100
AcDbText
 10
315.953189
 20
219.501752
 30
0.0
 40
6.0
  1
you finalize your tool design, as our final system
100
AcDbText
  0
TEXT
  5
3F
100
AcDbEntity
  8
TEXT
100
AcDbText
 10
292.659069
 20
229.59816
 30
0.0
 40
6.0
  1
N.B. ALL designs MUST be approved by Fast Heat BEFORE
100
AcDbText
  0
HATCH
  5
40
100
AcDbEntity
  8
HATCH
100
AcDbHatch
 10
0.0
 20
0.0
 30
0.0
210
0.0
220
0.0
230
1.0
  2
_U
 70
     0
 71
     1
 91
       12
 92
        7
 72
     1
 73
     1
 93
       34
 10
481.2576125642798
 20
342.742475753018
 42
0.0
 10
481.2576125642798
 20
336.742475753018
 42
0.0
 10
469.2576125642798
 20
336.742475753018
 42
0.0
 10
469.2576125642798
 20
284.7424757530183
 42
0.0
 10
471.2576125642799
 20
282.7424757530181
 42
0.0
 10
629.2576125642798
 20
282.7424757530181
 42
0.0
 10
629.2576125642799
 20
290.042475753018
 42
0.0
 10
629.2576125642798
 20
292.5424757530178
 42
0.0
 10
629.95761256428
 20
292.5424757530178
 42
0.0
 10
629.95761256428
 20
294.0424757530178
 42
0.0
 10
632.2576125642799
 20
295.3703813721539
 42
0.0
 10
634.55761256428
 20
294.0424757530178
 42
0.0
 10
634.5576125642799
 20
292.5424757530178
 42
0.0
 10
635.2576125642799
 20
292.5424757530178
 42
0.0
 10
635.2576125642799
 20
290.042475753018
 42
0.0
 10
635.2576125642799
 20
282.7424757530181
 42
0.0
 10
647.7576125642801
 20
282.7424757530181
 42
0.0
 10
648.25761256428
 20
283.2424757530176
 42
0.0
 10
648.25761256428
 20
291.7424757530179
 42
0.0
 10
648.2576125642801
 20
292.7424757530179
 42
0.0
 10
649.2576125642801
 20
292.7424757530179
 42
0.0
 10
654.2576125642799
 20
292.7424757530178
 42
0.0
 10
654.2576125642799
 20
299.7424757530183
 42
0.0
 10
595.7576125642799
 20
299.7424757530183
 42
-0.414213562373096
 10
591.7576125642799
 20
303.7424757530183
 42
0.0
 10
591.7576125642799
 20
325.7424757530177
 42
-1.0
 10
599.7576125642799
 20
325.7424757530177
 42
0.0
 10
599.7576125642798
 20
307.7424757530182
 42
0.0
 10
658.2576125642799
 20
307.7424757530183
 42
0.0
 10
658.2576125642799
 20
337.7424757530178
 42
0.0
 10
649.7576125642799
 20
337.7424757530178
 42
0.0
 10
648.7576125642799
 20
337.7424757530178
 42
0.0
 10
648.7576125642799
 20
338.7424757530178
 42
0.0
 10
648.7576125642799
 20
342.7424757530179
 42
0.0
 97
       32
330
354
330
35A
330
361
330
47A
330
2E9
330
2D2
330
2D3
330
2E7
330
48D
330
480
330
461
330
48C
330
487
330
48A
330
247
330
231
330
23C
330
232
330
239
330
23A
330
230
330
22F
330
246
330
280
330
290
330
289
330
28A
330
28F
330
466
330
360
330
359
330
35B
 92
        7
 72
     1
 73
     1
 93
       11
 10
716.7576125642799
 20
307.7424757530182
 42
0.0
 10
716.75761256428
 20
325.7424757530177
 42
-0.4142135623730948
 10
720.75761256428
 20
329.7424757530176
 42
0.0
 10
779.2576125642799
 20
329.7424757530176
 42
0.0
 10
779.2576125642799
 20
342.7424757530177
 42
0.0
 10
667.7576125642799
 20
342.7424757530178
 42
0.0
 10
667.7576125642799
 20
338.7424757530178
 42
0.0
 10
667.7576125642799
 20
337.7424757530178
 42
0.0
 10
666.7576125642799
 20
337.7424757530178
 42
0.0
 10
658.2576125642799
 20
337.7424757530178
 42
0.0
 10
658.2576125642799
 20
307.7424757530183
 42
0.0
 97
       11
330
362
330
36B
330
36A
330
294
330
2E8
330
2DA
330
2D9
330
2E9
330
47A
330
361
330
364
 92
        7
 72
     1
 73
     1
 93
       42
 10
720.7576125642799
 20
299.7424757530183
 42
0.0
 10
662.25761256428
 20
299.7424757530183
 42
0.0
 10
662.2576125642799
 20
292.7424757530178
 42
0.0
 10
667.2576125642799
 20
292.7424757530177
 42
0.0
 10
668.2576125642797
 20
292.7424757530177
 42
0.0
 10
668.2576125642799
 20
291.7424757530178
 42
0.0
 10
668.2576125642799
 20
283.2424757530176
 42
0.0
 10
668.7576125642796
 20
282.742475753018
 42
0.0
 10
681.2576125642799
 20
282.742475753018
 42
0.0
 10
681.2576125642799
 20
290.042475753018
 42
0.0
 10
681.2576125642799
 20
292.5424757530178
 42
0.0
 10
681.9576125642799
 20
292.5424757530178
 42
0.0
 10
681.9576125642799
 20
294.0424757530178
 42
0.0
 10
684.2576125642799
 20
295.3703813721539
 42
0.0
 10
686.55761256428
 20
294.0424757530179
 42
0.0
 10
686.5576125642799
 20
292.5424757530178
 42
0.0
 10
687.25761256428
 20
292.5424757530178
 42
0.0
 10
687.2576125642799
 20
290.042475753018
 42
0.0
 10
687.2576125642799
 20
282.7424757530181
 42
0.0
 10
769.25761256428
 20
282.742475753018
 42
0.0
 10
769.25761256428
 20
283.0424757530178
 42
0.0
 10
769.9576125642798
 20
283.7424757530178
 42
0.0
 10
796.5576125642797
 20
283.7424757530178
 42
0.0
 10
797.2576125642798
 20
283.0424757530179
 42
0.0
 10
797.2576125642799
 20
282.7424757530179
 42
0.0
 10
801.5163457646993
 20
282.7424757530179
 42
0.0
 10
801.5163457646993
 20
286.7424757530181
 42
-1.0
 10
809.5163457646993
 20
286.7424757530183
 42
0.0
 10
809.5163457646993
 20
282.7424757530179
 42
0.0
 10
813.2576125642795
 20
282.7424757530179
 42
0.0
 10
815.2576125642799
 20
284.7424757530182
 42
0.0
 10
815.2576125642799
 20
340.742475753018
 42
0.0
 10
813.2576125642801
 20
342.7424757530177
 42
0.0
 10
809.5163457646993
 20
342.7424757530177
 42
0.0
 10
809.5163457646993
 20
338.7424757530183
 42
-1.0
 10
801.5163457646993
 20
338.7424757530183
 42
0.0
 10
801.5163457646993
 20
342.7424757530177
 42
0.0
 10
787.25761256428
 20
342.7424757530177
 42
0.0
 10
787.2576125642799
 20
325.7424757530176
 42
-0.4142135623730951
 10
783.2576125642799
 20
321.7424757530176
 42
0.0
 10
724.75761256428
 20
321.7424757530176
 42
0.0
 10
724.75761256428
 20
303.7424757530183
 42
-0.4142135623731044
 97
       37
330
489
330
294
330
3AF
330
3B2
330
3B0
330
369
330
368
330
367
330
365
330
35E
330
355
330
465
330
28F
330
28C
330
28B
330
291
330
281
330
22D
330
260
330
24A
330
256
330
24B
330
254
330
253
330
24D
330
24C
330
261
330
31C
330
31B
330
321
330
316
330
317
330
3AE
330
3B1
330
3AD
330
486
330
48B
 92
       22
 72
     0
 73
     1
 93
        4
 10
769.95761256428
 20
283.7424757530178
 10
769.25761256428
 20
283.0424757530178
 10
775.0987305768227
 20
283.0424757530178
 10
774.398730576823
 20
283.7424757530178
 97
        4
330
321
330
31B
330
315
330
302
 92
       23
 72
     0
 73
     1
 93
        4
 10
775.398730576823
 20
282.7424757530179
 10
775.0987305768229
 20
283.0424757530177
 10
769.25761256428
 20
283.0424757530179
 10
769.25761256428
 20
282.7424757530179
 97
        4
330
315
330
31C
330
22D
330
30D
 92
       23
 72
     0
 73
     1
 93
        4
 10
783.2576125642799
 20
283.0424757530178
 10
783.2576125642799
 20
283.7424757530178
 10
774.3987305768225
 20
283.7424757530178
 10
775.0987305768227
 20
283.0424757530178
 97
        4
330
321
330
302
330
315
330
323
 92
       23
 72
     0
 73
     1
 93
        4
 10
783.2576125642799
 20
282.7424757530179
 10
783.2576125642799
 20
283.0424757530178
 10
775.098730576823
 20
283.0424757530178
 10
775.3987305768228
 20
282.7424757530179
 97
        4
330
315
330
30D
330
22D
330
323
 92
       23
 72
     0
 73
     1
 93
        4
 10
791.416494551737
 20
283.0424757530177
 10
792.1164945517373
 20
283.7424757530178
 10
783.2576125642798
 20
283.7424757530178
 10
783.2576125642798
 20
283.0424757530178
 97
        4
330
321
330
323
330
315
330
303
 92
       23
 72
     0
 73
     1
 93
        4
 10
783.2576125642799
 20
283.0424757530177
 10
783.2576125642799
 20
282.7424757530179
 10
791.1164945517371
 20
282.7424757530179
 10
791.416494551737
 20
283.0424757530178
 97
        4
330
315
330
323
330
22D
330
30F
 92
       22
 72
     0
 73
     1
 93
        4
 10
797.2576125642798
 20
283.0424757530178
 10
796.5576125642798
 20
283.7424757530178
 10
792.1164945517371
 20
283.7424757530178
 10
791.416494551737
 20
283.0424757530178
 97
        4
330
321
330
303
330
315
330
316
 92
       23
 72
     0
 73
     1
 93
        4
 10
791.416494551737
 20
283.0424757530178
 10
791.1164945517373
 20
282.7424757530179
 10
797.2576125642798
 20
282.7424757530179
 10
797.2576125642801
 20
283.0424757530177
 97
        4
330
315
330
30F
330
22D
330
317
 92
       24
 93
        4
 72
     1
 10
762.746089
 20
299.352856
 11
776.946089
 21
299.352856
 72
     1
 10
776.946089
 20
299.352856
 11
776.946089
 21
302.352856
 72
     1
 10
776.946089
 20
302.352856
 11
762.746089
 21
302.352856
 72
     1
 10
762.746089
 20
302.352856
 11
762.746089
 21
299.352856
 97
        1
330
353
 75
     0
 76
     0
 52
45.0
 41
6.0
 77
     0
 78
     1
 53
45.0
 43
0.0
 44
0.0
 45
-4.242640687119284
 46
4.242640687119285
 79
     0
 47
0.039911
 98
       11
 10
534.839784
 20
323.772553
 10
677.601484
 20
322.301362
 10
739.047885
 20
302.808063
 10
771.630456
 20
283.4345
 10
771.750237
 20
282.875743
 10
775.782861
 20
283.234944
 10
775.902642
 20
282.875743
 10
785.485118
 20
283.314768
 10
785.165703
 20
282.915653
 10
792.91154
 20
283.234944
 10
792.312634
 20
282.915653
  0
HATCH
  5
41
100
AcDbEntity
  8
HATCH
100
AcDbHatch
 10
0.0
 20
0.0
 30
0.0
210
0.0
220
0.0
230
1.0
  2
_U
 70
     0
 71
     1
 91
        1
 92
        7
 72
     0
 73
     1
 93
        4
 10
669.2576125642798
 20
345.7424757530179
 10
669.25761256428
 20
342.7424757530179
 10
765.2576125642799
 20
342.7424757530177
 10
765.25761256428
 20
345.7424757530179
 97
        4
330
293
330
2DC
330
294
330
36E
 75
     0
 76
     0
 52
135.0
 41
0.8
 77
     0
 78
     1
 53
135.0
 43
0.0
 44
0.0
 45
-0.5656854249492382
 46
-0.565685424949238
 79
     0
 47
0.234288
 98
        1
 10
739.146548
 20
344.966165
  0
HATCH
  5
42
100
AcDbEntity
  8
HATCH
100
AcDbHatch
 10
0.0
 20
0.0
 30
0.0
210
0.0
220
0.0
230
1.0
  2
_U
 70
     0
 71
     1
 91
        1
 92
        7
 72
     0
 73
     1
 93
        4
 10
801.25761256428
 20
345.7424757530178
 10
801.25761256428
 20
342.7424757530177
 10
813.2576125642797
 20
342.7424757530177
 10
813.2576125642797
 20
345.7424757530178
 97
        4
330
293
330
36D
330
294
330
483
 75
     0
 76
     0
 52
135.0
 41
0.8
 77
     0
 78
     1
 53
135.0
 43
0.0
 44
0.0
 45
-0.5656854249492382
 46
-0.565685424949238
 79
     0
 47
0.164598
 98
        1
 10
809.892437
 20
344.538096
  0
DIMENSION
  5
43
100
AcDbEntity
  8
DIMS
100
AcDbDimension
  2
*D15
 10
819.257613
 20
698.024621
 30
0.0
 11
658.257613
 21
701.024621
 31
0.0
  1
L=<>
  3
DIM1
100
AcDbAlignedDimension
 13
497.257613
 23
615.918065
 33
0.0
 14
819.257613
 24
615.918065
 34
0.0
100
AcDbRotatedDimension
1001
ACAD
1000
DSTYLE
1002
{
1070
   144
1040
1.0
1002
}
  0
LINE
  5
52
100
AcDbEntity
  8
M03
100
AcDbLine
 10
595.757613
 20
540.160844
 30
0.0
 11
720.757613
 21
540.160844
 31
0.0
  0
LINE
  5
55
100
AcDbEntity
  8
M03
100
AcDbLine
 10
595.757613
 20
548.160844
 30
0.0
 11
720.757613
 21
548.160844
 31
0.0
  0
DIMENSION
  5
56
100
AcDbEntity
  8
DIMS
100
AcDbDimension
  2
*D14
 10
783.257613
 20
689.668115
 30
0.0
 11
720.757613
 21
692.668115
 31
0.0
  1
A=<>
  3
DIM1
100
AcDbAlignedDimension
 13
658.257613
 23
674.69383
 33
0.0
 14
783.257613
 24
623.360844
 34
0.0
100
AcDbRotatedDimension
1001
ACAD
1000
DSTYLE
1002
{
1070
    75
1070
     1
1070
   144
1040
1.0
1070
   287
1070
     4
1002
}
  0
DIMENSION
  5
62
100
AcDbEntity
  8
DIMS
100
AcDbDimension
  2
*D13
 10
658.257613
 20
689.668115
 30
0.0
 11
595.757613
 21
692.668115
 31
0.0
  1
A=<>
  3
DIM1
100
AcDbAlignedDimension
 13
533.257613
 23
623.360844
 33
0.0
 14
658.257613
 24
674.69383
 34
0.0
100
AcDbRotatedDimension
1001
ACAD
1000
DSTYLE
1002
{
1070
   144
1040
1.0
1002
}
  0
DIMENSION
  5
6F
100
AcDbEntity
  8
DIMS
100
AcDbDimension
  2
*D12
 10
854.383039
 20
455.790252
 30
0.0
 11
829.634302
 21
435.284155
 31
0.0
 70
     1
  1
W=<>
  3
DIM1
100
AcDbAlignedDimension
 13
774.002779
 23
445.660844
 33
0.0
 14
819.257613
 24
490.915678
 34
0.0
1001
ACAD
1000
DSTYLE
1002
{
1070
   144
1040
1.0
1002
}
  0
DIMENSION
  5
7C
100
AcDbEntity
  8
DIMS
100
AcDbDimension
  2
*D11
 10
355.319476
 20
642.660844
 30
0.0
 11
352.319476
 21
544.160844
 31
0.0
  1
L1=<>
  3
DIM1
100
AcDbAlignedDimension
 13
524.000391
 23
445.660844
 33
0.0
 14
524.000391
 24
642.660844
 34
0.0
 50
90.0
100
AcDbRotatedDimension
1001
ACAD
1000
DSTYLE
1002
{
1070
   144
1040
1.0
1002
}
  0
DIMENSION
  5
89
100
AcDbEntity
  8
DIMS
100
AcDbDimension
  2
*D10
 10
365.072563
 20
606.660844
 30
0.0
 11
362.072563
 21
544.160844
 31
0.0
  1
B=<>
  3
DIM1
100
AcDbAlignedDimension
 13
516.557613
 23
481.660844
 33
0.0
 14
516.557613
 24
606.660844
 34
0.0
 50
90.0
100
AcDbRotatedDimension
1001
ACAD
1000
DSTYLE
1002
{
1070
   144
1040
1.0
1002
}
  0
LINE
  5
96
100
AcDbEntity
  8
DIMS
 62
     4
100
AcDbLine
 10
622.902274
 20
442.905505
 30
0.0
 11
622.902274
 21
438.105505
 31
0.0
  0
LINE
  5
97
100
AcDbEntity
  8
DIMS
 62
     4
100
AcDbLine
 10
622.902274
 20
449.705505
 30
0.0
 11
622.902274
 21
454.505505
 31
0.0
  0
LINE
  5
98
100
AcDbEntity
  8
DIMS
 62
     4
100
AcDbLine
 10
619.502274
 20
446.305505
 30
0.0
 11
614.702274
 21
446.305505
 31
0.0
  0
LINE
  5
99
100
AcDbEntity
  8
DIMS
 62
     4
100
AcDbLine
 10
626.302274
 20
446.305505
 30
0.0
 11
631.102274
 21
446.305505
 31
0.0
  0
LINE
  5
9A
100
AcDbEntity
  8
DIMS
 62
     4
100
AcDbLine
 10
622.902274
 20
448.005505
 30
0.0
 11
622.902274
 21
444.605505
 31
0.0
  0
LINE
  5
9B
100
AcDbEntity
  8
DIMS
 62
     4
100
AcDbLine
 10
624.602274
 20
446.305505
 30
0.0
 11
621.202274
 21
446.305505
 31
0.0
  0
CIRCLE
  5
9C
100
AcDbEntity
  8
M04
100
AcDbCircle
 10
622.902274
 20
446.305505
 30
0.0
 40
6.5
  0
LINE
  5
9D
100
AcDbEntity
  8
DIMS
 62
     4
100
AcDbLine
 10
622.902274
 20
645.416183
 30
0.0
 11
622.902274
 21
650.216183
 31
0.0
  0
LINE
  5
9E
100
AcDbEntity
  8
DIMS
 62
     4
100
AcDbLine
 10
622.902274
 20
638.616183
 30
0.0
 11
622.902274
 21
633.816183
 31
0.0
  0
LINE
  5
9F
100
AcDbEntity
  8
DIMS
 62
     4
100
AcDbLine
 10
619.502274
 20
642.016183
 30
0.0
 11
614.702274
 21
642.016183
 31
0.0
  0
LINE
  5
A0
100
AcDbEntity
  8
DIMS
 62
     4
100
AcDbLine
 10
626.302274
 20
642.016183
 30
0.0
 11
631.102274
 21
642.016183
 31
0.0
  0
LINE
  5
A1
100
AcDbEntity
  8
DIMS
 62
     4
100
AcDbLine
 10
622.902274
 20
640.316183
 30
0.0
 11
622.902274
 21
643.716183
 31
0.0
  0
LINE
  5
A2
100
AcDbEntity
  8
DIMS
 62
     4
100
AcDbLine
 10
624.602274
 20
642.016183
 30
0.0
 11
621.202274
 21
642.016183
 31
0.0
  0
CIRCLE
  5
A3
100
AcDbEntity
  8
M04
100
AcDbCircle
 10
622.902274
 20
642.016183
 30
0.0
 40
6.5
  0
LINE
  5
A4
100
AcDbEntity
  8
DIMS
 62
     4
100
AcDbLine
 10
834.257613
 20
497.760844
 30
0.0
 11
834.257613
 21
492.960844
 31
0.0
  0
LINE
  5
A5
100
AcDbEntity
  8
DIMS
 62
     4
100
AcDbLine
 10
834.257613
 20
504.560844
 30
0.0
 11
834.257613
 21
509.360844
 31
0.0
  0
LINE
  5
A6
100
AcDbEntity
  8
DIMS
 62
     4
100
AcDbLine
 10
830.857613
 20
501.160844
 30
0.0
 11
826.057613
 21
501.160844
 31
0.0
  0
LINE
  5
A7
100
AcDbEntity
  8
DIMS
 62
     4
100
AcDbLine
 10
837.657613
 20
501.160844
 30
0.0
 11
842.457613
 21
501.160844
 31
0.0
  0
LINE
  5
A8
100
AcDbEntity
  8
DIMS
 62
     4
100
AcDbLine
 10
834.257613
 20
502.860844
 30
0.0
 11
834.257613
 21
499.460844
 31
0.0
  0
LINE
  5
A9
100
AcDbEntity
  8
DIMS
 62
     4
100
AcDbLine
 10
835.957613
 20
501.160844
 30
0.0
 11
832.557613
 21
501.160844
 31
0.0
  0
CIRCLE
  5
AA
100
AcDbEntity
  8
M04
100
AcDbCircle
 10
834.257613
 20
501.160844
 30
0.0
 40
6.5
  0
LINE
  5
AB
100
AcDbEntity
  8
DIMS
 62
     4
100
AcDbLine
 10
747.902274
 20
442.905505
 30
0.0
 11
747.902274
 21
438.105505
 31
0.0
  0
LINE
  5
AC
100
AcDbEntity
  8
DIMS
 62
     4
100
AcDbLine
 10
747.902274
 20
449.705505
 30
0.0
 11
747.902274
 21
454.505505
 31
0.0
  0
LINE
  5
AD
100
AcDbEntity
  8
DIMS
 62
     4
100
AcDbLine
 10
744.502274
 20
446.305505
 30
0.0
 11
739.702274
 21
446.305505
 31
0.0
  0
LINE
  5
AE
100
AcDbEntity
  8
DIMS
 62
     4
100
AcDbLine
 10
751.302274
 20
446.305505
 30
0.0
 11
756.102274
 21
446.305505
 31
0.0
  0
LINE
  5
AF
100
AcDbEntity
  8
DIMS
 62
     4
100
AcDbLine
 10
747.902274
 20
448.005505
 30
0.0
 11
747.902274
 21
444.605505
 31
0.0
  0
LINE
  5
B0
100
AcDbEntity
  8
DIMS
 62
     4
100
AcDbLine
 10
749.602274
 20
446.305505
 30
0.0
 11
746.202274
 21
446.305505
 31
0.0
  0
CIRCLE
  5
B1
100
AcDbEntity
  8
M04
100
AcDbCircle
 10
747.902274
 20
446.305505
 30
0.0
 40
6.5
  0
LINE
  5
B2
100
AcDbEntity
  8
DIMS
 62
     4
100
AcDbLine
 10
482.257613
 20
497.760844
 30
0.0
 11
482.257613
 21
492.960844
 31
0.0
  0
LINE
  5
B3
100
AcDbEntity
  8
DIMS
 62
     4
100
AcDbLine
 10
482.257613
 20
504.560844
 30
0.0
 11
482.257613
 21
509.360844
 31
0.0
  0
LINE
  5
B4
100
AcDbEntity
  8
DIMS
 62
     4
100
AcDbLine
 10
485.657613
 20
501.160844
 30
0.0
 11
490.457613
 21
501.160844
 31
0.0
  0
LINE
  5
B5
100
AcDbEntity
  8
DIMS
 62
     4
100
AcDbLine
 10
478.857613
 20
501.160844
 30
0.0
 11
474.057613
 21
501.160844
 31
0.0
  0
LINE
  5
B6
100
AcDbEntity
  8
DIMS
 62
     4
100
AcDbLine
 10
482.257613
 20
502.860844
 30
0.0
 11
482.257613
 21
499.460844
 31
0.0
  0
LINE
  5
B7
100
AcDbEntity
  8
DIMS
 62
     4
100
AcDbLine
 10
480.557613
 20
501.160844
 30
0.0
 11
483.957613
 21
501.160844
 31
0.0
  0
CIRCLE
  5
B8
100
AcDbEntity
  8
M04
100
AcDbCircle
 10
482.257613
 20
501.160844
 30
0.0
 40
6.5
  0
LINE
  5
B9
100
AcDbEntity
  8
DIMS
 62
     4
100
AcDbLine
 10
693.612952
 20
442.905505
 30
0.0
 11
693.612952
 21
438.105505
 31
0.0
  0
LINE
  5
BA
100
AcDbEntity
  8
DIMS
 62
     4
100
AcDbLine
 10
693.612952
 20
449.705505
 30
0.0
 11
693.612952
 21
454.505505
 31
0.0
  0
LINE
  5
BB
100
AcDbEntity
  8
DIMS
 62
     4
100
AcDbLine
 10
697.012952
 20
446.305505
 30
0.0
 11
701.812952
 21
446.305505
 31
0.0
  0
LINE
  5
BC
100
AcDbEntity
  8
DIMS
 62
     4
100
AcDbLine
 10
690.212952
 20
446.305505
 30
0.0
 11
685.412952
 21
446.305505
 31
0.0
  0
LINE
  5
BD
100
AcDbEntity
  8
DIMS
 62
     4
100
AcDbLine
 10
693.612952
 20
448.005505
 30
0.0
 11
693.612952
 21
444.605505
 31
0.0
  0
LINE
  5
BE
100
AcDbEntity
  8
DIMS
 62
     4
100
AcDbLine
 10
691.912952
 20
446.305505
 30
0.0
 11
695.312952
 21
446.305505
 31
0.0
  0
CIRCLE
  5
BF
100
AcDbEntity
  8
M04
100
AcDbCircle
 10
693.612952
 20
446.305505
 30
0.0
 40
6.5
  0
LINE
  5
C0
100
AcDbEntity
  8
DIMS
 62
     4
100
AcDbLine
 10
568.612952
 20
442.905505
 30
0.0
 11
568.612952
 21
438.105505
 31
0.0
  0
LINE
  5
C1
100
AcDbEntity
  8
DIMS
 62
     4
100
AcDbLine
 10
568.612952
 20
449.705505
 30
0.0
 11
568.612952
 21
454.505505
 31
0.0
  0
LINE
  5
C2
100
AcDbEntity
  8
DIMS
 62
     4
100
AcDbLine
 10
572.012952
 20
446.305505
 30
0.0
 11
576.812952
 21
446.305505
 31
0.0
  0
LINE
  5
C3
100
AcDbEntity
  8
DIMS
 62
     4
100
AcDbLine
 10
565.212952
 20
446.305505
 30
0.0
 11
560.412952
 21
446.305505
 31
0.0
  0
LINE
  5
C4
100
AcDbEntity
  8
DIMS
 62
     4
100
AcDbLine
 10
568.612952
 20
448.005505
 30
0.0
 11
568.612952
 21
444.605505
 31
0.0
  0
LINE
  5
C5
100
AcDbEntity
  8
DIMS
 62
     4
100
AcDbLine
 10
566.912952
 20
446.305505
 30
0.0
 11
570.312952
 21
446.305505
 31
0.0
  0
CIRCLE
  5
C6
100
AcDbEntity
  8
M04
100
AcDbCircle
 10
568.612952
 20
446.305505
 30
0.0
 40
6.5
  0
LINE
  5
C7
100
AcDbEntity
  8
DIMS
 62
     4
100
AcDbLine
 10
834.257613
 20
590.560844
 30
0.0
 11
834.257613
 21
595.360844
 31
0.0
  0
LINE
  5
C8
100
AcDbEntity
  8
DIMS
 62
     4
100
AcDbLine
 10
834.257613
 20
583.760844
 30
0.0
 11
834.257613
 21
578.960844
 31
0.0
  0
LINE
  5
C9
100
AcDbEntity
  8
DIMS
 62
     4
100
AcDbLine
 10
830.857613
 20
587.160844
 30
0.0
 11
826.057613
 21
587.160844
 31
0.0
  0
LINE
  5
CA
100
AcDbEntity
  8
DIMS
 62
     4
100
AcDbLine
 10
837.657613
 20
587.160844
 30
0.0
 11
842.457613
 21
587.160844
 31
0.0
  0
LINE
  5
CB
100
AcDbEntity
  8
DIMS
 62
     4
100
AcDbLine
 10
834.257613
 20
585.460844
 30
0.0
 11
834.257613
 21
588.860844
 31
0.0
  0
LINE
  5
CC
100
AcDbEntity
  8
DIMS
 62
     4
100
AcDbLine
 10
835.957613
 20
587.160844
 30
0.0
 11
832.557613
 21
587.160844
 31
0.0
  0
CIRCLE
  5
CD
100
AcDbEntity
  8
M04
100
AcDbCircle
 10
834.257613
 20
587.160844
 30
0.0
 40
6.5
  0
LINE
  5
CE
100
AcDbEntity
  8
DIMS
 62
     4
100
AcDbLine
 10
747.902274
 20
645.416183
 30
0.0
 11
747.902274
 21
650.216183
 31
0.0
  0
LINE
  5
CF
100
AcDbEntity
  8
DIMS
 62
     4
100
AcDbLine
 10
747.902274
 20
638.616183
 30
0.0
 11
747.902274
 21
633.816183
 31
0.0
  0
LINE
  5
D0
100
AcDbEntity
  8
DIMS
 62
     4
100
AcDbLine
 10
744.502274
 20
642.016183
 30
0.0
 11
739.702274
 21
642.016183
 31
0.0
  0
LINE
  5
D1
100
AcDbEntity
  8
DIMS
 62
     4
100
AcDbLine
 10
751.302274
 20
642.016183
 30
0.0
 11
756.102274
 21
642.016183
 31
0.0
  0
LINE
  5
D2
100
AcDbEntity
  8
DIMS
 62
     4
100
AcDbLine
 10
747.902274
 20
640.316183
 30
0.0
 11
747.902274
 21
643.716183
 31
0.0
  0
LINE
  5
D3
100
AcDbEntity
  8
DIMS
 62
     4
100
AcDbLine
 10
749.602274
 20
642.016183
 30
0.0
 11
746.202274
 21
642.016183
 31
0.0
  0
CIRCLE
  5
D4
100
AcDbEntity
  8
M04
100
AcDbCircle
 10
747.902274
 20
642.016183
 30
0.0
 40
6.5
  0
LINE
  5
D5
100
AcDbEntity
  8
DIMS
 62
     4
100
AcDbLine
 10
482.257613
 20
590.560844
 30
0.0
 11
482.257613
 21
595.360844
 31
0.0
  0
LINE
  5
D6
100
AcDbEntity
  8
DIMS
 62
     4
100
AcDbLine
 10
482.257613
 20
583.760844
 30
0.0
 11
482.257613
 21
578.960844
 31
0.0
  0
LINE
  5
D7
100
AcDbEntity
  8
DIMS
 62
     4
100
AcDbLine
 10
485.657613
 20
587.160844
 30
0.0
 11
490.457613
 21
587.160844
 31
0.0
  0
LINE
  5
D8
100
AcDbEntity
  8
DIMS
 62
     4
100
AcDbLine
 10
478.857613
 20
587.160844
 30
0.0
 11
474.057613
 21
587.160844
 31
0.0
  0
LINE
  5
D9
100
AcDbEntity
  8
DIMS
 62
     4
100
AcDbLine
 10
482.257613
 20
585.460844
 30
0.0
 11
482.257613
 21
588.860844
 31
0.0
  0
LINE
  5
DA
100
AcDbEntity
  8
DIMS
 62
     4
100
AcDbLine
 10
480.557613
 20
587.160844
 30
0.0
 11
483.957613
 21
587.160844
 31
0.0
  0
CIRCLE
  5
DB
100
AcDbEntity
  8
M04
100
AcDbCircle
 10
482.257613
 20
587.160844
 30
0.0
 40
6.5
  0
LINE
  5
DC
100
AcDbEntity
  8
DIMS
 62
     4
100
AcDbLine
 10
693.612952
 20
645.416183
 30
0.0
 11
693.612952
 21
650.216183
 31
0.0
  0
LINE
  5
DD
100
AcDbEntity
  8
DIMS
 62
     4
100
AcDbLine
 10
693.612952
 20
638.616183
 30
0.0
 11
693.612952
 21
633.816183
 31
0.0
  0
LINE
  5
DE
100
AcDbEntity
  8
DIMS
 62
     4
100
AcDbLine
 10
697.012952
 20
642.016183
 30
0.0
 11
701.812952
 21
642.016183
 31
0.0
  0
LINE
  5
DF
100
AcDbEntity
  8
DIMS
 62
     4
100
AcDbLine
 10
690.212952
 20
642.016183
 30
0.0
 11
685.412952
 21
642.016183
 31
0.0
  0
LINE
  5
E0
100
AcDbEntity
  8
DIMS
 62
     4
100
AcDbLine
 10
693.612952
 20
640.316183
 30
0.0
 11
693.612952
 21
643.716183
 31
0.0
  0
LINE
  5
E1
100
AcDbEntity
  8
DIMS
 62
     4
100
AcDbLine
 10
691.912952
 20
642.016183
 30
0.0
 11
695.312952
 21
642.016183
 31
0.0
  0
CIRCLE
  5
E2
100
AcDbEntity
  8
M04
100
AcDbCircle
 10
693.612952
 20
642.016183
 30
0.0
 40
6.5
  0
LINE
  5
E3
100
AcDbEntity
  8
DIMS
100
AcDbLine
 10
798.316842
 20
656.937162
 30
0.0
 11
815.925386
 21
639.328618
 31
0.0
  0
INSERT
  5
E4
100
AcDbEntity
  8
DIMS
100
AcDbBlockReference
  2
ARROW1
 10
798.316842
 20
656.937162
 30
0.0
 41
10.0
 42
10.0
 43
10.0
 50
135.0
  0
LINE
  5
EB
100
AcDbEntity
  8
DIMS
100
AcDbLine
 10
377.635032
 20
569.063087
 30
0.0
 11
377.635032
 21
544.160844
 31
0.0
  0
INSERT
  5
EC
100
AcDbEntity
  8
DIMS
100
AcDbBlockReference
  2
ARROW1
 10
377.635032
 20
569.063087
 30
0.0
 41
10.0
 42
10.0
 43
10.0
 50
90.0
  0
HATCH
  5
ED
100
AcDbEntity
  8
HATCH
100
AcDbHatch
 10
0.0
 20
0.0
 30
0.0
210
0.0
220
0.0
230
1.0
  2
_U
 70
     0
 71
     1
 91
        1
 92
        7
 72
     0
 73
     1
 93
        4
 10
647.2576125642799
 20
342.7424757530179
 10
647.2576125642799
 20
345.742475753018
 10
481.2576125642798
 20
345.7424757530182
 10
481.2576125642798
 20
342.742475753018
 97
        4
330
485
330
47F
330
48D
330
2DB
 75
     0
 76
     0
 52
135.0
 41
0.8
 77
     0
 78
     1
 53
135.0
 43
0.0
 44
11.62947
 45
-0.5656854249492382
 46
-0.565685424949238
 79
     0
 47
0.187714
 98
        1
 10
562.936302
 20
343.790961
  0
LINE
  5
EE
100
AcDbEntity
  8
M01
100
AcDbLine
 10
819.257613
 20
597.40601
 30
0.0
 11
808.497728
 21
586.646125
 31
0.0
  0
ARC
  5
EF
100
AcDbEntity
  8
M01
100
AcDbCircle
 10
816.983009
 20
510.160844
 30
0.0
 40
12.0
100
AcDbArc
 50
90.0
 51
225.0
  0
ARC
  5
F0
100
AcDbEntity
  8
M01
100
AcDbCircle
 10
816.983009
 20
578.160844
 30
0.0
 40
12.0
100
AcDbArc
 50
135.0
 51
270.0
  0
LINE
  5
F1
100
AcDbEntity
  8
M01
100
AcDbLine
 10
819.257613
 20
490.915678
 30
0.0
 11
808.497728
 21
501.675563
 31
0.0
  0
LINE
  5
F2
100
AcDbEntity
  8
M04
100
AcDbLine
 10
892.257613
 20
576.160844
 30
0.0
 11
819.983009
 21
576.160844
 31
0.0
  0
LINE
  5
F3
100
AcDbEntity
  8
M01
100
AcDbLine
 10
869.201713
 20
559.410844
 30
0.0
 11
869.201713
 21
552.910844
 31
0.0
  0
LINE
  5
F4
100
AcDbEntity
  8
M01
100
AcDbLine
 10
877.313512
 20
559.410844
 30
0.0
 11
877.313512
 21
552.910844
 31
0.0
  0
LINE
  5
F5
100
AcDbEntity
  8
M01
100
AcDbLine
 10
869.201713
 20
559.410844
 30
0.0
 11
867.257613
 21
559.410844
 31
0.0
  0
ARC
  5
F6
100
AcDbEntity
  8
M01
100
AcDbCircle
 10
870.762962
 20
560.660844
 30
0.0
 40
2.0
100
AcDbArc
 50
218.682187
 51
270.0
  0
ARC
  5
F7
100
AcDbEntity
  8
M01
100
AcDbCircle
 10
875.752263
 20
560.660844
 30
0.0
 40
2.0
100
AcDbArc
 50
270.0
 51
321.317813
  0
LINE
  5
F8
100
AcDbEntity
  8
M01
100
AcDbLine
 10
879.257613
 20
559.410844
 30
0.0
 11
877.313512
 21
559.410844
 31
0.0
  0
LINE
  5
F9
100
AcDbEntity
  8
M01
100
AcDbLine
 10
875.752263
 20
558.660844
 30
0.0
 11
870.762962
 21
558.660844
 31
0.0
  0
LINE
  5
FA
100
AcDbEntity
  8
M01
100
AcDbLine
 10
869.201713
 20
552.910844
 30
0.0
 11
867.257613
 21
552.910844
 31
0.0
  0
ARC
  5
FB
100
AcDbEntity
  8
M01
100
AcDbCircle
 10
870.762962
 20
551.660844
 30
0.0
 40
2.0
100
AcDbArc
 50
90.0
 51
141.317813
  0
ARC
  5
FC
100
AcDbEntity
  8
M01
100
AcDbCircle
 10
875.752263
 20
551.660844
 30
0.0
 40
2.0
100
AcDbArc
 50
38.682187
 51
90.0
  0
LINE
  5
FD
100
AcDbEntity
  8
M01
100
AcDbLine
 10
879.257613
 20
552.910844
 30
0.0
 11
877.313512
 21
552.910844
 31
0.0
  0
LINE
  5
FE
100
AcDbEntity
  8
M01
100
AcDbLine
 10
875.752263
 20
553.660844
 30
0.0
 11
870.762962
 21
553.660844
 31
0.0
  0
LINE
  5
FF
100
AcDbEntity
  8
M01
100
AcDbLine
 10
879.257613
 20
551.660844
 30
0.0
 11
879.257613
 21
560.660844
 31
0.0
  0
LINE
  5
100
100
AcDbEntity
  8
M01
100
AcDbLine
 10
880.057613
 20
560.660844
 30
0.0
 11
879.257613
 21
560.660844
 31
0.0
  0
LINE
  5
101
100
AcDbEntity
  8
M01
100
AcDbLine
 10
880.057613
 20
551.660844
 30
0.0
 11
879.257613
 21
551.660844
 31
0.0
  0
LINE
  5
102
100
AcDbEntity
  8
M01
100
AcDbLine
 10
869.201713
 20
528.910844
 30
0.0
 11
869.201713
 21
535.410844
 31
0.0
  0
LINE
  5
103
100
AcDbEntity
  8
M01
100
AcDbLine
 10
877.313512
 20
528.910844
 30
0.0
 11
877.313512
 21
535.410844
 31
0.0
  0
LINE
  5
104
100
AcDbEntity
  8
M01
100
AcDbLine
 10
869.201713
 20
528.910844
 30
0.0
 11
867.257613
 21
528.910844
 31
0.0
  0
ARC
  5
105
100
AcDbEntity
  8
M01
100
AcDbCircle
 10
870.762962
 20
527.660844
 30
0.0
 40
2.0
100
AcDbArc
 50
90.0
 51
141.317813
  0
ARC
  5
106
100
AcDbEntity
  8
M01
100
AcDbCircle
 10
875.752263
 20
527.660844
 30
0.0
 40
2.0
100
AcDbArc
 50
38.682187
 51
90.0
  0
LINE
  5
107
100
AcDbEntity
  8
M01
100
AcDbLine
 10
879.257613
 20
528.910844
 30
0.0
 11
877.313512
 21
528.910844
 31
0.0
  0
LINE
  5
108
100
AcDbEntity
  8
M01
100
AcDbLine
 10
875.752263
 20
529.660844
 30
0.0
 11
870.762962
 21
529.660844
 31
0.0
  0
LINE
  5
109
100
AcDbEntity
  8
M01
100
AcDbLine
 10
869.201713
 20
535.410844
 30
0.0
 11
867.257613
 21
535.410844
 31
0.0
  0
ARC
  5
10A
100
AcDbEntity
  8
M01
100
AcDbCircle
 10
870.762962
 20
536.660844
 30
0.0
 40
2.0
100
AcDbArc
 50
218.682187
 51
270.0
  0
ARC
  5
10B
100
AcDbEntity
  8
M01
100
AcDbCircle
 10
875.752263
 20
536.660844
 30
0.0
 40
2.0
100
AcDbArc
 50
270.0
 51
321.317813
  0
LINE
  5
10C
100
AcDbEntity
  8
M01
100
AcDbLine
 10
879.257613
 20
535.410844
 30
0.0
 11
877.313512
 21
535.410844
 31
0.0
  0
LINE
  5
10D
100
AcDbEntity
  8
M01
100
AcDbLine
 10
875.752263
 20
534.660844
 30
0.0
 11
870.762962
 21
534.660844
 31
0.0
  0
LINE
  5
10E
100
AcDbEntity
  8
M01
100
AcDbLine
 10
862.257613
 20
561.160844
 30
0.0
 11
862.257613
 21
551.160844
 31
0.0
  0
LINE
  5
10F
100
AcDbEntity
  8
M01
100
AcDbLine
 10
862.257613
 20
527.160844
 30
0.0
 11
862.257613
 21
537.160844
 31
0.0
  0
LINE
  5
110
100
AcDbEntity
  8
M01
100
AcDbLine
 10
867.257613
 20
527.160844
 30
0.0
 11
847.257613
 21
527.160844
 31
0.0
  0
LINE
  5
111
100
AcDbEntity
  8
M01
100
AcDbLine
 10
867.257613
 20
537.160844
 30
0.0
 11
847.257613
 21
537.160844
 31
0.0
  0
LINE
  5
112
100
AcDbEntity
  8
M01
100
AcDbLine
 10
867.257613
 20
551.160844
 30
0.0
 11
847.257613
 21
551.160844
 31
0.0
  0
LINE
  5
113
100
AcDbEntity
  8
M01
100
AcDbLine
 10
867.257613
 20
561.160844
 30
0.0
 11
847.257613
 21
561.160844
 31
0.0
  0
LINE
  5
114
100
AcDbEntity
  8
M01
100
AcDbLine
 10
889.157613
 20
559.191933
 30
0.0
 11
889.157613
 21
553.129755
 31
0.0
  0
ARC
  5
115
100
AcDbEntity
  8
M01
100
AcDbCircle
 10
887.308307
 20
553.129755
 30
0.0
 40
1.150694
100
AcDbArc
 50
118.592423
 51
241.407577
  0
ARC
  5
116
100
AcDbEntity
  8
M01
100
AcDbCircle
 10
889.86039
 20
556.160844
 30
0.0
 40
3.702778
100
AcDbArc
 50
146.92527
 51
213.07473
  0
ARC
  5
117
100
AcDbEntity
  8
M01
100
AcDbCircle
 10
887.308307
 20
559.191933
 30
0.0
 40
1.150694
100
AcDbArc
 50
118.592423
 51
241.407577
  0
ARC
  5
118
100
AcDbEntity
  8
M01
100
AcDbCircle
 10
888.006918
 20
553.129755
 30
0.0
 40
1.150694
100
AcDbArc
 50
298.592423
 51
61.407577
  0
ARC
  5
119
100
AcDbEntity
  8
M01
100
AcDbCircle
 10
885.454835
 20
556.160844
 30
0.0
 40
3.702778
100
AcDbArc
 50
326.92527
 51
33.07473
  0
LINE
  5
11A
100
AcDbEntity
  8
M01
100
AcDbLine
 10
888.557613
 20
554.140118
 30
0.0
 11
886.757613
 21
554.140118
 31
0.0
  0
LINE
  5
11B
100
AcDbEntity
  8
M01
100
AcDbLine
 10
888.557613
 20
552.119392
 30
0.0
 11
886.757613
 21
552.119392
 31
0.0
  0
ARC
  5
11C
100
AcDbEntity
  8
M01
100
AcDbCircle
 10
888.006918
 20
559.191933
 30
0.0
 40
1.150694
100
AcDbArc
 50
298.592423
 51
61.407577
  0
LINE
  5
11D
100
AcDbEntity
  8
M01
100
AcDbLine
 10
888.557613
 20
558.18157
 30
0.0
 11
886.757613
 21
558.18157
 31
0.0
  0
LINE
  5
11E
100
AcDbEntity
  8
M01
100
AcDbLine
 10
888.557613
 20
560.202296
 30
0.0
 11
886.757613
 21
560.202296
 31
0.0
  0
LINE
  5
11F
100
AcDbEntity
  8
M01
100
AcDbLine
 10
883.857613
 20
551.160844
 30
0.0
 11
885.357613
 21
551.160844
 31
0.0
  0
LINE
  5
120
100
AcDbEntity
  8
M01
100
AcDbLine
 10
883.857613
 20
561.160844
 30
0.0
 11
885.357613
 21
561.160844
 31
0.0
  0
LINE
  5
121
100
AcDbEntity
  8
M01
100
AcDbLine
 10
885.357613
 20
551.660844
 30
0.0
 11
886.157613
 21
551.660844
 31
0.0
  0
LINE
  5
122
100
AcDbEntity
  8
M01
100
AcDbLine
 10
885.357613
 20
560.660844
 30
0.0
 11
886.157613
 21
560.660844
 31
0.0
  0
LINE
  5
123
100
AcDbEntity
  8
M01
100
AcDbLine
 10
886.157613
 20
560.660844
 30
0.0
 11
886.157613
 21
551.660844
 31
0.0
  0
LINE
  5
124
100
AcDbEntity
  8
M01
100
AcDbLine
 10
885.357613
 20
561.160844
 30
0.0
 11
885.357613
 21
551.160844
 31
0.0
  0
LINE
  5
125
100
AcDbEntity
  8
M01
100
AcDbLine
 10
883.057613
 20
551.660844
 30
0.0
 11
883.857613
 21
551.660844
 31
0.0
  0
LINE
  5
126
100
AcDbEntity
  8
M01
100
AcDbLine
 10
883.057613
 20
560.660844
 30
0.0
 11
883.857613
 21
560.660844
 31
0.0
  0
LINE
  5
127
100
AcDbEntity
  8
M01
100
AcDbLine
 10
883.857613
 20
561.160844
 30
0.0
 11
883.857613
 21
551.160844
 31
0.0
  0
ARC
  5
128
100
AcDbEntity
  8
M01
100
AcDbCircle
 10
881.208307
 20
553.129755
 30
0.0
 40
1.150694
100
AcDbArc
 50
118.592423
 51
241.407577
  0
ARC
  5
129
100
AcDbEntity
  8
M01
100
AcDbCircle
 10
883.76039
 20
556.160844
 30
0.0
 40
3.702778
100
AcDbArc
 50
146.92527
 51
213.07473
  0
ARC
  5
12A
100
AcDbEntity
  8
M01
100
AcDbCircle
 10
881.208307
 20
559.191933
 30
0.0
 40
1.150694
100
AcDbArc
 50
118.592423
 51
241.407577
  0
ARC
  5
12B
100
AcDbEntity
  8
M01
100
AcDbCircle
 10
881.906918
 20
553.129755
 30
0.0
 40
1.150694
100
AcDbArc
 50
298.592423
 51
61.407577
  0
ARC
  5
12C
100
AcDbEntity
  8
M01
100
AcDbCircle
 10
879.354835
 20
556.160844
 30
0.0
 40
3.702778
100
AcDbArc
 50
326.92527
 51
33.07473
  0
LINE
  5
12D
100
AcDbEntity
  8
M01
100
AcDbLine
 10
882.457613
 20
554.140118
 30
0.0
 11
880.657613
 21
554.140118
 31
0.0
  0
LINE
  5
12E
100
AcDbEntity
  8
M01
100
AcDbLine
 10
882.457613
 20
552.119392
 30
0.0
 11
880.657613
 21
552.119392
 31
0.0
  0
ARC
  5
12F
100
AcDbEntity
  8
M01
100
AcDbCircle
 10
881.906918
 20
559.191933
 30
0.0
 40
1.150694
100
AcDbArc
 50
298.592423
 51
61.407577
  0
LINE
  5
130
100
AcDbEntity
  8
M01
100
AcDbLine
 10
882.457613
 20
558.18157
 30
0.0
 11
880.657613
 21
558.18157
 31
0.0
  0
LINE
  5
131
100
AcDbEntity
  8
M01
100
AcDbLine
 10
882.457613
 20
560.202296
 30
0.0
 11
880.657613
 21
560.202296
 31
0.0
  0
LINE
  5
132
100
AcDbEntity
  8
M01
100
AcDbLine
 10
883.057613
 20
560.660844
 30
0.0
 11
883.057613
 21
551.660844
 31
0.0
  0
LINE
  5
133
100
AcDbEntity
  8
M01
100
AcDbLine
 10
880.057613
 20
560.660844
 30
0.0
 11
880.057613
 21
551.660844
 31
0.0
  0
LINE
  5
134
100
AcDbEntity
  8
M01
100
AcDbLine
 10
892.257613
 20
554.660844
 30
0.0
 11
891.757613
 21
554.160844
 31
0.0
  0
LINE
  5
135
100
AcDbEntity
  8
M01
100
AcDbLine
 10
891.757613
 20
558.160844
 30
0.0
 11
892.257613
 21
557.660844
 31
0.0
  0
LINE
  5
136
100
AcDbEntity
  8
M01
100
AcDbLine
 10
891.757613
 20
558.160844
 30
0.0
 11
891.757613
 21
554.160844
 31
0.0
  0
LINE
  5
137
100
AcDbEntity
  8
M01
100
AcDbLine
 10
892.257613
 20
554.660844
 30
0.0
 11
889.157613
 21
554.660844
 31
0.0
  0
LINE
  5
138
100
AcDbEntity
  8
M01
100
AcDbLine
 10
892.257613
 20
557.660844
 30
0.0
 11
889.157613
 21
557.660844
 31
0.0
  0
LINE
  5
139
100
AcDbEntity
  8
M01
100
AcDbLine
 10
891.757613
 20
558.160844
 30
0.0
 11
889.157613
 21
558.160844
 31
0.0
  0
LINE
  5
13A
100
AcDbEntity
  8
M01
100
AcDbLine
 10
891.757613
 20
554.160844
 30
0.0
 11
889.157613
 21
554.160844
 31
0.0
  0
LINE
  5
13B
100
AcDbEntity
  8
M01
100
AcDbLine
 10
892.257613
 20
557.660844
 30
0.0
 11
892.257613
 21
554.660844
 31
0.0
  0
LINE
  5
13C
100
AcDbEntity
  8
M01
100
AcDbLine
 10
867.257613
 20
561.160844
 30
0.0
 11
867.257613
 21
551.160844
 31
0.0
  0
LINE
  5
13D
100
AcDbEntity
  8
CENTRE
100
AcDbLine
 10
898.418502
 20
556.160844
 30
0.0
 11
834.82507
 21
556.160844
 31
0.0
  0
LINE
  5
140
100
AcDbEntity
  8
M01
100
AcDbLine
 10
889.157613
 20
529.129755
 30
0.0
 11
889.157613
 21
535.191933
 31
0.0
  0
ARC
  5
141
100
AcDbEntity
  8
M01
100
AcDbCircle
 10
887.308307
 20
535.191933
 30
0.0
 40
1.150694
100
AcDbArc
 50
118.592423
 51
241.407577
  0
ARC
  5
142
100
AcDbEntity
  8
M01
100
AcDbCircle
 10
889.86039
 20
532.160844
 30
0.0
 40
3.702778
100
AcDbArc
 50
146.92527
 51
213.07473
  0
ARC
  5
143
100
AcDbEntity
  8
M01
100
AcDbCircle
 10
887.308307
 20
529.129755
 30
0.0
 40
1.150694
100
AcDbArc
 50
118.592423
 51
241.407577
  0
ARC
  5
144
100
AcDbEntity
  8
M01
100
AcDbCircle
 10
888.006918
 20
535.191933
 30
0.0
 40
1.150694
100
AcDbArc
 50
298.592423
 51
61.407577
  0
ARC
  5
145
100
AcDbEntity
  8
M01
100
AcDbCircle
 10
885.454835
 20
532.160844
 30
0.0
 40
3.702778
100
AcDbArc
 50
326.92527
 51
33.07473
  0
LINE
  5
146
100
AcDbEntity
  8
M01
100
AcDbLine
 10
888.557613
 20
534.18157
 30
0.0
 11
886.757613
 21
534.18157
 31
0.0
  0
LINE
  5
147
100
AcDbEntity
  8
M01
100
AcDbLine
 10
888.557613
 20
536.202296
 30
0.0
 11
886.757613
 21
536.202296
 31
0.0
  0
ARC
  5
148
100
AcDbEntity
  8
M01
100
AcDbCircle
 10
888.006918
 20
529.129755
 30
0.0
 40
1.150694
100
AcDbArc
 50
298.592423
 51
61.407577
  0
LINE
  5
149
100
AcDbEntity
  8
M01
100
AcDbLine
 10
888.557613
 20
530.140118
 30
0.0
 11
886.757613
 21
530.140118
 31
0.0
  0
LINE
  5
14A
100
AcDbEntity
  8
M01
100
AcDbLine
 10
888.557613
 20
528.119392
 30
0.0
 11
886.757613
 21
528.119392
 31
0.0
  0
LINE
  5
14B
100
AcDbEntity
  8
M01
100
AcDbLine
 10
883.857613
 20
537.160844
 30
0.0
 11
885.357613
 21
537.160844
 31
0.0
  0
LINE
  5
14C
100
AcDbEntity
  8
M01
100
AcDbLine
 10
883.857613
 20
527.160844
 30
0.0
 11
885.357613
 21
527.160844
 31
0.0
  0
LINE
  5
14D
100
AcDbEntity
  8
M01
100
AcDbLine
 10
885.357613
 20
536.660844
 30
0.0
 11
886.157613
 21
536.660844
 31
0.0
  0
LINE
  5
14E
100
AcDbEntity
  8
M01
100
AcDbLine
 10
885.357613
 20
527.660844
 30
0.0
 11
886.157613
 21
527.660844
 31
0.0
  0
LINE
  5
14F
100
AcDbEntity
  8
M01
100
AcDbLine
 10
886.157613
 20
527.660844
 30
0.0
 11
886.157613
 21
536.660844
 31
0.0
  0
LINE
  5
150
100
AcDbEntity
  8
M01
100
AcDbLine
 10
885.357613
 20
527.160844
 30
0.0
 11
885.357613
 21
537.160844
 31
0.0
  0
LINE
  5
151
100
AcDbEntity
  8
M01
100
AcDbLine
 10
883.057613
 20
536.660844
 30
0.0
 11
883.857613
 21
536.660844
 31
0.0
  0
LINE
  5
152
100
AcDbEntity
  8
M01
100
AcDbLine
 10
883.057613
 20
527.660844
 30
0.0
 11
883.857613
 21
527.660844
 31
0.0
  0
LINE
  5
153
100
AcDbEntity
  8
M01
100
AcDbLine
 10
883.857613
 20
527.160844
 30
0.0
 11
883.857613
 21
537.160844
 31
0.0
  0
ARC
  5
154
100
AcDbEntity
  8
M01
100
AcDbCircle
 10
881.208307
 20
535.191933
 30
0.0
 40
1.150694
100
AcDbArc
 50
118.592423
 51
241.407577
  0
ARC
  5
155
100
AcDbEntity
  8
M01
100
AcDbCircle
 10
883.76039
 20
532.160844
 30
0.0
 40
3.702778
100
AcDbArc
 50
146.92527
 51
213.07473
  0
ARC
  5
156
100
AcDbEntity
  8
M01
100
AcDbCircle
 10
881.208307
 20
529.129755
 30
0.0
 40
1.150694
100
AcDbArc
 50
118.592423
 51
241.407577
  0
ARC
  5
157
100
AcDbEntity
  8
M01
100
AcDbCircle
 10
881.906918
 20
535.191933
 30
0.0
 40
1.150694
100
AcDbArc
 50
298.592423
 51
61.407577
  0
ARC
  5
158
100
AcDbEntity
  8
M01
100
AcDbCircle
 10
879.354835
 20
532.160844
 30
0.0
 40
3.702778
100
AcDbArc
 50
326.92527
 51
33.07473
  0
LINE
  5
159
100
AcDbEntity
  8
M01
100
AcDbLine
 10
882.457613
 20
534.18157
 30
0.0
 11
880.657613
 21
534.18157
 31
0.0
  0
LINE
  5
15A
100
AcDbEntity
  8
M01
100
AcDbLine
 10
882.457613
 20
536.202296
 30
0.0
 11
880.657613
 21
536.202296
 31
0.0
  0
ARC
  5
15B
100
AcDbEntity
  8
M01
100
AcDbCircle
 10
881.906918
 20
529.129755
 30
0.0
 40
1.150694
100
AcDbArc
 50
298.592423
 51
61.407577
  0
LINE
  5
15C
100
AcDbEntity
  8
M01
100
AcDbLine
 10
882.457613
 20
530.140118
 30
0.0
 11
880.657613
 21
530.140118
 31
0.0
  0
LINE
  5
15D
100
AcDbEntity
  8
M01
100
AcDbLine
 10
882.457613
 20
528.119392
 30
0.0
 11
880.657613
 21
528.119392
 31
0.0
  0
LINE
  5
15E
100
AcDbEntity
  8
M01
100
AcDbLine
 10
883.057613
 20
527.660844
 30
0.0
 11
883.057613
 21
536.660844
 31
0.0
  0
LINE
  5
15F
100
AcDbEntity
  8
M01
100
AcDbLine
 10
880.057613
 20
527.660844
 30
0.0
 11
880.057613
 21
536.660844
 31
0.0
  0
LINE
  5
160
100
AcDbEntity
  8
M01
100
AcDbLine
 10
879.257613
 20
527.660844
 30
0.0
 11
879.257613
 21
536.660844
 31
0.0
  0
LINE
  5
161
100
AcDbEntity
  8
M04
100
AcDbLine
 10
907.257613
 20
561.160844
 30
0.0
 11
927.929091
 21
561.160844
 31
0.0
  0
LINE
  5
162
100
AcDbEntity
  8
M04
100
AcDbLine
 10
907.257613
 20
527.160844
 30
0.0
 11
927.929091
 21
527.160844
 31
0.0
  0
ARC
  5
163
100
AcDbEntity
  8
M04
100
AcDbCircle
 10
892.257613
 20
561.160844
 30
0.0
 40
15.0
100
AcDbArc
 50
0.0
 51
90.0
  0
ARC
  5
164
100
AcDbEntity
  8
M04
100
AcDbCircle
 10
892.257613
 20
527.160844
 30
0.0
 40
15.0
100
AcDbArc
 50
270.0
 51
0.0
  0
LINE
  5
165
100
AcDbEntity
  8
M04
100
AcDbLine
 10
907.257613
 20
527.160844
 30
0.0
 11
907.257613
 21
561.160844
 31
0.0
  0
LINE
  5
166
100
AcDbEntity
  8
M01
100
AcDbLine
 10
892.257613
 20
533.660844
 30
0.0
 11
891.757613
 21
534.160844
 31
0.0
  0
LINE
  5
167
100
AcDbEntity
  8
M01
100
AcDbLine
 10
891.757613
 20
530.160844
 30
0.0
 11
892.257613
 21
530.660844
 31
0.0
  0
LINE
  5
168
100
AcDbEntity
  8
M01
100
AcDbLine
 10
891.757613
 20
530.160844
 30
0.0
 11
891.757613
 21
534.160844
 31
0.0
  0
LINE
  5
169
100
AcDbEntity
  8
M01
100
AcDbLine
 10
892.257613
 20
533.660844
 30
0.0
 11
889.157613
 21
533.660844
 31
0.0
  0
LINE
  5
16A
100
AcDbEntity
  8
M01
100
AcDbLine
 10
892.257613
 20
530.660844
 30
0.0
 11
889.157613
 21
530.660844
 31
0.0
  0
LINE
  5
16B
100
AcDbEntity
  8
M01
100
AcDbLine
 10
891.757613
 20
530.160844
 30
0.0
 11
889.157613
 21
530.160844
 31
0.0
  0
LINE
  5
16C
100
AcDbEntity
  8
M01
100
AcDbLine
 10
891.757613
 20
534.160844
 30
0.0
 11
889.157613
 21
534.160844
 31
0.0
  0
LINE
  5
16D
100
AcDbEntity
  8
M01
100
AcDbLine
 10
892.257613
 20
530.660844
 30
0.0
 11
892.257613
 21
533.660844
 31
0.0
  0
LINE
  5
16E
100
AcDbEntity
  8
M01
100
AcDbLine
 10
867.257613
 20
527.160844
 30
0.0
 11
867.257613
 21
537.160844
 31
0.0
  0
LINE
  5
16F
100
AcDbEntity
  8
M01
100
AcDbLine
 10
880.057613
 20
536.660844
 30
0.0
 11
879.257613
 21
536.660844
 31
0.0
  0
LINE
  5
170
100
AcDbEntity
  8
M01
100
AcDbLine
 10
880.057613
 20
527.660844
 30
0.0
 11
879.257613
 21
527.660844
 31
0.0
  0
LINE
  5
171
100
AcDbEntity
  8
CENTRE
100
AcDbLine
 10
898.418502
 20
532.160844
 30
0.0
 11
834.82507
 21
532.160844
 31
0.0
  0
LINE
  5
172
100
AcDbEntity
  8
M04
100
AcDbLine
 10
892.257613
 20
512.160844
 30
0.0
 11
819.983009
 21
512.160844
 31
0.0
  0
LINE
  5
173
100
AcDbEntity
  8
M01
100
AcDbLine
 10
847.257613
 20
564.160844
 30
0.0
 11
845.257613
 21
566.160844
 31
0.0
  0
LINE
  5
174
100
AcDbEntity
  8
M01
100
AcDbLine
 10
845.257613
 20
522.160844
 30
0.0
 11
847.257613
 21
524.160844
 31
0.0
  0
LINE
  5
175
100
AcDbEntity
  8
M01
100
AcDbLine
 10
847.257613
 20
524.160844
 30
0.0
 11
847.257613
 21
564.160844
 31
0.0
  0
LINE
  5
176
100
AcDbEntity
  8
M01
100
AcDbLine
 10
845.257613
 20
566.160844
 30
0.0
 11
816.983009
 21
566.160844
 31
0.0
  0
LINE
  5
177
100
AcDbEntity
  8
M01
100
AcDbLine
 10
845.257613
 20
522.160844
 30
0.0
 11
816.983009
 21
522.160844
 31
0.0
  0
HATCH
  5
178
100
AcDbEntity
  8
M03
100
AcDbHatch
 10
0.0
 20
0.0
 30
0.0
210
0.0
220
0.0
230
1.0
  2
_U
 70
     0
 71
     0
 91
        1
 92
        7
 72
     0
 73
     1
 93
        4
 10
755.620576831635
 20
469.558478516984
 10
776.2952897551713
 20
448.8837655934477
 10
774.951786870917
 20
447.5402627091931
 10
754.2770739473805
 20
468.2149756327297
 97
        0
 75
     0
 76
     0
 52
285.0
 41
0.7
 77
     0
 78
     1
 53
165.0
 43
816.913266
 44
-163.725933
 45
0.1811733315717643
 46
0.676148078402348
 79
     0
 47
0.060863
 98
        1
 10
757.390989
 20
466.108785
  0
HATCH
  5
179
100
AcDbEntity
  8
M03
100
AcDbHatch
 10
0.0
 20
0.0
 30
0.0
210
0.0
220
0.0
230
1.0
  2
_U
 70
     0
 71
     0
 91
        1
 92
        7
 72
     0
 73
     1
 93
        4
 10
755.620576831635
 20
469.5584785169841
 10
776.2952897551714
 20
448.8837655934475
 10
774.951786870917
 20
447.5402627091931
 10
754.2770739473805
 20
468.2149756327297
 97
        0
 75
     0
 76
     0
 52
-15.0
 41
0.7
 77
     0
 78
     1
 53
105.0
 43
816.913266
 44
-163.725933
 45
0.6761480784023478
 46
0.1811733315717645
 79
     0
 47
0.060863
 98
        1
 10
757.692299
 20
466.151769
  0
LINE
  5
17A
100
AcDbEntity
  8
M03
100
AcDbLine
 10
753.494262
 20
490.918097
 30
0.0
 11
756.059579
 21
490.230723
 31
0.0
  0
LINE
  5
17B
100
AcDbEntity
  8
M03
100
AcDbLine
 10
756.746954
 20
487.665406
 30
0.0
 11
756.059579
 21
490.230723
 31
0.0
  0
LINE
  5
17C
100
AcDbEntity
  8
M03
100
AcDbLine
 10
756.746954
 20
487.665406
 30
0.0
 11
753.494262
 21
490.918097
 31
0.0
  0
LINE
  5
17D
100
AcDbEntity
  8
M03
100
AcDbLine
 10
756.181268
 20
486.109771
 30
0.0
 11
751.938627
 21
490.352412
 31
0.0
  0
LINE
  5
17E
100
AcDbEntity
  8
M03
100
AcDbLine
 10
755.620577
 20
469.558479
 30
0.0
 11
776.29529
 21
448.883766
 31
0.0
  0
LINE
  5
17F
100
AcDbEntity
  8
M03
100
AcDbLine
 10
754.277074
 20
468.214976
 30
0.0
 11
774.951787
 21
447.540263
 31
0.0
  0
LINE
  5
180
100
AcDbEntity
  8
M03
100
AcDbLine
 10
750.882961
 20
474.720358
 30
0.0
 11
740.76634
 21
484.836979
 31
0.0
  0
LINE
  5
181
100
AcDbEntity
  8
M03
100
AcDbLine
 10
752.187407
 20
474.547284
 30
0.0
 11
751.621721
 21
473.981598
 31
0.0
  0
LINE
  5
182
100
AcDbEntity
  8
M03
100
AcDbLine
 10
755.832709
 20
469.770611
 30
0.0
 11
754.064942
 21
468.002844
 31
0.0
  0
LINE
  5
183
100
AcDbEntity
  8
M03
100
AcDbLine
 10
754.064942
 20
468.002844
 30
0.0
 11
749.115194
 21
472.952591
 31
0.0
  0
LINE
  5
184
100
AcDbEntity
  8
M03
100
AcDbLine
 10
750.882961
 20
474.720358
 30
0.0
 11
749.115194
 21
472.952591
 31
0.0
  0
LINE
  5
185
100
AcDbEntity
  8
M03
100
AcDbLine
 10
741.332026
 20
485.402665
 30
0.0
 11
740.76634
 21
484.836979
 31
0.0
  0
ARC
  5
186
100
AcDbEntity
  8
M03
100
AcDbCircle
 10
747.502336
 20
481.67348
 30
0.0
 40
5.826136
100
AcDbArc
 50
160.69541
 51
289.30459
  0
LINE
  5
187
100
AcDbEntity
  8
M03
100
AcDbLine
 10
750.17086
 20
488.584645
 30
0.0
 11
751.16081
 21
488.584645
 31
0.0
  0
LINE
  5
188
100
AcDbEntity
  8
M03
100
AcDbLine
 10
754.413501
 20
484.342004
 30
0.0
 11
754.413501
 21
485.331954
 31
0.0
  0
LINE
  5
189
100
AcDbEntity
  8
M03
100
AcDbLine
 10
754.413501
 20
484.342004
 30
0.0
 11
750.17086
 21
488.584645
 31
0.0
  0
LINE
  5
18A
100
AcDbEntity
  8
M03
100
AcDbLine
 10
754.413501
 20
485.331954
 30
0.0
 11
751.16081
 21
488.584645
 31
0.0
  0
LINE
  5
18B
100
AcDbEntity
  8
M03
100
AcDbLine
 10
744.160453
 20
482.574237
 30
0.0
 11
739.210705
 21
487.523985
 31
0.0
  0
LINE
  5
18C
100
AcDbEntity
  8
M03
100
AcDbLine
 10
755.969136
 20
470.765554
 30
0.0
 11
755.403451
 21
470.199869
 31
0.0
  0
LINE
  5
18D
100
AcDbEntity
  8
M03
100
AcDbLine
 10
743.665478
 20
483.069212
 30
0.0
 11
743.099793
 21
482.503527
 31
0.0
  0
LINE
  5
18E
100
AcDbEntity
  8
M03
100
AcDbLine
 10
753.494262
 20
490.918097
 30
0.0
 11
744.089742
 21
481.513577
 31
0.0
  0
LINE
  5
18F
100
AcDbEntity
  8
M03
100
AcDbLine
 10
756.746954
 20
487.665406
 30
0.0
 11
747.342433
 21
478.260886
 31
0.0
  0
LINE
  5
190
100
AcDbEntity
  8
M03
100
AcDbLine
 10
756.181268
 20
486.109771
 30
0.0
 11
747.837408
 21
477.765911
 31
0.0
  0
LINE
  5
191
100
AcDbEntity
  8
M03
100
AcDbLine
 10
751.938627
 20
490.352412
 30
0.0
 11
743.594767
 21
482.008552
 31
0.0
  0
LINE
  5
192
100
AcDbEntity
  8
M03
100
AcDbLine
 10
755.832709
 20
469.770611
 30
0.0
 11
751.621721
 21
473.981598
 31
0.0
  0
LINE
  5
193
100
AcDbEntity
  8
M03
100
AcDbLine
 10
739.210705
 20
487.523985
 30
0.0
 11
735.675171
 21
483.988451
 31
0.0
  0
LINE
  5
194
100
AcDbEntity
  8
M03
100
AcDbLine
 10
781.073846
 20
445.660844
 30
0.0
 11
748.403094
 21
478.331597
 31
0.0
  0
LINE
  5
195
100
AcDbEntity
  8
CENTRE
100
AcDbLine
 10
759.150178
 20
493.321322
 30
0.0
 11
739.945052
 21
474.116196
 31
0.0
  0
ARC
  5
196
100
AcDbEntity
  8
M01
100
AcDbCircle
 10
499.532216
 20
510.160844
 30
0.0
 40
12.0
100
AcDbArc
 50
315.0
 51
90.0
  0
ARC
  5
197
100
AcDbEntity
  8
M01
100
AcDbCircle
 10
499.532216
 20
578.160844
 30
0.0
 40
12.0
100
AcDbArc
 50
270.0
 51
45.0
  0
LINE
  5
198
100
AcDbEntity
  8
DIMS
 62
     4
100
AcDbLine
 10
783.257613
 20
610.060844
 30
0.0
 11
783.257613
 21
623.360844
 31
0.0
  0
LINE
  5
199
100
AcDbEntity
  8
DIMS
 62
     4
100
AcDbLine
 10
783.257613
 20
603.260844
 30
0.0
 11
783.257613
 21
589.960844
 31
0.0
  0
LINE
  5
19A
100
AcDbEntity
  8
DIMS
 62
     4
100
AcDbLine
 10
779.857613
 20
606.660844
 30
0.0
 11
766.557613
 21
606.660844
 31
0.0
  0
LINE
  5
19B
100
AcDbEntity
  8
DIMS
 62
     4
100
AcDbLine
 10
786.657613
 20
606.660844
 30
0.0
 11
799.957613
 21
606.660844
 31
0.0
  0
LINE
  5
19C
100
AcDbEntity
  8
DIMS
 62
     4
100
AcDbLine
 10
783.257613
 20
604.960844
 30
0.0
 11
783.257613
 21
608.360844
 31
0.0
  0
LINE
  5
19D
100
AcDbEntity
  8
DIMS
 62
     4
100
AcDbLine
 10
784.957613
 20
606.660844
 30
0.0
 11
781.557613
 21
606.660844
 31
0.0
  0
CIRCLE
  5
19E
100
AcDbEntity
  8
M03
100
AcDbCircle
 10
783.257613
 20
606.660844
 30
0.0
 40
2.3
  0
ARC
  5
19F
100
AcDbEntity
  8
M03
100
AcDbCircle
 10
783.257613
 20
606.660844
 30
0.0
 40
3.0
100
AcDbArc
 50
83.076897
 51
12.215364
  0
LINE
  5
1A0
100
AcDbEntity
  8
M03
100
AcDbLine
 10
782.707613
 20
600.686105
 30
0.0
 11
782.707613
 21
612.635582
 31
0.0
  0
LINE
  5
1A1
100
AcDbEntity
  8
M03
100
AcDbLine
 10
783.807613
 20
600.686105
 30
0.0
 11
783.807613
 21
612.635582
 31
0.0
  0
CIRCLE
  5
1A2
100
AcDbEntity
  8
M03
100
AcDbCircle
 10
783.257613
 20
606.660844
 30
0.0
 40
15.0
  0
CIRCLE
  5
1A3
100
AcDbEntity
  8
M03
100
AcDbCircle
 10
783.257613
 20
606.660844
 30
0.0
 40
14.0
  0
CIRCLE
  5
1A4
100
AcDbEntity
  8
M03
100
AcDbCircle
 10
783.257613
 20
606.660844
 30
0.0
 40
7.858882
  0
CIRCLE
  5
1A5
100
AcDbEntity
  8
M03
100
AcDbCircle
 10
783.257613
 20
606.660844
 30
0.0
 40
6.0
  0
CIRCLE
  5
1A6
100
AcDbEntity
  8
M01
100
AcDbCircle
 10
783.257613
 20
606.660844
 30
0.0
 40
4.0
  0
LINE
  5
1A7
100
AcDbEntity
  8
DIMS
 62
     4
100
AcDbLine
 10
783.257613
 20
478.260844
 30
0.0
 11
783.257613
 21
464.960844
 31
0.0
  0
LINE
  5
1A8
100
AcDbEntity
  8
DIMS
 62
     4
100
AcDbLine
 10
783.257613
 20
485.060844
 30
0.0
 11
783.257613
 21
498.360844
 31
0.0
  0
LINE
  5
1A9
100
AcDbEntity
  8
DIMS
 62
     4
100
AcDbLine
 10
779.857613
 20
481.660844
 30
0.0
 11
766.557613
 21
481.660844
 31
0.0
  0
LINE
  5
1AA
100
AcDbEntity
  8
DIMS
 62
     4
100
AcDbLine
 10
786.657613
 20
481.660844
 30
0.0
 11
799.957613
 21
481.660844
 31
0.0
  0
LINE
  5
1AB
100
AcDbEntity
  8
DIMS
 62
     4
100
AcDbLine
 10
783.257613
 20
483.360844
 30
0.0
 11
783.257613
 21
479.960844
 31
0.0
  0
LINE
  5
1AC
100
AcDbEntity
  8
DIMS
 62
     4
100
AcDbLine
 10
784.957613
 20
481.660844
 30
0.0
 11
781.557613
 21
481.660844
 31
0.0
  0
CIRCLE
  5
1AD
100
AcDbEntity
  8
M03
100
AcDbCircle
 10
783.257613
 20
481.660844
 30
0.0
 40
2.3
  0
ARC
  5
1AE
100
AcDbEntity
  8
M03
100
AcDbCircle
 10
783.257613
 20
481.660844
 30
0.0
 40
3.0
100
AcDbArc
 50
347.784636
 51
276.923103
  0
LINE
  5
1AF
100
AcDbEntity
  8
M03
100
AcDbLine
 10
782.707613
 20
487.635582
 30
0.0
 11
782.707613
 21
475.686105
 31
0.0
  0
LINE
  5
1B0
100
AcDbEntity
  8
M03
100
AcDbLine
 10
783.807613
 20
487.635582
 30
0.0
 11
783.807613
 21
475.686105
 31
0.0
  0
CIRCLE
  5
1B1
100
AcDbEntity
  8
M03
100
AcDbCircle
 10
783.257613
 20
481.660844
 30
0.0
 40
15.0
  0
CIRCLE
  5
1B2
100
AcDbEntity
  8
M03
100
AcDbCircle
 10
783.257613
 20
481.660844
 30
0.0
 40
14.0
  0
CIRCLE
  5
1B3
100
AcDbEntity
  8
M03
100
AcDbCircle
 10
783.257613
 20
481.660844
 30
0.0
 40
7.858882
  0
CIRCLE
  5
1B4
100
AcDbEntity
  8
M03
100
AcDbCircle
 10
783.257613
 20
481.660844
 30
0.0
 40
6.0
  0
CIRCLE
  5
1B5
100
AcDbEntity
  8
M01
100
AcDbCircle
 10
783.257613
 20
481.660844
 30
0.0
 40
4.0
  0
ARC
  5
1B6
100
AcDbEntity
  8
M04
100
AcDbCircle
 10
819.983009
 20
507.160844
 30
0.0
 40
5.0
100
AcDbArc
 50
90.0
 51
225.0
  0
ARC
  5
1B7
100
AcDbEntity
  8
M04
100
AcDbCircle
 10
819.983009
 20
581.160844
 30
0.0
 40
5.0
100
AcDbArc
 50
135.0
 51
270.0
  0
LINE
  5
1B8
100
AcDbEntity
  8
M04
100
AcDbLine
 10
827.806534
 20
596.055436
 30
0.0
 11
816.447475
 21
584.696378
 31
0.0
  0
ARC
  5
1B9
100
AcDbEntity
  8
M01
100
AcDbCircle
 10
720.757613
 20
606.386241
 30
0.0
 40
12.0
100
AcDbArc
 50
225.0
 51
315.0
  0
ARC
  5
1BA
100
AcDbEntity
  8
M01
100
AcDbCircle
 10
705.532216
 20
497.160844
 30
0.0
 40
12.0
100
AcDbArc
 50
45.0
 51
90.0
  0
ARC
  5
1BB
100
AcDbEntity
  8
M04
100
AcDbCircle
 10
720.757613
 20
609.214668
 30
0.0
 40
7.0
100
AcDbArc
 50
225.0
 51
315.0
  0
LINE
  5
1BC
100
AcDbEntity
  8
M04
100
AcDbLine
 10
827.806534
 20
492.266252
 30
0.0
 11
816.447475
 21
503.62531
 31
0.0
  0
LINE
  5
1BD
100
AcDbEntity
  8
M04
100
AcDbLine
 10
772.652205
 20
437.111923
 30
0.0
 11
709.124622
 21
500.639506
 31
0.0
  0
LINE
  5
1BE
100
AcDbEntity
  8
M01
100
AcDbLine
 10
774.002779
 20
445.660844
 30
0.0
 11
714.017497
 21
505.646125
 31
0.0
  0
LINE
  5
1BF
100
AcDbEntity
  8
M01
100
AcDbLine
 10
819.257613
 20
472.403622
 30
0.0
 11
819.257613
 21
490.915678
 31
0.0
  0
LINE
  5
1C0
100
AcDbEntity
  8
M01
100
AcDbLine
 10
792.514834
 20
445.660844
 30
0.0
 11
774.002779
 21
445.660844
 31
0.0
  0
LINE
  5
1C1
100
AcDbEntity
  8
M04
100
AcDbLine
 10
772.652205
 20
651.209765
 30
0.0
 11
725.70736
 21
604.26492
 31
0.0
  0
LINE
  5
1C2
100
AcDbEntity
  8
M01
100
AcDbLine
 10
774.002779
 20
642.660844
 30
0.0
 11
729.242894
 21
597.900959
 31
0.0
  0
LINE
  5
1C3
100
AcDbEntity
  8
M01
100
AcDbLine
 10
819.257613
 20
615.918065
 30
0.0
 11
819.257613
 21
597.40601
 31
0.0
  0
LINE
  5
1C4
100
AcDbEntity
  8
M01
100
AcDbLine
 10
792.514834
 20
642.660844
 30
0.0
 11
774.002779
 21
642.660844
 31
0.0
  0
ARC
  5
1C5
100
AcDbEntity
  8
M04
100
AcDbCircle
 10
595.757613
 20
479.10702
 30
0.0
 40
7.0
100
AcDbArc
 50
45.0
 51
135.0
  0
ARC
  5
1C6
100
AcDbEntity
  8
M01
100
AcDbCircle
 10
595.757612
 20
481.935447
 30
0.0
 40
12.0
100
AcDbArc
 50
45.0
 51
135.0
  0
LINE
  5
1C7
100
AcDbEntity
  8
CENTRE
100
AcDbLine
 10
595.757613
 20
544.160844
 30
0.0
 11
519.115477
 21
467.518708
 31
0.0
  0
LINE
  5
1C8
100
AcDbEntity
  8
DIMS
 62
     4
100
AcDbLine
 10
595.757613
 20
547.560844
 30
0.0
 11
595.757613
 21
549.860844
 31
0.0
  0
LINE
  5
1C9
100
AcDbEntity
  8
DIMS
 62
     4
100
AcDbLine
 10
595.757613
 20
540.760844
 30
0.0
 11
595.757613
 21
538.460844
 31
0.0
  0
LINE
  5
1CA
100
AcDbEntity
  8
DIMS
 62
     4
100
AcDbLine
 10
595.757613
 20
542.460844
 30
0.0
 11
595.757613
 21
545.860844
 31
0.0
  0
LINE
  5
1CB
100
AcDbEntity
  8
M03
100
AcDbLine
 10
595.757613
 20
548.160844
 30
0.0
 11
595.757613
 21
549.817698
 31
0.0
  0
CIRCLE
  5
1CC
100
AcDbEntity
  8
M03
100
AcDbCircle
 10
595.757613
 20
544.160844
 30
0.0
 40
4.0
  0
LINE
  5
1CD
100
AcDbEntity
  8
M03
100
AcDbLine
 10
595.379148
 20
538.882454
 30
0.0
 11
655.429185
 21
478.832417
 31
0.0
  0
LINE
  5
1CE
100
AcDbEntity
  8
DIMS
 62
     4
100
AcDbLine
 10
661.657613
 20
481.660844
 30
0.0
 11
674.957613
 21
481.660844
 31
0.0
  0
LINE
  5
1CF
100
AcDbEntity
  8
DIMS
 62
     4
100
AcDbLine
 10
654.857613
 20
481.660844
 30
0.0
 11
641.557613
 21
481.660844
 31
0.0
  0
LINE
  5
1D0
100
AcDbEntity
  8
DIMS
 62
     4
100
AcDbLine
 10
656.557613
 20
481.660844
 30
0.0
 11
659.957613
 21
481.660844
 31
0.0
  0
CIRCLE
  5
1D1
100
AcDbEntity
  8
M03
100
AcDbCircle
 10
658.257613
 20
481.660844
 30
0.0
 40
2.3
  0
ARC
  5
1D2
100
AcDbEntity
  8
M03
100
AcDbCircle
 10
658.257613
 20
481.660844
 30
0.0
 40
3.0
100
AcDbArc
 50
263.076897
 51
192.215364
  0
LINE
  5
1D3
100
AcDbEntity
  8
M03
100
AcDbLine
 10
658.807613
 20
487.635582
 30
0.0
 11
658.807613
 21
475.686105
 31
0.0
  0
LINE
  5
1D4
100
AcDbEntity
  8
M03
100
AcDbLine
 10
657.707613
 20
487.635582
 30
0.0
 11
657.707613
 21
475.686105
 31
0.0
  0
CIRCLE
  5
1D5
100
AcDbEntity
  8
M03
100
AcDbCircle
 10
658.257613
 20
481.660844
 30
0.0
 40
15.0
  0
CIRCLE
  5
1D6
100
AcDbEntity
  8
M03
100
AcDbCircle
 10
658.257613
 20
481.660844
 30
0.0
 40
14.0
  0
CIRCLE
  5
1D7
100
AcDbEntity
  8
M03
100
AcDbCircle
 10
658.257613
 20
481.660844
 30
0.0
 40
7.858882
  0
CIRCLE
  5
1D8
100
AcDbEntity
  8
M03
100
AcDbCircle
 10
658.257613
 20
481.660844
 30
0.0
 40
6.0
  0
CIRCLE
  5
1D9
100
AcDbEntity
  8
M01
100
AcDbCircle
 10
658.257613
 20
481.660844
 30
0.0
 40
4.0
  0
ARC
  5
1DA
100
AcDbEntity
  8
M04
100
AcDbCircle
 10
705.451786
 20
496.96667
 30
0.0
 40
5.194174
100
AcDbArc
 50
45.0
 51
225.0
  0
ARC
  5
1DB
100
AcDbEntity
  8
M01
100
AcDbCircle
 10
700.154582
 20
499.160844
 30
0.0
 40
10.0
100
AcDbArc
 50
90.0
 51
225.0
  0
LINE
  5
1DC
100
AcDbEntity
  8
M04
100
AcDbLine
 10
702.806534
 20
492.266252
 30
0.0
 11
701.778951
 21
493.293834
 31
0.0
  0
LINE
  5
1DD
100
AcDbEntity
  8
M04
100
AcDbLine
 10
647.652205
 20
437.111923
 30
0.0
 11
600.70736
 21
484.056768
 31
0.0
  0
LINE
  5
1DE
100
AcDbEntity
  8
M01
100
AcDbLine
 10
694.257613
 20
490.915678
 30
0.0
 11
693.083514
 21
492.089776
 31
0.0
  0
LINE
  5
1DF
100
AcDbEntity
  8
M01
100
AcDbLine
 10
649.002779
 20
445.660844
 30
0.0
 11
604.242894
 21
490.420729
 31
0.0
  0
LINE
  5
1E0
100
AcDbEntity
  8
M01
100
AcDbLine
 10
694.257613
 20
472.403622
 30
0.0
 11
694.257613
 21
490.915678
 31
0.0
  0
LINE
  5
1E1
100
AcDbEntity
  8
M01
100
AcDbLine
 10
667.514834
 20
445.660844
 30
0.0
 11
649.002779
 21
445.660844
 31
0.0
  0
LINE
  5
1E2
100
AcDbEntity
  8
M01
100
AcDbLine
 10
705.532216
 20
509.160844
 30
0.0
 11
700.154582
 21
509.160844
 31
0.0
  0
LINE
  5
1E3
100
AcDbEntity
  8
M03
100
AcDbLine
 10
536.08604
 20
479.589346
 30
0.0
 11
595.379148
 21
538.882454
 31
0.0
  0
LINE
  5
1E4
100
AcDbEntity
  8
M03
100
AcDbLine
 10
530.429185
 20
485.2462
 30
0.0
 11
589.722294
 21
544.539308
 31
0.0
  0
ARC
  5
1E5
100
AcDbEntity
  8
M04
100
AcDbCircle
 10
496.532216
 20
507.160844
 30
0.0
 40
5.0
100
AcDbArc
 50
315.0
 51
90.0
  0
LINE
  5
1E6
100
AcDbEntity
  8
M04
100
AcDbLine
 10
488.708692
 20
492.266252
 30
0.0
 11
500.06775
 21
503.62531
 31
0.0
  0
LINE
  5
1E7
100
AcDbEntity
  8
M04
100
AcDbLine
 10
543.86302
 20
437.111923
 30
0.0
 11
590.807865
 21
484.056768
 31
0.0
  0
LINE
  5
1E8
100
AcDbEntity
  8
M01
100
AcDbLine
 10
497.257613
 20
490.915678
 30
0.0
 11
508.017497
 21
501.675563
 31
0.0
  0
LINE
  5
1E9
100
AcDbEntity
  8
M01
100
AcDbLine
 10
542.512447
 20
445.660844
 30
0.0
 11
587.272331
 21
490.420729
 31
0.0
  0
LINE
  5
1EA
100
AcDbEntity
  8
M01
100
AcDbLine
 10
497.257613
 20
472.403622
 30
0.0
 11
497.257613
 21
490.915678
 31
0.0
  0
LINE
  5
1EB
100
AcDbEntity
  8
M01
100
AcDbLine
 10
524.000391
 20
445.660844
 30
0.0
 11
542.512447
 21
445.660844
 31
0.0
  0
LINE
  5
1EC
100
AcDbEntity
  8
DIMS
 62
     4
100
AcDbLine
 10
533.257613
 20
478.260844
 30
0.0
 11
533.257613
 21
464.960844
 31
0.0
  0
LINE
  5
1ED
100
AcDbEntity
  8
DIMS
 62
     4
100
AcDbLine
 10
533.257613
 20
485.060844
 30
0.0
 11
533.257613
 21
498.360844
 31
0.0
  0
LINE
  5
1EE
100
AcDbEntity
  8
DIMS
 62
     4
100
AcDbLine
 10
536.657613
 20
481.660844
 30
0.0
 11
549.957613
 21
481.660844
 31
0.0
  0
LINE
  5
1EF
100
AcDbEntity
  8
DIMS
 62
     4
100
AcDbLine
 10
529.857613
 20
481.660844
 30
0.0
 11
516.557613
 21
481.660844
 31
0.0
  0
LINE
  5
1F0
100
AcDbEntity
  8
DIMS
 62
     4
100
AcDbLine
 10
533.257613
 20
483.360844
 30
0.0
 11
533.257613
 21
479.960844
 31
0.0
  0
LINE
  5
1F1
100
AcDbEntity
  8
DIMS
 62
     4
100
AcDbLine
 10
531.557613
 20
481.660844
 30
0.0
 11
534.957613
 21
481.660844
 31
0.0
  0
CIRCLE
  5
1F2
100
AcDbEntity
  8
M03
100
AcDbCircle
 10
533.257613
 20
481.660844
 30
0.0
 40
2.3
  0
ARC
  5
1F3
100
AcDbEntity
  8
M03
100
AcDbCircle
 10
533.257613
 20
481.660844
 30
0.0
 40
3.0
100
AcDbArc
 50
263.076897
 51
192.215364
  0
LINE
  5
1F4
100
AcDbEntity
  8
M03
100
AcDbLine
 10
533.807613
 20
487.635582
 30
0.0
 11
533.807613
 21
475.686105
 31
0.0
  0
LINE
  5
1F5
100
AcDbEntity
  8
M03
100
AcDbLine
 10
532.707613
 20
487.635582
 30
0.0
 11
532.707613
 21
475.686105
 31
0.0
  0
CIRCLE
  5
1F6
100
AcDbEntity
  8
M03
100
AcDbCircle
 10
533.257613
 20
481.660844
 30
0.0
 40
15.0
  0
CIRCLE
  5
1F7
100
AcDbEntity
  8
M03
100
AcDbCircle
 10
533.257613
 20
481.660844
 30
0.0
 40
14.0
  0
CIRCLE
  5
1F8
100
AcDbEntity
  8
M03
100
AcDbCircle
 10
533.257613
 20
481.660844
 30
0.0
 40
7.858882
  0
CIRCLE
  5
1F9
100
AcDbEntity
  8
M03
100
AcDbCircle
 10
533.257613
 20
481.660844
 30
0.0
 40
6.0
  0
CIRCLE
  5
1FA
100
AcDbEntity
  8
M01
100
AcDbCircle
 10
533.257613
 20
481.660844
 30
0.0
 40
4.0
  0
ARC
  5
1FB
100
AcDbEntity
  8
M04
100
AcDbCircle
 10
611.063439
 20
591.355018
 30
0.0
 40
5.194174
100
AcDbArc
 50
225.0
 51
45.0
  0
ARC
  5
1FC
100
AcDbEntity
  8
M04
100
AcDbCircle
 10
496.532216
 20
581.160844
 30
0.0
 40
5.0
100
AcDbArc
 50
270.0
 51
45.0
  0
ARC
  5
1FD
100
AcDbEntity
  8
M01
100
AcDbCircle
 10
616.360643
 20
589.160844
 30
0.0
 40
10.0
100
AcDbArc
 50
270.0
 51
45.0
  0
ARC
  5
1FE
100
AcDbEntity
  8
M01
100
AcDbCircle
 10
610.983009
 20
591.160844
 30
0.0
 40
12.0
100
AcDbArc
 50
225.0
 51
270.0
  0
LINE
  5
1FF
100
AcDbEntity
  8
M04
100
AcDbLine
 10
613.708692
 20
596.055436
 30
0.0
 11
614.736274
 21
595.027853
 31
0.0
  0
LINE
  5
200
100
AcDbEntity
  8
M04
100
AcDbLine
 10
668.86302
 20
651.209765
 30
0.0
 11
715.807865
 21
604.26492
 31
0.0
  0
LINE
  5
201
100
AcDbEntity
  8
M01
100
AcDbLine
 10
622.257613
 20
597.40601
 30
0.0
 11
623.431711
 21
596.231912
 31
0.0
  0
LINE
  5
202
100
AcDbEntity
  8
M01
100
AcDbLine
 10
667.512447
 20
642.660844
 30
0.0
 11
712.272331
 21
597.900959
 31
0.0
  0
LINE
  5
203
100
AcDbEntity
  8
M01
100
AcDbLine
 10
622.257613
 20
615.918065
 30
0.0
 11
622.257613
 21
597.40601
 31
0.0
  0
LINE
  5
204
100
AcDbEntity
  8
M01
100
AcDbLine
 10
649.000391
 20
642.660844
 30
0.0
 11
667.512447
 21
642.660844
 31
0.0
  0
LINE
  5
205
100
AcDbEntity
  8
M04
100
AcDbLine
 10
488.708692
 20
596.055436
 30
0.0
 11
500.06775
 21
584.696378
 31
0.0
  0
LINE
  5
206
100
AcDbEntity
  8
M04
100
AcDbLine
 10
543.86302
 20
651.209765
 30
0.0
 11
607.390603
 21
587.682182
 31
0.0
  0
LINE
  5
207
100
AcDbEntity
  8
M01
100
AcDbLine
 10
497.257613
 20
597.40601
 30
0.0
 11
508.017497
 21
586.646125
 31
0.0
  0
LINE
  5
208
100
AcDbEntity
  8
M01
100
AcDbLine
 10
542.512447
 20
642.660844
 30
0.0
 11
602.497728
 21
582.675563
 31
0.0
  0
LINE
  5
209
100
AcDbEntity
  8
M01
100
AcDbLine
 10
610.983009
 20
579.160844
 30
0.0
 11
616.360643
 21
579.160844
 31
0.0
  0
LINE
  5
20A
100
AcDbEntity
  8
DIMS
 62
     4
100
AcDbLine
 10
661.657613
 20
606.660844
 30
0.0
 11
674.957613
 21
606.660844
 31
0.0
  0
LINE
  5
20B
100
AcDbEntity
  8
DIMS
 62
     4
100
AcDbLine
 10
654.857613
 20
606.660844
 30
0.0
 11
641.557613
 21
606.660844
 31
0.0
  0
LINE
  5
20C
100
AcDbEntity
  8
DIMS
 62
     4
100
AcDbLine
 10
656.557613
 20
606.660844
 30
0.0
 11
659.957613
 21
606.660844
 31
0.0
  0
CIRCLE
  5
20D
100
AcDbEntity
  8
M03
100
AcDbCircle
 10
658.257613
 20
606.660844
 30
0.0
 40
2.3
  0
ARC
  5
20E
100
AcDbEntity
  8
M03
100
AcDbCircle
 10
658.257613
 20
606.660844
 30
0.0
 40
3.0
100
AcDbArc
 50
167.784636
 51
96.923103
  0
LINE
  5
20F
100
AcDbEntity
  8
M03
100
AcDbLine
 10
658.807613
 20
600.686105
 30
0.0
 11
658.807613
 21
612.635582
 31
0.0
  0
LINE
  5
210
100
AcDbEntity
  8
M03
100
AcDbLine
 10
657.707613
 20
600.686105
 30
0.0
 11
657.707613
 21
612.635582
 31
0.0
  0
CIRCLE
  5
211
100
AcDbEntity
  8
M03
100
AcDbCircle
 10
658.257613
 20
606.660844
 30
0.0
 40
15.0
  0
CIRCLE
  5
212
100
AcDbEntity
  8
M03
100
AcDbCircle
 10
658.257613
 20
606.660844
 30
0.0
 40
14.0
  0
CIRCLE
  5
213
100
AcDbEntity
  8
M03
100
AcDbCircle
 10
658.257613
 20
606.660844
 30
0.0
 40
7.858882
  0
CIRCLE
  5
214
100
AcDbEntity
  8
M03
100
AcDbCircle
 10
658.257613
 20
606.660844
 30
0.0
 40
6.0
  0
LINE
  5
215
100
AcDbEntity
  8
M03
100
AcDbLine
 10
661.08604
 20
609.489271
 30
0.0
 11
786.08604
 21
484.489271
 31
0.0
  0
LINE
  5
216
100
AcDbEntity
  8
M03
100
AcDbLine
 10
655.429185
 20
603.832417
 30
0.0
 11
780.429185
 21
478.832417
 31
0.0
  0
LINE
  5
217
100
AcDbEntity
  8
CENTRE
100
AcDbLine
 10
644.115477
 20
620.80298
 30
0.0
 11
797.399748
 21
467.518708
 31
0.0
  0
CIRCLE
  5
218
100
AcDbEntity
  8
M01
100
AcDbCircle
 10
658.257613
 20
606.660844
 30
0.0
 40
4.0
  0
LINE
  5
219
100
AcDbEntity
  8
M04
100
AcDbLine
 10
424.257613
 20
576.160844
 30
0.0
 11
496.532216
 21
576.160844
 31
0.0
  0
LINE
  5
21A
100
AcDbEntity
  8
M01
100
AcDbLine
 10
497.257613
 20
615.918065
 30
0.0
 11
497.257613
 21
597.40601
 31
0.0
  0
LINE
  5
21B
100
AcDbEntity
  8
M01
100
AcDbLine
 10
524.000391
 20
642.660844
 30
0.0
 11
542.512447
 21
642.660844
 31
0.0
  0
MTEXT
  5
21C
100
AcDbEntity
  8
0
  6
BYBLOCK
 62
     2
100
AcDbMText
 10
841.567468
 20
616.15608
 30
0.0
 40
3.0
 41
0.0
 71
     4
 72
     1
  1
M12 PLATE RETAINING SCREWS SHOULD ALSO BE FITTED.\PMINIMUM 2 PER DROP & ALSO AROUND MANIFOLD POCKET.
  0
LINE
  5
21D
100
AcDbEntity
  8
DIMS
 62
     4
100
AcDbLine
 10
568.612952
 20
645.416183
 30
0.0
 11
568.612952
 21
650.216183
 31
0.0
  0
LINE
  5
21E
100
AcDbEntity
  8
DIMS
 62
     4
100
AcDbLine
 10
568.612952
 20
638.616183
 30
0.0
 11
568.612952
 21
633.816183
 31
0.0
  0
LINE
  5
21F
100
AcDbEntity
  8
DIMS
 62
     4
100
AcDbLine
 10
572.012952
 20
642.016183
 30
0.0
 11
576.812952
 21
642.016183
 31
0.0
  0
LINE
  5
220
100
AcDbEntity
  8
DIMS
 62
     4
100
AcDbLine
 10
565.212952
 20
642.016183
 30
0.0
 11
560.412952
 21
642.016183
 31
0.0
  0
LINE
  5
221
100
AcDbEntity
  8
DIMS
 62
     4
100
AcDbLine
 10
568.612952
 20
640.316183
 30
0.0
 11
568.612952
 21
643.716183
 31
0.0
  0
LINE
  5
222
100
AcDbEntity
  8
DIMS
 62
     4
100
AcDbLine
 10
566.912952
 20
642.016183
 30
0.0
 11
570.312952
 21
642.016183
 31
0.0
  0
LINE
  5
223
100
AcDbEntity
  8
DIMS
 62
     4
100
AcDbLine
 10
599.157613
 20
325.742476
 30
0.0
 11
601.457613
 21
325.742476
 31
0.0
  0
LINE
  5
224
100
AcDbEntity
  8
DIMS
 62
     4
100
AcDbLine
 10
592.357613
 20
325.742476
 30
0.0
 11
590.057613
 21
325.742476
 31
0.0
  0
LINE
  5
225
100
AcDbEntity
  8
DIMS
 62
     4
100
AcDbLine
 10
594.057613
 20
325.742476
 30
0.0
 11
597.457613
 21
325.742476
 31
0.0
  0
HATCH
  5
226
100
AcDbEntity
  8
HATCH
100
AcDbHatch
 10
0.0
 20
0.0
 30
0.0
210
0.0
220
0.0
230
1.0
  2
_U
 70
     0
 71
     1
 91
        1
 92
        7
 72
     0
 73
     1
 93
        4
 10
798.25761256428
 20
282.742475753018
 10
798.25761256428
 20
279.7424757530184
 10
813.2576125642797
 20
279.7424757530185
 10
813.2576125642797
 20
282.7424757530179
 97
        4
330
22D
330
31F
330
228
330
22B
 75
     0
 76
     0
 52
135.0
 41
0.8
 77
     0
 78
     1
 53
135.0
 43
25.0
 44
-31.709524
 45
-0.5656854249492382
 46
-0.565685424949238
 79
     0
 47
0.110181
 98
        1
 10
803.068155
 20
281.348323
  0
HATCH
  5
227
100
AcDbEntity
  8
HATCH
100
AcDbHatch
 10
0.0
 20
0.0
 30
0.0
210
0.0
220
0.0
230
1.0
  2
_U
 70
     0
 71
     0
 91
        1
 92
        7
 72
     0
 73
     1
 93
        4
 10
693.2576125642802
 20
282.7424757530181
 10
693.2576125642801
 20
279.7424757530183
 10
768.2576125642799
 20
279.7424757530183
 10
768.2576125642801
 20
282.7424757530179
 97
        0
 75
     0
 76
     0
 52
135.0
 41
0.8
 77
     0
 78
     1
 53
135.0
 43
0.0
 44
-31.709524
 45
-0.5656854249492382
 46
-0.565685424949238
 79
     0
 47
0.134259
 98
        1
 10
704.941029
 20
281.884575
  0
LINE
  5
228
102
{ACAD_REACTORS
330
226
102
}
100
AcDbEntity
  8
M02
100
AcDbLine
 10
797.257613
 20
279.742476
 30
0.0
 11
813.257613
 21
279.742476
 31
0.0
  0
LINE
  5
22A
100
AcDbEntity
  8
M02
100
AcDbLine
 10
692.257613
 20
279.742476
 30
0.0
 11
769.257613
 21
279.742476
 31
0.0
  0
LINE
  5
22B
102
{ACAD_REACTORS
330
226
102
}
100
AcDbEntity
  8
M02
100
AcDbLine
 10
813.257613
 20
282.742476
 30
0.0
 11
813.257613
 21
279.742476
 31
0.0
  0
LINE
  5
22C
100
AcDbEntity
  8
M04
100
AcDbLine
 10
786.257613
 20
275.742476
 30
0.0
 11
833.771004
 21
275.742476
 31
0.0
  0
LINE
  5
22D
102
{ACAD_REACTORS
330
226
330
40
102
}
100
AcDbEntity
  8
M01
100
AcDbLine
 10
668.257613
 20
282.742476
 30
0.0
 11
813.257613
 21
282.742476
 31
0.0
  0
HATCH
  5
22E
100
AcDbEntity
  8
DIMS
100
AcDbHatch
 10
0.0
 20
0.0
 30
0.0
210
0.0
220
0.0
230
1.0
  2
_U
 70
     0
 71
     0
 91
        5
 92
        7
 72
     0
 73
     1
 93
        9
 10
689.75761256428
 20
280.7424757530177
 10
689.75761256428
 20
276.7424757530179
 10
691.5576125642803
 20
276.7424757530179
 10
692.2576125642804
 20
277.4424757530179
 10
692.2576125642802
 20
282.0424757530178
 10
691.5576125642798
 20
282.7424757530181
 10
687.95761256428
 20
282.7424757530181
 10
687.95761256428
 20
280.7424757530179
 10
689.5076125642802
 20
280.7424757530179
 97
        0
 92
        7
 72
     1
 73
     1
 93
       16
 10
677.5576125642799
 20
271.7424757530179
 42
0.0
 10
678.2576125642799
 20
272.4424757530177
 42
0.0
 10
678.2576125642799
 20
273.742475753018
 42
0.0
 10
677.7576125642799
 20
273.7424757530178
 42
0.0
 10
677.7576125642799
 20
276.7424757530179
 42
0.0
 10
678.7576125642801
 20
276.7424757530179
 42
0.0
 10
678.7576125642801
 20
280.7424757530179
 42
0.0
 10
679.0076125642801
 20
280.7424757530179
 42
0.0
 10
680.5576125642801
 20
280.7424757530179
 42
0.0
 10
680.5576125642804
 20
282.7424757530181
 42
0.0
 10
668.2576125642799
 20
282.7424757530181
 42
0.0
 10
668.2576125642799
 20
291.7424757530178
 42
0.0
 10
667.2576125642799
 20
292.7424757530177
 42
0.0
 10
662.2576125642799
 20
292.7424757530178
 42
0.0
 10
661.2984865621759
 20
274.441261406119
 42
-0.1092323044357264
 10
667.4227639541913
 20
271.7424757530177
 42
0.0
 97
        0
 92
        7
 72
     1
 73
     1
 93
       16
 10
655.2167385663838
 20
274.4412614061189
 42
0.0
 10
654.2576125642799
 20
292.7424757530178
 42
0.0
 10
649.2576125642799
 20
292.7424757530178
 42
0.0
 10
648.25761256428
 20
291.7424757530178
 42
0.0
 10
648.25761256428
 20
282.7424757530181
 42
0.0
 10
635.9576125642802
 20
282.7424757530181
 42
0.0
 10
635.9576125642802
 20
280.7424757530179
 42
0.0
 10
637.5076125642799
 20
280.7424757530179
 42
0.0
 10
637.7576125642799
 20
280.7424757530179
 42
0.0
 10
637.7576125642799
 20
276.742475753018
 42
0.0
 10
638.7576125642799
 20
276.742475753018
 42
0.0
 10
638.7576125642799
 20
273.7424757530177
 42
0.0
 10
638.2576125642799
 20
273.7424757530177
 42
0.0
 10
638.2576125642802
 20
272.4424757530175
 42
0.0
 10
638.95761256428
 20
271.7424757530175
 42
0.0
 10
649.0924611743682
 20
271.7424757530176
 42
-0.1092323044357263
 97
        0
 92
        7
 72
     0
 73
     1
 93
        9
 10
626.7576125642799
 20
280.7424757530177
 10
627.0076125642797
 20
280.7424757530177
 10
628.5576125642799
 20
280.7424757530178
 10
628.5576125642801
 20
282.7424757530181
 10
624.95761256428
 20
282.7424757530181
 10
624.2576125642797
 20
282.0424757530179
 10
624.2576125642797
 20
277.4424757530177
 10
624.9576125642797
 20
276.742475753018
 10
626.7576125642801
 20
276.742475753018
 97
        0
 92
       24
 93
        4
 72
     1
 10
662.831693
 20
277.809963
 11
677.203122
 21
277.809963
 72
     1
 10
677.203122
 20
277.809963
 11
677.203122
 21
280.809963
 72
     1
 10
677.203122
 20
280.809963
 11
662.831693
 21
280.809963
 72
     1
 10
662.831693
 20
280.809963
 11
662.831693
 21
277.809963
 97
        0
 75
     0
 76
     0
 52
135.0
 41
2.5
 77
     0
 78
     1
 53
135.0
 43
102.810372
 44
35.256001
 45
-1.767766952966368
 46
-1.767766952966368
 79
     0
 47
0.085632
 98
        4
 10
690.754575
 20
281.10046
 10
673.10713
 20
275.106231
 10
650.319651
 20
276.305077
 10
626.075832
 20
281.10046
  0
LINE
  5
22F
102
{ACAD_REACTORS
330
40
102
}
100
AcDbEntity
  8
M04
100
AcDbLine
 10
635.257613
 20
290.042476
 30
0.0
 11
635.257613
 21
292.542476
 31
0.0
  0
LINE
  5
230
102
{ACAD_REACTORS
330
40
102
}
100
AcDbEntity
  8
M04
100
AcDbLine
 10
634.557613
 20
290.742476
 30
0.0
 11
634.557613
 21
294.042476
 31
0.0
  0
LINE
  5
231
102
{ACAD_REACTORS
330
40
102
}
100
AcDbEntity
  8
M04
100
AcDbLine
 10
629.257613
 20
290.042476
 30
0.0
 11
629.257613
 21
292.542476
 31
0.0
  0
LINE
  5
232
102
{ACAD_REACTORS
330
40
102
}
100
AcDbEntity
  8
M04
100
AcDbLine
 10
629.957613
 20
290.742476
 30
0.0
 11
629.957613
 21
294.042476
 31
0.0
  0
LINE
  5
233
100
AcDbEntity
  8
M05
100
AcDbLine
 10
627.007613
 20
280.742476
 30
0.0
 11
637.507613
 21
280.742476
 31
0.0
  0
LINE
  5
235
100
AcDbEntity
  8
M04
100
AcDbLine
 10
637.507613
 20
280.742476
 30
0.0
 11
637.757613
 21
280.742476
 31
0.0
  0
LINE
  5
236
100
AcDbEntity
  8
M04
100
AcDbLine
 10
626.757613
 20
280.742476
 30
0.0
 11
626.757613
 21
276.742476
 31
0.0
  0
LINE
  5
237
100
AcDbEntity
  8
M04
100
AcDbLine
 10
637.757613
 20
280.742476
 30
0.0
 11
637.757613
 21
276.742476
 31
0.0
  0
LINE
  5
238
100
AcDbEntity
  8
M05
100
AcDbLine
 10
635.257613
 20
281.742476
 30
0.0
 11
629.257613
 21
281.742476
 31
0.0
  0
LINE
  5
239
102
{ACAD_REACTORS
330
40
102
}
100
AcDbEntity
  8
M04
100
AcDbLine
 10
629.957613
 20
294.042476
 30
0.0
 11
632.257613
 21
295.370381
 31
0.0
  0
LINE
  5
23A
102
{ACAD_REACTORS
330
40
102
}
100
AcDbEntity
  8
M04
100
AcDbLine
 10
634.557613
 20
294.042476
 30
0.0
 11
632.257613
 21
295.370381
 31
0.0
  0
LINE
  5
23B
100
AcDbEntity
  8
M04
100
AcDbLine
 10
634.557613
 20
294.042476
 30
0.0
 11
629.957613
 21
294.042476
 31
0.0
  0
LINE
  5
23C
102
{ACAD_REACTORS
330
40
102
}
100
AcDbEntity
  8
M04
100
AcDbLine
 10
635.257613
 20
292.542476
 30
0.0
 11
629.257613
 21
292.542476
 31
0.0
  0
ARC
  5
23D
100
AcDbEntity
  8
M05
100
AcDbCircle
 10
632.257613
 20
283.268612
 30
0.0
 40
5.826136
100
AcDbArc
 50
205.69541
 51
334.30459
  0
LINE
  5
23E
100
AcDbEntity
  8
M05
100
AcDbLine
 10
629.257613
 20
290.042476
 30
0.0
 11
629.957613
 21
290.742476
 31
0.0
  0
LINE
  5
23F
100
AcDbEntity
  8
M05
100
AcDbLine
 10
635.257613
 20
290.042476
 30
0.0
 11
634.557613
 21
290.742476
 31
0.0
  0
LINE
  5
240
100
AcDbEntity
  8
M05
100
AcDbLine
 10
635.257613
 20
290.042476
 30
0.0
 11
629.257613
 21
290.042476
 31
0.0
  0
LINE
  5
241
100
AcDbEntity
  8
M05
100
AcDbLine
 10
634.557613
 20
290.742476
 30
0.0
 11
629.957613
 21
290.742476
 31
0.0
  0
LINE
  5
242
100
AcDbEntity
  8
M04
100
AcDbLine
 10
635.957613
 20
282.742476
 30
0.0
 11
635.957613
 21
280.742476
 31
0.0
  0
LINE
  5
243
100
AcDbEntity
  8
M04
100
AcDbLine
 10
628.557613
 20
282.742476
 30
0.0
 11
628.557613
 21
280.742476
 31
0.0
  0
LINE
  5
244
100
AcDbEntity
  8
M05
100
AcDbLine
 10
629.957613
 20
290.742476
 30
0.0
 11
629.957613
 21
281.742476
 31
0.0
  0
LINE
  5
245
100
AcDbEntity
  8
M05
100
AcDbLine
 10
634.557613
 20
290.742476
 30
0.0
 11
634.557613
 21
281.742476
 31
0.0
  0
LINE
  5
246
102
{ACAD_REACTORS
330
40
102
}
100
AcDbEntity
  8
M05
100
AcDbLine
 10
635.257613
 20
290.042476
 30
0.0
 11
635.257613
 21
280.742476
 31
0.0
  0
LINE
  5
247
102
{ACAD_REACTORS
330
40
102
}
100
AcDbEntity
  8
M05
100
AcDbLine
 10
629.257613
 20
290.042476
 30
0.0
 11
629.257613
 21
280.742476
 31
0.0
  0
LINE
  5
248
100
AcDbEntity
  8
M04
100
AcDbLine
 10
626.757613
 20
280.742476
 30
0.0
 11
627.007613
 21
280.742476
 31
0.0
  0
LINE
  5
249
100
AcDbEntity
  8
CENTRE
100
AcDbLine
 10
632.257613
 20
298.008976
 30
0.0
 11
632.257613
 21
273.096288
 31
0.0
  0
LINE
  5
24A
102
{ACAD_REACTORS
330
40
102
}
100
AcDbEntity
  8
M04
100
AcDbLine
 10
681.257613
 20
290.042476
 30
0.0
 11
681.257613
 21
292.542476
 31
0.0
  0
LINE
  5
24B
102
{ACAD_REACTORS
330
40
102
}
100
AcDbEntity
  8
M04
100
AcDbLine
 10
681.957613
 20
290.742476
 30
0.0
 11
681.957613
 21
294.042476
 31
0.0
  0
LINE
  5
24C
102
{ACAD_REACTORS
330
40
102
}
100
AcDbEntity
  8
M04
100
AcDbLine
 10
687.257613
 20
290.042476
 30
0.0
 11
687.257613
 21
292.542476
 31
0.0
  0
LINE
  5
24D
102
{ACAD_REACTORS
330
40
102
}
100
AcDbEntity
  8
M04
100
AcDbLine
 10
686.557613
 20
290.742476
 30
0.0
 11
686.557613
 21
294.042476
 31
0.0
  0
LINE
  5
24E
100
AcDbEntity
  8
M05
100
AcDbLine
 10
689.507613
 20
280.742476
 30
0.0
 11
679.007613
 21
280.742476
 31
0.0
  0
LINE
  5
24F
100
AcDbEntity
  8
M04
100
AcDbLine
 10
679.007613
 20
280.742476
 30
0.0
 11
678.757613
 21
280.742476
 31
0.0
  0
LINE
  5
250
100
AcDbEntity
  8
M04
100
AcDbLine
 10
689.757613
 20
280.742476
 30
0.0
 11
689.757613
 21
276.742476
 31
0.0
  0
LINE
  5
251
100
AcDbEntity
  8
M04
100
AcDbLine
 10
678.757613
 20
280.742476
 30
0.0
 11
678.757613
 21
276.742476
 31
0.0
  0
LINE
  5
252
100
AcDbEntity
  8
M05
100
AcDbLine
 10
681.257613
 20
281.742476
 30
0.0
 11
687.257613
 21
281.742476
 31
0.0
  0
LINE
  5
253
102
{ACAD_REACTORS
330
40
102
}
100
AcDbEntity
  8
M04
100
AcDbLine
 10
686.557613
 20
294.042476
 30
0.0
 11
684.257613
 21
295.370381
 31
0.0
  0
LINE
  5
254
102
{ACAD_REACTORS
330
40
102
}
100
AcDbEntity
  8
M04
100
AcDbLine
 10
681.957613
 20
294.042476
 30
0.0
 11
684.257613
 21
295.370381
 31
0.0
  0
LINE
  5
255
100
AcDbEntity
  8
M04
100
AcDbLine
 10
681.957613
 20
294.042476
 30
0.0
 11
686.557613
 21
294.042476
 31
0.0
  0
LINE
  5
256
102
{ACAD_REACTORS
330
40
102
}
100
AcDbEntity
  8
M04
100
AcDbLine
 10
681.257613
 20
292.542476
 30
0.0
 11
687.257613
 21
292.542476
 31
0.0
  0
ARC
  5
257
100
AcDbEntity
  8
M05
100
AcDbCircle
 10
684.257613
 20
283.268612
 30
0.0
 40
5.826136
100
AcDbArc
 50
205.69541
 51
334.30459
  0
LINE
  5
258
100
AcDbEntity
  8
M05
100
AcDbLine
 10
687.257613
 20
290.042476
 30
0.0
 11
686.557613
 21
290.742476
 31
0.0
  0
LINE
  5
259
100
AcDbEntity
  8
M05
100
AcDbLine
 10
681.257613
 20
290.042476
 30
0.0
 11
681.957613
 21
290.742476
 31
0.0
  0
LINE
  5
25A
100
AcDbEntity
  8
M05
100
AcDbLine
 10
681.257613
 20
290.042476
 30
0.0
 11
687.257613
 21
290.042476
 31
0.0
  0
LINE
  5
25B
100
AcDbEntity
  8
M05
100
AcDbLine
 10
681.957613
 20
290.742476
 30
0.0
 11
686.557613
 21
290.742476
 31
0.0
  0
LINE
  5
25C
100
AcDbEntity
  8
M04
100
AcDbLine
 10
680.557613
 20
282.742476
 30
0.0
 11
680.557613
 21
280.742476
 31
0.0
  0
LINE
  5
25D
100
AcDbEntity
  8
M04
100
AcDbLine
 10
687.957613
 20
282.742476
 30
0.0
 11
687.957613
 21
280.742476
 31
0.0
  0
LINE
  5
25E
100
AcDbEntity
  8
M05
100
AcDbLine
 10
686.557613
 20
290.742476
 30
0.0
 11
686.557613
 21
281.742476
 31
0.0
  0
LINE
  5
25F
100
AcDbEntity
  8
M05
100
AcDbLine
 10
681.957613
 20
290.742476
 30
0.0
 11
681.957613
 21
281.742476
 31
0.0
  0
LINE
  5
260
102
{ACAD_REACTORS
330
40
102
}
100
AcDbEntity
  8
M05
100
AcDbLine
 10
681.257613
 20
290.042476
 30
0.0
 11
681.257613
 21
280.742476
 31
0.0
  0
LINE
  5
261
102
{ACAD_REACTORS
330
40
102
}
100
AcDbEntity
  8
M05
100
AcDbLine
 10
687.257613
 20
290.042476
 30
0.0
 11
687.257613
 21
280.742476
 31
0.0
  0
LINE
  5
262
100
AcDbEntity
  8
M04
100
AcDbLine
 10
689.757613
 20
280.742476
 30
0.0
 11
689.507613
 21
280.742476
 31
0.0
  0
LINE
  5
263
100
AcDbEntity
  8
CENTRE
100
AcDbLine
 10
684.257613
 20
298.008976
 30
0.0
 11
684.257613
 21
273.096288
 31
0.0
  0
TEXT
  5
264
100
AcDbEntity
  8
TEXT
100
AcDbText
 10
663.331693
 20
278.309963
 30
0.0
 40
2.0
  1
MA010000
 41
0.9
100
AcDbText
  0
LINE
  5
265
100
AcDbEntity
  8
M04
100
AcDbLine
 10
628.257613
 20
257.742476
 30
0.0
 11
628.257613
 21
248.742476
 31
0.0
  0
LINE
  5
266
100
AcDbEntity
  8
M05
100
AcDbLine
 10
624.257613
 20
277.442476
 30
0.0
 11
624.957613
 21
276.742476
 31
0.0
  0
LINE
  5
267
100
AcDbEntity
  8
M02
100
AcDbLine
 10
623.257613
 20
282.742476
 30
0.0
 11
623.257613
 21
279.742476
 31
0.0
  0
LINE
  5
268
100
AcDbEntity
  8
M04
100
AcDbLine
 10
628.257613
 20
257.742476
 30
0.0
 11
688.257613
 21
257.742476
 31
0.0
  0
LINE
  5
269
100
AcDbEntity
  8
M04
100
AcDbLine
 10
638.257613
 20
267.742476
 30
0.0
 11
628.257613
 21
257.742476
 31
0.0
  0
LINE
  5
26A
100
AcDbEntity
  8
M04
100
AcDbLine
 10
688.257613
 20
257.742476
 30
0.0
 11
688.257613
 21
248.742476
 31
0.0
  0
LINE
  5
26B
100
AcDbEntity
  8
M04
100
AcDbLine
 10
678.257613
 20
267.742476
 30
0.0
 11
688.257613
 21
257.742476
 31
0.0
  0
LINE
  5
26C
100
AcDbEntity
  8
M05
100
AcDbLine
 10
655.216739
 20
274.441261
 30
0.0
 11
661.298487
 21
274.441261
 31
0.0
  0
ARC
  5
26D
100
AcDbEntity
  8
M05
100
AcDbCircle
 10
658.257613
 20
259.242476
 30
0.0
 40
15.5
100
AcDbArc
 50
101.313981
 51
126.249321
  0
LINE
  5
26E
100
AcDbEntity
  8
M05
100
AcDbLine
 10
654.257613
 20
292.742476
 30
0.0
 11
655.216739
 21
274.441261
 31
0.0
  0
LINE
  5
26F
100
AcDbEntity
  8
M05
100
AcDbLine
 10
662.257613
 20
292.742476
 30
0.0
 11
661.298487
 21
274.441261
 31
0.0
  0
ARC
  5
270
100
AcDbEntity
  8
M05
100
AcDbCircle
 10
658.257613
 20
259.242476
 30
0.0
 40
15.5
100
AcDbArc
 50
53.750679
 51
78.686019
  0
LINE
  5
271
100
AcDbEntity
  8
M04
100
AcDbLine
 10
638.257613
 20
273.742476
 30
0.0
 11
638.257613
 21
275.742476
 31
0.0
  0
LINE
  5
272
100
AcDbEntity
  8
M04
100
AcDbLine
 10
638.257613
 20
272.442476
 30
0.0
 11
638.257613
 21
267.742476
 31
0.0
  0
LINE
  5
273
100
AcDbEntity
  8
M04
100
AcDbLine
 10
678.257613
 20
273.742476
 30
0.0
 11
678.257613
 21
275.742476
 31
0.0
  0
LINE
  5
274
100
AcDbEntity
  8
M04
100
AcDbLine
 10
678.257613
 20
272.442476
 30
0.0
 11
678.257613
 21
267.742476
 31
0.0
  0
LINE
  5
275
100
AcDbEntity
  8
M04
100
AcDbLine
 10
678.257613
 20
267.742476
 30
0.0
 11
638.257613
 21
267.742476
 31
0.0
  0
LINE
  5
276
100
AcDbEntity
  8
M05
100
AcDbLine
 10
638.757613
 20
273.742476
 30
0.0
 11
638.257613
 21
273.742476
 31
0.0
  0
LINE
  5
277
100
AcDbEntity
  8
M05
100
AcDbLine
 10
638.757613
 20
276.742476
 30
0.0
 11
624.957613
 21
276.742476
 31
0.0
  0
LINE
  5
278
100
AcDbEntity
  8
M05
100
AcDbLine
 10
638.757613
 20
276.742476
 30
0.0
 11
638.757613
 21
273.742476
 31
0.0
  0
LINE
  5
279
100
AcDbEntity
  8
M05
100
AcDbLine
 10
677.757613
 20
276.742476
 30
0.0
 11
677.757613
 21
273.742476
 31
0.0
  0
LINE
  5
27A
100
AcDbEntity
  8
M05
100
AcDbLine
 10
678.257613
 20
273.742476
 30
0.0
 11
677.757613
 21
273.742476
 31
0.0
  0
LINE
  5
27B
100
AcDbEntity
  8
M05
100
AcDbLine
 10
638.957613
 20
271.742476
 30
0.0
 11
638.257613
 21
272.442476
 31
0.0
  0
LINE
  5
27C
100
AcDbEntity
  8
M05
100
AcDbLine
 10
677.557613
 20
271.742476
 30
0.0
 11
678.257613
 21
272.442476
 31
0.0
  0
LINE
  5
27D
100
AcDbEntity
  8
M05
100
AcDbLine
 10
677.557613
 20
271.742476
 30
0.0
 11
638.957613
 21
271.742476
 31
0.0
  0
LINE
  5
27E
100
AcDbEntity
  8
M05
100
AcDbLine
 10
638.257613
 20
273.742476
 30
0.0
 11
638.257613
 21
272.442476
 31
0.0
  0
LINE
  5
27F
100
AcDbEntity
  8
M05
100
AcDbLine
 10
678.257613
 20
273.742476
 30
0.0
 11
678.257613
 21
272.442476
 31
0.0
  0
LINE
  5
280
102
{ACAD_REACTORS
330
40
102
}
100
AcDbEntity
  8
M04
100
AcDbLine
 10
648.257613
 20
283.242476
 30
0.0
 11
647.757613
 21
282.742476
 31
0.0
  0
LINE
  5
281
102
{ACAD_REACTORS
330
40
102
}
100
AcDbEntity
  8
M04
100
AcDbLine
 10
668.257613
 20
283.242476
 30
0.0
 11
668.757613
 21
282.742476
 31
0.0
  0
LINE
  5
282
100
AcDbEntity
  8
M05
100
AcDbLine
 10
624.257613
 20
282.042476
 30
0.0
 11
624.957613
 21
282.742476
 31
0.0
  0
LINE
  5
283
100
AcDbEntity
  8
M05
100
AcDbLine
 10
624.257613
 20
282.042476
 30
0.0
 11
624.257613
 21
277.442476
 31
0.0
  0
LINE
  5
284
100
AcDbEntity
  8
M05
100
AcDbLine
 10
692.257613
 20
282.042476
 30
0.0
 11
691.557613
 21
282.742476
 31
0.0
  0
LINE
  5
285
100
AcDbEntity
  8
M05
100
AcDbLine
 10
692.257613
 20
277.442476
 30
0.0
 11
691.557613
 21
276.742476
 31
0.0
  0
LINE
  5
286
100
AcDbEntity
  8
M02
100
AcDbLine
 10
693.257613
 20
282.742476
 30
0.0
 11
693.257613
 21
279.742476
 31
0.0
  0
LINE
  5
287
100
AcDbEntity
  8
M05
100
AcDbLine
 10
691.557613
 20
276.742476
 30
0.0
 11
677.757613
 21
276.742476
 31
0.0
  0
LINE
  5
288
100
AcDbEntity
  8
M05
100
AcDbLine
 10
692.257613
 20
282.042476
 30
0.0
 11
692.257613
 21
277.442476
 31
0.0
  0
LINE
  5
289
102
{ACAD_REACTORS
330
40
102
}
100
AcDbEntity
  8
M04
100
AcDbLine
 10
648.257613
 20
291.742476
 30
0.0
 11
648.257613
 21
292.742476
 31
0.0
  0
LINE
  5
28A
102
{ACAD_REACTORS
330
40
102
}
100
AcDbEntity
  8
M04
100
AcDbLine
 10
649.257613
 20
292.742476
 30
0.0
 11
648.257613
 21
292.742476
 31
0.0
  0
LINE
  5
28B
102
{ACAD_REACTORS
330
40
102
}
100
AcDbEntity
  8
M04
100
AcDbLine
 10
668.257613
 20
291.742476
 30
0.0
 11
668.257613
 21
292.742476
 31
0.0
  0
LINE
  5
28C
102
{ACAD_REACTORS
330
40
102
}
100
AcDbEntity
  8
M04
100
AcDbLine
 10
667.257613
 20
292.742476
 30
0.0
 11
668.257613
 21
292.742476
 31
0.0
  0
LINE
  5
28D
100
AcDbEntity
  8
M05
100
AcDbLine
 10
667.257613
 20
292.742476
 30
0.0
 11
668.257613
 21
291.742476
 31
0.0
  0
LINE
  5
28E
100
AcDbEntity
  8
M05
100
AcDbLine
 10
648.257613
 20
291.742476
 30
0.0
 11
649.257613
 21
292.742476
 31
0.0
  0
LINE
  5
28F
102
{ACAD_REACTORS
330
40
102
}
100
AcDbEntity
  8
M05
100
AcDbLine
 10
667.257613
 20
292.742476
 30
0.0
 11
649.257613
 21
292.742476
 31
0.0
  0
LINE
  5
290
102
{ACAD_REACTORS
330
40
102
}
100
AcDbEntity
  8
M05
100
AcDbLine
 10
648.257613
 20
291.742476
 30
0.0
 11
648.257613
 21
282.742476
 31
0.0
  0
LINE
  5
291
102
{ACAD_REACTORS
330
40
102
}
100
AcDbEntity
  8
M05
100
AcDbLine
 10
668.257613
 20
291.742476
 30
0.0
 11
668.257613
 21
282.742476
 31
0.0
  0
LINE
  5
292
100
AcDbEntity
  8
M04
100
AcDbLine
 10
667.757613
 20
349.742476
 30
0.0
 11
822.257613
 21
349.742476
 31
0.0
  0
LINE
  5
293
102
{ACAD_REACTORS
330
42
330
41
102
}
100
AcDbEntity
  8
M02
100
AcDbLine
 10
667.757613
 20
345.742476
 30
0.0
 11
813.257613
 21
345.742476
 31
0.0
  0
LINE
  5
294
102
{ACAD_REACTORS
330
42
330
41
330
40
102
}
100
AcDbEntity
  8
M01
100
AcDbLine
 10
667.757613
 20
342.742476
 30
0.0
 11
813.257613
 21
342.742476
 31
0.0
  0
DIMENSION
  5
295
100
AcDbEntity
  8
DIMS
100
AcDbDimension
  2
*D8
 10
624.96959
 20
354.742476
 30
0.0
 11
621.96959
 21
365.385333
 31
0.0
 12
-511.862374
 22
420.936537
 32
0.0
  1
5.0
  3
DIM1
100
AcDbAlignedDimension
 13
647.257613
 23
349.742476
 33
0.0
 14
648.257613
 24
354.742476
 34
0.0
 50
270.0
100
AcDbRotatedDimension
1001
ACAD
1000
DSTYLE
1002
{
1070
   144
1040
1.0
1002
}
  0
DIMENSION
  5
2A3
100
AcDbEntity
  8
DIMS
100
AcDbDimension
  2
*D7
 10
647.257613
 20
387.269704
 30
0.0
 11
658.257613
 21
390.269704
 31
0.0
 12
-511.862374
 22
420.936537
 32
0.0
  3
DIM1
100
AcDbAlignedDimension
 13
669.257613
 23
354.165125
 33
0.0
 14
647.257613
 24
354.165125
 34
0.0
100
AcDbRotatedDimension
1001
ACAD
1000
DSTYLE
1002
{
1070
   144
1040
1.0
1002
}
  0
DIMENSION
  5
2B0
100
AcDbEntity
  8
DIMS
100
AcDbDimension
  2
*D6
 10
648.257613
 20
377.392291
 30
0.0
 11
629.043327
 21
380.392291
 31
0.0
 12
-511.862374
 22
420.936537
 32
0.0
  1
%%c<> H7
  3
DIM1
100
AcDbAlignedDimension
 13
668.257613
 23
359.742476
 33
0.0
 14
648.257613
 24
359.742476
 34
0.0
100
AcDbRotatedDimension
1001
ACAD
1000
DSTYLE
1002
{
1070
   144
1040
1.0
1002
}
  0
DIMENSION
  5
2BE
100
AcDbEntity
  8
DIMS
100
AcDbDimension
  2
*D5
 10
684.54463
 20
359.742476
 30
0.0
 11
684.54463
 21
372.956761
 31
0.0
 12
-511.862374
 22
420.936537
 32
0.0
 70
   128
  3
DIM1
100
AcDbAlignedDimension
 13
667.757613
 23
342.742476
 33
0.0
 14
668.257613
 24
359.742476
 34
0.0
 50
270.0
100
AcDbRotatedDimension
1001
ACAD
1000
DSTYLE
1002
{
1070
   144
1040
1.0
1002
}
  0
TEXT
  5
2CC
100
AcDbEntity
  8
TEXT
100
AcDbText
 10
660.969779
 20
353.378252
 30
0.0
 40
2.0
  1
MA010008
 50
270.0
 41
0.9
100
AcDbText
  0
LINE
  5
2CD
100
AcDbEntity
  8
M04
100
AcDbLine
 10
647.257613
 20
354.165125
 30
0.0
 11
648.757613
 21
354.165125
 31
0.0
  0
LINE
  5
2CE
100
AcDbEntity
  8
M04
100
AcDbLine
 10
647.257613
 20
354.165125
 30
0.0
 11
647.257613
 21
349.742476
 31
0.0
  0
LINE
  5
2CF
100
AcDbEntity
  8
M04
100
AcDbLine
 10
648.257613
 20
354.742476
 30
0.0
 11
647.257613
 21
354.165125
 31
0.0
  0
LINE
  5
2D0
100
AcDbEntity
  8
M04
100
AcDbLine
 10
648.257613
 20
358.742476
 30
0.0
 11
648.257613
 21
359.742476
 31
0.0
  0
LINE
  5
2D1
100
AcDbEntity
  8
M04
100
AcDbLine
 10
649.257613
 20
359.742476
 30
0.0
 11
648.257613
 21
359.742476
 31
0.0
  0
LINE
  5
2D2
102
{ACAD_REACTORS
330
40
102
}
100
AcDbEntity
  8
M04
100
AcDbLine
 10
649.757613
 20
337.742476
 30
0.0
 11
648.757613
 21
337.742476
 31
0.0
  0
LINE
  5
2D3
102
{ACAD_REACTORS
330
40
102
}
100
AcDbEntity
  8
M04
100
AcDbLine
 10
648.757613
 20
338.742476
 30
0.0
 11
648.757613
 21
337.742476
 31
0.0
  0
LINE
  5
2D4
100
AcDbEntity
  8
M04
100
AcDbLine
 10
669.257613
 20
354.165125
 30
0.0
 11
667.757613
 21
354.165125
 31
0.0
  0
LINE
  5
2D5
100
AcDbEntity
  8
M04
100
AcDbLine
 10
669.257613
 20
354.165125
 30
0.0
 11
669.257613
 21
349.742476
 31
0.0
  0
LINE
  5
2D6
100
AcDbEntity
  8
M04
100
AcDbLine
 10
668.257613
 20
354.742476
 30
0.0
 11
669.257613
 21
354.165125
 31
0.0
  0
LINE
  5
2D7
100
AcDbEntity
  8
M04
100
AcDbLine
 10
668.257613
 20
358.742476
 30
0.0
 11
668.257613
 21
359.742476
 31
0.0
  0
LINE
  5
2D8
100
AcDbEntity
  8
M04
100
AcDbLine
 10
667.257613
 20
359.742476
 30
0.0
 11
668.257613
 21
359.742476
 31
0.0
  0
LINE
  5
2D9
102
{ACAD_REACTORS
330
40
102
}
100
AcDbEntity
  8
M04
100
AcDbLine
 10
666.757613
 20
337.742476
 30
0.0
 11
667.757613
 21
337.742476
 31
0.0
  0
LINE
  5
2DA
102
{ACAD_REACTORS
330
40
102
}
100
AcDbEntity
  8
M04
100
AcDbLine
 10
667.757613
 20
338.742476
 30
0.0
 11
667.757613
 21
337.742476
 31
0.0
  0
LINE
  5
2DB
102
{ACAD_REACTORS
330
ED
102
}
100
AcDbEntity
  8
M02
100
AcDbLine
 10
647.257613
 20
345.742476
 30
0.0
 11
647.257613
 21
342.742476
 31
0.0
  0
LINE
  5
2DC
102
{ACAD_REACTORS
330
41
102
}
100
AcDbEntity
  8
M02
100
AcDbLine
 10
669.257613
 20
345.742476
 30
0.0
 11
669.257613
 21
342.742476
 31
0.0
  0
LINE
  5
2DD
100
AcDbEntity
  8
M05
100
AcDbLine
 10
648.757613
 20
338.742476
 30
0.0
 11
667.757613
 21
338.742476
 31
0.0
  0
LINE
  5
2DE
100
AcDbEntity
  8
M05
100
AcDbLine
 10
648.257613
 20
358.742476
 30
0.0
 11
668.257613
 21
358.742476
 31
0.0
  0
LINE
  5
2DF
100
AcDbEntity
  8
M05
100
AcDbLine
 10
649.757613
 20
337.742476
 30
0.0
 11
648.757613
 21
338.742476
 31
0.0
  0
LINE
  5
2E0
100
AcDbEntity
  8
M05
100
AcDbLine
 10
667.757613
 20
338.742476
 30
0.0
 11
666.757613
 21
337.742476
 31
0.0
  0
LINE
  5
2E1
100
AcDbEntity
  8
M05
100
AcDbLine
 10
667.257613
 20
359.742476
 30
0.0
 11
668.257613
 21
358.742476
 31
0.0
  0
LINE
  5
2E2
100
AcDbEntity
  8
M05
100
AcDbLine
 10
648.257613
 20
358.742476
 30
0.0
 11
649.257613
 21
359.742476
 31
0.0
  0
LINE
  5
2E3
100
AcDbEntity
  8
M05
100
AcDbLine
 10
668.257613
 20
358.742476
 30
0.0
 11
668.257613
 21
354.742476
 31
0.0
  0
LINE
  5
2E4
100
AcDbEntity
  8
M05
100
AcDbLine
 10
648.257613
 20
358.742476
 30
0.0
 11
648.257613
 21
354.742476
 31
0.0
  0
LINE
  5
2E5
100
AcDbEntity
  8
M05
100
AcDbLine
 10
668.257613
 20
354.742476
 30
0.0
 11
648.257613
 21
354.742476
 31
0.0
  0
LINE
  5
2E6
100
AcDbEntity
  8
M05
100
AcDbLine
 10
667.257613
 20
359.742476
 30
0.0
 11
649.257613
 21
359.742476
 31
0.0
  0
LINE
  5
2E7
102
{ACAD_REACTORS
330
40
102
}
100
AcDbEntity
  8
M05
100
AcDbLine
 10
648.757613
 20
354.742476
 30
0.0
 11
648.757613
 21
338.742476
 31
0.0
  0
LINE
  5
2E8
102
{ACAD_REACTORS
330
40
102
}
100
AcDbEntity
  8
M05
100
AcDbLine
 10
667.757613
 20
354.742476
 30
0.0
 11
667.757613
 21
338.742476
 31
0.0
  0
LINE
  5
2E9
102
{ACAD_REACTORS
330
40
102
}
100
AcDbEntity
  8
M05
100
AcDbLine
 10
666.757613
 20
337.742476
 30
0.0
 11
649.757613
 21
337.742476
 31
0.0
  0
HATCH
  5
2EA
100
AcDbEntity
  8
HATCH
100
AcDbHatch
 10
0.0
 20
0.0
 30
0.0
210
0.0
220
0.0
230
1.0
  2
_U
 70
     0
 71
     0
 91
        2
 92
        7
 72
     0
 73
     1
 93
       11
 10
775.3987305768228
 20
282.7424757530179
 10
769.9576125642802
 20
282.7424757530179
 10
769.25761256428
 20
282.0424757530179
 10
769.25761256428
 20
276.4424757530177
 10
769.95761256428
 20
275.7424757530178
 10
772.7576125642801
 20
275.7424757530178
 10
773.7576125642799
 20
276.7424757530177
 10
775.7576125642797
 20
276.7424757530178
 10
776.7576125642793
 20
275.7424757530178
 10
779.7576125642799
 20
275.7424757530178
 10
779.7576125642799
 20
278.3835937655608
 97
        0
 92
        7
 72
     0
 73
     1
 93
       11
 10
797.2576125642799
 20
282.0424757530179
 10
796.5576125642798
 20
282.7424757530178
 10
791.1164945517368
 20
282.7424757530178
 10
786.7576125642799
 20
278.3835937655608
 10
786.7576125642799
 20
275.7424757530178
 10
789.7576125642806
 20
275.7424757530178
 10
790.7576125642804
 20
276.7424757530178
 10
792.7576125642799
 20
276.7424757530177
 10
793.7576125642797
 20
275.7424757530178
 10
796.5576125642798
 20
275.7424757530178
 10
797.2576125642797
 20
276.4424757530176
 97
        0
 75
     0
 76
     0
 52
135.0
 41
1.5
 77
     0
 78
     1
 53
135.0
 43
172.810372
 44
35.256001
 45
-1.060660171779821
 46
-1.060660171779821
 79
     0
 47
0.151518
 98
        2
 10
773.733543
 20
279.426513
 10
792.377953
 20
280.032584
  0
LINE
  5
2EB
100
AcDbEntity
  8
M05
100
AcDbLine
 10
773.757613
 20
276.742476
 30
0.0
 11
772.757613
 21
275.742476
 31
0.0
  0
LINE
  5
2EC
100
AcDbEntity
  8
M05
100
AcDbLine
 10
775.757613
 20
276.742476
 30
0.0
 11
776.757613
 21
275.742476
 31
0.0
  0
LINE
  5
2ED
100
AcDbEntity
  8
M05
100
AcDbLine
 10
773.757613
 20
276.742476
 30
0.0
 11
775.757613
 21
276.742476
 31
0.0
  0
LINE
  5
2EE
100
AcDbEntity
  8
M05
100
AcDbLine
 10
792.757613
 20
276.742476
 30
0.0
 11
793.757613
 21
275.742476
 31
0.0
  0
LINE
  5
2EF
100
AcDbEntity
  8
M05
100
AcDbLine
 10
790.757613
 20
276.742476
 30
0.0
 11
789.757613
 21
275.742476
 31
0.0
  0
LINE
  5
2F0
100
AcDbEntity
  8
M05
100
AcDbLine
 10
792.757613
 20
276.742476
 30
0.0
 11
790.757613
 21
276.742476
 31
0.0
  0
MTEXT
  5
2F1
102
{ACAD_REACTORS
330
2F2
102
}
100
AcDbEntity
  8
HATCH
 62
     2
100
AcDbMText
 10
806.897792
 20
264.901249
 30
0.0
 40
3.0
 41
0.0
 71
     1
 72
     5
  1
MA010006 (x6)
  0
LEADER
  5
2F2
100
AcDbEntity
  8
HATCH
 62
     4
100
AcDbLeader
  3
DIM1$7
 73
     0
 74
     0
 75
     1
 40
4.571429
 41
34.142857
 76
     3
 10
792.974967
 20
277.373189
 30
0.0
 10
802.397792
 20
263.401249
 30
0.0
 10
805.397792
 20
263.401249
 30
0.0
 77
   256
340
2F1
213
0.0
223
-1.5
233
0.0
1001
ACAD
1000
DSTYLE
1002
{
1070
   144
1040
1.0
1002
}
  0
LINE
  5
2F4
100
AcDbEntity
  8
M04
100
AcDbLine
 10
783.257613
 20
257.91457
 30
0.0
 11
785.557613
 21
259.242476
 31
0.0
  0
LINE
  5
2F5
100
AcDbEntity
  8
M04
100
AcDbLine
 10
780.957613
 20
259.242476
 30
0.0
 11
783.257613
 21
257.91457
 31
0.0
  0
LINE
  5
2F6
100
AcDbEntity
  8
M04
100
AcDbLine
 10
780.957613
 20
259.242476
 30
0.0
 11
785.557613
 21
259.242476
 31
0.0
  0
LINE
  5
2F7
100
AcDbEntity
  8
M04
100
AcDbLine
 10
780.257613
 20
264.303594
 30
0.0
 11
780.257613
 21
260.742476
 31
0.0
  0
LINE
  5
2F8
100
AcDbEntity
  8
M04
100
AcDbLine
 10
780.957613
 20
263.603594
 30
0.0
 11
780.957613
 21
259.242476
 31
0.0
  0
LINE
  5
2F9
100
AcDbEntity
  8
M04
100
AcDbLine
 10
786.257613
 20
264.303594
 30
0.0
 11
786.257613
 21
260.742476
 31
0.0
  0
LINE
  5
2FA
100
AcDbEntity
  8
M04
100
AcDbLine
 10
785.557613
 20
263.603594
 30
0.0
 11
785.557613
 21
259.242476
 31
0.0
  0
LINE
  5
2FB
100
AcDbEntity
  8
M05
100
AcDbLine
 10
785.557613
 20
263.603594
 30
0.0
 11
786.257613
 21
264.303594
 31
0.0
  0
LINE
  5
2FC
100
AcDbEntity
  8
M05
100
AcDbLine
 10
780.257613
 20
264.303594
 30
0.0
 11
780.957613
 21
263.603594
 31
0.0
  0
LINE
  5
2FD
100
AcDbEntity
  8
M05
100
AcDbLine
 10
785.557613
 20
276.383594
 30
0.0
 11
785.557613
 21
263.603594
 31
0.0
  0
LINE
  5
2FE
100
AcDbEntity
  8
M05
100
AcDbLine
 10
780.957613
 20
276.383594
 30
0.0
 11
780.957613
 21
263.603594
 31
0.0
  0
LINE
  5
2FF
100
AcDbEntity
  8
M05
100
AcDbLine
 10
780.257613
 20
264.303594
 30
0.0
 11
786.257613
 21
264.303594
 31
0.0
  0
LINE
  5
300
100
AcDbEntity
  8
M04
100
AcDbLine
 10
780.257613
 20
260.742476
 30
0.0
 11
786.257613
 21
260.742476
 31
0.0
  0
LINE
  5
301
100
AcDbEntity
  8
M05
100
AcDbLine
 10
780.957613
 20
263.603594
 30
0.0
 11
785.557613
 21
263.603594
 31
0.0
  0
LINE
  5
302
102
{ACAD_REACTORS
330
40
102
}
100
AcDbEntity
  8
M05
  6
HIDDEN
100
AcDbLine
 10
775.098731
 20
283.042476
 30
0.0
 11
774.398731
 21
283.742476
 31
0.0
  0
LINE
  5
303
102
{ACAD_REACTORS
330
40
102
}
100
AcDbEntity
  8
M05
  6
HIDDEN
100
AcDbLine
 10
791.416495
 20
283.042476
 30
0.0
 11
792.116495
 21
283.742476
 31
0.0
  0
LINE
  5
304
100
AcDbEntity
  8
M05
100
AcDbLine
 10
780.257613
 20
276.383594
 30
0.0
 11
786.257613
 21
276.383594
 31
0.0
  0
LINE
  5
305
100
AcDbEntity
  8
M05
100
AcDbLine
 10
783.807613
 20
280.883594
 30
0.0
 11
789.257613
 21
280.883594
 31
0.0
  0
LINE
  5
306
100
AcDbEntity
  8
M05
100
AcDbLine
 10
783.807613
 20
281.603594
 30
0.0
 11
789.257613
 21
281.603594
 31
0.0
  0
LINE
  5
307
100
AcDbEntity
  8
M05
100
AcDbLine
 10
783.807613
 20
281.603594
 30
0.0
 11
783.807613
 21
280.103594
 31
0.0
  0
LINE
  5
308
100
AcDbEntity
  8
M05
100
AcDbLine
 10
782.707613
 20
281.603594
 30
0.0
 11
782.707613
 21
280.103594
 31
0.0
  0
LINE
  5
309
100
AcDbEntity
  8
M05
100
AcDbLine
 10
782.707613
 20
280.103594
 30
0.0
 11
783.807613
 21
280.103594
 31
0.0
  0
LINE
  5
30A
100
AcDbEntity
  8
M05
100
AcDbLine
 10
786.757613
 20
278.383594
 30
0.0
 11
786.757613
 21
275.742476
 31
0.0
  0
LINE
  5
30B
100
AcDbEntity
  8
M05
100
AcDbLine
 10
779.757613
 20
278.383594
 30
0.0
 11
779.757613
 21
275.742476
 31
0.0
  0
LINE
  5
30C
100
AcDbEntity
  8
M05
100
AcDbLine
 10
777.257613
 20
280.883594
 30
0.0
 11
782.707613
 21
280.883594
 31
0.0
  0
LINE
  5
30D
102
{ACAD_REACTORS
330
40
102
}
100
AcDbEntity
  8
M05
100
AcDbLine
 10
780.257613
 20
277.883594
 30
0.0
 11
775.098731
 21
283.042476
 31
0.0
  0
LINE
  5
30E
100
AcDbEntity
  8
M05
100
AcDbLine
 10
777.257613
 20
281.603594
 30
0.0
 11
777.257613
 21
280.883594
 31
0.0
  0
LINE
  5
30F
102
{ACAD_REACTORS
330
40
102
}
100
AcDbEntity
  8
M05
100
AcDbLine
 10
786.257613
 20
277.883594
 30
0.0
 11
791.416495
 21
283.042476
 31
0.0
  0
LINE
  5
310
100
AcDbEntity
  8
M05
100
AcDbLine
 10
780.257613
 20
277.883594
 30
0.0
 11
786.257613
 21
277.883594
 31
0.0
  0
LINE
  5
311
100
AcDbEntity
  8
M05
100
AcDbLine
 10
780.257613
 20
277.883594
 30
0.0
 11
780.257613
 21
264.303594
 31
0.0
  0
LINE
  5
312
100
AcDbEntity
  8
M05
100
AcDbLine
 10
786.257613
 20
277.883594
 30
0.0
 11
786.257613
 21
264.303594
 31
0.0
  0
LINE
  5
313
100
AcDbEntity
  8
M05
100
AcDbLine
 10
789.257613
 20
281.603594
 30
0.0
 11
789.257613
 21
280.883594
 31
0.0
  0
LINE
  5
314
100
AcDbEntity
  8
M05
100
AcDbLine
 10
777.257613
 20
281.603594
 30
0.0
 11
782.707613
 21
281.603594
 31
0.0
  0
LINE
  5
315
102
{ACAD_REACTORS
330
40
102
}
100
AcDbEntity
  8
M05
  6
HIDDEN
100
AcDbLine
 10
769.257613
 20
283.042476
 30
0.0
 11
797.257613
 21
283.042476
 31
0.0
  0
LINE
  5
316
102
{ACAD_REACTORS
330
40
102
}
100
AcDbEntity
  8
M05
  6
HIDDEN
100
AcDbLine
 10
797.257613
 20
283.042476
 30
0.0
 11
796.557613
 21
283.742476
 31
0.0
  0
LINE
  5
317
102
{ACAD_REACTORS
330
40
102
}
100
AcDbEntity
  8
M05
  6
HIDDEN
100
AcDbLine
 10
797.257613
 20
282.042476
 30
0.0
 11
797.257613
 21
283.042476
 31
0.0
  0
LINE
  5
318
100
AcDbEntity
  8
M05
100
AcDbLine
 10
797.257613
 20
282.042476
 30
0.0
 11
796.557613
 21
282.742476
 31
0.0
  0
LINE
  5
319
100
AcDbEntity
  8
M05
100
AcDbLine
 10
797.257613
 20
276.442476
 30
0.0
 11
796.557613
 21
275.742476
 31
0.0
  0
LINE
  5
31A
100
AcDbEntity
  8
M05
100
AcDbLine
 10
797.257613
 20
282.042476
 30
0.0
 11
797.257613
 21
276.442476
 31
0.0
  0
LINE
  5
31B
102
{ACAD_REACTORS
330
40
102
}
100
AcDbEntity
  8
M05
  6
HIDDEN
100
AcDbLine
 10
769.257613
 20
283.042476
 30
0.0
 11
769.957613
 21
283.742476
 31
0.0
  0
LINE
  5
31C
102
{ACAD_REACTORS
330
40
102
}
100
AcDbEntity
  8
M05
  6
HIDDEN
100
AcDbLine
 10
769.257613
 20
282.042476
 30
0.0
 11
769.257613
 21
283.042476
 31
0.0
  0
LINE
  5
31D
100
AcDbEntity
  8
M05
100
AcDbLine
 10
769.257613
 20
282.042476
 30
0.0
 11
769.957613
 21
282.742476
 31
0.0
  0
LINE
  5
31E
100
AcDbEntity
  8
M05
100
AcDbLine
 10
769.257613
 20
276.442476
 30
0.0
 11
769.957613
 21
275.742476
 31
0.0
  0
LINE
  5
31F
102
{ACAD_REACTORS
330
226
102
}
100
AcDbEntity
  8
M02
100
AcDbLine
 10
798.257613
 20
282.742476
 30
0.0
 11
798.257613
 21
279.742476
 31
0.0
  0
LINE
  5
320
100
AcDbEntity
  8
M02
100
AcDbLine
 10
768.257613
 20
282.742476
 30
0.0
 11
768.257613
 21
279.742476
 31
0.0
  0
LINE
  5
321
102
{ACAD_REACTORS
330
40
102
}
100
AcDbEntity
  8
M05
  6
HIDDEN
100
AcDbLine
 10
769.957613
 20
283.742476
 30
0.0
 11
796.557613
 21
283.742476
 31
0.0
  0
LINE
  5
322
100
AcDbEntity
  8
M05
100
AcDbLine
 10
769.257613
 20
282.042476
 30
0.0
 11
769.257613
 21
276.442476
 31
0.0
  0
LINE
  5
323
102
{ACAD_REACTORS
330
40
102
}
100
AcDbEntity
  8
CENTRE
100
AcDbLine
 10
783.257613
 20
288.251586
 30
0.0
 11
783.257613
 21
255.173248
 31
0.0
  0
LINE
  5
324
100
AcDbEntity
  8
DIMS
 62
     4
100
AcDbLine
 10
720.757613
 20
547.560844
 30
0.0
 11
720.757613
 21
549.860844
 31
0.0
  0
LINE
  5
325
100
AcDbEntity
  8
DIMS
 62
     4
100
AcDbLine
 10
720.757613
 20
540.760844
 30
0.0
 11
720.757613
 21
538.460844
 31
0.0
  0
LINE
  5
326
100
AcDbEntity
  8
DIMS
 62
     4
100
AcDbLine
 10
720.757613
 20
542.460844
 30
0.0
 11
720.757613
 21
545.860844
 31
0.0
  0
LINE
  5
327
100
AcDbEntity
  8
DIMS
 62
     4
100
AcDbLine
 10
533.257613
 20
610.060844
 30
0.0
 11
533.257613
 21
623.360844
 31
0.0
  0
LINE
  5
328
100
AcDbEntity
  8
DIMS
 62
     4
100
AcDbLine
 10
533.257613
 20
603.260844
 30
0.0
 11
533.257613
 21
589.960844
 31
0.0
  0
LINE
  5
329
100
AcDbEntity
  8
DIMS
 62
     4
100
AcDbLine
 10
536.657613
 20
606.660844
 30
0.0
 11
549.957613
 21
606.660844
 31
0.0
  0
LINE
  5
32A
100
AcDbEntity
  8
DIMS
 62
     4
100
AcDbLine
 10
529.857613
 20
606.660844
 30
0.0
 11
516.557613
 21
606.660844
 31
0.0
  0
LINE
  5
32B
100
AcDbEntity
  8
DIMS
 62
     4
100
AcDbLine
 10
533.257613
 20
604.960844
 30
0.0
 11
533.257613
 21
608.360844
 31
0.0
  0
LINE
  5
32C
100
AcDbEntity
  8
DIMS
 62
     4
100
AcDbLine
 10
531.557613
 20
606.660844
 30
0.0
 11
534.957613
 21
606.660844
 31
0.0
  0
CIRCLE
  5
32D
100
AcDbEntity
  8
M03
100
AcDbCircle
 10
533.257613
 20
606.660844
 30
0.0
 40
2.3
  0
ARC
  5
32E
100
AcDbEntity
  8
M03
100
AcDbCircle
 10
533.257613
 20
606.660844
 30
0.0
 40
3.0
100
AcDbArc
 50
167.784636
 51
96.923103
  0
LINE
  5
32F
100
AcDbEntity
  8
M03
100
AcDbLine
 10
533.807613
 20
600.686105
 30
0.0
 11
533.807613
 21
612.635582
 31
0.0
  0
LINE
  5
330
100
AcDbEntity
  8
M03
100
AcDbLine
 10
532.707613
 20
600.686105
 30
0.0
 11
532.707613
 21
612.635582
 31
0.0
  0
CIRCLE
  5
331
100
AcDbEntity
  8
M03
100
AcDbCircle
 10
533.257613
 20
606.660844
 30
0.0
 40
15.0
  0
CIRCLE
  5
332
100
AcDbEntity
  8
M03
100
AcDbCircle
 10
533.257613
 20
606.660844
 30
0.0
 40
14.0
  0
CIRCLE
  5
333
100
AcDbEntity
  8
M03
100
AcDbCircle
 10
533.257613
 20
606.660844
 30
0.0
 40
7.858882
  0
CIRCLE
  5
334
100
AcDbEntity
  8
M03
100
AcDbCircle
 10
533.257613
 20
606.660844
 30
0.0
 40
6.0
  0
LINE
  5
335
100
AcDbEntity
  8
DIMS
 62
     4
100
AcDbLine
 10
661.657613
 20
518.160844
 30
0.0
 11
665.457613
 21
518.160844
 31
0.0
  0
LINE
  5
336
100
AcDbEntity
  8
DIMS
 62
     4
100
AcDbLine
 10
654.857613
 20
518.160844
 30
0.0
 11
651.057613
 21
518.160844
 31
0.0
  0
LINE
  5
337
100
AcDbEntity
  8
DIMS
 62
     4
100
AcDbLine
 10
656.557613
 20
518.160844
 30
0.0
 11
659.957613
 21
518.160844
 31
0.0
  0
CIRCLE
  5
338
100
AcDbEntity
  8
M03
100
AcDbCircle
 10
658.257613
 20
518.160844
 30
0.0
 40
2.3
  0
ARC
  5
339
100
AcDbEntity
  8
M03
100
AcDbCircle
 10
658.257613
 20
518.160844
 30
0.0
 40
3.0
100
AcDbArc
 50
167.784636
 51
96.923103
  0
CIRCLE
  5
33A
100
AcDbEntity
  8
M03
100
AcDbCircle
 10
658.257613
 20
518.160844
 30
0.0
 40
5.5
  0
CIRCLE
  5
33B
100
AcDbEntity
  8
M03
100
AcDbCircle
 10
658.257613
 20
544.160844
 30
0.0
 40
34.0
  0
LINE
  5
33C
100
AcDbEntity
  8
DIMS
 62
     4
100
AcDbLine
 10
632.257613
 20
547.560844
 30
0.0
 11
632.257613
 21
551.360844
 31
0.0
  0
LINE
  5
33D
100
AcDbEntity
  8
DIMS
 62
     4
100
AcDbLine
 10
632.257613
 20
540.760844
 30
0.0
 11
632.257613
 21
536.960844
 31
0.0
  0
LINE
  5
33E
100
AcDbEntity
  8
DIMS
 62
     4
100
AcDbLine
 10
632.257613
 20
542.460844
 30
0.0
 11
632.257613
 21
545.860844
 31
0.0
  0
LINE
  5
33F
100
AcDbEntity
  8
DIMS
 62
     4
100
AcDbLine
 10
684.257613
 20
547.560844
 30
0.0
 11
684.257613
 21
551.360844
 31
0.0
  0
LINE
  5
340
100
AcDbEntity
  8
DIMS
 62
     4
100
AcDbLine
 10
684.257613
 20
540.760844
 30
0.0
 11
684.257613
 21
536.960844
 31
0.0
  0
LINE
  5
341
100
AcDbEntity
  8
DIMS
 62
     4
100
AcDbLine
 10
684.257613
 20
542.460844
 30
0.0
 11
684.257613
 21
545.860844
 31
0.0
  0
LINE
  5
342
100
AcDbEntity
  8
DIMS
 62
     4
100
AcDbLine
 10
661.657613
 20
570.160844
 30
0.0
 11
665.457613
 21
570.160844
 31
0.0
  0
LINE
  5
343
100
AcDbEntity
  8
DIMS
 62
     4
100
AcDbLine
 10
654.857613
 20
570.160844
 30
0.0
 11
651.057613
 21
570.160844
 31
0.0
  0
LINE
  5
344
100
AcDbEntity
  8
DIMS
 62
     4
100
AcDbLine
 10
656.557613
 20
570.160844
 30
0.0
 11
659.957613
 21
570.160844
 31
0.0
  0
CIRCLE
  5
345
100
AcDbEntity
  8
M03
100
AcDbCircle
 10
684.257613
 20
544.160844
 30
0.0
 40
2.3
  0
ARC
  5
346
100
AcDbEntity
  8
M03
100
AcDbCircle
 10
684.257613
 20
544.160844
 30
0.0
 40
3.0
100
AcDbArc
 50
167.784636
 51
96.923103
  0
CIRCLE
  5
347
100
AcDbEntity
  8
M03
100
AcDbCircle
 10
684.257613
 20
544.160844
 30
0.0
 40
5.5
  0
CIRCLE
  5
348
100
AcDbEntity
  8
M03
100
AcDbCircle
 10
632.257613
 20
544.160844
 30
0.0
 40
2.3
  0
ARC
  5
349
100
AcDbEntity
  8
M03
100
AcDbCircle
 10
632.257613
 20
544.160844
 30
0.0
 40
3.0
100
AcDbArc
 50
167.784636
 51
96.923103
  0
CIRCLE
  5
34A
100
AcDbEntity
  8
M03
100
AcDbCircle
 10
632.257613
 20
544.160844
 30
0.0
 40
5.5
  0
CIRCLE
  5
34B
100
AcDbEntity
  8
M03
100
AcDbCircle
 10
658.257613
 20
570.160844
 30
0.0
 40
2.3
  0
ARC
  5
34C
100
AcDbEntity
  8
M03
100
AcDbCircle
 10
658.257613
 20
570.160844
 30
0.0
 40
3.0
100
AcDbArc
 50
167.784636
 51
96.923103
  0
CIRCLE
  5
34D
100
AcDbEntity
  8
M03
100
AcDbCircle
 10
658.257613
 20
570.160844
 30
0.0
 40
5.5
  0
CIRCLE
  5
34E
100
AcDbEntity
  8
M03
100
AcDbCircle
 10
658.257613
 20
544.160844
 30
0.0
 40
20.0
  0
HATCH
  5
34F
100
AcDbEntity
  8
M01
 62
     4
100
AcDbHatch
 10
0.0
 20
0.0
 30
0.0
210
0.0
220
0.0
230
1.0
  2
_U
 70
     0
 71
     0
 91
       13
 92
        7
 72
     1
 73
     1
 93
        4
 10
652.25761256428
 20
551.5263038183511
 42
0.0
 10
652.25761256428
 20
548.160843887023
 42
0.0
 10
658.2576125642799
 20
548.160843887023
 42
0.0
 10
658.2576125642799
 20
553.660843887023
 42
0.1725804109198133
 97
        0
 92
        7
 72
     1
 73
     1
 93
        4
 10
658.2576125642799
 20
548.160843887023
 42
0.0
 10
652.25761256428
 20
548.160843887023
 42
0.0
 10
652.25761256428
 20
544.160843887023
 42
0.0
 10
654.2576125642799
 20
544.160843887023
 42
-0.4142135623730992
 97
        0
 92
       22
 72
     1
 73
     1
 93
        3
 10
658.2576125642799
 20
548.160843887023
 42
0.4142135623730909
 10
654.2576125642799
 20
544.160843887023
 42
0.0
 10
658.2576125642799
 20
544.160843887023
 42
0.0
 97
        0
 92
        7
 72
     1
 73
     1
 93
        4
 10
652.25761256428
 20
548.160843887023
 42
0.0
 10
649.6407685944729
 20
548.160843887023
 42
0.1090809576248918
 10
648.7576125642799
 20
544.160843887023
 42
0.0
 10
652.25761256428
 20
544.160843887023
 42
0.0
 97
        0
 92
       22
 72
     1
 73
     1
 93
        3
 10
652.25761256428
 20
551.526303818351
 42
0.1136360637262233
 10
649.6407685944729
 20
548.160843887023
 42
0.0
 10
652.2576125642797
 20
548.160843887023
 42
0.0
 97
        0
 92
        7
 72
     1
 73
     1
 93
        4
 10
648.25761256428
 20
544.160843887023
 42
0.0
 10
648.7576125642799
 20
544.160843887023
 42
-0.1090809576248918
 10
649.6407685944729
 20
548.160843887023
 42
0.0
 10
649.0924611743682
 20
548.160843887023
 42
0.1032437171755979
 97
        0
 92
        7
 72
     1
 73
     1
 93
        4
 10
649.0924611743682
 20
548.160843887023
 42
0.0
 10
649.6407685944729
 20
548.160843887023
 42
-0.1136360637262264
 10
652.25761256428
 20
551.5263038183511
 42
0.0
 10
652.25761256428
 20
552.160843887023
 42
0.1296640194076911
 97
        0
 92
        7
 72
     1
 73
     1
 93
        4
 10
658.2576125642799
 20
553.660843887023
 42
0.0
 10
658.2576125642799
 20
554.160843887023
 42
0.1622776601683798
 10
652.25761256428
 20
552.160843887023
 42
0.0
 10
652.25761256428
 20
551.5263038183511
 42
-0.1725804109198127
 97
        0
 92
       23
 72
     1
 73
     1
 93
        3
 10
658.2576125642799
 20
544.160843887023
 42
0.0
 10
658.2576125642799
 20
540.160843887023
 42
0.4142135623730909
 10
662.2576125642799
 20
544.160843887023
 42
0.0
 97
        0
 92
        7
 72
     1
 73
     1
 93
        4
 10
662.2576125642799
 20
544.160843887023
 42
-0.4142135623730909
 10
658.2576125642799
 20
540.160843887023
 42
0.0
 10
666.8744565340871
 20
540.160843887023
 42
0.1090809576248888
 10
667.7576125642799
 20
544.160843887023
 42
0.0
 97
        0
 92
       23
 72
     1
 73
     1
 93
        3
 10
658.2576125642799
 20
540.160843887023
 42
0.0
 10
658.2576125642799
 20
534.660843887023
 42
0.2919418509678903
 10
666.8744565340871
 20
540.160843887023
 42
0.0
 97
        0
 92
        7
 72
     1
 73
     1
 93
        4
 10
667.4227639541916
 20
540.160843887023
 42
0.0
 10
666.8744565340871
 20
540.160843887023
 42
-0.2919418509678903
 10
658.2576125642799
 20
534.660843887023
 42
0.0
 10
658.2576125642799
 20
534.160843887023
 42
0.2982166266986068
 97
        0
 92
        7
 72
     1
 73
     1
 93
        4
 10
668.2576125642799
 20
544.160843887023
 42
0.0
 10
667.7576125642799
 20
544.160843887023
 42
-0.1090809576248888
 10
666.8744565340871
 20
540.160843887023
 42
0.0
 10
667.4227639541916
 20
540.160843887023
 42
0.1032437171755951
 97
        0
 75
     0
 76
     0
 52
45.0
 41
1.0
 77
     1
 78
     2
 53
45.0
 43
102.810372
 44
111.601618
 45
-0.7071067811865475
 46
0.7071067811865476
 79
     0
 53
135.0
 43
102.810372
 44
111.601618
 45
-0.7071067811865476
 46
-0.7071067811865475
 79
     0
 47
0.087843
 98
       13
 10
655.588582
 20
550.97638
 10
654.006757
 20
546.584233
 10
656.994649
 20
546.057175
 10
651.106744
 20
546.057175
 10
651.54614
 20
549.043835
 10
648.821886
 20
546.759919
 10
651.721899
 20
551.415595
 10
654.358274
 20
553.08461
 10
659.982542
 20
542.982673
 10
664.112863
 20
542.192087
 10
661.828005
 20
538.590527
 10
660.773455
 20
534.637595
 10
667.891669
 20
542.279929
  0
CIRCLE
  5
350
100
AcDbEntity
  8
M01
100
AcDbCircle
 10
658.257613
 20
544.160844
 30
0.0
 40
10.0
  0
CIRCLE
  5
351
100
AcDbEntity
  8
M03
100
AcDbCircle
 10
658.257613
 20
544.160844
 30
0.0
 40
9.5
  0
WIPEOUT
  5
352
100
AcDbEntity
  8
TEXT
 92
      140
310
8C00000001000000840000000600000005000000AE2B40FDF7D18740917A814CA5AD72400000000000000000BC15E10BE24A8840917A814CA5AD72400000000000000000BD15E10BE24A8840907A814CA5ED72400000000000000000B02B40FDF7D18740927A814CA5ED72400000000000000000AE2B40FDF7D18740917A81
310
4CA5AD72400000000000000000
100
AcDbWipeout
 90
        0
 10
727.729097
 20
253.221579
 30
0.0
 11
49.631278
 21
0.0
 31
0.0
 12
0.0
 22
49.631278
 32
0.0
 13
0.0
 23
0.0
340
0
 70
     7
280
     1
281
    50
282
    50
283
     0
360
0
 71
     2
 91
        5
 14
0.195469
 24
-0.419406
 14
0.5
 24
-0.419406
 14
0.5
 24
-0.5
 14
0.195469
 24
-0.5
 14
0.195469
 24
-0.419406
  0
TEXT
  5
353
102
{ACAD_REACTORS
330
40
102
}
100
AcDbEntity
  8
TEXT
100
AcDbText
 10
763.246089
 20
299.852856
 30
0.0
 40
2.0
  1
MM010107
 41
0.9
100
AcDbText
  0
CIRCLE
  5
354
102
{ACAD_REACTORS
330
40
102
}
100
AcDbEntity
  8
M01
100
AcDbCircle
 10
595.757613
 20
325.742476
 30
0.0
 40
4.0
  0
LINE
  5
355
102
{ACAD_REACTORS
330
40
102
}
100
AcDbEntity
  8
M01
100
AcDbLine
 10
662.257613
 20
299.742476
 30
0.0
 11
720.757613
 21
299.742476
 31
0.0
  0
LINE
  5
356
100
AcDbEntity
  8
M01
100
AcDbLine
 10
658.257613
 20
303.742476
 30
0.0
 11
662.257613
 21
299.742476
 31
0.0
  0
LINE
  5
357
100
AcDbEntity
  8
M01
100
AcDbLine
 10
654.257613
 20
299.742476
 30
0.0
 11
658.257613
 21
303.742476
 31
0.0
  0
LINE
  5
358
100
AcDbEntity
  8
M01
100
AcDbLine
 10
599.757613
 20
307.742476
 30
0.0
 11
595.757613
 21
303.742476
 31
0.0
  0
ARC
  5
359
102
{ACAD_REACTORS
330
40
102
}
100
AcDbEntity
  8
M01
100
AcDbCircle
 10
595.757613
 20
303.742476
 30
0.0
 40
4.0
100
AcDbArc
 50
180.0
 51
270.0
  0
LINE
  5
35A
102
{ACAD_REACTORS
330
40
102
}
100
AcDbEntity
  8
M01
100
AcDbLine
 10
599.757613
 20
325.742476
 30
0.0
 11
599.757613
 21
307.742476
 31
0.0
  0
LINE
  5
35B
102
{ACAD_REACTORS
330
40
102
}
100
AcDbEntity
  8
M01
100
AcDbLine
 10
591.757613
 20
325.742476
 30
0.0
 11
591.757613
 21
303.742476
 31
0.0
  0
LINE
  5
35C
100
AcDbEntity
  8
CENTRE
100
AcDbLine
 10
595.757613
 20
333.742476
 30
0.0
 11
595.757613
 21
295.742476
 31
0.0
  0
LINE
  5
35D
100
AcDbEntity
  8
M01
100
AcDbLine
 10
716.757613
 20
307.742476
 30
0.0
 11
720.757613
 21
303.742476
 31
0.0
  0
ARC
  5
35E
102
{ACAD_REACTORS
330
40
102
}
100
AcDbEntity
  8
M01
100
AcDbCircle
 10
720.757613
 20
303.742476
 30
0.0
 40
4.0
100
AcDbArc
 50
270.0
 51
0.0
  0
LINE
  5
35F
100
AcDbEntity
  8
CENTRE
100
AcDbLine
 10
587.757613
 20
303.742476
 30
0.0
 11
728.757613
 21
303.742476
 31
0.0
  0
LINE
  5
360
102
{ACAD_REACTORS
330
40
102
}
100
AcDbEntity
  8
M01
100
AcDbLine
 10
595.757613
 20
299.742476
 30
0.0
 11
654.257613
 21
299.742476
 31
0.0
  0
LINE
  5
361
102
{ACAD_REACTORS
330
40
102
}
100
AcDbEntity
  8
M01
100
AcDbLine
 10
599.757613
 20
307.742476
 30
0.0
 11
716.757613
 21
307.742476
 31
0.0
  0
ARC
  5
362
102
{ACAD_REACTORS
330
40
102
}
100
AcDbEntity
  8
M01
100
AcDbCircle
 10
720.757613
 20
325.742476
 30
0.0
 40
4.0
100
AcDbArc
 50
90.0
 51
180.0
  0
LINE
  5
363
100
AcDbEntity
  8
M01
100
AcDbLine
 10
720.757613
 20
325.742476
 30
0.0
 11
724.757613
 21
321.742476
 31
0.0
  0
LINE
  5
364
102
{ACAD_REACTORS
330
40
102
}
100
AcDbEntity
  8
M01
100
AcDbLine
 10
716.757613
 20
325.742476
 30
0.0
 11
716.757613
 21
307.742476
 31
0.0
  0
LINE
  5
365
102
{ACAD_REACTORS
330
40
102
}
100
AcDbEntity
  8
M01
100
AcDbLine
 10
724.757613
 20
321.742476
 30
0.0
 11
724.757613
 21
303.742476
 31
0.0
  0
LINE
  5
366
100
AcDbEntity
  8
CENTRE
100
AcDbLine
 10
720.757613
 20
333.742476
 30
0.0
 11
720.757613
 21
295.742476
 31
0.0
  0
LINE
  5
367
102
{ACAD_REACTORS
330
40
102
}
100
AcDbEntity
  8
M01
100
AcDbLine
 10
783.257613
 20
321.742476
 30
0.0
 11
724.757613
 21
321.742476
 31
0.0
  0
ARC
  5
368
102
{ACAD_REACTORS
330
40
102
}
100
AcDbEntity
  8
M01
100
AcDbCircle
 10
783.257613
 20
325.742476
 30
0.0
 40
4.0
100
AcDbArc
 50
270.0
 51
0.0
  0
LINE
  5
369
102
{ACAD_REACTORS
330
40
102
}
100
AcDbEntity
  8
M01
100
AcDbLine
 10
787.257613
 20
342.742476
 30
0.0
 11
787.257613
 21
325.742476
 31
0.0
  0
LINE
  5
36A
102
{ACAD_REACTORS
330
40
102
}
100
AcDbEntity
  8
M01
100
AcDbLine
 10
779.257613
 20
342.742476
 30
0.0
 11
779.257613
 21
329.742476
 31
0.0
  0
LINE
  5
36B
102
{ACAD_REACTORS
330
40
102
}
100
AcDbEntity
  8
M01
100
AcDbLine
 10
779.257613
 20
329.742476
 30
0.0
 11
720.757613
 21
329.742476
 31
0.0
  0
CIRCLE
  5
36C
100
AcDbEntity
  8
M03
100
AcDbCircle
 10
658.257613
 20
544.160844
 30
0.0
 40
4.0
  0
LINE
  5
36D
102
{ACAD_REACTORS
330
42
102
}
100
AcDbEntity
  8
M02
100
AcDbLine
 10
801.257613
 20
342.742476
 30
0.0
 11
801.257613
 21
345.742476
 31
0.0
  0
LINE
  5
36E
102
{ACAD_REACTORS
330
41
102
}
100
AcDbEntity
  8
M02
100
AcDbLine
 10
765.257613
 20
342.742476
 30
0.0
 11
765.257613
 21
345.742476
 31
0.0
  0
LINE
  5
36F
100
AcDbEntity
  8
CENTRE
100
AcDbLine
 10
712.757613
 20
325.742476
 30
0.0
 11
791.257613
 21
325.742476
 31
0.0
  0
LINE
  5
370
100
AcDbEntity
  8
M01
100
AcDbLine
 10
783.257613
 20
325.742476
 30
0.0
 11
779.257613
 21
329.742476
 31
0.0
  0
LINE
  5
371
100
AcDbEntity
  8
CENTRE
100
AcDbLine
 10
783.257613
 20
355.554071
 30
0.0
 11
783.257613
 21
317.742476
 31
0.0
  0
LWPOLYLINE
  5
372
100
AcDbEntity
  8
M01
 62
     4
100
AcDbPolyline
 90
        2
 70
     0
 43
0.0
 10
840.398211
 20
594.328277
 10
849.300704
 20
609.176285
1001
ACAD
1000
DSTYLE
1002
{
1070
   144
1040
1.0
1002
}
  0
SOLID
  5
373
100
AcDbEntity
  8
M01
 62
     4
100
AcDbTrace
 10
839.969384
 20
594.585391
 30
0.0
 11
838.855528
 21
591.755316
 31
0.0
 12
840.827038
 22
594.071163
 32
0.0
 13
840.827038
 23
594.071163
 33
0.0
1001
ACAD
1000
DSTYLE
1002
{
1070
   144
1040
1.0
1002
}
  0
LINE
  5
374
100
AcDbEntity
  8
M01
 62
     4
100
AcDbLine
 10
748.826157
 20
424.9604
 30
0.0
 11
745.826157
 21
424.9604
 31
0.0
1001
ACAD
1000
DSTYLE
1002
{
1070
   144
1040
1.0
1002
}
  0
LINE
  5
375
100
AcDbEntity
  8
M01
 62
     4
100
AcDbLine
 10
764.830668
 20
455.118583
 30
0.0
 11
748.826157
 21
424.9604
 31
0.0
1001
ACAD
1000
DSTYLE
1002
{
1070
   144
1040
1.0
1002
}
  0
SOLID
  5
376
100
AcDbEntity
  8
M01
 62
     4
100
AcDbTrace
 10
764.389007
 20
455.352966
 30
0.0
 11
766.236967
 21
457.76855
 31
0.0
 12
765.272329
 22
454.8842
 32
0.0
 13
765.272329
 23
454.8842
 33
0.0
1001
ACAD
1000
DSTYLE
1002
{
1070
   144
1040
1.0
1002
}
  0
MTEXT
  5
377
100
AcDbEntity
  8
DIMS
 62
     2
100
AcDbMText
 10
709.465327
 20
424.50657
 30
0.0
 40
3.0
 41
0.0
 71
     4
 72
     5
  1
HGX10037 (x2)
  0
LINE
  5
378
100
AcDbEntity
  8
M01
100
AcDbLine
 10
411.021945
 20
288.754464
 30
0.0
 11
409.815216
 21
286.774756
 31
0.0
  0
LINE
  5
379
100
AcDbEntity
  8
M01
100
AcDbLine
 10
399.568718
 20
281.020497
 30
0.0
 11
390.993906
 21
281.020497
 31
0.0
  0
LINE
  5
37A
100
AcDbEntity
  8
M01
100
AcDbLine
 10
399.568718
 20
285.020497
 30
0.0
 11
390.993906
 21
285.020497
 31
0.0
  0
ARC
  5
37B
100
AcDbEntity
  8
M01
100
AcDbCircle
 10
399.568718
 20
293.020497
 30
0.0
 40
12.0
100
AcDbArc
 50
270.0
 51
328.635651
  0
ARC
  5
37C
100
AcDbEntity
  8
M01
100
AcDbCircle
 10
399.568718
 20
293.020497
 30
0.0
 40
8.0
100
AcDbArc
 50
270.0
 51
321.153546
  0
LINE
  5
37D
100
AcDbEntity
  8
M01
100
AcDbLine
 10
414.646398
 20
302.385825
 30
0.0
 11
408.41229
 21
292.158413
 31
0.0
  0
LINE
  5
37E
100
AcDbEntity
  8
M01
100
AcDbLine
 10
418.061897
 20
300.303911
 30
0.0
 11
417.864688
 21
299.980379
 31
0.0
  0
LINE
  5
37F
100
AcDbEntity
  8
M01
100
AcDbLine
 10
425.064305
 20
301.742476
 30
0.0
 11
425.657613
 21
301.742476
 31
0.0
  0
LINE
  5
380
100
AcDbEntity
  8
M01
100
AcDbLine
 10
420.623521
 20
305.742476
 30
0.0
 11
423.349365
 21
305.742476
 31
0.0
  0
ARC
  5
381
100
AcDbEntity
  8
M01
100
AcDbCircle
 10
420.623521
 20
298.742476
 30
0.0
 40
3.0
100
AcDbArc
 50
118.327309
 51
148.635651
  0
ARC
  5
382
100
AcDbEntity
  8
M01
100
AcDbCircle
 10
420.623521
 20
298.742476
 30
0.0
 40
7.0
100
AcDbArc
 50
90.0
 51
148.635651
  0
ARC
  5
383
100
AcDbEntity
  8
M01
100
AcDbCircle
 10
425.657613
 20
298.742476
 30
0.0
 40
7.0
100
AcDbArc
 50
0.0
 51
67.321321
  0
ARC
  5
384
100
AcDbEntity
  8
M01
100
AcDbCircle
 10
425.657613
 20
298.742476
 30
0.0
 40
3.0
100
AcDbArc
 50
0.0
 51
90.0
  0
ARC
  5
385
100
AcDbEntity
  8
M01
100
AcDbCircle
 10
406.841138
 20
300.002613
 30
0.0
 40
12.0
100
AcDbArc
 50
270.0
 51
316.413007
  0
ARC
  5
386
100
AcDbEntity
  8
M01
100
AcDbCircle
 10
406.841138
 20
300.002613
 30
0.0
 40
8.0
100
AcDbArc
 50
270.0
 51
316.413007
  0
LINE
  5
387
100
AcDbEntity
  8
M01
100
AcDbLine
 10
428.657613
 20
298.742476
 30
0.0
 11
428.657613
 21
293.742476
 31
0.0
  0
LINE
  5
388
100
AcDbEntity
  8
M01
100
AcDbLine
 10
428.657613
 20
297.742476
 30
0.0
 11
432.657613
 21
297.742476
 31
0.0
  0
LINE
  5
389
100
AcDbEntity
  8
M01
100
AcDbLine
 10
428.657613
 20
293.742476
 30
0.0
 11
432.657613
 21
293.742476
 31
0.0
  0
LINE
  5
38A
100
AcDbEntity
  8
M01
100
AcDbLine
 10
432.657613
 20
341.742476
 30
0.0
 11
432.657613
 21
314.517937
 31
0.0
  0
LINE
  5
38B
100
AcDbEntity
  8
M01
100
AcDbLine
 10
428.657613
 20
314.517937
 30
0.0
 11
428.657613
 21
331.742476
 31
0.0
  0
ARC
  5
38C
100
AcDbEntity
  8
M01
100
AcDbCircle
 10
420.657613
 20
314.517937
 30
0.0
 40
12.0
100
AcDbArc
 50
316.413007
 51
360.0
  0
ARC
  5
38D
100
AcDbEntity
  8
M01
100
AcDbCircle
 10
420.657613
 20
314.517937
 30
0.0
 40
8.0
100
AcDbArc
 50
316.413007
 51
360.0
  0
LINE
  5
38E
100
AcDbEntity
  8
M01
100
AcDbLine
 10
428.657613
 20
327.742476
 30
0.0
 11
432.657613
 21
327.742476
 31
0.0
  0
LINE
  5
38F
100
AcDbEntity
  8
M01
100
AcDbLine
 10
428.657613
 20
331.742476
 30
0.0
 11
432.657613
 21
331.742476
 31
0.0
  0
LINE
  5
390
100
AcDbEntity
  8
M01
100
AcDbLine
 10
415.533079
 20
291.729151
 30
0.0
 11
429.349553
 21
306.244476
 31
0.0
  0
LINE
  5
391
100
AcDbEntity
  8
M01
100
AcDbLine
 10
412.635765
 20
294.486972
 30
0.0
 11
426.45224
 21
309.002296
 31
0.0
  0
LINE
  5
392
100
AcDbEntity
  8
M01
100
AcDbLine
 10
391.002648
 20
288.002613
 30
0.0
 11
406.841138
 21
288.002613
 31
0.0
  0
LINE
  5
393
100
AcDbEntity
  8
M01
100
AcDbLine
 10
391.002648
 20
292.002613
 30
0.0
 11
406.841138
 21
292.002613
 31
0.0
  0
LINE
  5
394
100
AcDbEntity
  8
M01
100
AcDbLine
 10
447.313512
 20
291.992476
 30
0.0
 11
447.313512
 21
285.492476
 31
0.0
  0
LINE
  5
395
100
AcDbEntity
  8
M01
100
AcDbLine
 10
439.201713
 20
291.992476
 30
0.0
 11
439.201713
 21
285.492476
 31
0.0
  0
LINE
  5
396
100
AcDbEntity
  8
M01
100
AcDbLine
 10
447.313512
 20
291.992476
 30
0.0
 11
449.257613
 21
291.992476
 31
0.0
  0
ARC
  5
397
100
AcDbEntity
  8
M01
100
AcDbCircle
 10
445.752263
 20
293.242476
 30
0.0
 40
2.0
100
AcDbArc
 50
270.0
 51
321.317813
  0
ARC
  5
398
100
AcDbEntity
  8
M01
100
AcDbCircle
 10
440.762962
 20
293.242476
 30
0.0
 40
2.0
100
AcDbArc
 50
218.682187
 51
270.0
  0
LINE
  5
399
100
AcDbEntity
  8
M01
100
AcDbLine
 10
437.257613
 20
291.992476
 30
0.0
 11
439.201713
 21
291.992476
 31
0.0
  0
LINE
  5
39A
100
AcDbEntity
  8
M01
100
AcDbLine
 10
440.762962
 20
291.242476
 30
0.0
 11
445.752263
 21
291.242476
 31
0.0
  0
LINE
  5
39B
100
AcDbEntity
  8
M01
100
AcDbLine
 10
447.313512
 20
285.492476
 30
0.0
 11
449.257613
 21
285.492476
 31
0.0
  0
ARC
  5
39C
100
AcDbEntity
  8
M01
100
AcDbCircle
 10
445.752263
 20
284.242476
 30
0.0
 40
2.0
100
AcDbArc
 50
38.682187
 51
90.0
  0
ARC
  5
39D
100
AcDbEntity
  8
M01
100
AcDbCircle
 10
440.762962
 20
284.242476
 30
0.0
 40
2.0
100
AcDbArc
 50
90.0
 51
141.317813
  0
LINE
  5
39E
100
AcDbEntity
  8
M01
100
AcDbLine
 10
437.257613
 20
285.492476
 30
0.0
 11
439.201713
 21
285.492476
 31
0.0
  0
LINE
  5
39F
100
AcDbEntity
  8
M01
100
AcDbLine
 10
440.762962
 20
286.242476
 30
0.0
 11
445.752263
 21
286.242476
 31
0.0
  0
LINE
  5
3A0
100
AcDbEntity
  8
DIMS
 62
     4
100
AcDbLine
 10
802.116346
 20
286.742476
 30
0.0
 11
799.816346
 21
286.742476
 31
0.0
  0
LINE
  5
3A1
100
AcDbEntity
  8
DIMS
 62
     4
100
AcDbLine
 10
808.916346
 20
286.742476
 30
0.0
 11
811.216346
 21
286.742476
 31
0.0
  0
LINE
  5
3A2
100
AcDbEntity
  8
DIMS
 62
     4
100
AcDbLine
 10
805.516346
 20
283.342476
 30
0.0
 11
805.516346
 21
281.042476
 31
0.0
  0
LINE
  5
3A3
100
AcDbEntity
  8
DIMS
 62
     4
100
AcDbLine
 10
805.516346
 20
290.142476
 30
0.0
 11
805.516346
 21
292.442476
 31
0.0
  0
LINE
  5
3A4
100
AcDbEntity
  8
DIMS
 62
     4
100
AcDbLine
 10
807.216346
 20
286.742476
 30
0.0
 11
803.816346
 21
286.742476
 31
0.0
  0
LINE
  5
3A5
100
AcDbEntity
  8
DIMS
 62
     4
100
AcDbLine
 10
805.516346
 20
288.442476
 30
0.0
 11
805.516346
 21
285.042476
 31
0.0
  0
LINE
  5
3A6
100
AcDbEntity
  8
DIMS
 62
     4
100
AcDbLine
 10
802.116346
 20
338.742476
 30
0.0
 11
799.816346
 21
338.742476
 31
0.0
  0
LINE
  5
3A7
100
AcDbEntity
  8
DIMS
 62
     4
100
AcDbLine
 10
808.916346
 20
338.742476
 30
0.0
 11
811.216346
 21
338.742476
 31
0.0
  0
LINE
  5
3A8
100
AcDbEntity
  8
DIMS
 62
     4
100
AcDbLine
 10
805.516346
 20
335.342476
 30
0.0
 11
805.516346
 21
333.042476
 31
0.0
  0
LINE
  5
3A9
100
AcDbEntity
  8
DIMS
 62
     4
100
AcDbLine
 10
805.516346
 20
342.142476
 30
0.0
 11
805.516346
 21
344.442476
 31
0.0
  0
LINE
  5
3AA
100
AcDbEntity
  8
DIMS
 62
     4
100
AcDbLine
 10
807.216346
 20
338.742476
 30
0.0
 11
803.816346
 21
338.742476
 31
0.0
  0
LINE
  5
3AB
100
AcDbEntity
  8
DIMS
 62
     4
100
AcDbLine
 10
805.516346
 20
340.442476
 30
0.0
 11
805.516346
 21
337.042476
 31
0.0
  0
HATCH
  5
3AC
100
AcDbEntity
  8
HATCH
100
AcDbHatch
 10
0.0
 20
0.0
 30
0.0
210
0.0
220
0.0
230
1.0
  2
_U
 70
     0
 71
     0
 91
        2
 92
        7
 72
     1
 73
     1
 93
        2
 10
809.5163457646993
 20
338.7424757530183
 42
1.0
 10
801.5163457646993
 20
338.7424757530183
 42
1.0
 97
        0
 92
        7
 72
     1
 73
     1
 93
        2
 10
809.5163457646993
 20
286.7424757530183
 42
1.0
 10
801.5163457646993
 20
286.7424757530183
 42
1.0
 97
        0
 75
     0
 76
     0
 52
135.0
 41
0.8
 77
     0
 78
     1
 53
225.0
 43
1215.075572
 44
1117.332583
 45
-0.565685424949238
 46
0.565685424949238
 79
     0
 47
0.095608
 98
        2
 10
805.816987
 20
338.609127
 10
804.66969
 20
299.584937
  0
LINE
  5
3AD
102
{ACAD_REACTORS
330
40
102
}
100
AcDbEntity
  8
M01
100
AcDbLine
 10
809.516346
 20
286.742476
 30
0.0
 11
809.516346
 21
282.742476
 31
0.0
  0
LINE
  5
3AE
102
{ACAD_REACTORS
330
40
102
}
100
AcDbEntity
  8
M01
100
AcDbLine
 10
801.516346
 20
286.742476
 30
0.0
 11
801.516346
 21
282.742476
 31
0.0
  0
LINE
  5
3AF
102
{ACAD_REACTORS
330
40
102
}
100
AcDbEntity
  8
M01
100
AcDbLine
 10
809.516346
 20
338.742476
 30
0.0
 11
809.516346
 21
342.742476
 31
0.0
  0
LINE
  5
3B0
102
{ACAD_REACTORS
330
40
102
}
100
AcDbEntity
  8
M01
100
AcDbLine
 10
801.516346
 20
338.742476
 30
0.0
 11
801.516346
 21
342.742476
 31
0.0
  0
CIRCLE
  5
3B1
102
{ACAD_REACTORS
330
40
102
}
100
AcDbEntity
  8
M01
100
AcDbCircle
 10
805.516346
 20
286.742476
 30
0.0
 40
4.0
  0
CIRCLE
  5
3B2
102
{ACAD_REACTORS
330
40
102
}
100
AcDbEntity
  8
M01
100
AcDbCircle
 10
805.516346
 20
338.742476
 30
0.0
 40
4.0
  0
DIMENSION
  5
3B3
100
AcDbEntity
  8
DIMS
100
AcDbDimension
  2
*D4
 10
478.757613
 20
377.418641
 30
0.0
 11
509.543327
 21
380.418641
 31
0.0
 12
221.992078
 22
338.222525
 32
0.0
  1
%%c<> H7
  3
DIM1
100
AcDbAlignedDimension
 13
470.757613
 23
362.742476
 33
0.0
 14
478.757613
 24
362.742476
 34
0.0
100
AcDbRotatedDimension
1001
ACAD
1000
DSTYLE
1002
{
1070
   144
1040
1.0
1002
}
  0
DIMENSION
  5
3C1
100
AcDbEntity
  8
DIMS
100
AcDbDimension
  2
*D3
 10
638.257613
 20
231.427359
 30
0.0
 11
658.257613
 21
234.427359
 31
0.0
 12
-192.561382
 22
298.993551
 32
0.0
  1
%%c<> H7
  3
DIM1
100
AcDbAlignedDimension
 13
678.257613
 23
267.742476
 33
0.0
 14
638.257613
 24
267.742476
 34
0.0
100
AcDbRotatedDimension
1001
ACAD
1000
DSTYLE
1002
{
1070
   144
1040
1.0
1002
}
  0
DIMENSION
  5
3CE
100
AcDbEntity
  8
DIMS
100
AcDbDimension
  2
*D2
 10
857.982082
 20
349.742476
 30
0.0
 11
853.892082
 21
360.385333
 31
0.0
 12
1.09
 22
0.0
 32
0.0
  1
7.0
  3
DIM1
100
AcDbAlignedDimension
 13
813.257613
 23
342.742476
 33
0.0
 14
822.257613
 24
349.742476
 34
0.0
 50
90.0
100
AcDbRotatedDimension
1001
ACAD
1000
DSTYLE
1002
{
1070
   144
1040
1.0
1002
}
  0
DIMENSION
  5
3DC
100
AcDbEntity
  8
DIMS
100
AcDbDimension
  2
*D1
 10
857.982082
 20
275.742476
 30
0.0
 11
853.892082
 21
265.099619
 31
0.0
 12
1.09
 22
0.0
 32
0.0
  1
7.0
  3
DIM1
100
AcDbAlignedDimension
 13
813.257613
 23
282.742476
 33
0.0
 14
833.771004
 24
275.742476
 34
0.0
 50
90.0
100
AcDbRotatedDimension
1001
ACAD
1000
DSTYLE
1002
{
1070
   144
1040
1.0
1002
}
  0
DIMENSION
  5
3EA
100
AcDbEntity
  8
DIMS
100
AcDbDimension
  2
*D0
 10
857.982082
 20
282.742476
 30
0.0
 11
853.892082
 21
312.742476
 31
0.0
 12
1.09
 22
0.0
 32
0.0
  3
DIM1
100
AcDbAlignedDimension
 13
813.257613
 23
342.742476
 33
0.0
 14
815.257613
 24
282.742476
 34
0.0
 50
90.0
100
AcDbRotatedDimension
1001
ACAD
1000
DSTYLE
1002
{
1070
   144
1040
1.0
1002
}
  0
LINE
  5
3F7
100
AcDbEntity
  8
M01
100
AcDbLine
 10
454.257613
 20
293.742476
 30
0.0
 11
454.257613
 21
283.742476
 31
0.0
  0
LINE
  5
3F8
100
AcDbEntity
  8
M01
100
AcDbLine
 10
447.313512
 20
339.992476
 30
0.0
 11
447.313512
 21
333.492476
 31
0.0
  0
LINE
  5
3F9
100
AcDbEntity
  8
M01
100
AcDbLine
 10
439.201713
 20
339.992476
 30
0.0
 11
439.201713
 21
333.492476
 31
0.0
  0
LINE
  5
3FA
100
AcDbEntity
  8
M01
100
AcDbLine
 10
447.313512
 20
339.992476
 30
0.0
 11
449.257613
 21
339.992476
 31
0.0
  0
ARC
  5
3FB
100
AcDbEntity
  8
M01
100
AcDbCircle
 10
445.752263
 20
341.242476
 30
0.0
 40
2.0
100
AcDbArc
 50
270.0
 51
321.317813
  0
ARC
  5
3FC
100
AcDbEntity
  8
M01
100
AcDbCircle
 10
440.762962
 20
341.242476
 30
0.0
 40
2.0
100
AcDbArc
 50
218.682187
 51
270.0
  0
LINE
  5
3FD
100
AcDbEntity
  8
M01
100
AcDbLine
 10
437.257613
 20
339.992476
 30
0.0
 11
439.201713
 21
339.992476
 31
0.0
  0
LINE
  5
3FE
100
AcDbEntity
  8
M01
100
AcDbLine
 10
440.762962
 20
339.242476
 30
0.0
 11
445.752263
 21
339.242476
 31
0.0
  0
LINE
  5
3FF
100
AcDbEntity
  8
M01
100
AcDbLine
 10
447.313512
 20
333.492476
 30
0.0
 11
449.257613
 21
333.492476
 31
0.0
  0
ARC
  5
400
100
AcDbEntity
  8
M01
100
AcDbCircle
 10
445.752263
 20
332.242476
 30
0.0
 40
2.0
100
AcDbArc
 50
38.682187
 51
90.0
  0
ARC
  5
401
100
AcDbEntity
  8
M01
100
AcDbCircle
 10
440.762962
 20
332.242476
 30
0.0
 40
2.0
100
AcDbArc
 50
90.0
 51
141.317813
  0
LINE
  5
402
100
AcDbEntity
  8
M01
100
AcDbLine
 10
437.257613
 20
333.492476
 30
0.0
 11
439.201713
 21
333.492476
 31
0.0
  0
LINE
  5
403
100
AcDbEntity
  8
M01
100
AcDbLine
 10
440.762962
 20
334.242476
 30
0.0
 11
445.752263
 21
334.242476
 31
0.0
  0
LINE
  5
404
100
AcDbEntity
  8
M01
100
AcDbLine
 10
454.257613
 20
341.742476
 30
0.0
 11
454.257613
 21
331.742476
 31
0.0
  0
LINE
  5
405
100
AcDbEntity
  8
M01
100
AcDbLine
 10
449.257613
 20
283.742476
 30
0.0
 11
470.257613
 21
283.742476
 31
0.0
  0
LINE
  5
406
100
AcDbEntity
  8
M01
100
AcDbLine
 10
449.257613
 20
293.742476
 30
0.0
 11
469.257613
 21
293.742476
 31
0.0
  0
LINE
  5
407
100
AcDbEntity
  8
M01
100
AcDbLine
 10
449.257613
 20
341.742476
 30
0.0
 11
470.257613
 21
341.742476
 31
0.0
  0
LINE
  5
408
100
AcDbEntity
  8
M01
100
AcDbLine
 10
449.257613
 20
331.742476
 30
0.0
 11
469.257613
 21
331.742476
 31
0.0
  0
HATCH
  5
409
100
AcDbEntity
  8
HATCH
100
AcDbHatch
 10
0.0
 20
0.0
 30
0.0
210
0.0
220
0.0
230
1.0
  2
_U
 70
     0
 71
     1
 91
        1
 92
        7
 72
     0
 73
     1
 93
        4
 10
623.25761256428
 20
279.7424757530182
 10
623.2576125642798
 20
282.7424757530181
 10
471.2576125642797
 20
282.7424757530182
 10
471.2576125642798
 20
279.7424757530182
 97
        4
330
482
330
48A
330
468
330
484
 75
     0
 76
     0
 52
225.0
 41
0.8
 77
     0
 78
     1
 53
135.0
 43
990.816839
 44
1104.332583
 45
0.565685424949238
 46
0.5656854249492382
 79
     0
 47
0.167139
 98
        1
 10
495.980053
 20
280.847433
  0
LINE
  5
40A
100
AcDbEntity
  8
M01
100
AcDbLine
 10
427.357613
 20
291.773565
 30
0.0
 11
427.357613
 21
285.711387
 31
0.0
  0
ARC
  5
40B
100
AcDbEntity
  8
M01
100
AcDbCircle
 10
429.206918
 20
285.711387
 30
0.0
 40
1.150694
100
AcDbArc
 50
298.592423
 51
61.407577
  0
ARC
  5
40C
100
AcDbEntity
  8
M01
100
AcDbCircle
 10
426.654835
 20
288.742476
 30
0.0
 40
3.702778
100
AcDbArc
 50
326.92527
 51
33.07473
  0
ARC
  5
40D
100
AcDbEntity
  8
M01
100
AcDbCircle
 10
429.206918
 20
291.773565
 30
0.0
 40
1.150694
100
AcDbArc
 50
298.592423
 51
61.407577
  0
ARC
  5
40E
100
AcDbEntity
  8
M01
100
AcDbCircle
 10
428.508307
 20
285.711387
 30
0.0
 40
1.150694
100
AcDbArc
 50
118.592423
 51
241.407577
  0
ARC
  5
40F
100
AcDbEntity
  8
M01
100
AcDbCircle
 10
431.06039
 20
288.742476
 30
0.0
 40
3.702778
100
AcDbArc
 50
146.92527
 51
213.07473
  0
LINE
  5
410
100
AcDbEntity
  8
M01
100
AcDbLine
 10
427.957613
 20
286.72175
 30
0.0
 11
429.757613
 21
286.72175
 31
0.0
  0
LINE
  5
411
100
AcDbEntity
  8
M01
100
AcDbLine
 10
427.957613
 20
284.701024
 30
0.0
 11
429.757613
 21
284.701024
 31
0.0
  0
ARC
  5
412
100
AcDbEntity
  8
M01
100
AcDbCircle
 10
428.508307
 20
291.773565
 30
0.0
 40
1.150694
100
AcDbArc
 50
118.592423
 51
241.407577
  0
LINE
  5
413
100
AcDbEntity
  8
M01
100
AcDbLine
 10
427.957613
 20
290.763202
 30
0.0
 11
429.757613
 21
290.763202
 31
0.0
  0
LINE
  5
414
100
AcDbEntity
  8
M01
100
AcDbLine
 10
427.957613
 20
292.783928
 30
0.0
 11
429.757613
 21
292.783928
 31
0.0
  0
LINE
  5
415
100
AcDbEntity
  8
M01
100
AcDbLine
 10
432.657613
 20
283.742476
 30
0.0
 11
431.157613
 21
283.742476
 31
0.0
  0
LINE
  5
416
100
AcDbEntity
  8
M01
100
AcDbLine
 10
432.657613
 20
293.742476
 30
0.0
 11
431.157613
 21
293.742476
 31
0.0
  0
LINE
  5
417
100
AcDbEntity
  8
M01
100
AcDbLine
 10
431.157613
 20
284.242476
 30
0.0
 11
430.357613
 21
284.242476
 31
0.0
  0
LINE
  5
418
100
AcDbEntity
  8
M01
100
AcDbLine
 10
431.157613
 20
293.242476
 30
0.0
 11
430.357613
 21
293.242476
 31
0.0
  0
LINE
  5
419
100
AcDbEntity
  8
M01
100
AcDbLine
 10
430.357613
 20
293.242476
 30
0.0
 11
430.357613
 21
284.242476
 31
0.0
  0
LINE
  5
41A
100
AcDbEntity
  8
M01
100
AcDbLine
 10
431.157613
 20
293.742476
 30
0.0
 11
431.157613
 21
283.742476
 31
0.0
  0
LINE
  5
41B
100
AcDbEntity
  8
M01
100
AcDbLine
 10
433.457613
 20
284.242476
 30
0.0
 11
432.657613
 21
284.242476
 31
0.0
  0
LINE
  5
41C
100
AcDbEntity
  8
M01
100
AcDbLine
 10
433.457613
 20
293.242476
 30
0.0
 11
432.657613
 21
293.242476
 31
0.0
  0
LINE
  5
41D
100
AcDbEntity
  8
M01
100
AcDbLine
 10
432.657613
 20
298.742476
 30
0.0
 11
432.657613
 21
283.742476
 31
0.0
  0
ARC
  5
41E
100
AcDbEntity
  8
M01
100
AcDbCircle
 10
435.306918
 20
285.711387
 30
0.0
 40
1.150694
100
AcDbArc
 50
298.592423
 51
61.407577
  0
ARC
  5
41F
100
AcDbEntity
  8
M01
100
AcDbCircle
 10
432.754835
 20
288.742476
 30
0.0
 40
3.702778
100
AcDbArc
 50
326.92527
 51
33.07473
  0
ARC
  5
420
100
AcDbEntity
  8
M01
100
AcDbCircle
 10
435.306918
 20
291.773565
 30
0.0
 40
1.150694
100
AcDbArc
 50
298.592423
 51
61.407577
  0
ARC
  5
421
100
AcDbEntity
  8
M01
100
AcDbCircle
 10
434.608307
 20
285.711387
 30
0.0
 40
1.150694
100
AcDbArc
 50
118.592423
 51
241.407577
  0
ARC
  5
422
100
AcDbEntity
  8
M01
100
AcDbCircle
 10
437.16039
 20
288.742476
 30
0.0
 40
3.702778
100
AcDbArc
 50
146.92527
 51
213.07473
  0
LINE
  5
423
100
AcDbEntity
  8
M01
100
AcDbLine
 10
434.057613
 20
286.72175
 30
0.0
 11
435.857613
 21
286.72175
 31
0.0
  0
LINE
  5
424
100
AcDbEntity
  8
M01
100
AcDbLine
 10
434.057613
 20
284.701024
 30
0.0
 11
435.857613
 21
284.701024
 31
0.0
  0
ARC
  5
425
100
AcDbEntity
  8
M01
100
AcDbCircle
 10
434.608307
 20
291.773565
 30
0.0
 40
1.150694
100
AcDbArc
 50
118.592423
 51
241.407577
  0
LINE
  5
426
100
AcDbEntity
  8
M01
100
AcDbLine
 10
434.057613
 20
290.763202
 30
0.0
 11
435.857613
 21
290.763202
 31
0.0
  0
LINE
  5
427
100
AcDbEntity
  8
M01
100
AcDbLine
 10
434.057613
 20
292.783928
 30
0.0
 11
435.857613
 21
292.783928
 31
0.0
  0
LINE
  5
428
100
AcDbEntity
  8
M01
100
AcDbLine
 10
433.457613
 20
293.242476
 30
0.0
 11
433.457613
 21
284.242476
 31
0.0
  0
LINE
  5
429
100
AcDbEntity
  8
M01
100
AcDbLine
 10
436.457613
 20
293.242476
 30
0.0
 11
436.457613
 21
284.242476
 31
0.0
  0
LINE
  5
42A
100
AcDbEntity
  8
M01
100
AcDbLine
 10
437.257613
 20
293.242476
 30
0.0
 11
437.257613
 21
284.242476
 31
0.0
  0
LINE
  5
42B
100
AcDbEntity
  8
M01
100
AcDbLine
 10
424.257613
 20
287.242476
 30
0.0
 11
424.757613
 21
286.742476
 31
0.0
  0
LINE
  5
42C
100
AcDbEntity
  8
M01
100
AcDbLine
 10
424.757613
 20
290.742476
 30
0.0
 11
424.257613
 21
290.242476
 31
0.0
  0
LINE
  5
42D
100
AcDbEntity
  8
M01
100
AcDbLine
 10
424.757613
 20
290.742476
 30
0.0
 11
424.757613
 21
286.742476
 31
0.0
  0
LINE
  5
42E
100
AcDbEntity
  8
M01
100
AcDbLine
 10
424.257613
 20
287.242476
 30
0.0
 11
427.357613
 21
287.242476
 31
0.0
  0
LINE
  5
42F
100
AcDbEntity
  8
M01
100
AcDbLine
 10
424.257613
 20
290.242476
 30
0.0
 11
427.357613
 21
290.242476
 31
0.0
  0
LINE
  5
430
100
AcDbEntity
  8
M01
100
AcDbLine
 10
424.757613
 20
290.742476
 30
0.0
 11
427.357613
 21
290.742476
 31
0.0
  0
LINE
  5
431
100
AcDbEntity
  8
M01
100
AcDbLine
 10
424.757613
 20
286.742476
 30
0.0
 11
427.357613
 21
286.742476
 31
0.0
  0
LINE
  5
432
100
AcDbEntity
  8
M01
100
AcDbLine
 10
424.257613
 20
290.242476
 30
0.0
 11
424.257613
 21
287.242476
 31
0.0
  0
LINE
  5
433
100
AcDbEntity
  8
M01
100
AcDbLine
 10
449.257613
 20
293.742476
 30
0.0
 11
449.257613
 21
283.742476
 31
0.0
  0
LINE
  5
434
100
AcDbEntity
  8
M01
100
AcDbLine
 10
436.457613
 20
284.242476
 30
0.0
 11
437.257613
 21
284.242476
 31
0.0
  0
LINE
  5
435
100
AcDbEntity
  8
M01
100
AcDbLine
 10
436.457613
 20
293.242476
 30
0.0
 11
437.257613
 21
293.242476
 31
0.0
  0
LINE
  5
436
100
AcDbEntity
  8
CENTRE
100
AcDbLine
 10
418.096723
 20
288.742476
 30
0.0
 11
481.690155
 21
288.742476
 31
0.0
  0
LINE
  5
437
100
AcDbEntity
  8
M01
100
AcDbLine
 10
427.357613
 20
333.711387
 30
0.0
 11
427.357613
 21
339.773565
 31
0.0
  0
ARC
  5
438
100
AcDbEntity
  8
M01
100
AcDbCircle
 10
429.206918
 20
339.773565
 30
0.0
 40
1.150694
100
AcDbArc
 50
298.592423
 51
61.407577
  0
ARC
  5
439
100
AcDbEntity
  8
M01
100
AcDbCircle
 10
426.654835
 20
336.742476
 30
0.0
 40
3.702778
100
AcDbArc
 50
326.92527
 51
33.07473
  0
ARC
  5
43A
100
AcDbEntity
  8
M01
100
AcDbCircle
 10
429.206918
 20
333.711387
 30
0.0
 40
1.150694
100
AcDbArc
 50
298.592423
 51
61.407577
  0
ARC
  5
43B
100
AcDbEntity
  8
M01
100
AcDbCircle
 10
428.508307
 20
339.773565
 30
0.0
 40
1.150694
100
AcDbArc
 50
118.592423
 51
241.407577
  0
ARC
  5
43C
100
AcDbEntity
  8
M01
100
AcDbCircle
 10
431.06039
 20
336.742476
 30
0.0
 40
3.702778
100
AcDbArc
 50
146.92527
 51
213.07473
  0
LINE
  5
43D
100
AcDbEntity
  8
M01
100
AcDbLine
 10
427.957613
 20
338.763202
 30
0.0
 11
429.757613
 21
338.763202
 31
0.0
  0
LINE
  5
43E
100
AcDbEntity
  8
M01
100
AcDbLine
 10
427.957613
 20
340.783928
 30
0.0
 11
429.757613
 21
340.783928
 31
0.0
  0
ARC
  5
43F
100
AcDbEntity
  8
M01
100
AcDbCircle
 10
428.508307
 20
333.711387
 30
0.0
 40
1.150694
100
AcDbArc
 50
118.592423
 51
241.407577
  0
LINE
  5
440
100
AcDbEntity
  8
M01
100
AcDbLine
 10
427.957613
 20
334.72175
 30
0.0
 11
429.757613
 21
334.72175
 31
0.0
  0
LINE
  5
441
100
AcDbEntity
  8
M01
100
AcDbLine
 10
427.957613
 20
332.701024
 30
0.0
 11
429.757613
 21
332.701024
 31
0.0
  0
LINE
  5
442
100
AcDbEntity
  8
M01
100
AcDbLine
 10
432.657613
 20
341.742476
 30
0.0
 11
431.157613
 21
341.742476
 31
0.0
  0
LINE
  5
443
100
AcDbEntity
  8
M01
100
AcDbLine
 10
431.157613
 20
341.242476
 30
0.0
 11
430.357613
 21
341.242476
 31
0.0
  0
LINE
  5
444
100
AcDbEntity
  8
M01
100
AcDbLine
 10
431.157613
 20
332.242476
 30
0.0
 11
430.357613
 21
332.242476
 31
0.0
  0
LINE
  5
445
100
AcDbEntity
  8
M01
100
AcDbLine
 10
430.357613
 20
332.242476
 30
0.0
 11
430.357613
 21
341.242476
 31
0.0
  0
LINE
  5
446
100
AcDbEntity
  8
M01
100
AcDbLine
 10
431.157613
 20
331.742476
 30
0.0
 11
431.157613
 21
341.742476
 31
0.0
  0
LINE
  5
447
100
AcDbEntity
  8
M01
100
AcDbLine
 10
433.457613
 20
341.242476
 30
0.0
 11
432.657613
 21
341.242476
 31
0.0
  0
LINE
  5
448
100
AcDbEntity
  8
M01
100
AcDbLine
 10
433.457613
 20
332.242476
 30
0.0
 11
432.657613
 21
332.242476
 31
0.0
  0
ARC
  5
449
100
AcDbEntity
  8
M01
100
AcDbCircle
 10
435.306918
 20
339.773565
 30
0.0
 40
1.150694
100
AcDbArc
 50
298.592423
 51
61.407577
  0
ARC
  5
44A
100
AcDbEntity
  8
M01
100
AcDbCircle
 10
432.754835
 20
336.742476
 30
0.0
 40
3.702778
100
AcDbArc
 50
326.92527
 51
33.07473
  0
ARC
  5
44B
100
AcDbEntity
  8
M01
100
AcDbCircle
 10
435.306918
 20
333.711387
 30
0.0
 40
1.150694
100
AcDbArc
 50
298.592423
 51
61.407577
  0
ARC
  5
44C
100
AcDbEntity
  8
M01
100
AcDbCircle
 10
434.608307
 20
339.773565
 30
0.0
 40
1.150694
100
AcDbArc
 50
118.592423
 51
241.407577
  0
ARC
  5
44D
100
AcDbEntity
  8
M01
100
AcDbCircle
 10
437.16039
 20
336.742476
 30
0.0
 40
3.702778
100
AcDbArc
 50
146.92527
 51
213.07473
  0
LINE
  5
44E
100
AcDbEntity
  8
M01
100
AcDbLine
 10
434.057613
 20
338.763202
 30
0.0
 11
435.857613
 21
338.763202
 31
0.0
  0
LINE
  5
44F
100
AcDbEntity
  8
M01
100
AcDbLine
 10
434.057613
 20
340.783928
 30
0.0
 11
435.857613
 21
340.783928
 31
0.0
  0
ARC
  5
450
100
AcDbEntity
  8
M01
100
AcDbCircle
 10
434.608307
 20
333.711387
 30
0.0
 40
1.150694
100
AcDbArc
 50
118.592423
 51
241.407577
  0
LINE
  5
451
100
AcDbEntity
  8
M01
100
AcDbLine
 10
434.057613
 20
334.72175
 30
0.0
 11
435.857613
 21
334.72175
 31
0.0
  0
LINE
  5
452
100
AcDbEntity
  8
M01
100
AcDbLine
 10
434.057613
 20
332.701024
 30
0.0
 11
435.857613
 21
332.701024
 31
0.0
  0
LINE
  5
453
100
AcDbEntity
  8
M01
100
AcDbLine
 10
433.457613
 20
332.242476
 30
0.0
 11
433.457613
 21
341.242476
 31
0.0
  0
LINE
  5
454
100
AcDbEntity
  8
M01
100
AcDbLine
 10
436.457613
 20
332.242476
 30
0.0
 11
436.457613
 21
341.242476
 31
0.0
  0
LINE
  5
455
100
AcDbEntity
  8
M01
100
AcDbLine
 10
437.257613
 20
332.242476
 30
0.0
 11
437.257613
 21
341.242476
 31
0.0
  0
LINE
  5
456
100
AcDbEntity
  8
M01
100
AcDbLine
 10
424.257613
 20
338.242476
 30
0.0
 11
424.757613
 21
338.742476
 31
0.0
  0
LINE
  5
457
100
AcDbEntity
  8
M01
100
AcDbLine
 10
424.757613
 20
334.742476
 30
0.0
 11
424.257613
 21
335.242476
 31
0.0
  0
LINE
  5
458
100
AcDbEntity
  8
M01
100
AcDbLine
 10
424.757613
 20
334.742476
 30
0.0
 11
424.757613
 21
338.742476
 31
0.0
  0
LINE
  5
459
100
AcDbEntity
  8
M01
100
AcDbLine
 10
424.257613
 20
338.242476
 30
0.0
 11
427.357613
 21
338.242476
 31
0.0
  0
LINE
  5
45A
100
AcDbEntity
  8
M01
100
AcDbLine
 10
424.257613
 20
335.242476
 30
0.0
 11
427.357613
 21
335.242476
 31
0.0
  0
LINE
  5
45B
100
AcDbEntity
  8
M01
100
AcDbLine
 10
424.757613
 20
334.742476
 30
0.0
 11
427.357613
 21
334.742476
 31
0.0
  0
LINE
  5
45C
100
AcDbEntity
  8
M01
100
AcDbLine
 10
424.757613
 20
338.742476
 30
0.0
 11
427.357613
 21
338.742476
 31
0.0
  0
LINE
  5
45D
100
AcDbEntity
  8
M01
100
AcDbLine
 10
424.257613
 20
335.242476
 30
0.0
 11
424.257613
 21
338.242476
 31
0.0
  0
LINE
  5
45E
100
AcDbEntity
  8
M01
100
AcDbLine
 10
449.257613
 20
331.742476
 30
0.0
 11
449.257613
 21
341.742476
 31
0.0
  0
LINE
  5
45F
100
AcDbEntity
  8
M01
100
AcDbLine
 10
436.457613
 20
341.242476
 30
0.0
 11
437.257613
 21
341.242476
 31
0.0
  0
LINE
  5
460
100
AcDbEntity
  8
M01
100
AcDbLine
 10
436.457613
 20
332.242476
 30
0.0
 11
437.257613
 21
332.242476
 31
0.0
  0
LINE
  5
461
102
{ACAD_REACTORS
330
40
102
}
100
AcDbEntity
  8
CENTRE
100
AcDbLine
 10
418.096723
 20
336.742476
 30
0.0
 11
481.690155
 21
336.742476
 31
0.0
  0
LINE
  5
462
100
AcDbEntity
  8
M04
100
AcDbLine
 10
409.257613
 20
303.742476
 30
0.0
 11
399.257613
 21
293.742476
 31
0.0
  0
LINE
  5
463
100
AcDbEntity
  8
M04
100
AcDbLine
 10
388.586134
 20
293.742476
 30
0.0
 11
399.257613
 21
293.742476
 31
0.0
  0
LINE
  5
464
100
AcDbEntity
  8
M04
100
AcDbLine
 10
409.257613
 20
349.742476
 30
0.0
 11
409.257613
 21
275.742476
 31
0.0
  0
LINE
  5
465
102
{ACAD_REACTORS
330
40
102
}
100
AcDbEntity
  8
M01
100
AcDbLine
 10
662.257613
 20
299.742476
 30
0.0
 11
662.257613
 21
292.742476
 31
0.0
  0
LINE
  5
466
102
{ACAD_REACTORS
330
40
102
}
100
AcDbEntity
  8
M01
100
AcDbLine
 10
654.257613
 20
299.742476
 30
0.0
 11
654.257613
 21
292.742476
 31
0.0
  0
LINE
  5
467
100
AcDbEntity
  8
M04
100
AcDbLine
 10
677.757613
 20
275.742476
 30
0.0
 11
780.257613
 21
275.742476
 31
0.0
  0
LINE
  5
468
102
{ACAD_REACTORS
330
409
102
}
100
AcDbEntity
  8
M02
100
AcDbLine
 10
623.257613
 20
282.742476
 30
0.0
 11
623.257613
 21
279.742476
 31
0.0
  0
LINE
  5
469
100
AcDbEntity
  8
M04
100
AcDbLine
 10
474.757613
 20
365.051877
 30
0.0
 11
470.757613
 21
362.742476
 31
0.0
  0
LINE
  5
46A
100
AcDbEntity
  8
M04
100
AcDbLine
 10
478.757613
 20
362.742476
 30
0.0
 11
474.757613
 21
365.051877
 31
0.0
  0
LINE
  5
46B
100
AcDbEntity
  8
M04
100
AcDbLine
 10
478.757613
 20
359.742476
 30
0.0
 11
478.757613
 21
362.742476
 31
0.0
  0
LINE
  5
46C
100
AcDbEntity
  8
M04
100
AcDbLine
 10
470.757613
 20
362.742476
 30
0.0
 11
478.757613
 21
362.742476
 31
0.0
  0
LINE
  5
46D
100
AcDbEntity
  8
M04
100
AcDbLine
 10
470.757613
 20
359.742476
 30
0.0
 11
470.757613
 21
362.742476
 31
0.0
  0
ARC
  5
46E
100
AcDbEntity
  8
M05
100
AcDbCircle
 10
474.757613
 20
350.404771
 30
0.0
 40
10.837705
100
AcDbArc
 50
71.372238
 51
108.627762
  0
LINE
  5
46F
100
AcDbEntity
  8
M05
100
AcDbLine
 10
478.757613
 20
359.742476
 30
0.0
 11
478.219376
 21
360.674729
 31
0.0
  0
LINE
  5
470
100
AcDbEntity
  8
M05
100
AcDbLine
 10
471.295849
 20
360.674729
 30
0.0
 11
478.219376
 21
360.674729
 31
0.0
  0
LINE
  5
471
100
AcDbEntity
  8
M05
100
AcDbLine
 10
470.757613
 20
359.742476
 30
0.0
 11
471.295849
 21
360.674729
 31
0.0
  0
LINE
  5
472
100
AcDbEntity
  8
M05
100
AcDbLine
 10
470.757613
 20
359.742476
 30
0.0
 11
478.757613
 21
359.742476
 31
0.0
  0
LINE
  5
473
100
AcDbEntity
  8
M04
100
AcDbLine
 10
478.757613
 20
349.742476
 30
0.0
 11
648.757613
 21
349.742476
 31
0.0
  0
LINE
  5
474
100
AcDbEntity
  8
M04
100
AcDbLine
 10
478.757613
 20
350.242476
 30
0.0
 11
479.257613
 21
349.742476
 31
0.0
  0
LINE
  5
475
100
AcDbEntity
  8
M04
100
AcDbLine
 10
470.757613
 20
350.242476
 30
0.0
 11
470.257613
 21
349.742476
 31
0.0
  0
ARC
  5
476
100
AcDbEntity
  8
M05
100
AcDbCircle
 10
474.757613
 20
350.875809
 30
0.0
 40
13.633333
100
AcDbArc
 50
252.938469
 51
287.061531
  0
LINE
  5
477
100
AcDbEntity
  8
M05
100
AcDbLine
 10
470.757613
 20
337.842476
 30
0.0
 11
478.757613
 21
337.842476
 31
0.0
  0
LINE
  5
478
100
AcDbEntity
  8
M05
100
AcDbLine
 10
478.757613
 20
359.742476
 30
0.0
 11
478.757613
 21
337.842476
 31
0.0
  0
LINE
  5
479
100
AcDbEntity
  8
M05
100
AcDbLine
 10
470.757613
 20
359.742476
 30
0.0
 11
470.757613
 21
337.842476
 31
0.0
  0
LINE
  5
47A
102
{ACAD_REACTORS
330
40
102
}
100
AcDbEntity
  8
CENTRE
100
AcDbLine
 10
658.257613
 20
365.567398
 30
0.0
 11
658.257613
 21
242.850436
 31
0.0
  0
LINE
  5
47B
100
AcDbEntity
  8
CENTRE
100
AcDbLine
 10
474.757613
 20
370.088594
 30
0.0
 11
474.757613
 21
331.998894
 31
0.0
  0
LINE
  5
47C
100
AcDbEntity
  8
M04
100
AcDbLine
 10
388.586134
 20
275.742476
 30
0.0
 11
638.757613
 21
275.742476
 31
0.0
  0
LINE
  5
47D
100
AcDbEntity
  8
M04
100
AcDbLine
 10
822.257613
 20
349.742476
 30
0.0
 11
822.257613
 21
275.742476
 31
0.0
  0
LINE
  5
47E
100
AcDbEntity
  8
M04
100
AcDbLine
 10
409.257613
 20
349.742476
 30
0.0
 11
470.757613
 21
349.742476
 31
0.0
  0
LINE
  5
47F
102
{ACAD_REACTORS
330
ED
102
}
100
AcDbEntity
  8
M02
100
AcDbLine
 10
481.257613
 20
342.742476
 30
0.0
 11
481.257613
 21
345.742476
 31
0.0
  0
LINE
  5
480
102
{ACAD_REACTORS
330
40
102
}
100
AcDbEntity
  8
M01
100
AcDbLine
 10
481.257613
 20
342.742476
 30
0.0
 11
481.257613
 21
336.742476
 31
0.0
  0
LINE
  5
481
100
AcDbEntity
  8
M01
100
AcDbLine
 10
469.257613
 20
336.742476
 30
0.0
 11
481.257613
 21
336.742476
 31
0.0
  0
LINE
  5
482
102
{ACAD_REACTORS
330
409
102
}
100
AcDbEntity
  8
M02
100
AcDbLine
 10
471.257613
 20
282.742476
 30
0.0
 11
471.257613
 21
279.742476
 31
0.0
  0
LINE
  5
483
102
{ACAD_REACTORS
330
42
102
}
100
AcDbEntity
  8
M02
100
AcDbLine
 10
813.257613
 20
342.742476
 30
0.0
 11
813.257613
 21
345.742476
 31
0.0
  0
LINE
  5
484
102
{ACAD_REACTORS
330
409
102
}
100
AcDbEntity
  8
M02
100
AcDbLine
 10
471.257613
 20
279.742476
 30
0.0
 11
624.257613
 21
279.742476
 31
0.0
  0
LINE
  5
485
102
{ACAD_REACTORS
330
ED
102
}
100
AcDbEntity
  8
M02
100
AcDbLine
 10
478.757613
 20
345.742476
 30
0.0
 11
648.757613
 21
345.742476
 31
0.0
  0
LINE
  5
486
102
{ACAD_REACTORS
330
40
102
}
100
AcDbEntity
  8
M01
100
AcDbLine
 10
813.257613
 20
282.742476
 30
0.0
 11
815.257613
 21
284.742476
 31
0.0
  0
LINE
  5
487
102
{ACAD_REACTORS
330
40
102
}
100
AcDbEntity
  8
M01
100
AcDbLine
 10
469.257613
 20
284.742476
 30
0.0
 11
471.257613
 21
282.742476
 31
0.0
  0
LINE
  5
488
100
AcDbEntity
  8
M01
100
AcDbLine
 10
470.257613
 20
341.742476
 30
0.0
 11
469.257613
 21
340.742476
 31
0.0
  0
LINE
  5
489
102
{ACAD_REACTORS
330
40
102
}
100
AcDbEntity
  8
M01
100
AcDbLine
 10
815.257613
 20
340.742476
 30
0.0
 11
813.257613
 21
342.742476
 31
0.0
  0
LINE
  5
48A
102
{ACAD_REACTORS
330
409
330
40
102
}
100
AcDbEntity
  8
M01
100
AcDbLine
 10
471.257613
 20
282.742476
 30
0.0
 11
648.257613
 21
282.742476
 31
0.0
  0
LINE
  5
48B
102
{ACAD_REACTORS
330
40
102
}
100
AcDbEntity
  8
M01
100
AcDbLine
 10
815.257613
 20
340.742476
 30
0.0
 11
815.257613
 21
284.742476
 31
0.0
  0
LINE
  5
48C
102
{ACAD_REACTORS
330
40
102
}
100
AcDbEntity
  8
M01
100
AcDbLine
 10
469.257613
 20
340.742476
 30
0.0
 11
469.257613
 21
284.742476
 31
0.0
  0
LINE
  5
48D
102
{ACAD_REACTORS
330
ED
330
40
102
}
100
AcDbEntity
  8
M01
100
AcDbLine
 10
478.757613
 20
342.742476
 30
0.0
 11
648.757613
 21
342.742476
 31
0.0
  0
CIRCLE
  5
48E
100
AcDbEntity
  8
M04
100
AcDbCircle
 10
568.612952
 20
642.016183
 30
0.0
 40
6.5
  0
HATCH
  5
48F
100
AcDbEntity
  8
M03
100
AcDbHatch
 10
0.0
 20
0.0
 30
0.0
210
0.0
220
0.0
230
1.0
  2
_U
 70
     0
 71
     0
 91
        1
 92
        7
 72
     0
 73
     1
 93
        4
 10
560.8946482969249
 20
618.763209257062
 10
540.2199353733886
 20
639.4379221805983
 10
541.5634382576429
 20
640.7814250648528
 10
562.2381511811793
 20
620.1067121413163
 97
        0
 75
     0
 76
     0
 52
285.0
 41
0.7
 77
     0
 78
     1
 53
345.0
 43
499.60196
 44
1252.047621
 45
-0.1811733315717643
 46
-0.676148078402348
 79
     0
 47
0.060863
 98
        1
 10
559.124236
 20
622.212902
  0
HATCH
  5
490
100
AcDbEntity
  8
M03
100
AcDbHatch
 10
0.0
 20
0.0
 30
0.0
210
0.0
220
0.0
230
1.0
  2
_U
 70
     0
 71
     0
 91
        1
 92
        7
 72
     0
 73
     1
 93
        4
 10
560.8946482969249
 20
618.7632092570619
 10
540.2199353733884
 20
639.4379221805984
 10
541.5634382576429
 20
640.7814250648528
 10
562.2381511811793
 20
620.1067121413163
 97
        0
 75
     0
 76
     0
 52
-15.0
 41
0.7
 77
     0
 78
     1
 53
285.0
 43
499.60196
 44
1252.047621
 45
-0.6761480784023478
 46
-0.1811733315717645
 79
     0
 47
0.060863
 98
        1
 10
558.822927
 20
622.169918
  0
LINE
  5
491
100
AcDbEntity
  8
M03
100
AcDbLine
 10
563.020963
 20
597.40359
 30
0.0
 11
560.455646
 21
598.090965
 31
0.0
  0
LINE
  5
492
100
AcDbEntity
  8
M03
100
AcDbLine
 10
559.768272
 20
600.656282
 30
0.0
 11
560.455646
 21
598.090965
 31
0.0
  0
LINE
  5
493
100
AcDbEntity
  8
M03
100
AcDbLine
 10
559.768272
 20
600.656282
 30
0.0
 11
563.020963
 21
597.40359
 31
0.0
  0
LINE
  5
494
100
AcDbEntity
  8
M03
100
AcDbLine
 10
560.333957
 20
602.211916
 30
0.0
 11
564.576598
 21
597.969276
 31
0.0
  0
LINE
  5
495
100
AcDbEntity
  8
M03
100
AcDbLine
 10
560.894648
 20
618.763209
 30
0.0
 11
540.219935
 21
639.437922
 31
0.0
  0
LINE
  5
496
100
AcDbEntity
  8
M03
100
AcDbLine
 10
562.238151
 20
620.106712
 30
0.0
 11
541.563438
 21
640.781425
 31
0.0
  0
LINE
  5
497
100
AcDbEntity
  8
M03
100
AcDbLine
 10
565.632264
 20
613.60133
 30
0.0
 11
575.748885
 21
603.484709
 31
0.0
  0
LINE
  5
498
100
AcDbEntity
  8
M03
100
AcDbLine
 10
564.327818
 20
613.774404
 30
0.0
 11
564.893504
 21
614.34009
 31
0.0
  0
LINE
  5
499
100
AcDbEntity
  8
M03
100
AcDbLine
 10
560.682516
 20
618.551077
 30
0.0
 11
562.450283
 21
620.318844
 31
0.0
  0
LINE
  5
49A
100
AcDbEntity
  8
M03
100
AcDbLine
 10
562.450283
 20
620.318844
 30
0.0
 11
567.400031
 21
615.369097
 31
0.0
  0
LINE
  5
49B
100
AcDbEntity
  8
M03
100
AcDbLine
 10
565.632264
 20
613.60133
 30
0.0
 11
567.400031
 21
615.369097
 31
0.0
  0
LINE
  5
49C
100
AcDbEntity
  8
M03
100
AcDbLine
 10
575.183199
 20
602.919023
 30
0.0
 11
575.748885
 21
603.484709
 31
0.0
  0
ARC
  5
49D
100
AcDbEntity
  8
M03
100
AcDbCircle
 10
569.012889
 20
606.648208
 30
0.0
 40
5.826136
100
AcDbArc
 50
340.69541
 51
109.30459
  0
LINE
  5
49E
100
AcDbEntity
  8
M03
100
AcDbLine
 10
566.344365
 20
599.737043
 30
0.0
 11
565.354415
 21
599.737043
 31
0.0
  0
LINE
  5
49F
100
AcDbEntity
  8
M03
100
AcDbLine
 10
562.101724
 20
603.979683
 30
0.0
 11
562.101724
 21
602.989734
 31
0.0
  0
LINE
  5
4A0
100
AcDbEntity
  8
M03
100
AcDbLine
 10
562.101724
 20
603.979683
 30
0.0
 11
566.344365
 21
599.737043
 31
0.0
  0
LINE
  5
4A1
100
AcDbEntity
  8
M03
100
AcDbLine
 10
562.101724
 20
602.989734
 30
0.0
 11
565.354415
 21
599.737043
 31
0.0
  0
LINE
  5
4A2
100
AcDbEntity
  8
M03
100
AcDbLine
 10
572.354772
 20
605.74745
 30
0.0
 11
577.30452
 21
600.797703
 31
0.0
  0
LINE
  5
4A3
100
AcDbEntity
  8
M03
100
AcDbLine
 10
560.546089
 20
617.556134
 30
0.0
 11
561.111774
 21
618.121819
 31
0.0
  0
LINE
  5
4A4
100
AcDbEntity
  8
M03
100
AcDbLine
 10
572.849747
 20
605.252476
 30
0.0
 11
573.415432
 21
605.818161
 31
0.0
  0
LINE
  5
4A5
100
AcDbEntity
  8
M03
100
AcDbLine
 10
563.020963
 20
597.40359
 30
0.0
 11
572.425483
 21
606.808111
 31
0.0
  0
LINE
  5
4A6
100
AcDbEntity
  8
M03
100
AcDbLine
 10
559.768272
 20
600.656282
 30
0.0
 11
569.172792
 21
610.060802
 31
0.0
  0
LINE
  5
4A7
100
AcDbEntity
  8
M03
100
AcDbLine
 10
560.333957
 20
602.211916
 30
0.0
 11
568.677817
 21
610.555776
 31
0.0
  0
LINE
  5
4A8
100
AcDbEntity
  8
M03
100
AcDbLine
 10
564.576598
 20
597.969276
 30
0.0
 11
572.920458
 21
606.313136
 31
0.0
  0
LINE
  5
4A9
100
AcDbEntity
  8
M03
100
AcDbLine
 10
560.682516
 20
618.551077
 30
0.0
 11
564.893504
 21
614.34009
 31
0.0
  0
LINE
  5
4AA
100
AcDbEntity
  8
M03
100
AcDbLine
 10
577.30452
 20
600.797703
 30
0.0
 11
580.840054
 21
604.333237
 31
0.0
  0
LINE
  5
4AB
100
AcDbEntity
  8
M03
100
AcDbLine
 10
535.441379
 20
642.660844
 30
0.0
 11
568.112132
 21
609.990091
 31
0.0
  0
LINE
  5
4AC
100
AcDbEntity
  8
CENTRE
100
AcDbLine
 10
557.365047
 20
595.000365
 30
0.0
 11
576.570173
 21
614.205492
 31
0.0
  0
LINE
  5
4AD
100
AcDbEntity
  8
M03
100
AcDbLine
 10
720.757613
 20
548.160844
 30
0.0
 11
720.757613
 21
549.817698
 31
0.0
  0
LINE
  5
4AE
100
AcDbEntity
  8
M03
100
AcDbLine
 10
720.757613
 20
549.817698
 30
0.0
 11
780.429185
 21
609.489271
 31
0.0
  0
LINE
  5
4AF
100
AcDbEntity
  8
M03
100
AcDbLine
 10
726.414467
 20
544.160844
 30
0.0
 11
786.08604
 21
603.832417
 31
0.0
  0
LINE
  5
4B0
100
AcDbEntity
  8
CENTRE
100
AcDbLine
 10
720.757613
 20
544.160844
 30
0.0
 11
815.925386
 21
639.328618
 31
0.0
  0
LINE
  5
4B1
100
AcDbEntity
  8
M01
100
AcDbLine
 10
447.313512
 20
559.410844
 30
0.0
 11
447.313512
 21
552.910844
 31
0.0
  0
LINE
  5
4B2
100
AcDbEntity
  8
M01
100
AcDbLine
 10
439.201713
 20
559.410844
 30
0.0
 11
439.201713
 21
552.910844
 31
0.0
  0
LINE
  5
4B3
100
AcDbEntity
  8
M01
100
AcDbLine
 10
447.313512
 20
559.410844
 30
0.0
 11
449.257613
 21
559.410844
 31
0.0
  0
ARC
  5
4B4
100
AcDbEntity
  8
M01
100
AcDbCircle
 10
445.752263
 20
560.660844
 30
0.0
 40
2.0
100
AcDbArc
 50
270.0
 51
321.317813
  0
ARC
  5
4B5
100
AcDbEntity
  8
M01
100
AcDbCircle
 10
440.762962
 20
560.660844
 30
0.0
 40
2.0
100
AcDbArc
 50
218.682187
 51
270.0
  0
LINE
  5
4B6
100
AcDbEntity
  8
M01
100
AcDbLine
 10
437.257613
 20
559.410844
 30
0.0
 11
439.201713
 21
559.410844
 31
0.0
  0
LINE
  5
4B7
100
AcDbEntity
  8
M01
100
AcDbLine
 10
440.762962
 20
558.660844
 30
0.0
 11
445.752263
 21
558.660844
 31
0.0
  0
LINE
  5
4B8
100
AcDbEntity
  8
M01
100
AcDbLine
 10
447.313512
 20
552.910844
 30
0.0
 11
449.257613
 21
552.910844
 31
0.0
  0
ARC
  5
4B9
100
AcDbEntity
  8
M01
100
AcDbCircle
 10
445.752263
 20
551.660844
 30
0.0
 40
2.0
100
AcDbArc
 50
38.682187
 51
90.0
  0
ARC
  5
4BA
100
AcDbEntity
  8
M01
100
AcDbCircle
 10
440.762962
 20
551.660844
 30
0.0
 40
2.0
100
AcDbArc
 50
90.0
 51
141.317813
  0
LINE
  5
4BB
100
AcDbEntity
  8
M01
100
AcDbLine
 10
437.257613
 20
552.910844
 30
0.0
 11
439.201713
 21
552.910844
 31
0.0
  0
LINE
  5
4BC
100
AcDbEntity
  8
M01
100
AcDbLine
 10
440.762962
 20
553.660844
 30
0.0
 11
445.752263
 21
553.660844
 31
0.0
  0
LINE
  5
4BD
100
AcDbEntity
  8
M01
100
AcDbLine
 10
437.257613
 20
551.660844
 30
0.0
 11
437.257613
 21
560.660844
 31
0.0
  0
LINE
  5
4BE
100
AcDbEntity
  8
M01
100
AcDbLine
 10
436.457613
 20
560.660844
 30
0.0
 11
437.257613
 21
560.660844
 31
0.0
  0
LINE
  5
4BF
100
AcDbEntity
  8
M01
100
AcDbLine
 10
436.457613
 20
551.660844
 30
0.0
 11
437.257613
 21
551.660844
 31
0.0
  0
LINE
  5
4C0
100
AcDbEntity
  8
M01
100
AcDbLine
 10
447.313512
 20
528.910844
 30
0.0
 11
447.313512
 21
535.410844
 31
0.0
  0
LINE
  5
4C1
100
AcDbEntity
  8
M01
100
AcDbLine
 10
439.201713
 20
528.910844
 30
0.0
 11
439.201713
 21
535.410844
 31
0.0
  0
LINE
  5
4C2
100
AcDbEntity
  8
M01
100
AcDbLine
 10
447.313512
 20
528.910844
 30
0.0
 11
449.257613
 21
528.910844
 31
0.0
  0
ARC
  5
4C3
100
AcDbEntity
  8
M01
100
AcDbCircle
 10
445.752263
 20
527.660844
 30
0.0
 40
2.0
100
AcDbArc
 50
38.682187
 51
90.0
  0
ARC
  5
4C4
100
AcDbEntity
  8
M01
100
AcDbCircle
 10
440.762962
 20
527.660844
 30
0.0
 40
2.0
100
AcDbArc
 50
90.0
 51
141.317813
  0
LINE
  5
4C5
100
AcDbEntity
  8
M01
100
AcDbLine
 10
437.257613
 20
528.910844
 30
0.0
 11
439.201713
 21
528.910844
 31
0.0
  0
LINE
  5
4C6
100
AcDbEntity
  8
M01
100
AcDbLine
 10
440.762962
 20
529.660844
 30
0.0
 11
445.752263
 21
529.660844
 31
0.0
  0
LINE
  5
4C7
100
AcDbEntity
  8
M01
100
AcDbLine
 10
447.313512
 20
535.410844
 30
0.0
 11
449.257613
 21
535.410844
 31
0.0
  0
ARC
  5
4C8
100
AcDbEntity
  8
M01
100
AcDbCircle
 10
445.752263
 20
536.660844
 30
0.0
 40
2.0
100
AcDbArc
 50
270.0
 51
321.317813
  0
ARC
  5
4C9
100
AcDbEntity
  8
M01
100
AcDbCircle
 10
440.762962
 20
536.660844
 30
0.0
 40
2.0
100
AcDbArc
 50
218.682187
 51
270.0
  0
LINE
  5
4CA
100
AcDbEntity
  8
M01
100
AcDbLine
 10
437.257613
 20
535.410844
 30
0.0
 11
439.201713
 21
535.410844
 31
0.0
  0
LINE
  5
4CB
100
AcDbEntity
  8
M01
100
AcDbLine
 10
440.762962
 20
534.660844
 30
0.0
 11
445.752263
 21
534.660844
 31
0.0
  0
LINE
  5
4CC
100
AcDbEntity
  8
M01
100
AcDbLine
 10
454.257613
 20
561.160844
 30
0.0
 11
454.257613
 21
551.160844
 31
0.0
  0
LINE
  5
4CD
100
AcDbEntity
  8
M01
100
AcDbLine
 10
454.257613
 20
527.160844
 30
0.0
 11
454.257613
 21
537.160844
 31
0.0
  0
LINE
  5
4CE
100
AcDbEntity
  8
M01
100
AcDbLine
 10
449.257613
 20
527.160844
 30
0.0
 11
469.257613
 21
527.160844
 31
0.0
  0
LINE
  5
4CF
100
AcDbEntity
  8
M01
100
AcDbLine
 10
449.257613
 20
537.160844
 30
0.0
 11
469.257613
 21
537.160844
 31
0.0
  0
LINE
  5
4D0
100
AcDbEntity
  8
M01
100
AcDbLine
 10
449.257613
 20
551.160844
 30
0.0
 11
469.257613
 21
551.160844
 31
0.0
  0
LINE
  5
4D1
100
AcDbEntity
  8
M01
100
AcDbLine
 10
449.257613
 20
561.160844
 30
0.0
 11
469.257613
 21
561.160844
 31
0.0
  0
LINE
  5
4D2
100
AcDbEntity
  8
DIMS
 62
     4
100
AcDbLine
 10
474.757613
 20
547.560844
 30
0.0
 11
474.757613
 21
549.860844
 31
0.0
  0
LINE
  5
4D3
100
AcDbEntity
  8
DIMS
 62
     4
100
AcDbLine
 10
474.757613
 20
540.760844
 30
0.0
 11
474.757613
 21
538.460844
 31
0.0
  0
LINE
  5
4D4
100
AcDbEntity
  8
DIMS
 62
     4
100
AcDbLine
 10
474.757613
 20
542.460844
 30
0.0
 11
474.757613
 21
545.860844
 31
0.0
  0
LINE
  5
4D5
100
AcDbEntity
  8
M01
100
AcDbLine
 10
427.357613
 20
559.191933
 30
0.0
 11
427.357613
 21
553.129755
 31
0.0
  0
ARC
  5
4D6
100
AcDbEntity
  8
M01
100
AcDbCircle
 10
429.206918
 20
553.129755
 30
0.0
 40
1.150694
100
AcDbArc
 50
298.592423
 51
61.407577
  0
ARC
  5
4D7
100
AcDbEntity
  8
M01
100
AcDbCircle
 10
426.654835
 20
556.160844
 30
0.0
 40
3.702778
100
AcDbArc
 50
326.92527
 51
33.07473
  0
ARC
  5
4D8
100
AcDbEntity
  8
M01
100
AcDbCircle
 10
429.206918
 20
559.191933
 30
0.0
 40
1.150694
100
AcDbArc
 50
298.592423
 51
61.407577
  0
ARC
  5
4D9
100
AcDbEntity
  8
M01
100
AcDbCircle
 10
428.508307
 20
553.129755
 30
0.0
 40
1.150694
100
AcDbArc
 50
118.592423
 51
241.407577
  0
ARC
  5
4DA
100
AcDbEntity
  8
M01
100
AcDbCircle
 10
431.06039
 20
556.160844
 30
0.0
 40
3.702778
100
AcDbArc
 50
146.92527
 51
213.07473
  0
LINE
  5
4DB
100
AcDbEntity
  8
M01
100
AcDbLine
 10
427.957613
 20
554.140118
 30
0.0
 11
429.757613
 21
554.140118
 31
0.0
  0
LINE
  5
4DC
100
AcDbEntity
  8
M01
100
AcDbLine
 10
427.957613
 20
552.119392
 30
0.0
 11
429.757613
 21
552.119392
 31
0.0
  0
ARC
  5
4DD
100
AcDbEntity
  8
M01
100
AcDbCircle
 10
428.508307
 20
559.191933
 30
0.0
 40
1.150694
100
AcDbArc
 50
118.592423
 51
241.407577
  0
LINE
  5
4DE
100
AcDbEntity
  8
M01
100
AcDbLine
 10
427.957613
 20
558.18157
 30
0.0
 11
429.757613
 21
558.18157
 31
0.0
  0
LINE
  5
4DF
100
AcDbEntity
  8
M01
100
AcDbLine
 10
427.957613
 20
560.202296
 30
0.0
 11
429.757613
 21
560.202296
 31
0.0
  0
LINE
  5
4E0
100
AcDbEntity
  8
M01
100
AcDbLine
 10
432.657613
 20
551.160844
 30
0.0
 11
431.157613
 21
551.160844
 31
0.0
  0
LINE
  5
4E1
100
AcDbEntity
  8
M01
100
AcDbLine
 10
432.657613
 20
561.160844
 30
0.0
 11
431.157613
 21
561.160844
 31
0.0
  0
LINE
  5
4E2
100
AcDbEntity
  8
M01
100
AcDbLine
 10
431.157613
 20
551.660844
 30
0.0
 11
430.357613
 21
551.660844
 31
0.0
  0
LINE
  5
4E3
100
AcDbEntity
  8
M01
100
AcDbLine
 10
431.157613
 20
560.660844
 30
0.0
 11
430.357613
 21
560.660844
 31
0.0
  0
LINE
  5
4E4
100
AcDbEntity
  8
M01
100
AcDbLine
 10
430.357613
 20
560.660844
 30
0.0
 11
430.357613
 21
551.660844
 31
0.0
  0
LINE
  5
4E5
100
AcDbEntity
  8
M01
100
AcDbLine
 10
431.157613
 20
561.160844
 30
0.0
 11
431.157613
 21
551.160844
 31
0.0
  0
LINE
  5
4E6
100
AcDbEntity
  8
M01
100
AcDbLine
 10
433.457613
 20
551.660844
 30
0.0
 11
432.657613
 21
551.660844
 31
0.0
  0
LINE
  5
4E7
100
AcDbEntity
  8
M01
100
AcDbLine
 10
433.457613
 20
560.660844
 30
0.0
 11
432.657613
 21
560.660844
 31
0.0
  0
LINE
  5
4E8
100
AcDbEntity
  8
M01
100
AcDbLine
 10
432.657613
 20
561.160844
 30
0.0
 11
432.657613
 21
551.160844
 31
0.0
  0
ARC
  5
4E9
100
AcDbEntity
  8
M01
100
AcDbCircle
 10
435.306918
 20
553.129755
 30
0.0
 40
1.150694
100
AcDbArc
 50
298.592423
 51
61.407577
  0
ARC
  5
4EA
100
AcDbEntity
  8
M01
100
AcDbCircle
 10
432.754835
 20
556.160844
 30
0.0
 40
3.702778
100
AcDbArc
 50
326.92527
 51
33.07473
  0
ARC
  5
4EB
100
AcDbEntity
  8
M01
100
AcDbCircle
 10
435.306918
 20
559.191933
 30
0.0
 40
1.150694
100
AcDbArc
 50
298.592423
 51
61.407577
  0
ARC
  5
4EC
100
AcDbEntity
  8
M01
100
AcDbCircle
 10
434.608307
 20
553.129755
 30
0.0
 40
1.150694
100
AcDbArc
 50
118.592423
 51
241.407577
  0
ARC
  5
4ED
100
AcDbEntity
  8
M01
100
AcDbCircle
 10
437.16039
 20
556.160844
 30
0.0
 40
3.702778
100
AcDbArc
 50
146.92527
 51
213.07473
  0
LINE
  5
4EE
100
AcDbEntity
  8
M01
100
AcDbLine
 10
434.057613
 20
554.140118
 30
0.0
 11
435.857613
 21
554.140118
 31
0.0
  0
LINE
  5
4EF
100
AcDbEntity
  8
M01
100
AcDbLine
 10
434.057613
 20
552.119392
 30
0.0
 11
435.857613
 21
552.119392
 31
0.0
  0
ARC
  5
4F0
100
AcDbEntity
  8
M01
100
AcDbCircle
 10
434.608307
 20
559.191933
 30
0.0
 40
1.150694
100
AcDbArc
 50
118.592423
 51
241.407577
  0
LINE
  5
4F1
100
AcDbEntity
  8
M01
100
AcDbLine
 10
434.057613
 20
558.18157
 30
0.0
 11
435.857613
 21
558.18157
 31
0.0
  0
LINE
  5
4F2
100
AcDbEntity
  8
M01
100
AcDbLine
 10
434.057613
 20
560.202296
 30
0.0
 11
435.857613
 21
560.202296
 31
0.0
  0
LINE
  5
4F3
100
AcDbEntity
  8
M01
100
AcDbLine
 10
433.457613
 20
560.660844
 30
0.0
 11
433.457613
 21
551.660844
 31
0.0
  0
LINE
  5
4F4
100
AcDbEntity
  8
M01
100
AcDbLine
 10
436.457613
 20
560.660844
 30
0.0
 11
436.457613
 21
551.660844
 31
0.0
  0
LINE
  5
4F5
100
AcDbEntity
  8
M01
100
AcDbLine
 10
424.257613
 20
554.660844
 30
0.0
 11
424.757613
 21
554.160844
 31
0.0
  0
LINE
  5
4F6
100
AcDbEntity
  8
M01
100
AcDbLine
 10
424.757613
 20
558.160844
 30
0.0
 11
424.257613
 21
557.660844
 31
0.0
  0
LINE
  5
4F7
100
AcDbEntity
  8
M01
100
AcDbLine
 10
424.757613
 20
558.160844
 30
0.0
 11
424.757613
 21
554.160844
 31
0.0
  0
LINE
  5
4F8
100
AcDbEntity
  8
M01
100
AcDbLine
 10
424.257613
 20
554.660844
 30
0.0
 11
427.357613
 21
554.660844
 31
0.0
  0
LINE
  5
4F9
100
AcDbEntity
  8
M01
100
AcDbLine
 10
424.257613
 20
557.660844
 30
0.0
 11
427.357613
 21
557.660844
 31
0.0
  0
LINE
  5
4FA
100
AcDbEntity
  8
M01
100
AcDbLine
 10
424.757613
 20
558.160844
 30
0.0
 11
427.357613
 21
558.160844
 31
0.0
  0
LINE
  5
4FB
100
AcDbEntity
  8
M01
100
AcDbLine
 10
424.757613
 20
554.160844
 30
0.0
 11
427.357613
 21
554.160844
 31
0.0
  0
LINE
  5
4FC
100
AcDbEntity
  8
M01
100
AcDbLine
 10
424.257613
 20
557.660844
 30
0.0
 11
424.257613
 21
554.660844
 31
0.0
  0
LINE
  5
4FD
100
AcDbEntity
  8
M01
100
AcDbLine
 10
449.257613
 20
561.160844
 30
0.0
 11
449.257613
 21
551.160844
 31
0.0
  0
LINE
  5
4FE
100
AcDbEntity
  8
CENTRE
100
AcDbLine
 10
418.096723
 20
556.160844
 30
0.0
 11
481.690155
 21
556.160844
 31
0.0
  0
LINE
  5
4FF
100
AcDbEntity
  8
M01
100
AcDbLine
 10
427.357613
 20
529.129755
 30
0.0
 11
427.357613
 21
535.191933
 31
0.0
  0
ARC
  5
500
100
AcDbEntity
  8
M01
100
AcDbCircle
 10
429.206918
 20
535.191933
 30
0.0
 40
1.150694
100
AcDbArc
 50
298.592423
 51
61.407577
  0
ARC
  5
501
100
AcDbEntity
  8
M01
100
AcDbCircle
 10
426.654835
 20
532.160844
 30
0.0
 40
3.702778
100
AcDbArc
 50
326.92527
 51
33.07473
  0
ARC
  5
502
100
AcDbEntity
  8
M01
100
AcDbCircle
 10
429.206918
 20
529.129755
 30
0.0
 40
1.150694
100
AcDbArc
 50
298.592423
 51
61.407577
  0
ARC
  5
503
100
AcDbEntity
  8
M01
100
AcDbCircle
 10
428.508307
 20
535.191933
 30
0.0
 40
1.150694
100
AcDbArc
 50
118.592423
 51
241.407577
  0
ARC
  5
504
100
AcDbEntity
  8
M01
100
AcDbCircle
 10
431.06039
 20
532.160844
 30
0.0
 40
3.702778
100
AcDbArc
 50
146.92527
 51
213.07473
  0
LINE
  5
505
100
AcDbEntity
  8
M01
100
AcDbLine
 10
427.957613
 20
534.18157
 30
0.0
 11
429.757613
 21
534.18157
 31
0.0
  0
LINE
  5
506
100
AcDbEntity
  8
M01
100
AcDbLine
 10
427.957613
 20
536.202296
 30
0.0
 11
429.757613
 21
536.202296
 31
0.0
  0
ARC
  5
507
100
AcDbEntity
  8
M01
100
AcDbCircle
 10
428.508307
 20
529.129755
 30
0.0
 40
1.150694
100
AcDbArc
 50
118.592423
 51
241.407577
  0
LINE
  5
508
100
AcDbEntity
  8
M01
100
AcDbLine
 10
427.957613
 20
530.140118
 30
0.0
 11
429.757613
 21
530.140118
 31
0.0
  0
LINE
  5
509
100
AcDbEntity
  8
M01
100
AcDbLine
 10
427.957613
 20
528.119392
 30
0.0
 11
429.757613
 21
528.119392
 31
0.0
  0
LINE
  5
50A
100
AcDbEntity
  8
M01
100
AcDbLine
 10
432.657613
 20
537.160844
 30
0.0
 11
431.157613
 21
537.160844
 31
0.0
  0
LINE
  5
50B
100
AcDbEntity
  8
M01
100
AcDbLine
 10
432.657613
 20
527.160844
 30
0.0
 11
431.157613
 21
527.160844
 31
0.0
  0
LINE
  5
50C
100
AcDbEntity
  8
M01
100
AcDbLine
 10
431.157613
 20
536.660844
 30
0.0
 11
430.357613
 21
536.660844
 31
0.0
  0
LINE
  5
50D
100
AcDbEntity
  8
M01
100
AcDbLine
 10
431.157613
 20
527.660844
 30
0.0
 11
430.357613
 21
527.660844
 31
0.0
  0
LINE
  5
50E
100
AcDbEntity
  8
M01
100
AcDbLine
 10
430.357613
 20
527.660844
 30
0.0
 11
430.357613
 21
536.660844
 31
0.0
  0
LINE
  5
50F
100
AcDbEntity
  8
M01
100
AcDbLine
 10
431.157613
 20
527.160844
 30
0.0
 11
431.157613
 21
537.160844
 31
0.0
  0
LINE
  5
510
100
AcDbEntity
  8
M01
100
AcDbLine
 10
433.457613
 20
536.660844
 30
0.0
 11
432.657613
 21
536.660844
 31
0.0
  0
LINE
  5
511
100
AcDbEntity
  8
M01
100
AcDbLine
 10
433.457613
 20
527.660844
 30
0.0
 11
432.657613
 21
527.660844
 31
0.0
  0
LINE
  5
512
100
AcDbEntity
  8
M01
100
AcDbLine
 10
432.657613
 20
527.160844
 30
0.0
 11
432.657613
 21
537.160844
 31
0.0
  0
ARC
  5
513
100
AcDbEntity
  8
M01
100
AcDbCircle
 10
435.306918
 20
535.191933
 30
0.0
 40
1.150694
100
AcDbArc
 50
298.592423
 51
61.407577
  0
ARC
  5
514
100
AcDbEntity
  8
M01
100
AcDbCircle
 10
432.754835
 20
532.160844
 30
0.0
 40
3.702778
100
AcDbArc
 50
326.92527
 51
33.07473
  0
ARC
  5
515
100
AcDbEntity
  8
M01
100
AcDbCircle
 10
435.306918
 20
529.129755
 30
0.0
 40
1.150694
100
AcDbArc
 50
298.592423
 51
61.407577
  0
ARC
  5
516
100
AcDbEntity
  8
M01
100
AcDbCircle
 10
434.608307
 20
535.191933
 30
0.0
 40
1.150694
100
AcDbArc
 50
118.592423
 51
241.407577
  0
ARC
  5
517
100
AcDbEntity
  8
M01
100
AcDbCircle
 10
437.16039
 20
532.160844
 30
0.0
 40
3.702778
100
AcDbArc
 50
146.92527
 51
213.07473
  0
LINE
  5
518
100
AcDbEntity
  8
M01
100
AcDbLine
 10
434.057613
 20
534.18157
 30
0.0
 11
435.857613
 21
534.18157
 31
0.0
  0
LINE
  5
519
100
AcDbEntity
  8
M01
100
AcDbLine
 10
434.057613
 20
536.202296
 30
0.0
 11
435.857613
 21
536.202296
 31
0.0
  0
ARC
  5
51A
100
AcDbEntity
  8
M01
100
AcDbCircle
 10
434.608307
 20
529.129755
 30
0.0
 40
1.150694
100
AcDbArc
 50
118.592423
 51
241.407577
  0
LINE
  5
51B
100
AcDbEntity
  8
M01
100
AcDbLine
 10
434.057613
 20
530.140118
 30
0.0
 11
435.857613
 21
530.140118
 31
0.0
  0
LINE
  5
51C
100
AcDbEntity
  8
M01
100
AcDbLine
 10
434.057613
 20
528.119392
 30
0.0
 11
435.857613
 21
528.119392
 31
0.0
  0
LINE
  5
51D
100
AcDbEntity
  8
M01
100
AcDbLine
 10
433.457613
 20
527.660844
 30
0.0
 11
433.457613
 21
536.660844
 31
0.0
  0
LINE
  5
51E
100
AcDbEntity
  8
M01
100
AcDbLine
 10
436.457613
 20
527.660844
 30
0.0
 11
436.457613
 21
536.660844
 31
0.0
  0
LINE
  5
51F
100
AcDbEntity
  8
M01
100
AcDbLine
 10
437.257613
 20
527.660844
 30
0.0
 11
437.257613
 21
536.660844
 31
0.0
  0
LINE
  5
520
100
AcDbEntity
  8
M04
100
AcDbLine
 10
409.257613
 20
561.160844
 30
0.0
 11
388.586134
 21
561.160844
 31
0.0
  0
LINE
  5
521
100
AcDbEntity
  8
M04
100
AcDbLine
 10
409.257613
 20
527.160844
 30
0.0
 11
388.586134
 21
527.160844
 31
0.0
  0
ARC
  5
522
100
AcDbEntity
  8
M04
100
AcDbCircle
 10
424.257613
 20
561.160844
 30
0.0
 40
15.0
100
AcDbArc
 50
90.0
 51
180.0
  0
ARC
  5
523
100
AcDbEntity
  8
M04
100
AcDbCircle
 10
424.257613
 20
527.160844
 30
0.0
 40
15.0
100
AcDbArc
 50
180.0
 51
270.0
  0
LINE
  5
524
100
AcDbEntity
  8
M04
100
AcDbLine
 10
409.257613
 20
527.160844
 30
0.0
 11
409.257613
 21
561.160844
 31
0.0
  0
LINE
  5
525
100
AcDbEntity
  8
M01
100
AcDbLine
 10
424.257613
 20
533.660844
 30
0.0
 11
424.757613
 21
534.160844
 31
0.0
  0
LINE
  5
526
100
AcDbEntity
  8
M01
100
AcDbLine
 10
424.757613
 20
530.160844
 30
0.0
 11
424.257613
 21
530.660844
 31
0.0
  0
LINE
  5
527
100
AcDbEntity
  8
M01
100
AcDbLine
 10
424.757613
 20
530.160844
 30
0.0
 11
424.757613
 21
534.160844
 31
0.0
  0
LINE
  5
528
100
AcDbEntity
  8
M01
100
AcDbLine
 10
424.257613
 20
533.660844
 30
0.0
 11
427.357613
 21
533.660844
 31
0.0
  0
LINE
  5
529
100
AcDbEntity
  8
M01
100
AcDbLine
 10
424.257613
 20
530.660844
 30
0.0
 11
427.357613
 21
530.660844
 31
0.0
  0
LINE
  5
52A
100
AcDbEntity
  8
M01
100
AcDbLine
 10
424.757613
 20
530.160844
 30
0.0
 11
427.357613
 21
530.160844
 31
0.0
  0
LINE
  5
52B
100
AcDbEntity
  8
M01
100
AcDbLine
 10
424.757613
 20
534.160844
 30
0.0
 11
427.357613
 21
534.160844
 31
0.0
  0
LINE
  5
52C
100
AcDbEntity
  8
M01
100
AcDbLine
 10
424.257613
 20
530.660844
 30
0.0
 11
424.257613
 21
533.660844
 31
0.0
  0
LINE
  5
52D
100
AcDbEntity
  8
M01
100
AcDbLine
 10
449.257613
 20
527.160844
 30
0.0
 11
449.257613
 21
537.160844
 31
0.0
  0
LINE
  5
52E
100
AcDbEntity
  8
M01
100
AcDbLine
 10
436.457613
 20
536.660844
 30
0.0
 11
437.257613
 21
536.660844
 31
0.0
  0
LINE
  5
52F
100
AcDbEntity
  8
M01
100
AcDbLine
 10
436.457613
 20
527.660844
 30
0.0
 11
437.257613
 21
527.660844
 31
0.0
  0
LINE
  5
530
100
AcDbEntity
  8
CENTRE
100
AcDbLine
 10
418.096723
 20
532.160844
 30
0.0
 11
481.690155
 21
532.160844
 31
0.0
  0
LINE
  5
531
100
AcDbEntity
  8
M04
100
AcDbLine
 10
424.257613
 20
512.160844
 30
0.0
 11
496.532216
 21
512.160844
 31
0.0
  0
LWPOLYLINE
  5
532
100
AcDbEntity
  8
M01
100
AcDbPolyline
 90
        2
 70
     0
 43
4.0
 10
474.757613
 20
546.160844
 42
0.414214
 10
472.757613
 20
544.160844
  0
LWPOLYLINE
  5
533
100
AcDbEntity
  8
M01
100
AcDbPolyline
 90
        2
 70
     0
 43
4.0
 10
474.757613
 20
542.160844
 42
0.414214
 10
476.757613
 20
544.160844
  0
CIRCLE
  5
534
100
AcDbEntity
  8
M01
100
AcDbCircle
 10
474.757613
 20
544.160844
 30
0.0
 40
4.0
  0
LINE
  5
535
100
AcDbEntity
  8
M01
100
AcDbLine
 10
477.257613
 20
548.160844
 30
0.0
 11
469.257613
 21
548.160844
 31
0.0
  0
LINE
  5
536
100
AcDbEntity
  8
M01
100
AcDbLine
 10
477.257613
 20
540.160844
 30
0.0
 11
469.257613
 21
540.160844
 31
0.0
  0
ARC
  5
537
100
AcDbEntity
  8
M01
100
AcDbCircle
 10
477.257613
 20
544.160844
 30
0.0
 40
4.0
100
AcDbArc
 50
270.0
 51
90.0
  0
LINE
  5
538
100
AcDbEntity
  8
M01
100
AcDbLine
 10
469.257613
 20
564.160844
 30
0.0
 11
471.257613
 21
566.160844
 31
0.0
  0
LINE
  5
539
100
AcDbEntity
  8
M01
100
AcDbLine
 10
471.257613
 20
522.160844
 30
0.0
 11
469.257613
 21
524.160844
 31
0.0
  0
LINE
  5
53A
100
AcDbEntity
  8
M01
100
AcDbLine
 10
469.257613
 20
524.160844
 30
0.0
 11
469.257613
 21
564.160844
 31
0.0
  0
LINE
  5
53B
100
AcDbEntity
  8
M01
100
AcDbLine
 10
471.257613
 20
566.160844
 30
0.0
 11
499.532216
 21
566.160844
 31
0.0
  0
LINE
  5
53C
100
AcDbEntity
  8
M01
100
AcDbLine
 10
471.257613
 20
522.160844
 30
0.0
 11
499.532216
 21
522.160844
 31
0.0
  0
LINE
  5
53D
100
AcDbEntity
  8
M03
100
AcDbLine
 10
536.08604
 20
609.489271
 30
0.0
 11
661.08604
 21
484.489271
 31
0.0
  0
LINE
  5
53E
100
AcDbEntity
  8
M03
100
AcDbLine
 10
530.429185
 20
603.832417
 30
0.0
 11
589.722294
 21
544.539308
 31
0.0
  0
LINE
  5
53F
100
AcDbEntity
  8
CENTRE
100
AcDbLine
 10
519.115477
 20
620.80298
 30
0.0
 11
647.399748
 21
492.518708
 31
0.0
  0
CIRCLE
  5
540
100
AcDbEntity
  8
M03
100
AcDbCircle
 10
720.757613
 20
544.160844
 30
0.0
 40
4.0
  0
CIRCLE
  5
541
100
AcDbEntity
  8
M01
100
AcDbCircle
 10
533.257613
 20
606.660844
 30
0.0
 40
4.0
  0
LINE
  5
542
100
AcDbEntity
  8
CENTRE
100
AcDbLine
 10
377.635032
 20
544.160844
 30
0.0
 11
938.880194
 21
544.160844
 31
0.0
  0
LINE
  5
543
100
AcDbEntity
  8
CENTRE
100
AcDbLine
 10
658.257613
 20
674.69383
 30
0.0
 11
658.257613
 21
413.627857
 31
0.0
  0
ENDSEC
  0
SECTION
  2
OBJECTS
  0
DICTIONARY
  5
1C
100
AcDbDictionary
  3
ACAD_GROUP
350
1A
  3
ACAD_MLINESTYLE
350
1B
  0
DICTIONARY
  5
3
100
AcDbDictionary
280
     1
  3
ACAD_SORTENTS
360
4
  0
DICTIONARY
  5
1A
102
{ACAD_REACTORS
330
1C
102
}
100
AcDbDictionary
  0
DICTIONARY
  5
1B
102
{ACAD_REACTORS
330
1C
102
}
100
AcDbDictionary
  3
STANDARD
350
1E
  0
SORTENTSTABLE
  5
4
102
{ACAD_REACTORS
330
3
102
}
100
AcDbSortentsTable
330
2
  0
MLINESTYLE
  5
1E
102
{ACAD_REACTORS
330
1B
102
}
100
AcDbMlineStyle
  2
STANDARD
 70
     0
  3

 62
   256
 51
90.0
 52
90.0
 71
     2
 49
0.5
 62
   256
  6
BYLAYER
 49
-0.5
 62
   256
  6
BYLAYER
  0
ENDSEC
  0
EOF
