  0
SECTION
  2
HEADER
  9
$ACADVER
  1
AC1014
  9
$ACADMAINTVER
 70
     9
  9
$DWGCODEPAGE
  3
ANSI_1252
  9
$INSBASE
 10
0.0
 20
0.0
 30
0.0
  9
$EXTMIN
 10
173.782646
 20
74.128736
 30
-0.222949
  9
$EXTMAX
 10
1173.151693
 20
726.150925
 30
0.0
  9
$LIMMIN
 10
0.0
 20
0.0
  9
$LIMMAX
 10
1189.0
 20
841.0
  9
$ORTHOMODE
 70
     1
  9
$REGENMODE
 70
     1
  9
$FILLMODE
 70
     1
  9
$QTEXTMODE
 70
     0
  9
$MIRRTEXT
 70
     1
  9
$DRAGMODE
 70
     2
  9
$LTSCALE
 40
8.0
  9
$OSMODE
 70
     0
  9
$ATTMODE
 70
     1
  9
$TEXTSIZE
 40
3.0
  9
$TRACEWID
 40
10.0
  9
$TEXTSTYLE
  7
STANDARD
  9
$CLAYER
  8
HATCH
  9
$CELTYPE
  6
BYLAYER
  9
$CECOLOR
 62
   256
  9
$CELTSCALE
 40
1.0
  9
$DELOBJ
 70
     1
  9
$DISPSILH
 70
     0
  9
$DIMSCALE
 40
1.0
  9
$DIMASZ
 40
3.0
  9
$DIMEXO
 40
1.0
  9
$DIMDLI
 40
10.0
  9
$DIMRND
 40
0.01
  9
$DIMDLE
 40
1.25
  9
$DIMEXE
 40
2.5
  9
$DIMTP
 40
0.05
  9
$DIMTM
 40
0.0
  9
$DIMTXT
 40
3.0
  9
$DIMCEN
 40
-1.7
  9
$DIMTSZ
 40
0.0
  9
$DIMTOL
 70
     0
  9
$DIMLIM
 70
     0
  9
$DIMTIH
 70
     0
  9
$DIMTOH
 70
     0
  9
$DIMSE1
 70
     0
  9
$DIMSE2
 70
     0
  9
$DIMTAD
 70
     3
  9
$DIMZIN
 70
     1
  9
$DIMBLK
  1

  9
$DIMASO
 70
     1
  9
$DIMSHO
 70
     0
  9
$DIMPOST
  1

  9
$DIMAPOST
  1

  9
$DIMALT
 70
     0
  9
$DIMALTD
 70
     2
  9
$DIMALTF
 40
0.039
  9
$DIMLFAC
 40
1.0
  9
$DIMTOFL
 70
     0
  9
$DIMTVP
 40
1.5
  9
$DIMTIX
 70
     0
  9
$DIMSOXD
 70
     0
  9
$DIMSAH
 70
     0
  9
$DIMBLK1
  1

  9
$DIMBLK2
  1

  9
$DIMSTYLE
  2
DIM1
  9
$DIMCLRD
 70
     4
  9
$DIMCLRE
 70
     4
  9
$DIMCLRT
 70
     2
  9
$DIMTFAC
 40
0.7
  9
$DIMGAP
 40
1.5
  9
$DIMJUST
 70
     0
  9
$DIMSD1
 70
     0
  9
$DIMSD2
 70
     0
  9
$DIMTOLJ
 70
     1
  9
$DIMTZIN
 70
     1
  9
$DIMALTZ
 70
     1
  9
$DIMALTTZ
 70
     1
  9
$DIMFIT
 70
     0
  9
$DIMUPT
 70
     0
  9
$DIMUNIT
 70
     2
  9
$DIMDEC
 70
     2
  9
$DIMTDEC
 70
     2
  9
$DIMALTU
 70
     2
  9
$DIMALTTD
 70
     2
  9
$DIMTXSTY
  7
STANDARD
  9
$DIMAUNIT
 70
     0
  9
$LUNITS
 70
     2
  9
$LUPREC
 70
     2
  9
$SKETCHINC
 40
1.0
  9
$FILLETRAD
 40
12.0
  9
$AUNITS
 70
     0
  9
$AUPREC
 70
     3
  9
$MENU
  1
ACAD
  9
$ELEVATION
 40
0.0
  9
$PELEVATION
 40
0.0
  9
$THICKNESS
 40
0.0
  9
$LIMCHECK
 70
     0
  9
$BLIPMODE
 70
     1
  9
$CHAMFERA
 40
7.0
  9
$CHAMFERB
 40
7.0
  9
$CHAMFERC
 40
0.0
  9
$CHAMFERD
 40
0.0
  9
$SKPOLY
 70
     1
  9
$TDCREATE
 40
2449993.725698611
  9
$TDUPDATE
 40
2452213.522921898
  9
$TDINDWG
 40
1.2233469676
  9
$TDUSRTIMER
 40
1.2233469676
  9
$USRTIMER
 70
     1
  9
$ANGBASE
 50
0.0
  9
$ANGDIR
 70
     0
  9
$PDMODE
 70
     3
  9
$PDSIZE
 40
0.0
  9
$PLINEWID
 40
0.0
  9
$COORDS
 70
     2
  9
$SPLFRAME
 70
     0
  9
$SPLINETYPE
 70
     6
  9
$SPLINESEGS
 70
     6
  9
$ATTDIA
 70
     1
  9
$ATTREQ
 70
     1
  9
$HANDLING
 70
     1
  9
$HANDSEED
  5
538
  9
$SURFTAB1
 70
    12
  9
$SURFTAB2
 70
    12
  9
$SURFTYPE
 70
     6
  9
$SURFU
 70
    12
  9
$SURFV
 70
    12
  9
$UCSNAME
  2

  9
$UCSORG
 10
0.0
 20
0.0
 30
0.0
  9
$UCSXDIR
 10
1.0
 20
0.0
 30
0.0
  9
$UCSYDIR
 10
0.0
 20
1.0
 30
0.0
  9
$PUCSNAME
  2

  9
$PUCSORG
 10
0.0
 20
0.0
 30
0.0
  9
$PUCSXDIR
 10
1.0
 20
0.0
 30
0.0
  9
$PUCSYDIR
 10
0.0
 20
1.0
 30
0.0
  9
$USERI1
 70
     0
  9
$USERI2
 70
     0
  9
$USERI3
 70
     0
  9
$USERI4
 70
     0
  9
$USERI5
 70
     0
  9
$USERR1
 40
0.0
  9
$USERR2
 40
0.0
  9
$USERR3
 40
0.0
  9
$USERR4
 40
0.0
  9
$USERR5
 40
0.0
  9
$WORLDVIEW
 70
     0
  9
$SHADEDGE
 70
     3
  9
$SHADEDIF
 70
    70
  9
$TILEMODE
 70
     1
  9
$MAXACTVP
 70
    16
  9
$PINSBASE
 10
0.0
 20
0.0
 30
0.0
  9
$PLIMCHECK
 70
     0
  9
$PEXTMIN
 10
1.000000E+20
 20
1.000000E+20
 30
1.000000E+20
  9
$PEXTMAX
 10
-1.000000E+20
 20
-1.000000E+20
 30
-1.000000E+20
  9
$PLIMMIN
 10
0.0
 20
0.0
  9
$PLIMMAX
 10
12.0
 20
9.0
  9
$UNITMODE
 70
     0
  9
$VISRETAIN
 70
     0
  9
$PLINEGEN
 70
     0
  9
$PSLTSCALE
 70
     0
  9
$TREEDEPTH
 70
  3020
  9
$PICKSTYLE
 70
     1
  9
$CMLSTYLE
  2
STANDARD
  9
$CMLJUST
 70
     0
  9
$CMLSCALE
 40
1.0
  9
$PROXYGRAPHICS
 70
     1
  9
$MEASUREMENT
 70
     0
  0
ENDSEC
  0
SECTION
  2
CLASSES
  0
CLASS
  1
DICTIONARYVAR
  2
AcDbDictionaryVar
  3
"AutoCAD"
 90
        0
280
     0
281
     0
  0
CLASS
  1
LWPOLYLINE
  2
AcDbPolyline
  3
"AutoCAD"
 90
        0
280
     0
281
     1
  0
CLASS
  1
HATCH
  2
AcDbHatch
  3
"ACAD_SEDONA"
 90
        0
280
     0
281
     1
  0
CLASS
  1
SORTENTSTABLE
  2
AcDbSortentsTable
  3
"AutoCAD"
 90
        0
280
     0
281
     0
  0
CLASS
  1
WIPEOUTVARIABLES
  2
AcDbWipeoutVariables
  3
WIPEOUT
 90
        0
280
     0
281
     0
  0
CLASS
  1
WIPEOUT
  2
AcDbWipeout
  3
WIPEOUT
 90
      127
280
     0
281
     1
  0
ENDSEC
  0
SECTION
  2
TABLES
  0
TABLE
  2
VPORT
  5
14
100
AcDbSymbolTable
 70
     2
  0
VPORT
  5
537
100
AcDbSymbolTableRecord
100
AcDbViewportTableRecord
  2
*ACTIVE
 70
     0
 10
0.0
 20
0.0
 11
1.0
 21
1.0
 12
602.038644
 22
407.720885
 13
0.0
 23
0.0
 14
10.0
 24
10.0
 15
0.0
 25
0.0
 16
0.0
 26
0.0
 36
1.0
 17
16.313321
 27
12.779115
 37
0.222949
 40
841.0
 41
1.470516
 42
50.0
 43
0.0
 44
0.0
 50
0.0
 51
0.0
 71
     0
 72
  2000
 73
     1
 74
     2
 75
     0
 76
     0
 77
     0
 78
     1
  0
ENDTAB
  0
TABLE
  2
LTYPE
  5
F
100
AcDbSymbolTable
 70
     3
  0
LTYPE
  5
10
100
AcDbSymbolTableRecord
100
AcDbLinetypeTableRecord
  2
BYBLOCK
 70
     0
  3

 72
    65
 73
     0
 40
0.0
  0
LTYPE
  5
11
100
AcDbSymbolTableRecord
100
AcDbLinetypeTableRecord
  2
BYLAYER
 70
     0
  3

 72
    65
 73
     0
 40
0.0
  0
LTYPE
  5
7
100
AcDbSymbolTableRecord
100
AcDbLinetypeTableRecord
  2
CONTINUOUS
 70
     0
  3
Solid line
 72
    65
 73
     0
 40
0.0
  0
LTYPE
  5
F0
100
AcDbSymbolTableRecord
100
AcDbLinetypeTableRecord
  2
CENTER
 70
     0
  3
Center ____ _ ____ _ ____ _ ____ _ ____ _ ____
 72
    65
 73
     4
 40
2.0
 49
1.25
 74
     0
 49
-0.25
 74
     0
 49
0.25
 74
     0
 49
-0.25
 74
     0
  0
LTYPE
  5
D1
100
AcDbSymbolTableRecord
100
AcDbLinetypeTableRecord
  2
HIDDEN
 70
     0
  3
Hidden __ __ __ __ __ __ __ __ __ __ __ __ __ _
 72
    65
 73
     2
 40
0.375
 49
0.25
 74
     0
 49
-0.125
 74
     0
  0
ENDTAB
  0
TABLE
  2
LAYER
  5
C
100
AcDbSymbolTable
 70
    11
  0
LAYER
  5
6
100
AcDbSymbolTableRecord
100
AcDbLayerTableRecord
  2
0
 70
     0
 62
     7
  6
CONTINUOUS
  0
LAYER
  5
EF
100
AcDbSymbolTableRecord
100
AcDbLayerTableRecord
  2
CENTRE
 70
     0
 62
     3
  6
CENTER
  0
LAYER
  5
26
100
AcDbSymbolTableRecord
100
AcDbLayerTableRecord
  2
M01
 70
     0
 62
     1
  6
CONTINUOUS
  0
LAYER
  5
155
100
AcDbSymbolTableRecord
100
AcDbLayerTableRecord
  2
M02
 70
     0
 62
     2
  6
CONTINUOUS
  0
LAYER
  5
D0
100
AcDbSymbolTableRecord
100
AcDbLayerTableRecord
  2
M03
 70
     0
 62
     2
  6
HIDDEN
  0
LAYER
  5
29
100
AcDbSymbolTableRecord
100
AcDbLayerTableRecord
  2
M04
 70
     0
 62
     7
  6
CONTINUOUS
  0
LAYER
  5
160
100
AcDbSymbolTableRecord
100
AcDbLayerTableRecord
  2
M05
 70
     0
 62
     5
  6
CONTINUOUS
  0
LAYER
  5
4E
100
AcDbSymbolTableRecord
100
AcDbLayerTableRecord
  2
DIMS
 70
     0
 62
     4
  6
CONTINUOUS
  0
LAYER
  5
21
100
AcDbSymbolTableRecord
100
AcDbLayerTableRecord
  2
TEXT
 70
     0
 62
     2
  6
CONTINUOUS
  0
LAYER
  5
1D
100
AcDbSymbolTableRecord
100
AcDbLayerTableRecord
  2
HATCH
 70
     0
 62
     4
  6
CONTINUOUS
  0
LAYER
  5
57
100
AcDbSymbolTableRecord
100
AcDbLayerTableRecord
  2
DEFPOINTS
 70
     0
 62
     7
  6
CONTINUOUS
  0
ENDTAB
  0
TABLE
  2
STYLE
  5
D
100
AcDbSymbolTable
 70
     1
  0
STYLE
  5
E
100
AcDbSymbolTableRecord
100
AcDbTextStyleTableRecord
  2
STANDARD
 70
     0
 40
0.0
 41
1.0
 50
0.0
 71
     0
 42
3.0
  3
SIMPLEX
  4

  0
ENDTAB
  0
TABLE
  2
VIEW
  5
12
100
AcDbSymbolTable
 70
     0
  0
ENDTAB
  0
TABLE
  2
UCS
  5
13
100
AcDbSymbolTable
 70
     0
  0
ENDTAB
  0
TABLE
  2
APPID
  5
16
100
AcDbSymbolTable
 70
     1
  0
APPID
  5
17
100
AcDbSymbolTableRecord
100
AcDbRegAppTableRecord
  2
ACAD
 70
     0
  0
ENDTAB
  0
TABLE
  2
DIMSTYLE
  5
18
100
AcDbSymbolTable
 70
     2
  0
DIMSTYLE
105
1F
102
{ACAD_REACTORS
330
332
330
324
330
316
330
309
330
2FB
330
1EA
330
1DC
330
1CF
330
1C1
330
82
330
76
330
69
330
5C
330
4D
102
}
100
AcDbSymbolTableRecord
100
AcDbDimStyleTableRecord
  2
DIM1
 70
     0
  3

  4

  5

  6

  7

 40
1.0
 41
3.0
 42
1.0
 43
10.0
 44
2.5
 45
0.01
 46
1.25
 47
0.05
 48
0.0
140
3.0
141
-1.7
142
0.0
143
0.039
144
0.2
145
1.5
146
0.7
147
1.5
 71
     0
 72
     0
 73
     0
 74
     0
 75
     0
 76
     0
 77
     3
 78
     1
170
     0
171
     2
172
     0
173
     0
174
     0
175
     0
176
     4
177
     4
178
     2
270
     2
271
     2
272
     2
273
     2
274
     2
340
E
275
     0
280
     0
281
     0
282
     0
283
     1
284
     1
285
     1
286
     1
287
     0
288
     0
  0
DIMSTYLE
105
21F
100
AcDbSymbolTableRecord
100
AcDbDimStyleTableRecord
  2
DIM1$7
 70
     0
  3

  4

  5

  6

  7

 40
1.0
 41
3.0
 42
1.0
 43
10.0
 44
2.5
 45
0.01
 46
1.25
 47
0.0
 48
0.0
140
3.0
141
-1.7
142
0.0
143
0.039
144
1.0
145
0.0
146
1.0
147
1.5
 71
     0
 72
     0
 73
     0
 74
     0
 75
     0
 76
     0
 77
     0
 78
     1
170
     0
171
     2
172
     0
173
     0
174
     0
175
     0
176
     4
177
     4
178
     2
270
     2
271
     2
272
     2
273
     2
274
     2
340
E
275
     0
280
     0
281
     0
282
     0
283
     1
284
     1
285
     1
286
     1
287
     0
288
     0
  0
ENDTAB
  0
TABLE
  2
BLOCK_RECORD
  5
1
100
AcDbSymbolTable
 70
    15
  0
BLOCK_RECORD
  5
2
102
{ACAD_XDICTIONARY
360
3
102
}
100
AcDbSymbolTableRecord
100
AcDbBlockTableRecord
  2
*MODEL_SPACE
  0
BLOCK_RECORD
  5
9
100
AcDbSymbolTableRecord
100
AcDbBlockTableRecord
  2
*PAPER_SPACE
  0
BLOCK_RECORD
  5
333
100
AcDbSymbolTableRecord
100
AcDbBlockTableRecord
  2
*D0
  0
BLOCK_RECORD
  5
325
100
AcDbSymbolTableRecord
100
AcDbBlockTableRecord
  2
*D1
  0
BLOCK_RECORD
  5
317
100
AcDbSymbolTableRecord
100
AcDbBlockTableRecord
  2
*D2
  0
BLOCK_RECORD
  5
30A
100
AcDbSymbolTableRecord
100
AcDbBlockTableRecord
  2
*D3
  0
BLOCK_RECORD
  5
2FC
100
AcDbSymbolTableRecord
100
AcDbBlockTableRecord
  2
*D4
  0
BLOCK_RECORD
  5
1EB
100
AcDbSymbolTableRecord
100
AcDbBlockTableRecord
  2
*D5
  0
BLOCK_RECORD
  5
1DD
100
AcDbSymbolTableRecord
100
AcDbBlockTableRecord
  2
*D6
  0
BLOCK_RECORD
  5
1D0
100
AcDbSymbolTableRecord
100
AcDbBlockTableRecord
  2
*D7
  0
BLOCK_RECORD
  5
1C2
100
AcDbSymbolTableRecord
100
AcDbBlockTableRecord
  2
*D8
  0
BLOCK_RECORD
  5
13E
100
AcDbSymbolTableRecord
100
AcDbBlockTableRecord
  2
ARROW1
  0
BLOCK_RECORD
  5
83
100
AcDbSymbolTableRecord
100
AcDbBlockTableRecord
  2
*D10
  0
BLOCK_RECORD
  5
77
100
AcDbSymbolTableRecord
100
AcDbBlockTableRecord
  2
*D11
  0
BLOCK_RECORD
  5
6A
100
AcDbSymbolTableRecord
100
AcDbBlockTableRecord
  2
*D12
  0
BLOCK_RECORD
  5
5D
100
AcDbSymbolTableRecord
100
AcDbBlockTableRecord
  2
*D13
  0
BLOCK_RECORD
  5
4F
100
AcDbSymbolTableRecord
100
AcDbBlockTableRecord
  2
*D14
  0
ENDTAB
  0
ENDSEC
  0
SECTION
  2
BLOCKS
  0
BLOCK
  5
5
100
AcDbEntity
  8
0
100
AcDbBlockBegin
  2
*MODEL_SPACE
 70
     0
 10
0.0
 20
0.0
 30
0.0
  3
*MODEL_SPACE
  1

  0
ENDBLK
  5
8
100
AcDbEntity
  8
0
100
AcDbBlockEnd
  0
BLOCK
  5
A
100
AcDbEntity
 67
     1
  8
0
100
AcDbBlockBegin
  2
*PAPER_SPACE
 70
     0
 10
0.0
 20
0.0
 30
0.0
  3
*PAPER_SPACE
  1

  0
ENDBLK
  5
B
100
AcDbEntity
 67
     1
  8
0
100
AcDbBlockEnd
  0
BLOCK
  5
33D
100
AcDbEntity
  8
0
100
AcDbBlockBegin
  2
*D0
 70
     1
 10
0.0
 20
0.0
 30
0.0
  3
*D0
  1

  0
LINE
  5
334
100
AcDbEntity
  8
0
  6
BYBLOCK
 62
     4
100
AcDbLine
 10
782.507613
 20
361.794428
 30
0.0
 11
828.73031
 21
361.794428
 31
0.0
  0
LINE
  5
335
100
AcDbEntity
  8
0
  6
BYBLOCK
 62
     4
100
AcDbLine
 10
784.507613
 20
301.794428
 30
0.0
 11
828.73031
 21
301.794428
 31
0.0
  0
LINE
  5
336
100
AcDbEntity
  8
0
  6
BYBLOCK
 62
     4
100
AcDbLine
 10
826.23031
 20
358.794428
 30
0.0
 11
826.23031
 21
304.794428
 31
0.0
  0
SOLID
  5
337
100
AcDbEntity
  8
0
  6
BYBLOCK
 62
     4
100
AcDbTrace
 10
825.73031
 20
358.794428
 30
0.0
 11
826.73031
 21
358.794428
 31
0.0
 12
826.23031
 22
361.794428
 32
0.0
 13
826.23031
 23
361.794428
 33
0.0
  0
SOLID
  5
338
100
AcDbEntity
  8
0
  6
BYBLOCK
 62
     4
100
AcDbTrace
 10
825.73031
 20
304.794428
 30
0.0
 11
826.73031
 21
304.794428
 31
0.0
 12
826.23031
 22
301.794428
 32
0.0
 13
826.23031
 23
301.794428
 33
0.0
  0
MTEXT
  5
339
100
AcDbEntity
  8
0
  6
BYBLOCK
 62
     2
100
AcDbMText
 10
823.23031
 20
331.794428
 30
0.0
 40
3.0
 41
0.0
 71
     5
 72
     1
  1
\A1;60.00
 11
0.0
 21
1.0
 31
0.0
  0
POINT
  5
33A
100
AcDbEntity
  8
DEFPOINTS
  6
BYBLOCK
 62
     0
100
AcDbPoint
 10
781.507613
 20
361.794428
 30
0.0
  0
POINT
  5
33B
100
AcDbEntity
  8
DEFPOINTS
  6
BYBLOCK
 62
     0
100
AcDbPoint
 10
783.507613
 20
301.794428
 30
0.0
  0
POINT
  5
33C
100
AcDbEntity
  8
DEFPOINTS
  6
BYBLOCK
 62
     0
100
AcDbPoint
 10
826.23031
 20
301.794428
 30
0.0
  0
ENDBLK
  5
33E
100
AcDbEntity
  8
0
100
AcDbBlockEnd
  0
BLOCK
  5
330
100
AcDbEntity
  8
0
100
AcDbBlockBegin
  2
*D1
 70
     1
 10
0.0
 20
0.0
 30
0.0
  3
*D1
  1

  0
LINE
  5
326
100
AcDbEntity
  8
0
  6
BYBLOCK
 62
     4
100
AcDbLine
 10
782.507613
 20
301.794428
 30
0.0
 11
828.73031
 21
301.794428
 31
0.0
  0
LINE
  5
327
100
AcDbEntity
  8
0
  6
BYBLOCK
 62
     4
100
AcDbLine
 10
803.019232
 20
294.794428
 30
0.0
 11
828.73031
 21
294.794428
 31
0.0
  0
LINE
  5
328
100
AcDbEntity
  8
0
  6
BYBLOCK
 62
     4
100
AcDbLine
 10
826.23031
 20
304.794428
 30
0.0
 11
826.23031
 21
307.794428
 31
0.0
  0
LINE
  5
329
100
AcDbEntity
  8
0
  6
BYBLOCK
 62
     4
100
AcDbLine
 10
826.23031
 20
291.794428
 30
0.0
 11
826.23031
 21
279.508714
 31
0.0
  0
SOLID
  5
32A
100
AcDbEntity
  8
0
  6
BYBLOCK
 62
     4
100
AcDbTrace
 10
825.73031
 20
304.794428
 30
0.0
 11
826.73031
 21
304.794428
 31
0.0
 12
826.23031
 22
301.794428
 32
0.0
 13
826.23031
 23
301.794428
 33
0.0
  0
SOLID
  5
32B
100
AcDbEntity
  8
0
  6
BYBLOCK
 62
     4
100
AcDbTrace
 10
825.73031
 20
291.794428
 30
0.0
 11
826.73031
 21
291.794428
 31
0.0
 12
826.23031
 22
294.794428
 32
0.0
 13
826.23031
 23
294.794428
 33
0.0
  0
MTEXT
  5
32C
100
AcDbEntity
  8
0
  6
BYBLOCK
 62
     2
100
AcDbMText
 10
823.23031
 20
284.151571
 30
0.0
 40
3.0
 41
0.0
 71
     5
 72
     1
  1
\A1;7.0
 11
0.0
 21
1.0
 31
0.0
  0
POINT
  5
32D
100
AcDbEntity
  8
DEFPOINTS
  6
BYBLOCK
 62
     0
100
AcDbPoint
 10
781.507613
 20
301.794428
 30
0.0
  0
POINT
  5
32E
100
AcDbEntity
  8
DEFPOINTS
  6
BYBLOCK
 62
     0
100
AcDbPoint
 10
802.019232
 20
294.794428
 30
0.0
  0
POINT
  5
32F
100
AcDbEntity
  8
DEFPOINTS
  6
BYBLOCK
 62
     0
100
AcDbPoint
 10
826.23031
 20
294.794428
 30
0.0
  0
ENDBLK
  5
331
100
AcDbEntity
  8
0
100
AcDbBlockEnd
  0
BLOCK
  5
322
100
AcDbEntity
  8
0
100
AcDbBlockBegin
  2
*D2
 70
     1
 10
0.0
 20
0.0
 30
0.0
  3
*D2
  1

  0
LINE
  5
318
100
AcDbEntity
  8
0
  6
BYBLOCK
 62
     4
100
AcDbLine
 10
782.507613
 20
361.794428
 30
0.0
 11
828.73031
 21
361.794428
 31
0.0
  0
LINE
  5
319
100
AcDbEntity
  8
0
  6
BYBLOCK
 62
     4
100
AcDbLine
 10
791.505841
 20
368.794428
 30
0.0
 11
828.73031
 21
368.794428
 31
0.0
  0
LINE
  5
31A
100
AcDbEntity
  8
0
  6
BYBLOCK
 62
     4
100
AcDbLine
 10
826.23031
 20
358.794428
 30
0.0
 11
826.23031
 21
355.794428
 31
0.0
  0
LINE
  5
31B
100
AcDbEntity
  8
0
  6
BYBLOCK
 62
     4
100
AcDbLine
 10
826.23031
 20
371.794428
 30
0.0
 11
826.23031
 21
384.080142
 31
0.0
  0
SOLID
  5
31C
100
AcDbEntity
  8
0
  6
BYBLOCK
 62
     4
100
AcDbTrace
 10
825.73031
 20
358.794428
 30
0.0
 11
826.73031
 21
358.794428
 31
0.0
 12
826.23031
 22
361.794428
 32
0.0
 13
826.23031
 23
361.794428
 33
0.0
  0
SOLID
  5
31D
100
AcDbEntity
  8
0
  6
BYBLOCK
 62
     4
100
AcDbTrace
 10
825.73031
 20
371.794428
 30
0.0
 11
826.73031
 21
371.794428
 31
0.0
 12
826.23031
 22
368.794428
 32
0.0
 13
826.23031
 23
368.794428
 33
0.0
  0
MTEXT
  5
31E
100
AcDbEntity
  8
0
  6
BYBLOCK
 62
     2
100
AcDbMText
 10
823.23031
 20
379.437285
 30
0.0
 40
3.0
 41
0.0
 71
     5
 72
     1
  1
\A1;7.0
 11
0.0
 21
1.0
 31
0.0
  0
POINT
  5
31F
100
AcDbEntity
  8
DEFPOINTS
  6
BYBLOCK
 62
     0
100
AcDbPoint
 10
781.507613
 20
361.794428
 30
0.0
  0
POINT
  5
320
100
AcDbEntity
  8
DEFPOINTS
  6
BYBLOCK
 62
     0
100
AcDbPoint
 10
790.505841
 20
368.794428
 30
0.0
  0
POINT
  5
321
100
AcDbEntity
  8
DEFPOINTS
  6
BYBLOCK
 62
     0
100
AcDbPoint
 10
826.23031
 20
368.794428
 30
0.0
  0
ENDBLK
  5
323
100
AcDbEntity
  8
0
100
AcDbBlockEnd
  0
BLOCK
  5
314
100
AcDbEntity
  8
0
100
AcDbBlockBegin
  2
*D3
 70
     1
 10
0.0
 20
0.0
 30
0.0
  3
*D3
  1

  0
LINE
  5
30B
100
AcDbEntity
  8
0
  6
BYBLOCK
 62
     4
100
AcDbLine
 10
870.818995
 20
-32.251076
 30
0.0
 11
870.818995
 21
-70.066192
 31
0.0
  0
LINE
  5
30C
100
AcDbEntity
  8
0
  6
BYBLOCK
 62
     4
100
AcDbLine
 10
830.818995
 20
-32.251076
 30
0.0
 11
830.818995
 21
-70.066192
 31
0.0
  0
LINE
  5
30D
100
AcDbEntity
  8
0
  6
BYBLOCK
 62
     4
100
AcDbLine
 10
867.818995
 20
-67.566192
 30
0.0
 11
833.818995
 21
-67.566192
 31
0.0
  0
SOLID
  5
30E
100
AcDbEntity
  8
0
  6
BYBLOCK
 62
     4
100
AcDbTrace
 10
867.818995
 20
-67.066192
 30
0.0
 11
867.818995
 21
-68.066192
 31
0.0
 12
870.818995
 22
-67.566192
 32
0.0
 13
870.818995
 23
-67.566192
 33
0.0
  0
SOLID
  5
30F
100
AcDbEntity
  8
0
  6
BYBLOCK
 62
     4
100
AcDbTrace
 10
833.818995
 20
-67.066192
 30
0.0
 11
833.818995
 21
-68.066192
 31
0.0
 12
830.818995
 22
-67.566192
 32
0.0
 13
830.818995
 23
-67.566192
 33
0.0
  0
MTEXT
  5
310
100
AcDbEntity
  8
0
  6
BYBLOCK
 62
     2
100
AcDbMText
 10
850.818995
 20
-64.566192
 30
0.0
 40
3.0
 41
0.0
 71
     5
 72
     1
  1
\A1;\U+220540.00 H7
  0
POINT
  5
311
100
AcDbEntity
  8
DEFPOINTS
  6
BYBLOCK
 62
     0
100
AcDbPoint
 10
870.818995
 20
-31.251076
 30
0.0
  0
POINT
  5
312
100
AcDbEntity
  8
DEFPOINTS
  6
BYBLOCK
 62
     0
100
AcDbPoint
 10
830.818995
 20
-31.251076
 30
0.0
  0
POINT
  5
313
100
AcDbEntity
  8
DEFPOINTS
  6
BYBLOCK
 62
     0
100
AcDbPoint
 10
830.818995
 20
-67.566192
 30
0.0
  0
ENDBLK
  5
315
100
AcDbEntity
  8
0
100
AcDbBlockEnd
  0
BLOCK
  5
307
100
AcDbEntity
  8
0
100
AcDbBlockBegin
  2
*D4
 70
     1
 10
0.0
 20
0.0
 30
0.0
  3
*D4
  1

  0
LINE
  5
2FD
100
AcDbEntity
  8
0
  6
BYBLOCK
 62
     4
100
AcDbLine
 10
248.765534
 20
25.51995
 30
0.0
 11
248.765534
 21
41.696115
 31
0.0
  0
LINE
  5
2FE
100
AcDbEntity
  8
0
  6
BYBLOCK
 62
     4
100
AcDbLine
 10
256.765534
 20
25.51995
 30
0.0
 11
256.765534
 21
41.696115
 31
0.0
  0
LINE
  5
2FF
100
AcDbEntity
  8
0
  6
BYBLOCK
 62
     4
100
AcDbLine
 10
245.765534
 20
39.196115
 30
0.0
 11
242.765534
 21
39.196115
 31
0.0
  0
LINE
  5
300
100
AcDbEntity
  8
0
  6
BYBLOCK
 62
     4
100
AcDbLine
 10
259.765534
 20
39.196115
 30
0.0
 11
286.336963
 21
39.196115
 31
0.0
  0
SOLID
  5
301
100
AcDbEntity
  8
0
  6
BYBLOCK
 62
     4
100
AcDbTrace
 10
245.765534
 20
39.696115
 30
0.0
 11
245.765534
 21
38.696115
 31
0.0
 12
248.765534
 22
39.196115
 32
0.0
 13
248.765534
 23
39.196115
 33
0.0
  0
SOLID
  5
302
100
AcDbEntity
  8
0
  6
BYBLOCK
 62
     4
100
AcDbTrace
 10
259.765534
 20
39.696115
 30
0.0
 11
259.765534
 21
38.696115
 31
0.0
 12
256.765534
 22
39.196115
 32
0.0
 13
256.765534
 23
39.196115
 33
0.0
  0
MTEXT
  5
303
100
AcDbEntity
  8
0
  6
BYBLOCK
 62
     2
100
AcDbMText
 10
274.551249
 20
42.196115
 30
0.0
 40
3.0
 41
0.0
 71
     5
 72
     1
  1
\A1;\U+22058.00 H7
  0
POINT
  5
304
100
AcDbEntity
  8
DEFPOINTS
  6
BYBLOCK
 62
     0
100
AcDbPoint
 10
248.765534
 20
24.51995
 30
0.0
  0
POINT
  5
305
100
AcDbEntity
  8
DEFPOINTS
  6
BYBLOCK
 62
     0
100
AcDbPoint
 10
256.765534
 20
24.51995
 30
0.0
  0
POINT
  5
306
100
AcDbEntity
  8
DEFPOINTS
  6
BYBLOCK
 62
     0
100
AcDbPoint
 10
256.765534
 20
39.196115
 30
0.0
  0
ENDBLK
  5
308
100
AcDbEntity
  8
0
100
AcDbBlockEnd
  0
BLOCK
  5
1F6
100
AcDbEntity
  8
0
100
AcDbBlockBegin
  2
*D5
 70
     1
 10
0.0
 20
0.0
 30
0.0
  3
*D5
  1

  0
LINE
  5
1EC
100
AcDbEntity
  8
0
  6
BYBLOCK
 62
     4
100
AcDbLine
 10
1180.619986
 20
-78.194062
 30
0.0
 11
1198.907003
 21
-78.194062
 31
0.0
  0
LINE
  5
1ED
100
AcDbEntity
  8
0
  6
BYBLOCK
 62
     4
100
AcDbLine
 10
1181.119986
 20
-61.194062
 30
0.0
 11
1198.907003
 21
-61.194062
 31
0.0
  0
LINE
  5
1EE
100
AcDbEntity
  8
0
  6
BYBLOCK
 62
     4
100
AcDbLine
 10
1196.407003
 20
-81.194062
 30
0.0
 11
1196.407003
 21
-84.194062
 31
0.0
  0
LINE
  5
1EF
100
AcDbEntity
  8
0
  6
BYBLOCK
 62
     4
100
AcDbLine
 10
1196.407003
 20
-58.194062
 30
0.0
 11
1196.407003
 21
-40.76549
 31
0.0
  0
SOLID
  5
1F0
100
AcDbEntity
  8
0
  6
BYBLOCK
 62
     4
100
AcDbTrace
 10
1195.907003
 20
-81.194062
 30
0.0
 11
1196.907003
 21
-81.194062
 31
0.0
 12
1196.407003
 22
-78.194062
 32
0.0
 13
1196.407003
 23
-78.194062
 33
0.0
  0
SOLID
  5
1F1
100
AcDbEntity
  8
0
  6
BYBLOCK
 62
     4
100
AcDbTrace
 10
1195.907003
 20
-58.194062
 30
0.0
 11
1196.907003
 21
-58.194062
 31
0.0
 12
1196.407003
 22
-61.194062
 32
0.0
 13
1196.407003
 23
-61.194062
 33
0.0
  0
MTEXT
  5
1F2
100
AcDbEntity
  8
0
  6
BYBLOCK
 62
     2
100
AcDbMText
 10
1193.407003
 20
-47.979776
 30
0.0
 40
3.0
 41
0.0
 71
     5
 72
     1
  1
\A1;17.00
 11
0.0
 21
1.0
 31
0.0
  0
POINT
  5
1F3
100
AcDbEntity
  8
DEFPOINTS
  6
BYBLOCK
 62
     0
100
AcDbPoint
 10
1179.619986
 20
-78.194062
 30
0.0
  0
POINT
  5
1F4
100
AcDbEntity
  8
DEFPOINTS
  6
BYBLOCK
 62
     0
100
AcDbPoint
 10
1180.119986
 20
-61.194062
 30
0.0
  0
POINT
  5
1F5
100
AcDbEntity
  8
DEFPOINTS
  6
BYBLOCK
 62
     0
100
AcDbPoint
 10
1196.407003
 20
-61.194062
 30
0.0
  0
ENDBLK
  5
1F7
100
AcDbEntity
  8
0
100
AcDbBlockEnd
  0
BLOCK
  5
1E8
100
AcDbEntity
  8
0
100
AcDbBlockBegin
  2
*D6
 70
     1
 10
0.0
 20
0.0
 30
0.0
  3
*D6
  1

  0
LINE
  5
1DE
100
AcDbEntity
  8
0
  6
BYBLOCK
 62
     4
100
AcDbLine
 10
1180.119986
 20
-60.194062
 30
0.0
 11
1180.119986
 21
-41.044247
 31
0.0
  0
LINE
  5
1DF
100
AcDbEntity
  8
0
  6
BYBLOCK
 62
     4
100
AcDbLine
 10
1160.119986
 20
-60.194062
 30
0.0
 11
1160.119986
 21
-41.044247
 31
0.0
  0
LINE
  5
1E0
100
AcDbEntity
  8
0
  6
BYBLOCK
 62
     4
100
AcDbLine
 10
1183.119986
 20
-43.544247
 30
0.0
 11
1186.119986
 21
-43.544247
 31
0.0
  0
LINE
  5
1E1
100
AcDbEntity
  8
0
  6
BYBLOCK
 62
     4
100
AcDbLine
 10
1157.119986
 20
-43.544247
 30
0.0
 11
1127.691415
 21
-43.544247
 31
0.0
  0
SOLID
  5
1E2
100
AcDbEntity
  8
0
  6
BYBLOCK
 62
     4
100
AcDbTrace
 10
1183.119986
 20
-43.044247
 30
0.0
 11
1183.119986
 21
-44.044247
 31
0.0
 12
1180.119986
 22
-43.544247
 32
0.0
 13
1180.119986
 23
-43.544247
 33
0.0
  0
SOLID
  5
1E3
100
AcDbEntity
  8
0
  6
BYBLOCK
 62
     4
100
AcDbTrace
 10
1157.119986
 20
-43.044247
 30
0.0
 11
1157.119986
 21
-44.044247
 31
0.0
 12
1160.119986
 22
-43.544247
 32
0.0
 13
1160.119986
 23
-43.544247
 33
0.0
  0
MTEXT
  5
1E4
100
AcDbEntity
  8
0
  6
BYBLOCK
 62
     2
100
AcDbMText
 10
1140.905701
 20
-40.544247
 30
0.0
 40
3.0
 41
0.0
 71
     5
 72
     1
  1
\A1;\U+220520.00 H7
  0
POINT
  5
1E5
100
AcDbEntity
  8
DEFPOINTS
  6
BYBLOCK
 62
     0
100
AcDbPoint
 10
1180.119986
 20
-61.194062
 30
0.0
  0
POINT
  5
1E6
100
AcDbEntity
  8
DEFPOINTS
  6
BYBLOCK
 62
     0
100
AcDbPoint
 10
1160.119986
 20
-61.194062
 30
0.0
  0
POINT
  5
1E7
100
AcDbEntity
  8
DEFPOINTS
  6
BYBLOCK
 62
     0
100
AcDbPoint
 10
1160.119986
 20
-43.544247
 30
0.0
  0
ENDBLK
  5
1E9
100
AcDbEntity
  8
0
100
AcDbBlockEnd
  0
BLOCK
  5
1DA
100
AcDbEntity
  8
0
100
AcDbBlockBegin
  2
*D7
 70
     1
 10
0.0
 20
0.0
 30
0.0
  3
*D7
  1

  0
LINE
  5
1D1
100
AcDbEntity
  8
0
  6
BYBLOCK
 62
     4
100
AcDbLine
 10
1181.119986
 20
-65.771412
 30
0.0
 11
1181.119986
 21
-31.166834
 31
0.0
  0
LINE
  5
1D2
100
AcDbEntity
  8
0
  6
BYBLOCK
 62
     4
100
AcDbLine
 10
1159.119986
 20
-65.771412
 30
0.0
 11
1159.119986
 21
-31.166834
 31
0.0
  0
LINE
  5
1D3
100
AcDbEntity
  8
0
  6
BYBLOCK
 62
     4
100
AcDbLine
 10
1178.119986
 20
-33.666834
 30
0.0
 11
1162.119986
 21
-33.666834
 31
0.0
  0
SOLID
  5
1D4
100
AcDbEntity
  8
0
  6
BYBLOCK
 62
     4
100
AcDbTrace
 10
1178.119986
 20
-33.166834
 30
0.0
 11
1178.119986
 21
-34.166834
 31
0.0
 12
1181.119986
 22
-33.666834
 32
0.0
 13
1181.119986
 23
-33.666834
 33
0.0
  0
SOLID
  5
1D5
100
AcDbEntity
  8
0
  6
BYBLOCK
 62
     4
100
AcDbTrace
 10
1162.119986
 20
-33.166834
 30
0.0
 11
1162.119986
 21
-34.166834
 31
0.0
 12
1159.119986
 22
-33.666834
 32
0.0
 13
1159.119986
 23
-33.666834
 33
0.0
  0
MTEXT
  5
1D6
100
AcDbEntity
  8
0
  6
BYBLOCK
 62
     2
100
AcDbMText
 10
1170.119986
 20
-30.666834
 30
0.0
 40
3.0
 41
0.0
 71
     5
 72
     1
  1
\A1;22.00
  0
POINT
  5
1D7
100
AcDbEntity
  8
DEFPOINTS
  6
BYBLOCK
 62
     0
100
AcDbPoint
 10
1181.119986
 20
-66.771412
 30
0.0
  0
POINT
  5
1D8
100
AcDbEntity
  8
DEFPOINTS
  6
BYBLOCK
 62
     0
100
AcDbPoint
 10
1159.119986
 20
-66.771412
 30
0.0
  0
POINT
  5
1D9
100
AcDbEntity
  8
DEFPOINTS
  6
BYBLOCK
 62
     0
100
AcDbPoint
 10
1159.119986
 20
-33.666834
 30
0.0
  0
ENDBLK
  5
1DB
100
AcDbEntity
  8
0
100
AcDbBlockEnd
  0
BLOCK
  5
1CD
100
AcDbEntity
  8
0
100
AcDbBlockBegin
  2
*D8
 70
     1
 10
0.0
 20
0.0
 30
0.0
  3
*D8
  1

  0
LINE
  5
1C3
100
AcDbEntity
  8
0
  6
BYBLOCK
 62
     4
100
AcDbLine
 10
1158.119986
 20
-71.194062
 30
0.0
 11
1134.331964
 21
-71.194062
 31
0.0
  0
LINE
  5
1C4
100
AcDbEntity
  8
0
  6
BYBLOCK
 62
     4
100
AcDbLine
 10
1159.119986
 20
-66.194062
 30
0.0
 11
1134.331964
 21
-66.194062
 31
0.0
  0
LINE
  5
1C5
100
AcDbEntity
  8
0
  6
BYBLOCK
 62
     4
100
AcDbLine
 10
1136.831964
 20
-74.194062
 30
0.0
 11
1136.831964
 21
-77.194062
 31
0.0
  0
LINE
  5
1C6
100
AcDbEntity
  8
0
  6
BYBLOCK
 62
     4
100
AcDbLine
 10
1136.831964
 20
-63.194062
 30
0.0
 11
1136.831964
 21
-50.908347
 31
0.0
  0
SOLID
  5
1C7
100
AcDbEntity
  8
0
  6
BYBLOCK
 62
     4
100
AcDbTrace
 10
1136.331964
 20
-74.194062
 30
0.0
 11
1137.331964
 21
-74.194062
 31
0.0
 12
1136.831964
 22
-71.194062
 32
0.0
 13
1136.831964
 23
-71.194062
 33
0.0
  0
SOLID
  5
1C8
100
AcDbEntity
  8
0
  6
BYBLOCK
 62
     4
100
AcDbTrace
 10
1136.331964
 20
-63.194062
 30
0.0
 11
1137.331964
 21
-63.194062
 31
0.0
 12
1136.831964
 22
-66.194062
 32
0.0
 13
1136.831964
 23
-66.194062
 33
0.0
  0
MTEXT
  5
1C9
100
AcDbEntity
  8
0
  6
BYBLOCK
 62
     2
100
AcDbMText
 10
1133.831964
 20
-55.551204
 30
0.0
 40
3.0
 41
0.0
 71
     5
 72
     1
  1
\A1;5.0
 11
0.0
 21
1.0
 31
0.0
  0
POINT
  5
1CA
100
AcDbEntity
  8
DEFPOINTS
  6
BYBLOCK
 62
     0
100
AcDbPoint
 10
1159.119986
 20
-71.194062
 30
0.0
  0
POINT
  5
1CB
100
AcDbEntity
  8
DEFPOINTS
  6
BYBLOCK
 62
     0
100
AcDbPoint
 10
1160.119986
 20
-66.194062
 30
0.0
  0
POINT
  5
1CC
100
AcDbEntity
  8
DEFPOINTS
  6
BYBLOCK
 62
     0
100
AcDbPoint
 10
1136.831964
 20
-66.194062
 30
0.0
  0
ENDBLK
  5
1CE
100
AcDbEntity
  8
0
100
AcDbBlockEnd
  0
BLOCK
  5
142
100
AcDbEntity
  8
0
100
AcDbBlockBegin
  2
ARROW1
 70
     0
 10
0.0
 20
0.0
 30
0.0
  3
ARROW1
  1

  0
LINE
  5
13F
100
AcDbEntity
  8
0
100
AcDbLine
 10
-1.0
 20
-0.2
 30
0.0
 11
-1.0
 21
0.0
 31
0.0
  0
LINE
  5
140
100
AcDbEntity
  8
0
100
AcDbLine
 10
0.0
 20
0.0
 30
0.0
 11
-1.0
 21
-0.2
 31
0.0
  0
SOLID
  5
141
100
AcDbEntity
  8
0
100
AcDbTrace
 10
0.0
 20
0.0
 30
0.0
 11
-1.0
 21
0.2
 31
0.0
 12
-1.0
 22
0.0
 32
0.0
 13
-1.0
 23
0.0
 33
0.0
  0
ENDBLK
  5
143
100
AcDbEntity
  8
0
100
AcDbBlockEnd
  0
BLOCK
  5
8D
100
AcDbEntity
  8
0
100
AcDbBlockBegin
  2
*D10
 70
     1
 10
0.0
 20
0.0
 30
0.0
  3
*D10
  1

  0
LINE
  5
84
100
AcDbEntity
  8
0
  6
BYBLOCK
 62
     4
100
AcDbLine
 10
558.257613
 20
599.360844
 30
0.0
 11
558.257613
 21
672.643649
 31
0.0
  0
LINE
  5
85
100
AcDbEntity
  8
0
  6
BYBLOCK
 62
     4
100
AcDbLine
 10
658.257613
 20
655.69383
 30
0.0
 11
658.257613
 21
672.643649
 31
0.0
  0
LINE
  5
86
100
AcDbEntity
  8
0
  6
BYBLOCK
 62
     4
100
AcDbLine
 10
561.257613
 20
670.143649
 30
0.0
 11
655.257613
 21
670.143649
 31
0.0
  0
SOLID
  5
87
100
AcDbEntity
  8
0
  6
BYBLOCK
 62
     4
100
AcDbTrace
 10
561.257613
 20
670.643649
 30
0.0
 11
561.257613
 21
669.643649
 31
0.0
 12
558.257613
 22
670.143649
 32
0.0
 13
558.257613
 23
670.143649
 33
0.0
  0
SOLID
  5
88
100
AcDbEntity
  8
0
  6
BYBLOCK
 62
     4
100
AcDbTrace
 10
655.257613
 20
670.643649
 30
0.0
 11
655.257613
 21
669.643649
 31
0.0
 12
658.257613
 22
670.143649
 32
0.0
 13
658.257613
 23
670.143649
 33
0.0
  0
MTEXT
  5
89
100
AcDbEntity
  8
0
  6
BYBLOCK
 62
     2
100
AcDbMText
 10
608.257613
 20
673.143649
 30
0.0
 40
3.0
 41
0.0
 71
     5
 72
     1
  1
\A1;A=100.00
  0
POINT
  5
8A
100
AcDbEntity
  8
DEFPOINTS
  6
BYBLOCK
 62
     0
100
AcDbPoint
 10
558.257613
 20
598.360844
 30
0.0
  0
POINT
  5
8B
100
AcDbEntity
  8
DEFPOINTS
  6
BYBLOCK
 62
     0
100
AcDbPoint
 10
658.257613
 20
654.69383
 30
0.0
  0
POINT
  5
8C
100
AcDbEntity
  8
DEFPOINTS
  6
BYBLOCK
 62
     0
100
AcDbPoint
 10
658.257613
 20
670.143649
 30
0.0
  0
ENDBLK
  5
8E
100
AcDbEntity
  8
0
100
AcDbBlockEnd
  0
BLOCK
  5
80
100
AcDbEntity
  8
0
100
AcDbBlockBegin
  2
*D11
 70
     1
 10
0.0
 20
0.0
 30
0.0
  3
*D11
  1

  0
LINE
  5
78
100
AcDbEntity
  8
0
  6
BYBLOCK
 62
     4
100
AcDbLine
 10
758.257613
 20
599.360844
 30
0.0
 11
758.257613
 21
672.643649
 31
0.0
  0
LINE
  5
79
100
AcDbEntity
  8
0
  6
BYBLOCK
 62
     4
100
AcDbLine
 10
661.257613
 20
670.143649
 30
0.0
 11
755.257613
 21
670.143649
 31
0.0
  0
SOLID
  5
7A
100
AcDbEntity
  8
0
  6
BYBLOCK
 62
     4
100
AcDbTrace
 10
661.257613
 20
670.643649
 30
0.0
 11
661.257613
 21
669.643649
 31
0.0
 12
658.257613
 22
670.143649
 32
0.0
 13
658.257613
 23
670.143649
 33
0.0
  0
SOLID
  5
7B
100
AcDbEntity
  8
0
  6
BYBLOCK
 62
     4
100
AcDbTrace
 10
755.257613
 20
670.643649
 30
0.0
 11
755.257613
 21
669.643649
 31
0.0
 12
758.257613
 22
670.143649
 32
0.0
 13
758.257613
 23
670.143649
 33
0.0
  0
MTEXT
  5
7C
100
AcDbEntity
  8
0
  6
BYBLOCK
 62
     2
100
AcDbMText
 10
708.257613
 20
673.143649
 30
0.0
 40
3.0
 41
0.0
 71
     5
 72
     1
  1
\A1;A=100.00
  0
POINT
  5
7D
100
AcDbEntity
  8
DEFPOINTS
  6
BYBLOCK
 62
     0
100
AcDbPoint
 10
658.257613
 20
654.69383
 30
0.0
  0
POINT
  5
7E
100
AcDbEntity
  8
DEFPOINTS
  6
BYBLOCK
 62
     0
100
AcDbPoint
 10
758.257613
 20
598.360844
 30
0.0
  0
POINT
  5
7F
100
AcDbEntity
  8
DEFPOINTS
  6
BYBLOCK
 62
     0
100
AcDbPoint
 10
758.257613
 20
670.143649
 30
0.0
  0
ENDBLK
  5
81
100
AcDbEntity
  8
0
100
AcDbBlockEnd
  0
BLOCK
  5
74
100
AcDbEntity
  8
0
100
AcDbBlockBegin
  2
*D12
 70
     1
 10
0.0
 20
0.0
 30
0.0
  3
*D12
  1

  0
LINE
  5
6B
100
AcDbEntity
  8
0
  6
BYBLOCK
 62
     4
100
AcDbLine
 10
526.257613
 20
593.327511
 30
0.0
 11
526.257613
 21
682.473324
 31
0.0
  0
LINE
  5
6C
100
AcDbEntity
  8
0
  6
BYBLOCK
 62
     4
100
AcDbLine
 10
790.257613
 20
593.327511
 30
0.0
 11
790.257613
 21
682.473324
 31
0.0
  0
LINE
  5
6D
100
AcDbEntity
  8
0
  6
BYBLOCK
 62
     4
100
AcDbLine
 10
529.257613
 20
679.973324
 30
0.0
 11
787.257613
 21
679.973324
 31
0.0
  0
SOLID
  5
6E
100
AcDbEntity
  8
0
  6
BYBLOCK
 62
     4
100
AcDbTrace
 10
529.257613
 20
680.473324
 30
0.0
 11
529.257613
 21
679.473324
 31
0.0
 12
526.257613
 22
679.973324
 32
0.0
 13
526.257613
 23
679.973324
 33
0.0
  0
SOLID
  5
6F
100
AcDbEntity
  8
0
  6
BYBLOCK
 62
     4
100
AcDbTrace
 10
787.257613
 20
680.473324
 30
0.0
 11
787.257613
 21
679.473324
 31
0.0
 12
790.257613
 22
679.973324
 32
0.0
 13
790.257613
 23
679.973324
 33
0.0
  0
MTEXT
  5
70
100
AcDbEntity
  8
0
  6
BYBLOCK
 62
     2
100
AcDbMText
 10
658.257613
 20
682.973324
 30
0.0
 40
3.0
 41
0.0
 71
     5
 72
     1
  1
\A1;L=264.00
  0
POINT
  5
71
100
AcDbEntity
  8
DEFPOINTS
  6
BYBLOCK
 62
     0
100
AcDbPoint
 10
526.257613
 20
592.327511
 30
0.0
  0
POINT
  5
72
100
AcDbEntity
  8
DEFPOINTS
  6
BYBLOCK
 62
     0
100
AcDbPoint
 10
790.257613
 20
592.327511
 30
0.0
  0
POINT
  5
73
100
AcDbEntity
  8
DEFPOINTS
  6
BYBLOCK
 62
     0
100
AcDbPoint
 10
790.257613
 20
679.973324
 30
0.0
  0
ENDBLK
  5
75
100
AcDbEntity
  8
0
100
AcDbBlockEnd
  0
BLOCK
  5
67
100
AcDbEntity
  8
0
100
AcDbBlockBegin
  2
*D13
 70
     1
 10
0.0
 20
0.0
 30
0.0
  3
*D13
  1

  0
LINE
  5
5E
100
AcDbEntity
  8
0
  6
BYBLOCK
 62
     4
100
AcDbLine
 10
540.557613
 20
506.660844
 30
0.0
 11
387.230511
 21
506.660844
 31
0.0
  0
LINE
  5
5F
100
AcDbEntity
  8
0
  6
BYBLOCK
 62
     4
100
AcDbLine
 10
540.557613
 20
581.660844
 30
0.0
 11
387.230511
 21
581.660844
 31
0.0
  0
LINE
  5
60
100
AcDbEntity
  8
0
  6
BYBLOCK
 62
     4
100
AcDbLine
 10
389.730511
 20
509.660844
 30
0.0
 11
389.730511
 21
578.660844
 31
0.0
  0
SOLID
  5
61
100
AcDbEntity
  8
0
  6
BYBLOCK
 62
     4
100
AcDbTrace
 10
389.230511
 20
509.660844
 30
0.0
 11
390.230511
 21
509.660844
 31
0.0
 12
389.730511
 22
506.660844
 32
0.0
 13
389.730511
 23
506.660844
 33
0.0
  0
SOLID
  5
62
100
AcDbEntity
  8
0
  6
BYBLOCK
 62
     4
100
AcDbTrace
 10
389.230511
 20
578.660844
 30
0.0
 11
390.230511
 21
578.660844
 31
0.0
 12
389.730511
 22
581.660844
 32
0.0
 13
389.730511
 23
581.660844
 33
0.0
  0
MTEXT
  5
63
100
AcDbEntity
  8
0
  6
BYBLOCK
 62
     2
100
AcDbMText
 10
386.730511
 20
544.160844
 30
0.0
 40
3.0
 41
0.0
 71
     5
 72
     1
  1
\A1;B=75.00
 11
0.0
 21
1.0
 31
0.0
  0
POINT
  5
64
100
AcDbEntity
  8
DEFPOINTS
  6
BYBLOCK
 62
     0
100
AcDbPoint
 10
541.557613
 20
506.660844
 30
0.0
  0
POINT
  5
65
100
AcDbEntity
  8
DEFPOINTS
  6
BYBLOCK
 62
     0
100
AcDbPoint
 10
541.557613
 20
581.660844
 30
0.0
  0
POINT
  5
66
100
AcDbEntity
  8
DEFPOINTS
  6
BYBLOCK
 62
     0
100
AcDbPoint
 10
389.730511
 20
581.660844
 30
0.0
  0
ENDBLK
  5
68
100
AcDbEntity
  8
0
100
AcDbBlockEnd
  0
BLOCK
  5
5A
100
AcDbEntity
  8
0
100
AcDbBlockBegin
  2
*D14
 70
     1
 10
0.0
 20
0.0
 30
0.0
  3
*D14
  1

  0
LINE
  5
50
100
AcDbEntity
  8
0
  6
BYBLOCK
 62
     4
100
AcDbLine
 10
540.007613
 20
474.660844
 30
0.0
 11
377.476511
 21
474.660844
 31
0.0
  0
LINE
  5
51
100
AcDbEntity
  8
0
  6
BYBLOCK
 62
     4
100
AcDbLine
 10
541.257613
 20
613.660844
 30
0.0
 11
377.476511
 21
613.660844
 31
0.0
  0
LINE
  5
52
100
AcDbEntity
  8
0
  6
BYBLOCK
 62
     4
100
AcDbLine
 10
379.976511
 20
477.660844
 30
0.0
 11
379.976511
 21
610.660844
 31
0.0
  0
SOLID
  5
53
100
AcDbEntity
  8
0
  6
BYBLOCK
 62
     4
100
AcDbTrace
 10
379.476511
 20
477.660844
 30
0.0
 11
380.476511
 21
477.660844
 31
0.0
 12
379.976511
 22
474.660844
 32
0.0
 13
379.976511
 23
474.660844
 33
0.0
  0
SOLID
  5
54
100
AcDbEntity
  8
0
  6
BYBLOCK
 62
     4
100
AcDbTrace
 10
379.476511
 20
610.660844
 30
0.0
 11
380.476511
 21
610.660844
 31
0.0
 12
379.976511
 22
613.660844
 32
0.0
 13
379.976511
 23
613.660844
 33
0.0
  0
MTEXT
  5
55
100
AcDbEntity
  8
0
  6
BYBLOCK
 62
     2
100
AcDbMText
 10
376.976511
 20
544.160844
 30
0.0
 40
3.0
 41
0.0
 71
     5
 72
     1
  1
\A1;L1=139.00
 11
0.0
 21
1.0
 31
0.0
  0
POINT
  5
56
100
AcDbEntity
  8
DEFPOINTS
  6
BYBLOCK
 62
     0
100
AcDbPoint
 10
541.007613
 20
474.660844
 30
0.0
  0
POINT
  5
58
100
AcDbEntity
  8
DEFPOINTS
  6
BYBLOCK
 62
     0
100
AcDbPoint
 10
542.257613
 20
613.660844
 30
0.0
  0
POINT
  5
59
100
AcDbEntity
  8
DEFPOINTS
  6
BYBLOCK
 62
     0
100
AcDbPoint
 10
379.976511
 20
613.660844
 30
0.0
  0
ENDBLK
  5
5B
100
AcDbEntity
  8
0
100
AcDbBlockEnd
  0
ENDSEC
  0
SECTION
  2
ENTITIES
  0
TEXT
  5
20
100
AcDbEntity
  8
TEXT
100
AcDbText
 10
870.383185
 20
665.283347
 30
0.0
 40
6.0
  1
depending on the bush size to be used.
100
AcDbText
  0
TEXT
  5
22
100
AcDbEntity
  8
TEXT
100
AcDbText
 10
837.71723
 20
675.379755
 30
0.0
 40
6.0
  1
NOTE: Manifold width `W' can be 50mm or 64mm
100
AcDbText
  0
HATCH
  5
23
100
AcDbEntity
  8
HATCH
100
AcDbHatch
 10
0.0
 20
0.0
 30
0.0
210
0.0
220
0.0
230
1.0
  2
_U
 70
     0
 71
     1
 91
        1
 92
        7
 72
     0
 73
     1
 93
        4
 10
758.2576125642799
 20
302.7944280208969
 10
749.3987305768228
 20
302.7944280208969
 10
750.0987305768227
 20
302.094428020897
 10
758.2576125642798
 20
302.0944280208969
 97
        4
330
24D
330
22E
330
241
330
24F
 75
     0
 76
     0
 52
45.0
 41
6.0
 77
     0
 78
     1
 53
45.0
 43
0.0
 44
0.0
 45
-4.242640687119284
 46
4.242640687119285
 79
     0
 47
0.036536
 98
        1
 10
754.467823
 20
302.337078
  0
HATCH
  5
24
100
AcDbEntity
  8
HATCH
100
AcDbHatch
 10
0.0
 20
0.0
 30
0.0
210
0.0
220
0.0
230
1.0
  2
_U
 70
     0
 71
     1
 91
       11
 92
        7
 72
     1
 73
     1
 93
       42
 10
790.5076125642799
 20
359.7944280208971
 42
0.0
 10
788.5076125642801
 20
361.7944280208969
 42
0.0
 10
784.0163457646992
 20
361.7944280208969
 42
0.0
 10
784.0163457646992
 20
357.7944280208975
 42
-1.0
 10
776.0163457646992
 20
357.7944280208975
 42
0.0
 10
776.0163457646992
 20
361.7944280208969
 42
0.0
 10
762.2576125642799
 20
361.7944280208969
 42
0.0
 10
762.2576125642799
 20
344.7944280208968
 42
-0.4142135623730951
 10
758.2576125642799
 20
340.7944280208968
 42
0.0
 10
712.25761256428
 20
340.7944280208969
 42
0.0
 10
712.25761256428
 20
322.7944280208975
 42
-0.414213562373096
 10
708.25761256428
 20
318.7944280208975
 42
0.0
 10
662.2576125642799
 20
318.7944280208975
 42
0.0
 10
662.2576125642799
 20
311.794428020897
 42
0.0
 10
667.2576125642799
 20
311.7944280208969
 42
0.0
 10
668.2576125642797
 20
311.7944280208969
 42
0.0
 10
668.2576125642799
 20
310.794428020897
 42
0.0
 10
668.2576125642799
 20
302.2944280208967
 42
0.0
 10
668.7576125642798
 20
301.7944280208972
 42
0.0
 10
681.2576125642801
 20
301.7944280208972
 42
0.0
 10
681.2576125642799
 20
309.0944280208971
 42
0.0
 10
681.2576125642799
 20
311.594428020897
 42
0.0
 10
681.9576125642799
 20
311.594428020897
 42
0.0
 10
681.9576125642799
 20
313.094428020897
 42
0.0
 10
684.2576125642799
 20
314.4223336400331
 42
0.0
 10
686.55761256428
 20
313.0944280208971
 42
0.0
 10
686.55761256428
 20
311.594428020897
 42
0.0
 10
687.25761256428
 20
311.594428020897
 42
0.0
 10
687.2576125642799
 20
309.0944280208972
 42
0.0
 10
687.2576125642798
 20
301.7944280208972
 42
0.0
 10
744.25761256428
 20
301.7944280208972
 42
0.0
 10
744.25761256428
 20
302.0944280208971
 42
0.0
 10
744.9576125642802
 20
302.794428020897
 42
0.0
 10
771.5576125642797
 20
302.794428020897
 42
0.0
 10
772.2576125642798
 20
302.0944280208968
 42
0.0
 10
772.2576125642797
 20
301.7944280208971
 42
0.0
 10
776.0163457646992
 20
301.7944280208972
 42
0.0
 10
776.0163457646992
 20
305.7944280208975
 42
-1.0
 10
784.0163457646992
 20
305.7944280208975
 42
0.0
 10
784.0163457646992
 20
301.7944280208971
 42
0.0
 10
788.5076125642797
 20
301.7944280208971
 42
0.0
 10
790.5076125642799
 20
303.7944280208974
 42
0.0
 97
       37
330
3D1
330
1C0
330
2F7
330
2FA
330
2F8
330
2B1
330
2B0
330
2AF
330
2AD
330
2A6
330
29D
330
3AD
330
1BB
330
1B8
330
1B7
330
1BD
330
1AD
330
159
330
18C
330
176
330
182
330
177
330
180
330
17F
330
179
330
178
330
18D
330
248
330
247
330
24D
330
242
330
243
330
2F6
330
2F9
330
2F5
330
3CE
330
3D3
 92
        7
 72
     1
 73
     1
 93
       11
 10
704.25761256428
 20
344.7944280208969
 42
-0.4142135623730905
 10
708.25761256428
 20
348.7944280208968
 42
0.0
 10
754.2576125642799
 20
348.7944280208968
 42
0.0
 10
754.2576125642798
 20
361.7944280208969
 42
0.0
 10
667.7576125642799
 20
361.7944280208971
 42
0.0
 10
667.7576125642799
 20
357.794428020897
 42
0.0
 10
667.7576125642799
 20
356.794428020897
 42
0.0
 10
666.7576125642799
 20
356.794428020897
 42
0.0
 10
658.2576125642799
 20
356.794428020897
 42
0.0
 10
658.2576125642799
 20
326.7944280208975
 42
0.0
 10
704.25761256428
 20
326.7944280208975
 42
0.0
 97
       11
330
2AA
330
2B3
330
2B2
330
1C0
330
214
330
206
330
205
330
215
330
3C2
330
2A9
330
2AC
 92
        7
 72
     1
 73
     1
 93
       34
 10
658.2576125642799
 20
356.794428020897
 42
0.0
 10
649.7576125642799
 20
356.794428020897
 42
0.0
 10
648.7576125642799
 20
356.794428020897
 42
0.0
 10
648.7576125642799
 20
357.794428020897
 42
0.0
 10
648.7576125642799
 20
361.7944280208971
 42
0.0
 10
510.2576125642801
 20
361.7944280208972
 42
0.0
 10
510.2576125642801
 20
355.7944280208971
 42
0.0
 10
498.2576125642801
 20
355.7944280208971
 42
0.0
 10
498.2576125642801
 20
303.7944280208973
 42
0.0
 10
500.2576125642803
 20
301.7944280208974
 42
0.0
 10
629.2576125642798
 20
301.7944280208972
 42
0.0
 10
629.2576125642799
 20
309.0944280208971
 42
0.0
 10
629.2576125642798
 20
311.594428020897
 42
0.0
 10
629.95761256428
 20
311.594428020897
 42
0.0
 10
629.95761256428
 20
313.094428020897
 42
0.0
 10
632.2576125642799
 20
314.4223336400331
 42
0.0
 10
634.55761256428
 20
313.094428020897
 42
0.0
 10
634.55761256428
 20
311.594428020897
 42
0.0
 10
635.2576125642799
 20
311.594428020897
 42
0.0
 10
635.2576125642799
 20
309.0944280208972
 42
0.0
 10
635.2576125642798
 20
301.7944280208972
 42
0.0
 10
647.7576125642801
 20
301.7944280208972
 42
0.0
 10
648.25761256428
 20
302.2944280208968
 42
0.0
 10
648.25761256428
 20
310.794428020897
 42
0.0
 10
648.2576125642801
 20
311.7944280208971
 42
0.0
 10
649.2576125642801
 20
311.7944280208971
 42
0.0
 10
654.2576125642798
 20
311.794428020897
 42
0.0
 10
654.25761256428
 20
318.7944280208975
 42
0.0
 10
608.2576125642799
 20
318.7944280208975
 42
-0.414213562373096
 10
604.2576125642799
 20
322.7944280208975
 42
0.0
 10
604.2576125642799
 20
344.7944280208968
 42
-1.0
 10
612.2576125642799
 20
344.7944280208968
 42
0.0
 10
612.2576125642799
 20
326.7944280208975
 42
0.0
 10
658.2576125642798
 20
326.7944280208975
 42
0.0
 97
       32
330
215
330
1FE
330
1FF
330
213
330
3D5
330
3C8
330
3A9
330
3D4
330
3CF
330
3D2
330
173
330
15D
330
168
330
15E
330
165
330
166
330
15C
330
15B
330
172
330
1AC
330
1BC
330
1B5
330
1B6
330
1BB
330
3AE
330
2A8
330
2A1
330
2A3
330
29C
330
2A2
330
2A9
330
3C2
 92
       23
 72
     0
 73
     1
 93
        4
 10
750.0987305768229
 20
302.0944280208971
 10
744.25761256428
 20
302.094428020897
 10
744.25761256428
 20
301.7944280208971
 10
750.3987305768228
 20
301.7944280208971
 97
        4
330
241
330
248
330
159
330
239
 92
       23
 72
     0
 73
     1
 93
        4
 10
749.3987305768227
 20
302.794428020897
 10
744.9576125642798
 20
302.794428020897
 10
744.25761256428
 20
302.094428020897
 10
750.0987305768228
 20
302.094428020897
 97
        4
330
24D
330
247
330
241
330
22E
 92
       23
 72
     0
 73
     1
 93
        4
 10
758.2576125642798
 20
302.094428020897
 10
750.0987305768229
 20
302.094428020897
 10
750.3987305768228
 20
301.7944280208971
 10
758.2576125642799
 20
301.7944280208971
 97
        4
330
241
330
239
330
159
330
24F
 92
       23
 72
     0
 73
     1
 93
        4
 10
767.1164945517371
 20
302.794428020897
 10
758.25761256428
 20
302.794428020897
 10
758.25761256428
 20
302.0944280208971
 10
766.4164945517371
 20
302.094428020897
 97
        4
330
24D
330
24F
330
241
330
22F
 92
       23
 72
     0
 73
     1
 93
        4
 10
766.416494551737
 20
302.0944280208971
 10
758.25761256428
 20
302.0944280208971
 10
758.2576125642802
 20
301.7944280208971
 10
766.1164945517372
 20
301.7944280208971
 97
        4
330
241
330
24F
330
159
330
23B
 92
       22
 72
     0
 73
     1
 93
        4
 10
772.2576125642799
 20
302.094428020897
 10
766.416494551737
 20
302.0944280208971
 10
766.1164945517371
 20
301.7944280208971
 10
772.2576125642799
 20
301.7944280208971
 97
        4
330
241
330
23B
330
159
330
243
 92
       22
 72
     0
 73
     1
 93
        4
 10
771.5576125642797
 20
302.794428020897
 10
767.116494551737
 20
302.794428020897
 10
766.4164945517371
 20
302.094428020897
 10
772.2576125642797
 20
302.094428020897
 97
        4
330
24D
330
22F
330
241
330
242
 92
       24
 93
        4
 72
     1
 10
737.746089
 20
318.404808
 11
751.946089
 21
318.404808
 72
     1
 10
751.946089
 20
318.404808
 11
751.946089
 21
321.404808
 72
     1
 10
751.946089
 20
321.404808
 11
737.746089
 21
321.404808
 72
     1
 10
737.746089
 20
321.404808
 11
737.746089
 21
318.404808
 97
        1
330
29B
 75
     0
 76
     0
 52
45.0
 41
6.0
 77
     0
 78
     1
 53
45.0
 43
0.0
 44
0.0
 45
-4.242640687119284
 46
4.242640687119285
 79
     0
 47
0.036536
 98
       10
 10
770.490166
 20
322.151486
 10
683.940952
 20
339.249358
 10
630.232547
 20
343.694806
 10
745.07429
 20
301.935177
 10
745.768752
 20
302.446687
 10
757.391877
 20
301.971713
 10
759.913877
 20
302.41015
 10
759.986979
 20
301.935177
 10
769.270858
 20
301.935177
 10
769.38051
 20
302.373614
  0
ARC
  5
25
100
AcDbEntity
  8
M01
100
AcDbCircle
 10
613.457613
 20
595.260844
 30
0.0
 40
12.0
100
AcDbArc
 50
233.130102
 51
323.130102
  0
ARC
  5
27
100
AcDbEntity
  8
M01
100
AcDbCircle
 10
703.057613
 20
493.060844
 30
0.0
 40
12.0
100
AcDbArc
 50
53.130102
 51
143.130102
  0
ARC
  5
28
100
AcDbEntity
  8
M04
100
AcDbCircle
 10
613.457613
 20
595.260844
 30
0.0
 40
5.0
100
AcDbArc
 50
233.130102
 51
323.130102
  0
ARC
  5
2A
100
AcDbEntity
  8
M04
100
AcDbCircle
 10
703.057613
 20
493.060844
 30
0.0
 40
5.0
100
AcDbArc
 50
53.130102
 51
143.130102
  0
ARC
  5
2B
100
AcDbEntity
  8
M04
100
AcDbCircle
 10
534.257613
 20
589.660844
 30
0.0
 40
15.0
100
AcDbArc
 50
143.130102
 51
180.0
  0
ARC
  5
2C
100
AcDbEntity
  8
M04
100
AcDbCircle
 10
546.257613
 20
605.660844
 30
0.0
 40
15.0
100
AcDbArc
 50
90.0
 51
143.130102
  0
ARC
  5
2D
100
AcDbEntity
  8
M04
100
AcDbCircle
 10
646.257613
 20
605.660844
 30
0.0
 40
15.0
100
AcDbArc
 50
90.0
 51
143.130102
  0
ARC
  5
2E
100
AcDbEntity
  8
M04
100
AcDbCircle
 10
770.257613
 20
605.660844
 30
0.0
 40
15.0
100
AcDbArc
 50
36.869898
 51
90.0
  0
ARC
  5
2F
100
AcDbEntity
  8
M04
100
AcDbCircle
 10
782.257613
 20
589.660844
 30
0.0
 40
15.0
100
AcDbArc
 50
360.0
 51
36.869898
  0
ARC
  5
30
100
AcDbEntity
  8
M04
100
AcDbCircle
 10
782.257613
 20
498.660844
 30
0.0
 40
15.0
100
AcDbArc
 50
323.130102
 51
360.0
  0
ARC
  5
31
100
AcDbEntity
  8
M04
100
AcDbCircle
 10
770.257613
 20
482.660844
 30
0.0
 40
15.0
100
AcDbArc
 50
270.0
 51
323.130102
  0
ARC
  5
32
100
AcDbEntity
  8
M04
100
AcDbCircle
 10
670.257613
 20
482.660844
 30
0.0
 40
15.0
100
AcDbArc
 50
270.0
 51
323.130102
  0
ARC
  5
33
100
AcDbEntity
  8
M04
100
AcDbCircle
 10
534.257613
 20
498.660844
 30
0.0
 40
15.0
100
AcDbArc
 50
180.0
 51
216.869898
  0
ARC
  5
34
100
AcDbEntity
  8
M04
100
AcDbCircle
 10
546.257613
 20
482.660844
 30
0.0
 40
15.0
100
AcDbArc
 50
216.869898
 51
270.0
  0
LINE
  5
35
100
AcDbEntity
  8
M04
100
AcDbLine
 10
804.257613
 20
512.160844
 30
0.0
 11
797.257613
 21
505.160844
 31
0.0
  0
LINE
  5
36
100
AcDbEntity
  8
M04
100
AcDbLine
 10
804.257613
 20
576.160844
 30
0.0
 11
797.257613
 21
583.160844
 31
0.0
  0
LINE
  5
37
100
AcDbEntity
  8
M04
100
AcDbLine
 10
512.257613
 20
576.160844
 30
0.0
 11
519.257613
 21
583.160844
 31
0.0
  0
LINE
  5
38
100
AcDbEntity
  8
M04
100
AcDbLine
 10
519.257613
 20
505.160844
 30
0.0
 11
512.257613
 21
512.160844
 31
0.0
  0
LINE
  5
39
100
AcDbEntity
  8
M04
100
AcDbLine
 10
797.257613
 20
589.660844
 30
0.0
 11
797.257613
 21
583.160844
 31
0.0
  0
LINE
  5
3A
100
AcDbEntity
  8
M01
100
AcDbLine
 10
790.257613
 20
592.327511
 30
0.0
 11
774.257613
 21
613.660844
 31
0.0
  0
LINE
  5
3B
100
AcDbEntity
  8
M04
100
AcDbLine
 10
794.257613
 20
598.660844
 30
0.0
 11
782.257613
 21
614.660844
 31
0.0
  0
LINE
  5
3C
100
AcDbEntity
  8
M01
100
AcDbLine
 10
623.057613
 20
588.060844
 30
0.0
 11
642.257613
 21
613.660844
 31
0.0
  0
LINE
  5
3D
100
AcDbEntity
  8
M04
100
AcDbLine
 10
617.457613
 20
592.260844
 30
0.0
 11
634.257613
 21
614.660844
 31
0.0
  0
LINE
  5
3E
100
AcDbEntity
  8
M04
100
AcDbLine
 10
519.257613
 20
589.660844
 30
0.0
 11
519.257613
 21
583.160844
 31
0.0
  0
LINE
  5
3F
100
AcDbEntity
  8
M01
100
AcDbLine
 10
526.257613
 20
592.327511
 30
0.0
 11
526.257613
 21
578.160844
 31
0.0
  0
LINE
  5
40
100
AcDbEntity
  8
M01
100
AcDbLine
 10
526.257613
 20
592.327511
 30
0.0
 11
542.257613
 21
613.660844
 31
0.0
  0
LINE
  5
41
100
AcDbEntity
  8
M04
100
AcDbLine
 10
522.257613
 20
598.660844
 30
0.0
 11
534.257613
 21
614.660844
 31
0.0
  0
LINE
  5
42
100
AcDbEntity
  8
M04
100
AcDbLine
 10
519.257613
 20
498.660844
 30
0.0
 11
519.257613
 21
505.160844
 31
0.0
  0
LINE
  5
43
100
AcDbEntity
  8
M01
100
AcDbLine
 10
526.257613
 20
495.994177
 30
0.0
 11
542.257613
 21
474.660844
 31
0.0
  0
LINE
  5
44
100
AcDbEntity
  8
M04
100
AcDbLine
 10
522.257613
 20
489.660844
 30
0.0
 11
534.257613
 21
473.660844
 31
0.0
  0
LINE
  5
45
100
AcDbEntity
  8
M01
100
AcDbLine
 10
693.457613
 20
500.260844
 30
0.0
 11
674.257613
 21
474.660844
 31
0.0
  0
LINE
  5
46
100
AcDbEntity
  8
M04
100
AcDbLine
 10
699.057613
 20
496.060844
 30
0.0
 11
682.257613
 21
473.660844
 31
0.0
  0
LINE
  5
47
100
AcDbEntity
  8
M04
100
AcDbLine
 10
797.257613
 20
498.660844
 30
0.0
 11
797.257613
 21
505.160844
 31
0.0
  0
LINE
  5
48
100
AcDbEntity
  8
M01
100
AcDbLine
 10
790.257613
 20
495.994177
 30
0.0
 11
774.257613
 21
474.660844
 31
0.0
  0
LINE
  5
49
100
AcDbEntity
  8
M04
100
AcDbLine
 10
794.257613
 20
489.660844
 30
0.0
 11
782.257613
 21
473.660844
 31
0.0
  0
TEXT
  5
4A
100
AcDbEntity
  8
TEXT
100
AcDbText
 10
324.592511
 20
235.202889
 30
0.0
 40
6.0
  1
design may vary from this example !
100
AcDbText
  0
TEXT
  5
4B
100
AcDbEntity
  8
TEXT
100
AcDbText
 10
324.211644
 20
245.299297
 30
0.0
 40
6.0
  1
you finalize your tool design, as our final system
100
AcDbText
  0
TEXT
  5
4C
100
AcDbEntity
  8
TEXT
100
AcDbText
 10
300.917524
 20
255.395705
 30
0.0
 40
6.0
  1
N.B. ALL designs MUST be approved by Fast Heat BEFORE
100
AcDbText
  0
DIMENSION
  5
4D
100
AcDbEntity
  8
DIMS
100
AcDbDimension
  2
*D14
 10
379.976511
 20
613.660844
 30
0.0
 11
376.976511
 21
544.160844
 31
0.0
  1
L1=<>
  3
DIM1
100
AcDbAlignedDimension
 13
541.007613
 23
474.660844
 33
0.0
 14
542.257613
 24
613.660844
 34
0.0
 50
90.0
100
AcDbRotatedDimension
1001
ACAD
1000
DSTYLE
1002
{
1070
   144
1040
1.0
1002
}
  0
DIMENSION
  5
5C
100
AcDbEntity
  8
DIMS
100
AcDbDimension
  2
*D13
 10
389.730511
 20
581.660844
 30
0.0
 11
386.730511
 21
544.160844
 31
0.0
  1
B=<>
  3
DIM1
100
AcDbAlignedDimension
 13
541.557613
 23
506.660844
 33
0.0
 14
541.557613
 24
581.660844
 34
0.0
 50
90.0
100
AcDbRotatedDimension
1001
ACAD
1000
DSTYLE
1002
{
1070
   144
1040
1.0
1002
}
  0
DIMENSION
  5
69
100
AcDbEntity
  8
DIMS
100
AcDbDimension
  2
*D12
 10
790.257613
 20
679.973324
 30
0.0
 11
658.257613
 21
682.973324
 31
0.0
  1
L=<>
  3
DIM1
100
AcDbAlignedDimension
 13
526.257613
 23
592.327511
 33
0.0
 14
790.257613
 24
592.327511
 34
0.0
100
AcDbRotatedDimension
1001
ACAD
1000
DSTYLE
1002
{
1070
   144
1040
1.0
1002
}
  0
DIMENSION
  5
76
100
AcDbEntity
  8
DIMS
100
AcDbDimension
  2
*D11
 10
758.257613
 20
670.143649
 30
0.0
 11
708.257613
 21
673.143649
 31
0.0
  1
A=<>
  3
DIM1
100
AcDbAlignedDimension
 13
658.257613
 23
654.69383
 33
0.0
 14
758.257613
 24
598.360844
 34
0.0
100
AcDbRotatedDimension
1001
ACAD
1000
DSTYLE
1002
{
1070
    75
1070
     1
1070
   144
1040
1.0
1070
   287
1070
     4
1002
}
  0
DIMENSION
  5
82
100
AcDbEntity
  8
DIMS
100
AcDbDimension
  2
*D10
 10
658.257613
 20
670.143649
 30
0.0
 11
608.257613
 21
673.143649
 31
0.0
  1
A=<>
  3
DIM1
100
AcDbAlignedDimension
 13
558.257613
 23
598.360844
 33
0.0
 14
658.257613
 24
654.69383
 34
0.0
100
AcDbRotatedDimension
1001
ACAD
1000
DSTYLE
1002
{
1070
   144
1040
1.0
1002
}
  0
LINE
  5
8F
100
AcDbEntity
  8
DIMS
 62
     4
100
AcDbLine
 10
803.257613
 20
475.760844
 30
0.0
 11
803.257613
 21
470.960844
 31
0.0
  0
LINE
  5
90
100
AcDbEntity
  8
DIMS
 62
     4
100
AcDbLine
 10
803.257613
 20
482.560844
 30
0.0
 11
803.257613
 21
487.360844
 31
0.0
  0
LINE
  5
91
100
AcDbEntity
  8
DIMS
 62
     4
100
AcDbLine
 10
806.657613
 20
479.160844
 30
0.0
 11
811.457613
 21
479.160844
 31
0.0
  0
LINE
  5
92
100
AcDbEntity
  8
DIMS
 62
     4
100
AcDbLine
 10
799.857613
 20
479.160844
 30
0.0
 11
795.057613
 21
479.160844
 31
0.0
  0
LINE
  5
93
100
AcDbEntity
  8
DIMS
 62
     4
100
AcDbLine
 10
803.257613
 20
480.860844
 30
0.0
 11
803.257613
 21
477.460844
 31
0.0
  0
LINE
  5
94
100
AcDbEntity
  8
DIMS
 62
     4
100
AcDbLine
 10
801.557613
 20
479.160844
 30
0.0
 11
804.957613
 21
479.160844
 31
0.0
  0
LINE
  5
95
100
AcDbEntity
  8
DIMS
 62
     4
100
AcDbLine
 10
828.257613
 20
495.760844
 30
0.0
 11
828.257613
 21
490.960844
 31
0.0
  0
LINE
  5
96
100
AcDbEntity
  8
DIMS
 62
     4
100
AcDbLine
 10
828.257613
 20
502.560844
 30
0.0
 11
828.257613
 21
507.360844
 31
0.0
  0
LINE
  5
97
100
AcDbEntity
  8
DIMS
 62
     4
100
AcDbLine
 10
831.657613
 20
499.160844
 30
0.0
 11
836.457613
 21
499.160844
 31
0.0
  0
LINE
  5
98
100
AcDbEntity
  8
DIMS
 62
     4
100
AcDbLine
 10
824.857613
 20
499.160844
 30
0.0
 11
820.057613
 21
499.160844
 31
0.0
  0
LINE
  5
99
100
AcDbEntity
  8
DIMS
 62
     4
100
AcDbLine
 10
828.257613
 20
500.860844
 30
0.0
 11
828.257613
 21
497.460844
 31
0.0
  0
LINE
  5
9A
100
AcDbEntity
  8
DIMS
 62
     4
100
AcDbLine
 10
826.557613
 20
499.160844
 30
0.0
 11
829.957613
 21
499.160844
 31
0.0
  0
CIRCLE
  5
9B
100
AcDbEntity
  8
M04
100
AcDbCircle
 10
828.257613
 20
499.160844
 30
0.0
 40
6.5
  0
LINE
  5
9C
100
AcDbEntity
  8
DIMS
 62
     4
100
AcDbLine
 10
513.257613
 20
475.760844
 30
0.0
 11
513.257613
 21
470.960844
 31
0.0
  0
LINE
  5
9D
100
AcDbEntity
  8
DIMS
 62
     4
100
AcDbLine
 10
513.257613
 20
482.560844
 30
0.0
 11
513.257613
 21
487.360844
 31
0.0
  0
LINE
  5
9E
100
AcDbEntity
  8
DIMS
 62
     4
100
AcDbLine
 10
509.857613
 20
479.160844
 30
0.0
 11
505.057613
 21
479.160844
 31
0.0
  0
LINE
  5
9F
100
AcDbEntity
  8
DIMS
 62
     4
100
AcDbLine
 10
516.657613
 20
479.160844
 30
0.0
 11
521.457613
 21
479.160844
 31
0.0
  0
LINE
  5
A0
100
AcDbEntity
  8
DIMS
 62
     4
100
AcDbLine
 10
513.257613
 20
480.860844
 30
0.0
 11
513.257613
 21
477.460844
 31
0.0
  0
LINE
  5
A1
100
AcDbEntity
  8
DIMS
 62
     4
100
AcDbLine
 10
514.957613
 20
479.160844
 30
0.0
 11
511.557613
 21
479.160844
 31
0.0
  0
CIRCLE
  5
A2
100
AcDbEntity
  8
M04
100
AcDbCircle
 10
513.257613
 20
479.160844
 30
0.0
 40
6.5
  0
CIRCLE
  5
A3
100
AcDbEntity
  8
M04
100
AcDbCircle
 10
803.257613
 20
479.160844
 30
0.0
 40
6.5
  0
LINE
  5
A4
100
AcDbEntity
  8
DIMS
 62
     4
100
AcDbLine
 10
608.257613
 20
475.760844
 30
0.0
 11
608.257613
 21
470.960844
 31
0.0
  0
LINE
  5
A5
100
AcDbEntity
  8
DIMS
 62
     4
100
AcDbLine
 10
608.257613
 20
482.560844
 30
0.0
 11
608.257613
 21
487.360844
 31
0.0
  0
LINE
  5
A6
100
AcDbEntity
  8
DIMS
 62
     4
100
AcDbLine
 10
611.657613
 20
479.160844
 30
0.0
 11
616.457613
 21
479.160844
 31
0.0
  0
LINE
  5
A7
100
AcDbEntity
  8
DIMS
 62
     4
100
AcDbLine
 10
604.857613
 20
479.160844
 30
0.0
 11
600.057613
 21
479.160844
 31
0.0
  0
LINE
  5
A8
100
AcDbEntity
  8
DIMS
 62
     4
100
AcDbLine
 10
608.257613
 20
480.860844
 30
0.0
 11
608.257613
 21
477.460844
 31
0.0
  0
LINE
  5
A9
100
AcDbEntity
  8
DIMS
 62
     4
100
AcDbLine
 10
606.557613
 20
479.160844
 30
0.0
 11
609.957613
 21
479.160844
 31
0.0
  0
CIRCLE
  5
AA
100
AcDbEntity
  8
M04
100
AcDbCircle
 10
608.257613
 20
479.160844
 30
0.0
 40
6.5
  0
LINE
  5
AB
100
AcDbEntity
  8
DIMS
 62
     4
100
AcDbLine
 10
488.257613
 20
495.760844
 30
0.0
 11
488.257613
 21
490.960844
 31
0.0
  0
LINE
  5
AC
100
AcDbEntity
  8
DIMS
 62
     4
100
AcDbLine
 10
488.257613
 20
502.560844
 30
0.0
 11
488.257613
 21
507.360844
 31
0.0
  0
LINE
  5
AD
100
AcDbEntity
  8
DIMS
 62
     4
100
AcDbLine
 10
484.857613
 20
499.160844
 30
0.0
 11
480.057613
 21
499.160844
 31
0.0
  0
LINE
  5
AE
100
AcDbEntity
  8
DIMS
 62
     4
100
AcDbLine
 10
491.657613
 20
499.160844
 30
0.0
 11
496.457613
 21
499.160844
 31
0.0
  0
LINE
  5
AF
100
AcDbEntity
  8
DIMS
 62
     4
100
AcDbLine
 10
488.257613
 20
500.860844
 30
0.0
 11
488.257613
 21
497.460844
 31
0.0
  0
LINE
  5
B0
100
AcDbEntity
  8
DIMS
 62
     4
100
AcDbLine
 10
489.957613
 20
499.160844
 30
0.0
 11
486.557613
 21
499.160844
 31
0.0
  0
CIRCLE
  5
B1
100
AcDbEntity
  8
M04
100
AcDbCircle
 10
488.257613
 20
499.160844
 30
0.0
 40
6.5
  0
LINE
  5
B2
100
AcDbEntity
  8
DIMS
 62
     4
100
AcDbLine
 10
703.257613
 20
475.760844
 30
0.0
 11
703.257613
 21
470.960844
 31
0.0
  0
LINE
  5
B3
100
AcDbEntity
  8
DIMS
 62
     4
100
AcDbLine
 10
703.257613
 20
482.560844
 30
0.0
 11
703.257613
 21
487.360844
 31
0.0
  0
LINE
  5
B4
100
AcDbEntity
  8
DIMS
 62
     4
100
AcDbLine
 10
706.657613
 20
479.160844
 30
0.0
 11
711.457613
 21
479.160844
 31
0.0
  0
LINE
  5
B5
100
AcDbEntity
  8
DIMS
 62
     4
100
AcDbLine
 10
699.857613
 20
479.160844
 30
0.0
 11
695.057613
 21
479.160844
 31
0.0
  0
LINE
  5
B6
100
AcDbEntity
  8
DIMS
 62
     4
100
AcDbLine
 10
703.257613
 20
480.860844
 30
0.0
 11
703.257613
 21
477.460844
 31
0.0
  0
LINE
  5
B7
100
AcDbEntity
  8
DIMS
 62
     4
100
AcDbLine
 10
701.557613
 20
479.160844
 30
0.0
 11
704.957613
 21
479.160844
 31
0.0
  0
CIRCLE
  5
B8
100
AcDbEntity
  8
M04
100
AcDbCircle
 10
703.257613
 20
479.160844
 30
0.0
 40
6.5
  0
LINE
  5
B9
100
AcDbEntity
  8
M04
100
AcDbLine
 10
863.257613
 20
512.160844
 30
0.0
 11
804.257613
 21
512.160844
 31
0.0
  0
LINE
  5
BA
100
AcDbEntity
  8
M04
100
AcDbLine
 10
453.257613
 20
512.160844
 30
0.0
 11
512.257613
 21
512.160844
 31
0.0
  0
ARC
  5
BB
100
AcDbEntity
  8
M04
100
AcDbCircle
 10
566.257613
 20
482.660844
 30
0.0
 40
15.0
100
AcDbArc
 50
270.0
 51
306.869898
  0
ARC
  5
BC
100
AcDbEntity
  8
M04
100
AcDbCircle
 10
650.257613
 20
482.660844
 30
0.0
 40
15.0
100
AcDbArc
 50
233.130102
 51
270.0
  0
LINE
  5
BD
100
AcDbEntity
  8
M04
100
AcDbLine
 10
670.257613
 20
467.660844
 30
0.0
 11
650.257613
 21
467.660844
 31
0.0
  0
LINE
  5
BE
100
AcDbEntity
  8
M04
100
AcDbLine
 10
546.257613
 20
467.660844
 30
0.0
 11
566.257613
 21
467.660844
 31
0.0
  0
ARC
  5
BF
100
AcDbEntity
  8
M04
100
AcDbCircle
 10
750.257613
 20
482.660844
 30
0.0
 40
15.0
100
AcDbArc
 50
233.130102
 51
270.0
  0
LINE
  5
C0
100
AcDbEntity
  8
M04
100
AcDbLine
 10
770.257613
 20
467.660844
 30
0.0
 11
750.257613
 21
467.660844
 31
0.0
  0
ARC
  5
C1
100
AcDbEntity
  8
M04
100
AcDbCircle
 10
608.257613
 20
489.160844
 30
0.0
 40
5.0
100
AcDbArc
 50
53.130102
 51
126.869898
  0
LINE
  5
C2
100
AcDbEntity
  8
M04
100
AcDbLine
 10
605.257613
 20
493.160844
 30
0.0
 11
575.257613
 21
470.660844
 31
0.0
  0
LINE
  5
C3
100
AcDbEntity
  8
M04
100
AcDbLine
 10
611.257613
 20
493.160844
 30
0.0
 11
641.257613
 21
470.660844
 31
0.0
  0
LINE
  5
C4
100
AcDbEntity
  8
M04
100
AcDbLine
 10
706.057613
 20
497.060844
 30
0.0
 11
741.257613
 21
470.660844
 31
0.0
  0
ARC
  5
C5
100
AcDbEntity
  8
M04
100
AcDbCircle
 10
750.257613
 20
605.660844
 30
0.0
 40
15.0
100
AcDbArc
 50
90.0
 51
126.869898
  0
ARC
  5
C6
100
AcDbEntity
  8
M04
100
AcDbCircle
 10
666.257613
 20
605.660844
 30
0.0
 40
15.0
100
AcDbArc
 50
53.130102
 51
90.0
  0
LINE
  5
C7
100
AcDbEntity
  8
M04
100
AcDbLine
 10
646.257613
 20
620.660844
 30
0.0
 11
666.257613
 21
620.660844
 31
0.0
  0
LINE
  5
C8
100
AcDbEntity
  8
M04
100
AcDbLine
 10
770.257613
 20
620.660844
 30
0.0
 11
750.257613
 21
620.660844
 31
0.0
  0
ARC
  5
C9
100
AcDbEntity
  8
M04
100
AcDbCircle
 10
566.257613
 20
605.660844
 30
0.0
 40
15.0
100
AcDbArc
 50
53.130102
 51
90.0
  0
LINE
  5
CA
100
AcDbEntity
  8
M04
100
AcDbLine
 10
546.257613
 20
620.660844
 30
0.0
 11
566.257613
 21
620.660844
 31
0.0
  0
ARC
  5
CB
100
AcDbEntity
  8
M04
100
AcDbCircle
 10
708.257613
 20
599.160844
 30
0.0
 40
5.0
100
AcDbArc
 50
233.130102
 51
306.869898
  0
LINE
  5
CC
100
AcDbEntity
  8
M04
100
AcDbLine
 10
711.257613
 20
595.160844
 30
0.0
 11
741.257613
 21
617.660844
 31
0.0
  0
LINE
  5
CD
100
AcDbEntity
  8
M04
100
AcDbLine
 10
705.257613
 20
595.160844
 30
0.0
 11
675.257613
 21
617.660844
 31
0.0
  0
LINE
  5
CE
100
AcDbEntity
  8
M04
100
AcDbLine
 10
610.457613
 20
591.260844
 30
0.0
 11
575.257613
 21
617.660844
 31
0.0
  0
HATCH
  5
CF
100
AcDbEntity
  8
M03
100
AcDbHatch
 10
0.0
 20
0.0
 30
0.0
210
0.0
220
0.0
230
1.0
  2
_U
 70
     0
 71
     0
 91
        1
 92
        7
 72
     0
 73
     1
 93
        4
 10
590.0719828096757
 20
592.9251204811721
 10
566.6812466172538
 20
610.4682379155906
 10
567.8212493326059
 20
611.988235879073
 10
591.211985525028
 20
594.4451184446541
 97
        0
 75
     0
 76
     0
 52
293.13
 41
0.7
 77
     0
 78
     1
 53
353.13
 43
439.836481
 44
1211.176876
 45
-0.0837319111031198
 46
-0.6949740765402832
 79
     0
 47
0.060863
 98
        1
 10
587.83151
 20
596.089772
  0
HATCH
  5
D2
100
AcDbEntity
  8
M03
100
AcDbHatch
 10
0.0
 20
0.0
 30
0.0
210
0.0
220
0.0
230
1.0
  2
_U
 70
     0
 71
     0
 91
        1
 92
        7
 72
     0
 73
     1
 93
        4
 10
590.0719828096758
 20
592.9251204811721
 10
566.6812466172538
 20
610.4682379155908
 10
567.8212493326059
 20
611.988235879073
 10
591.211985525028
 20
594.4451184446541
 97
        0
 75
     0
 76
     0
 52
-6.87
 41
0.7
 77
     0
 78
     1
 53
293.13
 43
439.836481
 44
1211.176876
 45
-0.6437311608070761
 46
-0.2749730761474192
 79
     0
 47
0.060863
 98
        1
 10
587.539307
 20
596.004609
  0
LINE
  5
D3
100
AcDbEntity
  8
M03
100
AcDbLine
 10
595.197596
 20
572.080874
 30
0.0
 11
592.560853
 21
572.398554
 31
0.0
  0
LINE
  5
D4
100
AcDbEntity
  8
M03
100
AcDbLine
 10
591.517601
 20
574.84088
 30
0.0
 11
592.560853
 21
572.398554
 31
0.0
  0
LINE
  5
D5
100
AcDbEntity
  8
M03
100
AcDbLine
 10
591.517601
 20
574.84088
 30
0.0
 11
595.197596
 21
572.080874
 31
0.0
  0
LINE
  5
D6
100
AcDbEntity
  8
M03
100
AcDbLine
 10
591.857604
 20
576.46088
 30
0.0
 11
596.657597
 21
572.860871
 31
0.0
  0
LINE
  5
D7
100
AcDbEntity
  8
M03
100
AcDbLine
 10
590.071983
 20
592.92512
 30
0.0
 11
566.681247
 21
610.468238
 31
0.0
  0
LINE
  5
D8
100
AcDbEntity
  8
M03
100
AcDbLine
 10
591.211986
 20
594.445118
 30
0.0
 11
567.821249
 21
611.988236
 31
0.0
  0
LINE
  5
D9
100
AcDbEntity
  8
M03
100
AcDbLine
 10
595.491975
 20
588.485111
 30
0.0
 11
606.93761
 21
579.900853
 31
0.0
  0
LINE
  5
DA
100
AcDbEntity
  8
M03
100
AcDbLine
 10
594.176163
 20
588.471972
 30
0.0
 11
594.656165
 21
589.111971
 31
0.0
  0
LINE
  5
DB
100
AcDbEntity
  8
M03
100
AcDbLine
 10
589.891982
 20
592.685121
 30
0.0
 11
591.391986
 21
594.685118
 31
0.0
  0
LINE
  5
DC
100
AcDbEntity
  8
M03
100
AcDbLine
 10
591.391986
 20
594.685118
 30
0.0
 11
596.991978
 21
590.485108
 31
0.0
  0
LINE
  5
DD
100
AcDbEntity
  8
M03
100
AcDbLine
 10
595.491975
 20
588.485111
 30
0.0
 11
596.991978
 21
590.485108
 31
0.0
  0
LINE
  5
DE
100
AcDbEntity
  8
M03
100
AcDbLine
 10
606.457609
 20
579.260854
 30
0.0
 11
606.93761
 21
579.900853
 31
0.0
  0
ARC
  5
DF
100
AcDbEntity
  8
M03
100
AcDbCircle
 10
599.821932
 20
582.079956
 30
0.0
 40
5.826136
100
AcDbArc
 50
348.82541
 51
117.43459
  0
LINE
  5
E0
100
AcDbEntity
  8
M03
100
AcDbLine
 10
598.157601
 20
574.860868
 30
0.0
 11
597.177601
 21
574.72087
 31
0.0
  0
LINE
  5
E1
100
AcDbEntity
  8
M03
100
AcDbLine
 10
593.357607
 20
578.460877
 30
0.0
 11
593.497605
 21
577.480877
 31
0.0
  0
LINE
  5
E2
100
AcDbEntity
  8
M03
100
AcDbLine
 10
593.357607
 20
578.460877
 30
0.0
 11
598.157601
 21
574.860868
 31
0.0
  0
LINE
  5
E3
100
AcDbEntity
  8
M03
100
AcDbLine
 10
593.497605
 20
577.480877
 30
0.0
 11
597.177601
 21
574.72087
 31
0.0
  0
LINE
  5
E4
100
AcDbEntity
  8
M03
100
AcDbLine
 10
603.257613
 20
581.660859
 30
0.0
 11
608.857605
 21
577.460849
 31
0.0
  0
LINE
  5
E5
100
AcDbEntity
  8
M03
100
AcDbLine
 10
589.897631
 20
591.680883
 30
0.0
 11
590.377632
 21
592.320882
 31
0.0
  0
LINE
  5
E6
100
AcDbEntity
  8
M03
100
AcDbLine
 10
603.817612
 20
581.240858
 30
0.0
 11
604.297613
 21
581.880857
 31
0.0
  0
LINE
  5
E7
100
AcDbEntity
  8
M03
100
AcDbLine
 10
595.197596
 20
572.080874
 30
0.0
 11
603.177615
 21
582.720859
 31
0.0
  0
LINE
  5
E8
100
AcDbEntity
  8
M03
100
AcDbLine
 10
591.517601
 20
574.84088
 30
0.0
 11
599.49762
 21
585.480866
 31
0.0
  0
LINE
  5
E9
100
AcDbEntity
  8
M03
100
AcDbLine
 10
591.857604
 20
576.46088
 30
0.0
 11
598.93762
 21
585.900867
 31
0.0
  0
LINE
  5
EA
100
AcDbEntity
  8
M03
100
AcDbLine
 10
596.657597
 20
572.860871
 30
0.0
 11
603.737614
 21
582.300858
 31
0.0
  0
LINE
  5
EB
100
AcDbEntity
  8
M03
100
AcDbLine
 10
589.891982
 20
592.685121
 30
0.0
 11
594.656165
 21
589.111971
 31
0.0
  0
LINE
  5
EC
100
AcDbEntity
  8
M03
100
AcDbLine
 10
608.857605
 20
577.460849
 30
0.0
 11
613.209541
 21
583.263408
 31
0.0
  0
LINE
  5
ED
100
AcDbEntity
  8
M03
100
AcDbLine
 10
560.591126
 20
613.660844
 30
0.0
 11
598.457619
 21
585.260868
 31
0.0
  0
LINE
  5
EE
100
AcDbEntity
  8
CENTRE
100
AcDbLine
 10
589.938386
 20
568.901945
 30
0.0
 11
606.234515
 21
590.630035
 31
0.0
  0
LINE
  5
F1
100
AcDbEntity
  8
M03
100
AcDbLine
 10
608.257613
 20
539.160844
 30
0.0
 11
655.857942
 21
503.460596
 31
0.0
  0
LINE
  5
F2
100
AcDbEntity
  8
M03
100
AcDbLine
 10
608.257613
 20
539.160844
 30
0.0
 11
560.657613
 21
503.460844
 31
0.0
  0
LINE
  5
F3
100
AcDbEntity
  8
M03
100
AcDbLine
 10
601.590946
 20
544.160844
 30
0.0
 11
555.857613
 21
509.860844
 31
0.0
  0
LINE
  5
F4
100
AcDbEntity
  8
M03
100
AcDbLine
 10
555.857613
 20
578.460844
 30
0.0
 11
601.590946
 21
544.160844
 31
0.0
  0
LINE
  5
F5
100
AcDbEntity
  8
M03
100
AcDbLine
 10
560.657613
 20
584.860844
 30
0.0
 11
660.657613
 21
509.860844
 31
0.0
  0
LINE
  5
F6
100
AcDbEntity
  8
DIMS
 62
     4
100
AcDbLine
 10
661.657613
 20
506.660844
 30
0.0
 11
674.957613
 21
506.660844
 31
0.0
  0
LINE
  5
F7
100
AcDbEntity
  8
DIMS
 62
     4
100
AcDbLine
 10
654.857613
 20
506.660844
 30
0.0
 11
641.557613
 21
506.660844
 31
0.0
  0
LINE
  5
F8
100
AcDbEntity
  8
DIMS
 62
     4
100
AcDbLine
 10
656.557613
 20
506.660844
 30
0.0
 11
659.957613
 21
506.660844
 31
0.0
  0
LINE
  5
F9
100
AcDbEntity
  8
DIMS
 62
     4
100
AcDbLine
 10
558.257613
 20
510.060844
 30
0.0
 11
558.257613
 21
523.360844
 31
0.0
  0
LINE
  5
FA
100
AcDbEntity
  8
DIMS
 62
     4
100
AcDbLine
 10
558.257613
 20
503.260844
 30
0.0
 11
558.257613
 21
489.960844
 31
0.0
  0
LINE
  5
FB
100
AcDbEntity
  8
DIMS
 62
     4
100
AcDbLine
 10
561.657613
 20
506.660844
 30
0.0
 11
574.957613
 21
506.660844
 31
0.0
  0
LINE
  5
FC
100
AcDbEntity
  8
DIMS
 62
     4
100
AcDbLine
 10
554.857613
 20
506.660844
 30
0.0
 11
541.557613
 21
506.660844
 31
0.0
  0
LINE
  5
FD
100
AcDbEntity
  8
DIMS
 62
     4
100
AcDbLine
 10
558.257613
 20
504.960844
 30
0.0
 11
558.257613
 21
508.360844
 31
0.0
  0
LINE
  5
FE
100
AcDbEntity
  8
DIMS
 62
     4
100
AcDbLine
 10
556.557613
 20
506.660844
 30
0.0
 11
559.957613
 21
506.660844
 31
0.0
  0
LINE
  5
FF
100
AcDbEntity
  8
DIMS
 62
     4
100
AcDbLine
 10
558.257613
 20
585.060844
 30
0.0
 11
558.257613
 21
598.360844
 31
0.0
  0
LINE
  5
100
100
AcDbEntity
  8
DIMS
 62
     4
100
AcDbLine
 10
558.257613
 20
578.260844
 30
0.0
 11
558.257613
 21
564.960844
 31
0.0
  0
LINE
  5
101
100
AcDbEntity
  8
DIMS
 62
     4
100
AcDbLine
 10
561.657613
 20
581.660844
 30
0.0
 11
574.957613
 21
581.660844
 31
0.0
  0
LINE
  5
102
100
AcDbEntity
  8
DIMS
 62
     4
100
AcDbLine
 10
554.857613
 20
581.660844
 30
0.0
 11
541.557613
 21
581.660844
 31
0.0
  0
LINE
  5
103
100
AcDbEntity
  8
DIMS
 62
     4
100
AcDbLine
 10
558.257613
 20
579.960844
 30
0.0
 11
558.257613
 21
583.360844
 31
0.0
  0
LINE
  5
104
100
AcDbEntity
  8
DIMS
 62
     4
100
AcDbLine
 10
556.557613
 20
581.660844
 30
0.0
 11
559.957613
 21
581.660844
 31
0.0
  0
CIRCLE
  5
105
100
AcDbEntity
  8
M03
100
AcDbCircle
 10
558.257613
 20
506.660844
 30
0.0
 40
2.3
  0
ARC
  5
106
100
AcDbEntity
  8
M03
100
AcDbCircle
 10
558.257613
 20
506.660844
 30
0.0
 40
3.0
100
AcDbArc
 50
167.784636
 51
96.923103
  0
LINE
  5
107
100
AcDbEntity
  8
M03
100
AcDbLine
 10
558.807613
 20
500.686105
 30
0.0
 11
558.807613
 21
512.635582
 31
0.0
  0
LINE
  5
108
100
AcDbEntity
  8
M03
100
AcDbLine
 10
557.707613
 20
500.686105
 30
0.0
 11
557.707613
 21
512.635582
 31
0.0
  0
CIRCLE
  5
109
100
AcDbEntity
  8
M03
100
AcDbCircle
 10
558.257613
 20
506.660844
 30
0.0
 40
15.0
  0
CIRCLE
  5
10A
100
AcDbEntity
  8
M03
100
AcDbCircle
 10
558.257613
 20
506.660844
 30
0.0
 40
14.0
  0
CIRCLE
  5
10B
100
AcDbEntity
  8
M03
100
AcDbCircle
 10
558.257613
 20
506.660844
 30
0.0
 40
7.858882
  0
CIRCLE
  5
10C
100
AcDbEntity
  8
M03
100
AcDbCircle
 10
558.257613
 20
506.660844
 30
0.0
 40
6.0
  0
CIRCLE
  5
10D
100
AcDbEntity
  8
M03
100
AcDbCircle
 10
658.257613
 20
506.660844
 30
0.0
 40
2.3
  0
ARC
  5
10E
100
AcDbEntity
  8
M03
100
AcDbCircle
 10
658.257613
 20
506.660844
 30
0.0
 40
3.0
100
AcDbArc
 50
167.784636
 51
96.923103
  0
LINE
  5
10F
100
AcDbEntity
  8
M03
100
AcDbLine
 10
658.807613
 20
500.686105
 30
0.0
 11
658.807613
 21
512.635582
 31
0.0
  0
LINE
  5
110
100
AcDbEntity
  8
M03
100
AcDbLine
 10
657.707613
 20
500.686105
 30
0.0
 11
657.707613
 21
512.635582
 31
0.0
  0
CIRCLE
  5
111
100
AcDbEntity
  8
M03
100
AcDbCircle
 10
658.257613
 20
506.660844
 30
0.0
 40
15.0
  0
CIRCLE
  5
112
100
AcDbEntity
  8
M03
100
AcDbCircle
 10
658.257613
 20
506.660844
 30
0.0
 40
14.0
  0
CIRCLE
  5
113
100
AcDbEntity
  8
M03
100
AcDbCircle
 10
658.257613
 20
506.660844
 30
0.0
 40
7.858882
  0
CIRCLE
  5
114
100
AcDbEntity
  8
M03
100
AcDbCircle
 10
658.257613
 20
506.660844
 30
0.0
 40
6.0
  0
CIRCLE
  5
115
100
AcDbEntity
  8
M03
100
AcDbCircle
 10
558.257613
 20
581.660844
 30
0.0
 40
2.3
  0
ARC
  5
116
100
AcDbEntity
  8
M03
100
AcDbCircle
 10
558.257613
 20
581.660844
 30
0.0
 40
3.0
100
AcDbArc
 50
167.784636
 51
96.923103
  0
LINE
  5
117
100
AcDbEntity
  8
M03
100
AcDbLine
 10
558.807613
 20
575.686105
 30
0.0
 11
558.807613
 21
587.635582
 31
0.0
  0
LINE
  5
118
100
AcDbEntity
  8
M03
100
AcDbLine
 10
557.707613
 20
575.686105
 30
0.0
 11
557.707613
 21
587.635582
 31
0.0
  0
CIRCLE
  5
119
100
AcDbEntity
  8
M03
100
AcDbCircle
 10
558.257613
 20
581.660844
 30
0.0
 40
15.0
  0
CIRCLE
  5
11A
100
AcDbEntity
  8
M03
100
AcDbCircle
 10
558.257613
 20
581.660844
 30
0.0
 40
14.0
  0
CIRCLE
  5
11B
100
AcDbEntity
  8
M03
100
AcDbCircle
 10
558.257613
 20
581.660844
 30
0.0
 40
7.858882
  0
CIRCLE
  5
11C
100
AcDbEntity
  8
M03
100
AcDbCircle
 10
558.257613
 20
581.660844
 30
0.0
 40
6.0
  0
CIRCLE
  5
11D
100
AcDbEntity
  8
M01
100
AcDbCircle
 10
658.257613
 20
506.660844
 30
0.0
 40
4.0
  0
LINE
  5
11E
100
AcDbEntity
  8
CENTRE
100
AcDbLine
 10
608.257613
 20
544.160844
 30
0.0
 11
542.257613
 21
494.660844
 31
0.0
  0
LINE
  5
11F
100
AcDbEntity
  8
CENTRE
100
AcDbLine
 10
542.257613
 20
593.660844
 30
0.0
 11
674.257613
 21
494.660844
 31
0.0
  0
CIRCLE
  5
120
100
AcDbEntity
  8
M01
100
AcDbCircle
 10
658.257613
 20
506.660844
 30
0.0
 40
4.0
  0
CIRCLE
  5
121
100
AcDbEntity
  8
M01
100
AcDbCircle
 10
558.257613
 20
506.660844
 30
0.0
 40
4.0
  0
CIRCLE
  5
122
100
AcDbEntity
  8
M01
100
AcDbCircle
 10
558.257613
 20
581.660844
 30
0.0
 40
4.0
  0
LINE
  5
123
100
AcDbEntity
  8
M03
100
AcDbLine
 10
708.257612
 20
549.160844
 30
0.0
 11
660.657283
 21
584.861091
 31
0.0
  0
LINE
  5
124
100
AcDbEntity
  8
M03
100
AcDbLine
 10
708.257612
 20
549.160844
 30
0.0
 11
755.857613
 21
584.860844
 31
0.0
  0
LINE
  5
125
100
AcDbEntity
  8
M03
100
AcDbLine
 10
714.924279
 20
544.160844
 30
0.0
 11
760.657613
 21
578.460844
 31
0.0
  0
LINE
  5
126
100
AcDbEntity
  8
M03
100
AcDbLine
 10
760.657613
 20
509.860844
 30
0.0
 11
714.924279
 21
544.160844
 31
0.0
  0
LINE
  5
127
100
AcDbEntity
  8
M03
100
AcDbLine
 10
755.857613
 20
503.460844
 30
0.0
 11
655.857613
 21
578.460844
 31
0.0
  0
ARC
  5
128
100
AcDbEntity
  8
M01
100
AcDbCircle
 10
802.257613
 20
578.160844
 30
0.0
 40
12.0
100
AcDbArc
 50
180.0
 51
270.0
  0
ARC
  5
129
100
AcDbEntity
  8
M01
100
AcDbCircle
 10
802.257613
 20
510.160844
 30
0.0
 40
12.0
100
AcDbArc
 50
90.0
 51
180.0
  0
ARC
  5
12A
100
AcDbEntity
  8
M01
100
AcDbCircle
 10
514.257613
 20
578.160844
 30
0.0
 40
12.0
100
AcDbArc
 50
270.0
 51
0.0
  0
ARC
  5
12B
100
AcDbEntity
  8
M01
100
AcDbCircle
 10
514.257613
 20
510.160844
 30
0.0
 40
12.0
100
AcDbArc
 50
0.0
 51
90.0
  0
ARC
  5
12C
100
AcDbEntity
  8
M01
100
AcDbCircle
 10
708.257613
 20
599.160844
 30
0.0
 40
12.0
100
AcDbArc
 50
233.130102
 51
306.869898
  0
ARC
  5
12D
100
AcDbEntity
  8
M01
100
AcDbCircle
 10
608.257613
 20
489.160844
 30
0.0
 40
12.0
100
AcDbArc
 50
53.130102
 51
126.869898
  0
LINE
  5
12E
100
AcDbEntity
  8
M01
100
AcDbLine
 10
701.057613
 20
589.560844
 30
0.0
 11
668.924279
 21
613.660844
 31
0.0
  0
LINE
  5
12F
100
AcDbEntity
  8
M01
100
AcDbLine
 10
642.257613
 20
613.660844
 30
0.0
 11
668.924279
 21
613.660844
 31
0.0
  0
LINE
  5
130
100
AcDbEntity
  8
M01
100
AcDbLine
 10
715.457613
 20
589.560844
 30
0.0
 11
747.590946
 21
613.660844
 31
0.0
  0
LINE
  5
131
100
AcDbEntity
  8
M01
100
AcDbLine
 10
774.257613
 20
613.660844
 30
0.0
 11
747.590946
 21
613.660844
 31
0.0
  0
LINE
  5
132
100
AcDbEntity
  8
M01
100
AcDbLine
 10
790.257613
 20
592.327511
 30
0.0
 11
790.257613
 21
578.160844
 31
0.0
  0
LINE
  5
133
100
AcDbEntity
  8
M01
100
AcDbLine
 10
606.257613
 20
585.660844
 30
0.0
 11
568.924279
 21
613.660844
 31
0.0
  0
LINE
  5
134
100
AcDbEntity
  8
M01
100
AcDbLine
 10
542.257613
 20
613.660844
 30
0.0
 11
568.924279
 21
613.660844
 31
0.0
  0
LINE
  5
135
100
AcDbEntity
  8
M01
100
AcDbLine
 10
526.257613
 20
580.660844
 30
0.0
 11
526.257613
 21
578.160844
 31
0.0
  0
LINE
  5
136
100
AcDbEntity
  8
M01
100
AcDbLine
 10
615.457613
 20
498.760844
 30
0.0
 11
647.590946
 21
474.660844
 31
0.0
  0
LINE
  5
137
100
AcDbEntity
  8
M01
100
AcDbLine
 10
674.257613
 20
474.660844
 30
0.0
 11
647.590946
 21
474.660844
 31
0.0
  0
LINE
  5
138
100
AcDbEntity
  8
M01
100
AcDbLine
 10
710.257613
 20
502.660844
 30
0.0
 11
747.590946
 21
474.660844
 31
0.0
  0
LINE
  5
139
100
AcDbEntity
  8
M01
100
AcDbLine
 10
774.257613
 20
474.660844
 30
0.0
 11
747.590946
 21
474.660844
 31
0.0
  0
LINE
  5
13A
100
AcDbEntity
  8
M01
100
AcDbLine
 10
790.257613
 20
495.994177
 30
0.0
 11
790.257613
 21
510.160844
 31
0.0
  0
LINE
  5
13B
100
AcDbEntity
  8
M01
100
AcDbLine
 10
601.057613
 20
498.760844
 30
0.0
 11
568.924279
 21
474.660844
 31
0.0
  0
LINE
  5
13C
100
AcDbEntity
  8
DIMS
100
AcDbLine
 10
404.493601
 20
569.063087
 30
0.0
 11
404.493601
 21
544.160844
 31
0.0
  0
INSERT
  5
13D
100
AcDbEntity
  8
DIMS
100
AcDbBlockReference
  2
ARROW1
 10
404.493601
 20
569.063087
 30
0.0
 41
10.0
 42
10.0
 43
10.0
 50
90.0
  0
LINE
  5
144
100
AcDbEntity
  8
DIMS
100
AcDbLine
 10
776.694077
 20
628.919705
 30
0.0
 11
792.741241
 21
607.523565
 31
0.0
  0
INSERT
  5
145
100
AcDbEntity
  8
DIMS
100
AcDbBlockReference
  2
ARROW1
 10
776.694077
 20
628.919705
 30
0.0
 41
10.0
 42
10.0
 43
10.0
 50
126.87
  0
MTEXT
  5
146
100
AcDbEntity
  8
0
  6
BYBLOCK
 62
     2
100
AcDbMText
 10
804.112977
 20
638.100636
 30
0.0
 40
3.0
 41
0.0
 71
     4
 72
     1
  1
M12 PLATE RETAINING SCREWS SHOULD ALSO BE FITTED.\PMINIMUM 2 PER DROP & ALSO AROUND MANIFOLD POCKET.
  0
LINE
  5
147
100
AcDbEntity
  8
DIMS
 62
     4
100
AcDbLine
 10
803.257613
 20
612.560844
 30
0.0
 11
803.257613
 21
617.360844
 31
0.0
  0
LINE
  5
148
100
AcDbEntity
  8
DIMS
 62
     4
100
AcDbLine
 10
803.257613
 20
605.760844
 30
0.0
 11
803.257613
 21
600.960844
 31
0.0
  0
LINE
  5
149
100
AcDbEntity
  8
DIMS
 62
     4
100
AcDbLine
 10
806.657613
 20
609.160844
 30
0.0
 11
811.457613
 21
609.160844
 31
0.0
  0
LINE
  5
14A
100
AcDbEntity
  8
DIMS
 62
     4
100
AcDbLine
 10
799.857613
 20
609.160844
 30
0.0
 11
795.057613
 21
609.160844
 31
0.0
  0
LINE
  5
14B
100
AcDbEntity
  8
DIMS
 62
     4
100
AcDbLine
 10
803.257613
 20
607.460844
 30
0.0
 11
803.257613
 21
610.860844
 31
0.0
  0
LINE
  5
14C
100
AcDbEntity
  8
DIMS
 62
     4
100
AcDbLine
 10
801.557613
 20
609.160844
 30
0.0
 11
804.957613
 21
609.160844
 31
0.0
  0
LINE
  5
14D
100
AcDbEntity
  8
DIMS
 62
     4
100
AcDbLine
 10
611.657613
 20
344.794428
 30
0.0
 11
613.957613
 21
344.794428
 31
0.0
  0
LINE
  5
14E
100
AcDbEntity
  8
DIMS
 62
     4
100
AcDbLine
 10
604.857613
 20
344.794428
 30
0.0
 11
602.557613
 21
344.794428
 31
0.0
  0
LINE
  5
14F
100
AcDbEntity
  8
DIMS
 62
     4
100
AcDbLine
 10
606.557613
 20
344.794428
 30
0.0
 11
609.957613
 21
344.794428
 31
0.0
  0
HATCH
  5
150
100
AcDbEntity
  8
HATCH
100
AcDbHatch
 10
0.0
 20
0.0
 30
0.0
210
0.0
220
0.0
230
1.0
  2
_U
 70
     0
 71
     1
 91
        1
 92
        7
 72
     0
 73
     1
 93
        4
 10
510.2576125642801
 20
364.7944280208974
 10
510.2576125642801
 20
361.7944280208972
 10
647.2576125642799
 20
361.794428020897
 10
647.2576125642799
 20
364.7944280208972
 97
        4
330
3CD
330
3C7
330
3D5
330
207
 75
     0
 76
     0
 52
135.0
 41
0.8
 77
     0
 78
     1
 53
135.0
 43
0.0
 44
-12.657572
 45
-0.5656854249492382
 46
-0.565685424949238
 79
     0
 47
0.313533
 98
        1
 10
566.196326
 20
363.493907
  0
HATCH
  5
151
100
AcDbEntity
  8
HATCH
100
AcDbHatch
 10
0.0
 20
0.0
 30
0.0
210
0.0
220
0.0
230
1.0
  2
_U
 70
     0
 71
     1
 91
        2
 92
        7
 72
     0
 73
     1
 93
        4
 10
669.25761256428
 20
364.7944280208971
 10
669.25761256428
 20
361.7944280208971
 10
740.2576125642799
 20
361.7944280208969
 10
740.25761256428
 20
364.794428020897
 97
        4
330
1BF
330
208
330
1C0
330
2B6
 92
        7
 72
     0
 73
     1
 93
        4
 10
788.5076125642799
 20
361.7944280208969
 10
788.5076125642799
 20
364.7944280208969
 10
776.2576125642799
 20
364.794428020897
 10
776.2576125642799
 20
361.7944280208969
 97
        4
330
1BF
330
2B5
330
1C0
330
3CB
 75
     0
 76
     0
 52
135.0
 41
0.8
 77
     0
 78
     1
 53
135.0
 43
0.0
 44
-12.657572
 45
-0.5656854249492382
 46
-0.565685424949238
 79
     0
 47
0.110181
 98
        2
 10
728.687507
 20
363.313851
 10
778.398828
 20
363.093487
  0
HATCH
  5
152
100
AcDbEntity
  8
HATCH
100
AcDbHatch
 10
0.0
 20
0.0
 30
0.0
210
0.0
220
0.0
230
1.0
  2
_U
 70
     0
 71
     1
 91
        1
 92
        7
 72
     0
 73
     1
 93
        4
 10
773.25761256428
 20
301.7944280208971
 10
773.25761256428
 20
298.7944280208976
 10
788.5076125642799
 20
298.7944280208976
 10
788.50761256428
 20
301.7944280208971
 97
        4
330
159
330
24B
330
154
330
157
 75
     0
 76
     0
 52
135.0
 41
0.8
 77
     0
 78
     1
 53
135.0
 43
0.0
 44
-12.657572
 45
-0.5656854249492382
 46
-0.565685424949238
 79
     0
 47
0.110181
 98
        1
 10
778.068155
 20
300.400276
  0
HATCH
  5
153
100
AcDbEntity
  8
HATCH
100
AcDbHatch
 10
0.0
 20
0.0
 30
0.0
210
0.0
220
0.0
230
1.0
  2
_U
 70
     0
 71
     1
 91
        1
 92
        7
 72
     0
 73
     1
 93
        4
 10
693.2576125642802
 20
301.7944280208972
 10
693.2576125642802
 20
298.7944280208974
 10
743.2576125642799
 20
298.7944280208976
 10
743.2576125642799
 20
301.7944280208971
 97
        4
330
159
330
1B2
330
156
330
24C
 75
     0
 76
     0
 52
135.0
 41
0.8
 77
     0
 78
     1
 53
135.0
 43
0.0
 44
-12.657572
 45
-0.5656854249492382
 46
-0.565685424949238
 79
     0
 47
0.134259
 98
        1
 10
704.941029
 20
300.936527
  0
LINE
  5
154
102
{ACAD_REACTORS
330
152
102
}
100
AcDbEntity
  8
M02
100
AcDbLine
 10
772.257613
 20
298.794428
 30
0.0
 11
788.507613
 21
298.794428
 31
0.0
  0
LINE
  5
156
102
{ACAD_REACTORS
330
153
102
}
100
AcDbEntity
  8
M02
100
AcDbLine
 10
692.257613
 20
298.794428
 30
0.0
 11
744.257613
 21
298.794428
 31
0.0
  0
LINE
  5
157
102
{ACAD_REACTORS
330
152
102
}
100
AcDbEntity
  8
M02
100
AcDbLine
 10
788.507613
 20
301.794428
 30
0.0
 11
788.507613
 21
298.794428
 31
0.0
  0
LINE
  5
158
100
AcDbEntity
  8
M04
100
AcDbLine
 10
761.257613
 20
294.794428
 30
0.0
 11
809.019232
 21
294.794428
 31
0.0
  0
LINE
  5
159
102
{ACAD_REACTORS
330
153
330
152
330
24
102
}
100
AcDbEntity
  8
M01
100
AcDbLine
 10
668.257613
 20
301.794428
 30
0.0
 11
788.507613
 21
301.794428
 31
0.0
  0
HATCH
  5
15A
100
AcDbEntity
  8
DIMS
100
AcDbHatch
 10
0.0
 20
0.0
 30
0.0
210
0.0
220
0.0
230
1.0
  2
_U
 70
     0
 71
     0
 91
        5
 92
        7
 72
     0
 73
     1
 93
        9
 10
689.75761256428
 20
299.7944280208969
 10
689.75761256428
 20
295.7944280208971
 10
691.5576125642803
 20
295.7944280208971
 10
692.2576125642804
 20
296.4944280208971
 10
692.2576125642802
 20
301.094428020897
 10
691.5576125642798
 20
301.7944280208972
 10
687.95761256428
 20
301.7944280208972
 10
687.95761256428
 20
299.7944280208971
 10
689.5076125642802
 20
299.7944280208971
 97
        0
 92
        7
 72
     1
 73
     1
 93
       16
 10
677.5576125642799
 20
290.7944280208971
 42
0.0
 10
678.2576125642799
 20
291.4944280208969
 42
0.0
 10
678.2576125642799
 20
292.7944280208972
 42
0.0
 10
677.7576125642799
 20
292.794428020897
 42
0.0
 10
677.7576125642799
 20
295.7944280208971
 42
0.0
 10
678.7576125642801
 20
295.7944280208971
 42
0.0
 10
678.7576125642801
 20
299.7944280208971
 42
0.0
 10
679.0076125642801
 20
299.7944280208971
 42
0.0
 10
680.5576125642801
 20
299.7944280208971
 42
0.0
 10
680.5576125642804
 20
301.7944280208972
 42
0.0
 10
668.2576125642799
 20
301.7944280208972
 42
0.0
 10
668.2576125642799
 20
310.794428020897
 42
0.0
 10
667.2576125642799
 20
311.7944280208969
 42
0.0
 10
662.2576125642799
 20
311.794428020897
 42
0.0
 10
661.2984865621759
 20
293.4932136739982
 42
-0.1092323044357264
 10
667.4227639541913
 20
290.7944280208969
 42
0.0
 97
        0
 92
        7
 72
     1
 73
     1
 93
       16
 10
655.2167385663838
 20
293.4932136739981
 42
0.0
 10
654.2576125642799
 20
311.794428020897
 42
0.0
 10
649.2576125642799
 20
311.794428020897
 42
0.0
 10
648.25761256428
 20
310.794428020897
 42
0.0
 10
648.25761256428
 20
301.7944280208972
 42
0.0
 10
635.9576125642802
 20
301.7944280208972
 42
0.0
 10
635.9576125642802
 20
299.7944280208971
 42
0.0
 10
637.5076125642799
 20
299.7944280208971
 42
0.0
 10
637.7576125642799
 20
299.7944280208971
 42
0.0
 10
637.7576125642799
 20
295.7944280208972
 42
0.0
 10
638.7576125642799
 20
295.7944280208972
 42
0.0
 10
638.7576125642799
 20
292.7944280208968
 42
0.0
 10
638.2576125642799
 20
292.7944280208968
 42
0.0
 10
638.2576125642802
 20
291.4944280208967
 42
0.0
 10
638.95761256428
 20
290.7944280208967
 42
0.0
 10
649.0924611743682
 20
290.7944280208968
 42
-0.1092323044357263
 97
        0
 92
        7
 72
     0
 73
     1
 93
        9
 10
626.7576125642799
 20
299.7944280208969
 10
627.0076125642797
 20
299.7944280208969
 10
628.5576125642799
 20
299.794428020897
 10
628.5576125642801
 20
301.7944280208972
 10
624.95761256428
 20
301.7944280208972
 10
624.2576125642797
 20
301.094428020897
 10
624.2576125642797
 20
296.4944280208969
 10
624.9576125642797
 20
295.7944280208972
 10
626.7576125642801
 20
295.7944280208972
 97
        0
 92
       24
 93
        4
 72
     1
 10
662.831693
 20
296.861915
 11
677.203122
 21
296.861915
 72
     1
 10
677.203122
 20
296.861915
 11
677.203122
 21
299.861915
 72
     1
 10
677.203122
 20
299.861915
 11
662.831693
 21
299.861915
 72
     1
 10
662.831693
 20
299.861915
 11
662.831693
 21
296.861915
 97
        0
 75
     0
 76
     0
 52
135.0
 41
2.5
 77
     0
 78
     1
 53
135.0
 43
102.810372
 44
54.307954
 45
-1.767766952966368
 46
-1.767766952966368
 79
     0
 47
0.085632
 98
        4
 10
690.754575
 20
300.152413
 10
673.10713
 20
294.158183
 10
650.319651
 20
295.357029
 10
626.075832
 20
300.152413
  0
LINE
  5
15B
102
{ACAD_REACTORS
330
24
102
}
100
AcDbEntity
  8
M04
100
AcDbLine
 10
635.257613
 20
309.094428
 30
0.0
 11
635.257613
 21
311.594428
 31
0.0
  0
LINE
  5
15C
102
{ACAD_REACTORS
330
24
102
}
100
AcDbEntity
  8
M04
100
AcDbLine
 10
634.557613
 20
309.794428
 30
0.0
 11
634.557613
 21
313.094428
 31
0.0
  0
LINE
  5
15D
102
{ACAD_REACTORS
330
24
102
}
100
AcDbEntity
  8
M04
100
AcDbLine
 10
629.257613
 20
309.094428
 30
0.0
 11
629.257613
 21
311.594428
 31
0.0
  0
LINE
  5
15E
102
{ACAD_REACTORS
330
24
102
}
100
AcDbEntity
  8
M04
100
AcDbLine
 10
629.957613
 20
309.794428
 30
0.0
 11
629.957613
 21
313.094428
 31
0.0
  0
LINE
  5
15F
100
AcDbEntity
  8
M05
100
AcDbLine
 10
627.007613
 20
299.794428
 30
0.0
 11
637.507613
 21
299.794428
 31
0.0
  0
LINE
  5
161
100
AcDbEntity
  8
M04
100
AcDbLine
 10
637.507613
 20
299.794428
 30
0.0
 11
637.757613
 21
299.794428
 31
0.0
  0
LINE
  5
162
100
AcDbEntity
  8
M04
100
AcDbLine
 10
626.757613
 20
299.794428
 30
0.0
 11
626.757613
 21
295.794428
 31
0.0
  0
LINE
  5
163
100
AcDbEntity
  8
M04
100
AcDbLine
 10
637.757613
 20
299.794428
 30
0.0
 11
637.757613
 21
295.794428
 31
0.0
  0
LINE
  5
164
100
AcDbEntity
  8
M05
100
AcDbLine
 10
635.257613
 20
300.794428
 30
0.0
 11
629.257613
 21
300.794428
 31
0.0
  0
LINE
  5
165
102
{ACAD_REACTORS
330
24
102
}
100
AcDbEntity
  8
M04
100
AcDbLine
 10
629.957613
 20
313.094428
 30
0.0
 11
632.257613
 21
314.422334
 31
0.0
  0
LINE
  5
166
102
{ACAD_REACTORS
330
24
102
}
100
AcDbEntity
  8
M04
100
AcDbLine
 10
634.557613
 20
313.094428
 30
0.0
 11
632.257613
 21
314.422334
 31
0.0
  0
LINE
  5
167
100
AcDbEntity
  8
M04
100
AcDbLine
 10
634.557613
 20
313.094428
 30
0.0
 11
629.957613
 21
313.094428
 31
0.0
  0
LINE
  5
168
102
{ACAD_REACTORS
330
24
102
}
100
AcDbEntity
  8
M04
100
AcDbLine
 10
635.257613
 20
311.594428
 30
0.0
 11
629.257613
 21
311.594428
 31
0.0
  0
ARC
  5
169
100
AcDbEntity
  8
M05
100
AcDbCircle
 10
632.257613
 20
302.320564
 30
0.0
 40
5.826136
100
AcDbArc
 50
205.69541
 51
334.30459
  0
LINE
  5
16A
100
AcDbEntity
  8
M05
100
AcDbLine
 10
629.257613
 20
309.094428
 30
0.0
 11
629.957613
 21
309.794428
 31
0.0
  0
LINE
  5
16B
100
AcDbEntity
  8
M05
100
AcDbLine
 10
635.257613
 20
309.094428
 30
0.0
 11
634.557613
 21
309.794428
 31
0.0
  0
LINE
  5
16C
100
AcDbEntity
  8
M05
100
AcDbLine
 10
635.257613
 20
309.094428
 30
0.0
 11
629.257613
 21
309.094428
 31
0.0
  0
LINE
  5
16D
100
AcDbEntity
  8
M05
100
AcDbLine
 10
634.557613
 20
309.794428
 30
0.0
 11
629.957613
 21
309.794428
 31
0.0
  0
LINE
  5
16E
100
AcDbEntity
  8
M04
100
AcDbLine
 10
635.957613
 20
301.794428
 30
0.0
 11
635.957613
 21
299.794428
 31
0.0
  0
LINE
  5
16F
100
AcDbEntity
  8
M04
100
AcDbLine
 10
628.557613
 20
301.794428
 30
0.0
 11
628.557613
 21
299.794428
 31
0.0
  0
LINE
  5
170
100
AcDbEntity
  8
M05
100
AcDbLine
 10
629.957613
 20
309.794428
 30
0.0
 11
629.957613
 21
300.794428
 31
0.0
  0
LINE
  5
171
100
AcDbEntity
  8
M05
100
AcDbLine
 10
634.557613
 20
309.794428
 30
0.0
 11
634.557613
 21
300.794428
 31
0.0
  0
LINE
  5
172
102
{ACAD_REACTORS
330
24
102
}
100
AcDbEntity
  8
M05
100
AcDbLine
 10
635.257613
 20
309.094428
 30
0.0
 11
635.257613
 21
299.794428
 31
0.0
  0
LINE
  5
173
102
{ACAD_REACTORS
330
24
102
}
100
AcDbEntity
  8
M05
100
AcDbLine
 10
629.257613
 20
309.094428
 30
0.0
 11
629.257613
 21
299.794428
 31
0.0
  0
LINE
  5
174
100
AcDbEntity
  8
M04
100
AcDbLine
 10
626.757613
 20
299.794428
 30
0.0
 11
627.007613
 21
299.794428
 31
0.0
  0
LINE
  5
175
100
AcDbEntity
  8
CENTRE
100
AcDbLine
 10
632.257613
 20
317.060929
 30
0.0
 11
632.257613
 21
292.14824
 31
0.0
  0
LINE
  5
176
102
{ACAD_REACTORS
330
24
102
}
100
AcDbEntity
  8
M04
100
AcDbLine
 10
681.257613
 20
309.094428
 30
0.0
 11
681.257613
 21
311.594428
 31
0.0
  0
LINE
  5
177
102
{ACAD_REACTORS
330
24
102
}
100
AcDbEntity
  8
M04
100
AcDbLine
 10
681.957613
 20
309.794428
 30
0.0
 11
681.957613
 21
313.094428
 31
0.0
  0
LINE
  5
178
102
{ACAD_REACTORS
330
24
102
}
100
AcDbEntity
  8
M04
100
AcDbLine
 10
687.257613
 20
309.094428
 30
0.0
 11
687.257613
 21
311.594428
 31
0.0
  0
LINE
  5
179
102
{ACAD_REACTORS
330
24
102
}
100
AcDbEntity
  8
M04
100
AcDbLine
 10
686.557613
 20
309.794428
 30
0.0
 11
686.557613
 21
313.094428
 31
0.0
  0
LINE
  5
17A
100
AcDbEntity
  8
M05
100
AcDbLine
 10
689.507613
 20
299.794428
 30
0.0
 11
679.007613
 21
299.794428
 31
0.0
  0
LINE
  5
17B
100
AcDbEntity
  8
M04
100
AcDbLine
 10
679.007613
 20
299.794428
 30
0.0
 11
678.757613
 21
299.794428
 31
0.0
  0
LINE
  5
17C
100
AcDbEntity
  8
M04
100
AcDbLine
 10
689.757613
 20
299.794428
 30
0.0
 11
689.757613
 21
295.794428
 31
0.0
  0
LINE
  5
17D
100
AcDbEntity
  8
M04
100
AcDbLine
 10
678.757613
 20
299.794428
 30
0.0
 11
678.757613
 21
295.794428
 31
0.0
  0
LINE
  5
17E
100
AcDbEntity
  8
M05
100
AcDbLine
 10
681.257613
 20
300.794428
 30
0.0
 11
687.257613
 21
300.794428
 31
0.0
  0
LINE
  5
17F
102
{ACAD_REACTORS
330
24
102
}
100
AcDbEntity
  8
M04
100
AcDbLine
 10
686.557613
 20
313.094428
 30
0.0
 11
684.257613
 21
314.422334
 31
0.0
  0
LINE
  5
180
102
{ACAD_REACTORS
330
24
102
}
100
AcDbEntity
  8
M04
100
AcDbLine
 10
681.957613
 20
313.094428
 30
0.0
 11
684.257613
 21
314.422334
 31
0.0
  0
LINE
  5
181
100
AcDbEntity
  8
M04
100
AcDbLine
 10
681.957613
 20
313.094428
 30
0.0
 11
686.557613
 21
313.094428
 31
0.0
  0
LINE
  5
182
102
{ACAD_REACTORS
330
24
102
}
100
AcDbEntity
  8
M04
100
AcDbLine
 10
681.257613
 20
311.594428
 30
0.0
 11
687.257613
 21
311.594428
 31
0.0
  0
ARC
  5
183
100
AcDbEntity
  8
M05
100
AcDbCircle
 10
684.257613
 20
302.320564
 30
0.0
 40
5.826136
100
AcDbArc
 50
205.69541
 51
334.30459
  0
LINE
  5
184
100
AcDbEntity
  8
M05
100
AcDbLine
 10
687.257613
 20
309.094428
 30
0.0
 11
686.557613
 21
309.794428
 31
0.0
  0
LINE
  5
185
100
AcDbEntity
  8
M05
100
AcDbLine
 10
681.257613
 20
309.094428
 30
0.0
 11
681.957613
 21
309.794428
 31
0.0
  0
LINE
  5
186
100
AcDbEntity
  8
M05
100
AcDbLine
 10
681.257613
 20
309.094428
 30
0.0
 11
687.257613
 21
309.094428
 31
0.0
  0
LINE
  5
187
100
AcDbEntity
  8
M05
100
AcDbLine
 10
681.957613
 20
309.794428
 30
0.0
 11
686.557613
 21
309.794428
 31
0.0
  0
LINE
  5
188
100
AcDbEntity
  8
M04
100
AcDbLine
 10
680.557613
 20
301.794428
 30
0.0
 11
680.557613
 21
299.794428
 31
0.0
  0
LINE
  5
189
100
AcDbEntity
  8
M04
100
AcDbLine
 10
687.957613
 20
301.794428
 30
0.0
 11
687.957613
 21
299.794428
 31
0.0
  0
LINE
  5
18A
100
AcDbEntity
  8
M05
100
AcDbLine
 10
686.557613
 20
309.794428
 30
0.0
 11
686.557613
 21
300.794428
 31
0.0
  0
LINE
  5
18B
100
AcDbEntity
  8
M05
100
AcDbLine
 10
681.957613
 20
309.794428
 30
0.0
 11
681.957613
 21
300.794428
 31
0.0
  0
LINE
  5
18C
102
{ACAD_REACTORS
330
24
102
}
100
AcDbEntity
  8
M05
100
AcDbLine
 10
681.257613
 20
309.094428
 30
0.0
 11
681.257613
 21
299.794428
 31
0.0
  0
LINE
  5
18D
102
{ACAD_REACTORS
330
24
102
}
100
AcDbEntity
  8
M05
100
AcDbLine
 10
687.257613
 20
309.094428
 30
0.0
 11
687.257613
 21
299.794428
 31
0.0
  0
LINE
  5
18E
100
AcDbEntity
  8
M04
100
AcDbLine
 10
689.757613
 20
299.794428
 30
0.0
 11
689.507613
 21
299.794428
 31
0.0
  0
LINE
  5
18F
100
AcDbEntity
  8
CENTRE
100
AcDbLine
 10
684.257613
 20
317.060929
 30
0.0
 11
684.257613
 21
292.14824
 31
0.0
  0
TEXT
  5
190
100
AcDbEntity
  8
TEXT
100
AcDbText
 10
663.331693
 20
297.361915
 30
0.0
 40
2.0
  1
MA010000
 41
0.9
100
AcDbText
  0
LINE
  5
191
100
AcDbEntity
  8
M04
100
AcDbLine
 10
628.257613
 20
276.794428
 30
0.0
 11
628.257613
 21
267.794428
 31
0.0
  0
LINE
  5
192
100
AcDbEntity
  8
M05
100
AcDbLine
 10
624.257613
 20
296.494428
 30
0.0
 11
624.957613
 21
295.794428
 31
0.0
  0
LINE
  5
193
100
AcDbEntity
  8
M02
100
AcDbLine
 10
623.257613
 20
301.794428
 30
0.0
 11
623.257613
 21
298.794428
 31
0.0
  0
LINE
  5
194
100
AcDbEntity
  8
M04
100
AcDbLine
 10
628.257613
 20
276.794428
 30
0.0
 11
688.257613
 21
276.794428
 31
0.0
  0
LINE
  5
195
100
AcDbEntity
  8
M04
100
AcDbLine
 10
638.257613
 20
286.794428
 30
0.0
 11
628.257613
 21
276.794428
 31
0.0
  0
LINE
  5
196
100
AcDbEntity
  8
M04
100
AcDbLine
 10
688.257613
 20
276.794428
 30
0.0
 11
688.257613
 21
267.794428
 31
0.0
  0
LINE
  5
197
100
AcDbEntity
  8
M04
100
AcDbLine
 10
678.257613
 20
286.794428
 30
0.0
 11
688.257613
 21
276.794428
 31
0.0
  0
LINE
  5
198
100
AcDbEntity
  8
M05
100
AcDbLine
 10
655.216739
 20
293.493214
 30
0.0
 11
661.298487
 21
293.493214
 31
0.0
  0
ARC
  5
199
100
AcDbEntity
  8
M05
100
AcDbCircle
 10
658.257613
 20
278.294428
 30
0.0
 40
15.5
100
AcDbArc
 50
101.313981
 51
126.249321
  0
LINE
  5
19A
100
AcDbEntity
  8
M05
100
AcDbLine
 10
654.257613
 20
311.794428
 30
0.0
 11
655.216739
 21
293.493214
 31
0.0
  0
LINE
  5
19B
100
AcDbEntity
  8
M05
100
AcDbLine
 10
662.257613
 20
311.794428
 30
0.0
 11
661.298487
 21
293.493214
 31
0.0
  0
ARC
  5
19C
100
AcDbEntity
  8
M05
100
AcDbCircle
 10
658.257613
 20
278.294428
 30
0.0
 40
15.5
100
AcDbArc
 50
53.750679
 51
78.686019
  0
LINE
  5
19D
100
AcDbEntity
  8
M04
100
AcDbLine
 10
638.257613
 20
292.794428
 30
0.0
 11
638.257613
 21
294.794428
 31
0.0
  0
LINE
  5
19E
100
AcDbEntity
  8
M04
100
AcDbLine
 10
638.257613
 20
291.494428
 30
0.0
 11
638.257613
 21
286.794428
 31
0.0
  0
LINE
  5
19F
100
AcDbEntity
  8
M04
100
AcDbLine
 10
678.257613
 20
292.794428
 30
0.0
 11
678.257613
 21
294.794428
 31
0.0
  0
LINE
  5
1A0
100
AcDbEntity
  8
M04
100
AcDbLine
 10
678.257613
 20
291.494428
 30
0.0
 11
678.257613
 21
286.794428
 31
0.0
  0
LINE
  5
1A1
100
AcDbEntity
  8
M04
100
AcDbLine
 10
678.257613
 20
286.794428
 30
0.0
 11
638.257613
 21
286.794428
 31
0.0
  0
LINE
  5
1A2
100
AcDbEntity
  8
M05
100
AcDbLine
 10
638.757613
 20
292.794428
 30
0.0
 11
638.257613
 21
292.794428
 31
0.0
  0
LINE
  5
1A3
100
AcDbEntity
  8
M05
100
AcDbLine
 10
638.757613
 20
295.794428
 30
0.0
 11
624.957613
 21
295.794428
 31
0.0
  0
LINE
  5
1A4
100
AcDbEntity
  8
M05
100
AcDbLine
 10
638.757613
 20
295.794428
 30
0.0
 11
638.757613
 21
292.794428
 31
0.0
  0
LINE
  5
1A5
100
AcDbEntity
  8
M05
100
AcDbLine
 10
677.757613
 20
295.794428
 30
0.0
 11
677.757613
 21
292.794428
 31
0.0
  0
LINE
  5
1A6
100
AcDbEntity
  8
M05
100
AcDbLine
 10
678.257613
 20
292.794428
 30
0.0
 11
677.757613
 21
292.794428
 31
0.0
  0
LINE
  5
1A7
100
AcDbEntity
  8
M05
100
AcDbLine
 10
638.957613
 20
290.794428
 30
0.0
 11
638.257613
 21
291.494428
 31
0.0
  0
LINE
  5
1A8
100
AcDbEntity
  8
M05
100
AcDbLine
 10
677.557613
 20
290.794428
 30
0.0
 11
678.257613
 21
291.494428
 31
0.0
  0
LINE
  5
1A9
100
AcDbEntity
  8
M05
100
AcDbLine
 10
677.557613
 20
290.794428
 30
0.0
 11
638.957613
 21
290.794428
 31
0.0
  0
LINE
  5
1AA
100
AcDbEntity
  8
M05
100
AcDbLine
 10
638.257613
 20
292.794428
 30
0.0
 11
638.257613
 21
291.494428
 31
0.0
  0
LINE
  5
1AB
100
AcDbEntity
  8
M05
100
AcDbLine
 10
678.257613
 20
292.794428
 30
0.0
 11
678.257613
 21
291.494428
 31
0.0
  0
LINE
  5
1AC
102
{ACAD_REACTORS
330
24
102
}
100
AcDbEntity
  8
M04
100
AcDbLine
 10
648.257613
 20
302.294428
 30
0.0
 11
647.757613
 21
301.794428
 31
0.0
  0
LINE
  5
1AD
102
{ACAD_REACTORS
330
24
102
}
100
AcDbEntity
  8
M04
100
AcDbLine
 10
668.257613
 20
302.294428
 30
0.0
 11
668.757613
 21
301.794428
 31
0.0
  0
LINE
  5
1AE
100
AcDbEntity
  8
M05
100
AcDbLine
 10
624.257613
 20
301.094428
 30
0.0
 11
624.957613
 21
301.794428
 31
0.0
  0
LINE
  5
1AF
100
AcDbEntity
  8
M05
100
AcDbLine
 10
624.257613
 20
301.094428
 30
0.0
 11
624.257613
 21
296.494428
 31
0.0
  0
LINE
  5
1B0
100
AcDbEntity
  8
M05
100
AcDbLine
 10
692.257613
 20
301.094428
 30
0.0
 11
691.557613
 21
301.794428
 31
0.0
  0
LINE
  5
1B1
100
AcDbEntity
  8
M05
100
AcDbLine
 10
692.257613
 20
296.494428
 30
0.0
 11
691.557613
 21
295.794428
 31
0.0
  0
LINE
  5
1B2
102
{ACAD_REACTORS
330
153
102
}
100
AcDbEntity
  8
M02
100
AcDbLine
 10
693.257613
 20
301.794428
 30
0.0
 11
693.257613
 21
298.794428
 31
0.0
  0
LINE
  5
1B3
100
AcDbEntity
  8
M05
100
AcDbLine
 10
691.557613
 20
295.794428
 30
0.0
 11
677.757613
 21
295.794428
 31
0.0
  0
LINE
  5
1B4
100
AcDbEntity
  8
M05
100
AcDbLine
 10
692.257613
 20
301.094428
 30
0.0
 11
692.257613
 21
296.494428
 31
0.0
  0
LINE
  5
1B5
102
{ACAD_REACTORS
330
24
102
}
100
AcDbEntity
  8
M04
100
AcDbLine
 10
648.257613
 20
310.794428
 30
0.0
 11
648.257613
 21
311.794428
 31
0.0
  0
LINE
  5
1B6
102
{ACAD_REACTORS
330
24
102
}
100
AcDbEntity
  8
M04
100
AcDbLine
 10
649.257613
 20
311.794428
 30
0.0
 11
648.257613
 21
311.794428
 31
0.0
  0
LINE
  5
1B7
102
{ACAD_REACTORS
330
24
102
}
100
AcDbEntity
  8
M04
100
AcDbLine
 10
668.257613
 20
310.794428
 30
0.0
 11
668.257613
 21
311.794428
 31
0.0
  0
LINE
  5
1B8
102
{ACAD_REACTORS
330
24
102
}
100
AcDbEntity
  8
M04
100
AcDbLine
 10
667.257613
 20
311.794428
 30
0.0
 11
668.257613
 21
311.794428
 31
0.0
  0
LINE
  5
1B9
100
AcDbEntity
  8
M05
100
AcDbLine
 10
667.257613
 20
311.794428
 30
0.0
 11
668.257613
 21
310.794428
 31
0.0
  0
LINE
  5
1BA
100
AcDbEntity
  8
M05
100
AcDbLine
 10
648.257613
 20
310.794428
 30
0.0
 11
649.257613
 21
311.794428
 31
0.0
  0
LINE
  5
1BB
102
{ACAD_REACTORS
330
24
102
}
100
AcDbEntity
  8
M05
100
AcDbLine
 10
667.257613
 20
311.794428
 30
0.0
 11
649.257613
 21
311.794428
 31
0.0
  0
LINE
  5
1BC
102
{ACAD_REACTORS
330
24
102
}
100
AcDbEntity
  8
M05
100
AcDbLine
 10
648.257613
 20
310.794428
 30
0.0
 11
648.257613
 21
301.794428
 31
0.0
  0
LINE
  5
1BD
102
{ACAD_REACTORS
330
24
102
}
100
AcDbEntity
  8
M05
100
AcDbLine
 10
668.257613
 20
310.794428
 30
0.0
 11
668.257613
 21
301.794428
 31
0.0
  0
LINE
  5
1BE
100
AcDbEntity
  8
M04
100
AcDbLine
 10
667.757613
 20
368.794428
 30
0.0
 11
797.505841
 21
368.794428
 31
0.0
  0
LINE
  5
1BF
102
{ACAD_REACTORS
330
151
102
}
100
AcDbEntity
  8
M02
100
AcDbLine
 10
667.757613
 20
364.794428
 30
0.0
 11
788.507613
 21
364.794428
 31
0.0
  0
LINE
  5
1C0
102
{ACAD_REACTORS
330
151
330
24
102
}
100
AcDbEntity
  8
M01
100
AcDbLine
 10
667.757613
 20
361.794428
 30
0.0
 11
788.507613
 21
361.794428
 31
0.0
  0
DIMENSION
  5
1C1
100
AcDbEntity
  8
DIMS
100
AcDbDimension
  2
*D8
 10
624.96959
 20
373.794428
 30
0.0
 11
621.96959
 21
384.437285
 31
0.0
 12
-511.862374
 22
439.98849
 32
0.0
  1
5.0
  3
DIM1
100
AcDbAlignedDimension
 13
647.257613
 23
368.794428
 33
0.0
 14
648.257613
 24
373.794428
 34
0.0
 50
270.0
100
AcDbRotatedDimension
1001
ACAD
1000
DSTYLE
1002
{
1070
   144
1040
1.0
1002
}
  0
DIMENSION
  5
1CF
100
AcDbEntity
  8
DIMS
100
AcDbDimension
  2
*D7
 10
647.257613
 20
406.321656
 30
0.0
 11
658.257613
 21
409.321656
 31
0.0
 12
-511.862374
 22
439.98849
 32
0.0
  3
DIM1
100
AcDbAlignedDimension
 13
669.257613
 23
373.217078
 33
0.0
 14
647.257613
 24
373.217078
 34
0.0
100
AcDbRotatedDimension
1001
ACAD
1000
DSTYLE
1002
{
1070
   144
1040
1.0
1002
}
  0
DIMENSION
  5
1DC
100
AcDbEntity
  8
DIMS
100
AcDbDimension
  2
*D6
 10
648.257613
 20
396.444243
 30
0.0
 11
629.043327
 21
399.444243
 31
0.0
 12
-511.862374
 22
439.98849
 32
0.0
  1
%%c<> H7
  3
DIM1
100
AcDbAlignedDimension
 13
668.257613
 23
378.794428
 33
0.0
 14
648.257613
 24
378.794428
 34
0.0
100
AcDbRotatedDimension
1001
ACAD
1000
DSTYLE
1002
{
1070
   144
1040
1.0
1002
}
  0
DIMENSION
  5
1EA
100
AcDbEntity
  8
DIMS
100
AcDbDimension
  2
*D5
 10
684.54463
 20
378.794428
 30
0.0
 11
684.54463
 21
392.008714
 31
0.0
 12
-511.862374
 22
439.98849
 32
0.0
 70
   128
  3
DIM1
100
AcDbAlignedDimension
 13
667.757613
 23
361.794428
 33
0.0
 14
668.257613
 24
378.794428
 34
0.0
 50
270.0
100
AcDbRotatedDimension
1001
ACAD
1000
DSTYLE
1002
{
1070
   144
1040
1.0
1002
}
  0
TEXT
  5
1F8
100
AcDbEntity
  8
TEXT
100
AcDbText
 10
660.969779
 20
372.430205
 30
0.0
 40
2.0
  1
MA010008
 50
270.0
 41
0.9
100
AcDbText
  0
LINE
  5
1F9
100
AcDbEntity
  8
M04
100
AcDbLine
 10
647.257613
 20
373.217078
 30
0.0
 11
648.757613
 21
373.217078
 31
0.0
  0
LINE
  5
1FA
100
AcDbEntity
  8
M04
100
AcDbLine
 10
647.257613
 20
373.217078
 30
0.0
 11
647.257613
 21
368.794428
 31
0.0
  0
LINE
  5
1FB
100
AcDbEntity
  8
M04
100
AcDbLine
 10
648.257613
 20
373.794428
 30
0.0
 11
647.257613
 21
373.217078
 31
0.0
  0
LINE
  5
1FC
100
AcDbEntity
  8
M04
100
AcDbLine
 10
648.257613
 20
377.794428
 30
0.0
 11
648.257613
 21
378.794428
 31
0.0
  0
LINE
  5
1FD
100
AcDbEntity
  8
M04
100
AcDbLine
 10
649.257613
 20
378.794428
 30
0.0
 11
648.257613
 21
378.794428
 31
0.0
  0
LINE
  5
1FE
102
{ACAD_REACTORS
330
24
102
}
100
AcDbEntity
  8
M04
100
AcDbLine
 10
649.757613
 20
356.794428
 30
0.0
 11
648.757613
 21
356.794428
 31
0.0
  0
LINE
  5
1FF
102
{ACAD_REACTORS
330
24
102
}
100
AcDbEntity
  8
M04
100
AcDbLine
 10
648.757613
 20
357.794428
 30
0.0
 11
648.757613
 21
356.794428
 31
0.0
  0
LINE
  5
200
100
AcDbEntity
  8
M04
100
AcDbLine
 10
669.257613
 20
373.217078
 30
0.0
 11
667.757613
 21
373.217078
 31
0.0
  0
LINE
  5
201
100
AcDbEntity
  8
M04
100
AcDbLine
 10
669.257613
 20
373.217078
 30
0.0
 11
669.257613
 21
368.794428
 31
0.0
  0
LINE
  5
202
100
AcDbEntity
  8
M04
100
AcDbLine
 10
668.257613
 20
373.794428
 30
0.0
 11
669.257613
 21
373.217078
 31
0.0
  0
LINE
  5
203
100
AcDbEntity
  8
M04
100
AcDbLine
 10
668.257613
 20
377.794428
 30
0.0
 11
668.257613
 21
378.794428
 31
0.0
  0
LINE
  5
204
100
AcDbEntity
  8
M04
100
AcDbLine
 10
667.257613
 20
378.794428
 30
0.0
 11
668.257613
 21
378.794428
 31
0.0
  0
LINE
  5
205
102
{ACAD_REACTORS
330
24
102
}
100
AcDbEntity
  8
M04
100
AcDbLine
 10
666.757613
 20
356.794428
 30
0.0
 11
667.757613
 21
356.794428
 31
0.0
  0
LINE
  5
206
102
{ACAD_REACTORS
330
24
102
}
100
AcDbEntity
  8
M04
100
AcDbLine
 10
667.757613
 20
357.794428
 30
0.0
 11
667.757613
 21
356.794428
 31
0.0
  0
LINE
  5
207
102
{ACAD_REACTORS
330
150
102
}
100
AcDbEntity
  8
M02
100
AcDbLine
 10
647.257613
 20
364.794428
 30
0.0
 11
647.257613
 21
361.794428
 31
0.0
  0
LINE
  5
208
102
{ACAD_REACTORS
330
151
102
}
100
AcDbEntity
  8
M02
100
AcDbLine
 10
669.257613
 20
364.794428
 30
0.0
 11
669.257613
 21
361.794428
 31
0.0
  0
LINE
  5
209
100
AcDbEntity
  8
M05
100
AcDbLine
 10
648.757613
 20
357.794428
 30
0.0
 11
667.757613
 21
357.794428
 31
0.0
  0
LINE
  5
20A
100
AcDbEntity
  8
M05
100
AcDbLine
 10
648.257613
 20
377.794428
 30
0.0
 11
668.257613
 21
377.794428
 31
0.0
  0
LINE
  5
20B
100
AcDbEntity
  8
M05
100
AcDbLine
 10
649.757613
 20
356.794428
 30
0.0
 11
648.757613
 21
357.794428
 31
0.0
  0
LINE
  5
20C
100
AcDbEntity
  8
M05
100
AcDbLine
 10
667.757613
 20
357.794428
 30
0.0
 11
666.757613
 21
356.794428
 31
0.0
  0
LINE
  5
20D
100
AcDbEntity
  8
M05
100
AcDbLine
 10
667.257613
 20
378.794428
 30
0.0
 11
668.257613
 21
377.794428
 31
0.0
  0
LINE
  5
20E
100
AcDbEntity
  8
M05
100
AcDbLine
 10
648.257613
 20
377.794428
 30
0.0
 11
649.257613
 21
378.794428
 31
0.0
  0
LINE
  5
20F
100
AcDbEntity
  8
M05
100
AcDbLine
 10
668.257613
 20
377.794428
 30
0.0
 11
668.257613
 21
373.794428
 31
0.0
  0
LINE
  5
210
100
AcDbEntity
  8
M05
100
AcDbLine
 10
648.257613
 20
377.794428
 30
0.0
 11
648.257613
 21
373.794428
 31
0.0
  0
LINE
  5
211
100
AcDbEntity
  8
M05
100
AcDbLine
 10
668.257613
 20
373.794428
 30
0.0
 11
648.257613
 21
373.794428
 31
0.0
  0
LINE
  5
212
100
AcDbEntity
  8
M05
100
AcDbLine
 10
667.257613
 20
378.794428
 30
0.0
 11
649.257613
 21
378.794428
 31
0.0
  0
LINE
  5
213
102
{ACAD_REACTORS
330
24
102
}
100
AcDbEntity
  8
M05
100
AcDbLine
 10
648.757613
 20
373.794428
 30
0.0
 11
648.757613
 21
357.794428
 31
0.0
  0
LINE
  5
214
102
{ACAD_REACTORS
330
24
102
}
100
AcDbEntity
  8
M05
100
AcDbLine
 10
667.757613
 20
373.794428
 30
0.0
 11
667.757613
 21
357.794428
 31
0.0
  0
LINE
  5
215
102
{ACAD_REACTORS
330
24
102
}
100
AcDbEntity
  8
M05
100
AcDbLine
 10
666.757613
 20
356.794428
 30
0.0
 11
649.757613
 21
356.794428
 31
0.0
  0
HATCH
  5
216
100
AcDbEntity
  8
HATCH
100
AcDbHatch
 10
0.0
 20
0.0
 30
0.0
210
0.0
220
0.0
230
1.0
  2
_U
 70
     0
 71
     0
 91
        2
 92
        7
 72
     0
 73
     1
 93
       11
 10
750.3987305768228
 20
301.7944280208971
 10
744.9576125642802
 20
301.7944280208971
 10
744.25761256428
 20
301.094428020897
 10
744.25761256428
 20
295.4944280208969
 10
744.9576125642799
 20
294.794428020897
 10
747.7576125642801
 20
294.794428020897
 10
748.7576125642799
 20
295.7944280208969
 10
750.7576125642797
 20
295.794428020897
 10
751.7576125642793
 20
294.794428020897
 10
754.7576125642799
 20
294.794428020897
 10
754.7576125642799
 20
297.43554603344
 97
        0
 92
        7
 72
     0
 73
     1
 93
       11
 10
772.2576125642799
 20
301.094428020897
 10
771.5576125642798
 20
301.794428020897
 10
766.1164945517368
 20
301.794428020897
 10
761.7576125642799
 20
297.43554603344
 10
761.7576125642799
 20
294.794428020897
 10
764.7576125642806
 20
294.794428020897
 10
765.7576125642804
 20
295.794428020897
 10
767.7576125642799
 20
295.7944280208969
 10
768.7576125642797
 20
294.794428020897
 10
771.5576125642798
 20
294.794428020897
 10
772.2576125642797
 20
295.4944280208968
 97
        0
 75
     0
 76
     0
 52
135.0
 41
1.5
 77
     0
 78
     1
 53
135.0
 43
147.810372
 44
54.307954
 45
-1.060660171779821
 46
-1.060660171779821
 79
     0
 47
0.151518
 98
        2
 10
748.733543
 20
298.478465
 10
767.377953
 20
299.084536
  0
LINE
  5
217
100
AcDbEntity
  8
M05
100
AcDbLine
 10
748.757613
 20
295.794428
 30
0.0
 11
747.757613
 21
294.794428
 31
0.0
  0
LINE
  5
218
100
AcDbEntity
  8
M05
100
AcDbLine
 10
750.757613
 20
295.794428
 30
0.0
 11
751.757613
 21
294.794428
 31
0.0
  0
LINE
  5
219
100
AcDbEntity
  8
M05
100
AcDbLine
 10
748.757613
 20
295.794428
 30
0.0
 11
750.757613
 21
295.794428
 31
0.0
  0
LINE
  5
21A
100
AcDbEntity
  8
M05
100
AcDbLine
 10
767.757613
 20
295.794428
 30
0.0
 11
768.757613
 21
294.794428
 31
0.0
  0
LINE
  5
21B
100
AcDbEntity
  8
M05
100
AcDbLine
 10
765.757613
 20
295.794428
 30
0.0
 11
764.757613
 21
294.794428
 31
0.0
  0
LINE
  5
21C
100
AcDbEntity
  8
M05
100
AcDbLine
 10
767.757613
 20
295.794428
 30
0.0
 11
765.757613
 21
295.794428
 31
0.0
  0
MTEXT
  5
21D
102
{ACAD_REACTORS
330
21E
102
}
100
AcDbEntity
  8
HATCH
 62
     2
100
AcDbMText
 10
788.897792
 20
283.953202
 30
0.0
 40
3.0
 41
0.0
 71
     1
 72
     5
  1
MA010006 (x6)
  0
LEADER
  5
21E
100
AcDbEntity
  8
HATCH
 62
     4
100
AcDbLeader
  3
DIM1$7
 73
     0
 74
     0
 75
     1
 40
4.571429
 41
34.142857
 76
     3
 10
767.974967
 20
296.425142
 30
0.0
 10
784.397792
 20
282.453202
 30
0.0
 10
787.397792
 20
282.453202
 30
0.0
 77
   256
340
21D
213
0.0
223
-1.5
233
0.0
1001
ACAD
1000
DSTYLE
1002
{
1070
   144
1040
1.0
1002
}
  0
LINE
  5
220
100
AcDbEntity
  8
M04
100
AcDbLine
 10
758.257613
 20
276.966522
 30
0.0
 11
760.557613
 21
278.294428
 31
0.0
  0
LINE
  5
221
100
AcDbEntity
  8
M04
100
AcDbLine
 10
755.957613
 20
278.294428
 30
0.0
 11
758.257613
 21
276.966522
 31
0.0
  0
LINE
  5
222
100
AcDbEntity
  8
M04
100
AcDbLine
 10
755.957613
 20
278.294428
 30
0.0
 11
760.557613
 21
278.294428
 31
0.0
  0
LINE
  5
223
100
AcDbEntity
  8
M04
100
AcDbLine
 10
755.257613
 20
283.355546
 30
0.0
 11
755.257613
 21
279.794428
 31
0.0
  0
LINE
  5
224
100
AcDbEntity
  8
M04
100
AcDbLine
 10
755.957613
 20
282.655546
 30
0.0
 11
755.957613
 21
278.294428
 31
0.0
  0
LINE
  5
225
100
AcDbEntity
  8
M04
100
AcDbLine
 10
761.257613
 20
283.355546
 30
0.0
 11
761.257613
 21
279.794428
 31
0.0
  0
LINE
  5
226
100
AcDbEntity
  8
M04
100
AcDbLine
 10
760.557613
 20
282.655546
 30
0.0
 11
760.557613
 21
278.294428
 31
0.0
  0
LINE
  5
227
100
AcDbEntity
  8
M05
100
AcDbLine
 10
760.557613
 20
282.655546
 30
0.0
 11
761.257613
 21
283.355546
 31
0.0
  0
LINE
  5
228
100
AcDbEntity
  8
M05
100
AcDbLine
 10
755.257613
 20
283.355546
 30
0.0
 11
755.957613
 21
282.655546
 31
0.0
  0
LINE
  5
229
100
AcDbEntity
  8
M05
100
AcDbLine
 10
760.557613
 20
295.435546
 30
0.0
 11
760.557613
 21
282.655546
 31
0.0
  0
LINE
  5
22A
100
AcDbEntity
  8
M05
100
AcDbLine
 10
755.957613
 20
295.435546
 30
0.0
 11
755.957613
 21
282.655546
 31
0.0
  0
LINE
  5
22B
100
AcDbEntity
  8
M05
100
AcDbLine
 10
755.257613
 20
283.355546
 30
0.0
 11
761.257613
 21
283.355546
 31
0.0
  0
LINE
  5
22C
100
AcDbEntity
  8
M04
100
AcDbLine
 10
755.257613
 20
279.794428
 30
0.0
 11
761.257613
 21
279.794428
 31
0.0
  0
LINE
  5
22D
100
AcDbEntity
  8
M05
100
AcDbLine
 10
755.957613
 20
282.655546
 30
0.0
 11
760.557613
 21
282.655546
 31
0.0
  0
LINE
  5
22E
102
{ACAD_REACTORS
330
24
330
23
102
}
100
AcDbEntity
  8
M05
  6
HIDDEN
100
AcDbLine
 10
750.098731
 20
302.094428
 30
0.0
 11
749.398731
 21
302.794428
 31
0.0
  0
LINE
  5
22F
102
{ACAD_REACTORS
330
24
102
}
100
AcDbEntity
  8
M05
  6
HIDDEN
100
AcDbLine
 10
766.416495
 20
302.094428
 30
0.0
 11
767.116495
 21
302.794428
 31
0.0
  0
LINE
  5
230
100
AcDbEntity
  8
M05
100
AcDbLine
 10
755.257613
 20
295.435546
 30
0.0
 11
761.257613
 21
295.435546
 31
0.0
  0
LINE
  5
231
100
AcDbEntity
  8
M05
100
AcDbLine
 10
758.807613
 20
299.935546
 30
0.0
 11
764.257613
 21
299.935546
 31
0.0
  0
LINE
  5
232
100
AcDbEntity
  8
M05
100
AcDbLine
 10
758.807613
 20
300.655546
 30
0.0
 11
764.257613
 21
300.655546
 31
0.0
  0
LINE
  5
233
100
AcDbEntity
  8
M05
100
AcDbLine
 10
758.807613
 20
300.655546
 30
0.0
 11
758.807613
 21
299.155546
 31
0.0
  0
LINE
  5
234
100
AcDbEntity
  8
M05
100
AcDbLine
 10
757.707613
 20
300.655546
 30
0.0
 11
757.707613
 21
299.155546
 31
0.0
  0
LINE
  5
235
100
AcDbEntity
  8
M05
100
AcDbLine
 10
757.707613
 20
299.155546
 30
0.0
 11
758.807613
 21
299.155546
 31
0.0
  0
LINE
  5
236
100
AcDbEntity
  8
M05
100
AcDbLine
 10
761.757613
 20
297.435546
 30
0.0
 11
761.757613
 21
294.794428
 31
0.0
  0
LINE
  5
237
100
AcDbEntity
  8
M05
100
AcDbLine
 10
754.757613
 20
297.435546
 30
0.0
 11
754.757613
 21
294.794428
 31
0.0
  0
LINE
  5
238
100
AcDbEntity
  8
M05
100
AcDbLine
 10
752.257613
 20
299.935546
 30
0.0
 11
757.707613
 21
299.935546
 31
0.0
  0
LINE
  5
239
102
{ACAD_REACTORS
330
24
102
}
100
AcDbEntity
  8
M05
100
AcDbLine
 10
755.257613
 20
296.935546
 30
0.0
 11
750.098731
 21
302.094428
 31
0.0
  0
LINE
  5
23A
100
AcDbEntity
  8
M05
100
AcDbLine
 10
752.257613
 20
300.655546
 30
0.0
 11
752.257613
 21
299.935546
 31
0.0
  0
LINE
  5
23B
102
{ACAD_REACTORS
330
24
102
}
100
AcDbEntity
  8
M05
100
AcDbLine
 10
761.257613
 20
296.935546
 30
0.0
 11
766.416495
 21
302.094428
 31
0.0
  0
LINE
  5
23C
100
AcDbEntity
  8
M05
100
AcDbLine
 10
755.257613
 20
296.935546
 30
0.0
 11
761.257613
 21
296.935546
 31
0.0
  0
LINE
  5
23D
100
AcDbEntity
  8
M05
100
AcDbLine
 10
755.257613
 20
296.935546
 30
0.0
 11
755.257613
 21
283.355546
 31
0.0
  0
LINE
  5
23E
100
AcDbEntity
  8
M05
100
AcDbLine
 10
761.257613
 20
296.935546
 30
0.0
 11
761.257613
 21
283.355546
 31
0.0
  0
LINE
  5
23F
100
AcDbEntity
  8
M05
100
AcDbLine
 10
764.257613
 20
300.655546
 30
0.0
 11
764.257613
 21
299.935546
 31
0.0
  0
LINE
  5
240
100
AcDbEntity
  8
M05
100
AcDbLine
 10
752.257613
 20
300.655546
 30
0.0
 11
757.707613
 21
300.655546
 31
0.0
  0
LINE
  5
241
102
{ACAD_REACTORS
330
24
330
23
102
}
100
AcDbEntity
  8
M05
  6
HIDDEN
100
AcDbLine
 10
744.257613
 20
302.094428
 30
0.0
 11
772.257613
 21
302.094428
 31
0.0
  0
LINE
  5
242
102
{ACAD_REACTORS
330
24
102
}
100
AcDbEntity
  8
M05
  6
HIDDEN
100
AcDbLine
 10
772.257613
 20
302.094428
 30
0.0
 11
771.557613
 21
302.794428
 31
0.0
  0
LINE
  5
243
102
{ACAD_REACTORS
330
24
102
}
100
AcDbEntity
  8
M05
  6
HIDDEN
100
AcDbLine
 10
772.257613
 20
301.094428
 30
0.0
 11
772.257613
 21
302.094428
 31
0.0
  0
LINE
  5
244
100
AcDbEntity
  8
M05
100
AcDbLine
 10
772.257613
 20
301.094428
 30
0.0
 11
771.557613
 21
301.794428
 31
0.0
  0
LINE
  5
245
100
AcDbEntity
  8
M05
100
AcDbLine
 10
772.257613
 20
295.494428
 30
0.0
 11
771.557613
 21
294.794428
 31
0.0
  0
LINE
  5
246
100
AcDbEntity
  8
M05
100
AcDbLine
 10
772.257613
 20
301.094428
 30
0.0
 11
772.257613
 21
295.494428
 31
0.0
  0
LINE
  5
247
102
{ACAD_REACTORS
330
24
102
}
100
AcDbEntity
  8
M05
  6
HIDDEN
100
AcDbLine
 10
744.257613
 20
302.094428
 30
0.0
 11
744.957613
 21
302.794428
 31
0.0
  0
LINE
  5
248
102
{ACAD_REACTORS
330
24
102
}
100
AcDbEntity
  8
M05
  6
HIDDEN
100
AcDbLine
 10
744.257613
 20
301.094428
 30
0.0
 11
744.257613
 21
302.094428
 31
0.0
  0
LINE
  5
249
100
AcDbEntity
  8
M05
100
AcDbLine
 10
744.257613
 20
301.094428
 30
0.0
 11
744.957613
 21
301.794428
 31
0.0
  0
LINE
  5
24A
100
AcDbEntity
  8
M05
100
AcDbLine
 10
744.257613
 20
295.494428
 30
0.0
 11
744.957613
 21
294.794428
 31
0.0
  0
LINE
  5
24B
102
{ACAD_REACTORS
330
152
102
}
100
AcDbEntity
  8
M02
100
AcDbLine
 10
773.257613
 20
301.794428
 30
0.0
 11
773.257613
 21
298.794428
 31
0.0
  0
LINE
  5
24C
102
{ACAD_REACTORS
330
153
102
}
100
AcDbEntity
  8
M02
100
AcDbLine
 10
743.257613
 20
301.794428
 30
0.0
 11
743.257613
 21
298.794428
 31
0.0
  0
LINE
  5
24D
102
{ACAD_REACTORS
330
24
330
23
102
}
100
AcDbEntity
  8
M05
  6
HIDDEN
100
AcDbLine
 10
744.957613
 20
302.794428
 30
0.0
 11
771.557613
 21
302.794428
 31
0.0
  0
LINE
  5
24E
100
AcDbEntity
  8
M05
100
AcDbLine
 10
744.257613
 20
301.094428
 30
0.0
 11
744.257613
 21
295.494428
 31
0.0
  0
LINE
  5
24F
102
{ACAD_REACTORS
330
24
330
23
102
}
100
AcDbEntity
  8
CENTRE
100
AcDbLine
 10
758.257613
 20
307.303539
 30
0.0
 11
758.257613
 21
274.2252
 31
0.0
  0
LINE
  5
250
100
AcDbEntity
  8
DIMS
 62
     4
100
AcDbLine
 10
654.857613
 20
581.660844
 30
0.0
 11
641.557613
 21
581.660844
 31
0.0
  0
LINE
  5
251
100
AcDbEntity
  8
DIMS
 62
     4
100
AcDbLine
 10
661.657613
 20
581.660844
 30
0.0
 11
674.957613
 21
581.660844
 31
0.0
  0
LINE
  5
252
100
AcDbEntity
  8
DIMS
 62
     4
100
AcDbLine
 10
659.957613
 20
581.660844
 30
0.0
 11
656.557613
 21
581.660844
 31
0.0
  0
LINE
  5
253
100
AcDbEntity
  8
DIMS
 62
     4
100
AcDbLine
 10
708.257613
 20
547.560844
 30
0.0
 11
708.257613
 21
549.860844
 31
0.0
  0
LINE
  5
254
100
AcDbEntity
  8
DIMS
 62
     4
100
AcDbLine
 10
708.257613
 20
540.760844
 30
0.0
 11
708.257613
 21
538.460844
 31
0.0
  0
LINE
  5
255
100
AcDbEntity
  8
DIMS
 62
     4
100
AcDbLine
 10
708.257613
 20
542.460844
 30
0.0
 11
708.257613
 21
545.860844
 31
0.0
  0
LINE
  5
256
100
AcDbEntity
  8
DIMS
 62
     4
100
AcDbLine
 10
608.257613
 20
547.560844
 30
0.0
 11
608.257613
 21
549.860844
 31
0.0
  0
LINE
  5
257
100
AcDbEntity
  8
DIMS
 62
     4
100
AcDbLine
 10
608.257613
 20
540.760844
 30
0.0
 11
608.257613
 21
538.460844
 31
0.0
  0
LINE
  5
258
100
AcDbEntity
  8
DIMS
 62
     4
100
AcDbLine
 10
608.257613
 20
542.460844
 30
0.0
 11
608.257613
 21
545.860844
 31
0.0
  0
LINE
  5
259
100
AcDbEntity
  8
DIMS
 62
     4
100
AcDbLine
 10
758.257613
 20
578.260844
 30
0.0
 11
758.257613
 21
564.960844
 31
0.0
  0
LINE
  5
25A
100
AcDbEntity
  8
DIMS
 62
     4
100
AcDbLine
 10
758.257613
 20
585.060844
 30
0.0
 11
758.257613
 21
598.360844
 31
0.0
  0
LINE
  5
25B
100
AcDbEntity
  8
DIMS
 62
     4
100
AcDbLine
 10
754.857613
 20
581.660844
 30
0.0
 11
741.557613
 21
581.660844
 31
0.0
  0
LINE
  5
25C
100
AcDbEntity
  8
DIMS
 62
     4
100
AcDbLine
 10
761.657613
 20
581.660844
 30
0.0
 11
774.957613
 21
581.660844
 31
0.0
  0
LINE
  5
25D
100
AcDbEntity
  8
DIMS
 62
     4
100
AcDbLine
 10
758.257613
 20
583.360844
 30
0.0
 11
758.257613
 21
579.960844
 31
0.0
  0
LINE
  5
25E
100
AcDbEntity
  8
DIMS
 62
     4
100
AcDbLine
 10
759.957613
 20
581.660844
 30
0.0
 11
756.557613
 21
581.660844
 31
0.0
  0
LINE
  5
25F
100
AcDbEntity
  8
DIMS
 62
     4
100
AcDbLine
 10
758.257613
 20
503.260844
 30
0.0
 11
758.257613
 21
489.960844
 31
0.0
  0
LINE
  5
260
100
AcDbEntity
  8
DIMS
 62
     4
100
AcDbLine
 10
758.257613
 20
510.060844
 30
0.0
 11
758.257613
 21
523.360844
 31
0.0
  0
LINE
  5
261
100
AcDbEntity
  8
DIMS
 62
     4
100
AcDbLine
 10
754.857613
 20
506.660844
 30
0.0
 11
741.557613
 21
506.660844
 31
0.0
  0
LINE
  5
262
100
AcDbEntity
  8
DIMS
 62
     4
100
AcDbLine
 10
761.657613
 20
506.660844
 30
0.0
 11
774.957613
 21
506.660844
 31
0.0
  0
LINE
  5
263
100
AcDbEntity
  8
DIMS
 62
     4
100
AcDbLine
 10
758.257613
 20
508.360844
 30
0.0
 11
758.257613
 21
504.960844
 31
0.0
  0
LINE
  5
264
100
AcDbEntity
  8
DIMS
 62
     4
100
AcDbLine
 10
759.957613
 20
506.660844
 30
0.0
 11
756.557613
 21
506.660844
 31
0.0
  0
CIRCLE
  5
265
100
AcDbEntity
  8
M03
100
AcDbCircle
 10
758.257613
 20
581.660844
 30
0.0
 40
2.3
  0
ARC
  5
266
100
AcDbEntity
  8
M03
100
AcDbCircle
 10
758.257613
 20
581.660844
 30
0.0
 40
3.0
100
AcDbArc
 50
347.784636
 51
276.923103
  0
LINE
  5
267
100
AcDbEntity
  8
M03
100
AcDbLine
 10
757.707613
 20
587.635582
 30
0.0
 11
757.707613
 21
575.686105
 31
0.0
  0
LINE
  5
268
100
AcDbEntity
  8
M03
100
AcDbLine
 10
758.807613
 20
587.635582
 30
0.0
 11
758.807613
 21
575.686105
 31
0.0
  0
CIRCLE
  5
269
100
AcDbEntity
  8
M03
100
AcDbCircle
 10
758.257613
 20
581.660844
 30
0.0
 40
15.0
  0
CIRCLE
  5
26A
100
AcDbEntity
  8
M03
100
AcDbCircle
 10
758.257613
 20
581.660844
 30
0.0
 40
14.0
  0
CIRCLE
  5
26B
100
AcDbEntity
  8
M03
100
AcDbCircle
 10
758.257613
 20
581.660844
 30
0.0
 40
7.858882
  0
CIRCLE
  5
26C
100
AcDbEntity
  8
M03
100
AcDbCircle
 10
758.257613
 20
581.660844
 30
0.0
 40
6.0
  0
CIRCLE
  5
26D
100
AcDbEntity
  8
M03
100
AcDbCircle
 10
658.257613
 20
581.660844
 30
0.0
 40
2.3
  0
ARC
  5
26E
100
AcDbEntity
  8
M03
100
AcDbCircle
 10
658.257613
 20
581.660844
 30
0.0
 40
3.0
100
AcDbArc
 50
347.784636
 51
276.923103
  0
LINE
  5
26F
100
AcDbEntity
  8
M03
100
AcDbLine
 10
657.707613
 20
587.635582
 30
0.0
 11
657.707613
 21
575.686105
 31
0.0
  0
LINE
  5
270
100
AcDbEntity
  8
M03
100
AcDbLine
 10
658.807613
 20
587.635582
 30
0.0
 11
658.807613
 21
575.686105
 31
0.0
  0
CIRCLE
  5
271
100
AcDbEntity
  8
M03
100
AcDbCircle
 10
658.257613
 20
581.660844
 30
0.0
 40
15.0
  0
CIRCLE
  5
272
100
AcDbEntity
  8
M03
100
AcDbCircle
 10
658.257613
 20
581.660844
 30
0.0
 40
14.0
  0
CIRCLE
  5
273
100
AcDbEntity
  8
M03
100
AcDbCircle
 10
658.257613
 20
581.660844
 30
0.0
 40
7.858882
  0
CIRCLE
  5
274
100
AcDbEntity
  8
M03
100
AcDbCircle
 10
658.257613
 20
581.660844
 30
0.0
 40
6.0
  0
CIRCLE
  5
275
100
AcDbEntity
  8
M03
100
AcDbCircle
 10
758.257613
 20
506.660844
 30
0.0
 40
2.3
  0
ARC
  5
276
100
AcDbEntity
  8
M03
100
AcDbCircle
 10
758.257613
 20
506.660844
 30
0.0
 40
3.0
100
AcDbArc
 50
347.784636
 51
276.923103
  0
LINE
  5
277
100
AcDbEntity
  8
M03
100
AcDbLine
 10
757.707613
 20
512.635582
 30
0.0
 11
757.707613
 21
500.686105
 31
0.0
  0
LINE
  5
278
100
AcDbEntity
  8
M03
100
AcDbLine
 10
758.807613
 20
512.635582
 30
0.0
 11
758.807613
 21
500.686105
 31
0.0
  0
CIRCLE
  5
279
100
AcDbEntity
  8
M03
100
AcDbCircle
 10
758.257613
 20
506.660844
 30
0.0
 40
15.0
  0
CIRCLE
  5
27A
100
AcDbEntity
  8
M03
100
AcDbCircle
 10
758.257613
 20
506.660844
 30
0.0
 40
14.0
  0
CIRCLE
  5
27B
100
AcDbEntity
  8
M03
100
AcDbCircle
 10
758.257613
 20
506.660844
 30
0.0
 40
7.858882
  0
CIRCLE
  5
27C
100
AcDbEntity
  8
M03
100
AcDbCircle
 10
758.257613
 20
506.660844
 30
0.0
 40
6.0
  0
LINE
  5
27D
100
AcDbEntity
  8
DIMS
 62
     4
100
AcDbLine
 10
661.657613
 20
518.160844
 30
0.0
 11
665.457613
 21
518.160844
 31
0.0
  0
LINE
  5
27E
100
AcDbEntity
  8
DIMS
 62
     4
100
AcDbLine
 10
654.857613
 20
518.160844
 30
0.0
 11
651.057613
 21
518.160844
 31
0.0
  0
LINE
  5
27F
100
AcDbEntity
  8
DIMS
 62
     4
100
AcDbLine
 10
656.557613
 20
518.160844
 30
0.0
 11
659.957613
 21
518.160844
 31
0.0
  0
CIRCLE
  5
280
100
AcDbEntity
  8
M03
100
AcDbCircle
 10
658.257613
 20
518.160844
 30
0.0
 40
2.3
  0
ARC
  5
281
100
AcDbEntity
  8
M03
100
AcDbCircle
 10
658.257613
 20
518.160844
 30
0.0
 40
3.0
100
AcDbArc
 50
167.784636
 51
96.923103
  0
CIRCLE
  5
282
100
AcDbEntity
  8
M03
100
AcDbCircle
 10
658.257613
 20
518.160844
 30
0.0
 40
5.5
  0
CIRCLE
  5
283
100
AcDbEntity
  8
M03
100
AcDbCircle
 10
658.257613
 20
544.160844
 30
0.0
 40
34.0
  0
LINE
  5
284
100
AcDbEntity
  8
DIMS
 62
     4
100
AcDbLine
 10
632.257613
 20
547.560844
 30
0.0
 11
632.257613
 21
551.360844
 31
0.0
  0
LINE
  5
285
100
AcDbEntity
  8
DIMS
 62
     4
100
AcDbLine
 10
632.257613
 20
540.760844
 30
0.0
 11
632.257613
 21
536.960844
 31
0.0
  0
LINE
  5
286
100
AcDbEntity
  8
DIMS
 62
     4
100
AcDbLine
 10
632.257613
 20
542.460844
 30
0.0
 11
632.257613
 21
545.860844
 31
0.0
  0
LINE
  5
287
100
AcDbEntity
  8
DIMS
 62
     4
100
AcDbLine
 10
684.257613
 20
547.560844
 30
0.0
 11
684.257613
 21
551.360844
 31
0.0
  0
LINE
  5
288
100
AcDbEntity
  8
DIMS
 62
     4
100
AcDbLine
 10
684.257613
 20
540.760844
 30
0.0
 11
684.257613
 21
536.960844
 31
0.0
  0
LINE
  5
289
100
AcDbEntity
  8
DIMS
 62
     4
100
AcDbLine
 10
684.257613
 20
542.460844
 30
0.0
 11
684.257613
 21
545.860844
 31
0.0
  0
LINE
  5
28A
100
AcDbEntity
  8
DIMS
 62
     4
100
AcDbLine
 10
661.657613
 20
570.160844
 30
0.0
 11
665.457613
 21
570.160844
 31
0.0
  0
LINE
  5
28B
100
AcDbEntity
  8
DIMS
 62
     4
100
AcDbLine
 10
654.857613
 20
570.160844
 30
0.0
 11
651.057613
 21
570.160844
 31
0.0
  0
LINE
  5
28C
100
AcDbEntity
  8
DIMS
 62
     4
100
AcDbLine
 10
656.557613
 20
570.160844
 30
0.0
 11
659.957613
 21
570.160844
 31
0.0
  0
CIRCLE
  5
28D
100
AcDbEntity
  8
M03
100
AcDbCircle
 10
684.257613
 20
544.160844
 30
0.0
 40
2.3
  0
ARC
  5
28E
100
AcDbEntity
  8
M03
100
AcDbCircle
 10
684.257613
 20
544.160844
 30
0.0
 40
3.0
100
AcDbArc
 50
167.784636
 51
96.923103
  0
CIRCLE
  5
28F
100
AcDbEntity
  8
M03
100
AcDbCircle
 10
684.257613
 20
544.160844
 30
0.0
 40
5.5
  0
CIRCLE
  5
290
100
AcDbEntity
  8
M03
100
AcDbCircle
 10
632.257613
 20
544.160844
 30
0.0
 40
2.3
  0
ARC
  5
291
100
AcDbEntity
  8
M03
100
AcDbCircle
 10
632.257613
 20
544.160844
 30
0.0
 40
3.0
100
AcDbArc
 50
167.784636
 51
96.923103
  0
CIRCLE
  5
292
100
AcDbEntity
  8
M03
100
AcDbCircle
 10
632.257613
 20
544.160844
 30
0.0
 40
5.5
  0
CIRCLE
  5
293
100
AcDbEntity
  8
M03
100
AcDbCircle
 10
658.257613
 20
570.160844
 30
0.0
 40
2.3
  0
ARC
  5
294
100
AcDbEntity
  8
M03
100
AcDbCircle
 10
658.257613
 20
570.160844
 30
0.0
 40
3.0
100
AcDbArc
 50
167.784636
 51
96.923103
  0
CIRCLE
  5
295
100
AcDbEntity
  8
M03
100
AcDbCircle
 10
658.257613
 20
570.160844
 30
0.0
 40
5.5
  0
CIRCLE
  5
296
100
AcDbEntity
  8
M03
100
AcDbCircle
 10
658.257613
 20
544.160844
 30
0.0
 40
20.0
  0
HATCH
  5
297
100
AcDbEntity
  8
M01
 62
     4
100
AcDbHatch
 10
0.0
 20
0.0
 30
0.0
210
0.0
220
0.0
230
1.0
  2
_U
 70
     0
 71
     0
 91
       13
 92
        7
 72
     1
 73
     1
 93
        4
 10
652.25761256428
 20
551.5263038183511
 42
0.0
 10
652.25761256428
 20
548.160843887023
 42
0.0
 10
658.2576125642799
 20
548.160843887023
 42
0.0
 10
658.2576125642799
 20
553.660843887023
 42
0.1725804109198133
 97
        0
 92
        7
 72
     1
 73
     1
 93
        4
 10
658.2576125642799
 20
548.160843887023
 42
0.0
 10
652.25761256428
 20
548.160843887023
 42
0.0
 10
652.25761256428
 20
544.160843887023
 42
0.0
 10
654.2576125642799
 20
544.160843887023
 42
-0.4142135623730992
 97
        0
 92
       22
 72
     1
 73
     1
 93
        3
 10
658.2576125642799
 20
548.160843887023
 42
0.4142135623730909
 10
654.2576125642799
 20
544.160843887023
 42
0.0
 10
658.2576125642799
 20
544.160843887023
 42
0.0
 97
        0
 92
        7
 72
     1
 73
     1
 93
        4
 10
652.25761256428
 20
548.160843887023
 42
0.0
 10
649.6407685944729
 20
548.160843887023
 42
0.1090809576248918
 10
648.7576125642799
 20
544.160843887023
 42
0.0
 10
652.25761256428
 20
544.160843887023
 42
0.0
 97
        0
 92
       22
 72
     1
 73
     1
 93
        3
 10
652.25761256428
 20
551.526303818351
 42
0.1136360637262233
 10
649.6407685944729
 20
548.160843887023
 42
0.0
 10
652.2576125642797
 20
548.160843887023
 42
0.0
 97
        0
 92
        7
 72
     1
 73
     1
 93
        4
 10
648.25761256428
 20
544.160843887023
 42
0.0
 10
648.7576125642799
 20
544.160843887023
 42
-0.1090809576248918
 10
649.6407685944729
 20
548.160843887023
 42
0.0
 10
649.0924611743682
 20
548.160843887023
 42
0.1032437171755979
 97
        0
 92
        7
 72
     1
 73
     1
 93
        4
 10
649.0924611743682
 20
548.160843887023
 42
0.0
 10
649.6407685944729
 20
548.160843887023
 42
-0.1136360637262264
 10
652.25761256428
 20
551.5263038183511
 42
0.0
 10
652.25761256428
 20
552.160843887023
 42
0.1296640194076911
 97
        0
 92
        7
 72
     1
 73
     1
 93
        4
 10
658.2576125642799
 20
553.660843887023
 42
0.0
 10
658.2576125642799
 20
554.160843887023
 42
0.1622776601683798
 10
652.25761256428
 20
552.160843887023
 42
0.0
 10
652.25761256428
 20
551.5263038183511
 42
-0.1725804109198127
 97
        0
 92
       23
 72
     1
 73
     1
 93
        3
 10
658.2576125642799
 20
544.160843887023
 42
0.0
 10
658.2576125642799
 20
540.160843887023
 42
0.4142135623730909
 10
662.2576125642799
 20
544.160843887023
 42
0.0
 97
        0
 92
        7
 72
     1
 73
     1
 93
        4
 10
662.2576125642799
 20
544.160843887023
 42
-0.4142135623730909
 10
658.2576125642799
 20
540.160843887023
 42
0.0
 10
666.8744565340871
 20
540.160843887023
 42
0.1090809576248888
 10
667.7576125642799
 20
544.160843887023
 42
0.0
 97
        0
 92
       23
 72
     1
 73
     1
 93
        3
 10
658.2576125642799
 20
540.160843887023
 42
0.0
 10
658.2576125642799
 20
534.660843887023
 42
0.2919418509678903
 10
666.8744565340871
 20
540.160843887023
 42
0.0
 97
        0
 92
        7
 72
     1
 73
     1
 93
        4
 10
667.4227639541916
 20
540.160843887023
 42
0.0
 10
666.8744565340871
 20
540.160843887023
 42
-0.2919418509678903
 10
658.2576125642799
 20
534.660843887023
 42
0.0
 10
658.2576125642799
 20
534.160843887023
 42
0.2982166266986068
 97
        0
 92
        7
 72
     1
 73
     1
 93
        4
 10
668.2576125642799
 20
544.160843887023
 42
0.0
 10
667.7576125642799
 20
544.160843887023
 42
-0.1090809576248888
 10
666.8744565340871
 20
540.160843887023
 42
0.0
 10
667.4227639541916
 20
540.160843887023
 42
0.1032437171755951
 97
        0
 75
     0
 76
     0
 52
45.0
 41
1.0
 77
     1
 78
     2
 53
45.0
 43
102.810372
 44
111.601618
 45
-0.7071067811865475
 46
0.7071067811865476
 79
     0
 53
135.0
 43
102.810372
 44
111.601618
 45
-0.7071067811865476
 46
-0.7071067811865475
 79
     0
 47
0.087843
 98
       13
 10
655.588582
 20
550.97638
 10
654.006757
 20
546.584233
 10
656.994649
 20
546.057175
 10
651.106744
 20
546.057175
 10
651.54614
 20
549.043835
 10
648.821886
 20
546.759919
 10
651.721899
 20
551.415595
 10
654.358274
 20
553.08461
 10
659.982542
 20
542.982673
 10
664.112863
 20
542.192087
 10
661.828005
 20
538.590527
 10
660.773455
 20
534.637595
 10
667.891669
 20
542.279929
  0
CIRCLE
  5
298
100
AcDbEntity
  8
M01
100
AcDbCircle
 10
658.257613
 20
544.160844
 30
0.0
 40
10.0
  0
CIRCLE
  5
299
100
AcDbEntity
  8
M03
100
AcDbCircle
 10
658.257613
 20
544.160844
 30
0.0
 40
9.5
  0
WIPEOUT
  5
29A
100
AcDbEntity
  8
TEXT
 92
      140
310
8C00000001000000840000000600000005000000AE2B40FDF70987407B3268187ADE73400000000000000000BD15E10BE28287407B3268187ADE73400000000000000000BE15E10BE2828740793268187A1E74400000000000000000B02B40FDF70987407C3268187A1E74400000000000000000AE2B40FDF70987407B3268
310
187ADE73400000000000000000
100
AcDbWipeout
 90
        0
 10
703.097819
 20
272.642253
 30
0.0
 11
49.262555
 21
0.0
 31
0.0
 12
0.0
 22
49.262555
 32
0.0
 13
0.0
 23
0.0
340
0
 70
     7
280
     1
281
    50
282
    50
283
     0
360
0
 71
     2
 91
        5
 14
0.193189
 24
-0.418802
 14
0.5
 24
-0.418802
 14
0.5
 24
-0.5
 14
0.193189
 24
-0.5
 14
0.193189
 24
-0.418802
  0
TEXT
  5
29B
102
{ACAD_REACTORS
330
24
102
}
100
AcDbEntity
  8
TEXT
100
AcDbText
 10
738.246089
 20
318.904808
 30
0.0
 40
2.0
  1
MM010103
 41
0.9
100
AcDbText
  0
CIRCLE
  5
29C
102
{ACAD_REACTORS
330
24
102
}
100
AcDbEntity
  8
M01
100
AcDbCircle
 10
608.257613
 20
344.794428
 30
0.0
 40
4.0
  0
LINE
  5
29D
102
{ACAD_REACTORS
330
24
102
}
100
AcDbEntity
  8
M01
100
AcDbLine
 10
662.257613
 20
318.794428
 30
0.0
 11
708.257613
 21
318.794428
 31
0.0
  0
LINE
  5
29E
100
AcDbEntity
  8
M01
100
AcDbLine
 10
658.257613
 20
322.794428
 30
0.0
 11
662.257613
 21
318.794428
 31
0.0
  0
LINE
  5
29F
100
AcDbEntity
  8
M01
100
AcDbLine
 10
654.257613
 20
318.794428
 30
0.0
 11
658.257613
 21
322.794428
 31
0.0
  0
LINE
  5
2A0
100
AcDbEntity
  8
M01
100
AcDbLine
 10
612.257613
 20
326.794428
 30
0.0
 11
608.257613
 21
322.794428
 31
0.0
  0
ARC
  5
2A1
102
{ACAD_REACTORS
330
24
102
}
100
AcDbEntity
  8
M01
100
AcDbCircle
 10
608.257613
 20
322.794428
 30
0.0
 40
4.0
100
AcDbArc
 50
180.0
 51
270.0
  0
LINE
  5
2A2
102
{ACAD_REACTORS
330
24
102
}
100
AcDbEntity
  8
M01
100
AcDbLine
 10
612.257613
 20
344.794428
 30
0.0
 11
612.257613
 21
326.794428
 31
0.0
  0
LINE
  5
2A3
102
{ACAD_REACTORS
330
24
102
}
100
AcDbEntity
  8
M01
100
AcDbLine
 10
604.257613
 20
344.794428
 30
0.0
 11
604.257613
 21
322.794428
 31
0.0
  0
LINE
  5
2A4
100
AcDbEntity
  8
CENTRE
100
AcDbLine
 10
608.257613
 20
352.794428
 30
0.0
 11
608.257613
 21
314.794428
 31
0.0
  0
LINE
  5
2A5
100
AcDbEntity
  8
M01
100
AcDbLine
 10
704.257613
 20
326.794428
 30
0.0
 11
708.257613
 21
322.794428
 31
0.0
  0
ARC
  5
2A6
102
{ACAD_REACTORS
330
24
102
}
100
AcDbEntity
  8
M01
100
AcDbCircle
 10
708.257613
 20
322.794428
 30
0.0
 40
4.0
100
AcDbArc
 50
270.0
 51
0.0
  0
LINE
  5
2A7
100
AcDbEntity
  8
CENTRE
100
AcDbLine
 10
600.257613
 20
322.794428
 30
0.0
 11
716.257613
 21
322.794428
 31
0.0
  0
LINE
  5
2A8
102
{ACAD_REACTORS
330
24
102
}
100
AcDbEntity
  8
M01
100
AcDbLine
 10
608.257613
 20
318.794428
 30
0.0
 11
654.257613
 21
318.794428
 31
0.0
  0
LINE
  5
2A9
102
{ACAD_REACTORS
330
24
102
}
100
AcDbEntity
  8
M01
100
AcDbLine
 10
612.257613
 20
326.794428
 30
0.0
 11
704.257613
 21
326.794428
 31
0.0
  0
ARC
  5
2AA
102
{ACAD_REACTORS
330
24
102
}
100
AcDbEntity
  8
M01
100
AcDbCircle
 10
708.257613
 20
344.794428
 30
0.0
 40
4.0
100
AcDbArc
 50
90.0
 51
180.0
  0
LINE
  5
2AB
100
AcDbEntity
  8
M01
100
AcDbLine
 10
708.257613
 20
344.794428
 30
0.0
 11
712.257613
 21
340.794428
 31
0.0
  0
LINE
  5
2AC
102
{ACAD_REACTORS
330
24
102
}
100
AcDbEntity
  8
M01
100
AcDbLine
 10
704.257613
 20
344.794428
 30
0.0
 11
704.257613
 21
326.794428
 31
0.0
  0
LINE
  5
2AD
102
{ACAD_REACTORS
330
24
102
}
100
AcDbEntity
  8
M01
100
AcDbLine
 10
712.257613
 20
340.794428
 30
0.0
 11
712.257613
 21
322.794428
 31
0.0
  0
LINE
  5
2AE
100
AcDbEntity
  8
CENTRE
100
AcDbLine
 10
708.257613
 20
352.794428
 30
0.0
 11
708.257613
 21
314.794428
 31
0.0
  0
LINE
  5
2AF
102
{ACAD_REACTORS
330
24
102
}
100
AcDbEntity
  8
M01
100
AcDbLine
 10
758.257613
 20
340.794428
 30
0.0
 11
712.257613
 21
340.794428
 31
0.0
  0
ARC
  5
2B0
102
{ACAD_REACTORS
330
24
102
}
100
AcDbEntity
  8
M01
100
AcDbCircle
 10
758.257613
 20
344.794428
 30
0.0
 40
4.0
100
AcDbArc
 50
270.0
 51
0.0
  0
LINE
  5
2B1
102
{ACAD_REACTORS
330
24
102
}
100
AcDbEntity
  8
M01
100
AcDbLine
 10
762.257613
 20
361.794428
 30
0.0
 11
762.257613
 21
344.794428
 31
0.0
  0
LINE
  5
2B2
102
{ACAD_REACTORS
330
24
102
}
100
AcDbEntity
  8
M01
100
AcDbLine
 10
754.257613
 20
361.794428
 30
0.0
 11
754.257613
 21
348.794428
 31
0.0
  0
LINE
  5
2B3
102
{ACAD_REACTORS
330
24
102
}
100
AcDbEntity
  8
M01
100
AcDbLine
 10
754.257613
 20
348.794428
 30
0.0
 11
708.257613
 21
348.794428
 31
0.0
  0
CIRCLE
  5
2B4
100
AcDbEntity
  8
M03
100
AcDbCircle
 10
658.257613
 20
544.160844
 30
0.0
 40
4.0
  0
LINE
  5
2B5
102
{ACAD_REACTORS
330
151
102
}
100
AcDbEntity
  8
M02
100
AcDbLine
 10
776.257613
 20
361.794428
 30
0.0
 11
776.257613
 21
364.794428
 31
0.0
  0
LINE
  5
2B6
102
{ACAD_REACTORS
330
151
102
}
100
AcDbEntity
  8
M02
100
AcDbLine
 10
740.257613
 20
361.794428
 30
0.0
 11
740.257613
 21
364.794428
 31
0.0
  0
LINE
  5
2B7
100
AcDbEntity
  8
CENTRE
100
AcDbLine
 10
700.257613
 20
344.794428
 30
0.0
 11
766.257613
 21
344.794428
 31
0.0
  0
LINE
  5
2B8
100
AcDbEntity
  8
M01
100
AcDbLine
 10
758.257613
 20
344.794428
 30
0.0
 11
754.257613
 21
348.794428
 31
0.0
  0
LINE
  5
2B9
100
AcDbEntity
  8
CENTRE
100
AcDbLine
 10
758.257613
 20
374.606023
 30
0.0
 11
758.257613
 21
336.794428
 31
0.0
  0
LWPOLYLINE
  5
2BA
100
AcDbEntity
  8
M01
 62
     4
100
AcDbPolyline
 90
        2
 70
     0
 43
0.0
 10
809.452953
 20
616.272834
 10
818.355445
 20
631.120842
1001
ACAD
1000
DSTYLE
1002
{
1070
   144
1040
1.0
1002
}
  0
SOLID
  5
2BB
100
AcDbEntity
  8
M01
 62
     4
100
AcDbTrace
 10
809.024126
 20
616.529947
 30
0.0
 11
807.91027
 21
613.699872
 31
0.0
 12
809.88178
 22
616.01572
 32
0.0
 13
809.88178
 23
616.01572
 33
0.0
1001
ACAD
1000
DSTYLE
1002
{
1070
   144
1040
1.0
1002
}
  0
LINE
  5
2BC
100
AcDbEntity
  8
M01
 62
     4
100
AcDbLine
 10
718.604776
 20
455.004658
 30
0.0
 11
715.604776
 21
455.004658
 31
0.0
1001
ACAD
1000
DSTYLE
1002
{
1070
   144
1040
1.0
1002
}
  0
LINE
  5
2BD
100
AcDbEntity
  8
M01
 62
     4
100
AcDbLine
 10
734.609287
 20
485.162841
 30
0.0
 11
718.604776
 21
455.004658
 31
0.0
1001
ACAD
1000
DSTYLE
1002
{
1070
   144
1040
1.0
1002
}
  0
SOLID
  5
2BE
100
AcDbEntity
  8
M01
 62
     4
100
AcDbTrace
 10
734.167626
 20
485.397225
 30
0.0
 11
736.015586
 21
487.812808
 31
0.0
 12
735.050948
 22
484.928458
 32
0.0
 13
735.050948
 23
484.928458
 33
0.0
1001
ACAD
1000
DSTYLE
1002
{
1070
   144
1040
1.0
1002
}
  0
MTEXT
  5
2BF
100
AcDbEntity
  8
DIMS
 62
     2
100
AcDbMText
 10
679.243947
 20
454.550828
 30
0.0
 40
3.0
 41
0.0
 71
     4
 72
     5
  1
HGX10037 (x2)
  0
LINE
  5
2C0
100
AcDbEntity
  8
M01
100
AcDbLine
 10
440.021945
 20
307.806416
 30
0.0
 11
438.815216
 21
305.826708
 31
0.0
  0
LINE
  5
2C1
100
AcDbEntity
  8
M01
100
AcDbLine
 10
428.568718
 20
300.072449
 30
0.0
 11
419.993906
 21
300.072449
 31
0.0
  0
LINE
  5
2C2
100
AcDbEntity
  8
M01
100
AcDbLine
 10
428.568718
 20
304.072449
 30
0.0
 11
419.993906
 21
304.072449
 31
0.0
  0
ARC
  5
2C3
100
AcDbEntity
  8
M01
100
AcDbCircle
 10
428.568718
 20
312.072449
 30
0.0
 40
12.0
100
AcDbArc
 50
270.0
 51
328.635651
  0
ARC
  5
2C4
100
AcDbEntity
  8
M01
100
AcDbCircle
 10
428.568718
 20
312.072449
 30
0.0
 40
8.0
100
AcDbArc
 50
270.0
 51
321.153546
  0
LINE
  5
2C5
100
AcDbEntity
  8
M01
100
AcDbLine
 10
443.646398
 20
321.437777
 30
0.0
 11
437.41229
 21
311.210365
 31
0.0
  0
LINE
  5
2C6
100
AcDbEntity
  8
M01
100
AcDbLine
 10
447.061897
 20
319.355863
 30
0.0
 11
446.864688
 21
319.032331
 31
0.0
  0
LINE
  5
2C7
100
AcDbEntity
  8
M01
100
AcDbLine
 10
454.064305
 20
320.794428
 30
0.0
 11
454.657613
 21
320.794428
 31
0.0
  0
LINE
  5
2C8
100
AcDbEntity
  8
M01
100
AcDbLine
 10
449.623521
 20
324.794428
 30
0.0
 11
452.349365
 21
324.794428
 31
0.0
  0
ARC
  5
2C9
100
AcDbEntity
  8
M01
100
AcDbCircle
 10
449.623521
 20
317.794428
 30
0.0
 40
3.0
100
AcDbArc
 50
118.327309
 51
148.635651
  0
ARC
  5
2CA
100
AcDbEntity
  8
M01
100
AcDbCircle
 10
449.623521
 20
317.794428
 30
0.0
 40
7.0
100
AcDbArc
 50
90.0
 51
148.635651
  0
ARC
  5
2CB
100
AcDbEntity
  8
M01
100
AcDbCircle
 10
454.657613
 20
317.794428
 30
0.0
 40
7.0
100
AcDbArc
 50
0.0
 51
67.321321
  0
ARC
  5
2CC
100
AcDbEntity
  8
M01
100
AcDbCircle
 10
454.657613
 20
317.794428
 30
0.0
 40
3.0
100
AcDbArc
 50
0.0
 51
90.0
  0
ARC
  5
2CD
100
AcDbEntity
  8
M01
100
AcDbCircle
 10
435.841138
 20
319.054565
 30
0.0
 40
12.0
100
AcDbArc
 50
270.0
 51
316.413007
  0
ARC
  5
2CE
100
AcDbEntity
  8
M01
100
AcDbCircle
 10
435.841138
 20
319.054565
 30
0.0
 40
8.0
100
AcDbArc
 50
270.0
 51
316.413007
  0
LINE
  5
2CF
100
AcDbEntity
  8
M01
100
AcDbLine
 10
457.657613
 20
317.794428
 30
0.0
 11
457.657613
 21
312.794428
 31
0.0
  0
LINE
  5
2D0
100
AcDbEntity
  8
M01
100
AcDbLine
 10
457.657613
 20
316.794428
 30
0.0
 11
461.657613
 21
316.794428
 31
0.0
  0
LINE
  5
2D1
100
AcDbEntity
  8
M01
100
AcDbLine
 10
457.657613
 20
312.794428
 30
0.0
 11
461.657613
 21
312.794428
 31
0.0
  0
LINE
  5
2D2
100
AcDbEntity
  8
M01
100
AcDbLine
 10
461.657613
 20
360.794428
 30
0.0
 11
461.657613
 21
333.56989
 31
0.0
  0
LINE
  5
2D3
100
AcDbEntity
  8
M01
100
AcDbLine
 10
457.657613
 20
333.56989
 30
0.0
 11
457.657613
 21
350.794428
 31
0.0
  0
ARC
  5
2D4
100
AcDbEntity
  8
M01
100
AcDbCircle
 10
449.657613
 20
333.56989
 30
0.0
 40
12.0
100
AcDbArc
 50
316.413007
 51
360.0
  0
ARC
  5
2D5
100
AcDbEntity
  8
M01
100
AcDbCircle
 10
449.657613
 20
333.56989
 30
0.0
 40
8.0
100
AcDbArc
 50
316.413007
 51
360.0
  0
LINE
  5
2D6
100
AcDbEntity
  8
M01
100
AcDbLine
 10
457.657613
 20
346.794428
 30
0.0
 11
461.657613
 21
346.794428
 31
0.0
  0
LINE
  5
2D7
100
AcDbEntity
  8
M01
100
AcDbLine
 10
457.657613
 20
350.794428
 30
0.0
 11
461.657613
 21
350.794428
 31
0.0
  0
LINE
  5
2D8
100
AcDbEntity
  8
M01
100
AcDbLine
 10
444.533079
 20
310.781104
 30
0.0
 11
458.349553
 21
325.296428
 31
0.0
  0
LINE
  5
2D9
100
AcDbEntity
  8
M01
100
AcDbLine
 10
441.635765
 20
313.538924
 30
0.0
 11
455.45224
 21
328.054249
 31
0.0
  0
LINE
  5
2DA
100
AcDbEntity
  8
M01
100
AcDbLine
 10
420.002648
 20
307.054565
 30
0.0
 11
435.841138
 21
307.054565
 31
0.0
  0
LINE
  5
2DB
100
AcDbEntity
  8
M01
100
AcDbLine
 10
420.002648
 20
311.054565
 30
0.0
 11
435.841138
 21
311.054565
 31
0.0
  0
LINE
  5
2DC
100
AcDbEntity
  8
M01
100
AcDbLine
 10
476.313512
 20
311.044428
 30
0.0
 11
476.313512
 21
304.544428
 31
0.0
  0
LINE
  5
2DD
100
AcDbEntity
  8
M01
100
AcDbLine
 10
468.201713
 20
311.044428
 30
0.0
 11
468.201713
 21
304.544428
 31
0.0
  0
LINE
  5
2DE
100
AcDbEntity
  8
M01
100
AcDbLine
 10
476.313512
 20
311.044428
 30
0.0
 11
478.257613
 21
311.044428
 31
0.0
  0
ARC
  5
2DF
100
AcDbEntity
  8
M01
100
AcDbCircle
 10
474.752263
 20
312.294428
 30
0.0
 40
2.0
100
AcDbArc
 50
270.0
 51
321.317813
  0
ARC
  5
2E0
100
AcDbEntity
  8
M01
100
AcDbCircle
 10
469.762962
 20
312.294428
 30
0.0
 40
2.0
100
AcDbArc
 50
218.682187
 51
270.0
  0
LINE
  5
2E1
100
AcDbEntity
  8
M01
100
AcDbLine
 10
466.257613
 20
311.044428
 30
0.0
 11
468.201713
 21
311.044428
 31
0.0
  0
LINE
  5
2E2
100
AcDbEntity
  8
M01
100
AcDbLine
 10
469.762962
 20
310.294428
 30
0.0
 11
474.752263
 21
310.294428
 31
0.0
  0
LINE
  5
2E3
100
AcDbEntity
  8
M01
100
AcDbLine
 10
476.313512
 20
304.544428
 30
0.0
 11
478.257613
 21
304.544428
 31
0.0
  0
ARC
  5
2E4
100
AcDbEntity
  8
M01
100
AcDbCircle
 10
474.752263
 20
303.294428
 30
0.0
 40
2.0
100
AcDbArc
 50
38.682187
 51
90.0
  0
ARC
  5
2E5
100
AcDbEntity
  8
M01
100
AcDbCircle
 10
469.762962
 20
303.294428
 30
0.0
 40
2.0
100
AcDbArc
 50
90.0
 51
141.317813
  0
LINE
  5
2E6
100
AcDbEntity
  8
M01
100
AcDbLine
 10
466.257613
 20
304.544428
 30
0.0
 11
468.201713
 21
304.544428
 31
0.0
  0
LINE
  5
2E7
100
AcDbEntity
  8
M01
100
AcDbLine
 10
469.762962
 20
305.294428
 30
0.0
 11
474.752263
 21
305.294428
 31
0.0
  0
LINE
  5
2E8
100
AcDbEntity
  8
DIMS
 62
     4
100
AcDbLine
 10
776.616346
 20
305.794428
 30
0.0
 11
774.316346
 21
305.794428
 31
0.0
  0
LINE
  5
2E9
100
AcDbEntity
  8
DIMS
 62
     4
100
AcDbLine
 10
783.416346
 20
305.794428
 30
0.0
 11
785.716346
 21
305.794428
 31
0.0
  0
LINE
  5
2EA
100
AcDbEntity
  8
DIMS
 62
     4
100
AcDbLine
 10
780.016346
 20
302.394428
 30
0.0
 11
780.016346
 21
300.094428
 31
0.0
  0
LINE
  5
2EB
100
AcDbEntity
  8
DIMS
 62
     4
100
AcDbLine
 10
780.016346
 20
309.194428
 30
0.0
 11
780.016346
 21
311.494428
 31
0.0
  0
LINE
  5
2EC
100
AcDbEntity
  8
DIMS
 62
     4
100
AcDbLine
 10
781.716346
 20
305.794428
 30
0.0
 11
778.316346
 21
305.794428
 31
0.0
  0
LINE
  5
2ED
100
AcDbEntity
  8
DIMS
 62
     4
100
AcDbLine
 10
780.016346
 20
307.494428
 30
0.0
 11
780.016346
 21
304.094428
 31
0.0
  0
LINE
  5
2EE
100
AcDbEntity
  8
DIMS
 62
     4
100
AcDbLine
 10
776.616346
 20
357.794428
 30
0.0
 11
774.316346
 21
357.794428
 31
0.0
  0
LINE
  5
2EF
100
AcDbEntity
  8
DIMS
 62
     4
100
AcDbLine
 10
783.416346
 20
357.794428
 30
0.0
 11
785.716346
 21
357.794428
 31
0.0
  0
LINE
  5
2F0
100
AcDbEntity
  8
DIMS
 62
     4
100
AcDbLine
 10
780.016346
 20
354.394428
 30
0.0
 11
780.016346
 21
352.094428
 31
0.0
  0
LINE
  5
2F1
100
AcDbEntity
  8
DIMS
 62
     4
100
AcDbLine
 10
780.016346
 20
361.194428
 30
0.0
 11
780.016346
 21
363.494428
 31
0.0
  0
LINE
  5
2F2
100
AcDbEntity
  8
DIMS
 62
     4
100
AcDbLine
 10
781.716346
 20
357.794428
 30
0.0
 11
778.316346
 21
357.794428
 31
0.0
  0
LINE
  5
2F3
100
AcDbEntity
  8
DIMS
 62
     4
100
AcDbLine
 10
780.016346
 20
359.494428
 30
0.0
 11
780.016346
 21
356.094428
 31
0.0
  0
HATCH
  5
2F4
100
AcDbEntity
  8
HATCH
100
AcDbHatch
 10
0.0
 20
0.0
 30
0.0
210
0.0
220
0.0
230
1.0
  2
_U
 70
     0
 71
     1
 91
        2
 92
        7
 72
     1
 73
     1
 93
        2
 10
784.0163457646992
 20
357.7944280208975
 42
1.0
 10
776.0163457646992
 20
357.7944280208975
 42
1.0
 97
        1
330
2FA
 92
        7
 72
     1
 73
     1
 93
        2
 10
784.0163457646992
 20
305.7944280208975
 42
1.0
 10
776.0163457646992
 20
305.7944280208975
 42
1.0
 97
        1
330
2F9
 75
     0
 76
     0
 52
135.0
 41
0.8
 77
     0
 78
     1
 53
225.0
 43
1189.575572
 44
1136.384536
 45
-0.565685424949238
 46
0.565685424949238
 79
     0
 47
0.095608
 98
        2
 10
780.316987
 20
357.66108
 10
779.16969
 20
318.636889
  0
LINE
  5
2F5
102
{ACAD_REACTORS
330
24
102
}
100
AcDbEntity
  8
M01
100
AcDbLine
 10
784.016346
 20
305.794428
 30
0.0
 11
784.016346
 21
301.794428
 31
0.0
  0
LINE
  5
2F6
102
{ACAD_REACTORS
330
24
102
}
100
AcDbEntity
  8
M01
100
AcDbLine
 10
776.016346
 20
305.794428
 30
0.0
 11
776.016346
 21
301.794428
 31
0.0
  0
LINE
  5
2F7
102
{ACAD_REACTORS
330
24
102
}
100
AcDbEntity
  8
M01
100
AcDbLine
 10
784.016346
 20
357.794428
 30
0.0
 11
784.016346
 21
361.794428
 31
0.0
  0
LINE
  5
2F8
102
{ACAD_REACTORS
330
24
102
}
100
AcDbEntity
  8
M01
100
AcDbLine
 10
776.016346
 20
357.794428
 30
0.0
 11
776.016346
 21
361.794428
 31
0.0
  0
CIRCLE
  5
2F9
102
{ACAD_REACTORS
330
2F4
330
24
102
}
100
AcDbEntity
  8
M01
100
AcDbCircle
 10
780.016346
 20
305.794428
 30
0.0
 40
4.0
  0
CIRCLE
  5
2FA
102
{ACAD_REACTORS
330
2F4
330
24
102
}
100
AcDbEntity
  8
M01
100
AcDbCircle
 10
780.016346
 20
357.794428
 30
0.0
 40
4.0
  0
DIMENSION
  5
2FB
100
AcDbEntity
  8
DIMS
100
AcDbDimension
  2
*D4
 10
507.757613
 20
396.470593
 30
0.0
 11
509.543327
 21
399.470593
 31
0.0
 12
250.992078
 22
357.274478
 32
0.0
  1
%%c<> H7
  3
DIM1
100
AcDbAlignedDimension
 13
499.757613
 23
381.794428
 33
0.0
 14
507.757613
 24
381.794428
 34
0.0
100
AcDbRotatedDimension
1001
ACAD
1000
DSTYLE
1002
{
1070
   144
1040
1.0
1002
}
  0
DIMENSION
  5
309
100
AcDbEntity
  8
DIMS
100
AcDbDimension
  2
*D3
 10
638.257613
 20
250.479311
 30
0.0
 11
658.257613
 21
253.479311
 31
0.0
 12
-192.561382
 22
318.045504
 32
0.0
  1
%%c<> H7
  3
DIM1
100
AcDbAlignedDimension
 13
678.257613
 23
286.794428
 33
0.0
 14
638.257613
 24
286.794428
 34
0.0
100
AcDbRotatedDimension
1001
ACAD
1000
DSTYLE
1002
{
1070
   144
1040
1.0
1002
}
  0
DIMENSION
  5
316
100
AcDbEntity
  8
DIMS
100
AcDbDimension
  2
*D2
 10
833.23031
 20
368.794428
 30
0.0
 11
823.23031
 21
379.437285
 31
0.0
 12
7.0
 22
0.0
 32
0.0
  1
7.0
  3
DIM1
100
AcDbAlignedDimension
 13
788.507613
 23
361.794428
 33
0.0
 14
797.505841
 24
368.794428
 34
0.0
 50
90.0
100
AcDbRotatedDimension
1001
ACAD
1000
DSTYLE
1002
{
1070
   144
1040
1.0
1002
}
  0
DIMENSION
  5
324
100
AcDbEntity
  8
DIMS
100
AcDbDimension
  2
*D1
 10
833.23031
 20
294.794428
 30
0.0
 11
823.23031
 21
284.151571
 31
0.0
 12
7.0
 22
0.0
 32
0.0
  1
7.0
  3
DIM1
100
AcDbAlignedDimension
 13
788.507613
 23
301.794428
 33
0.0
 14
809.019232
 24
294.794428
 34
0.0
 50
90.0
100
AcDbRotatedDimension
1001
ACAD
1000
DSTYLE
1002
{
1070
   144
1040
1.0
1002
}
  0
DIMENSION
  5
332
100
AcDbEntity
  8
DIMS
100
AcDbDimension
  2
*D0
 10
833.23031
 20
301.794428
 30
0.0
 11
823.23031
 21
331.794428
 31
0.0
 12
7.0
 22
0.0
 32
0.0
  3
DIM1
100
AcDbAlignedDimension
 13
788.507613
 23
361.794428
 33
0.0
 14
790.507613
 24
301.794428
 34
0.0
 50
90.0
100
AcDbRotatedDimension
1001
ACAD
1000
DSTYLE
1002
{
1070
   144
1040
1.0
1002
}
  0
LINE
  5
33F
100
AcDbEntity
  8
M01
100
AcDbLine
 10
483.257613
 20
312.794428
 30
0.0
 11
483.257613
 21
302.794428
 31
0.0
  0
LINE
  5
340
100
AcDbEntity
  8
M01
100
AcDbLine
 10
476.313512
 20
359.044428
 30
0.0
 11
476.313512
 21
352.544428
 31
0.0
  0
LINE
  5
341
100
AcDbEntity
  8
M01
100
AcDbLine
 10
468.201713
 20
359.044428
 30
0.0
 11
468.201713
 21
352.544428
 31
0.0
  0
LINE
  5
342
100
AcDbEntity
  8
M01
100
AcDbLine
 10
476.313512
 20
359.044428
 30
0.0
 11
478.257613
 21
359.044428
 31
0.0
  0
ARC
  5
343
100
AcDbEntity
  8
M01
100
AcDbCircle
 10
474.752263
 20
360.294428
 30
0.0
 40
2.0
100
AcDbArc
 50
270.0
 51
321.317813
  0
ARC
  5
344
100
AcDbEntity
  8
M01
100
AcDbCircle
 10
469.762962
 20
360.294428
 30
0.0
 40
2.0
100
AcDbArc
 50
218.682187
 51
270.0
  0
LINE
  5
345
100
AcDbEntity
  8
M01
100
AcDbLine
 10
466.257613
 20
359.044428
 30
0.0
 11
468.201713
 21
359.044428
 31
0.0
  0
LINE
  5
346
100
AcDbEntity
  8
M01
100
AcDbLine
 10
469.762962
 20
358.294428
 30
0.0
 11
474.752263
 21
358.294428
 31
0.0
  0
LINE
  5
347
100
AcDbEntity
  8
M01
100
AcDbLine
 10
476.313512
 20
352.544428
 30
0.0
 11
478.257613
 21
352.544428
 31
0.0
  0
ARC
  5
348
100
AcDbEntity
  8
M01
100
AcDbCircle
 10
474.752263
 20
351.294428
 30
0.0
 40
2.0
100
AcDbArc
 50
38.682187
 51
90.0
  0
ARC
  5
349
100
AcDbEntity
  8
M01
100
AcDbCircle
 10
469.762962
 20
351.294428
 30
0.0
 40
2.0
100
AcDbArc
 50
90.0
 51
141.317813
  0
LINE
  5
34A
100
AcDbEntity
  8
M01
100
AcDbLine
 10
466.257613
 20
352.544428
 30
0.0
 11
468.201713
 21
352.544428
 31
0.0
  0
LINE
  5
34B
100
AcDbEntity
  8
M01
100
AcDbLine
 10
469.762962
 20
353.294428
 30
0.0
 11
474.752263
 21
353.294428
 31
0.0
  0
LINE
  5
34C
100
AcDbEntity
  8
M01
100
AcDbLine
 10
483.257613
 20
360.794428
 30
0.0
 11
483.257613
 21
350.794428
 31
0.0
  0
LINE
  5
34D
100
AcDbEntity
  8
M01
100
AcDbLine
 10
478.257613
 20
302.794428
 30
0.0
 11
499.257613
 21
302.794428
 31
0.0
  0
LINE
  5
34E
100
AcDbEntity
  8
M01
100
AcDbLine
 10
478.257613
 20
312.794428
 30
0.0
 11
498.257613
 21
312.794428
 31
0.0
  0
LINE
  5
34F
100
AcDbEntity
  8
M01
100
AcDbLine
 10
478.257613
 20
360.794428
 30
0.0
 11
499.257613
 21
360.794428
 31
0.0
  0
LINE
  5
350
100
AcDbEntity
  8
M01
100
AcDbLine
 10
478.257613
 20
350.794428
 30
0.0
 11
498.257613
 21
350.794428
 31
0.0
  0
HATCH
  5
351
100
AcDbEntity
  8
HATCH
100
AcDbHatch
 10
0.0
 20
0.0
 30
0.0
210
0.0
220
0.0
230
1.0
  2
_U
 70
     0
 71
     1
 91
        1
 92
        7
 72
     0
 73
     1
 93
        4
 10
500.2576125642802
 20
301.7944280208974
 10
500.2576125642802
 20
298.7944280208974
 10
623.25761256428
 20
298.7944280208974
 10
623.2576125642797
 20
301.7944280208972
 97
        4
330
3CA
330
3D2
330
3B0
330
3CC
 75
     0
 76
     0
 52
225.0
 41
0.8
 77
     0
 78
     1
 53
135.0
 43
990.816839
 44
1123.384536
 45
0.565685424949238
 46
0.5656854249492382
 79
     0
 47
0.167139
 98
        1
 10
495.980053
 20
299.899385
  0
LINE
  5
352
100
AcDbEntity
  8
M01
100
AcDbLine
 10
456.357613
 20
310.825517
 30
0.0
 11
456.357613
 21
304.763339
 31
0.0
  0
ARC
  5
353
100
AcDbEntity
  8
M01
100
AcDbCircle
 10
458.206918
 20
304.763339
 30
0.0
 40
1.150694
100
AcDbArc
 50
298.592423
 51
61.407577
  0
ARC
  5
354
100
AcDbEntity
  8
M01
100
AcDbCircle
 10
455.654835
 20
307.794428
 30
0.0
 40
3.702778
100
AcDbArc
 50
326.92527
 51
33.07473
  0
ARC
  5
355
100
AcDbEntity
  8
M01
100
AcDbCircle
 10
458.206918
 20
310.825517
 30
0.0
 40
1.150694
100
AcDbArc
 50
298.592423
 51
61.407577
  0
ARC
  5
356
100
AcDbEntity
  8
M01
100
AcDbCircle
 10
457.508307
 20
304.763339
 30
0.0
 40
1.150694
100
AcDbArc
 50
118.592423
 51
241.407577
  0
ARC
  5
357
100
AcDbEntity
  8
M01
100
AcDbCircle
 10
460.06039
 20
307.794428
 30
0.0
 40
3.702778
100
AcDbArc
 50
146.92527
 51
213.07473
  0
LINE
  5
358
100
AcDbEntity
  8
M01
100
AcDbLine
 10
456.957613
 20
305.773702
 30
0.0
 11
458.757613
 21
305.773702
 31
0.0
  0
LINE
  5
359
100
AcDbEntity
  8
M01
100
AcDbLine
 10
456.957613
 20
303.752976
 30
0.0
 11
458.757613
 21
303.752976
 31
0.0
  0
ARC
  5
35A
100
AcDbEntity
  8
M01
100
AcDbCircle
 10
457.508307
 20
310.825517
 30
0.0
 40
1.150694
100
AcDbArc
 50
118.592423
 51
241.407577
  0
LINE
  5
35B
100
AcDbEntity
  8
M01
100
AcDbLine
 10
456.957613
 20
309.815154
 30
0.0
 11
458.757613
 21
309.815154
 31
0.0
  0
LINE
  5
35C
100
AcDbEntity
  8
M01
100
AcDbLine
 10
456.957613
 20
311.83588
 30
0.0
 11
458.757613
 21
311.83588
 31
0.0
  0
LINE
  5
35D
100
AcDbEntity
  8
M01
100
AcDbLine
 10
461.657613
 20
302.794428
 30
0.0
 11
460.157613
 21
302.794428
 31
0.0
  0
LINE
  5
35E
100
AcDbEntity
  8
M01
100
AcDbLine
 10
461.657613
 20
312.794428
 30
0.0
 11
460.157613
 21
312.794428
 31
0.0
  0
LINE
  5
35F
100
AcDbEntity
  8
M01
100
AcDbLine
 10
460.157613
 20
303.294428
 30
0.0
 11
459.357613
 21
303.294428
 31
0.0
  0
LINE
  5
360
100
AcDbEntity
  8
M01
100
AcDbLine
 10
460.157613
 20
312.294428
 30
0.0
 11
459.357613
 21
312.294428
 31
0.0
  0
LINE
  5
361
100
AcDbEntity
  8
M01
100
AcDbLine
 10
459.357613
 20
312.294428
 30
0.0
 11
459.357613
 21
303.294428
 31
0.0
  0
LINE
  5
362
100
AcDbEntity
  8
M01
100
AcDbLine
 10
460.157613
 20
312.794428
 30
0.0
 11
460.157613
 21
302.794428
 31
0.0
  0
LINE
  5
363
100
AcDbEntity
  8
M01
100
AcDbLine
 10
462.457613
 20
303.294428
 30
0.0
 11
461.657613
 21
303.294428
 31
0.0
  0
LINE
  5
364
100
AcDbEntity
  8
M01
100
AcDbLine
 10
462.457613
 20
312.294428
 30
0.0
 11
461.657613
 21
312.294428
 31
0.0
  0
LINE
  5
365
100
AcDbEntity
  8
M01
100
AcDbLine
 10
461.657613
 20
317.794428
 30
0.0
 11
461.657613
 21
302.794428
 31
0.0
  0
ARC
  5
366
100
AcDbEntity
  8
M01
100
AcDbCircle
 10
464.306918
 20
304.763339
 30
0.0
 40
1.150694
100
AcDbArc
 50
298.592423
 51
61.407577
  0
ARC
  5
367
100
AcDbEntity
  8
M01
100
AcDbCircle
 10
461.754835
 20
307.794428
 30
0.0
 40
3.702778
100
AcDbArc
 50
326.92527
 51
33.07473
  0
ARC
  5
368
100
AcDbEntity
  8
M01
100
AcDbCircle
 10
464.306918
 20
310.825517
 30
0.0
 40
1.150694
100
AcDbArc
 50
298.592423
 51
61.407577
  0
ARC
  5
369
100
AcDbEntity
  8
M01
100
AcDbCircle
 10
463.608307
 20
304.763339
 30
0.0
 40
1.150694
100
AcDbArc
 50
118.592423
 51
241.407577
  0
ARC
  5
36A
100
AcDbEntity
  8
M01
100
AcDbCircle
 10
466.16039
 20
307.794428
 30
0.0
 40
3.702778
100
AcDbArc
 50
146.92527
 51
213.07473
  0
LINE
  5
36B
100
AcDbEntity
  8
M01
100
AcDbLine
 10
463.057613
 20
305.773702
 30
0.0
 11
464.857613
 21
305.773702
 31
0.0
  0
LINE
  5
36C
100
AcDbEntity
  8
M01
100
AcDbLine
 10
463.057613
 20
303.752976
 30
0.0
 11
464.857613
 21
303.752976
 31
0.0
  0
ARC
  5
36D
100
AcDbEntity
  8
M01
100
AcDbCircle
 10
463.608307
 20
310.825517
 30
0.0
 40
1.150694
100
AcDbArc
 50
118.592423
 51
241.407577
  0
LINE
  5
36E
100
AcDbEntity
  8
M01
100
AcDbLine
 10
463.057613
 20
309.815154
 30
0.0
 11
464.857613
 21
309.815154
 31
0.0
  0
LINE
  5
36F
100
AcDbEntity
  8
M01
100
AcDbLine
 10
463.057613
 20
311.83588
 30
0.0
 11
464.857613
 21
311.83588
 31
0.0
  0
LINE
  5
370
100
AcDbEntity
  8
M01
100
AcDbLine
 10
462.457613
 20
312.294428
 30
0.0
 11
462.457613
 21
303.294428
 31
0.0
  0
LINE
  5
371
100
AcDbEntity
  8
M01
100
AcDbLine
 10
465.457613
 20
312.294428
 30
0.0
 11
465.457613
 21
303.294428
 31
0.0
  0
LINE
  5
372
100
AcDbEntity
  8
M01
100
AcDbLine
 10
466.257613
 20
312.294428
 30
0.0
 11
466.257613
 21
303.294428
 31
0.0
  0
LINE
  5
373
100
AcDbEntity
  8
M01
100
AcDbLine
 10
453.257613
 20
306.294428
 30
0.0
 11
453.757613
 21
305.794428
 31
0.0
  0
LINE
  5
374
100
AcDbEntity
  8
M01
100
AcDbLine
 10
453.757613
 20
309.794428
 30
0.0
 11
453.257613
 21
309.294428
 31
0.0
  0
LINE
  5
375
100
AcDbEntity
  8
M01
100
AcDbLine
 10
453.757613
 20
309.794428
 30
0.0
 11
453.757613
 21
305.794428
 31
0.0
  0
LINE
  5
376
100
AcDbEntity
  8
M01
100
AcDbLine
 10
453.257613
 20
306.294428
 30
0.0
 11
456.357613
 21
306.294428
 31
0.0
  0
LINE
  5
377
100
AcDbEntity
  8
M01
100
AcDbLine
 10
453.257613
 20
309.294428
 30
0.0
 11
456.357613
 21
309.294428
 31
0.0
  0
LINE
  5
378
100
AcDbEntity
  8
M01
100
AcDbLine
 10
453.757613
 20
309.794428
 30
0.0
 11
456.357613
 21
309.794428
 31
0.0
  0
LINE
  5
379
100
AcDbEntity
  8
M01
100
AcDbLine
 10
453.757613
 20
305.794428
 30
0.0
 11
456.357613
 21
305.794428
 31
0.0
  0
LINE
  5
37A
100
AcDbEntity
  8
M01
100
AcDbLine
 10
453.257613
 20
309.294428
 30
0.0
 11
453.257613
 21
306.294428
 31
0.0
  0
LINE
  5
37B
100
AcDbEntity
  8
M01
100
AcDbLine
 10
478.257613
 20
312.794428
 30
0.0
 11
478.257613
 21
302.794428
 31
0.0
  0
LINE
  5
37C
100
AcDbEntity
  8
M01
100
AcDbLine
 10
465.457613
 20
303.294428
 30
0.0
 11
466.257613
 21
303.294428
 31
0.0
  0
LINE
  5
37D
100
AcDbEntity
  8
M01
100
AcDbLine
 10
465.457613
 20
312.294428
 30
0.0
 11
466.257613
 21
312.294428
 31
0.0
  0
LINE
  5
37E
100
AcDbEntity
  8
CENTRE
100
AcDbLine
 10
447.096723
 20
307.794428
 30
0.0
 11
510.690155
 21
307.794428
 31
0.0
  0
LINE
  5
37F
100
AcDbEntity
  8
M01
100
AcDbLine
 10
456.357613
 20
352.763339
 30
0.0
 11
456.357613
 21
358.825517
 31
0.0
  0
ARC
  5
380
100
AcDbEntity
  8
M01
100
AcDbCircle
 10
458.206918
 20
358.825517
 30
0.0
 40
1.150694
100
AcDbArc
 50
298.592423
 51
61.407577
  0
ARC
  5
381
100
AcDbEntity
  8
M01
100
AcDbCircle
 10
455.654835
 20
355.794428
 30
0.0
 40
3.702778
100
AcDbArc
 50
326.92527
 51
33.07473
  0
ARC
  5
382
100
AcDbEntity
  8
M01
100
AcDbCircle
 10
458.206918
 20
352.763339
 30
0.0
 40
1.150694
100
AcDbArc
 50
298.592423
 51
61.407577
  0
ARC
  5
383
100
AcDbEntity
  8
M01
100
AcDbCircle
 10
457.508307
 20
358.825517
 30
0.0
 40
1.150694
100
AcDbArc
 50
118.592423
 51
241.407577
  0
ARC
  5
384
100
AcDbEntity
  8
M01
100
AcDbCircle
 10
460.06039
 20
355.794428
 30
0.0
 40
3.702778
100
AcDbArc
 50
146.92527
 51
213.07473
  0
LINE
  5
385
100
AcDbEntity
  8
M01
100
AcDbLine
 10
456.957613
 20
357.815154
 30
0.0
 11
458.757613
 21
357.815154
 31
0.0
  0
LINE
  5
386
100
AcDbEntity
  8
M01
100
AcDbLine
 10
456.957613
 20
359.83588
 30
0.0
 11
458.757613
 21
359.83588
 31
0.0
  0
ARC
  5
387
100
AcDbEntity
  8
M01
100
AcDbCircle
 10
457.508307
 20
352.763339
 30
0.0
 40
1.150694
100
AcDbArc
 50
118.592423
 51
241.407577
  0
LINE
  5
388
100
AcDbEntity
  8
M01
100
AcDbLine
 10
456.957613
 20
353.773702
 30
0.0
 11
458.757613
 21
353.773702
 31
0.0
  0
LINE
  5
389
100
AcDbEntity
  8
M01
100
AcDbLine
 10
456.957613
 20
351.752976
 30
0.0
 11
458.757613
 21
351.752976
 31
0.0
  0
LINE
  5
38A
100
AcDbEntity
  8
M01
100
AcDbLine
 10
461.657613
 20
360.794428
 30
0.0
 11
460.157613
 21
360.794428
 31
0.0
  0
LINE
  5
38B
100
AcDbEntity
  8
M01
100
AcDbLine
 10
460.157613
 20
360.294428
 30
0.0
 11
459.357613
 21
360.294428
 31
0.0
  0
LINE
  5
38C
100
AcDbEntity
  8
M01
100
AcDbLine
 10
460.157613
 20
351.294428
 30
0.0
 11
459.357613
 21
351.294428
 31
0.0
  0
LINE
  5
38D
100
AcDbEntity
  8
M01
100
AcDbLine
 10
459.357613
 20
351.294428
 30
0.0
 11
459.357613
 21
360.294428
 31
0.0
  0
LINE
  5
38E
100
AcDbEntity
  8
M01
100
AcDbLine
 10
460.157613
 20
350.794428
 30
0.0
 11
460.157613
 21
360.794428
 31
0.0
  0
LINE
  5
38F
100
AcDbEntity
  8
M01
100
AcDbLine
 10
462.457613
 20
360.294428
 30
0.0
 11
461.657613
 21
360.294428
 31
0.0
  0
LINE
  5
390
100
AcDbEntity
  8
M01
100
AcDbLine
 10
462.457613
 20
351.294428
 30
0.0
 11
461.657613
 21
351.294428
 31
0.0
  0
ARC
  5
391
100
AcDbEntity
  8
M01
100
AcDbCircle
 10
464.306918
 20
358.825517
 30
0.0
 40
1.150694
100
AcDbArc
 50
298.592423
 51
61.407577
  0
ARC
  5
392
100
AcDbEntity
  8
M01
100
AcDbCircle
 10
461.754835
 20
355.794428
 30
0.0
 40
3.702778
100
AcDbArc
 50
326.92527
 51
33.07473
  0
ARC
  5
393
100
AcDbEntity
  8
M01
100
AcDbCircle
 10
464.306918
 20
352.763339
 30
0.0
 40
1.150694
100
AcDbArc
 50
298.592423
 51
61.407577
  0
ARC
  5
394
100
AcDbEntity
  8
M01
100
AcDbCircle
 10
463.608307
 20
358.825517
 30
0.0
 40
1.150694
100
AcDbArc
 50
118.592423
 51
241.407577
  0
ARC
  5
395
100
AcDbEntity
  8
M01
100
AcDbCircle
 10
466.16039
 20
355.794428
 30
0.0
 40
3.702778
100
AcDbArc
 50
146.92527
 51
213.07473
  0
LINE
  5
396
100
AcDbEntity
  8
M01
100
AcDbLine
 10
463.057613
 20
357.815154
 30
0.0
 11
464.857613
 21
357.815154
 31
0.0
  0
LINE
  5
397
100
AcDbEntity
  8
M01
100
AcDbLine
 10
463.057613
 20
359.83588
 30
0.0
 11
464.857613
 21
359.83588
 31
0.0
  0
ARC
  5
398
100
AcDbEntity
  8
M01
100
AcDbCircle
 10
463.608307
 20
352.763339
 30
0.0
 40
1.150694
100
AcDbArc
 50
118.592423
 51
241.407577
  0
LINE
  5
399
100
AcDbEntity
  8
M01
100
AcDbLine
 10
463.057613
 20
353.773702
 30
0.0
 11
464.857613
 21
353.773702
 31
0.0
  0
LINE
  5
39A
100
AcDbEntity
  8
M01
100
AcDbLine
 10
463.057613
 20
351.752976
 30
0.0
 11
464.857613
 21
351.752976
 31
0.0
  0
LINE
  5
39B
100
AcDbEntity
  8
M01
100
AcDbLine
 10
462.457613
 20
351.294428
 30
0.0
 11
462.457613
 21
360.294428
 31
0.0
  0
LINE
  5
39C
100
AcDbEntity
  8
M01
100
AcDbLine
 10
465.457613
 20
351.294428
 30
0.0
 11
465.457613
 21
360.294428
 31
0.0
  0
LINE
  5
39D
100
AcDbEntity
  8
M01
100
AcDbLine
 10
466.257613
 20
351.294428
 30
0.0
 11
466.257613
 21
360.294428
 31
0.0
  0
LINE
  5
39E
100
AcDbEntity
  8
M01
100
AcDbLine
 10
453.257613
 20
357.294428
 30
0.0
 11
453.757613
 21
357.794428
 31
0.0
  0
LINE
  5
39F
100
AcDbEntity
  8
M01
100
AcDbLine
 10
453.757613
 20
353.794428
 30
0.0
 11
453.257613
 21
354.294428
 31
0.0
  0
LINE
  5
3A0
100
AcDbEntity
  8
M01
100
AcDbLine
 10
453.757613
 20
353.794428
 30
0.0
 11
453.757613
 21
357.794428
 31
0.0
  0
LINE
  5
3A1
100
AcDbEntity
  8
M01
100
AcDbLine
 10
453.257613
 20
357.294428
 30
0.0
 11
456.357613
 21
357.294428
 31
0.0
  0
LINE
  5
3A2
100
AcDbEntity
  8
M01
100
AcDbLine
 10
453.257613
 20
354.294428
 30
0.0
 11
456.357613
 21
354.294428
 31
0.0
  0
LINE
  5
3A3
100
AcDbEntity
  8
M01
100
AcDbLine
 10
453.757613
 20
353.794428
 30
0.0
 11
456.357613
 21
353.794428
 31
0.0
  0
LINE
  5
3A4
100
AcDbEntity
  8
M01
100
AcDbLine
 10
453.757613
 20
357.794428
 30
0.0
 11
456.357613
 21
357.794428
 31
0.0
  0
LINE
  5
3A5
100
AcDbEntity
  8
M01
100
AcDbLine
 10
453.257613
 20
354.294428
 30
0.0
 11
453.257613
 21
357.294428
 31
0.0
  0
LINE
  5
3A6
100
AcDbEntity
  8
M01
100
AcDbLine
 10
478.257613
 20
350.794428
 30
0.0
 11
478.257613
 21
360.794428
 31
0.0
  0
LINE
  5
3A7
100
AcDbEntity
  8
M01
100
AcDbLine
 10
465.457613
 20
360.294428
 30
0.0
 11
466.257613
 21
360.294428
 31
0.0
  0
LINE
  5
3A8
100
AcDbEntity
  8
M01
100
AcDbLine
 10
465.457613
 20
351.294428
 30
0.0
 11
466.257613
 21
351.294428
 31
0.0
  0
LINE
  5
3A9
102
{ACAD_REACTORS
330
24
102
}
100
AcDbEntity
  8
CENTRE
100
AcDbLine
 10
447.096723
 20
355.794428
 30
0.0
 11
510.690155
 21
355.794428
 31
0.0
  0
LINE
  5
3AA
100
AcDbEntity
  8
M04
100
AcDbLine
 10
438.257613
 20
322.794428
 30
0.0
 11
428.257613
 21
312.794428
 31
0.0
  0
LINE
  5
3AB
100
AcDbEntity
  8
M04
100
AcDbLine
 10
417.586134
 20
312.794428
 30
0.0
 11
428.257613
 21
312.794428
 31
0.0
  0
LINE
  5
3AC
100
AcDbEntity
  8
M04
100
AcDbLine
 10
438.257613
 20
368.794428
 30
0.0
 11
438.257613
 21
294.794428
 31
0.0
  0
LINE
  5
3AD
102
{ACAD_REACTORS
330
24
102
}
100
AcDbEntity
  8
M01
100
AcDbLine
 10
662.257613
 20
318.794428
 30
0.0
 11
662.257613
 21
311.794428
 31
0.0
  0
LINE
  5
3AE
102
{ACAD_REACTORS
330
24
102
}
100
AcDbEntity
  8
M01
100
AcDbLine
 10
654.257613
 20
318.794428
 30
0.0
 11
654.257613
 21
311.794428
 31
0.0
  0
LINE
  5
3AF
100
AcDbEntity
  8
M04
100
AcDbLine
 10
677.757613
 20
294.794428
 30
0.0
 11
755.257613
 21
294.794428
 31
0.0
  0
LINE
  5
3B0
102
{ACAD_REACTORS
330
351
102
}
100
AcDbEntity
  8
M02
100
AcDbLine
 10
623.257613
 20
301.794428
 30
0.0
 11
623.257613
 21
298.794428
 31
0.0
  0
LINE
  5
3B1
100
AcDbEntity
  8
M04
100
AcDbLine
 10
503.757613
 20
384.103829
 30
0.0
 11
499.757613
 21
381.794428
 31
0.0
  0
LINE
  5
3B2
100
AcDbEntity
  8
M04
100
AcDbLine
 10
507.757613
 20
381.794428
 30
0.0
 11
503.757613
 21
384.103829
 31
0.0
  0
LINE
  5
3B3
100
AcDbEntity
  8
M04
100
AcDbLine
 10
507.757613
 20
378.794428
 30
0.0
 11
507.757613
 21
381.794428
 31
0.0
  0
LINE
  5
3B4
100
AcDbEntity
  8
M04
100
AcDbLine
 10
499.757613
 20
381.794428
 30
0.0
 11
507.757613
 21
381.794428
 31
0.0
  0
LINE
  5
3B5
100
AcDbEntity
  8
M04
100
AcDbLine
 10
499.757613
 20
378.794428
 30
0.0
 11
499.757613
 21
381.794428
 31
0.0
  0
ARC
  5
3B6
100
AcDbEntity
  8
M05
100
AcDbCircle
 10
503.757613
 20
369.456723
 30
0.0
 40
10.837705
100
AcDbArc
 50
71.372238
 51
108.627762
  0
LINE
  5
3B7
100
AcDbEntity
  8
M05
100
AcDbLine
 10
507.757613
 20
378.794428
 30
0.0
 11
507.219376
 21
379.726681
 31
0.0
  0
LINE
  5
3B8
100
AcDbEntity
  8
M05
100
AcDbLine
 10
500.295849
 20
379.726681
 30
0.0
 11
507.219376
 21
379.726681
 31
0.0
  0
LINE
  5
3B9
100
AcDbEntity
  8
M05
100
AcDbLine
 10
499.757613
 20
378.794428
 30
0.0
 11
500.295849
 21
379.726681
 31
0.0
  0
LINE
  5
3BA
100
AcDbEntity
  8
M05
100
AcDbLine
 10
499.757613
 20
378.794428
 30
0.0
 11
507.757613
 21
378.794428
 31
0.0
  0
LINE
  5
3BB
100
AcDbEntity
  8
M04
100
AcDbLine
 10
507.757613
 20
368.794428
 30
0.0
 11
648.757613
 21
368.794428
 31
0.0
  0
LINE
  5
3BC
100
AcDbEntity
  8
M04
100
AcDbLine
 10
507.757613
 20
369.294428
 30
0.0
 11
508.257613
 21
368.794428
 31
0.0
  0
LINE
  5
3BD
100
AcDbEntity
  8
M04
100
AcDbLine
 10
499.757613
 20
369.294428
 30
0.0
 11
499.257613
 21
368.794428
 31
0.0
  0
ARC
  5
3BE
100
AcDbEntity
  8
M05
100
AcDbCircle
 10
503.757613
 20
369.927761
 30
0.0
 40
13.633333
100
AcDbArc
 50
252.938469
 51
287.061531
  0
LINE
  5
3BF
100
AcDbEntity
  8
M05
100
AcDbLine
 10
499.757613
 20
356.894428
 30
0.0
 11
507.757613
 21
356.894428
 31
0.0
  0
LINE
  5
3C0
100
AcDbEntity
  8
M05
100
AcDbLine
 10
507.757613
 20
378.794428
 30
0.0
 11
507.757613
 21
356.894428
 31
0.0
  0
LINE
  5
3C1
100
AcDbEntity
  8
M05
100
AcDbLine
 10
499.757613
 20
378.794428
 30
0.0
 11
499.757613
 21
356.894428
 31
0.0
  0
LINE
  5
3C2
102
{ACAD_REACTORS
330
24
102
}
100
AcDbEntity
  8
CENTRE
100
AcDbLine
 10
658.257613
 20
384.61935
 30
0.0
 11
658.257613
 21
261.902388
 31
0.0
  0
LINE
  5
3C3
100
AcDbEntity
  8
CENTRE
100
AcDbLine
 10
503.757613
 20
389.140546
 30
0.0
 11
503.757613
 21
351.050846
 31
0.0
  0
LINE
  5
3C4
100
AcDbEntity
  8
M04
100
AcDbLine
 10
417.586134
 20
294.794428
 30
0.0
 11
638.757613
 21
294.794428
 31
0.0
  0
LINE
  5
3C5
100
AcDbEntity
  8
M04
100
AcDbLine
 10
797.505841
 20
368.794428
 30
0.0
 11
797.505841
 21
294.794428
 31
0.0
  0
LINE
  5
3C6
100
AcDbEntity
  8
M04
100
AcDbLine
 10
438.257613
 20
368.794428
 30
0.0
 11
499.757613
 21
368.794428
 31
0.0
  0
LINE
  5
3C7
102
{ACAD_REACTORS
330
150
102
}
100
AcDbEntity
  8
M02
100
AcDbLine
 10
510.257613
 20
361.794428
 30
0.0
 11
510.257613
 21
364.794428
 31
0.0
  0
LINE
  5
3C8
102
{ACAD_REACTORS
330
24
102
}
100
AcDbEntity
  8
M01
100
AcDbLine
 10
510.257613
 20
361.794428
 30
0.0
 11
510.257613
 21
355.794428
 31
0.0
  0
LINE
  5
3C9
100
AcDbEntity
  8
M01
100
AcDbLine
 10
498.257613
 20
355.794428
 30
0.0
 11
510.257613
 21
355.794428
 31
0.0
  0
LINE
  5
3CA
102
{ACAD_REACTORS
330
351
102
}
100
AcDbEntity
  8
M02
100
AcDbLine
 10
500.257613
 20
301.794428
 30
0.0
 11
500.257613
 21
298.794428
 31
0.0
  0
LINE
  5
3CB
102
{ACAD_REACTORS
330
151
102
}
100
AcDbEntity
  8
M02
100
AcDbLine
 10
788.507613
 20
361.794428
 30
0.0
 11
788.507613
 21
364.794428
 31
0.0
  0
LINE
  5
3CC
102
{ACAD_REACTORS
330
351
102
}
100
AcDbEntity
  8
M02
100
AcDbLine
 10
500.257613
 20
298.794428
 30
0.0
 11
624.257613
 21
298.794428
 31
0.0
  0
LINE
  5
3CD
102
{ACAD_REACTORS
330
150
102
}
100
AcDbEntity
  8
M02
100
AcDbLine
 10
507.757613
 20
364.794428
 30
0.0
 11
648.757613
 21
364.794428
 31
0.0
  0
LINE
  5
3CE
102
{ACAD_REACTORS
330
24
102
}
100
AcDbEntity
  8
M01
100
AcDbLine
 10
788.507613
 20
301.794428
 30
0.0
 11
790.507613
 21
303.794428
 31
0.0
  0
LINE
  5
3CF
102
{ACAD_REACTORS
330
24
102
}
100
AcDbEntity
  8
M01
100
AcDbLine
 10
498.257613
 20
303.794428
 30
0.0
 11
500.257613
 21
301.794428
 31
0.0
  0
LINE
  5
3D0
100
AcDbEntity
  8
M01
100
AcDbLine
 10
499.257613
 20
360.794428
 30
0.0
 11
498.257613
 21
359.794428
 31
0.0
  0
LINE
  5
3D1
102
{ACAD_REACTORS
330
24
102
}
100
AcDbEntity
  8
M01
100
AcDbLine
 10
790.507613
 20
359.794428
 30
0.0
 11
788.507613
 21
361.794428
 31
0.0
  0
LINE
  5
3D2
102
{ACAD_REACTORS
330
351
330
24
102
}
100
AcDbEntity
  8
M01
100
AcDbLine
 10
500.257613
 20
301.794428
 30
0.0
 11
648.257613
 21
301.794428
 31
0.0
  0
LINE
  5
3D3
102
{ACAD_REACTORS
330
24
102
}
100
AcDbEntity
  8
M01
100
AcDbLine
 10
790.507613
 20
359.794428
 30
0.0
 11
790.507613
 21
303.794428
 31
0.0
  0
LINE
  5
3D4
102
{ACAD_REACTORS
330
24
102
}
100
AcDbEntity
  8
M01
100
AcDbLine
 10
498.257613
 20
359.794428
 30
0.0
 11
498.257613
 21
303.794428
 31
0.0
  0
LINE
  5
3D5
102
{ACAD_REACTORS
330
150
330
24
102
}
100
AcDbEntity
  8
M01
100
AcDbLine
 10
507.757613
 20
361.794428
 30
0.0
 11
648.757613
 21
361.794428
 31
0.0
  0
HATCH
  5
3D6
100
AcDbEntity
  8
M03
100
AcDbHatch
 10
0.0
 20
0.0
 30
0.0
210
0.0
220
0.0
230
1.0
  2
_U
 70
     0
 71
     0
 91
        1
 92
        7
 72
     0
 73
     1
 93
        4
 10
726.4432423188838
 20
495.3965672928738
 10
749.8339785113058
 20
477.8534498584553
 10
748.6939757959537
 20
476.333451894973
 10
725.3032396035316
 20
493.8765693293919
 97
        0
 75
     0
 76
     0
 52
293.13
 41
0.7
 77
     0
 78
     1
 53
173.13
 43
876.678744
 44
-122.855189
 45
0.0837319111031198
 46
0.6949740765402832
 79
     0
 47
0.060863
 98
        1
 10
728.683715
 20
492.231915
  0
HATCH
  5
3D7
100
AcDbEntity
  8
M03
100
AcDbHatch
 10
0.0
 20
0.0
 30
0.0
210
0.0
220
0.0
230
1.0
  2
_U
 70
     0
 71
     0
 91
        1
 92
        7
 72
     0
 73
     1
 93
        4
 10
726.4432423188837
 20
495.3965672928739
 10
749.8339785113058
 20
477.8534498584552
 10
748.6939757959537
 20
476.333451894973
 10
725.3032396035316
 20
493.8765693293919
 97
        0
 75
     0
 76
     0
 52
-6.87
 41
0.7
 77
     0
 78
     1
 53
113.13
 43
876.678744
 44
-122.855189
 45
0.6437311608070761
 46
0.2749730761474192
 79
     0
 47
0.060863
 98
        1
 10
728.975918
 20
492.317078
  0
LINE
  5
3D8
100
AcDbEntity
  8
M03
100
AcDbLine
 10
721.317629
 20
516.240814
 30
0.0
 11
723.954372
 21
515.923134
 31
0.0
  0
LINE
  5
3D9
100
AcDbEntity
  8
M03
100
AcDbLine
 10
724.997624
 20
513.480808
 30
0.0
 11
723.954372
 21
515.923134
 31
0.0
  0
LINE
  5
3DA
100
AcDbEntity
  8
M03
100
AcDbLine
 10
724.997624
 20
513.480808
 30
0.0
 11
721.317629
 21
516.240814
 31
0.0
  0
LINE
  5
3DB
100
AcDbEntity
  8
M03
100
AcDbLine
 10
724.657621
 20
511.860808
 30
0.0
 11
719.857628
 21
515.460817
 31
0.0
  0
LINE
  5
3DC
100
AcDbEntity
  8
M03
100
AcDbLine
 10
726.443242
 20
495.396567
 30
0.0
 11
749.833979
 21
477.85345
 31
0.0
  0
LINE
  5
3DD
100
AcDbEntity
  8
M03
100
AcDbLine
 10
725.30324
 20
493.876569
 30
0.0
 11
748.693976
 21
476.333452
 31
0.0
  0
LINE
  5
3DE
100
AcDbEntity
  8
M03
100
AcDbLine
 10
721.02325
 20
499.836577
 30
0.0
 11
709.577615
 21
508.420835
 31
0.0
  0
LINE
  5
3DF
100
AcDbEntity
  8
M03
100
AcDbLine
 10
722.339062
 20
499.849716
 30
0.0
 11
721.859061
 21
499.209717
 31
0.0
  0
LINE
  5
3E0
100
AcDbEntity
  8
M03
100
AcDbLine
 10
726.623243
 20
495.636567
 30
0.0
 11
725.123239
 21
493.63657
 31
0.0
  0
LINE
  5
3E1
100
AcDbEntity
  8
M03
100
AcDbLine
 10
725.123239
 20
493.63657
 30
0.0
 11
719.523247
 21
497.83658
 31
0.0
  0
LINE
  5
3E2
100
AcDbEntity
  8
M03
100
AcDbLine
 10
721.02325
 20
499.836577
 30
0.0
 11
719.523247
 21
497.83658
 31
0.0
  0
LINE
  5
3E3
100
AcDbEntity
  8
M03
100
AcDbLine
 10
710.057616
 20
509.060834
 30
0.0
 11
709.577615
 21
508.420835
 31
0.0
  0
ARC
  5
3E4
100
AcDbEntity
  8
M03
100
AcDbCircle
 10
716.693293
 20
506.241731
 30
0.0
 40
5.826136
100
AcDbArc
 50
168.82541
 51
297.43459
  0
LINE
  5
3E5
100
AcDbEntity
  8
M03
100
AcDbLine
 10
718.357624
 20
513.460819
 30
0.0
 11
719.337625
 21
513.600818
 31
0.0
  0
LINE
  5
3E6
100
AcDbEntity
  8
M03
100
AcDbLine
 10
723.157618
 20
509.860811
 30
0.0
 11
723.01762
 21
510.840811
 31
0.0
  0
LINE
  5
3E7
100
AcDbEntity
  8
M03
100
AcDbLine
 10
723.157618
 20
509.860811
 30
0.0
 11
718.357624
 21
513.460819
 31
0.0
  0
LINE
  5
3E8
100
AcDbEntity
  8
M03
100
AcDbLine
 10
723.01762
 20
510.840811
 30
0.0
 11
719.337625
 21
513.600818
 31
0.0
  0
LINE
  5
3E9
100
AcDbEntity
  8
M03
100
AcDbLine
 10
713.257612
 20
506.660829
 30
0.0
 11
707.65762
 21
510.860839
 31
0.0
  0
LINE
  5
3EA
100
AcDbEntity
  8
M03
100
AcDbLine
 10
726.617594
 20
496.640805
 30
0.0
 11
726.137593
 21
496.000806
 31
0.0
  0
LINE
  5
3EB
100
AcDbEntity
  8
M03
100
AcDbLine
 10
712.697613
 20
507.08083
 30
0.0
 11
712.217612
 21
506.44083
 31
0.0
  0
LINE
  5
3EC
100
AcDbEntity
  8
M03
100
AcDbLine
 10
721.317629
 20
516.240814
 30
0.0
 11
713.33761
 21
505.600828
 31
0.0
  0
LINE
  5
3ED
100
AcDbEntity
  8
M03
100
AcDbLine
 10
724.997624
 20
513.480808
 30
0.0
 11
717.017605
 21
502.840822
 31
0.0
  0
LINE
  5
3EE
100
AcDbEntity
  8
M03
100
AcDbLine
 10
724.657621
 20
511.860808
 30
0.0
 11
717.577605
 21
502.420821
 31
0.0
  0
LINE
  5
3EF
100
AcDbEntity
  8
M03
100
AcDbLine
 10
719.857628
 20
515.460817
 30
0.0
 11
712.777611
 21
506.020829
 31
0.0
  0
LINE
  5
3F0
100
AcDbEntity
  8
M03
100
AcDbLine
 10
726.623243
 20
495.636567
 30
0.0
 11
721.859061
 21
499.209717
 31
0.0
  0
LINE
  5
3F1
100
AcDbEntity
  8
M03
100
AcDbLine
 10
707.65762
 20
510.860839
 30
0.0
 11
703.305684
 21
505.058279
 31
0.0
  0
LINE
  5
3F2
100
AcDbEntity
  8
M03
100
AcDbLine
 10
755.9241
 20
474.660844
 30
0.0
 11
718.057606
 21
503.06082
 31
0.0
  0
LINE
  5
3F3
100
AcDbEntity
  8
CENTRE
100
AcDbLine
 10
726.576839
 20
519.419743
 30
0.0
 11
710.28071
 21
497.691652
 31
0.0
  0
LINE
  5
3F4
100
AcDbEntity
  8
M01
100
AcDbLine
 10
818.257613
 20
524.160844
 30
0.0
 11
816.257613
 21
522.160844
 31
0.0
  0
LINE
  5
3F5
100
AcDbEntity
  8
DIMS
 62
     4
100
AcDbLine
 10
828.257613
 20
592.560844
 30
0.0
 11
828.257613
 21
597.360844
 31
0.0
  0
LINE
  5
3F6
100
AcDbEntity
  8
DIMS
 62
     4
100
AcDbLine
 10
828.257613
 20
585.760844
 30
0.0
 11
828.257613
 21
580.960844
 31
0.0
  0
LINE
  5
3F7
100
AcDbEntity
  8
DIMS
 62
     4
100
AcDbLine
 10
831.657613
 20
589.160844
 30
0.0
 11
836.457613
 21
589.160844
 31
0.0
  0
LINE
  5
3F8
100
AcDbEntity
  8
DIMS
 62
     4
100
AcDbLine
 10
824.857613
 20
589.160844
 30
0.0
 11
820.057613
 21
589.160844
 31
0.0
  0
LINE
  5
3F9
100
AcDbEntity
  8
DIMS
 62
     4
100
AcDbLine
 10
828.257613
 20
587.460844
 30
0.0
 11
828.257613
 21
590.860844
 31
0.0
  0
LINE
  5
3FA
100
AcDbEntity
  8
DIMS
 62
     4
100
AcDbLine
 10
826.557613
 20
589.160844
 30
0.0
 11
829.957613
 21
589.160844
 31
0.0
  0
CIRCLE
  5
3FB
100
AcDbEntity
  8
M04
100
AcDbCircle
 10
828.257613
 20
589.160844
 30
0.0
 40
6.5
  0
LINE
  5
3FC
100
AcDbEntity
  8
DIMS
 62
     4
100
AcDbLine
 10
513.257613
 20
612.560844
 30
0.0
 11
513.257613
 21
617.360844
 31
0.0
  0
LINE
  5
3FD
100
AcDbEntity
  8
DIMS
 62
     4
100
AcDbLine
 10
513.257613
 20
605.760844
 30
0.0
 11
513.257613
 21
600.960844
 31
0.0
  0
LINE
  5
3FE
100
AcDbEntity
  8
DIMS
 62
     4
100
AcDbLine
 10
509.857613
 20
609.160844
 30
0.0
 11
505.057613
 21
609.160844
 31
0.0
  0
LINE
  5
3FF
100
AcDbEntity
  8
DIMS
 62
     4
100
AcDbLine
 10
516.657613
 20
609.160844
 30
0.0
 11
521.457613
 21
609.160844
 31
0.0
  0
LINE
  5
400
100
AcDbEntity
  8
DIMS
 62
     4
100
AcDbLine
 10
513.257613
 20
607.460844
 30
0.0
 11
513.257613
 21
610.860844
 31
0.0
  0
LINE
  5
401
100
AcDbEntity
  8
DIMS
 62
     4
100
AcDbLine
 10
514.957613
 20
609.160844
 30
0.0
 11
511.557613
 21
609.160844
 31
0.0
  0
CIRCLE
  5
402
100
AcDbEntity
  8
M04
100
AcDbCircle
 10
513.257613
 20
609.160844
 30
0.0
 40
6.5
  0
CIRCLE
  5
403
100
AcDbEntity
  8
M04
100
AcDbCircle
 10
803.257613
 20
609.160844
 30
0.0
 40
6.5
  0
LINE
  5
404
100
AcDbEntity
  8
DIMS
 62
     4
100
AcDbLine
 10
708.257613
 20
612.560844
 30
0.0
 11
708.257613
 21
617.360844
 31
0.0
  0
LINE
  5
405
100
AcDbEntity
  8
DIMS
 62
     4
100
AcDbLine
 10
708.257613
 20
605.760844
 30
0.0
 11
708.257613
 21
600.960844
 31
0.0
  0
LINE
  5
406
100
AcDbEntity
  8
DIMS
 62
     4
100
AcDbLine
 10
704.857613
 20
609.160844
 30
0.0
 11
700.057613
 21
609.160844
 31
0.0
  0
LINE
  5
407
100
AcDbEntity
  8
DIMS
 62
     4
100
AcDbLine
 10
711.657613
 20
609.160844
 30
0.0
 11
716.457613
 21
609.160844
 31
0.0
  0
LINE
  5
408
100
AcDbEntity
  8
DIMS
 62
     4
100
AcDbLine
 10
708.257613
 20
607.460844
 30
0.0
 11
708.257613
 21
610.860844
 31
0.0
  0
LINE
  5
409
100
AcDbEntity
  8
DIMS
 62
     4
100
AcDbLine
 10
709.957613
 20
609.160844
 30
0.0
 11
706.557613
 21
609.160844
 31
0.0
  0
CIRCLE
  5
40A
100
AcDbEntity
  8
M04
100
AcDbCircle
 10
708.257613
 20
609.160844
 30
0.0
 40
6.5
  0
LINE
  5
40B
100
AcDbEntity
  8
DIMS
 62
     4
100
AcDbLine
 10
488.257613
 20
592.560844
 30
0.0
 11
488.257613
 21
597.360844
 31
0.0
  0
LINE
  5
40C
100
AcDbEntity
  8
DIMS
 62
     4
100
AcDbLine
 10
488.257613
 20
585.760844
 30
0.0
 11
488.257613
 21
580.960844
 31
0.0
  0
LINE
  5
40D
100
AcDbEntity
  8
DIMS
 62
     4
100
AcDbLine
 10
484.857613
 20
589.160844
 30
0.0
 11
480.057613
 21
589.160844
 31
0.0
  0
LINE
  5
40E
100
AcDbEntity
  8
DIMS
 62
     4
100
AcDbLine
 10
491.657613
 20
589.160844
 30
0.0
 11
496.457613
 21
589.160844
 31
0.0
  0
LINE
  5
40F
100
AcDbEntity
  8
DIMS
 62
     4
100
AcDbLine
 10
488.257613
 20
587.460844
 30
0.0
 11
488.257613
 21
590.860844
 31
0.0
  0
LINE
  5
410
100
AcDbEntity
  8
DIMS
 62
     4
100
AcDbLine
 10
489.957613
 20
589.160844
 30
0.0
 11
486.557613
 21
589.160844
 31
0.0
  0
CIRCLE
  5
411
100
AcDbEntity
  8
M04
100
AcDbCircle
 10
488.257613
 20
589.160844
 30
0.0
 40
6.5
  0
LINE
  5
412
100
AcDbEntity
  8
DIMS
 62
     4
100
AcDbLine
 10
613.257613
 20
612.560844
 30
0.0
 11
613.257613
 21
617.360844
 31
0.0
  0
LINE
  5
413
100
AcDbEntity
  8
DIMS
 62
     4
100
AcDbLine
 10
613.257613
 20
605.760844
 30
0.0
 11
613.257613
 21
600.960844
 31
0.0
  0
LINE
  5
414
100
AcDbEntity
  8
DIMS
 62
     4
100
AcDbLine
 10
609.857613
 20
609.160844
 30
0.0
 11
605.057613
 21
609.160844
 31
0.0
  0
LINE
  5
415
100
AcDbEntity
  8
DIMS
 62
     4
100
AcDbLine
 10
616.657613
 20
609.160844
 30
0.0
 11
621.457613
 21
609.160844
 31
0.0
  0
LINE
  5
416
100
AcDbEntity
  8
DIMS
 62
     4
100
AcDbLine
 10
613.257613
 20
607.460844
 30
0.0
 11
613.257613
 21
610.860844
 31
0.0
  0
LINE
  5
417
100
AcDbEntity
  8
DIMS
 62
     4
100
AcDbLine
 10
614.957613
 20
609.160844
 30
0.0
 11
611.557613
 21
609.160844
 31
0.0
  0
CIRCLE
  5
418
100
AcDbEntity
  8
M04
100
AcDbCircle
 10
613.257613
 20
609.160844
 30
0.0
 40
6.5
  0
LINE
  5
419
100
AcDbEntity
  8
M04
100
AcDbLine
 10
878.257613
 20
561.160844
 30
0.0
 11
898.929091
 21
561.160844
 31
0.0
  0
LINE
  5
41A
100
AcDbEntity
  8
M04
100
AcDbLine
 10
878.257613
 20
527.160844
 30
0.0
 11
898.929091
 21
527.160844
 31
0.0
  0
ARC
  5
41B
100
AcDbEntity
  8
M04
100
AcDbCircle
 10
863.257613
 20
561.160844
 30
0.0
 40
15.0
100
AcDbArc
 50
0.0
 51
90.0
  0
ARC
  5
41C
100
AcDbEntity
  8
M04
100
AcDbCircle
 10
863.257613
 20
527.160844
 30
0.0
 40
15.0
100
AcDbArc
 50
270.0
 51
0.0
  0
LINE
  5
41D
100
AcDbEntity
  8
M04
100
AcDbLine
 10
878.257613
 20
527.160844
 30
0.0
 11
878.257613
 21
561.160844
 31
0.0
  0
LINE
  5
41E
100
AcDbEntity
  8
M04
100
AcDbLine
 10
863.257613
 20
576.160844
 30
0.0
 11
804.257613
 21
576.160844
 31
0.0
  0
LINE
  5
41F
100
AcDbEntity
  8
M01
100
AcDbLine
 10
840.201713
 20
559.410844
 30
0.0
 11
840.201713
 21
552.910844
 31
0.0
  0
LINE
  5
420
100
AcDbEntity
  8
M01
100
AcDbLine
 10
848.313512
 20
559.410844
 30
0.0
 11
848.313512
 21
552.910844
 31
0.0
  0
LINE
  5
421
100
AcDbEntity
  8
M01
100
AcDbLine
 10
840.201713
 20
559.410844
 30
0.0
 11
838.257613
 21
559.410844
 31
0.0
  0
ARC
  5
422
100
AcDbEntity
  8
M01
100
AcDbCircle
 10
841.762962
 20
560.660844
 30
0.0
 40
2.0
100
AcDbArc
 50
218.682187
 51
270.0
  0
ARC
  5
423
100
AcDbEntity
  8
M01
100
AcDbCircle
 10
846.752263
 20
560.660844
 30
0.0
 40
2.0
100
AcDbArc
 50
270.0
 51
321.317813
  0
LINE
  5
424
100
AcDbEntity
  8
M01
100
AcDbLine
 10
850.257613
 20
559.410844
 30
0.0
 11
848.313512
 21
559.410844
 31
0.0
  0
LINE
  5
425
100
AcDbEntity
  8
M01
100
AcDbLine
 10
846.752263
 20
558.660844
 30
0.0
 11
841.762962
 21
558.660844
 31
0.0
  0
LINE
  5
426
100
AcDbEntity
  8
M01
100
AcDbLine
 10
840.201713
 20
552.910844
 30
0.0
 11
838.257613
 21
552.910844
 31
0.0
  0
ARC
  5
427
100
AcDbEntity
  8
M01
100
AcDbCircle
 10
841.762962
 20
551.660844
 30
0.0
 40
2.0
100
AcDbArc
 50
90.0
 51
141.317813
  0
ARC
  5
428
100
AcDbEntity
  8
M01
100
AcDbCircle
 10
846.752263
 20
551.660844
 30
0.0
 40
2.0
100
AcDbArc
 50
38.682187
 51
90.0
  0
LINE
  5
429
100
AcDbEntity
  8
M01
100
AcDbLine
 10
850.257613
 20
552.910844
 30
0.0
 11
848.313512
 21
552.910844
 31
0.0
  0
LINE
  5
42A
100
AcDbEntity
  8
M01
100
AcDbLine
 10
846.752263
 20
553.660844
 30
0.0
 11
841.762962
 21
553.660844
 31
0.0
  0
LINE
  5
42B
100
AcDbEntity
  8
M01
100
AcDbLine
 10
850.257613
 20
551.660844
 30
0.0
 11
850.257613
 21
560.660844
 31
0.0
  0
LINE
  5
42C
100
AcDbEntity
  8
M01
100
AcDbLine
 10
851.057613
 20
560.660844
 30
0.0
 11
850.257613
 21
560.660844
 31
0.0
  0
LINE
  5
42D
100
AcDbEntity
  8
M01
100
AcDbLine
 10
851.057613
 20
551.660844
 30
0.0
 11
850.257613
 21
551.660844
 31
0.0
  0
LINE
  5
42E
100
AcDbEntity
  8
M01
100
AcDbLine
 10
840.201713
 20
528.910844
 30
0.0
 11
840.201713
 21
535.410844
 31
0.0
  0
LINE
  5
42F
100
AcDbEntity
  8
M01
100
AcDbLine
 10
848.313512
 20
528.910844
 30
0.0
 11
848.313512
 21
535.410844
 31
0.0
  0
LINE
  5
430
100
AcDbEntity
  8
M01
100
AcDbLine
 10
840.201713
 20
528.910844
 30
0.0
 11
838.257613
 21
528.910844
 31
0.0
  0
ARC
  5
431
100
AcDbEntity
  8
M01
100
AcDbCircle
 10
841.762962
 20
527.660844
 30
0.0
 40
2.0
100
AcDbArc
 50
90.0
 51
141.317813
  0
ARC
  5
432
100
AcDbEntity
  8
M01
100
AcDbCircle
 10
846.752263
 20
527.660844
 30
0.0
 40
2.0
100
AcDbArc
 50
38.682187
 51
90.0
  0
LINE
  5
433
100
AcDbEntity
  8
M01
100
AcDbLine
 10
850.257613
 20
528.910844
 30
0.0
 11
848.313512
 21
528.910844
 31
0.0
  0
LINE
  5
434
100
AcDbEntity
  8
M01
100
AcDbLine
 10
846.752263
 20
529.660844
 30
0.0
 11
841.762962
 21
529.660844
 31
0.0
  0
LINE
  5
435
100
AcDbEntity
  8
M01
100
AcDbLine
 10
840.201713
 20
535.410844
 30
0.0
 11
838.257613
 21
535.410844
 31
0.0
  0
ARC
  5
436
100
AcDbEntity
  8
M01
100
AcDbCircle
 10
841.762962
 20
536.660844
 30
0.0
 40
2.0
100
AcDbArc
 50
218.682187
 51
270.0
  0
ARC
  5
437
100
AcDbEntity
  8
M01
100
AcDbCircle
 10
846.752263
 20
536.660844
 30
0.0
 40
2.0
100
AcDbArc
 50
270.0
 51
321.317813
  0
LINE
  5
438
100
AcDbEntity
  8
M01
100
AcDbLine
 10
850.257613
 20
535.410844
 30
0.0
 11
848.313512
 21
535.410844
 31
0.0
  0
LINE
  5
439
100
AcDbEntity
  8
M01
100
AcDbLine
 10
846.752263
 20
534.660844
 30
0.0
 11
841.762962
 21
534.660844
 31
0.0
  0
LINE
  5
43A
100
AcDbEntity
  8
M01
100
AcDbLine
 10
833.257613
 20
561.160844
 30
0.0
 11
833.257613
 21
551.160844
 31
0.0
  0
LINE
  5
43B
100
AcDbEntity
  8
M01
100
AcDbLine
 10
833.257613
 20
527.160844
 30
0.0
 11
833.257613
 21
537.160844
 31
0.0
  0
LINE
  5
43C
100
AcDbEntity
  8
M01
100
AcDbLine
 10
838.257613
 20
527.160844
 30
0.0
 11
818.257613
 21
527.160844
 31
0.0
  0
LINE
  5
43D
100
AcDbEntity
  8
M01
100
AcDbLine
 10
838.257613
 20
537.160844
 30
0.0
 11
818.257613
 21
537.160844
 31
0.0
  0
LINE
  5
43E
100
AcDbEntity
  8
M01
100
AcDbLine
 10
838.257613
 20
551.160844
 30
0.0
 11
818.257613
 21
551.160844
 31
0.0
  0
LINE
  5
43F
100
AcDbEntity
  8
M01
100
AcDbLine
 10
838.257613
 20
561.160844
 30
0.0
 11
818.257613
 21
561.160844
 31
0.0
  0
LINE
  5
440
100
AcDbEntity
  8
M01
100
AcDbLine
 10
860.157613
 20
559.191933
 30
0.0
 11
860.157613
 21
553.129755
 31
0.0
  0
ARC
  5
441
100
AcDbEntity
  8
M01
100
AcDbCircle
 10
858.308307
 20
553.129755
 30
0.0
 40
1.150694
100
AcDbArc
 50
118.592423
 51
241.407577
  0
ARC
  5
442
100
AcDbEntity
  8
M01
100
AcDbCircle
 10
860.86039
 20
556.160844
 30
0.0
 40
3.702778
100
AcDbArc
 50
146.92527
 51
213.07473
  0
ARC
  5
443
100
AcDbEntity
  8
M01
100
AcDbCircle
 10
858.308307
 20
559.191933
 30
0.0
 40
1.150694
100
AcDbArc
 50
118.592423
 51
241.407577
  0
ARC
  5
444
100
AcDbEntity
  8
M01
100
AcDbCircle
 10
859.006918
 20
553.129755
 30
0.0
 40
1.150694
100
AcDbArc
 50
298.592423
 51
61.407577
  0
ARC
  5
445
100
AcDbEntity
  8
M01
100
AcDbCircle
 10
856.454835
 20
556.160844
 30
0.0
 40
3.702778
100
AcDbArc
 50
326.92527
 51
33.07473
  0
LINE
  5
446
100
AcDbEntity
  8
M01
100
AcDbLine
 10
859.557613
 20
554.140118
 30
0.0
 11
857.757613
 21
554.140118
 31
0.0
  0
LINE
  5
447
100
AcDbEntity
  8
M01
100
AcDbLine
 10
859.557613
 20
552.119392
 30
0.0
 11
857.757613
 21
552.119392
 31
0.0
  0
ARC
  5
448
100
AcDbEntity
  8
M01
100
AcDbCircle
 10
859.006918
 20
559.191933
 30
0.0
 40
1.150694
100
AcDbArc
 50
298.592423
 51
61.407577
  0
LINE
  5
449
100
AcDbEntity
  8
M01
100
AcDbLine
 10
859.557613
 20
558.18157
 30
0.0
 11
857.757613
 21
558.18157
 31
0.0
  0
LINE
  5
44A
100
AcDbEntity
  8
M01
100
AcDbLine
 10
859.557613
 20
560.202296
 30
0.0
 11
857.757613
 21
560.202296
 31
0.0
  0
LINE
  5
44B
100
AcDbEntity
  8
M01
100
AcDbLine
 10
854.857613
 20
551.160844
 30
0.0
 11
856.357613
 21
551.160844
 31
0.0
  0
LINE
  5
44C
100
AcDbEntity
  8
M01
100
AcDbLine
 10
854.857613
 20
561.160844
 30
0.0
 11
856.357613
 21
561.160844
 31
0.0
  0
LINE
  5
44D
100
AcDbEntity
  8
M01
100
AcDbLine
 10
856.357613
 20
551.660844
 30
0.0
 11
857.157613
 21
551.660844
 31
0.0
  0
LINE
  5
44E
100
AcDbEntity
  8
M01
100
AcDbLine
 10
856.357613
 20
560.660844
 30
0.0
 11
857.157613
 21
560.660844
 31
0.0
  0
LINE
  5
44F
100
AcDbEntity
  8
M01
100
AcDbLine
 10
857.157613
 20
560.660844
 30
0.0
 11
857.157613
 21
551.660844
 31
0.0
  0
LINE
  5
450
100
AcDbEntity
  8
M01
100
AcDbLine
 10
856.357613
 20
561.160844
 30
0.0
 11
856.357613
 21
551.160844
 31
0.0
  0
LINE
  5
451
100
AcDbEntity
  8
M01
100
AcDbLine
 10
854.057613
 20
551.660844
 30
0.0
 11
854.857613
 21
551.660844
 31
0.0
  0
LINE
  5
452
100
AcDbEntity
  8
M01
100
AcDbLine
 10
854.057613
 20
560.660844
 30
0.0
 11
854.857613
 21
560.660844
 31
0.0
  0
LINE
  5
453
100
AcDbEntity
  8
M01
100
AcDbLine
 10
854.857613
 20
561.160844
 30
0.0
 11
854.857613
 21
551.160844
 31
0.0
  0
ARC
  5
454
100
AcDbEntity
  8
M01
100
AcDbCircle
 10
852.208307
 20
553.129755
 30
0.0
 40
1.150694
100
AcDbArc
 50
118.592423
 51
241.407577
  0
ARC
  5
455
100
AcDbEntity
  8
M01
100
AcDbCircle
 10
854.76039
 20
556.160844
 30
0.0
 40
3.702778
100
AcDbArc
 50
146.92527
 51
213.07473
  0
ARC
  5
456
100
AcDbEntity
  8
M01
100
AcDbCircle
 10
852.208307
 20
559.191933
 30
0.0
 40
1.150694
100
AcDbArc
 50
118.592423
 51
241.407577
  0
ARC
  5
457
100
AcDbEntity
  8
M01
100
AcDbCircle
 10
852.906918
 20
553.129755
 30
0.0
 40
1.150694
100
AcDbArc
 50
298.592423
 51
61.407577
  0
ARC
  5
458
100
AcDbEntity
  8
M01
100
AcDbCircle
 10
850.354835
 20
556.160844
 30
0.0
 40
3.702778
100
AcDbArc
 50
326.92527
 51
33.07473
  0
LINE
  5
459
100
AcDbEntity
  8
M01
100
AcDbLine
 10
853.457613
 20
554.140118
 30
0.0
 11
851.657613
 21
554.140118
 31
0.0
  0
LINE
  5
45A
100
AcDbEntity
  8
M01
100
AcDbLine
 10
853.457613
 20
552.119392
 30
0.0
 11
851.657613
 21
552.119392
 31
0.0
  0
ARC
  5
45B
100
AcDbEntity
  8
M01
100
AcDbCircle
 10
852.906918
 20
559.191933
 30
0.0
 40
1.150694
100
AcDbArc
 50
298.592423
 51
61.407577
  0
LINE
  5
45C
100
AcDbEntity
  8
M01
100
AcDbLine
 10
853.457613
 20
558.18157
 30
0.0
 11
851.657613
 21
558.18157
 31
0.0
  0
LINE
  5
45D
100
AcDbEntity
  8
M01
100
AcDbLine
 10
853.457613
 20
560.202296
 30
0.0
 11
851.657613
 21
560.202296
 31
0.0
  0
LINE
  5
45E
100
AcDbEntity
  8
M01
100
AcDbLine
 10
854.057613
 20
560.660844
 30
0.0
 11
854.057613
 21
551.660844
 31
0.0
  0
LINE
  5
45F
100
AcDbEntity
  8
M01
100
AcDbLine
 10
851.057613
 20
560.660844
 30
0.0
 11
851.057613
 21
551.660844
 31
0.0
  0
LINE
  5
460
100
AcDbEntity
  8
M01
100
AcDbLine
 10
863.257613
 20
554.660844
 30
0.0
 11
862.757613
 21
554.160844
 31
0.0
  0
LINE
  5
461
100
AcDbEntity
  8
M01
100
AcDbLine
 10
862.757613
 20
558.160844
 30
0.0
 11
863.257613
 21
557.660844
 31
0.0
  0
LINE
  5
462
100
AcDbEntity
  8
M01
100
AcDbLine
 10
862.757613
 20
558.160844
 30
0.0
 11
862.757613
 21
554.160844
 31
0.0
  0
LINE
  5
463
100
AcDbEntity
  8
M01
100
AcDbLine
 10
863.257613
 20
554.660844
 30
0.0
 11
860.157613
 21
554.660844
 31
0.0
  0
LINE
  5
464
100
AcDbEntity
  8
M01
100
AcDbLine
 10
863.257613
 20
557.660844
 30
0.0
 11
860.157613
 21
557.660844
 31
0.0
  0
LINE
  5
465
100
AcDbEntity
  8
M01
100
AcDbLine
 10
862.757613
 20
558.160844
 30
0.0
 11
860.157613
 21
558.160844
 31
0.0
  0
LINE
  5
466
100
AcDbEntity
  8
M01
100
AcDbLine
 10
862.757613
 20
554.160844
 30
0.0
 11
860.157613
 21
554.160844
 31
0.0
  0
LINE
  5
467
100
AcDbEntity
  8
M01
100
AcDbLine
 10
863.257613
 20
557.660844
 30
0.0
 11
863.257613
 21
554.660844
 31
0.0
  0
LINE
  5
468
100
AcDbEntity
  8
M01
100
AcDbLine
 10
838.257613
 20
561.160844
 30
0.0
 11
838.257613
 21
551.160844
 31
0.0
  0
LINE
  5
469
100
AcDbEntity
  8
CENTRE
100
AcDbLine
 10
869.418502
 20
556.160844
 30
0.0
 11
805.82507
 21
556.160844
 31
0.0
  0
LINE
  5
46A
100
AcDbEntity
  8
M01
100
AcDbLine
 10
860.157613
 20
529.129755
 30
0.0
 11
860.157613
 21
535.191933
 31
0.0
  0
ARC
  5
46B
100
AcDbEntity
  8
M01
100
AcDbCircle
 10
858.308307
 20
535.191933
 30
0.0
 40
1.150694
100
AcDbArc
 50
118.592423
 51
241.407577
  0
ARC
  5
46C
100
AcDbEntity
  8
M01
100
AcDbCircle
 10
860.86039
 20
532.160844
 30
0.0
 40
3.702778
100
AcDbArc
 50
146.92527
 51
213.07473
  0
ARC
  5
46D
100
AcDbEntity
  8
M01
100
AcDbCircle
 10
858.308307
 20
529.129755
 30
0.0
 40
1.150694
100
AcDbArc
 50
118.592423
 51
241.407577
  0
ARC
  5
46E
100
AcDbEntity
  8
M01
100
AcDbCircle
 10
859.006918
 20
535.191933
 30
0.0
 40
1.150694
100
AcDbArc
 50
298.592423
 51
61.407577
  0
ARC
  5
46F
100
AcDbEntity
  8
M01
100
AcDbCircle
 10
856.454835
 20
532.160844
 30
0.0
 40
3.702778
100
AcDbArc
 50
326.92527
 51
33.07473
  0
LINE
  5
470
100
AcDbEntity
  8
M01
100
AcDbLine
 10
859.557613
 20
534.18157
 30
0.0
 11
857.757613
 21
534.18157
 31
0.0
  0
LINE
  5
471
100
AcDbEntity
  8
M01
100
AcDbLine
 10
859.557613
 20
536.202296
 30
0.0
 11
857.757613
 21
536.202296
 31
0.0
  0
ARC
  5
472
100
AcDbEntity
  8
M01
100
AcDbCircle
 10
859.006918
 20
529.129755
 30
0.0
 40
1.150694
100
AcDbArc
 50
298.592423
 51
61.407577
  0
LINE
  5
473
100
AcDbEntity
  8
M01
100
AcDbLine
 10
859.557613
 20
530.140118
 30
0.0
 11
857.757613
 21
530.140118
 31
0.0
  0
LINE
  5
474
100
AcDbEntity
  8
M01
100
AcDbLine
 10
859.557613
 20
528.119392
 30
0.0
 11
857.757613
 21
528.119392
 31
0.0
  0
LINE
  5
475
100
AcDbEntity
  8
M01
100
AcDbLine
 10
854.857613
 20
537.160844
 30
0.0
 11
856.357613
 21
537.160844
 31
0.0
  0
LINE
  5
476
100
AcDbEntity
  8
M01
100
AcDbLine
 10
854.857613
 20
527.160844
 30
0.0
 11
856.357613
 21
527.160844
 31
0.0
  0
LINE
  5
477
100
AcDbEntity
  8
M01
100
AcDbLine
 10
856.357613
 20
536.660844
 30
0.0
 11
857.157613
 21
536.660844
 31
0.0
  0
LINE
  5
478
100
AcDbEntity
  8
M01
100
AcDbLine
 10
856.357613
 20
527.660844
 30
0.0
 11
857.157613
 21
527.660844
 31
0.0
  0
LINE
  5
479
100
AcDbEntity
  8
M01
100
AcDbLine
 10
857.157613
 20
527.660844
 30
0.0
 11
857.157613
 21
536.660844
 31
0.0
  0
LINE
  5
47A
100
AcDbEntity
  8
M01
100
AcDbLine
 10
856.357613
 20
527.160844
 30
0.0
 11
856.357613
 21
537.160844
 31
0.0
  0
LINE
  5
47B
100
AcDbEntity
  8
M01
100
AcDbLine
 10
854.057613
 20
536.660844
 30
0.0
 11
854.857613
 21
536.660844
 31
0.0
  0
LINE
  5
47C
100
AcDbEntity
  8
M01
100
AcDbLine
 10
854.057613
 20
527.660844
 30
0.0
 11
854.857613
 21
527.660844
 31
0.0
  0
LINE
  5
47D
100
AcDbEntity
  8
M01
100
AcDbLine
 10
854.857613
 20
527.160844
 30
0.0
 11
854.857613
 21
537.160844
 31
0.0
  0
ARC
  5
47E
100
AcDbEntity
  8
M01
100
AcDbCircle
 10
852.208307
 20
535.191933
 30
0.0
 40
1.150694
100
AcDbArc
 50
118.592423
 51
241.407577
  0
ARC
  5
47F
100
AcDbEntity
  8
M01
100
AcDbCircle
 10
854.76039
 20
532.160844
 30
0.0
 40
3.702778
100
AcDbArc
 50
146.92527
 51
213.07473
  0
ARC
  5
480
100
AcDbEntity
  8
M01
100
AcDbCircle
 10
852.208307
 20
529.129755
 30
0.0
 40
1.150694
100
AcDbArc
 50
118.592423
 51
241.407577
  0
ARC
  5
481
100
AcDbEntity
  8
M01
100
AcDbCircle
 10
852.906918
 20
535.191933
 30
0.0
 40
1.150694
100
AcDbArc
 50
298.592423
 51
61.407577
  0
ARC
  5
482
100
AcDbEntity
  8
M01
100
AcDbCircle
 10
850.354835
 20
532.160844
 30
0.0
 40
3.702778
100
AcDbArc
 50
326.92527
 51
33.07473
  0
LINE
  5
483
100
AcDbEntity
  8
M01
100
AcDbLine
 10
853.457613
 20
534.18157
 30
0.0
 11
851.657613
 21
534.18157
 31
0.0
  0
LINE
  5
484
100
AcDbEntity
  8
M01
100
AcDbLine
 10
853.457613
 20
536.202296
 30
0.0
 11
851.657613
 21
536.202296
 31
0.0
  0
ARC
  5
485
100
AcDbEntity
  8
M01
100
AcDbCircle
 10
852.906918
 20
529.129755
 30
0.0
 40
1.150694
100
AcDbArc
 50
298.592423
 51
61.407577
  0
LINE
  5
486
100
AcDbEntity
  8
M01
100
AcDbLine
 10
853.457613
 20
530.140118
 30
0.0
 11
851.657613
 21
530.140118
 31
0.0
  0
LINE
  5
487
100
AcDbEntity
  8
M01
100
AcDbLine
 10
853.457613
 20
528.119392
 30
0.0
 11
851.657613
 21
528.119392
 31
0.0
  0
LINE
  5
488
100
AcDbEntity
  8
M01
100
AcDbLine
 10
854.057613
 20
527.660844
 30
0.0
 11
854.057613
 21
536.660844
 31
0.0
  0
LINE
  5
489
100
AcDbEntity
  8
M01
100
AcDbLine
 10
851.057613
 20
527.660844
 30
0.0
 11
851.057613
 21
536.660844
 31
0.0
  0
LINE
  5
48A
100
AcDbEntity
  8
M01
100
AcDbLine
 10
850.257613
 20
527.660844
 30
0.0
 11
850.257613
 21
536.660844
 31
0.0
  0
LINE
  5
48B
100
AcDbEntity
  8
M01
100
AcDbLine
 10
863.257613
 20
533.660844
 30
0.0
 11
862.757613
 21
534.160844
 31
0.0
  0
LINE
  5
48C
100
AcDbEntity
  8
M01
100
AcDbLine
 10
862.757613
 20
530.160844
 30
0.0
 11
863.257613
 21
530.660844
 31
0.0
  0
LINE
  5
48D
100
AcDbEntity
  8
M01
100
AcDbLine
 10
862.757613
 20
530.160844
 30
0.0
 11
862.757613
 21
534.160844
 31
0.0
  0
LINE
  5
48E
100
AcDbEntity
  8
M01
100
AcDbLine
 10
863.257613
 20
533.660844
 30
0.0
 11
860.157613
 21
533.660844
 31
0.0
  0
LINE
  5
48F
100
AcDbEntity
  8
M01
100
AcDbLine
 10
863.257613
 20
530.660844
 30
0.0
 11
860.157613
 21
530.660844
 31
0.0
  0
LINE
  5
490
100
AcDbEntity
  8
M01
100
AcDbLine
 10
862.757613
 20
530.160844
 30
0.0
 11
860.157613
 21
530.160844
 31
0.0
  0
LINE
  5
491
100
AcDbEntity
  8
M01
100
AcDbLine
 10
862.757613
 20
534.160844
 30
0.0
 11
860.157613
 21
534.160844
 31
0.0
  0
LINE
  5
492
100
AcDbEntity
  8
M01
100
AcDbLine
 10
863.257613
 20
530.660844
 30
0.0
 11
863.257613
 21
533.660844
 31
0.0
  0
LINE
  5
493
100
AcDbEntity
  8
M01
100
AcDbLine
 10
838.257613
 20
527.160844
 30
0.0
 11
838.257613
 21
537.160844
 31
0.0
  0
LINE
  5
494
100
AcDbEntity
  8
M01
100
AcDbLine
 10
851.057613
 20
536.660844
 30
0.0
 11
850.257613
 21
536.660844
 31
0.0
  0
LINE
  5
495
100
AcDbEntity
  8
M01
100
AcDbLine
 10
851.057613
 20
527.660844
 30
0.0
 11
850.257613
 21
527.660844
 31
0.0
  0
LINE
  5
496
100
AcDbEntity
  8
CENTRE
100
AcDbLine
 10
869.418502
 20
532.160844
 30
0.0
 11
805.82507
 21
532.160844
 31
0.0
  0
LINE
  5
497
100
AcDbEntity
  8
M01
100
AcDbLine
 10
818.257613
 20
564.160844
 30
0.0
 11
816.257613
 21
566.160844
 31
0.0
  0
LINE
  5
498
100
AcDbEntity
  8
M01
100
AcDbLine
 10
818.257613
 20
524.160844
 30
0.0
 11
818.257613
 21
564.160844
 31
0.0
  0
LINE
  5
499
100
AcDbEntity
  8
M01
100
AcDbLine
 10
816.257613
 20
566.160844
 30
0.0
 11
802.257613
 21
566.160844
 31
0.0
  0
LINE
  5
49A
100
AcDbEntity
  8
M01
100
AcDbLine
 10
816.257613
 20
522.160844
 30
0.0
 11
802.257613
 21
522.160844
 31
0.0
  0
LINE
  5
49B
100
AcDbEntity
  8
M03
100
AcDbLine
 10
708.257613
 20
548.160844
 30
0.0
 11
708.257613
 21
549.817698
 31
0.0
  0
CIRCLE
  5
49C
100
AcDbEntity
  8
M01
100
AcDbCircle
 10
658.257613
 20
581.660844
 30
0.0
 40
4.0
  0
LINE
  5
49D
100
AcDbEntity
  8
M01
100
AcDbLine
 10
476.313512
 20
559.410844
 30
0.0
 11
476.313512
 21
552.910844
 31
0.0
  0
LINE
  5
49E
100
AcDbEntity
  8
M01
100
AcDbLine
 10
468.201713
 20
559.410844
 30
0.0
 11
468.201713
 21
552.910844
 31
0.0
  0
LINE
  5
49F
100
AcDbEntity
  8
M01
100
AcDbLine
 10
476.313512
 20
559.410844
 30
0.0
 11
478.257613
 21
559.410844
 31
0.0
  0
ARC
  5
4A0
100
AcDbEntity
  8
M01
100
AcDbCircle
 10
474.752263
 20
560.660844
 30
0.0
 40
2.0
100
AcDbArc
 50
270.0
 51
321.317813
  0
ARC
  5
4A1
100
AcDbEntity
  8
M01
100
AcDbCircle
 10
469.762962
 20
560.660844
 30
0.0
 40
2.0
100
AcDbArc
 50
218.682187
 51
270.0
  0
LINE
  5
4A2
100
AcDbEntity
  8
M01
100
AcDbLine
 10
466.257613
 20
559.410844
 30
0.0
 11
468.201713
 21
559.410844
 31
0.0
  0
LINE
  5
4A3
100
AcDbEntity
  8
M01
100
AcDbLine
 10
469.762962
 20
558.660844
 30
0.0
 11
474.752263
 21
558.660844
 31
0.0
  0
LINE
  5
4A4
100
AcDbEntity
  8
M01
100
AcDbLine
 10
476.313512
 20
552.910844
 30
0.0
 11
478.257613
 21
552.910844
 31
0.0
  0
ARC
  5
4A5
100
AcDbEntity
  8
M01
100
AcDbCircle
 10
474.752263
 20
551.660844
 30
0.0
 40
2.0
100
AcDbArc
 50
38.682187
 51
90.0
  0
ARC
  5
4A6
100
AcDbEntity
  8
M01
100
AcDbCircle
 10
469.762962
 20
551.660844
 30
0.0
 40
2.0
100
AcDbArc
 50
90.0
 51
141.317813
  0
LINE
  5
4A7
100
AcDbEntity
  8
M01
100
AcDbLine
 10
466.257613
 20
552.910844
 30
0.0
 11
468.201713
 21
552.910844
 31
0.0
  0
LINE
  5
4A8
100
AcDbEntity
  8
M01
100
AcDbLine
 10
469.762962
 20
553.660844
 30
0.0
 11
474.752263
 21
553.660844
 31
0.0
  0
LINE
  5
4A9
100
AcDbEntity
  8
M01
100
AcDbLine
 10
466.257613
 20
551.660844
 30
0.0
 11
466.257613
 21
560.660844
 31
0.0
  0
LINE
  5
4AA
100
AcDbEntity
  8
M01
100
AcDbLine
 10
465.457613
 20
560.660844
 30
0.0
 11
466.257613
 21
560.660844
 31
0.0
  0
LINE
  5
4AB
100
AcDbEntity
  8
M01
100
AcDbLine
 10
465.457613
 20
551.660844
 30
0.0
 11
466.257613
 21
551.660844
 31
0.0
  0
LINE
  5
4AC
100
AcDbEntity
  8
M01
100
AcDbLine
 10
476.313512
 20
528.910844
 30
0.0
 11
476.313512
 21
535.410844
 31
0.0
  0
LINE
  5
4AD
100
AcDbEntity
  8
M01
100
AcDbLine
 10
468.201713
 20
528.910844
 30
0.0
 11
468.201713
 21
535.410844
 31
0.0
  0
LINE
  5
4AE
100
AcDbEntity
  8
M01
100
AcDbLine
 10
476.313512
 20
528.910844
 30
0.0
 11
478.257613
 21
528.910844
 31
0.0
  0
ARC
  5
4AF
100
AcDbEntity
  8
M01
100
AcDbCircle
 10
474.752263
 20
527.660844
 30
0.0
 40
2.0
100
AcDbArc
 50
38.682187
 51
90.0
  0
ARC
  5
4B0
100
AcDbEntity
  8
M01
100
AcDbCircle
 10
469.762962
 20
527.660844
 30
0.0
 40
2.0
100
AcDbArc
 50
90.0
 51
141.317813
  0
LINE
  5
4B1
100
AcDbEntity
  8
M01
100
AcDbLine
 10
466.257613
 20
528.910844
 30
0.0
 11
468.201713
 21
528.910844
 31
0.0
  0
LINE
  5
4B2
100
AcDbEntity
  8
M01
100
AcDbLine
 10
469.762962
 20
529.660844
 30
0.0
 11
474.752263
 21
529.660844
 31
0.0
  0
LINE
  5
4B3
100
AcDbEntity
  8
M01
100
AcDbLine
 10
476.313512
 20
535.410844
 30
0.0
 11
478.257613
 21
535.410844
 31
0.0
  0
ARC
  5
4B4
100
AcDbEntity
  8
M01
100
AcDbCircle
 10
474.752263
 20
536.660844
 30
0.0
 40
2.0
100
AcDbArc
 50
270.0
 51
321.317813
  0
ARC
  5
4B5
100
AcDbEntity
  8
M01
100
AcDbCircle
 10
469.762962
 20
536.660844
 30
0.0
 40
2.0
100
AcDbArc
 50
218.682187
 51
270.0
  0
LINE
  5
4B6
100
AcDbEntity
  8
M01
100
AcDbLine
 10
466.257613
 20
535.410844
 30
0.0
 11
468.201713
 21
535.410844
 31
0.0
  0
LINE
  5
4B7
100
AcDbEntity
  8
M01
100
AcDbLine
 10
469.762962
 20
534.660844
 30
0.0
 11
474.752263
 21
534.660844
 31
0.0
  0
LINE
  5
4B8
100
AcDbEntity
  8
M01
100
AcDbLine
 10
483.257613
 20
561.160844
 30
0.0
 11
483.257613
 21
551.160844
 31
0.0
  0
LINE
  5
4B9
100
AcDbEntity
  8
M01
100
AcDbLine
 10
483.257613
 20
527.160844
 30
0.0
 11
483.257613
 21
537.160844
 31
0.0
  0
LINE
  5
4BA
100
AcDbEntity
  8
M01
100
AcDbLine
 10
478.257613
 20
527.160844
 30
0.0
 11
498.257613
 21
527.160844
 31
0.0
  0
LINE
  5
4BB
100
AcDbEntity
  8
M01
100
AcDbLine
 10
478.257613
 20
537.160844
 30
0.0
 11
498.257613
 21
537.160844
 31
0.0
  0
LINE
  5
4BC
100
AcDbEntity
  8
M01
100
AcDbLine
 10
478.257613
 20
551.160844
 30
0.0
 11
498.257613
 21
551.160844
 31
0.0
  0
LINE
  5
4BD
100
AcDbEntity
  8
M01
100
AcDbLine
 10
478.257613
 20
561.160844
 30
0.0
 11
498.257613
 21
561.160844
 31
0.0
  0
LINE
  5
4BE
100
AcDbEntity
  8
DIMS
 62
     4
100
AcDbLine
 10
503.757613
 20
547.560844
 30
0.0
 11
503.757613
 21
549.860844
 31
0.0
  0
LINE
  5
4BF
100
AcDbEntity
  8
DIMS
 62
     4
100
AcDbLine
 10
503.757613
 20
540.760844
 30
0.0
 11
503.757613
 21
538.460844
 31
0.0
  0
LINE
  5
4C0
100
AcDbEntity
  8
DIMS
 62
     4
100
AcDbLine
 10
503.757613
 20
542.460844
 30
0.0
 11
503.757613
 21
545.860844
 31
0.0
  0
LINE
  5
4C1
100
AcDbEntity
  8
M01
100
AcDbLine
 10
456.357613
 20
559.191933
 30
0.0
 11
456.357613
 21
553.129755
 31
0.0
  0
ARC
  5
4C2
100
AcDbEntity
  8
M01
100
AcDbCircle
 10
458.206918
 20
553.129755
 30
0.0
 40
1.150694
100
AcDbArc
 50
298.592423
 51
61.407577
  0
ARC
  5
4C3
100
AcDbEntity
  8
M01
100
AcDbCircle
 10
455.654835
 20
556.160844
 30
0.0
 40
3.702778
100
AcDbArc
 50
326.92527
 51
33.07473
  0
ARC
  5
4C4
100
AcDbEntity
  8
M01
100
AcDbCircle
 10
458.206918
 20
559.191933
 30
0.0
 40
1.150694
100
AcDbArc
 50
298.592423
 51
61.407577
  0
ARC
  5
4C5
100
AcDbEntity
  8
M01
100
AcDbCircle
 10
457.508307
 20
553.129755
 30
0.0
 40
1.150694
100
AcDbArc
 50
118.592423
 51
241.407577
  0
ARC
  5
4C6
100
AcDbEntity
  8
M01
100
AcDbCircle
 10
460.06039
 20
556.160844
 30
0.0
 40
3.702778
100
AcDbArc
 50
146.92527
 51
213.07473
  0
LINE
  5
4C7
100
AcDbEntity
  8
M01
100
AcDbLine
 10
456.957613
 20
554.140118
 30
0.0
 11
458.757613
 21
554.140118
 31
0.0
  0
LINE
  5
4C8
100
AcDbEntity
  8
M01
100
AcDbLine
 10
456.957613
 20
552.119392
 30
0.0
 11
458.757613
 21
552.119392
 31
0.0
  0
ARC
  5
4C9
100
AcDbEntity
  8
M01
100
AcDbCircle
 10
457.508307
 20
559.191933
 30
0.0
 40
1.150694
100
AcDbArc
 50
118.592423
 51
241.407577
  0
LINE
  5
4CA
100
AcDbEntity
  8
M01
100
AcDbLine
 10
456.957613
 20
558.18157
 30
0.0
 11
458.757613
 21
558.18157
 31
0.0
  0
LINE
  5
4CB
100
AcDbEntity
  8
M01
100
AcDbLine
 10
456.957613
 20
560.202296
 30
0.0
 11
458.757613
 21
560.202296
 31
0.0
  0
LINE
  5
4CC
100
AcDbEntity
  8
M01
100
AcDbLine
 10
461.657613
 20
551.160844
 30
0.0
 11
460.157613
 21
551.160844
 31
0.0
  0
LINE
  5
4CD
100
AcDbEntity
  8
M01
100
AcDbLine
 10
461.657613
 20
561.160844
 30
0.0
 11
460.157613
 21
561.160844
 31
0.0
  0
LINE
  5
4CE
100
AcDbEntity
  8
M01
100
AcDbLine
 10
460.157613
 20
551.660844
 30
0.0
 11
459.357613
 21
551.660844
 31
0.0
  0
LINE
  5
4CF
100
AcDbEntity
  8
M01
100
AcDbLine
 10
460.157613
 20
560.660844
 30
0.0
 11
459.357613
 21
560.660844
 31
0.0
  0
LINE
  5
4D0
100
AcDbEntity
  8
M01
100
AcDbLine
 10
459.357613
 20
560.660844
 30
0.0
 11
459.357613
 21
551.660844
 31
0.0
  0
LINE
  5
4D1
100
AcDbEntity
  8
M01
100
AcDbLine
 10
460.157613
 20
561.160844
 30
0.0
 11
460.157613
 21
551.160844
 31
0.0
  0
LINE
  5
4D2
100
AcDbEntity
  8
M01
100
AcDbLine
 10
462.457613
 20
551.660844
 30
0.0
 11
461.657613
 21
551.660844
 31
0.0
  0
LINE
  5
4D3
100
AcDbEntity
  8
M01
100
AcDbLine
 10
462.457613
 20
560.660844
 30
0.0
 11
461.657613
 21
560.660844
 31
0.0
  0
LINE
  5
4D4
100
AcDbEntity
  8
M01
100
AcDbLine
 10
461.657613
 20
561.160844
 30
0.0
 11
461.657613
 21
551.160844
 31
0.0
  0
ARC
  5
4D5
100
AcDbEntity
  8
M01
100
AcDbCircle
 10
464.306918
 20
553.129755
 30
0.0
 40
1.150694
100
AcDbArc
 50
298.592423
 51
61.407577
  0
ARC
  5
4D6
100
AcDbEntity
  8
M01
100
AcDbCircle
 10
461.754835
 20
556.160844
 30
0.0
 40
3.702778
100
AcDbArc
 50
326.92527
 51
33.07473
  0
ARC
  5
4D7
100
AcDbEntity
  8
M01
100
AcDbCircle
 10
464.306918
 20
559.191933
 30
0.0
 40
1.150694
100
AcDbArc
 50
298.592423
 51
61.407577
  0
ARC
  5
4D8
100
AcDbEntity
  8
M01
100
AcDbCircle
 10
463.608307
 20
553.129755
 30
0.0
 40
1.150694
100
AcDbArc
 50
118.592423
 51
241.407577
  0
ARC
  5
4D9
100
AcDbEntity
  8
M01
100
AcDbCircle
 10
466.16039
 20
556.160844
 30
0.0
 40
3.702778
100
AcDbArc
 50
146.92527
 51
213.07473
  0
LINE
  5
4DA
100
AcDbEntity
  8
M01
100
AcDbLine
 10
463.057613
 20
554.140118
 30
0.0
 11
464.857613
 21
554.140118
 31
0.0
  0
LINE
  5
4DB
100
AcDbEntity
  8
M01
100
AcDbLine
 10
463.057613
 20
552.119392
 30
0.0
 11
464.857613
 21
552.119392
 31
0.0
  0
ARC
  5
4DC
100
AcDbEntity
  8
M01
100
AcDbCircle
 10
463.608307
 20
559.191933
 30
0.0
 40
1.150694
100
AcDbArc
 50
118.592423
 51
241.407577
  0
LINE
  5
4DD
100
AcDbEntity
  8
M01
100
AcDbLine
 10
463.057613
 20
558.18157
 30
0.0
 11
464.857613
 21
558.18157
 31
0.0
  0
LINE
  5
4DE
100
AcDbEntity
  8
M01
100
AcDbLine
 10
463.057613
 20
560.202296
 30
0.0
 11
464.857613
 21
560.202296
 31
0.0
  0
LINE
  5
4DF
100
AcDbEntity
  8
M01
100
AcDbLine
 10
462.457613
 20
560.660844
 30
0.0
 11
462.457613
 21
551.660844
 31
0.0
  0
LINE
  5
4E0
100
AcDbEntity
  8
M01
100
AcDbLine
 10
465.457613
 20
560.660844
 30
0.0
 11
465.457613
 21
551.660844
 31
0.0
  0
LINE
  5
4E1
100
AcDbEntity
  8
M01
100
AcDbLine
 10
453.257613
 20
554.660844
 30
0.0
 11
453.757613
 21
554.160844
 31
0.0
  0
LINE
  5
4E2
100
AcDbEntity
  8
M01
100
AcDbLine
 10
453.757613
 20
558.160844
 30
0.0
 11
453.257613
 21
557.660844
 31
0.0
  0
LINE
  5
4E3
100
AcDbEntity
  8
M01
100
AcDbLine
 10
453.757613
 20
558.160844
 30
0.0
 11
453.757613
 21
554.160844
 31
0.0
  0
LINE
  5
4E4
100
AcDbEntity
  8
M01
100
AcDbLine
 10
453.257613
 20
554.660844
 30
0.0
 11
456.357613
 21
554.660844
 31
0.0
  0
LINE
  5
4E5
100
AcDbEntity
  8
M01
100
AcDbLine
 10
453.257613
 20
557.660844
 30
0.0
 11
456.357613
 21
557.660844
 31
0.0
  0
LINE
  5
4E6
100
AcDbEntity
  8
M01
100
AcDbLine
 10
453.757613
 20
558.160844
 30
0.0
 11
456.357613
 21
558.160844
 31
0.0
  0
LINE
  5
4E7
100
AcDbEntity
  8
M01
100
AcDbLine
 10
453.757613
 20
554.160844
 30
0.0
 11
456.357613
 21
554.160844
 31
0.0
  0
LINE
  5
4E8
100
AcDbEntity
  8
M01
100
AcDbLine
 10
453.257613
 20
557.660844
 30
0.0
 11
453.257613
 21
554.660844
 31
0.0
  0
LINE
  5
4E9
100
AcDbEntity
  8
M01
100
AcDbLine
 10
478.257613
 20
561.160844
 30
0.0
 11
478.257613
 21
551.160844
 31
0.0
  0
LINE
  5
4EA
100
AcDbEntity
  8
CENTRE
100
AcDbLine
 10
447.096723
 20
556.160844
 30
0.0
 11
510.690155
 21
556.160844
 31
0.0
  0
LINE
  5
4EB
100
AcDbEntity
  8
M01
100
AcDbLine
 10
456.357613
 20
529.129755
 30
0.0
 11
456.357613
 21
535.191933
 31
0.0
  0
ARC
  5
4EC
100
AcDbEntity
  8
M01
100
AcDbCircle
 10
458.206918
 20
535.191933
 30
0.0
 40
1.150694
100
AcDbArc
 50
298.592423
 51
61.407577
  0
ARC
  5
4ED
100
AcDbEntity
  8
M01
100
AcDbCircle
 10
455.654835
 20
532.160844
 30
0.0
 40
3.702778
100
AcDbArc
 50
326.92527
 51
33.07473
  0
ARC
  5
4EE
100
AcDbEntity
  8
M01
100
AcDbCircle
 10
458.206918
 20
529.129755
 30
0.0
 40
1.150694
100
AcDbArc
 50
298.592423
 51
61.407577
  0
ARC
  5
4EF
100
AcDbEntity
  8
M01
100
AcDbCircle
 10
457.508307
 20
535.191933
 30
0.0
 40
1.150694
100
AcDbArc
 50
118.592423
 51
241.407577
  0
ARC
  5
4F0
100
AcDbEntity
  8
M01
100
AcDbCircle
 10
460.06039
 20
532.160844
 30
0.0
 40
3.702778
100
AcDbArc
 50
146.92527
 51
213.07473
  0
LINE
  5
4F1
100
AcDbEntity
  8
M01
100
AcDbLine
 10
456.957613
 20
534.18157
 30
0.0
 11
458.757613
 21
534.18157
 31
0.0
  0
LINE
  5
4F2
100
AcDbEntity
  8
M01
100
AcDbLine
 10
456.957613
 20
536.202296
 30
0.0
 11
458.757613
 21
536.202296
 31
0.0
  0
ARC
  5
4F3
100
AcDbEntity
  8
M01
100
AcDbCircle
 10
457.508307
 20
529.129755
 30
0.0
 40
1.150694
100
AcDbArc
 50
118.592423
 51
241.407577
  0
LINE
  5
4F4
100
AcDbEntity
  8
M01
100
AcDbLine
 10
456.957613
 20
530.140118
 30
0.0
 11
458.757613
 21
530.140118
 31
0.0
  0
LINE
  5
4F5
100
AcDbEntity
  8
M01
100
AcDbLine
 10
456.957613
 20
528.119392
 30
0.0
 11
458.757613
 21
528.119392
 31
0.0
  0
LINE
  5
4F6
100
AcDbEntity
  8
M01
100
AcDbLine
 10
461.657613
 20
537.160844
 30
0.0
 11
460.157613
 21
537.160844
 31
0.0
  0
LINE
  5
4F7
100
AcDbEntity
  8
M01
100
AcDbLine
 10
461.657613
 20
527.160844
 30
0.0
 11
460.157613
 21
527.160844
 31
0.0
  0
LINE
  5
4F8
100
AcDbEntity
  8
M01
100
AcDbLine
 10
460.157613
 20
536.660844
 30
0.0
 11
459.357613
 21
536.660844
 31
0.0
  0
LINE
  5
4F9
100
AcDbEntity
  8
M01
100
AcDbLine
 10
460.157613
 20
527.660844
 30
0.0
 11
459.357613
 21
527.660844
 31
0.0
  0
LINE
  5
4FA
100
AcDbEntity
  8
M01
100
AcDbLine
 10
459.357613
 20
527.660844
 30
0.0
 11
459.357613
 21
536.660844
 31
0.0
  0
LINE
  5
4FB
100
AcDbEntity
  8
M01
100
AcDbLine
 10
460.157613
 20
527.160844
 30
0.0
 11
460.157613
 21
537.160844
 31
0.0
  0
LINE
  5
4FC
100
AcDbEntity
  8
M01
100
AcDbLine
 10
462.457613
 20
536.660844
 30
0.0
 11
461.657613
 21
536.660844
 31
0.0
  0
LINE
  5
4FD
100
AcDbEntity
  8
M01
100
AcDbLine
 10
462.457613
 20
527.660844
 30
0.0
 11
461.657613
 21
527.660844
 31
0.0
  0
LINE
  5
4FE
100
AcDbEntity
  8
M01
100
AcDbLine
 10
461.657613
 20
527.160844
 30
0.0
 11
461.657613
 21
537.160844
 31
0.0
  0
ARC
  5
4FF
100
AcDbEntity
  8
M01
100
AcDbCircle
 10
464.306918
 20
535.191933
 30
0.0
 40
1.150694
100
AcDbArc
 50
298.592423
 51
61.407577
  0
ARC
  5
500
100
AcDbEntity
  8
M01
100
AcDbCircle
 10
461.754835
 20
532.160844
 30
0.0
 40
3.702778
100
AcDbArc
 50
326.92527
 51
33.07473
  0
ARC
  5
501
100
AcDbEntity
  8
M01
100
AcDbCircle
 10
464.306918
 20
529.129755
 30
0.0
 40
1.150694
100
AcDbArc
 50
298.592423
 51
61.407577
  0
ARC
  5
502
100
AcDbEntity
  8
M01
100
AcDbCircle
 10
463.608307
 20
535.191933
 30
0.0
 40
1.150694
100
AcDbArc
 50
118.592423
 51
241.407577
  0
ARC
  5
503
100
AcDbEntity
  8
M01
100
AcDbCircle
 10
466.16039
 20
532.160844
 30
0.0
 40
3.702778
100
AcDbArc
 50
146.92527
 51
213.07473
  0
LINE
  5
504
100
AcDbEntity
  8
M01
100
AcDbLine
 10
463.057613
 20
534.18157
 30
0.0
 11
464.857613
 21
534.18157
 31
0.0
  0
LINE
  5
505
100
AcDbEntity
  8
M01
100
AcDbLine
 10
463.057613
 20
536.202296
 30
0.0
 11
464.857613
 21
536.202296
 31
0.0
  0
ARC
  5
506
100
AcDbEntity
  8
M01
100
AcDbCircle
 10
463.608307
 20
529.129755
 30
0.0
 40
1.150694
100
AcDbArc
 50
118.592423
 51
241.407577
  0
LINE
  5
507
100
AcDbEntity
  8
M01
100
AcDbLine
 10
463.057613
 20
530.140118
 30
0.0
 11
464.857613
 21
530.140118
 31
0.0
  0
LINE
  5
508
100
AcDbEntity
  8
M01
100
AcDbLine
 10
463.057613
 20
528.119392
 30
0.0
 11
464.857613
 21
528.119392
 31
0.0
  0
LINE
  5
509
100
AcDbEntity
  8
M01
100
AcDbLine
 10
462.457613
 20
527.660844
 30
0.0
 11
462.457613
 21
536.660844
 31
0.0
  0
LINE
  5
50A
100
AcDbEntity
  8
M01
100
AcDbLine
 10
465.457613
 20
527.660844
 30
0.0
 11
465.457613
 21
536.660844
 31
0.0
  0
LINE
  5
50B
100
AcDbEntity
  8
M01
100
AcDbLine
 10
466.257613
 20
527.660844
 30
0.0
 11
466.257613
 21
536.660844
 31
0.0
  0
LINE
  5
50C
100
AcDbEntity
  8
M04
100
AcDbLine
 10
438.257613
 20
561.160844
 30
0.0
 11
417.586134
 21
561.160844
 31
0.0
  0
LINE
  5
50D
100
AcDbEntity
  8
M04
100
AcDbLine
 10
438.257613
 20
527.160844
 30
0.0
 11
417.586134
 21
527.160844
 31
0.0
  0
ARC
  5
50E
100
AcDbEntity
  8
M04
100
AcDbCircle
 10
453.257613
 20
561.160844
 30
0.0
 40
15.0
100
AcDbArc
 50
90.0
 51
180.0
  0
ARC
  5
50F
100
AcDbEntity
  8
M04
100
AcDbCircle
 10
453.257613
 20
527.160844
 30
0.0
 40
15.0
100
AcDbArc
 50
180.0
 51
270.0
  0
LINE
  5
510
100
AcDbEntity
  8
M04
100
AcDbLine
 10
438.257613
 20
527.160844
 30
0.0
 11
438.257613
 21
561.160844
 31
0.0
  0
LINE
  5
511
100
AcDbEntity
  8
M01
100
AcDbLine
 10
453.257613
 20
533.660844
 30
0.0
 11
453.757613
 21
534.160844
 31
0.0
  0
LINE
  5
512
100
AcDbEntity
  8
M01
100
AcDbLine
 10
453.757613
 20
530.160844
 30
0.0
 11
453.257613
 21
530.660844
 31
0.0
  0
LINE
  5
513
100
AcDbEntity
  8
M01
100
AcDbLine
 10
453.757613
 20
530.160844
 30
0.0
 11
453.757613
 21
534.160844
 31
0.0
  0
LINE
  5
514
100
AcDbEntity
  8
M01
100
AcDbLine
 10
453.257613
 20
533.660844
 30
0.0
 11
456.357613
 21
533.660844
 31
0.0
  0
LINE
  5
515
100
AcDbEntity
  8
M01
100
AcDbLine
 10
453.257613
 20
530.660844
 30
0.0
 11
456.357613
 21
530.660844
 31
0.0
  0
LINE
  5
516
100
AcDbEntity
  8
M01
100
AcDbLine
 10
453.757613
 20
530.160844
 30
0.0
 11
456.357613
 21
530.160844
 31
0.0
  0
LINE
  5
517
100
AcDbEntity
  8
M01
100
AcDbLine
 10
453.757613
 20
534.160844
 30
0.0
 11
456.357613
 21
534.160844
 31
0.0
  0
LINE
  5
518
100
AcDbEntity
  8
M01
100
AcDbLine
 10
453.257613
 20
530.660844
 30
0.0
 11
453.257613
 21
533.660844
 31
0.0
  0
LINE
  5
519
100
AcDbEntity
  8
M01
100
AcDbLine
 10
478.257613
 20
527.160844
 30
0.0
 11
478.257613
 21
537.160844
 31
0.0
  0
LINE
  5
51A
100
AcDbEntity
  8
M01
100
AcDbLine
 10
465.457613
 20
536.660844
 30
0.0
 11
466.257613
 21
536.660844
 31
0.0
  0
LINE
  5
51B
100
AcDbEntity
  8
M01
100
AcDbLine
 10
465.457613
 20
527.660844
 30
0.0
 11
466.257613
 21
527.660844
 31
0.0
  0
LINE
  5
51C
100
AcDbEntity
  8
CENTRE
100
AcDbLine
 10
447.096723
 20
532.160844
 30
0.0
 11
510.690155
 21
532.160844
 31
0.0
  0
LINE
  5
51D
100
AcDbEntity
  8
M04
100
AcDbLine
 10
453.257613
 20
576.160844
 30
0.0
 11
512.257613
 21
576.160844
 31
0.0
  0
LWPOLYLINE
  5
51E
100
AcDbEntity
  8
M01
100
AcDbPolyline
 90
        2
 70
     0
 43
4.0
 10
503.757613
 20
546.160844
 42
0.414214
 10
501.757613
 20
544.160844
  0
LWPOLYLINE
  5
51F
100
AcDbEntity
  8
M01
100
AcDbPolyline
 90
        2
 70
     0
 43
4.0
 10
503.757613
 20
542.160844
 42
0.414214
 10
505.757613
 20
544.160844
  0
CIRCLE
  5
520
100
AcDbEntity
  8
M01
100
AcDbCircle
 10
503.757613
 20
544.160844
 30
0.0
 40
4.0
  0
LINE
  5
521
100
AcDbEntity
  8
M01
100
AcDbLine
 10
506.257613
 20
548.160844
 30
0.0
 11
498.257613
 21
548.160844
 31
0.0
  0
LINE
  5
522
100
AcDbEntity
  8
M01
100
AcDbLine
 10
506.257613
 20
540.160844
 30
0.0
 11
498.257613
 21
540.160844
 31
0.0
  0
ARC
  5
523
100
AcDbEntity
  8
M01
100
AcDbCircle
 10
506.257613
 20
544.160844
 30
0.0
 40
4.0
100
AcDbArc
 50
270.0
 51
90.0
  0
LINE
  5
524
100
AcDbEntity
  8
M01
100
AcDbLine
 10
498.257613
 20
564.160844
 30
0.0
 11
500.257613
 21
566.160844
 31
0.0
  0
LINE
  5
525
100
AcDbEntity
  8
M01
100
AcDbLine
 10
500.257613
 20
522.160844
 30
0.0
 11
498.257613
 21
524.160844
 31
0.0
  0
LINE
  5
526
100
AcDbEntity
  8
M01
100
AcDbLine
 10
498.257613
 20
524.160844
 30
0.0
 11
498.257613
 21
564.160844
 31
0.0
  0
LINE
  5
527
100
AcDbEntity
  8
M01
100
AcDbLine
 10
500.257613
 20
566.160844
 30
0.0
 11
514.257613
 21
566.160844
 31
0.0
  0
LINE
  5
528
100
AcDbEntity
  8
M01
100
AcDbLine
 10
500.257613
 20
522.160844
 30
0.0
 11
514.257613
 21
522.160844
 31
0.0
  0
LINE
  5
529
100
AcDbEntity
  8
M01
100
AcDbLine
 10
542.257613
 20
474.660844
 30
0.0
 11
568.924279
 21
474.660844
 31
0.0
  0
LINE
  5
52A
100
AcDbEntity
  8
M01
100
AcDbLine
 10
526.257613
 20
495.994177
 30
0.0
 11
526.257613
 21
510.160844
 31
0.0
  0
LINE
  5
52B
100
AcDbEntity
  8
M03
100
AcDbLine
 10
608.257613
 20
540.160844
 30
0.0
 11
608.257613
 21
538.50399
 31
0.0
  0
LINE
  5
52C
100
AcDbEntity
  8
CENTRE
100
AcDbLine
 10
708.257613
 20
544.160844
 30
0.0
 11
792.741241
 21
607.523565
 31
0.0
  0
LINE
  5
52D
100
AcDbEntity
  8
CENTRE
100
AcDbLine
 10
774.257613
 20
494.660844
 30
0.0
 11
642.257613
 21
593.660844
 31
0.0
  0
CIRCLE
  5
52E
100
AcDbEntity
  8
M03
100
AcDbCircle
 10
708.257613
 20
544.160844
 30
0.0
 40
4.0
  0
LINE
  5
52F
100
AcDbEntity
  8
M03
100
AcDbLine
 10
608.257613
 20
540.160844
 30
0.0
 11
708.257613
 21
540.160844
 31
0.0
  0
LINE
  5
530
100
AcDbEntity
  8
M03
100
AcDbLine
 10
608.257613
 20
548.160844
 30
0.0
 11
708.257613
 21
548.160844
 31
0.0
  0
CIRCLE
  5
531
100
AcDbEntity
  8
M03
100
AcDbCircle
 10
608.257613
 20
544.160844
 30
0.0
 40
4.0
  0
CIRCLE
  5
532
100
AcDbEntity
  8
M01
100
AcDbCircle
 10
658.257613
 20
581.660844
 30
0.0
 40
4.0
  0
CIRCLE
  5
533
100
AcDbEntity
  8
M01
100
AcDbCircle
 10
758.257613
 20
581.660844
 30
0.0
 40
4.0
  0
CIRCLE
  5
534
100
AcDbEntity
  8
M01
100
AcDbCircle
 10
758.257613
 20
506.660844
 30
0.0
 40
4.0
  0
LINE
  5
535
100
AcDbEntity
  8
CENTRE
100
AcDbLine
 10
404.493601
 20
544.160844
 30
0.0
 11
912.021624
 21
544.160844
 31
0.0
  0
LINE
  5
536
100
AcDbEntity
  8
CENTRE
100
AcDbLine
 10
658.257613
 20
654.69383
 30
0.0
 11
658.257613
 21
433.627857
 31
0.0
  0
ENDSEC
  0
SECTION
  2
OBJECTS
  0
DICTIONARY
  5
1C
100
AcDbDictionary
  3
ACAD_GROUP
350
1A
  3
ACAD_MLINESTYLE
350
1B
  0
DICTIONARY
  5
3
100
AcDbDictionary
280
     1
  3
ACAD_SORTENTS
360
4
  0
DICTIONARY
  5
1A
102
{ACAD_REACTORS
330
1C
102
}
100
AcDbDictionary
  0
DICTIONARY
  5
1B
102
{ACAD_REACTORS
330
1C
102
}
100
AcDbDictionary
  3
STANDARD
350
1E
  0
SORTENTSTABLE
  5
4
102
{ACAD_REACTORS
330
3
102
}
100
AcDbSortentsTable
330
2
  0
MLINESTYLE
  5
1E
102
{ACAD_REACTORS
330
1B
102
}
100
AcDbMlineStyle
  2
STANDARD
 70
     0
  3

 62
   256
 51
90.0
 52
90.0
 71
     2
 49
0.5
 62
   256
  6
BYLAYER
 49
-0.5
 62
   256
  6
BYLAYER
  0
ENDSEC
  0
EOF
