  0
SECTION
  2
HEADER
  9
$ACADVER
  1
AC1014
  9
$ACADMAINTVER
 70
     9
  9
$DWGCODEPAGE
  3
ANSI_1252
  9
$INSBASE
 10
0.0
 20
0.0
 30
0.0
  9
$EXTMIN
 10
104.19353
 20
176.679812
 30
-0.001526
  9
$EXTMAX
 10
953.362612
 20
822.67499
 30
0.0
  9
$LIMMIN
 10
0.0
 20
0.0
  9
$LIMMAX
 10
1189.0
 20
841.0
  9
$ORTHOMODE
 70
     1
  9
$REGENMODE
 70
     1
  9
$FILLMODE
 70
     1
  9
$QTEXTMODE
 70
     0
  9
$MIRRTEXT
 70
     1
  9
$DRAGMODE
 70
     2
  9
$LTSCALE
 40
8.0
  9
$OSMODE
 70
     0
  9
$ATTMODE
 70
     1
  9
$TEXTSIZE
 40
3.0
  9
$TRACEWID
 40
10.0
  9
$TEXTSTYLE
  7
STANDARD
  9
$CLAYER
  8
HATCH
  9
$CELTYPE
  6
BYLAYER
  9
$CECOLOR
 62
   256
  9
$CELTSCALE
 40
1.0
  9
$DELOBJ
 70
     1
  9
$DISPSILH
 70
     0
  9
$DIMSCALE
 40
1.0
  9
$DIMASZ
 40
3.0
  9
$DIMEXO
 40
1.0
  9
$DIMDLI
 40
10.0
  9
$DIMRND
 40
0.01
  9
$DIMDLE
 40
1.25
  9
$DIMEXE
 40
2.5
  9
$DIMTP
 40
0.05
  9
$DIMTM
 40
0.0
  9
$DIMTXT
 40
3.0
  9
$DIMCEN
 40
-1.7
  9
$DIMTSZ
 40
0.0
  9
$DIMTOL
 70
     0
  9
$DIMLIM
 70
     0
  9
$DIMTIH
 70
     0
  9
$DIMTOH
 70
     0
  9
$DIMSE1
 70
     0
  9
$DIMSE2
 70
     0
  9
$DIMTAD
 70
     3
  9
$DIMZIN
 70
     1
  9
$DIMBLK
  1

  9
$DIMASO
 70
     1
  9
$DIMSHO
 70
     0
  9
$DIMPOST
  1

  9
$DIMAPOST
  1

  9
$DIMALT
 70
     0
  9
$DIMALTD
 70
     2
  9
$DIMALTF
 40
0.039
  9
$DIMLFAC
 40
1.0
  9
$DIMTOFL
 70
     0
  9
$DIMTVP
 40
1.5
  9
$DIMTIX
 70
     0
  9
$DIMSOXD
 70
     0
  9
$DIMSAH
 70
     0
  9
$DIMBLK1
  1

  9
$DIMBLK2
  1

  9
$DIMSTYLE
  2
DIM1
  9
$DIMCLRD
 70
     4
  9
$DIMCLRE
 70
     4
  9
$DIMCLRT
 70
     2
  9
$DIMTFAC
 40
0.7
  9
$DIMGAP
 40
1.5
  9
$DIMJUST
 70
     0
  9
$DIMSD1
 70
     0
  9
$DIMSD2
 70
     0
  9
$DIMTOLJ
 70
     1
  9
$DIMTZIN
 70
     1
  9
$DIMALTZ
 70
     1
  9
$DIMALTTZ
 70
     1
  9
$DIMFIT
 70
     0
  9
$DIMUPT
 70
     0
  9
$DIMUNIT
 70
     2
  9
$DIMDEC
 70
     2
  9
$DIMTDEC
 70
     2
  9
$DIMALTU
 70
     2
  9
$DIMALTTD
 70
     2
  9
$DIMTXSTY
  7
STANDARD
  9
$DIMAUNIT
 70
     0
  9
$LUNITS
 70
     2
  9
$LUPREC
 70
     2
  9
$SKETCHINC
 40
1.0
  9
$FILLETRAD
 40
0.0
  9
$AUNITS
 70
     0
  9
$AUPREC
 70
     3
  9
$MENU
  1
ACAD
  9
$ELEVATION
 40
0.0
  9
$PELEVATION
 40
0.0
  9
$THICKNESS
 40
0.0
  9
$LIMCHECK
 70
     0
  9
$BLIPMODE
 70
     1
  9
$CHAMFERA
 40
0.7
  9
$CHAMFERB
 40
0.7
  9
$CHAMFERC
 40
0.0
  9
$CHAMFERD
 40
0.0
  9
$SKPOLY
 70
     1
  9
$TDCREATE
 40
2449993.725698611
  9
$TDUPDATE
 40
2451991.419176817
  9
$TDINDWG
 40
1.0518400579
  9
$TDUSRTIMER
 40
1.0518400579
  9
$USRTIMER
 70
     1
  9
$ANGBASE
 50
0.0
  9
$ANGDIR
 70
     0
  9
$PDMODE
 70
     3
  9
$PDSIZE
 40
0.0
  9
$PLINEWID
 40
0.0
  9
$COORDS
 70
     2
  9
$SPLFRAME
 70
     0
  9
$SPLINETYPE
 70
     6
  9
$SPLINESEGS
 70
     6
  9
$ATTDIA
 70
     1
  9
$ATTREQ
 70
     1
  9
$HANDLING
 70
     1
  9
$HANDSEED
  5
574
  9
$SURFTAB1
 70
    12
  9
$SURFTAB2
 70
    12
  9
$SURFTYPE
 70
     6
  9
$SURFU
 70
    12
  9
$SURFV
 70
    12
  9
$UCSNAME
  2

  9
$UCSORG
 10
0.0
 20
0.0
 30
0.0
  9
$UCSXDIR
 10
1.0
 20
0.0
 30
0.0
  9
$UCSYDIR
 10
0.0
 20
1.0
 30
0.0
  9
$PUCSNAME
  2

  9
$PUCSORG
 10
0.0
 20
0.0
 30
0.0
  9
$PUCSXDIR
 10
1.0
 20
0.0
 30
0.0
  9
$PUCSYDIR
 10
0.0
 20
1.0
 30
0.0
  9
$USERI1
 70
     0
  9
$USERI2
 70
     0
  9
$USERI3
 70
     0
  9
$USERI4
 70
     0
  9
$USERI5
 70
     0
  9
$USERR1
 40
0.0
  9
$USERR2
 40
0.0
  9
$USERR3
 40
0.0
  9
$USERR4
 40
0.0
  9
$USERR5
 40
0.0
  9
$WORLDVIEW
 70
     0
  9
$SHADEDGE
 70
     3
  9
$SHADEDIF
 70
    70
  9
$TILEMODE
 70
     1
  9
$MAXACTVP
 70
    16
  9
$PINSBASE
 10
0.0
 20
0.0
 30
0.0
  9
$PLIMCHECK
 70
     0
  9
$PEXTMIN
 10
1.000000E+20
 20
1.000000E+20
 30
1.000000E+20
  9
$PEXTMAX
 10
-1.000000E+20
 20
-1.000000E+20
 30
-1.000000E+20
  9
$PLIMMIN
 10
0.0
 20
0.0
  9
$PLIMMAX
 10
12.0
 20
9.0
  9
$UNITMODE
 70
     0
  9
$VISRETAIN
 70
     0
  9
$PLINEGEN
 70
     0
  9
$PSLTSCALE
 70
     0
  9
$TREEDEPTH
 70
  3020
  9
$PICKSTYLE
 70
     1
  9
$CMLSTYLE
  2
STANDARD
  9
$CMLJUST
 70
     0
  9
$CMLSCALE
 40
1.0
  9
$PROXYGRAPHICS
 70
     1
  9
$MEASUREMENT
 70
     0
  0
ENDSEC
  0
SECTION
  2
CLASSES
  0
CLASS
  1
DICTIONARYVAR
  2
AcDbDictionaryVar
  3
"AutoCAD"
 90
        0
280
     0
281
     0
  0
CLASS
  1
LWPOLYLINE
  2
AcDbPolyline
  3
"AutoCAD"
 90
        0
280
     0
281
     1
  0
CLASS
  1
HATCH
  2
AcDbHatch
  3
"ACAD_SEDONA"
 90
        0
280
     0
281
     1
  0
CLASS
  1
SORTENTSTABLE
  2
AcDbSortentsTable
  3
"AutoCAD"
 90
        0
280
     0
281
     0
  0
CLASS
  1
WIPEOUTVARIABLES
  2
AcDbWipeoutVariables
  3
WIPEOUT
 90
        0
280
     0
281
     0
  0
CLASS
  1
WIPEOUT
  2
AcDbWipeout
  3
WIPEOUT
 90
      127
280
     0
281
     1
  0
ENDSEC
  0
SECTION
  2
TABLES
  0
TABLE
  2
VPORT
  5
14
100
AcDbSymbolTable
 70
     2
  0
VPORT
  5
573
100
AcDbSymbolTableRecord
100
AcDbViewportTableRecord
  2
*ACTIVE
 70
     0
 10
0.0
 20
0.0
 11
1.0
 21
1.0
 12
602.038644
 22
407.720885
 13
0.0
 23
0.0
 14
10.0
 24
10.0
 15
0.0
 25
0.0
 16
0.0
 26
0.0
 36
1.0
 17
16.313321
 27
12.779115
 37
0.222949
 40
841.0
 41
1.470516
 42
50.0
 43
0.0
 44
0.0
 50
0.0
 51
0.0
 71
     0
 72
  2000
 73
     1
 74
     2
 75
     0
 76
     0
 77
     0
 78
     1
  0
ENDTAB
  0
TABLE
  2
LTYPE
  5
F
100
AcDbSymbolTable
 70
     3
  0
LTYPE
  5
10
100
AcDbSymbolTableRecord
100
AcDbLinetypeTableRecord
  2
BYBLOCK
 70
     0
  3

 72
    65
 73
     0
 40
0.0
  0
LTYPE
  5
11
100
AcDbSymbolTableRecord
100
AcDbLinetypeTableRecord
  2
BYLAYER
 70
     0
  3

 72
    65
 73
     0
 40
0.0
  0
LTYPE
  5
7
100
AcDbSymbolTableRecord
100
AcDbLinetypeTableRecord
  2
CONTINUOUS
 70
     0
  3
Solid line
 72
    65
 73
     0
 40
0.0
  0
LTYPE
  5
62
100
AcDbSymbolTableRecord
100
AcDbLinetypeTableRecord
  2
CENTER
 70
     0
  3
Center ____ _ ____ _ ____ _ ____ _ ____ _ ____
 72
    65
 73
     4
 40
2.0
 49
1.25
 74
     0
 49
-0.25
 74
     0
 49
0.25
 74
     0
 49
-0.25
 74
     0
  0
LTYPE
  5
3F
100
AcDbSymbolTableRecord
100
AcDbLinetypeTableRecord
  2
HIDDEN
 70
     0
  3
Hidden __ __ __ __ __ __ __ __ __ __ __ __ __ _
 72
    65
 73
     2
 40
0.375
 49
0.25
 74
     0
 49
-0.125
 74
     0
  0
ENDTAB
  0
TABLE
  2
LAYER
  5
C
100
AcDbSymbolTable
 70
    11
  0
LAYER
  5
6
100
AcDbSymbolTableRecord
100
AcDbLayerTableRecord
  2
0
 70
     0
 62
     7
  6
CONTINUOUS
  0
LAYER
  5
61
100
AcDbSymbolTableRecord
100
AcDbLayerTableRecord
  2
CENTRE
 70
     0
 62
     3
  6
CENTER
  0
LAYER
  5
71
100
AcDbSymbolTableRecord
100
AcDbLayerTableRecord
  2
M01
 70
     0
 62
     1
  6
CONTINUOUS
  0
LAYER
  5
26
100
AcDbSymbolTableRecord
100
AcDbLayerTableRecord
  2
M02
 70
     0
 62
     2
  6
CONTINUOUS
  0
LAYER
  5
64
100
AcDbSymbolTableRecord
100
AcDbLayerTableRecord
  2
M03
 70
     0
 62
     2
  6
HIDDEN
  0
LAYER
  5
30
100
AcDbSymbolTableRecord
100
AcDbLayerTableRecord
  2
M04
 70
     0
 62
     7
  6
CONTINUOUS
  0
LAYER
  5
29
100
AcDbSymbolTableRecord
100
AcDbLayerTableRecord
  2
M05
 70
     0
 62
     5
  6
CONTINUOUS
  0
LAYER
  5
67
100
AcDbSymbolTableRecord
100
AcDbLayerTableRecord
  2
DIMS
 70
     0
 62
     4
  6
CONTINUOUS
  0
LAYER
  5
B9
100
AcDbSymbolTableRecord
100
AcDbLayerTableRecord
  2
TEXT
 70
     0
 62
     2
  6
CONTINUOUS
  0
LAYER
  5
1D
100
AcDbSymbolTableRecord
100
AcDbLayerTableRecord
  2
HATCH
 70
     0
 62
     4
  6
CONTINUOUS
  0
LAYER
  5
C4
100
AcDbSymbolTableRecord
100
AcDbLayerTableRecord
  2
DEFPOINTS
 70
     0
 62
     7
  6
CONTINUOUS
  0
ENDTAB
  0
TABLE
  2
STYLE
  5
D
100
AcDbSymbolTable
 70
     1
  0
STYLE
  5
E
100
AcDbSymbolTableRecord
100
AcDbTextStyleTableRecord
  2
STANDARD
 70
     0
 40
0.0
 41
1.0
 50
0.0
 71
     0
 42
3.0
  3
SIMPLEX
  4

  0
ENDTAB
  0
TABLE
  2
VIEW
  5
12
100
AcDbSymbolTable
 70
     0
  0
ENDTAB
  0
TABLE
  2
UCS
  5
13
100
AcDbSymbolTable
 70
     0
  0
ENDTAB
  0
TABLE
  2
APPID
  5
16
100
AcDbSymbolTable
 70
     1
  0
APPID
  5
17
100
AcDbSymbolTableRecord
100
AcDbRegAppTableRecord
  2
ACAD
 70
     0
  0
ENDTAB
  0
TABLE
  2
DIMSTYLE
  5
18
100
AcDbSymbolTable
 70
     2
  0
DIMSTYLE
105
1F
102
{ACAD_REACTORS
330
474
330
481
330
326
330
31A
330
30E
330
212
330
204
330
1F6
330
1E9
330
1DB
330
E3
330
D6
330
C9
330
BB
102
}
100
AcDbSymbolTableRecord
100
AcDbDimStyleTableRecord
  2
DIM1
 70
     0
  3

  4

  5

  6

  7

 40
1.0
 41
3.0
 42
1.0
 43
10.0
 44
2.5
 45
0.01
 46
1.25
 47
0.05
 48
0.0
140
3.0
141
-1.7
142
0.0
143
0.039
144
0.2
145
1.5
146
0.7
147
1.5
 71
     0
 72
     0
 73
     0
 74
     0
 75
     0
 76
     0
 77
     3
 78
     1
170
     0
171
     2
172
     0
173
     0
174
     0
175
     0
176
     4
177
     4
178
     2
270
     2
271
     2
272
     2
273
     2
274
     2
340
E
275
     0
280
     0
281
     0
282
     0
283
     1
284
     1
285
     1
286
     1
287
     0
288
     0
  0
DIMSTYLE
105
3C5
100
AcDbSymbolTableRecord
100
AcDbDimStyleTableRecord
  2
DIM1$7
 70
     0
  3

  4

  5

  6

  7

 40
1.0
 41
3.0
 42
1.0
 43
10.0
 44
2.5
 45
0.01
 46
1.25
 47
0.0
 48
0.0
140
3.0
141
-1.7
142
0.0
143
0.039
144
1.0
145
0.0
146
1.0
147
1.5
 71
     0
 72
     0
 73
     0
 74
     0
 75
     0
 76
     0
 77
     0
 78
     1
170
     0
171
     2
172
     0
173
     0
174
     0
175
     0
176
     4
177
     4
178
     2
270
     2
271
     2
272
     2
273
     2
274
     2
340
E
275
     0
280
     0
281
     0
282
     0
283
     1
284
     1
285
     1
286
     1
287
     0
288
     0
  0
ENDTAB
  0
TABLE
  2
BLOCK_RECORD
  5
1
100
AcDbSymbolTable
 70
    14
  0
BLOCK_RECORD
  5
2
102
{ACAD_XDICTIONARY
360
3
102
}
100
AcDbSymbolTableRecord
100
AcDbBlockTableRecord
  2
*MODEL_SPACE
  0
BLOCK_RECORD
  5
9
100
AcDbSymbolTableRecord
100
AcDbBlockTableRecord
  2
*PAPER_SPACE
  0
BLOCK_RECORD
  5
475
100
AcDbSymbolTableRecord
100
AcDbBlockTableRecord
  2
*D0
  0
BLOCK_RECORD
  5
482
100
AcDbSymbolTableRecord
100
AcDbBlockTableRecord
  2
*D1
  0
BLOCK_RECORD
  5
327
100
AcDbSymbolTableRecord
100
AcDbBlockTableRecord
  2
*D2
  0
BLOCK_RECORD
  5
31B
100
AcDbSymbolTableRecord
100
AcDbBlockTableRecord
  2
*D3
  0
BLOCK_RECORD
  5
30F
100
AcDbSymbolTableRecord
100
AcDbBlockTableRecord
  2
*D4
  0
BLOCK_RECORD
  5
213
100
AcDbSymbolTableRecord
100
AcDbBlockTableRecord
  2
*D5
  0
BLOCK_RECORD
  5
205
100
AcDbSymbolTableRecord
100
AcDbBlockTableRecord
  2
*D6
  0
BLOCK_RECORD
  5
1F7
100
AcDbSymbolTableRecord
100
AcDbBlockTableRecord
  2
*D7
  0
BLOCK_RECORD
  5
1EA
100
AcDbSymbolTableRecord
100
AcDbBlockTableRecord
  2
*D8
  0
BLOCK_RECORD
  5
1DC
100
AcDbSymbolTableRecord
100
AcDbBlockTableRecord
  2
*D9
  0
BLOCK_RECORD
  5
E4
100
AcDbSymbolTableRecord
100
AcDbBlockTableRecord
  2
*D10
  0
BLOCK_RECORD
  5
D7
100
AcDbSymbolTableRecord
100
AcDbBlockTableRecord
  2
*D11
  0
BLOCK_RECORD
  5
CA
100
AcDbSymbolTableRecord
100
AcDbBlockTableRecord
  2
*D12
  0
BLOCK_RECORD
  5
BC
100
AcDbSymbolTableRecord
100
AcDbBlockTableRecord
  2
*D13
  0
ENDTAB
  0
ENDSEC
  0
SECTION
  2
BLOCKS
  0
BLOCK
  5
5
100
AcDbEntity
  8
0
100
AcDbBlockBegin
  2
*MODEL_SPACE
 70
     0
 10
0.0
 20
0.0
 30
0.0
  3
*MODEL_SPACE
  1

  0
ENDBLK
  5
8
100
AcDbEntity
  8
0
100
AcDbBlockEnd
  0
BLOCK
  5
A
100
AcDbEntity
 67
     1
  8
0
100
AcDbBlockBegin
  2
*PAPER_SPACE
 70
     0
 10
0.0
 20
0.0
 30
0.0
  3
*PAPER_SPACE
  1

  0
ENDBLK
  5
B
100
AcDbEntity
 67
     1
  8
0
100
AcDbBlockEnd
  0
BLOCK
  5
47F
100
AcDbEntity
  8
0
100
AcDbBlockBegin
  2
*D0
 70
     1
 10
0.0
 20
0.0
 30
0.0
  3
*D0
  1

  0
LINE
  5
476
100
AcDbEntity
  8
0
  6
BYBLOCK
 62
     4
100
AcDbLine
 10
556.765534
 20
400.559226
 30
0.0
 11
600.022489
 21
400.559226
 31
0.0
  0
LINE
  5
477
100
AcDbEntity
  8
0
  6
BYBLOCK
 62
     4
100
AcDbLine
 10
556.765534
 20
464.559226
 30
0.0
 11
600.022489
 21
464.559226
 31
0.0
  0
LINE
  5
478
100
AcDbEntity
  8
0
  6
BYBLOCK
 62
     4
100
AcDbLine
 10
597.522489
 20
403.559226
 30
0.0
 11
597.522489
 21
461.559226
 31
0.0
  0
SOLID
  5
479
100
AcDbEntity
  8
0
  6
BYBLOCK
 62
     4
100
AcDbTrace
 10
597.022489
 20
403.559226
 30
0.0
 11
598.022489
 21
403.559226
 31
0.0
 12
597.522489
 22
400.559226
 32
0.0
 13
597.522489
 23
400.559226
 33
0.0
  0
SOLID
  5
47A
100
AcDbEntity
  8
0
  6
BYBLOCK
 62
     4
100
AcDbTrace
 10
597.022489
 20
461.559226
 30
0.0
 11
598.022489
 21
461.559226
 31
0.0
 12
597.522489
 22
464.559226
 32
0.0
 13
597.522489
 23
464.559226
 33
0.0
  0
MTEXT
  5
47B
100
AcDbEntity
  8
0
  6
BYBLOCK
 62
     2
100
AcDbMText
 10
594.522489
 20
432.559226
 30
0.0
 40
3.0
 41
0.0
 71
     5
 72
     1
  1
\A1;W=64.00
 11
0.0
 21
1.0
 31
0.0
  0
POINT
  5
47C
100
AcDbEntity
  8
DEFPOINTS
  6
BYBLOCK
 62
     0
100
AcDbPoint
 10
555.765534
 20
400.559226
 30
0.0
  0
POINT
  5
47D
100
AcDbEntity
  8
DEFPOINTS
  6
BYBLOCK
 62
     0
100
AcDbPoint
 10
555.765534
 20
464.559226
 30
0.0
  0
POINT
  5
47E
100
AcDbEntity
  8
DEFPOINTS
  6
BYBLOCK
 62
     0
100
AcDbPoint
 10
597.522489
 20
464.559226
 30
0.0
  0
ENDBLK
  5
480
100
AcDbEntity
  8
0
100
AcDbBlockEnd
  0
BLOCK
  5
48C
100
AcDbEntity
  8
0
100
AcDbBlockBegin
  2
*D1
 70
     1
 10
0.0
 20
0.0
 30
0.0
  3
*D1
  1

  0
LINE
  5
483
100
AcDbEntity
  8
0
  6
BYBLOCK
 62
     4
100
AcDbLine
 10
128.765534
 20
411.559226
 30
0.0
 11
128.765534
 21
337.696619
 31
0.0
  0
LINE
  5
484
100
AcDbEntity
  8
0
  6
BYBLOCK
 62
     4
100
AcDbLine
 10
717.765534
 20
411.559226
 30
0.0
 11
717.765534
 21
337.696619
 31
0.0
  0
LINE
  5
485
100
AcDbEntity
  8
0
  6
BYBLOCK
 62
     4
100
AcDbLine
 10
131.765534
 20
340.196619
 30
0.0
 11
714.765534
 21
340.196619
 31
0.0
  0
SOLID
  5
486
100
AcDbEntity
  8
0
  6
BYBLOCK
 62
     4
100
AcDbTrace
 10
131.765534
 20
340.696619
 30
0.0
 11
131.765534
 21
339.696619
 31
0.0
 12
128.765534
 22
340.196619
 32
0.0
 13
128.765534
 23
340.196619
 33
0.0
  0
SOLID
  5
487
100
AcDbEntity
  8
0
  6
BYBLOCK
 62
     4
100
AcDbTrace
 10
714.765534
 20
340.696619
 30
0.0
 11
714.765534
 21
339.696619
 31
0.0
 12
717.765534
 22
340.196619
 32
0.0
 13
717.765534
 23
340.196619
 33
0.0
  0
MTEXT
  5
488
100
AcDbEntity
  8
0
  6
BYBLOCK
 62
     2
100
AcDbMText
 10
423.265534
 20
343.196619
 30
0.0
 40
3.0
 41
0.0
 71
     5
 72
     1
  1
\A1;L=589.00
  0
POINT
  5
489
100
AcDbEntity
  8
DEFPOINTS
  6
BYBLOCK
 62
     0
100
AcDbPoint
 10
128.765534
 20
412.559226
 30
0.0
  0
POINT
  5
48A
100
AcDbEntity
  8
DEFPOINTS
  6
BYBLOCK
 62
     0
100
AcDbPoint
 10
717.765534
 20
412.559226
 30
0.0
  0
POINT
  5
48B
100
AcDbEntity
  8
DEFPOINTS
  6
BYBLOCK
 62
     0
100
AcDbPoint
 10
717.765534
 20
340.196619
 30
0.0
  0
ENDBLK
  5
48D
100
AcDbEntity
  8
0
100
AcDbBlockEnd
  0
BLOCK
  5
331
100
AcDbEntity
  8
0
100
AcDbBlockBegin
  2
*D2
 70
     1
 10
0.0
 20
0.0
 30
0.0
  3
*D2
  1

  0
LINE
  5
328
100
AcDbEntity
  8
0
  6
BYBLOCK
 62
     4
100
AcDbLine
 10
160.765534
 20
414.859226
 30
0.0
 11
160.765534
 21
347.764883
 31
0.0
  0
LINE
  5
329
100
AcDbEntity
  8
0
  6
BYBLOCK
 62
     4
100
AcDbLine
 10
335.765534
 20
414.859226
 30
0.0
 11
335.765534
 21
347.764883
 31
0.0
  0
LINE
  5
32A
100
AcDbEntity
  8
0
  6
BYBLOCK
 62
     4
100
AcDbLine
 10
163.765534
 20
350.264883
 30
0.0
 11
332.765534
 21
350.264883
 31
0.0
  0
SOLID
  5
32B
100
AcDbEntity
  8
0
  6
BYBLOCK
 62
     4
100
AcDbTrace
 10
163.765534
 20
350.764883
 30
0.0
 11
163.765534
 21
349.764883
 31
0.0
 12
160.765534
 22
350.264883
 32
0.0
 13
160.765534
 23
350.264883
 33
0.0
  0
SOLID
  5
32C
100
AcDbEntity
  8
0
  6
BYBLOCK
 62
     4
100
AcDbTrace
 10
332.765534
 20
350.764883
 30
0.0
 11
332.765534
 21
349.764883
 31
0.0
 12
335.765534
 22
350.264883
 32
0.0
 13
335.765534
 23
350.264883
 33
0.0
  0
MTEXT
  5
32D
100
AcDbEntity
  8
0
  6
BYBLOCK
 62
     2
100
AcDbMText
 10
248.265534
 20
353.264883
 30
0.0
 40
3.0
 41
0.0
 71
     5
 72
     1
  1
\A1;A=175.00
  0
POINT
  5
32E
100
AcDbEntity
  8
DEFPOINTS
  6
BYBLOCK
 62
     0
100
AcDbPoint
 10
160.765534
 20
415.859226
 30
0.0
  0
POINT
  5
32F
100
AcDbEntity
  8
DEFPOINTS
  6
BYBLOCK
 62
     0
100
AcDbPoint
 10
335.765534
 20
415.859226
 30
0.0
  0
POINT
  5
330
100
AcDbEntity
  8
DEFPOINTS
  6
BYBLOCK
 62
     0
100
AcDbPoint
 10
335.765534
 20
350.264883
 30
0.0
  0
ENDBLK
  5
332
100
AcDbEntity
  8
0
100
AcDbBlockEnd
  0
BLOCK
  5
324
100
AcDbEntity
  8
0
100
AcDbBlockBegin
  2
*D3
 70
     1
 10
0.0
 20
0.0
 30
0.0
  3
*D3
  1

  0
LINE
  5
31C
100
AcDbEntity
  8
0
  6
BYBLOCK
 62
     4
100
AcDbLine
 10
510.765534
 20
414.859226
 30
0.0
 11
510.765534
 21
347.764883
 31
0.0
  0
LINE
  5
31D
100
AcDbEntity
  8
0
  6
BYBLOCK
 62
     4
100
AcDbLine
 10
338.765534
 20
350.264883
 30
0.0
 11
507.765534
 21
350.264883
 31
0.0
  0
SOLID
  5
31E
100
AcDbEntity
  8
0
  6
BYBLOCK
 62
     4
100
AcDbTrace
 10
338.765534
 20
350.764883
 30
0.0
 11
338.765534
 21
349.764883
 31
0.0
 12
335.765534
 22
350.264883
 32
0.0
 13
335.765534
 23
350.264883
 33
0.0
  0
SOLID
  5
31F
100
AcDbEntity
  8
0
  6
BYBLOCK
 62
     4
100
AcDbTrace
 10
507.765534
 20
350.764883
 30
0.0
 11
507.765534
 21
349.764883
 31
0.0
 12
510.765534
 22
350.264883
 32
0.0
 13
510.765534
 23
350.264883
 33
0.0
  0
MTEXT
  5
320
100
AcDbEntity
  8
0
  6
BYBLOCK
 62
     2
100
AcDbMText
 10
423.265534
 20
353.264883
 30
0.0
 40
3.0
 41
0.0
 71
     5
 72
     1
  1
\A1;B=175.00
  0
POINT
  5
321
100
AcDbEntity
  8
DEFPOINTS
  6
BYBLOCK
 62
     0
100
AcDbPoint
 10
335.765534
 20
415.859226
 30
0.0
  0
POINT
  5
322
100
AcDbEntity
  8
DEFPOINTS
  6
BYBLOCK
 62
     0
100
AcDbPoint
 10
510.765534
 20
415.859226
 30
0.0
  0
POINT
  5
323
100
AcDbEntity
  8
DEFPOINTS
  6
BYBLOCK
 62
     0
100
AcDbPoint
 10
510.765534
 20
350.264883
 30
0.0
  0
ENDBLK
  5
325
100
AcDbEntity
  8
0
100
AcDbBlockEnd
  0
BLOCK
  5
318
100
AcDbEntity
  8
0
100
AcDbBlockBegin
  2
*D4
 70
     1
 10
0.0
 20
0.0
 30
0.0
  3
*D4
  1

  0
LINE
  5
310
100
AcDbEntity
  8
0
  6
BYBLOCK
 62
     4
100
AcDbLine
 10
685.765534
 20
414.859226
 30
0.0
 11
685.765534
 21
347.764883
 31
0.0
  0
LINE
  5
311
100
AcDbEntity
  8
0
  6
BYBLOCK
 62
     4
100
AcDbLine
 10
513.765534
 20
350.264883
 30
0.0
 11
682.765534
 21
350.264883
 31
0.0
  0
SOLID
  5
312
100
AcDbEntity
  8
0
  6
BYBLOCK
 62
     4
100
AcDbTrace
 10
513.765534
 20
350.764883
 30
0.0
 11
513.765534
 21
349.764883
 31
0.0
 12
510.765534
 22
350.264883
 32
0.0
 13
510.765534
 23
350.264883
 33
0.0
  0
SOLID
  5
313
100
AcDbEntity
  8
0
  6
BYBLOCK
 62
     4
100
AcDbTrace
 10
682.765534
 20
350.764883
 30
0.0
 11
682.765534
 21
349.764883
 31
0.0
 12
685.765534
 22
350.264883
 32
0.0
 13
685.765534
 23
350.264883
 33
0.0
  0
MTEXT
  5
314
100
AcDbEntity
  8
0
  6
BYBLOCK
 62
     2
100
AcDbMText
 10
598.265534
 20
353.264883
 30
0.0
 40
3.0
 41
0.0
 71
     5
 72
     1
  1
\A1;A=175.00
  0
POINT
  5
315
100
AcDbEntity
  8
DEFPOINTS
  6
BYBLOCK
 62
     0
100
AcDbPoint
 10
510.765534
 20
415.859226
 30
0.0
  0
POINT
  5
316
100
AcDbEntity
  8
DEFPOINTS
  6
BYBLOCK
 62
     0
100
AcDbPoint
 10
685.765534
 20
415.859226
 30
0.0
  0
POINT
  5
317
100
AcDbEntity
  8
DEFPOINTS
  6
BYBLOCK
 62
     0
100
AcDbPoint
 10
685.765534
 20
350.264883
 30
0.0
  0
ENDBLK
  5
319
100
AcDbEntity
  8
0
100
AcDbBlockEnd
  0
BLOCK
  5
21D
100
AcDbEntity
  8
0
100
AcDbBlockBegin
  2
*D5
 70
     1
 10
0.0
 20
0.0
 30
0.0
  3
*D5
  1

  0
LINE
  5
214
100
AcDbEntity
  8
0
  6
BYBLOCK
 62
     4
100
AcDbLine
 10
673.211979
 20
401.559226
 30
0.0
 11
673.211979
 21
359.779548
 31
0.0
  0
LINE
  5
215
100
AcDbEntity
  8
0
  6
BYBLOCK
 62
     4
100
AcDbLine
 10
733.211979
 20
399.559226
 30
0.0
 11
733.211979
 21
359.779548
 31
0.0
  0
LINE
  5
216
100
AcDbEntity
  8
0
  6
BYBLOCK
 62
     4
100
AcDbLine
 10
676.211979
 20
362.279548
 30
0.0
 11
730.211979
 21
362.279548
 31
0.0
  0
SOLID
  5
217
100
AcDbEntity
  8
0
  6
BYBLOCK
 62
     4
100
AcDbTrace
 10
676.211979
 20
362.779548
 30
0.0
 11
676.211979
 21
361.779548
 31
0.0
 12
673.211979
 22
362.279548
 32
0.0
 13
673.211979
 23
362.279548
 33
0.0
  0
SOLID
  5
218
100
AcDbEntity
  8
0
  6
BYBLOCK
 62
     4
100
AcDbTrace
 10
730.211979
 20
362.779548
 30
0.0
 11
730.211979
 21
361.779548
 31
0.0
 12
733.211979
 22
362.279548
 32
0.0
 13
733.211979
 23
362.279548
 33
0.0
  0
MTEXT
  5
219
100
AcDbEntity
  8
0
  6
BYBLOCK
 62
     2
100
AcDbMText
 10
703.211979
 20
365.279548
 30
0.0
 40
3.0
 41
0.0
 71
     5
 72
     1
  1
\A1;60.00
  0
POINT
  5
21A
100
AcDbEntity
  8
DEFPOINTS
  6
BYBLOCK
 62
     0
100
AcDbPoint
 10
673.211979
 20
402.559226
 30
0.0
  0
POINT
  5
21B
100
AcDbEntity
  8
DEFPOINTS
  6
BYBLOCK
 62
     0
100
AcDbPoint
 10
733.211979
 20
400.559226
 30
0.0
  0
POINT
  5
21C
100
AcDbEntity
  8
DEFPOINTS
  6
BYBLOCK
 62
     0
100
AcDbPoint
 10
733.211979
 20
362.279548
 30
0.0
  0
ENDBLK
  5
21E
100
AcDbEntity
  8
0
100
AcDbBlockEnd
  0
BLOCK
  5
210
100
AcDbEntity
  8
0
100
AcDbBlockBegin
  2
*D6
 70
     1
 10
0.0
 20
0.0
 30
0.0
  3
*D6
  1

  0
LINE
  5
206
100
AcDbEntity
  8
0
  6
BYBLOCK
 62
     4
100
AcDbLine
 10
431.011594
 20
706.807358
 30
0.0
 11
431.011594
 21
667.02768
 31
0.0
  0
LINE
  5
207
100
AcDbEntity
  8
0
  6
BYBLOCK
 62
     4
100
AcDbLine
 10
438.011594
 20
688.293967
 30
0.0
 11
438.011594
 21
667.02768
 31
0.0
  0
LINE
  5
208
100
AcDbEntity
  8
0
  6
BYBLOCK
 62
     4
100
AcDbLine
 10
428.011594
 20
669.52768
 30
0.0
 11
425.011594
 21
669.52768
 31
0.0
  0
LINE
  5
209
100
AcDbEntity
  8
0
  6
BYBLOCK
 62
     4
100
AcDbLine
 10
441.011594
 20
669.52768
 30
0.0
 11
453.297308
 21
669.52768
 31
0.0
  0
SOLID
  5
20A
100
AcDbEntity
  8
0
  6
BYBLOCK
 62
     4
100
AcDbTrace
 10
428.011594
 20
670.02768
 30
0.0
 11
428.011594
 21
669.02768
 31
0.0
 12
431.011594
 22
669.52768
 32
0.0
 13
431.011594
 23
669.52768
 33
0.0
  0
SOLID
  5
20B
100
AcDbEntity
  8
0
  6
BYBLOCK
 62
     4
100
AcDbTrace
 10
441.011594
 20
670.02768
 30
0.0
 11
441.011594
 21
669.02768
 31
0.0
 12
438.011594
 22
669.52768
 32
0.0
 13
438.011594
 23
669.52768
 33
0.0
  0
MTEXT
  5
20C
100
AcDbEntity
  8
0
  6
BYBLOCK
 62
     2
100
AcDbMText
 10
448.654451
 20
672.52768
 30
0.0
 40
3.0
 41
0.0
 71
     5
 72
     1
  1
\A1;7.0
  0
POINT
  5
20D
100
AcDbEntity
  8
DEFPOINTS
  6
BYBLOCK
 62
     0
100
AcDbPoint
 10
431.011594
 20
707.807358
 30
0.0
  0
POINT
  5
20E
100
AcDbEntity
  8
DEFPOINTS
  6
BYBLOCK
 62
     0
100
AcDbPoint
 10
438.011594
 20
689.293967
 30
0.0
  0
POINT
  5
20F
100
AcDbEntity
  8
DEFPOINTS
  6
BYBLOCK
 62
     0
100
AcDbPoint
 10
438.011594
 20
669.52768
 30
0.0
  0
ENDBLK
  5
211
100
AcDbEntity
  8
0
100
AcDbBlockEnd
  0
BLOCK
  5
202
100
AcDbEntity
  8
0
100
AcDbBlockBegin
  2
*D7
 70
     1
 10
0.0
 20
0.0
 30
0.0
  3
*D7
  1

  0
LINE
  5
1F8
100
AcDbEntity
  8
0
  6
BYBLOCK
 62
     4
100
AcDbLine
 10
384.011594
 20
708.807358
 30
0.0
 11
384.011594
 21
667.02768
 31
0.0
  0
LINE
  5
1F9
100
AcDbEntity
  8
0
  6
BYBLOCK
 62
     4
100
AcDbLine
 10
377.011594
 20
699.807358
 30
0.0
 11
377.011594
 21
667.02768
 31
0.0
  0
LINE
  5
1FA
100
AcDbEntity
  8
0
  6
BYBLOCK
 62
     4
100
AcDbLine
 10
387.011594
 20
669.52768
 30
0.0
 11
390.011594
 21
669.52768
 31
0.0
  0
LINE
  5
1FB
100
AcDbEntity
  8
0
  6
BYBLOCK
 62
     4
100
AcDbLine
 10
374.011594
 20
669.52768
 30
0.0
 11
361.72588
 21
669.52768
 31
0.0
  0
SOLID
  5
1FC
100
AcDbEntity
  8
0
  6
BYBLOCK
 62
     4
100
AcDbTrace
 10
387.011594
 20
670.02768
 30
0.0
 11
387.011594
 21
669.02768
 31
0.0
 12
384.011594
 22
669.52768
 32
0.0
 13
384.011594
 23
669.52768
 33
0.0
  0
SOLID
  5
1FD
100
AcDbEntity
  8
0
  6
BYBLOCK
 62
     4
100
AcDbTrace
 10
374.011594
 20
670.02768
 30
0.0
 11
374.011594
 21
669.02768
 31
0.0
 12
377.011594
 22
669.52768
 32
0.0
 13
377.011594
 23
669.52768
 33
0.0
  0
MTEXT
  5
1FE
100
AcDbEntity
  8
0
  6
BYBLOCK
 62
     2
100
AcDbMText
 10
366.368737
 20
672.52768
 30
0.0
 40
3.0
 41
0.0
 71
     5
 72
     1
  1
\A1;7.0
  0
POINT
  5
1FF
100
AcDbEntity
  8
DEFPOINTS
  6
BYBLOCK
 62
     0
100
AcDbPoint
 10
384.011594
 20
709.807358
 30
0.0
  0
POINT
  5
200
100
AcDbEntity
  8
DEFPOINTS
  6
BYBLOCK
 62
     0
100
AcDbPoint
 10
377.011594
 20
700.807358
 30
0.0
  0
POINT
  5
201
100
AcDbEntity
  8
DEFPOINTS
  6
BYBLOCK
 62
     0
100
AcDbPoint
 10
377.011594
 20
669.52768
 30
0.0
  0
ENDBLK
  5
203
100
AcDbEntity
  8
0
100
AcDbBlockEnd
  0
BLOCK
  5
1F4
100
AcDbEntity
  8
0
100
AcDbBlockBegin
  2
*D8
 70
     1
 10
0.0
 20
0.0
 30
0.0
  3
*D8
  1

  0
LINE
  5
1EB
100
AcDbEntity
  8
0
  6
BYBLOCK
 62
     4
100
AcDbLine
 10
447.011594
 20
719.807358
 30
0.0
 11
484.826711
 21
719.807358
 31
0.0
  0
LINE
  5
1EC
100
AcDbEntity
  8
0
  6
BYBLOCK
 62
     4
100
AcDbLine
 10
447.011594
 20
759.807358
 30
0.0
 11
484.826711
 21
759.807358
 31
0.0
  0
LINE
  5
1ED
100
AcDbEntity
  8
0
  6
BYBLOCK
 62
     4
100
AcDbLine
 10
482.326711
 20
722.807358
 30
0.0
 11
482.326711
 21
756.807358
 31
0.0
  0
SOLID
  5
1EE
100
AcDbEntity
  8
0
  6
BYBLOCK
 62
     4
100
AcDbTrace
 10
481.826711
 20
722.807358
 30
0.0
 11
482.826711
 21
722.807358
 31
0.0
 12
482.326711
 22
719.807358
 32
0.0
 13
482.326711
 23
719.807358
 33
0.0
  0
SOLID
  5
1EF
100
AcDbEntity
  8
0
  6
BYBLOCK
 62
     4
100
AcDbTrace
 10
481.826711
 20
756.807358
 30
0.0
 11
482.826711
 21
756.807358
 31
0.0
 12
482.326711
 22
759.807358
 32
0.0
 13
482.326711
 23
759.807358
 33
0.0
  0
MTEXT
  5
1F0
100
AcDbEntity
  8
0
  6
BYBLOCK
 62
     2
100
AcDbMText
 10
479.326711
 20
739.807358
 30
0.0
 40
3.0
 41
0.0
 71
     5
 72
     1
  1
\A1;\U+220540.00 H7
 11
0.0
 21
1.0
 31
0.0
  0
POINT
  5
1F1
100
AcDbEntity
  8
DEFPOINTS
  6
BYBLOCK
 62
     0
100
AcDbPoint
 10
446.011594
 20
719.807358
 30
0.0
  0
POINT
  5
1F2
100
AcDbEntity
  8
DEFPOINTS
  6
BYBLOCK
 62
     0
100
AcDbPoint
 10
446.011594
 20
759.807358
 30
0.0
  0
POINT
  5
1F3
100
AcDbEntity
  8
DEFPOINTS
  6
BYBLOCK
 62
     0
100
AcDbPoint
 10
482.326711
 20
759.807358
 30
0.0
  0
ENDBLK
  5
1F5
100
AcDbEntity
  8
0
100
AcDbBlockEnd
  0
BLOCK
  5
1E7
100
AcDbEntity
  8
0
100
AcDbBlockBegin
  2
*D9
 70
     1
 10
0.0
 20
0.0
 30
0.0
  3
*D9
  1

  0
LINE
  5
1DD
100
AcDbEntity
  8
0
  6
BYBLOCK
 62
     4
100
AcDbLine
 10
779.148382
 20
507.059226
 30
0.0
 11
758.576487
 21
507.059226
 31
0.0
  0
LINE
  5
1DE
100
AcDbEntity
  8
0
  6
BYBLOCK
 62
     4
100
AcDbLine
 10
779.148382
 20
499.059226
 30
0.0
 11
758.576487
 21
499.059226
 31
0.0
  0
LINE
  5
1DF
100
AcDbEntity
  8
0
  6
BYBLOCK
 62
     4
100
AcDbLine
 10
761.076487
 20
510.059226
 30
0.0
 11
761.076487
 21
513.059226
 31
0.0
  0
LINE
  5
1E0
100
AcDbEntity
  8
0
  6
BYBLOCK
 62
     4
100
AcDbLine
 10
761.076487
 20
496.059226
 30
0.0
 11
761.076487
 21
469.487798
 31
0.0
  0
SOLID
  5
1E1
100
AcDbEntity
  8
0
  6
BYBLOCK
 62
     4
100
AcDbTrace
 10
760.576487
 20
510.059226
 30
0.0
 11
761.576487
 21
510.059226
 31
0.0
 12
761.076487
 22
507.059226
 32
0.0
 13
761.076487
 23
507.059226
 33
0.0
  0
SOLID
  5
1E2
100
AcDbEntity
  8
0
  6
BYBLOCK
 62
     4
100
AcDbTrace
 10
760.576487
 20
496.059226
 30
0.0
 11
761.576487
 21
496.059226
 31
0.0
 12
761.076487
 22
499.059226
 32
0.0
 13
761.076487
 23
499.059226
 33
0.0
  0
MTEXT
  5
1E3
100
AcDbEntity
  8
0
  6
BYBLOCK
 62
     2
100
AcDbMText
 10
758.076487
 20
481.273512
 30
0.0
 40
3.0
 41
0.0
 71
     5
 72
     1
  1
\A1;\U+22058.00 H7
 11
0.0
 21
1.0
 31
0.0
  0
POINT
  5
1E4
100
AcDbEntity
  8
DEFPOINTS
  6
BYBLOCK
 62
     0
100
AcDbPoint
 10
780.148382
 20
507.059226
 30
0.0
  0
POINT
  5
1E5
100
AcDbEntity
  8
DEFPOINTS
  6
BYBLOCK
 62
     0
100
AcDbPoint
 10
780.148382
 20
499.059226
 30
0.0
  0
POINT
  5
1E6
100
AcDbEntity
  8
DEFPOINTS
  6
BYBLOCK
 62
     0
100
AcDbPoint
 10
761.076487
 20
499.059226
 30
0.0
  0
ENDBLK
  5
1E8
100
AcDbEntity
  8
0
100
AcDbBlockEnd
  0
BLOCK
  5
EE
100
AcDbEntity
  8
0
100
AcDbBlockBegin
  2
*D10
 70
     1
 10
0.0
 20
0.0
 30
0.0
  3
*D10
  1

  0
LINE
  5
E5
100
AcDbEntity
  8
0
  6
BYBLOCK
 62
     4
100
AcDbLine
 10
793.148382
 20
392.559226
 30
0.0
 11
793.148382
 21
378.62743
 31
0.0
  0
LINE
  5
E6
100
AcDbEntity
  8
0
  6
BYBLOCK
 62
     4
100
AcDbLine
 10
779.748382
 20
409.334226
 30
0.0
 11
779.748382
 21
378.62743
 31
0.0
  0
LINE
  5
E7
100
AcDbEntity
  8
0
  6
BYBLOCK
 62
     4
100
AcDbLine
 10
790.148382
 20
381.12743
 30
0.0
 11
782.748382
 21
381.12743
 31
0.0
  0
SOLID
  5
E8
100
AcDbEntity
  8
0
  6
BYBLOCK
 62
     4
100
AcDbTrace
 10
790.148382
 20
381.62743
 30
0.0
 11
790.148382
 21
380.62743
 31
0.0
 12
793.148382
 22
381.12743
 32
0.0
 13
793.148382
 23
381.12743
 33
0.0
  0
SOLID
  5
E9
100
AcDbEntity
  8
0
  6
BYBLOCK
 62
     4
100
AcDbTrace
 10
782.748382
 20
381.62743
 30
0.0
 11
782.748382
 21
380.62743
 31
0.0
 12
779.748382
 22
381.12743
 32
0.0
 13
779.748382
 23
381.12743
 33
0.0
  0
MTEXT
  5
EA
100
AcDbEntity
  8
0
  6
BYBLOCK
 62
     2
100
AcDbMText
 10
786.448382
 20
384.12743
 30
0.0
 40
3.0
 41
0.0
 71
     5
 72
     1
  1
\A1;13.4
  0
POINT
  5
EB
100
AcDbEntity
  8
DEFPOINTS
  6
BYBLOCK
 62
     0
100
AcDbPoint
 10
793.148382
 20
393.559226
 30
0.0
  0
POINT
  5
EC
100
AcDbEntity
  8
DEFPOINTS
  6
BYBLOCK
 62
     0
100
AcDbPoint
 10
779.748382
 20
410.334226
 30
0.0
  0
POINT
  5
ED
100
AcDbEntity
  8
DEFPOINTS
  6
BYBLOCK
 62
     0
100
AcDbPoint
 10
779.748382
 20
381.12743
 30
0.0
  0
ENDBLK
  5
EF
100
AcDbEntity
  8
0
100
AcDbBlockEnd
  0
BLOCK
  5
E1
100
AcDbEntity
  8
0
100
AcDbBlockBegin
  2
*D11
 70
     1
 10
0.0
 20
0.0
 30
0.0
  3
*D11
  1

  0
LINE
  5
D8
100
AcDbEntity
  8
0
  6
BYBLOCK
 62
     4
100
AcDbLine
 10
773.748382
 20
454.784226
 30
0.0
 11
754.894776
 21
454.784226
 31
0.0
  0
LINE
  5
D9
100
AcDbEntity
  8
0
  6
BYBLOCK
 62
     4
100
AcDbLine
 10
773.748382
 20
410.334226
 30
0.0
 11
754.894776
 21
410.334226
 31
0.0
  0
LINE
  5
DA
100
AcDbEntity
  8
0
  6
BYBLOCK
 62
     4
100
AcDbLine
 10
757.394776
 20
451.784226
 30
0.0
 11
757.394776
 21
413.334226
 31
0.0
  0
SOLID
  5
DB
100
AcDbEntity
  8
0
  6
BYBLOCK
 62
     4
100
AcDbTrace
 10
756.894776
 20
451.784226
 30
0.0
 11
757.894776
 21
451.784226
 31
0.0
 12
757.394776
 22
454.784226
 32
0.0
 13
757.394776
 23
454.784226
 33
0.0
  0
SOLID
  5
DC
100
AcDbEntity
  8
0
  6
BYBLOCK
 62
     4
100
AcDbTrace
 10
756.894776
 20
413.334226
 30
0.0
 11
757.894776
 21
413.334226
 31
0.0
 12
757.394776
 22
410.334226
 32
0.0
 13
757.394776
 23
410.334226
 33
0.0
  0
MTEXT
  5
DD
100
AcDbEntity
  8
0
  6
BYBLOCK
 62
     2
100
AcDbMText
 10
754.394776
 20
433.524437
 30
0.0
 40
3.0
 41
0.0
 71
     5
 72
     1
  1
\A1;\U+220544.45 H7
 11
0.0
 21
1.0
 31
0.0
  0
POINT
  5
DE
100
AcDbEntity
  8
DEFPOINTS
  6
BYBLOCK
 62
     0
100
AcDbPoint
 10
774.748382
 20
454.784226
 30
0.0
  0
POINT
  5
DF
100
AcDbEntity
  8
DEFPOINTS
  6
BYBLOCK
 62
     0
100
AcDbPoint
 10
774.748382
 20
410.334226
 30
0.0
  0
POINT
  5
E0
100
AcDbEntity
  8
DEFPOINTS
  6
BYBLOCK
 62
     0
100
AcDbPoint
 10
757.394776
 20
410.334226
 30
0.0
  0
ENDBLK
  5
E2
100
AcDbEntity
  8
0
100
AcDbBlockEnd
  0
BLOCK
  5
D4
100
AcDbEntity
  8
0
100
AcDbBlockBegin
  2
*D12
 70
     1
 10
0.0
 20
0.0
 30
0.0
  3
*D12
  1

  0
LINE
  5
CB
100
AcDbEntity
  8
0
  6
BYBLOCK
 62
     4
100
AcDbLine
 10
779.325732
 20
409.334226
 30
0.0
 11
744.853545
 21
409.334226
 31
0.0
  0
LINE
  5
CC
100
AcDbEntity
  8
0
  6
BYBLOCK
 62
     4
100
AcDbLine
 10
779.325732
 20
455.784226
 30
0.0
 11
744.853545
 21
455.784226
 31
0.0
  0
LINE
  5
CD
100
AcDbEntity
  8
0
  6
BYBLOCK
 62
     4
100
AcDbLine
 10
747.353545
 20
412.334226
 30
0.0
 11
747.353545
 21
452.784226
 31
0.0
  0
SOLID
  5
CE
100
AcDbEntity
  8
0
  6
BYBLOCK
 62
     4
100
AcDbTrace
 10
746.853545
 20
412.334226
 30
0.0
 11
747.853545
 21
412.334226
 31
0.0
 12
747.353545
 22
409.334226
 32
0.0
 13
747.353545
 23
409.334226
 33
0.0
  0
SOLID
  5
CF
100
AcDbEntity
  8
0
  6
BYBLOCK
 62
     4
100
AcDbTrace
 10
746.853545
 20
452.784226
 30
0.0
 11
747.853545
 21
452.784226
 31
0.0
 12
747.353545
 22
455.784226
 32
0.0
 13
747.353545
 23
455.784226
 33
0.0
  0
MTEXT
  5
D0
100
AcDbEntity
  8
0
  6
BYBLOCK
 62
     2
100
AcDbMText
 10
744.353545
 20
433.864678
 30
0.0
 40
3.0
 41
0.0
 71
     5
 72
     1
  1
\A1;\U+220546.5
 11
0.0
 21
1.0
 31
0.0
  0
POINT
  5
D1
100
AcDbEntity
  8
DEFPOINTS
  6
BYBLOCK
 62
     0
100
AcDbPoint
 10
780.325732
 20
409.334226
 30
0.0
  0
POINT
  5
D2
100
AcDbEntity
  8
DEFPOINTS
  6
BYBLOCK
 62
     0
100
AcDbPoint
 10
780.325732
 20
455.784226
 30
0.0
  0
POINT
  5
D3
100
AcDbEntity
  8
DEFPOINTS
  6
BYBLOCK
 62
     0
100
AcDbPoint
 10
747.353545
 20
455.784226
 30
0.0
  0
ENDBLK
  5
D5
100
AcDbEntity
  8
0
100
AcDbBlockEnd
  0
BLOCK
  5
C7
100
AcDbEntity
  8
0
100
AcDbBlockBegin
  2
*D13
 70
     1
 10
0.0
 20
0.0
 30
0.0
  3
*D13
  1

  0
LINE
  5
BD
100
AcDbEntity
  8
0
  6
BYBLOCK
 62
     4
100
AcDbLine
 10
844.194512
 20
860.506172
 30
0.0
 11
844.194512
 21
876.322217
 31
0.0
  0
LINE
  5
BE
100
AcDbEntity
  8
0
  6
BYBLOCK
 62
     4
100
AcDbLine
 10
818.794512
 20
859.506172
 30
0.0
 11
818.794512
 21
876.322217
 31
0.0
  0
LINE
  5
BF
100
AcDbEntity
  8
0
  6
BYBLOCK
 62
     4
100
AcDbLine
 10
841.194512
 20
873.822217
 30
0.0
 11
821.794512
 21
873.822217
 31
0.0
  0
SOLID
  5
C0
100
AcDbEntity
  8
0
  6
BYBLOCK
 62
     4
100
AcDbTrace
 10
841.194512
 20
874.322217
 30
0.0
 11
841.194512
 21
873.322217
 31
0.0
 12
844.194512
 22
873.822217
 32
0.0
 13
844.194512
 23
873.822217
 33
0.0
  0
SOLID
  5
C1
100
AcDbEntity
  8
0
  6
BYBLOCK
 62
     4
100
AcDbTrace
 10
821.794512
 20
874.322217
 30
0.0
 11
821.794512
 21
873.322217
 31
0.0
 12
818.794512
 22
873.822217
 32
0.0
 13
818.794512
 23
873.822217
 33
0.0
  0
MTEXT
  5
C2
100
AcDbEntity
  8
0
  6
BYBLOCK
 62
     2
100
AcDbMText
 10
829.493096
 20
876.822217
 30
0.0
 40
3.0
 41
0.0
 71
     5
 72
     1
  1
\A1;25.40
  0
POINT
  5
C3
100
AcDbEntity
  8
DEFPOINTS
  6
BYBLOCK
 62
     0
100
AcDbPoint
 10
844.194512
 20
859.506172
 30
0.0
  0
POINT
  5
C5
100
AcDbEntity
  8
DEFPOINTS
  6
BYBLOCK
 62
     0
100
AcDbPoint
 10
818.794512
 20
858.506172
 30
0.0
  0
POINT
  5
C6
100
AcDbEntity
  8
DEFPOINTS
  6
BYBLOCK
 62
     0
100
AcDbPoint
 10
818.794512
 20
873.822217
 30
0.0
  0
ENDBLK
  5
C8
100
AcDbEntity
  8
0
100
AcDbBlockEnd
  0
ENDSEC
  0
SECTION
  2
ENTITIES
  0
HATCH
  5
20
100
AcDbEntity
  8
HATCH
100
AcDbHatch
 10
0.0
 20
0.0
 30
0.0
210
0.0
220
0.0
230
1.0
  2
_U
 70
     0
 71
     1
 91
       19
 92
        7
 72
     1
 73
     1
 93
       12
 10
423.2655344179456
 20
275.0138856722446
 42
0.0
 10
414.7655344179457
 20
275.0138856722446
 42
0.0
 10
413.7655344179457
 20
275.0138856722446
 42
0.0
 10
413.7655344179457
 20
276.0138856722446
 42
0.0
 10
413.7655344179457
 20
279.3138856722446
 42
0.0
 10
413.0655344179458
 20
280.0138856722447
 42
0.0
 10
339.7655344179457
 20
280.0138856722446
 42
0.0
 10
339.7655344179456
 20
264.5138856722445
 42
-0.4142135623730951
 10
335.7655344179456
 20
260.5138856722445
 42
0.0
 10
252.2655344179456
 20
260.5138856722445
 42
0.0
 10
252.2655344179456
 20
251.0138856722444
 42
0.0
 10
423.2655344179457
 20
251.0138856722444
 42
0.0
 97
       12
330
17A
330
174
330
175
330
121
330
335
330
533
330
156
330
157
330
161
330
151
330
16E
330
535
 92
        7
 72
     1
 73
     1
 93
       48
 10
419.2655344179455
 20
243.0138856722444
 42
0.0
 10
248.2655344179456
 20
243.0138856722444
 42
-0.4142135623730951
 10
244.2655344179456
 20
247.0138856722444
 42
0.0
 10
244.2655344179457
 20
260.5138856722445
 42
0.0
 10
160.7655344179456
 20
260.5138856722445
 42
-0.4142135623730951
 10
156.7655344179456
 20
264.5138856722445
 42
0.0
 10
156.7655344179456
 20
280.0138856722447
 42
0.0
 10
141.7655344179456
 20
280.0138856722446
 42
0.0
 10
141.7655344179456
 20
276.0138856722448
 42
-1.0
 10
133.7655344179456
 20
276.0138856722448
 42
0.0
 10
133.7655344179456
 20
280.0138856722446
 42
0.0
 10
130.7655344179456
 20
280.0138856722446
 42
0.0
 10
128.7655344179456
 20
278.0138856722446
 42
0.0
 10
128.7655344179456
 20
222.0138856722446
 42
0.0
 10
130.7655344179456
 20
220.0138856722446
 42
0.0
 10
133.7655344179456
 20
220.0138856722446
 42
0.0
 10
133.7655344179456
 20
224.0138856722445
 42
-1.0
 10
141.7655344179456
 20
224.0138856722445
 42
0.0
 10
141.7655344179456
 20
220.0138856722446
 42
0.0
 10
146.7655344179456
 20
220.0138856722446
 42
0.0
 10
146.7655344179456
 20
220.3138856722445
 42
0.0
 10
147.4655344179457
 20
221.0138856722446
 42
0.0
 10
174.0655344179456
 20
221.0138856722446
 42
0.0
 10
174.7655344179456
 20
220.3138856722446
 42
0.0
 10
174.7655344179456
 20
220.0138856722446
 42
0.0
 10
321.7655344179456
 20
220.0138856722447
 42
0.0
 10
321.7655344179457
 20
220.3138856722447
 42
0.0
 10
322.4655344179457
 20
221.0138856722446
 42
0.0
 10
349.0655344179455
 20
221.0138856722446
 42
0.0
 10
349.7655344179456
 20
220.3138856722445
 42
0.0
 10
349.7655344179456
 20
220.0138856722447
 42
0.0
 10
394.2655344179456
 20
220.0138856722447
 42
0.0
 10
394.2655344179456
 20
227.3138856722446
 42
0.0
 10
394.2655344179456
 20
229.8138856722445
 42
0.0
 10
394.9655344179456
 20
229.8138856722445
 42
0.0
 10
394.9655344179457
 20
231.3138856722445
 42
0.0
 10
397.2655344179456
 20
232.6417912913806
 42
0.0
 10
399.5655344179456
 20
231.3138856722445
 42
0.0
 10
399.5655344179457
 20
229.8138856722445
 42
0.0
 10
400.2655344179457
 20
229.8138856722445
 42
0.0
 10
400.2655344179457
 20
227.3138856722447
 42
0.0
 10
400.2655344179457
 20
220.0138856722447
 42
0.0
 10
412.7655344179459
 20
220.0138856722447
 42
0.0
 10
413.2655344179457
 20
220.5138856722443
 42
0.0
 10
413.2655344179457
 20
229.0138856722445
 42
0.0
 10
413.2655344179458
 20
230.0138856722445
 42
0.0
 10
414.2655344179457
 20
230.0138856722445
 42
0.0
 10
419.2655344179456
 20
230.0138856722445
 42
0.0
 97
       42
330
150
330
153
330
152
330
14B
330
164
330
163
330
533
330
370
330
372
330
371
330
52E
330
531
330
52F
330
532
330
368
330
369
330
367
330
446
330
445
330
44B
330
440
330
441
330
AE
330
AD
330
B3
330
A8
330
A9
330
39C
330
387
330
391
330
388
330
38E
330
38F
330
386
330
385
330
39B
330
512
330
522
330
51B
330
51C
330
521
330
4FE
 92
       23
 72
     0
 73
     1
 93
        4
 10
331.7655344179456
 20
280.0138856722446
 10
164.7655344179456
 20
280.0138856722447
 10
164.7655344179456
 20
268.5138856722445
 10
331.7655344179456
 20
268.5138856722445
 97
        4
330
533
330
162
330
160
330
15A
 92
       23
 72
     0
 73
     1
 93
        4
 10
327.6066524304886
 20
220.3138856722445
 10
321.7655344179456
 20
220.3138856722446
 10
321.7655344179456
 20
220.0138856722446
 10
327.9066524304885
 20
220.0138856722446
 97
        4
330
A7
330
AE
330
532
330
9F
 92
       23
 72
     0
 73
     1
 93
        4
 10
326.9066524304884
 20
221.0138856722446
 10
322.4655344179457
 20
221.0138856722446
 10
321.7655344179456
 20
220.3138856722446
 10
327.6066524304884
 20
220.3138856722446
 97
        4
330
B3
330
AD
330
A7
330
94
 92
       23
 72
     0
 73
     1
 93
        4
 10
335.7655344179456
 20
221.0138856722446
 10
326.9066524304884
 20
221.0138856722446
 10
327.6066524304885
 20
220.3138856722446
 10
335.7655344179457
 20
220.3138856722446
 97
        4
330
B3
330
94
330
A7
330
B5
 92
       23
 72
     0
 73
     1
 93
        4
 10
335.7655344179456
 20
220.3138856722446
 10
327.6066524304887
 20
220.3138856722446
 10
327.9066524304886
 20
220.0138856722447
 10
335.7655344179456
 20
220.0138856722446
 97
        4
330
A7
330
9F
330
532
330
B5
 92
       23
 72
     0
 73
     1
 93
        4
 10
343.9244164054027
 20
220.3138856722446
 10
335.7655344179457
 20
220.3138856722446
 10
335.7655344179457
 20
220.0138856722447
 10
343.6244164054028
 20
220.0138856722446
 97
        4
330
A7
330
B5
330
532
330
A1
 92
       23
 72
     0
 73
     1
 93
        4
 10
344.6244164054029
 20
221.0138856722446
 10
335.7655344179456
 20
221.0138856722446
 10
335.7655344179456
 20
220.3138856722446
 10
343.9244164054027
 20
220.3138856722446
 97
        4
330
B3
330
B5
330
A7
330
95
 92
       22
 72
     0
 73
     1
 93
        4
 10
349.0655344179455
 20
221.0138856722446
 10
344.6244164054029
 20
221.0138856722446
 10
343.9244164054027
 20
220.3138856722446
 10
349.7655344179456
 20
220.3138856722446
 97
        4
330
B3
330
95
330
A7
330
A8
 92
       22
 72
     0
 73
     1
 93
        4
 10
349.7655344179456
 20
220.3138856722446
 10
343.9244164054027
 20
220.3138856722446
 10
343.6244164054028
 20
220.0138856722447
 10
349.7655344179457
 20
220.0138856722447
 97
        4
330
A7
330
A1
330
532
330
A9
 92
       23
 72
     0
 73
     1
 93
        4
 10
152.6066524304886
 20
220.3138856722446
 10
146.7655344179456
 20
220.3138856722446
 10
146.7655344179456
 20
220.0138856722446
 10
152.9066524304886
 20
220.0138856722446
 97
        4
330
43F
330
446
330
532
330
437
 92
       23
 72
     0
 73
     1
 93
        4
 10
151.9066524304884
 20
221.0138856722446
 10
147.4655344179457
 20
221.0138856722446
 10
146.7655344179456
 20
220.3138856722446
 10
152.6066524304885
 20
220.3138856722446
 97
        4
330
44B
330
445
330
43F
330
42C
 92
       23
 72
     0
 73
     1
 93
        4
 10
160.7655344179456
 20
221.0138856722446
 10
151.9066524304884
 20
221.0138856722446
 10
152.6066524304885
 20
220.3138856722446
 10
160.7655344179456
 20
220.3138856722446
 97
        4
330
44B
330
42C
330
43F
330
44D
 92
       23
 72
     0
 73
     1
 93
        4
 10
160.7655344179456
 20
220.3138856722446
 10
152.6066524304886
 20
220.3138856722446
 10
152.9066524304885
 20
220.0138856722446
 10
160.7655344179456
 20
220.0138856722446
 97
        4
330
43F
330
437
330
532
330
44D
 92
       23
 72
     0
 73
     1
 93
        4
 10
169.6244164054029
 20
221.0138856722446
 10
160.7655344179456
 20
221.0138856722446
 10
160.7655344179456
 20
220.3138856722446
 10
168.9244164054027
 20
220.3138856722445
 97
        4
330
44B
330
44D
330
43F
330
42D
 92
       23
 72
     0
 73
     1
 93
        4
 10
168.9244164054027
 20
220.3138856722446
 10
160.7655344179456
 20
220.3138856722446
 10
160.7655344179456
 20
220.0138856722446
 10
168.6244164054027
 20
220.0138856722447
 97
        4
330
43F
330
44D
330
532
330
439
 92
       22
 72
     0
 73
     1
 93
        4
 10
174.0655344179456
 20
221.0138856722446
 10
169.6244164054029
 20
221.0138856722446
 10
168.9244164054028
 20
220.3138856722445
 10
174.7655344179457
 20
220.3138856722446
 97
        4
330
44B
330
42D
330
43F
330
440
 92
       22
 72
     0
 73
     1
 93
        4
 10
174.7655344179457
 20
220.3138856722445
 10
168.9244164054027
 20
220.3138856722445
 10
168.6244164054027
 20
220.0138856722446
 10
174.7655344179456
 20
220.0138856722446
 97
        4
330
43F
330
439
330
532
330
441
 75
     0
 76
     0
 52
45.0
 41
6.0
 77
     0
 78
     1
 53
45.0
 43
0.0
 44
0.0
 45
-4.242640687119284
 46
4.242640687119285
 79
     0
 47
0.039339
 98
       19
 10
366.994781
 20
270.018864
 10
366.994781
 20
233.429054
 10
294.663477
 20
274.116923
 10
326.317864
 20
220.226057
 10
326.317864
 20
220.470642
 10
328.065611
 20
220.540523
 10
328.380205
 20
220.086295
 10
342.606866
 20
220.191116
 10
342.536957
 20
220.680284
 10
345.053714
 20
220.540523
 10
344.843981
 20
220.191116
 10
149.661955
 20
220.16131
 10
149.819374
 20
220.476019
 10
153.361312
 20
220.672712
 10
153.558085
 20
220.12197
 10
161.743898
 20
220.633372
 10
161.822608
 20
220.12197
 10
170.952935
 20
220.633372
 10
170.795517
 20
220.12197
  0
HATCH
  5
21
100
AcDbEntity
  8
HATCH
100
AcDbHatch
 10
0.0
 20
0.0
 30
0.0
210
0.0
220
0.0
230
1.0
  2
_U
 70
     0
 71
     1
 91
        3
 92
        7
 72
     0
 73
     1
 93
        4
 10
400.0405344179456
 20
283.0138856722446
 10
353.7655344179456
 20
283.0138856722446
 10
353.7655344179456
 20
280.0138856722446
 10
400.0405344179457
 20
280.0138856722446
 97
        4
330
529
330
154
330
533
330
124
 92
        7
 72
     0
 73
     1
 93
        4
 10
317.7655344179456
 20
283.0138856722446
 10
178.7655344179457
 20
283.0138856722447
 10
178.7655344179456
 20
280.0138856722446
 10
317.7655344179456
 20
280.0138856722446
 97
        4
330
529
330
15B
330
533
330
158
 92
        7
 72
     0
 73
     1
 93
        4
 10
142.7655344179456
 20
283.0138856722447
 10
130.7655344179456
 20
283.0138856722446
 10
130.7655344179456
 20
280.0138856722446
 10
142.7655344179456
 20
280.0138856722446
 97
        4
330
529
330
52B
330
533
330
15C
 75
     0
 76
     0
 52
135.0
 41
0.8
 77
     0
 78
     1
 53
135.0
 43
0.0
 44
0.0
 45
-0.5656854249492382
 46
-0.565685424949238
 79
     0
 47
0.292718
 98
        3
 10
365.237743
 20
282.020323
 10
281.19287
 20
281.727604
 10
140.630014
 20
281.434887
  0
HATCH
  5
22
100
AcDbEntity
  8
HATCH
100
AcDbHatch
 10
0.0
 20
0.0
 30
0.0
210
0.0
220
0.0
230
1.0
  2
_U
 70
     0
 71
     1
 91
        3
 92
        7
 72
     0
 73
     1
 93
        4
 10
145.7655344179457
 20
220.0138856722447
 10
130.7655344179456
 20
220.0138856722447
 10
130.7655344179456
 20
217.0138856722446
 10
145.7655344179455
 20
217.0138856722446
 97
        4
330
532
330
528
330
526
330
44A
 92
        7
 72
     0
 73
     1
 93
        4
 10
320.7655344179456
 20
220.0138856722447
 10
175.7655344179456
 20
220.0138856722446
 10
175.7655344179456
 20
217.0138856722446
 10
320.7655344179455
 20
217.0138856722446
 97
        4
330
532
330
449
330
41D
330
B2
 92
        7
 72
     0
 73
     1
 93
        4
 10
388.2655344179454
 20
220.0138856722447
 10
350.7655344179456
 20
220.0138856722447
 10
350.7655344179456
 20
217.0138856722446
 10
388.2655344179455
 20
217.0138856722446
 97
        4
330
532
330
B1
330
72
330
4F6
 75
     0
 76
     0
 52
135.0
 41
0.8
 77
     0
 78
     1
 53
135.0
 43
0.0
 44
0.0
 45
-0.5656854249492382
 46
-0.565685424949238
 79
     0
 47
0.292703
 98
        3
 10
141.222962
 20
218.502438
 10
179.290095
 20
218.502438
 10
365.233392
 20
218.502438
  0
HATCH
  5
23
100
AcDbEntity
  8
HATCH
100
AcDbHatch
 10
0.0
 20
0.0
 30
0.0
210
0.0
220
0.0
230
1.0
  2
_U
 70
     0
 71
     1
 91
        3
 92
        7
 72
     0
 73
     1
 93
        4
 10
495.7655344179456
 20
220.0138856722447
 10
458.2655344179459
 20
220.0138856722447
 10
458.2655344179458
 20
217.0138856722446
 10
495.7655344179454
 20
217.0138856722445
 97
        4
330
39F
330
518
330
4F4
330
5D
 92
        7
 72
     0
 73
     1
 93
        4
 10
670.7655344179457
 20
220.0138856722446
 10
525.7655344179457
 20
220.0138856722446
 10
525.7655344179457
 20
217.0138856722446
 10
670.7655344179455
 20
217.0138856722446
 97
        4
330
39F
330
5C
330
25
330
4ED
 92
        7
 72
     0
 73
     1
 93
        4
 10
715.7655344179455
 20
220.0138856722445
 10
700.7655344179457
 20
220.0138856722446
 10
700.7655344179455
 20
217.0138856722446
 10
715.7655344179454
 20
217.0138856722446
 97
        4
330
39F
330
4EC
330
4E1
330
527
 75
     0
 76
     0
 52
135.0
 41
0.8
 77
     0
 78
     1
 53
135.0
 43
0.0
 44
0.0
 45
-0.5656854249492382
 46
-0.565685424949238
 79
     0
 47
0.302085
 98
        3
 10
486.230744
 20
217.967693
 10
539.721819
 20
218.269778
 10
706.239242
 20
217.665608
  0
HATCH
  5
24
100
AcDbEntity
  8
HATCH
100
AcDbHatch
 10
0.0
 20
0.0
 30
0.0
210
0.0
220
0.0
230
1.0
  2
_U
 70
     0
 71
     0
 91
        3
 92
        7
 72
     0
 73
     1
 93
        4
 10
492.7655344179457
 20
283.0138856722447
 10
446.4905344179457
 20
283.0138856722446
 10
446.4905344179456
 20
280.0138856722446
 10
492.7655344179456
 20
280.0138856722446
 97
        0
 92
        7
 72
     0
 73
     1
 93
        4
 10
667.7655344179456
 20
283.0138856722446
 10
528.7655344179455
 20
283.0138856722446
 10
528.7655344179456
 20
280.0138856722446
 10
667.7655344179457
 20
280.0138856722446
 97
        0
 92
        7
 72
     0
 73
     1
 93
        4
 10
715.7655344179454
 20
283.0138856722446
 10
703.7655344179456
 20
283.0138856722447
 10
703.7655344179456
 20
280.0138856722446
 10
715.7655344179456
 20
280.0138856722446
 97
        0
 75
     0
 76
     0
 52
135.0
 41
0.8
 77
     0
 78
     1
 53
135.0
 43
0.0
 44
0.0
 45
-0.5656854249492382
 46
-0.565685424949238
 79
     0
 47
0.302085
 98
        3
 10
485.021904
 20
281.707588
 10
537.606353
 20
282.311758
 10
706.541453
 20
282.311758
  0
LINE
  5
25
102
{ACAD_REACTORS
330
23
102
}
100
AcDbEntity
  8
M02
100
AcDbLine
 10
524.765534
 20
217.013886
 30
0.0
 11
671.765534
 21
217.013886
 31
0.0
  0
HATCH
  5
27
100
AcDbEntity
  8
HATCH
100
AcDbHatch
 10
0.0
 20
0.0
 30
0.0
210
0.0
220
0.0
230
1.0
  2
_U
 70
     0
 71
     0
 91
        2
 92
        7
 72
     0
 73
     1
 93
       11
 10
502.9066524304885
 20
220.0138856722446
 10
497.4655344179457
 20
220.0138856722447
 10
496.7655344179457
 20
219.3138856722447
 10
496.7655344179457
 20
213.7138856722444
 10
497.4655344179454
 20
213.0138856722445
 10
500.2655344179457
 20
213.0138856722445
 10
501.2655344179454
 20
214.0138856722444
 10
503.2655344179452
 20
214.0138856722446
 10
504.2655344179447
 20
213.0138856722445
 10
507.2655344179454
 20
213.0138856722445
 10
507.2655344179454
 20
215.6550036847876
 97
        0
 92
        7
 72
     0
 73
     1
 93
       11
 10
524.7655344179456
 20
219.3138856722446
 10
524.0655344179456
 20
220.0138856722446
 10
518.6244164054025
 20
220.0138856722445
 10
514.2655344179456
 20
215.6550036847875
 10
514.2655344179456
 20
213.0138856722445
 10
517.2655344179463
 20
213.0138856722445
 10
518.2655344179461
 20
214.0138856722445
 10
520.2655344179456
 20
214.0138856722444
 10
521.2655344179454
 20
213.0138856722445
 10
524.0655344179456
 20
213.0138856722445
 10
524.7655344179454
 20
213.7138856722443
 97
        0
 75
     0
 76
     0
 52
135.0
 41
1.5
 77
     0
 78
     1
 53
135.0
 43
-99.681706
 44
-27.472589
 45
-1.060660171779821
 46
-1.060660171779821
 79
     0
 47
0.151518
 98
        2
 10
501.241465
 20
216.697923
 10
519.885875
 20
217.303994
  0
LINE
  5
28
100
AcDbEntity
  8
M05
100
AcDbLine
 10
501.265534
 20
214.013886
 30
0.0
 11
500.265534
 21
213.013886
 31
0.0
  0
LINE
  5
2A
100
AcDbEntity
  8
M05
100
AcDbLine
 10
503.265534
 20
214.013886
 30
0.0
 11
504.265534
 21
213.013886
 31
0.0
  0
LINE
  5
2B
100
AcDbEntity
  8
M05
100
AcDbLine
 10
501.265534
 20
214.013886
 30
0.0
 11
503.265534
 21
214.013886
 31
0.0
  0
LINE
  5
2C
100
AcDbEntity
  8
M05
100
AcDbLine
 10
520.265534
 20
214.013886
 30
0.0
 11
521.265534
 21
213.013886
 31
0.0
  0
LINE
  5
2D
100
AcDbEntity
  8
M05
100
AcDbLine
 10
518.265534
 20
214.013886
 30
0.0
 11
517.265534
 21
213.013886
 31
0.0
  0
LINE
  5
2E
100
AcDbEntity
  8
M05
100
AcDbLine
 10
520.265534
 20
214.013886
 30
0.0
 11
518.265534
 21
214.013886
 31
0.0
  0
LINE
  5
2F
100
AcDbEntity
  8
M04
100
AcDbLine
 10
510.765534
 20
195.18598
 30
0.0
 11
513.065534
 21
196.513886
 31
0.0
  0
LINE
  5
31
100
AcDbEntity
  8
M04
100
AcDbLine
 10
508.465534
 20
196.513886
 30
0.0
 11
510.765534
 21
195.18598
 31
0.0
  0
LINE
  5
32
100
AcDbEntity
  8
M04
100
AcDbLine
 10
508.465534
 20
196.513886
 30
0.0
 11
513.065534
 21
196.513886
 31
0.0
  0
LINE
  5
33
100
AcDbEntity
  8
M04
100
AcDbLine
 10
507.765534
 20
201.575004
 30
0.0
 11
507.765534
 21
198.013886
 31
0.0
  0
LINE
  5
34
100
AcDbEntity
  8
M04
100
AcDbLine
 10
508.465534
 20
200.875004
 30
0.0
 11
508.465534
 21
196.513886
 31
0.0
  0
LINE
  5
35
100
AcDbEntity
  8
M04
100
AcDbLine
 10
513.765534
 20
201.575004
 30
0.0
 11
513.765534
 21
198.013886
 31
0.0
  0
LINE
  5
36
100
AcDbEntity
  8
M04
100
AcDbLine
 10
513.065534
 20
200.875004
 30
0.0
 11
513.065534
 21
196.513886
 31
0.0
  0
LINE
  5
37
100
AcDbEntity
  8
M05
100
AcDbLine
 10
513.065534
 20
200.875004
 30
0.0
 11
513.765534
 21
201.575004
 31
0.0
  0
LINE
  5
38
100
AcDbEntity
  8
M05
100
AcDbLine
 10
507.765534
 20
201.575004
 30
0.0
 11
508.465534
 21
200.875004
 31
0.0
  0
LINE
  5
39
100
AcDbEntity
  8
M05
100
AcDbLine
 10
513.065534
 20
213.655004
 30
0.0
 11
513.065534
 21
200.875004
 31
0.0
  0
LINE
  5
3A
100
AcDbEntity
  8
M05
100
AcDbLine
 10
508.465534
 20
213.655004
 30
0.0
 11
508.465534
 21
200.875004
 31
0.0
  0
LINE
  5
3B
100
AcDbEntity
  8
M05
100
AcDbLine
 10
507.765534
 20
201.575004
 30
0.0
 11
513.765534
 21
201.575004
 31
0.0
  0
LINE
  5
3C
100
AcDbEntity
  8
M04
100
AcDbLine
 10
507.765534
 20
198.013886
 30
0.0
 11
513.765534
 21
198.013886
 31
0.0
  0
LINE
  5
3D
100
AcDbEntity
  8
M05
100
AcDbLine
 10
508.465534
 20
200.875004
 30
0.0
 11
513.065534
 21
200.875004
 31
0.0
  0
LINE
  5
3E
100
AcDbEntity
  8
M05
  6
HIDDEN
100
AcDbLine
 10
502.606652
 20
220.313886
 30
0.0
 11
501.906652
 21
221.013886
 31
0.0
  0
LINE
  5
40
100
AcDbEntity
  8
M05
  6
HIDDEN
100
AcDbLine
 10
518.924416
 20
220.313886
 30
0.0
 11
519.624416
 21
221.013886
 31
0.0
  0
LINE
  5
41
100
AcDbEntity
  8
M05
100
AcDbLine
 10
507.765534
 20
213.655004
 30
0.0
 11
513.765534
 21
213.655004
 31
0.0
  0
LINE
  5
42
100
AcDbEntity
  8
M05
100
AcDbLine
 10
511.315534
 20
218.155004
 30
0.0
 11
516.765534
 21
218.155004
 31
0.0
  0
LINE
  5
43
100
AcDbEntity
  8
M05
100
AcDbLine
 10
511.315534
 20
218.875004
 30
0.0
 11
516.765534
 21
218.875004
 31
0.0
  0
LINE
  5
44
100
AcDbEntity
  8
M05
100
AcDbLine
 10
511.315534
 20
218.875004
 30
0.0
 11
511.315534
 21
217.375004
 31
0.0
  0
LINE
  5
45
100
AcDbEntity
  8
M05
100
AcDbLine
 10
510.215534
 20
218.875004
 30
0.0
 11
510.215534
 21
217.375004
 31
0.0
  0
LINE
  5
46
100
AcDbEntity
  8
M05
100
AcDbLine
 10
510.215534
 20
217.375004
 30
0.0
 11
511.315534
 21
217.375004
 31
0.0
  0
LINE
  5
47
100
AcDbEntity
  8
M05
100
AcDbLine
 10
514.265534
 20
215.655004
 30
0.0
 11
514.265534
 21
213.013886
 31
0.0
  0
LINE
  5
48
100
AcDbEntity
  8
M05
100
AcDbLine
 10
507.265534
 20
215.655004
 30
0.0
 11
507.265534
 21
213.013886
 31
0.0
  0
LINE
  5
49
100
AcDbEntity
  8
M05
100
AcDbLine
 10
504.765534
 20
218.155004
 30
0.0
 11
510.215534
 21
218.155004
 31
0.0
  0
LINE
  5
4A
100
AcDbEntity
  8
M05
100
AcDbLine
 10
507.765534
 20
215.155004
 30
0.0
 11
502.606652
 21
220.313886
 31
0.0
  0
LINE
  5
4B
100
AcDbEntity
  8
M05
100
AcDbLine
 10
504.765534
 20
218.875004
 30
0.0
 11
504.765534
 21
218.155004
 31
0.0
  0
LINE
  5
4C
100
AcDbEntity
  8
M05
100
AcDbLine
 10
513.765534
 20
215.155004
 30
0.0
 11
518.924416
 21
220.313886
 31
0.0
  0
LINE
  5
4D
100
AcDbEntity
  8
M05
100
AcDbLine
 10
507.765534
 20
215.155004
 30
0.0
 11
513.765534
 21
215.155004
 31
0.0
  0
LINE
  5
4E
100
AcDbEntity
  8
M05
100
AcDbLine
 10
507.765534
 20
215.155004
 30
0.0
 11
507.765534
 21
201.575004
 31
0.0
  0
LINE
  5
4F
100
AcDbEntity
  8
M05
100
AcDbLine
 10
513.765534
 20
215.155004
 30
0.0
 11
513.765534
 21
201.575004
 31
0.0
  0
LINE
  5
50
100
AcDbEntity
  8
M05
100
AcDbLine
 10
516.765534
 20
218.875004
 30
0.0
 11
516.765534
 21
218.155004
 31
0.0
  0
LINE
  5
51
100
AcDbEntity
  8
M05
100
AcDbLine
 10
504.765534
 20
218.875004
 30
0.0
 11
510.215534
 21
218.875004
 31
0.0
  0
LINE
  5
52
100
AcDbEntity
  8
M05
  6
HIDDEN
100
AcDbLine
 10
496.765534
 20
220.313886
 30
0.0
 11
524.765534
 21
220.313886
 31
0.0
  0
LINE
  5
53
100
AcDbEntity
  8
M05
  6
HIDDEN
100
AcDbLine
 10
524.765534
 20
220.313886
 30
0.0
 11
524.065534
 21
221.013886
 31
0.0
  0
LINE
  5
54
100
AcDbEntity
  8
M05
  6
HIDDEN
100
AcDbLine
 10
524.765534
 20
219.313886
 30
0.0
 11
524.765534
 21
220.313886
 31
0.0
  0
LINE
  5
55
100
AcDbEntity
  8
M05
100
AcDbLine
 10
524.765534
 20
219.313886
 30
0.0
 11
524.065534
 21
220.013886
 31
0.0
  0
LINE
  5
56
100
AcDbEntity
  8
M05
100
AcDbLine
 10
524.765534
 20
213.713886
 30
0.0
 11
524.065534
 21
213.013886
 31
0.0
  0
LINE
  5
57
100
AcDbEntity
  8
M05
100
AcDbLine
 10
524.765534
 20
219.313886
 30
0.0
 11
524.765534
 21
213.713886
 31
0.0
  0
LINE
  5
58
100
AcDbEntity
  8
M05
  6
HIDDEN
100
AcDbLine
 10
496.765534
 20
220.313886
 30
0.0
 11
497.465534
 21
221.013886
 31
0.0
  0
LINE
  5
59
100
AcDbEntity
  8
M05
  6
HIDDEN
100
AcDbLine
 10
496.765534
 20
219.313886
 30
0.0
 11
496.765534
 21
220.313886
 31
0.0
  0
LINE
  5
5A
100
AcDbEntity
  8
M05
100
AcDbLine
 10
496.765534
 20
219.313886
 30
0.0
 11
497.465534
 21
220.013886
 31
0.0
  0
LINE
  5
5B
100
AcDbEntity
  8
M05
100
AcDbLine
 10
496.765534
 20
213.713886
 30
0.0
 11
497.465534
 21
213.013886
 31
0.0
  0
LINE
  5
5C
102
{ACAD_REACTORS
330
23
102
}
100
AcDbEntity
  8
M02
100
AcDbLine
 10
525.765534
 20
220.013886
 30
0.0
 11
525.765534
 21
217.013886
 31
0.0
  0
LINE
  5
5D
102
{ACAD_REACTORS
330
23
102
}
100
AcDbEntity
  8
M02
100
AcDbLine
 10
495.765534
 20
220.013886
 30
0.0
 11
495.765534
 21
217.013886
 31
0.0
  0
LINE
  5
5E
100
AcDbEntity
  8
M05
  6
HIDDEN
100
AcDbLine
 10
497.465534
 20
221.013886
 30
0.0
 11
524.065534
 21
221.013886
 31
0.0
  0
LINE
  5
5F
100
AcDbEntity
  8
M05
100
AcDbLine
 10
496.765534
 20
219.313886
 30
0.0
 11
496.765534
 21
213.713886
 31
0.0
  0
LINE
  5
60
100
AcDbEntity
  8
CENTRE
100
AcDbLine
 10
510.765534
 20
225.522996
 30
0.0
 11
510.765534
 21
192.444658
 31
0.0
  0
CIRCLE
  5
63
100
AcDbEntity
  8
M03
100
AcDbCircle
 10
510.765534
 20
432.559226
 30
0.0
 40
2.3
  0
ARC
  5
65
100
AcDbEntity
  8
M03
100
AcDbCircle
 10
510.765534
 20
432.559226
 30
0.0
 40
3.0
100
AcDbArc
 50
167.784636
 51
96.923103
  0
LINE
  5
66
100
AcDbEntity
  8
DIMS
 62
     4
100
AcDbLine
 10
510.765534
 20
435.959226
 30
0.0
 11
510.765534
 21
449.259226
 31
0.0
  0
LINE
  5
68
100
AcDbEntity
  8
DIMS
 62
     4
100
AcDbLine
 10
510.765534
 20
429.159226
 30
0.0
 11
510.765534
 21
415.859226
 31
0.0
  0
LINE
  5
69
100
AcDbEntity
  8
DIMS
 62
     4
100
AcDbLine
 10
510.765534
 20
430.859226
 30
0.0
 11
510.765534
 21
434.259226
 31
0.0
  0
LINE
  5
6A
100
AcDbEntity
  8
M03
100
AcDbLine
 10
511.315534
 20
426.584488
 30
0.0
 11
511.315534
 21
438.533965
 31
0.0
  0
LINE
  5
6B
100
AcDbEntity
  8
M03
100
AcDbLine
 10
510.215534
 20
426.584488
 30
0.0
 11
510.215534
 21
438.533965
 31
0.0
  0
CIRCLE
  5
6C
100
AcDbEntity
  8
M03
100
AcDbCircle
 10
510.765534
 20
432.559226
 30
0.0
 40
15.0
  0
CIRCLE
  5
6D
100
AcDbEntity
  8
M03
100
AcDbCircle
 10
510.765534
 20
432.559226
 30
0.0
 40
14.0
  0
CIRCLE
  5
6E
100
AcDbEntity
  8
M03
100
AcDbCircle
 10
510.765534
 20
432.559226
 30
0.0
 40
7.858882
  0
CIRCLE
  5
6F
100
AcDbEntity
  8
M03
100
AcDbCircle
 10
510.765534
 20
432.559226
 30
0.0
 40
6.0
  0
CIRCLE
  5
70
100
AcDbEntity
  8
M01
100
AcDbCircle
 10
510.765534
 20
432.559226
 30
0.0
 40
4.0
  0
LINE
  5
72
102
{ACAD_REACTORS
330
22
102
}
100
AcDbEntity
  8
M02
100
AcDbLine
 10
349.765534
 20
217.013886
 30
0.0
 11
389.265534
 21
217.013886
 31
0.0
  0
CIRCLE
  5
73
100
AcDbEntity
  8
M03
100
AcDbCircle
 10
335.765534
 20
432.559226
 30
0.0
 40
2.3
  0
ARC
  5
74
100
AcDbEntity
  8
M03
100
AcDbCircle
 10
335.765534
 20
432.559226
 30
0.0
 40
3.0
100
AcDbArc
 50
167.784636
 51
96.923103
  0
LINE
  5
75
100
AcDbEntity
  8
DIMS
 62
     4
100
AcDbLine
 10
335.765534
 20
435.959226
 30
0.0
 11
335.765534
 21
449.259226
 31
0.0
  0
LINE
  5
76
100
AcDbEntity
  8
DIMS
 62
     4
100
AcDbLine
 10
335.765534
 20
429.159226
 30
0.0
 11
335.765534
 21
415.859226
 31
0.0
  0
LINE
  5
77
100
AcDbEntity
  8
DIMS
 62
     4
100
AcDbLine
 10
335.765534
 20
430.859226
 30
0.0
 11
335.765534
 21
434.259226
 31
0.0
  0
LINE
  5
78
100
AcDbEntity
  8
M03
100
AcDbLine
 10
335.215534
 20
426.584488
 30
0.0
 11
335.215534
 21
438.533965
 31
0.0
  0
LINE
  5
79
100
AcDbEntity
  8
M03
100
AcDbLine
 10
336.315534
 20
426.584488
 30
0.0
 11
336.315534
 21
438.533965
 31
0.0
  0
CIRCLE
  5
7A
100
AcDbEntity
  8
M03
100
AcDbCircle
 10
335.765534
 20
432.559226
 30
0.0
 40
15.0
  0
CIRCLE
  5
7B
100
AcDbEntity
  8
M03
100
AcDbCircle
 10
335.765534
 20
432.559226
 30
0.0
 40
14.0
  0
CIRCLE
  5
7C
100
AcDbEntity
  8
M03
100
AcDbCircle
 10
335.765534
 20
432.559226
 30
0.0
 40
7.858882
  0
CIRCLE
  5
7D
100
AcDbEntity
  8
M03
100
AcDbCircle
 10
335.765534
 20
432.559226
 30
0.0
 40
6.0
  0
CIRCLE
  5
7E
100
AcDbEntity
  8
M01
100
AcDbCircle
 10
335.765534
 20
432.559226
 30
0.0
 40
4.0
  0
HATCH
  5
7F
100
AcDbEntity
  8
HATCH
100
AcDbHatch
 10
0.0
 20
0.0
 30
0.0
210
0.0
220
0.0
230
1.0
  2
_U
 70
     0
 71
     0
 91
        2
 92
        7
 72
     0
 73
     1
 93
       11
 10
327.9066524304885
 20
220.0138856722447
 10
322.4655344179457
 20
220.0138856722447
 10
321.7655344179456
 20
219.3138856722447
 10
321.7655344179457
 20
213.7138856722444
 10
322.4655344179457
 20
213.0138856722445
 10
325.2655344179459
 20
213.0138856722445
 10
326.2655344179457
 20
214.0138856722444
 10
328.2655344179452
 20
214.0138856722446
 10
329.265534417945
 20
213.0138856722445
 10
332.2655344179455
 20
213.0138856722445
 10
332.2655344179455
 20
215.6550036847876
 97
        0
 92
        7
 72
     0
 73
     1
 93
       11
 10
343.6244164054028
 20
220.0138856722446
 10
339.2655344179456
 20
215.6550036847875
 10
339.2655344179456
 20
213.0138856722445
 10
342.2655344179464
 20
213.0138856722445
 10
343.2655344179461
 20
214.0138856722446
 10
345.2655344179456
 20
214.0138856722444
 10
346.2655344179455
 20
213.0138856722445
 10
349.0655344179456
 20
213.0138856722445
 10
349.7655344179455
 20
213.7138856722444
 10
349.7655344179456
 20
219.3138856722447
 10
349.0655344179457
 20
220.0138856722446
 97
        0
 75
     0
 76
     0
 52
135.0
 41
1.5
 77
     0
 78
     1
 53
135.0
 43
-164.681706
 44
-27.472589
 45
-1.060660171779821
 46
-1.060660171779821
 79
     0
 47
0.040219
 98
        2
 10
326.917317
 20
217.493456
 10
345.385605
 20
217.051044
  0
LINE
  5
80
100
AcDbEntity
  8
M05
100
AcDbLine
 10
345.265534
 20
214.013886
 30
0.0
 11
346.265534
 21
213.013886
 31
0.0
  0
LINE
  5
81
100
AcDbEntity
  8
M05
100
AcDbLine
 10
343.265534
 20
214.013886
 30
0.0
 11
342.265534
 21
213.013886
 31
0.0
  0
LINE
  5
82
100
AcDbEntity
  8
M05
100
AcDbLine
 10
345.265534
 20
214.013886
 30
0.0
 11
343.265534
 21
214.013886
 31
0.0
  0
LINE
  5
83
100
AcDbEntity
  8
M05
100
AcDbLine
 10
326.265534
 20
214.013886
 30
0.0
 11
325.265534
 21
213.013886
 31
0.0
  0
LINE
  5
84
100
AcDbEntity
  8
M05
100
AcDbLine
 10
328.265534
 20
214.013886
 30
0.0
 11
329.265534
 21
213.013886
 31
0.0
  0
LINE
  5
85
100
AcDbEntity
  8
M05
100
AcDbLine
 10
326.265534
 20
214.013886
 30
0.0
 11
328.265534
 21
214.013886
 31
0.0
  0
LINE
  5
86
100
AcDbEntity
  8
M04
100
AcDbLine
 10
335.765534
 20
195.18598
 30
0.0
 11
338.065534
 21
196.513886
 31
0.0
  0
LINE
  5
87
100
AcDbEntity
  8
M04
100
AcDbLine
 10
333.465534
 20
196.513886
 30
0.0
 11
335.765534
 21
195.18598
 31
0.0
  0
LINE
  5
88
100
AcDbEntity
  8
M04
100
AcDbLine
 10
333.465534
 20
196.513886
 30
0.0
 11
338.065534
 21
196.513886
 31
0.0
  0
LINE
  5
89
100
AcDbEntity
  8
M04
100
AcDbLine
 10
332.765534
 20
201.575004
 30
0.0
 11
332.765534
 21
198.013886
 31
0.0
  0
LINE
  5
8A
100
AcDbEntity
  8
M04
100
AcDbLine
 10
333.465534
 20
200.875004
 30
0.0
 11
333.465534
 21
196.513886
 31
0.0
  0
LINE
  5
8B
100
AcDbEntity
  8
M04
100
AcDbLine
 10
338.765534
 20
201.575004
 30
0.0
 11
338.765534
 21
198.013886
 31
0.0
  0
LINE
  5
8C
100
AcDbEntity
  8
M04
100
AcDbLine
 10
338.065534
 20
200.875004
 30
0.0
 11
338.065534
 21
196.513886
 31
0.0
  0
LINE
  5
8D
100
AcDbEntity
  8
M05
100
AcDbLine
 10
338.065534
 20
200.875004
 30
0.0
 11
338.765534
 21
201.575004
 31
0.0
  0
LINE
  5
8E
100
AcDbEntity
  8
M05
100
AcDbLine
 10
332.765534
 20
201.575004
 30
0.0
 11
333.465534
 21
200.875004
 31
0.0
  0
LINE
  5
8F
100
AcDbEntity
  8
M05
100
AcDbLine
 10
338.065534
 20
213.655004
 30
0.0
 11
338.065534
 21
200.875004
 31
0.0
  0
LINE
  5
90
100
AcDbEntity
  8
M05
100
AcDbLine
 10
333.465534
 20
213.655004
 30
0.0
 11
333.465534
 21
200.875004
 31
0.0
  0
LINE
  5
91
100
AcDbEntity
  8
M05
100
AcDbLine
 10
332.765534
 20
201.575004
 30
0.0
 11
338.765534
 21
201.575004
 31
0.0
  0
LINE
  5
92
100
AcDbEntity
  8
M04
100
AcDbLine
 10
332.765534
 20
198.013886
 30
0.0
 11
338.765534
 21
198.013886
 31
0.0
  0
LINE
  5
93
100
AcDbEntity
  8
M05
100
AcDbLine
 10
333.465534
 20
200.875004
 30
0.0
 11
338.065534
 21
200.875004
 31
0.0
  0
LINE
  5
94
102
{ACAD_REACTORS
330
20
102
}
100
AcDbEntity
  8
M05
  6
HIDDEN
100
AcDbLine
 10
327.606652
 20
220.313886
 30
0.0
 11
326.906652
 21
221.013886
 31
0.0
  0
LINE
  5
95
102
{ACAD_REACTORS
330
20
102
}
100
AcDbEntity
  8
M05
  6
HIDDEN
100
AcDbLine
 10
343.924416
 20
220.313886
 30
0.0
 11
344.624416
 21
221.013886
 31
0.0
  0
LINE
  5
96
100
AcDbEntity
  8
M05
100
AcDbLine
 10
332.765534
 20
213.655004
 30
0.0
 11
338.765534
 21
213.655004
 31
0.0
  0
LINE
  5
97
100
AcDbEntity
  8
M05
100
AcDbLine
 10
336.315534
 20
218.155004
 30
0.0
 11
341.765534
 21
218.155004
 31
0.0
  0
LINE
  5
98
100
AcDbEntity
  8
M05
100
AcDbLine
 10
336.315534
 20
218.875004
 30
0.0
 11
341.765534
 21
218.875004
 31
0.0
  0
LINE
  5
99
100
AcDbEntity
  8
M05
100
AcDbLine
 10
336.315534
 20
218.875004
 30
0.0
 11
336.315534
 21
217.375004
 31
0.0
  0
LINE
  5
9A
100
AcDbEntity
  8
M05
100
AcDbLine
 10
335.215534
 20
218.875004
 30
0.0
 11
335.215534
 21
217.375004
 31
0.0
  0
LINE
  5
9B
100
AcDbEntity
  8
M05
100
AcDbLine
 10
335.215534
 20
217.375004
 30
0.0
 11
336.315534
 21
217.375004
 31
0.0
  0
LINE
  5
9C
100
AcDbEntity
  8
M05
100
AcDbLine
 10
339.265534
 20
215.655004
 30
0.0
 11
339.265534
 21
213.013886
 31
0.0
  0
LINE
  5
9D
100
AcDbEntity
  8
M05
100
AcDbLine
 10
332.265534
 20
215.655004
 30
0.0
 11
332.265534
 21
213.013886
 31
0.0
  0
LINE
  5
9E
100
AcDbEntity
  8
M05
100
AcDbLine
 10
329.765534
 20
218.155004
 30
0.0
 11
335.215534
 21
218.155004
 31
0.0
  0
LINE
  5
9F
102
{ACAD_REACTORS
330
20
102
}
100
AcDbEntity
  8
M05
100
AcDbLine
 10
332.765534
 20
215.155004
 30
0.0
 11
327.606652
 21
220.313886
 31
0.0
  0
LINE
  5
A0
100
AcDbEntity
  8
M05
100
AcDbLine
 10
329.765534
 20
218.875004
 30
0.0
 11
329.765534
 21
218.155004
 31
0.0
  0
LINE
  5
A1
102
{ACAD_REACTORS
330
20
102
}
100
AcDbEntity
  8
M05
100
AcDbLine
 10
338.765534
 20
215.155004
 30
0.0
 11
343.924416
 21
220.313886
 31
0.0
  0
LINE
  5
A2
100
AcDbEntity
  8
M05
100
AcDbLine
 10
332.765534
 20
215.155004
 30
0.0
 11
338.765534
 21
215.155004
 31
0.0
  0
LINE
  5
A3
100
AcDbEntity
  8
M05
100
AcDbLine
 10
332.765534
 20
215.155004
 30
0.0
 11
332.765534
 21
201.575004
 31
0.0
  0
LINE
  5
A4
100
AcDbEntity
  8
M05
100
AcDbLine
 10
338.765534
 20
215.155004
 30
0.0
 11
338.765534
 21
201.575004
 31
0.0
  0
LINE
  5
A5
100
AcDbEntity
  8
M05
100
AcDbLine
 10
341.765534
 20
218.875004
 30
0.0
 11
341.765534
 21
218.155004
 31
0.0
  0
LINE
  5
A6
100
AcDbEntity
  8
M05
100
AcDbLine
 10
329.765534
 20
218.875004
 30
0.0
 11
335.215534
 21
218.875004
 31
0.0
  0
LINE
  5
A7
102
{ACAD_REACTORS
330
20
102
}
100
AcDbEntity
  8
M05
  6
HIDDEN
100
AcDbLine
 10
321.765534
 20
220.313886
 30
0.0
 11
349.765534
 21
220.313886
 31
0.0
  0
LINE
  5
A8
102
{ACAD_REACTORS
330
20
102
}
100
AcDbEntity
  8
M05
  6
HIDDEN
100
AcDbLine
 10
349.765534
 20
220.313886
 30
0.0
 11
349.065534
 21
221.013886
 31
0.0
  0
LINE
  5
A9
102
{ACAD_REACTORS
330
20
102
}
100
AcDbEntity
  8
M05
  6
HIDDEN
100
AcDbLine
 10
349.765534
 20
219.313886
 30
0.0
 11
349.765534
 21
220.313886
 31
0.0
  0
LINE
  5
AA
100
AcDbEntity
  8
M05
100
AcDbLine
 10
349.765534
 20
219.313886
 30
0.0
 11
349.065534
 21
220.013886
 31
0.0
  0
LINE
  5
AB
100
AcDbEntity
  8
M05
100
AcDbLine
 10
349.765534
 20
213.713886
 30
0.0
 11
349.065534
 21
213.013886
 31
0.0
  0
LINE
  5
AC
100
AcDbEntity
  8
M05
100
AcDbLine
 10
349.765534
 20
219.313886
 30
0.0
 11
349.765534
 21
213.713886
 31
0.0
  0
LINE
  5
AD
102
{ACAD_REACTORS
330
20
102
}
100
AcDbEntity
  8
M05
  6
HIDDEN
100
AcDbLine
 10
321.765534
 20
220.313886
 30
0.0
 11
322.465534
 21
221.013886
 31
0.0
  0
LINE
  5
AE
102
{ACAD_REACTORS
330
20
102
}
100
AcDbEntity
  8
M05
  6
HIDDEN
100
AcDbLine
 10
321.765534
 20
219.313886
 30
0.0
 11
321.765534
 21
220.313886
 31
0.0
  0
LINE
  5
AF
100
AcDbEntity
  8
M05
100
AcDbLine
 10
321.765534
 20
219.313886
 30
0.0
 11
322.465534
 21
220.013886
 31
0.0
  0
LINE
  5
B0
100
AcDbEntity
  8
M05
100
AcDbLine
 10
321.765534
 20
213.713886
 30
0.0
 11
322.465534
 21
213.013886
 31
0.0
  0
LINE
  5
B1
102
{ACAD_REACTORS
330
22
102
}
100
AcDbEntity
  8
M02
100
AcDbLine
 10
350.765534
 20
220.013886
 30
0.0
 11
350.765534
 21
217.013886
 31
0.0
  0
LINE
  5
B2
102
{ACAD_REACTORS
330
22
102
}
100
AcDbEntity
  8
M02
100
AcDbLine
 10
320.765534
 20
220.013886
 30
0.0
 11
320.765534
 21
217.013886
 31
0.0
  0
LINE
  5
B3
102
{ACAD_REACTORS
330
20
102
}
100
AcDbEntity
  8
M05
  6
HIDDEN
100
AcDbLine
 10
322.465534
 20
221.013886
 30
0.0
 11
349.065534
 21
221.013886
 31
0.0
  0
LINE
  5
B4
100
AcDbEntity
  8
M05
100
AcDbLine
 10
321.765534
 20
219.313886
 30
0.0
 11
321.765534
 21
213.713886
 31
0.0
  0
LINE
  5
B5
102
{ACAD_REACTORS
330
20
102
}
100
AcDbEntity
  8
CENTRE
100
AcDbLine
 10
335.765534
 20
225.522996
 30
0.0
 11
335.765534
 21
192.444658
 31
0.0
  0
HATCH
  5
B6
100
AcDbEntity
  8
HATCH
100
AcDbHatch
 10
0.0
 20
0.0
 30
0.0
210
0.0
220
0.0
230
1.0
  2
_U
 70
     0
 71
     1
 91
       12
 92
        7
 72
     1
 73
     1
 93
       12
 10
594.2655344179456
 20
251.0138856722444
 42
0.0
 10
594.2655344179455
 20
260.5138856722445
 42
0.0
 10
510.7655344179456
 20
260.5138856722445
 42
-0.4142135623730951
 10
506.7655344179456
 20
264.5138856722445
 42
0.0
 10
506.7655344179456
 20
280.0138856722447
 42
0.0
 10
433.4655344179457
 20
280.0138856722446
 42
0.0
 10
432.7655344179458
 20
279.3138856722445
 42
0.0
 10
432.7655344179458
 20
276.0138856722446
 42
0.0
 10
432.7655344179458
 20
275.0138856722446
 42
0.0
 10
431.7655344179457
 20
275.0138856722446
 42
0.0
 10
423.2655344179456
 20
275.0138856722446
 42
0.0
 10
423.2655344179455
 20
251.0138856722444
 42
0.0
 97
       12
330
17C
330
533
330
336
330
122
330
177
330
176
330
17A
330
535
330
16E
330
170
330
4DD
330
17D
 92
       23
 72
     0
 73
     1
 93
        4
 10
681.7655344179457
 20
268.5138856722445
 10
681.7655344179457
 20
280.0138856722446
 10
514.7655344179456
 20
280.0138856722446
 10
514.7655344179456
 20
268.5138856722445
 97
        4
330
533
330
180
330
4DC
330
4DE
 92
        7
 72
     1
 73
     1
 93
       42
 10
602.2655344179456
 20
260.5138856722445
 42
0.0
 10
602.2655344179456
 20
247.0138856722444
 42
-0.4142135623730951
 10
598.2655344179456
 20
243.0138856722444
 42
0.0
 10
427.2655344179457
 20
243.0138856722444
 42
0.0
 10
427.2655344179455
 20
230.0138856722444
 42
0.0
 10
432.2655344179455
 20
230.0138856722444
 42
0.0
 10
433.2655344179454
 20
230.0138856722444
 42
0.0
 10
433.2655344179455
 20
229.0138856722444
 42
0.0
 10
433.2655344179455
 20
220.5138856722443
 42
0.0
 10
433.7655344179453
 20
220.0138856722447
 42
0.0
 10
446.2655344179457
 20
220.0138856722447
 42
0.0
 10
446.2655344179457
 20
227.3138856722446
 42
0.0
 10
446.2655344179457
 20
229.8138856722445
 42
0.0
 10
446.9655344179456
 20
229.8138856722445
 42
0.0
 10
446.9655344179456
 20
231.3138856722444
 42
0.0
 10
449.2655344179456
 20
232.6417912913806
 42
0.0
 10
451.5655344179457
 20
231.3138856722445
 42
0.0
 10
451.5655344179456
 20
229.8138856722445
 42
0.0
 10
452.2655344179456
 20
229.8138856722444
 42
0.0
 10
452.2655344179456
 20
227.3138856722447
 42
0.0
 10
452.2655344179456
 20
220.0138856722447
 42
0.0
 10
671.7655344179457
 20
220.0138856722446
 42
0.0
 10
671.7655344179457
 20
220.3138856722445
 42
0.0
 10
672.4655344179455
 20
221.0138856722446
 42
0.0
 10
699.0655344179454
 20
221.0138856722446
 42
0.0
 10
699.7655344179456
 20
220.3138856722446
 42
0.0
 10
699.7655344179456
 20
220.0138856722446
 42
0.0
 10
704.7655344179457
 20
220.0138856722446
 42
0.0
 10
704.7655344179457
 20
224.0138856722445
 42
-1.0
 10
712.7655344179457
 20
224.0138856722445
 42
0.0
 10
712.7655344179455
 20
220.0138856722446
 42
0.0
 10
715.7655344179456
 20
220.0138856722446
 42
0.0
 10
717.7655344179457
 20
222.0138856722445
 42
0.0
 10
717.7655344179457
 20
278.0138856722447
 42
0.0
 10
715.7655344179455
 20
280.0138856722446
 42
0.0
 10
712.7655344179457
 20
280.0138856722446
 42
0.0
 10
712.7655344179457
 20
276.0138856722448
 42
-1.0
 10
704.7655344179457
 20
276.0138856722448
 42
0.0
 10
704.7655344179457
 20
280.0138856722446
 42
0.0
 10
689.7655344179455
 20
280.0138856722446
 42
0.0
 10
689.7655344179456
 20
264.5138856722446
 42
-0.4142135623730991
 10
685.7655344179456
 20
260.5138856722445
 42
0.0
 97
       38
330
52D
330
533
330
383
330
384
330
382
330
4DF
330
4E0
330
169
330
171
330
172
330
16F
330
502
330
521
330
51E
330
51D
330
523
330
513
330
4F7
330
3B6
330
3A0
330
3AC
330
3A1
330
3AA
330
3A9
330
3A3
330
3A2
330
3B7
330
39F
330
4E9
330
4E8
330
4EE
330
4E3
330
4E4
330
379
330
37B
330
37A
330
52C
330
530
 92
       23
 72
     0
 73
     1
 93
        4
 10
677.6066524304884
 20
220.3138856722446
 10
685.7655344179455
 20
220.3138856722445
 10
685.7655344179455
 20
221.0138856722446
 10
676.9066524304885
 20
221.0138856722446
 97
        4
330
4EE
330
45D
330
4E2
330
4F0
 92
        7
 72
     0
 73
     1
 93
        4
 10
677.9066524304885
 20
220.0138856722446
 10
685.7655344179455
 20
220.0138856722445
 10
685.7655344179455
 20
220.3138856722446
 10
677.6066524304885
 20
220.3138856722445
 97
        4
330
4E2
330
469
330
39F
330
4F0
 92
        7
 72
     0
 73
     1
 93
        4
 10
671.7655344179455
 20
220.0138856722446
 10
677.9066524304887
 20
220.0138856722445
 10
677.6066524304886
 20
220.3138856722446
 10
671.7655344179457
 20
220.3138856722446
 97
        4
330
4E2
330
4E9
330
39F
330
469
 92
       22
 72
     0
 73
     1
 93
        4
 10
671.7655344179457
 20
220.3138856722446
 10
672.4655344179455
 20
221.0138856722446
 10
676.9066524304884
 20
221.0138856722446
 10
677.6066524304886
 20
220.3138856722446
 97
        4
330
4EE
330
4E8
330
4E2
330
45D
 92
       22
 72
     0
 73
     1
 93
        4
 10
699.0655344179456
 20
221.0138856722446
 10
699.7655344179456
 20
220.3138856722446
 10
693.9244164054026
 20
220.3138856722446
 10
694.6244164054029
 20
221.0138856722446
 97
        4
330
4EE
330
45E
330
4E2
330
4E3
 92
        7
 72
     0
 73
     1
 93
        4
 10
693.6244164054025
 20
220.0138856722445
 10
699.7655344179455
 20
220.0138856722446
 10
699.7655344179458
 20
220.3138856722446
 10
693.9244164054026
 20
220.3138856722446
 97
        4
330
4E2
330
46B
330
39F
330
4E4
 92
       23
 72
     0
 73
     1
 93
        4
 10
685.7655344179455
 20
220.0138856722446
 10
693.6244164054027
 20
220.0138856722446
 10
693.9244164054026
 20
220.3138856722446
 10
685.7655344179456
 20
220.3138856722446
 97
        4
330
4E2
330
4F0
330
39F
330
46B
 92
       23
 72
     0
 73
     1
 93
        4
 10
685.7655344179455
 20
220.3138856722445
 10
693.9244164054026
 20
220.3138856722445
 10
694.6244164054029
 20
221.0138856722446
 10
685.7655344179455
 20
221.0138856722446
 97
        4
330
4EE
330
4F0
330
4E2
330
45E
 92
       24
 93
        4
 72
     1
 10
696.016704
 20
241.254343
 11
710.216704
 21
241.254343
 72
     1
 10
710.216704
 20
241.254343
 11
710.216704
 21
244.254343
 72
     1
 10
710.216704
 20
244.254343
 11
696.016704
 21
244.254343
 72
     1
 10
696.016704
 20
244.254343
 11
696.016704
 21
241.254343
 97
        1
330
419
 75
     0
 76
     0
 52
45.0
 41
6.0
 77
     0
 78
     1
 53
45.0
 43
25.0
 44
0.0
 45
-4.242640687119284
 46
4.242640687119285
 79
     0
 47
0.036271
 98
       11
 10
484.561755
 20
262.283351
 10
538.968033
 20
270.48192
 10
631.923483
 20
246.979358
 10
670.224702
 20
220.646646
 10
670.043275
 20
220.138855
 10
664.818123
 20
220.138855
 10
663.330408
 20
220.429021
 10
684.049578
 20
220.682917
 10
683.25129
 20
220.066314
 10
680.60243
 20
220.102584
 10
680.384716
 20
220.501563
  0
HATCH
  5
B7
100
AcDbEntity
  8
HATCH
100
AcDbHatch
 10
0.0
 20
0.0
 30
0.0
210
0.0
220
0.0
230
1.0
  2
_U
 70
     0
 71
     1
 91
        2
 92
        7
 72
     0
 73
     1
 93
        4
 10
836.4803026726701
 20
401.5105964665645
 10
839.4803026726702
 20
401.5105964665645
 10
839.48030267267
 20
408.2855964665645
 10
836.4803026726701
 20
408.2855964665645
 97
        4
330
BA
330
2D3
330
2DE
330
2E8
 92
        7
 72
     0
 73
     1
 93
        4
 10
839.48030267267
 20
495.5105964665644
 10
836.4803026726701
 20
495.5105964665645
 10
836.4803026726701
 20
454.7355964665643
 10
839.4803026726702
 20
454.7355964665643
 97
        4
330
2DA
330
2E0
330
11C
330
2E8
 75
     0
 76
     0
 52
135.0
 41
0.8
 77
     0
 78
     1
 53
135.0
 43
75.0
 44
0.0
 45
-0.5656854249492382
 46
-0.565685424949238
 79
     0
 47
0.264118
 98
        2
 10
837.540588
 20
405.290964
 10
838.069042
 20
460.227588
  0
TEXT
  5
B8
100
AcDbEntity
  8
TEXT
100
AcDbText
 10
822.53442
 20
449.854716
 30
0.0
 40
2.0
  1
MA010002
 41
0.9
100
AcDbText
  0
LINE
  5
BA
102
{ACAD_REACTORS
330
B7
102
}
100
AcDbEntity
  8
M02
100
AcDbLine
 10
836.480303
 20
408.285596
 30
0.0
 11
839.480303
 21
408.285596
 31
0.0
  0
DIMENSION
  5
BB
100
AcDbEntity
  8
DIMS
100
AcDbDimension
  2
*D13
 10
814.080303
 20
469.051642
 30
0.0
 11
824.778887
 21
469.051642
 31
0.0
 12
-4.714209
 22
-404.770576
 32
0.0
 70
   128
  3
DIM1
100
AcDbAlignedDimension
 13
839.480303
 23
454.735596
 33
0.0
 14
814.080303
 24
453.735596
 34
0.0
100
AcDbRotatedDimension
1001
ACAD
1000
DSTYLE
1002
{
1070
   288
1070
     1
1070
   144
1040
1.0
1002
}
  0
DIMENSION
  5
C9
100
AcDbEntity
  8
DIMS
100
AcDbDimension
  2
*D12
 10
786.685465
 20
454.735596
 30
0.0
 11
786.685465
 21
432.816048
 31
0.0
 12
39.331921
 22
-1.04863
 32
0.0
 70
   128
  1
%%c46.5
  3
DIM1
100
AcDbAlignedDimension
 13
819.657653
 23
408.285596
 33
0.0
 14
819.657653
 24
454.735596
 34
0.0
 50
90.0
100
AcDbRotatedDimension
1001
ACAD
1000
DSTYLE
1002
{
1070
   288
1070
     1
1070
   144
1040
1.0
1002
}
  0
DIMENSION
  5
D6
100
AcDbEntity
  8
DIMS
100
AcDbDimension
  2
*D11
 10
796.726697
 20
409.285596
 30
0.0
 11
796.726697
 21
432.475808
 31
0.0
 12
39.331921
 22
-1.04863
 32
0.0
 70
   128
  1
%%c<> H7
  3
DIM1
100
AcDbAlignedDimension
 13
814.080303
 23
453.735596
 33
0.0
 14
814.080303
 24
409.285596
 34
0.0
 50
90.0
100
AcDbRotatedDimension
1001
ACAD
1000
DSTYLE
1002
{
1070
   288
1070
     1
1070
   144
1040
1.0
1002
}
  0
DIMENSION
  5
E3
100
AcDbEntity
  8
DIMS
100
AcDbDimension
  2
*D10
 10
819.080303
 20
380.078801
 30
0.0
 11
825.780303
 21
380.078801
 31
0.0
 12
39.331921
 22
-1.04863
 32
0.0
 70
   128
  1
13.4
  3
DIM1
100
AcDbAlignedDimension
 13
832.480303
 23
392.510596
 33
0.0
 14
819.080303
 24
409.285596
 34
0.0
100
AcDbRotatedDimension
1001
ACAD
1000
DSTYLE
1002
{
1070
   288
1070
     1
1070
   144
1040
1.0
1002
}
  0
POINT
  5
F0
100
AcDbEntity
  8
DEFPOINTS
  6
BYBLOCK
 62
     0
100
AcDbPoint
 10
839.480303
 20
431.510596
 30
0.0
  0
LINE
  5
F1
100
AcDbEntity
  8
M04
100
AcDbLine
 10
839.480303
 20
421.310596
 30
0.0
 11
840.180303
 21
422.010596
 31
0.0
  0
LINE
  5
F2
100
AcDbEntity
  8
M04
100
AcDbLine
 10
839.480303
 20
441.710596
 30
0.0
 11
840.180303
 21
441.010596
 31
0.0
  0
LINE
  5
F3
100
AcDbEntity
  8
M03
100
AcDbLine
 10
832.080303
 20
433.810596
 30
0.0
 11
844.480303
 21
433.810596
 31
0.0
  0
LINE
  5
F4
100
AcDbEntity
  8
M03
100
AcDbLine
 10
832.080303
 20
429.210596
 30
0.0
 11
844.480303
 21
429.210596
 31
0.0
  0
LINE
  5
F5
100
AcDbEntity
  8
M03
100
AcDbLine
 10
832.080303
 20
428.510596
 30
0.0
 11
844.480303
 21
428.510596
 31
0.0
  0
LINE
  5
F6
100
AcDbEntity
  8
M03
100
AcDbLine
 10
832.080303
 20
434.510596
 30
0.0
 11
844.480303
 21
434.510596
 31
0.0
  0
ARC
  5
F7
100
AcDbEntity
  8
M03
100
AcDbCircle
 10
827.080303
 20
420.010596
 30
0.0
 40
5.0
100
AcDbArc
 50
270.0
 51
0.0
  0
ARC
  5
F8
100
AcDbEntity
  8
M03
100
AcDbCircle
 10
827.080303
 20
443.010596
 30
0.0
 40
5.0
100
AcDbArc
 50
0.0
 51
90.0
  0
LINE
  5
F9
100
AcDbEntity
  8
M03
100
AcDbLine
 10
814.080303
 20
415.010596
 30
0.0
 11
827.080303
 21
415.010596
 31
0.0
  0
LINE
  5
FA
100
AcDbEntity
  8
M03
100
AcDbLine
 10
814.080303
 20
448.010596
 30
0.0
 11
827.080303
 21
448.010596
 31
0.0
  0
LINE
  5
FB
100
AcDbEntity
  8
M03
100
AcDbLine
 10
832.080303
 20
443.010596
 30
0.0
 11
832.080303
 21
420.010596
 31
0.0
  0
LINE
  5
FC
100
AcDbEntity
  8
M05
100
AcDbLine
 10
838.780303
 20
409.785596
 30
0.0
 11
838.780303
 21
453.235596
 31
0.0
  0
LINE
  5
FD
100
AcDbEntity
  8
M05
100
AcDbLine
 10
839.480303
 20
452.535596
 30
0.0
 11
838.780303
 21
453.235596
 31
0.0
  0
LINE
  5
FE
100
AcDbEntity
  8
M05
100
AcDbLine
 10
838.780303
 20
409.785596
 30
0.0
 11
839.480303
 21
410.485596
 31
0.0
  0
LINE
  5
FF
100
AcDbEntity
  8
M05
100
AcDbLine
 10
819.080303
 20
409.785596
 30
0.0
 11
838.780303
 21
409.785596
 31
0.0
  0
LINE
  5
100
100
AcDbEntity
  8
M04
100
AcDbLine
 10
819.657653
 20
408.285596
 30
0.0
 11
819.657653
 21
409.785596
 31
0.0
  0
LINE
  5
101
100
AcDbEntity
  8
M04
100
AcDbLine
 10
819.657653
 20
408.285596
 30
0.0
 11
832.480303
 21
408.285596
 31
0.0
  0
LINE
  5
102
100
AcDbEntity
  8
M04
100
AcDbLine
 10
819.080303
 20
409.285596
 30
0.0
 11
819.657653
 21
408.285596
 31
0.0
  0
LINE
  5
103
100
AcDbEntity
  8
M04
100
AcDbLine
 10
815.080303
 20
409.285596
 30
0.0
 11
814.080303
 21
409.285596
 31
0.0
  0
LINE
  5
104
100
AcDbEntity
  8
M04
100
AcDbLine
 10
814.080303
 20
410.285596
 30
0.0
 11
814.080303
 21
409.285596
 31
0.0
  0
LINE
  5
105
100
AcDbEntity
  8
M05
100
AcDbLine
 10
814.080303
 20
410.285596
 30
0.0
 11
815.080303
 21
409.285596
 31
0.0
  0
LINE
  5
106
100
AcDbEntity
  8
M05
100
AcDbLine
 10
815.080303
 20
409.285596
 30
0.0
 11
819.080303
 21
409.285596
 31
0.0
  0
LINE
  5
107
100
AcDbEntity
  8
M05
100
AcDbLine
 10
819.080303
 20
453.235596
 30
0.0
 11
838.780303
 21
453.235596
 31
0.0
  0
LINE
  5
108
100
AcDbEntity
  8
M04
100
AcDbLine
 10
844.480303
 20
423.010596
 30
0.0
 11
844.480303
 21
422.010596
 31
0.0
  0
LINE
  5
109
100
AcDbEntity
  8
M04
100
AcDbLine
 10
843.480303
 20
422.010596
 30
0.0
 11
844.480303
 21
422.010596
 31
0.0
  0
LINE
  5
10A
100
AcDbEntity
  8
M04
100
AcDbLine
 10
819.657653
 20
454.735596
 30
0.0
 11
819.657653
 21
453.235596
 31
0.0
  0
LINE
  5
10B
100
AcDbEntity
  8
M04
100
AcDbLine
 10
819.657653
 20
454.735596
 30
0.0
 11
832.480303
 21
454.735596
 31
0.0
  0
LINE
  5
10C
100
AcDbEntity
  8
M04
100
AcDbLine
 10
819.080303
 20
453.735596
 30
0.0
 11
819.657653
 21
454.735596
 31
0.0
  0
LINE
  5
10D
100
AcDbEntity
  8
M04
100
AcDbLine
 10
815.080303
 20
453.735596
 30
0.0
 11
814.080303
 21
453.735596
 31
0.0
  0
LINE
  5
10E
100
AcDbEntity
  8
M04
100
AcDbLine
 10
814.080303
 20
452.735596
 30
0.0
 11
814.080303
 21
453.735596
 31
0.0
  0
LINE
  5
10F
100
AcDbEntity
  8
M04
100
AcDbLine
 10
844.480303
 20
440.010596
 30
0.0
 11
844.480303
 21
441.010596
 31
0.0
  0
LINE
  5
110
100
AcDbEntity
  8
M04
100
AcDbLine
 10
843.480303
 20
441.010596
 30
0.0
 11
844.480303
 21
441.010596
 31
0.0
  0
LINE
  5
111
100
AcDbEntity
  8
M05
100
AcDbLine
 10
843.480303
 20
422.010596
 30
0.0
 11
843.480303
 21
441.010596
 31
0.0
  0
LINE
  5
112
100
AcDbEntity
  8
M05
100
AcDbLine
 10
815.080303
 20
409.285596
 30
0.0
 11
815.080303
 21
453.735596
 31
0.0
  0
LINE
  5
113
100
AcDbEntity
  8
M05
100
AcDbLine
 10
844.480303
 20
423.010596
 30
0.0
 11
843.480303
 21
422.010596
 31
0.0
  0
LINE
  5
114
100
AcDbEntity
  8
M05
100
AcDbLine
 10
843.480303
 20
441.010596
 30
0.0
 11
844.480303
 21
440.010596
 31
0.0
  0
LINE
  5
115
100
AcDbEntity
  8
M05
100
AcDbLine
 10
814.080303
 20
452.735596
 30
0.0
 11
815.080303
 21
453.735596
 31
0.0
  0
LINE
  5
116
100
AcDbEntity
  8
M05
100
AcDbLine
 10
815.080303
 20
453.735596
 30
0.0
 11
819.080303
 21
453.735596
 31
0.0
  0
LINE
  5
117
100
AcDbEntity
  8
M05
100
AcDbLine
 10
819.080303
 20
453.735596
 30
0.0
 11
819.080303
 21
409.285596
 31
0.0
  0
LINE
  5
118
100
AcDbEntity
  8
M05
100
AcDbLine
 10
814.080303
 20
452.735596
 30
0.0
 11
814.080303
 21
410.285596
 31
0.0
  0
LINE
  5
119
100
AcDbEntity
  8
M05
100
AcDbLine
 10
839.480303
 20
422.010596
 30
0.0
 11
843.480303
 21
422.010596
 31
0.0
  0
LINE
  5
11A
100
AcDbEntity
  8
M05
100
AcDbLine
 10
839.480303
 20
441.010596
 30
0.0
 11
843.480303
 21
441.010596
 31
0.0
  0
LINE
  5
11B
100
AcDbEntity
  8
M05
100
AcDbLine
 10
844.480303
 20
440.010596
 30
0.0
 11
844.480303
 21
423.010596
 31
0.0
  0
LINE
  5
11C
102
{ACAD_REACTORS
330
B7
102
}
100
AcDbEntity
  8
M02
100
AcDbLine
 10
836.480303
 20
454.735596
 30
0.0
 11
839.480303
 21
454.735596
 31
0.0
  0
HATCH
  5
11D
100
AcDbEntity
  8
HATCH
100
AcDbHatch
 10
0.0
 20
0.0
 30
0.0
210
0.0
220
0.0
230
1.0
  2
_U
 70
     0
 71
     0
 91
       16
 92
        7
 72
     1
 73
     1
 93
        5
 10
423.2655344179456
 20
452.5592260810632
 42
0.0
 10
423.2655344179456
 20
453.0592260810632
 42
-0.1856631955229143
 10
419.5801956733784
 20
454.4765457926017
 42
0.3157147729334966
 10
401.4034525179984
 20
436.5592260810632
 42
0.0
 10
403.6696164756802
 20
436.5592260810632
 42
-0.3563939586925999
 97
        0
 92
       22
 72
     1
 73
     1
 93
        4
 10
423.2655344179456
 20
452.5592260810632
 42
0.3563939586925999
 10
403.6696164756802
 20
436.5592260810632
 42
0.0
 10
414.6486904481386
 20
436.5592260810632
 42
-0.2919418509678903
 10
423.2655344179456
 20
442.0592260810632
 42
0.0
 97
        0
 92
        6
 72
     1
 73
     1
 93
        3
 10
423.2655344179456
 20
442.0592260810632
 42
0.2919418509678903
 10
414.6486904481386
 20
436.5592260810632
 42
0.0
 10
423.2655344179456
 20
436.5592260810632
 42
0.0
 97
        0
 92
        7
 72
     1
 73
     1
 93
        4
 10
423.2655344179456
 20
436.5592260810632
 42
0.0
 10
414.6486904481386
 20
436.5592260810632
 42
0.1090809576248918
 10
413.7655344179457
 20
432.5592260810631
 42
0.0
 10
419.2655344179456
 20
432.5592260810631
 42
-0.4142135623730992
 97
        0
 92
       22
 72
     1
 73
     1
 93
        3
 10
423.2655344179456
 20
436.5592260810632
 42
0.4142135623730992
 10
419.2655344179456
 20
432.5592260810631
 42
0.0
 10
423.2655344179457
 20
432.5592260810631
 42
0.0
 97
        0
 92
        7
 72
     1
 73
     1
 93
        4
 10
414.6486904481386
 20
436.5592260810632
 42
0.0
 10
403.6696164756802
 20
436.5592260810632
 42
0.0503820444848851
 10
403.2655344179456
 20
432.5592260810631
 42
0.0
 10
413.7655344179457
 20
432.5592260810631
 42
-0.1090809576248918
 97
        0
 92
        7
 72
     1
 73
     1
 93
        5
 10
403.6696164756802
 20
436.5592260810632
 42
0.0
 10
401.4034525179984
 20
436.5592260810632
 42
0.003593667114849
 10
401.3482147064072
 20
436.2445648256302
 42
-0.1856631955229133
 10
402.7655344179456
 20
432.5592260810631
 42
0.0
 10
403.2655344179456
 20
432.5592260810631
 42
-0.0503820444848851
 97
        0
 92
        7
 72
     1
 73
     1
 93
        3
 10
401.3482147064072
 20
436.2445648256302
 42
0.0416713391594355
 10
401.0405344179456
 20
432.5592260810631
 42
0.0
 10
402.7655344179456
 20
432.5592260810631
 42
0.1856631955229133
 97
        0
 92
       22
 72
     1
 73
     1
 93
        3
 10
427.2655344179456
 20
432.5592260810631
 42
0.0
 10
423.2655344179457
 20
432.5592260810631
 42
0.0
 10
423.2655344179457
 20
428.5592260810632
 42
0.4142135623730826
 97
        0
 92
        7
 72
     1
 73
     1
 93
        4
 10
432.7655344179456
 20
432.5592260810631
 42
0.0
 10
427.2655344179456
 20
432.5592260810631
 42
-0.4142135623730909
 10
423.2655344179456
 20
428.5592260810632
 42
0.0
 10
431.8823783877527
 20
428.5592260810632
 42
0.1090809576248888
 97
        0
 92
        6
 72
     1
 73
     1
 93
        3
 10
431.8823783877527
 20
428.5592260810632
 42
0.0
 10
423.2655344179456
 20
428.5592260810631
 42
0.0
 10
423.2655344179456
 20
423.0592260810632
 42
0.2919418509678903
 97
        0
 92
       22
 72
     1
 73
     1
 93
        4
 10
442.861452360211
 20
428.5592260810632
 42
0.0
 10
431.8823783877527
 20
428.5592260810632
 42
-0.2919418509678903
 10
423.2655344179456
 20
423.0592260810632
 42
0.0
 10
423.2655344179456
 20
412.5592260810632
 42
0.3563939586925999
 97
        0
 92
        7
 72
     1
 73
     1
 93
        4
 10
443.2655344179456
 20
432.5592260810631
 42
0.0
 10
432.7655344179456
 20
432.5592260810631
 42
-0.1090809576248888
 10
431.8823783877527
 20
428.5592260810632
 42
0.0
 10
442.861452360211
 20
428.5592260810632
 42
0.0503820444848837
 97
        0
 92
        7
 72
     1
 73
     1
 93
        5
 10
443.7655344179456
 20
432.5592260810631
 42
0.0
 10
443.2655344179456
 20
432.5592260810631
 42
-0.0503820444848837
 10
442.861452360211
 20
428.5592260810632
 42
0.0
 10
445.1276163178929
 20
428.5592260810632
 42
0.003593667114849
 10
445.182854129484
 20
428.8738873364962
 42
-0.185663195522908
 97
        0
 92
        7
 72
     1
 73
     1
 93
        3
 10
445.4905344179457
 20
432.5592260810631
 42
0.0
 10
443.7655344179456
 20
432.5592260810631
 42
0.185663195522908
 10
445.182854129484
 20
428.8738873364962
 42
0.0416713391594342
 97
        0
 92
        7
 72
     1
 73
     1
 93
        4
 10
445.1276163178929
 20
428.5592260810632
 42
0.0
 10
442.861452360211
 20
428.5592260810632
 42
-0.3563939586925999
 10
423.2655344179456
 20
412.5592260810632
 42
0.0
 10
423.2655344179456
 20
410.3342260810632
 42
0.3621506593782504
 97
        0
 75
     0
 76
     0
 52
45.0
 41
2.0
 77
     1
 78
     2
 53
45.0
 43
-132.181706
 44
0.0
 45
-1.414213562373094
 46
1.414213562373095
 79
     0
 53
135.0
 43
-132.181706
 44
0.0
 45
-1.414213562373095
 46
-1.414213562373094
 79
     0
 47
0.113412
 98
       16
 10
410.94938
 20
449.879146
 10
412.651255
 20
446.023152
 10
420.82026
 20
439.672104
 10
417.756882
 20
435.022228
 10
421.954844
 20
434.681993
 10
410.722463
 20
434.568582
 10
402.666917
 20
435.929521
 10
402.099626
 20
433.888112
 10
425.585513
 20
430.485764
 10
429.556555
 20
430.599175
 10
426.266263
 20
426.176123
 10
433.300683
 20
424.47495
 10
437.04481
 20
430.258941
 10
443.625397
 20
429.691883
 10
445.100356
 20
430.939411
 10
443.738856
 20
424.928596
  0
CIRCLE
  5
11E
100
AcDbEntity
  8
M03
100
AcDbCircle
 10
423.265534
 20
432.559226
 30
0.0
 40
20.0
  0
CIRCLE
  5
11F
100
AcDbEntity
  8
M01
100
AcDbCircle
 10
423.265534
 20
432.559226
 30
0.0
 40
22.225
  0
CIRCLE
  5
120
100
AcDbEntity
  8
M03
100
AcDbCircle
 10
423.265534
 20
432.559226
 30
0.0
 40
9.5
  0
LINE
  5
121
102
{ACAD_REACTORS
330
20
102
}
100
AcDbEntity
  8
M05
100
AcDbLine
 10
413.765534
 20
280.013886
 30
0.0
 11
413.765534
 21
276.013886
 31
0.0
  0
LINE
  5
122
102
{ACAD_REACTORS
330
B6
102
}
100
AcDbEntity
  8
M05
100
AcDbLine
 10
432.765534
 20
280.013886
 30
0.0
 11
432.765534
 21
276.013886
 31
0.0
  0
TEXT
  5
123
100
AcDbEntity
  8
TEXT
100
AcDbText
 10
428.976908
 20
282.734612
 30
0.0
 40
2.0
  1
MA010002
 41
0.9
100
AcDbText
  0
LINE
  5
124
102
{ACAD_REACTORS
330
21
102
}
100
AcDbEntity
  8
M02
100
AcDbLine
 10
400.040534
 20
283.013886
 30
0.0
 11
400.040534
 21
280.013886
 31
0.0
  0
LINE
  5
125
100
AcDbEntity
  8
M03
100
AcDbLine
 10
425.565534
 20
287.413886
 30
0.0
 11
425.565534
 21
275.013886
 31
0.0
  0
LINE
  5
126
100
AcDbEntity
  8
M03
100
AcDbLine
 10
420.965534
 20
287.413886
 30
0.0
 11
420.965534
 21
275.013886
 31
0.0
  0
LINE
  5
127
100
AcDbEntity
  8
M03
100
AcDbLine
 10
420.265534
 20
287.413886
 30
0.0
 11
420.265534
 21
275.013886
 31
0.0
  0
LINE
  5
128
100
AcDbEntity
  8
M03
100
AcDbLine
 10
426.265534
 20
287.413886
 30
0.0
 11
426.265534
 21
275.013886
 31
0.0
  0
ARC
  5
129
100
AcDbEntity
  8
M03
100
AcDbCircle
 10
411.765534
 20
292.413886
 30
0.0
 40
5.0
100
AcDbArc
 50
180.0
 51
270.0
  0
ARC
  5
12A
100
AcDbEntity
  8
M03
100
AcDbCircle
 10
434.765534
 20
292.413886
 30
0.0
 40
5.0
100
AcDbArc
 50
270.0
 51
0.0
  0
LINE
  5
12B
100
AcDbEntity
  8
M03
100
AcDbLine
 10
406.765534
 20
305.413886
 30
0.0
 11
406.765534
 21
292.413886
 31
0.0
  0
LINE
  5
12C
100
AcDbEntity
  8
M03
100
AcDbLine
 10
439.765534
 20
305.413886
 30
0.0
 11
439.765534
 21
292.413886
 31
0.0
  0
LINE
  5
12D
100
AcDbEntity
  8
M03
100
AcDbLine
 10
434.765534
 20
287.413886
 30
0.0
 11
411.765534
 21
287.413886
 31
0.0
  0
LINE
  5
12E
100
AcDbEntity
  8
M05
100
AcDbLine
 10
401.540534
 20
280.713886
 30
0.0
 11
444.990534
 21
280.713886
 31
0.0
  0
LINE
  5
12F
100
AcDbEntity
  8
M05
100
AcDbLine
 10
444.290534
 20
280.013886
 30
0.0
 11
444.990534
 21
280.713886
 31
0.0
  0
LINE
  5
130
100
AcDbEntity
  8
M05
100
AcDbLine
 10
401.540534
 20
280.713886
 30
0.0
 11
402.240534
 21
280.013886
 31
0.0
  0
LINE
  5
131
100
AcDbEntity
  8
M05
100
AcDbLine
 10
401.540534
 20
300.413886
 30
0.0
 11
401.540534
 21
280.713886
 31
0.0
  0
LINE
  5
132
100
AcDbEntity
  8
M04
100
AcDbLine
 10
400.040534
 20
299.836535
 30
0.0
 11
401.540534
 21
299.836535
 31
0.0
  0
LINE
  5
133
100
AcDbEntity
  8
M04
100
AcDbLine
 10
400.040534
 20
299.836535
 30
0.0
 11
400.040534
 21
287.013886
 31
0.0
  0
LINE
  5
134
100
AcDbEntity
  8
M04
100
AcDbLine
 10
401.040534
 20
300.413886
 30
0.0
 11
400.040534
 21
299.836535
 31
0.0
  0
LINE
  5
135
100
AcDbEntity
  8
M04
100
AcDbLine
 10
401.040534
 20
304.413886
 30
0.0
 11
401.040534
 21
305.413886
 31
0.0
  0
LINE
  5
136
100
AcDbEntity
  8
M04
100
AcDbLine
 10
402.040534
 20
305.413886
 30
0.0
 11
401.040534
 21
305.413886
 31
0.0
  0
LINE
  5
137
100
AcDbEntity
  8
M05
100
AcDbLine
 10
402.040534
 20
305.413886
 30
0.0
 11
401.040534
 21
304.413886
 31
0.0
  0
LINE
  5
138
100
AcDbEntity
  8
M05
100
AcDbLine
 10
401.040534
 20
304.413886
 30
0.0
 11
401.040534
 21
300.413886
 31
0.0
  0
LINE
  5
139
100
AcDbEntity
  8
M05
100
AcDbLine
 10
444.990534
 20
300.413886
 30
0.0
 11
444.990534
 21
280.713886
 31
0.0
  0
LINE
  5
13A
100
AcDbEntity
  8
M04
100
AcDbLine
 10
446.490534
 20
299.836535
 30
0.0
 11
444.990534
 21
299.836535
 31
0.0
  0
LINE
  5
13B
100
AcDbEntity
  8
M04
100
AcDbLine
 10
446.490534
 20
299.836535
 30
0.0
 11
446.490534
 21
287.013886
 31
0.0
  0
LINE
  5
13C
100
AcDbEntity
  8
M04
100
AcDbLine
 10
445.490534
 20
300.413886
 30
0.0
 11
446.490534
 21
299.836535
 31
0.0
  0
LINE
  5
13D
100
AcDbEntity
  8
M04
100
AcDbLine
 10
445.490534
 20
304.413886
 30
0.0
 11
445.490534
 21
305.413886
 31
0.0
  0
LINE
  5
13E
100
AcDbEntity
  8
M04
100
AcDbLine
 10
444.490534
 20
305.413886
 30
0.0
 11
445.490534
 21
305.413886
 31
0.0
  0
LINE
  5
13F
100
AcDbEntity
  8
M05
100
AcDbLine
 10
413.765534
 20
276.013886
 30
0.0
 11
432.765534
 21
276.013886
 31
0.0
  0
LINE
  5
140
100
AcDbEntity
  8
M05
100
AcDbLine
 10
401.040534
 20
304.413886
 30
0.0
 11
445.490534
 21
304.413886
 31
0.0
  0
LINE
  5
141
100
AcDbEntity
  8
M05
100
AcDbLine
 10
444.490534
 20
305.413886
 30
0.0
 11
445.490534
 21
304.413886
 31
0.0
  0
LINE
  5
142
100
AcDbEntity
  8
M05
100
AcDbLine
 10
445.490534
 20
304.413886
 30
0.0
 11
445.490534
 21
300.413886
 31
0.0
  0
LINE
  5
143
100
AcDbEntity
  8
M05
100
AcDbLine
 10
445.490534
 20
300.413886
 30
0.0
 11
401.040534
 21
300.413886
 31
0.0
  0
LINE
  5
144
100
AcDbEntity
  8
M05
100
AcDbLine
 10
444.490534
 20
305.413886
 30
0.0
 11
402.040534
 21
305.413886
 31
0.0
  0
LINE
  5
145
100
AcDbEntity
  8
M02
100
AcDbLine
 10
446.490534
 20
283.013886
 30
0.0
 11
446.490534
 21
280.013886
 31
0.0
  0
LINE
  5
146
100
AcDbEntity
  8
M03
100
AcDbLine
 10
854.980303
 20
427.510596
 30
0.0
 11
872.480303
 21
427.510596
 31
0.0
  0
LINE
  5
147
100
AcDbEntity
  8
M03
100
AcDbLine
 10
854.980303
 20
435.510596
 30
0.0
 11
872.480303
 21
435.510596
 31
0.0
  0
HATCH
  5
148
100
AcDbEntity
  8
HATCH
100
AcDbHatch
 10
0.0
 20
0.0
 30
0.0
210
0.0
220
0.0
230
1.0
  2
_U
 70
     0
 71
     0
 91
        5
 92
        7
 72
     1
 73
     1
 93
       31
 10
845.48030267267
 20
495.5105964665644
 42
0.0
 10
839.48030267267
 20
495.5105964665644
 42
0.0
 10
839.4803026726702
 20
441.0105964665644
 42
0.0
 10
843.4803026726701
 20
441.0105964665644
 42
0.0
 10
844.4803026726701
 20
441.0105964665644
 42
0.0
 10
844.4803026726701
 20
440.0105964665645
 42
0.0
 10
844.4803026726701
 20
431.5105964665645
 42
0.0
 10
850.9803026726698
 20
431.5105964665645
 42
-1.0
 10
858.9803026726698
 20
431.5105964665645
 42
0.0
 10
868.4803026726699
 20
431.5105964665645
 42
-0.4142135623730951
 10
872.48030267267
 20
435.5105964665645
 42
0.0
 10
889.48030267267
 20
435.5105964665645
 42
0.0
 10
889.48030267267
 20
440.5105964665644
 42
0.0
 10
889.48030267267
 20
441.5105964665642
 42
0.0
 10
890.48030267267
 20
441.5105964665643
 42
0.0
 10
898.9803026726702
 20
441.5105964665643
 42
0.0
 10
899.48030267267
 20
442.0105964665644
 42
0.0
 10
899.48030267267
 20
454.5105964665646
 42
0.0
 10
892.1803026726699
 20
454.5105964665646
 42
0.0
 10
889.6803026726701
 20
454.5105964665645
 42
0.0
 10
889.6803026726699
 20
455.2105964665646
 42
0.0
 10
888.18030267267
 20
455.2105964665646
 42
0.0
 10
886.852397053534
 20
457.5105964665645
 42
0.0
 10
888.18030267267
 20
459.8105964665646
 42
0.0
 10
889.6803026726699
 20
459.8105964665647
 42
0.0
 10
889.6803026726699
 20
460.5105964665646
 42
0.0
 10
892.1803026726697
 20
460.5105964665646
 42
0.0
 10
899.4803026726703
 20
460.5105964665646
 42
0.0
 10
899.48030267267
 20
505.5105964665645
 42
0.0
 10
897.48030267267
 20
507.5105964665645
 42
0.0
 10
845.48030267267
 20
507.5105964665645
 42
0.0
 97
        0
 92
       22
 72
     1
 73
     1
 93
        2
 10
858.9803026726698
 20
431.5105964665645
 42
1.0
 10
850.9803026726698
 20
431.5105964665645
 42
0.0
 97
        0
 92
       22
 72
     1
 73
     1
 93
        2
 10
858.9803026726698
 20
431.5105964665645
 42
0.0
 10
850.9803026726698
 20
431.5105964665645
 42
1.0
 97
        0
 92
        7
 72
     1
 73
     1
 93
       29
 10
850.9803026726698
 20
431.5105964665645
 42
0.0
 10
844.4803026726701
 20
431.5105964665644
 42
0.0
 10
844.4803026726701
 20
423.0105964665645
 42
0.0
 10
844.4803026726701
 20
422.0105964665645
 42
0.0
 10
843.4803026726701
 20
422.0105964665645
 42
0.0
 10
839.4803026726702
 20
422.0105964665645
 42
0.0
 10
839.4803026726702
 20
412.5105964665644
 42
0.0
 10
843.4803026726699
 20
412.5105964665644
 42
-0.4142135623730951
 10
847.48030267267
 20
408.5105964665644
 42
-0.4142135623730951
 10
843.4803026726699
 20
404.5105964665644
 42
0.0
 10
839.4803026726702
 20
404.5105964665644
 42
0.0
 10
839.4803026726702
 20
401.5105964665642
 42
0.0
 10
841.4803026726701
 20
399.5105964665644
 42
0.0
 10
897.4803026726698
 20
399.5105964665644
 42
0.0
 10
899.4803026726701
 20
401.5105964665646
 42
0.0
 10
899.48030267267
 20
404.5105964665644
 42
0.0
 10
895.4803026726699
 20
404.5105964665644
 42
-0.4142135623730951
 10
891.4803026726699
 20
408.5105964665644
 42
-0.4142135623730951
 10
895.4803026726699
 20
412.5105964665644
 42
0.0
 10
899.48030267267
 20
412.5105964665644
 42
0.0
 10
899.48030267267
 20
421.0105964665643
 42
0.0
 10
898.9803026726702
 20
421.5105964665644
 42
0.0
 10
890.48030267267
 20
421.5105964665644
 42
0.0
 10
889.48030267267
 20
421.5105964665647
 42
0.0
 10
889.48030267267
 20
422.5105964665646
 42
0.0
 10
889.48030267267
 20
427.5105964665645
 42
0.0
 10
872.48030267267
 20
427.5105964665645
 42
-0.4142135623730951
 10
868.4803026726699
 20
431.5105964665645
 42
0.0
 10
858.9803026726698
 20
431.5105964665645
 42
-1.0
 97
        0
 92
       24
 93
        4
 72
     1
 10
854.558796
 20
414.354164
 11
869.101653
 21
414.354164
 72
     1
 10
869.101653
 20
414.354164
 11
869.101653
 21
417.354164
 72
     1
 10
869.101653
 20
417.354164
 11
854.558796
 21
417.354164
 72
     1
 10
854.558796
 20
417.354164
 11
854.558796
 21
414.354164
 97
        0
 75
     0
 76
     0
 52
45.0
 41
6.0
 77
     0
 78
     1
 53
45.0
 43
166.268324
 44
-1.04863
 45
-4.242640687119284
 46
4.242640687119285
 79
     0
 47
0.212243
 98
        4
 10
864.644424
 20
479.233963
 10
853.390891
 20
433.177182
 10
857.637508
 20
430.205779
 10
861.034802
 20
424.475212
  0
LINE
  5
149
100
AcDbEntity
  8
CENTRE
100
AcDbLine
 10
606.265534
 20
247.013886
 30
0.0
 11
240.265534
 21
247.013886
 31
0.0
  0
HATCH
  5
14A
100
AcDbEntity
  8
HATCH
100
AcDbHatch
 10
0.0
 20
0.0
 30
0.0
210
0.0
220
0.0
230
1.0
  2
_U
 70
     0
 71
     1
 91
        2
 92
        7
 72
     1
 73
     1
 93
        2
 10
704.7655344179457
 20
276.0138856722448
 42
1.0
 10
712.7655344179457
 20
276.0138856722448
 42
1.0
 97
        1
330
384
 92
        7
 72
     1
 73
     1
 93
        2
 10
704.7655344179457
 20
224.0138856722445
 42
1.0
 10
712.7655344179457
 20
224.0138856722445
 42
1.0
 97
        1
330
37B
 75
     0
 76
     0
 52
45.0
 41
0.8
 77
     0
 78
     1
 53
45.0
 43
175.0
 44
0.0
 45
-0.565685424949238
 46
0.565685424949238
 79
     0
 47
0.270666
 98
        2
 10
707.772507
 20
277.269966
 10
709.938727
 20
225.843466
  0
LINE
  5
14B
102
{ACAD_REACTORS
330
20
102
}
100
AcDbEntity
  8
M01
100
AcDbLine
 10
244.265534
 20
260.513886
 30
0.0
 11
160.765534
 21
260.513886
 31
0.0
  0
LINE
  5
14C
100
AcDbEntity
  8
M01
100
AcDbLine
 10
248.265534
 20
264.513886
 30
0.0
 11
244.265534
 21
260.513886
 31
0.0
  0
LINE
  5
14D
100
AcDbEntity
  8
M01
100
AcDbLine
 10
252.265534
 20
260.513886
 30
0.0
 11
248.265534
 21
264.513886
 31
0.0
  0
LINE
  5
14E
100
AcDbEntity
  8
CENTRE
100
AcDbLine
 10
248.265534
 20
238.897127
 30
0.0
 11
248.265534
 21
270.862183
 31
0.0
  0
LINE
  5
14F
100
AcDbEntity
  8
M01
100
AcDbLine
 10
252.265534
 20
251.013886
 30
0.0
 11
248.265534
 21
247.013886
 31
0.0
  0
LINE
  5
150
102
{ACAD_REACTORS
330
20
102
}
100
AcDbEntity
  8
M01
100
AcDbLine
 10
419.265534
 20
243.013886
 30
0.0
 11
248.265534
 21
243.013886
 31
0.0
  0
LINE
  5
151
102
{ACAD_REACTORS
330
20
102
}
100
AcDbEntity
  8
M01
100
AcDbLine
 10
252.265534
 20
251.013886
 30
0.0
 11
252.265534
 21
260.513886
 31
0.0
  0
LINE
  5
152
102
{ACAD_REACTORS
330
20
102
}
100
AcDbEntity
  8
M01
100
AcDbLine
 10
244.265534
 20
247.013886
 30
0.0
 11
244.265534
 21
260.513886
 31
0.0
  0
ARC
  5
153
102
{ACAD_REACTORS
330
20
102
}
100
AcDbEntity
  8
M01
100
AcDbCircle
 10
248.265534
 20
247.013886
 30
0.0
 40
4.0
100
AcDbArc
 50
180.0
 51
270.0
  0
LINE
  5
154
102
{ACAD_REACTORS
330
21
102
}
100
AcDbEntity
  8
M02
100
AcDbLine
 10
353.765534
 20
280.013886
 30
0.0
 11
353.765534
 21
283.013886
 31
0.0
  0
LINE
  5
155
100
AcDbEntity
  8
M01
100
AcDbLine
 10
331.765534
 20
268.513886
 30
0.0
 11
335.765534
 21
264.513886
 31
0.0
  0
LINE
  5
156
102
{ACAD_REACTORS
330
20
102
}
100
AcDbEntity
  8
M01
100
AcDbLine
 10
339.765534
 20
264.513886
 30
0.0
 11
339.765534
 21
280.013886
 31
0.0
  0
ARC
  5
157
102
{ACAD_REACTORS
330
20
102
}
100
AcDbEntity
  8
M01
100
AcDbCircle
 10
335.765534
 20
264.513886
 30
0.0
 40
4.0
100
AcDbArc
 50
270.0
 51
0.0
  0
LINE
  5
158
102
{ACAD_REACTORS
330
21
102
}
100
AcDbEntity
  8
M02
100
AcDbLine
 10
317.765534
 20
280.013886
 30
0.0
 11
317.765534
 21
283.013886
 31
0.0
  0
LINE
  5
159
100
AcDbEntity
  8
CENTRE
100
AcDbLine
 10
335.765534
 20
256.397127
 30
0.0
 11
335.765534
 21
290.362183
 31
0.0
  0
LINE
  5
15A
102
{ACAD_REACTORS
330
20
102
}
100
AcDbEntity
  8
M01
100
AcDbLine
 10
331.765534
 20
268.513886
 30
0.0
 11
331.765534
 21
280.013886
 31
0.0
  0
LINE
  5
15B
102
{ACAD_REACTORS
330
21
102
}
100
AcDbEntity
  8
M02
100
AcDbLine
 10
178.765534
 20
280.013886
 30
0.0
 11
178.765534
 21
283.013886
 31
0.0
  0
LINE
  5
15C
102
{ACAD_REACTORS
330
21
102
}
100
AcDbEntity
  8
M02
100
AcDbLine
 10
142.765534
 20
280.013886
 30
0.0
 11
142.765534
 21
283.013886
 31
0.0
  0
LINE
  5
15D
100
AcDbEntity
  8
CENTRE
100
AcDbLine
 10
343.765534
 20
264.513886
 30
0.0
 11
152.765534
 21
264.513886
 31
0.0
  0
LINE
  5
15E
100
AcDbEntity
  8
CENTRE
100
AcDbLine
 10
160.765534
 20
256.397127
 30
0.0
 11
160.765534
 21
290.362183
 31
0.0
  0
LINE
  5
15F
100
AcDbEntity
  8
M01
100
AcDbLine
 10
164.765534
 20
268.513886
 30
0.0
 11
160.765534
 21
264.513886
 31
0.0
  0
LINE
  5
160
102
{ACAD_REACTORS
330
20
102
}
100
AcDbEntity
  8
M01
100
AcDbLine
 10
331.765534
 20
268.513886
 30
0.0
 11
164.765534
 21
268.513886
 31
0.0
  0
LINE
  5
161
102
{ACAD_REACTORS
330
20
102
}
100
AcDbEntity
  8
M01
100
AcDbLine
 10
335.765534
 20
260.513886
 30
0.0
 11
252.265534
 21
260.513886
 31
0.0
  0
LINE
  5
162
102
{ACAD_REACTORS
330
20
102
}
100
AcDbEntity
  8
M01
100
AcDbLine
 10
164.765534
 20
268.513886
 30
0.0
 11
164.765534
 21
280.013886
 31
0.0
  0
LINE
  5
163
102
{ACAD_REACTORS
330
20
102
}
100
AcDbEntity
  8
M01
100
AcDbLine
 10
156.765534
 20
264.513886
 30
0.0
 11
156.765534
 21
280.013886
 31
0.0
  0
ARC
  5
164
102
{ACAD_REACTORS
330
20
102
}
100
AcDbEntity
  8
M01
100
AcDbCircle
 10
160.765534
 20
264.513886
 30
0.0
 40
4.0
100
AcDbArc
 50
180.0
 51
270.0
  0
LINE
  5
165
100
AcDbEntity
  8
DIMS
 62
     4
100
AcDbLine
 10
854.980303
 20
434.910596
 30
0.0
 11
854.980303
 21
437.210596
 31
0.0
  0
LINE
  5
166
100
AcDbEntity
  8
DIMS
 62
     4
100
AcDbLine
 10
854.980303
 20
428.110596
 30
0.0
 11
854.980303
 21
425.810596
 31
0.0
  0
LINE
  5
167
100
AcDbEntity
  8
DIMS
 62
     4
100
AcDbLine
 10
854.980303
 20
429.810596
 30
0.0
 11
854.980303
 21
433.210596
 31
0.0
  0
CIRCLE
  5
168
100
AcDbEntity
  8
M03
100
AcDbCircle
 10
854.980303
 20
431.510596
 30
0.0
 40
4.0
  0
LINE
  5
169
102
{ACAD_REACTORS
330
B6
102
}
100
AcDbEntity
  8
M01
100
AcDbLine
 10
602.265534
 20
260.513886
 30
0.0
 11
685.765534
 21
260.513886
 31
0.0
  0
LINE
  5
16A
100
AcDbEntity
  8
M01
100
AcDbLine
 10
598.265534
 20
264.513886
 30
0.0
 11
602.265534
 21
260.513886
 31
0.0
  0
LINE
  5
16B
100
AcDbEntity
  8
M01
100
AcDbLine
 10
594.265534
 20
260.513886
 30
0.0
 11
598.265534
 21
264.513886
 31
0.0
  0
LINE
  5
16C
100
AcDbEntity
  8
CENTRE
100
AcDbLine
 10
598.265534
 20
238.897127
 30
0.0
 11
598.265534
 21
270.862183
 31
0.0
  0
LINE
  5
16D
100
AcDbEntity
  8
M01
100
AcDbLine
 10
594.265534
 20
251.013886
 30
0.0
 11
598.265534
 21
247.013886
 31
0.0
  0
LINE
  5
16E
102
{ACAD_REACTORS
330
B6
330
20
102
}
100
AcDbEntity
  8
M01
100
AcDbLine
 10
252.265534
 20
251.013886
 30
0.0
 11
594.265534
 21
251.013886
 31
0.0
  0
LINE
  5
16F
102
{ACAD_REACTORS
330
B6
102
}
100
AcDbEntity
  8
M01
100
AcDbLine
 10
427.265534
 20
243.013886
 30
0.0
 11
598.265534
 21
243.013886
 31
0.0
  0
LINE
  5
170
102
{ACAD_REACTORS
330
B6
102
}
100
AcDbEntity
  8
M01
100
AcDbLine
 10
594.265534
 20
251.013886
 30
0.0
 11
594.265534
 21
260.513886
 31
0.0
  0
LINE
  5
171
102
{ACAD_REACTORS
330
B6
102
}
100
AcDbEntity
  8
M01
100
AcDbLine
 10
602.265534
 20
247.013886
 30
0.0
 11
602.265534
 21
260.513886
 31
0.0
  0
ARC
  5
172
102
{ACAD_REACTORS
330
B6
102
}
100
AcDbEntity
  8
M01
100
AcDbCircle
 10
598.265534
 20
247.013886
 30
0.0
 40
4.0
100
AcDbArc
 50
270.0
 51
0.0
  0
LINE
  5
173
100
AcDbEntity
  8
M02
100
AcDbLine
 10
492.765534
 20
280.013886
 30
0.0
 11
492.765534
 21
283.013886
 31
0.0
  0
LINE
  5
174
102
{ACAD_REACTORS
330
20
102
}
100
AcDbEntity
  8
M04
100
AcDbLine
 10
414.765534
 20
275.013886
 30
0.0
 11
413.765534
 21
275.013886
 31
0.0
  0
LINE
  5
175
102
{ACAD_REACTORS
330
20
102
}
100
AcDbEntity
  8
M04
100
AcDbLine
 10
413.765534
 20
276.013886
 30
0.0
 11
413.765534
 21
275.013886
 31
0.0
  0
LINE
  5
176
102
{ACAD_REACTORS
330
B6
102
}
100
AcDbEntity
  8
M04
100
AcDbLine
 10
431.765534
 20
275.013886
 30
0.0
 11
432.765534
 21
275.013886
 31
0.0
  0
LINE
  5
177
102
{ACAD_REACTORS
330
B6
102
}
100
AcDbEntity
  8
M04
100
AcDbLine
 10
432.765534
 20
276.013886
 30
0.0
 11
432.765534
 21
275.013886
 31
0.0
  0
LINE
  5
178
100
AcDbEntity
  8
M05
100
AcDbLine
 10
414.765534
 20
275.013886
 30
0.0
 11
413.765534
 21
276.013886
 31
0.0
  0
LINE
  5
179
100
AcDbEntity
  8
M05
100
AcDbLine
 10
432.765534
 20
276.013886
 30
0.0
 11
431.765534
 21
275.013886
 31
0.0
  0
LINE
  5
17A
102
{ACAD_REACTORS
330
B6
330
20
102
}
100
AcDbEntity
  8
M05
100
AcDbLine
 10
431.765534
 20
275.013886
 30
0.0
 11
414.765534
 21
275.013886
 31
0.0
  0
LINE
  5
17B
100
AcDbEntity
  8
M01
100
AcDbLine
 10
514.765534
 20
268.513886
 30
0.0
 11
510.765534
 21
264.513886
 31
0.0
  0
LINE
  5
17C
102
{ACAD_REACTORS
330
B6
102
}
100
AcDbEntity
  8
M01
100
AcDbLine
 10
506.765534
 20
264.513886
 30
0.0
 11
506.765534
 21
280.013886
 31
0.0
  0
ARC
  5
17D
102
{ACAD_REACTORS
330
B6
102
}
100
AcDbEntity
  8
M01
100
AcDbCircle
 10
510.765534
 20
264.513886
 30
0.0
 40
4.0
100
AcDbArc
 50
180.0
 51
270.0
  0
LINE
  5
17E
100
AcDbEntity
  8
M02
100
AcDbLine
 10
528.765534
 20
280.013886
 30
0.0
 11
528.765534
 21
283.013886
 31
0.0
  0
LINE
  5
17F
100
AcDbEntity
  8
CENTRE
100
AcDbLine
 10
510.765534
 20
256.397127
 30
0.0
 11
510.765534
 21
290.362183
 31
0.0
  0
LINE
  5
180
102
{ACAD_REACTORS
330
B6
102
}
100
AcDbEntity
  8
M01
100
AcDbLine
 10
514.765534
 20
268.513886
 30
0.0
 11
514.765534
 21
280.013886
 31
0.0
  0
LINE
  5
181
100
AcDbEntity
  8
M01
100
AcDbLine
 10
893.468314
 20
565.746264
 30
0.0
 11
895.448023
 21
566.952993
 31
0.0
  0
LINE
  5
182
100
AcDbEntity
  8
M01
100
AcDbLine
 10
901.202282
 20
577.199491
 30
0.0
 11
901.202282
 21
585.774303
 31
0.0
  0
LINE
  5
183
100
AcDbEntity
  8
M01
100
AcDbLine
 10
897.202282
 20
577.199491
 30
0.0
 11
897.202282
 21
585.774303
 31
0.0
  0
ARC
  5
184
100
AcDbEntity
  8
M01
100
AcDbCircle
 10
889.202282
 20
577.199491
 30
0.0
 40
12.0
100
AcDbArc
 50
301.364349
 51
0.0
  0
ARC
  5
185
100
AcDbEntity
  8
M01
100
AcDbCircle
 10
889.202282
 20
577.199491
 30
0.0
 40
8.0
100
AcDbArc
 50
308.846454
 51
0.0
  0
LINE
  5
186
100
AcDbEntity
  8
M01
100
AcDbLine
 10
879.836954
 20
562.121811
 30
0.0
 11
890.064366
 21
568.355919
 31
0.0
  0
LINE
  5
187
100
AcDbEntity
  8
M01
100
AcDbLine
 10
881.918867
 20
558.706312
 30
0.0
 11
882.2424
 21
558.903521
 31
0.0
  0
LINE
  5
188
100
AcDbEntity
  8
M01
100
AcDbLine
 10
880.480303
 20
551.703904
 30
0.0
 11
880.480303
 21
551.110596
 31
0.0
  0
LINE
  5
189
100
AcDbEntity
  8
M01
100
AcDbLine
 10
876.480303
 20
556.144688
 30
0.0
 11
876.480303
 21
553.418844
 31
0.0
  0
ARC
  5
18A
100
AcDbEntity
  8
M01
100
AcDbCircle
 10
883.480303
 20
556.144688
 30
0.0
 40
3.0
100
AcDbArc
 50
121.364349
 51
151.672691
  0
ARC
  5
18B
100
AcDbEntity
  8
M01
100
AcDbCircle
 10
883.480303
 20
556.144688
 30
0.0
 40
7.0
100
AcDbArc
 50
121.364349
 51
180.0
  0
ARC
  5
18C
100
AcDbEntity
  8
M01
100
AcDbCircle
 10
883.480303
 20
551.110596
 30
0.0
 40
7.0
100
AcDbArc
 50
202.678679
 51
270.0
  0
ARC
  5
18D
100
AcDbEntity
  8
M01
100
AcDbCircle
 10
883.480303
 20
551.110596
 30
0.0
 40
3.0
100
AcDbArc
 50
180.0
 51
270.0
  0
ARC
  5
18E
100
AcDbEntity
  8
M01
100
AcDbCircle
 10
882.220165
 20
569.927071
 30
0.0
 40
12.0
100
AcDbArc
 50
313.586993
 51
0.0
  0
ARC
  5
18F
100
AcDbEntity
  8
M01
100
AcDbCircle
 10
882.220165
 20
569.927071
 30
0.0
 40
8.0
100
AcDbArc
 50
313.586993
 51
0.0
  0
LINE
  5
190
100
AcDbEntity
  8
M01
100
AcDbLine
 10
883.480303
 20
548.110596
 30
0.0
 11
888.480303
 21
548.110596
 31
0.0
  0
LINE
  5
191
100
AcDbEntity
  8
M01
100
AcDbLine
 10
884.480303
 20
548.110596
 30
0.0
 11
884.480303
 21
544.110596
 31
0.0
  0
LINE
  5
192
100
AcDbEntity
  8
M01
100
AcDbLine
 10
888.480303
 20
548.110596
 30
0.0
 11
888.480303
 21
544.110596
 31
0.0
  0
LINE
  5
193
100
AcDbEntity
  8
M01
100
AcDbLine
 10
840.480303
 20
544.110596
 30
0.0
 11
867.704841
 21
544.110596
 31
0.0
  0
LINE
  5
194
100
AcDbEntity
  8
M01
100
AcDbLine
 10
867.704841
 20
548.110596
 30
0.0
 11
850.480303
 21
548.110596
 31
0.0
  0
ARC
  5
195
100
AcDbEntity
  8
M01
100
AcDbCircle
 10
867.704841
 20
556.110596
 30
0.0
 40
12.0
100
AcDbArc
 50
270.0
 51
313.586993
  0
ARC
  5
196
100
AcDbEntity
  8
M01
100
AcDbCircle
 10
867.704841
 20
556.110596
 30
0.0
 40
8.0
100
AcDbArc
 50
270.0
 51
313.586993
  0
LINE
  5
197
100
AcDbEntity
  8
M01
100
AcDbLine
 10
854.480303
 20
548.110596
 30
0.0
 11
854.480303
 21
544.110596
 31
0.0
  0
LINE
  5
198
100
AcDbEntity
  8
M01
100
AcDbLine
 10
850.480303
 20
548.110596
 30
0.0
 11
850.480303
 21
544.110596
 31
0.0
  0
LINE
  5
199
100
AcDbEntity
  8
M01
100
AcDbLine
 10
890.493627
 20
561.23513
 30
0.0
 11
875.978303
 21
547.418656
 31
0.0
  0
LINE
  5
19A
100
AcDbEntity
  8
M01
100
AcDbLine
 10
887.735806
 20
564.132444
 30
0.0
 11
873.220482
 21
550.315969
 31
0.0
  0
LINE
  5
19B
100
AcDbEntity
  8
M01
100
AcDbLine
 10
894.220165
 20
585.765561
 30
0.0
 11
894.220165
 21
569.927071
 31
0.0
  0
LINE
  5
19C
100
AcDbEntity
  8
M01
100
AcDbLine
 10
890.220165
 20
585.765561
 30
0.0
 11
890.220165
 21
569.927071
 31
0.0
  0
LINE
  5
19D
100
AcDbEntity
  8
M01
100
AcDbLine
 10
890.230303
 20
529.454697
 30
0.0
 11
896.730303
 21
529.454697
 31
0.0
  0
LINE
  5
19E
100
AcDbEntity
  8
M01
100
AcDbLine
 10
890.230303
 20
537.566496
 30
0.0
 11
896.730303
 21
537.566496
 31
0.0
  0
LINE
  5
19F
100
AcDbEntity
  8
M01
100
AcDbLine
 10
890.230303
 20
529.454697
 30
0.0
 11
890.230303
 21
527.510596
 31
0.0
  0
ARC
  5
1A0
100
AcDbEntity
  8
M01
100
AcDbCircle
 10
888.980303
 20
531.015946
 30
0.0
 40
2.0
100
AcDbArc
 50
308.682187
 51
0.0
  0
ARC
  5
1A1
100
AcDbEntity
  8
M01
100
AcDbCircle
 10
888.980303
 20
536.005247
 30
0.0
 40
2.0
100
AcDbArc
 50
0.0
 51
51.317813
  0
LINE
  5
1A2
100
AcDbEntity
  8
M01
100
AcDbLine
 10
890.230303
 20
539.510596
 30
0.0
 11
890.230303
 21
537.566496
 31
0.0
  0
LINE
  5
1A3
100
AcDbEntity
  8
M01
100
AcDbLine
 10
890.980303
 20
536.005247
 30
0.0
 11
890.980303
 21
531.015946
 31
0.0
  0
LINE
  5
1A4
100
AcDbEntity
  8
M01
100
AcDbLine
 10
896.730303
 20
529.454697
 30
0.0
 11
896.730303
 21
527.510596
 31
0.0
  0
ARC
  5
1A5
100
AcDbEntity
  8
M01
100
AcDbCircle
 10
897.980303
 20
531.015946
 30
0.0
 40
2.0
100
AcDbArc
 50
180.0
 51
231.317813
  0
ARC
  5
1A6
100
AcDbEntity
  8
M01
100
AcDbCircle
 10
897.980303
 20
536.005247
 30
0.0
 40
2.0
100
AcDbArc
 50
128.682187
 51
180.0
  0
LINE
  5
1A7
100
AcDbEntity
  8
M01
100
AcDbLine
 10
896.730303
 20
539.510596
 30
0.0
 11
896.730303
 21
537.566496
 31
0.0
  0
LINE
  5
1A8
100
AcDbEntity
  8
M01
100
AcDbLine
 10
895.980303
 20
536.005247
 30
0.0
 11
895.980303
 21
531.015946
 31
0.0
  0
LINE
  5
1A9
100
AcDbEntity
  8
DIMS
 62
     4
100
AcDbLine
 10
872.480303
 20
434.910596
 30
0.0
 11
872.480303
 21
437.210596
 31
0.0
  0
LINE
  5
1AA
100
AcDbEntity
  8
DIMS
 62
     4
100
AcDbLine
 10
872.480303
 20
428.110596
 30
0.0
 11
872.480303
 21
425.810596
 31
0.0
  0
LINE
  5
1AB
100
AcDbEntity
  8
DIMS
 62
     4
100
AcDbLine
 10
872.480303
 20
429.810596
 30
0.0
 11
872.480303
 21
433.210596
 31
0.0
  0
LINE
  5
1AC
100
AcDbEntity
  8
DIMS
 62
     4
100
AcDbLine
 10
895.480303
 20
411.910596
 30
0.0
 11
895.480303
 21
414.210596
 31
0.0
  0
LINE
  5
1AD
100
AcDbEntity
  8
DIMS
 62
     4
100
AcDbLine
 10
895.480303
 20
405.110596
 30
0.0
 11
895.480303
 21
402.810596
 31
0.0
  0
LINE
  5
1AE
100
AcDbEntity
  8
DIMS
 62
     4
100
AcDbLine
 10
898.880303
 20
408.510596
 30
0.0
 11
901.180303
 21
408.510596
 31
0.0
  0
LINE
  5
1AF
100
AcDbEntity
  8
DIMS
 62
     4
100
AcDbLine
 10
892.080303
 20
408.510596
 30
0.0
 11
889.780303
 21
408.510596
 31
0.0
  0
LINE
  5
1B0
100
AcDbEntity
  8
DIMS
 62
     4
100
AcDbLine
 10
895.480303
 20
406.810596
 30
0.0
 11
895.480303
 21
410.210596
 31
0.0
  0
LINE
  5
1B1
100
AcDbEntity
  8
DIMS
 62
     4
100
AcDbLine
 10
893.780303
 20
408.510596
 30
0.0
 11
897.180303
 21
408.510596
 31
0.0
  0
LINE
  5
1B2
100
AcDbEntity
  8
DIMS
 62
     4
100
AcDbLine
 10
843.480303
 20
411.910596
 30
0.0
 11
843.480303
 21
414.210596
 31
0.0
  0
LINE
  5
1B3
100
AcDbEntity
  8
DIMS
 62
     4
100
AcDbLine
 10
843.480303
 20
405.110596
 30
0.0
 11
843.480303
 21
402.810596
 31
0.0
  0
LINE
  5
1B4
100
AcDbEntity
  8
DIMS
 62
     4
100
AcDbLine
 10
846.880303
 20
408.510596
 30
0.0
 11
849.180303
 21
408.510596
 31
0.0
  0
LINE
  5
1B5
100
AcDbEntity
  8
DIMS
 62
     4
100
AcDbLine
 10
840.080303
 20
408.510596
 30
0.0
 11
837.780303
 21
408.510596
 31
0.0
  0
LINE
  5
1B6
100
AcDbEntity
  8
DIMS
 62
     4
100
AcDbLine
 10
843.480303
 20
406.810596
 30
0.0
 11
843.480303
 21
410.210596
 31
0.0
  0
LINE
  5
1B7
100
AcDbEntity
  8
DIMS
 62
     4
100
AcDbLine
 10
841.780303
 20
408.510596
 30
0.0
 11
845.180303
 21
408.510596
 31
0.0
  0
HATCH
  5
1B8
100
AcDbEntity
  8
HATCH
100
AcDbHatch
 10
0.0
 20
0.0
 30
0.0
210
0.0
220
0.0
230
1.0
  2
_U
 70
     0
 71
     1
 91
        2
 92
        7
 72
     1
 73
     1
 93
        2
 10
847.48030267267
 20
408.5105964665644
 42
1.0
 10
839.48030267267
 20
408.5105964665644
 42
1.0
 97
        1
330
1BE
 92
        7
 72
     1
 73
     1
 93
        2
 10
899.48030267267
 20
408.5105964665644
 42
1.0
 10
891.4803026726699
 20
408.5105964665644
 42
1.0
 97
        1
330
1BD
 75
     0
 76
     0
 52
45.0
 41
0.8
 77
     0
 78
     1
 53
45.0
 43
64.890195
 44
-1.04863
 45
-0.565685424949238
 46
0.565685424949238
 79
     0
 47
0.095608
 98
        2
 10
843.613651
 20
408.209955
 10
882.637842
 20
409.357252
  0
LINE
  5
1B9
100
AcDbEntity
  8
M01
100
AcDbLine
 10
895.480303
 20
404.510596
 30
0.0
 11
899.480303
 21
404.510596
 31
0.0
  0
LINE
  5
1BA
100
AcDbEntity
  8
M01
100
AcDbLine
 10
895.480303
 20
412.510596
 30
0.0
 11
899.480303
 21
412.510596
 31
0.0
  0
LINE
  5
1BB
100
AcDbEntity
  8
M01
100
AcDbLine
 10
843.480303
 20
404.510596
 30
0.0
 11
839.480303
 21
404.510596
 31
0.0
  0
LINE
  5
1BC
100
AcDbEntity
  8
M01
100
AcDbLine
 10
843.480303
 20
412.510596
 30
0.0
 11
839.480303
 21
412.510596
 31
0.0
  0
CIRCLE
  5
1BD
102
{ACAD_REACTORS
330
1B8
102
}
100
AcDbEntity
  8
M01
100
AcDbCircle
 10
895.480303
 20
408.510596
 30
0.0
 40
4.0
  0
CIRCLE
  5
1BE
102
{ACAD_REACTORS
330
1B8
102
}
100
AcDbEntity
  8
M01
100
AcDbCircle
 10
843.480303
 20
408.510596
 30
0.0
 40
4.0
  0
HATCH
  5
1BF
100
AcDbEntity
  8
HATCH
100
AcDbHatch
 10
0.0
 20
0.0
 30
0.0
210
0.0
220
0.0
230
1.0
  2
_U
 70
     0
 71
     1
 91
        4
 92
        7
 72
     0
 73
     1
 93
        9
 10
905.48030267267
 20
463.0105964665646
 10
905.4803026726698
 20
464.8105964665647
 10
904.7803026726699
 20
465.5105964665647
 10
900.1803026726703
 20
465.5105964665648
 10
899.48030267267
 20
464.8105964665647
 10
899.48030267267
 20
461.2105964665645
 10
901.4803026726699
 20
461.2105964665646
 10
901.4803026726699
 20
462.7605964665646
 10
901.4803026726701
 20
463.0105964665644
 97
        9
330
2B3
330
2B6
330
2B2
330
2E5
330
1D4
330
1C5
330
1D9
330
1C7
330
2B5
 92
        7
 72
     1
 73
     1
 93
       16
 10
899.4803026726701
 20
441.5105964665644
 42
0.0
 10
890.4803026726701
 20
441.5105964665643
 42
0.0
 10
889.48030267267
 20
440.5105964665644
 42
0.0
 10
889.4803026726702
 20
435.5105964665644
 42
0.0
 10
907.7815170195687
 20
434.5514704644604
 42
-0.1092323044357291
 10
910.4803026726701
 20
440.6757478564761
 42
0.0
 10
910.4803026726701
 20
450.8105964665643
 42
0.0
 10
909.7803026726699
 20
451.5105964665645
 42
0.0
 10
908.4803026726698
 20
451.5105964665645
 42
0.0
 10
908.4803026726699
 20
451.0105964665644
 42
0.0
 10
905.48030267267
 20
451.0105964665645
 42
0.0
 10
905.48030267267
 20
452.0105964665646
 42
0.0
 10
901.4803026726699
 20
452.0105964665646
 42
0.0
 10
901.4803026726699
 20
452.2605964665647
 42
0.0
 10
901.4803026726699
 20
453.8105964665644
 42
0.0
 10
899.48030267267
 20
453.8105964665646
 42
0.0
 97
       16
330
2A8
330
2AB
330
2A5
330
2A4
330
2B5
330
1C8
330
1C6
330
1C5
330
1D3
330
1C4
330
2BF
330
2BB
330
2BD
330
299
330
29A
330
2A9
 92
        7
 72
     1
 73
     1
 93
       16
 10
899.48030267267
 20
401.5105964665645
 42
0.0
 10
899.48030267267
 20
399.5105964665646
 42
0.0
 10
900.1803026726701
 20
398.8105964665644
 42
0.0
 10
904.7803026726699
 20
398.8105964665644
 42
0.0
 10
905.48030267267
 20
399.5105964665643
 42
0.0
 10
905.48030267267
 20
412.0105964665644
 42
0.0
 10
908.4803026726701
 20
412.0105964665644
 42
0.0
 10
908.4803026726703
 20
411.5105964665644
 42
0.0
 10
909.7803026726705
 20
411.5105964665645
 42
0.0
 10
910.4803026726704
 20
412.2105964665646
 42
0.0
 10
910.4803026726703
 20
422.3454450766526
 42
-0.1092323044357298
 10
907.7815170195687
 20
428.4697224686683
 42
0.0
 10
889.4803026726702
 20
427.5105964665645
 42
0.0
 10
889.48030267267
 20
422.5105964665642
 42
0.0
 10
890.4803026726701
 20
421.5105964665644
 42
0.0
 10
899.48030267267
 20
421.5105964665644
 42
0.0
 97
       16
330
296
330
298
330
2BD
330
2BC
330
2BE
330
2AD
330
231
330
2AF
330
2B1
330
2B0
330
2A2
330
2A3
330
2A1
330
2AA
330
2A7
330
2A9
 92
       24
 93
        4
 72
     1
 10
891.486954
 20
436.832053
 11
905.858383
 21
436.832053
 72
     1
 10
905.858383
 20
436.832053
 11
905.858383
 21
439.832053
 72
     1
 10
905.858383
 20
439.832053
 11
891.486954
 21
439.832053
 72
     1
 10
891.486954
 20
439.832053
 11
891.486954
 21
436.832053
 97
        1
330
28C
 75
     0
 76
     0
 52
135.0
 41
2.5
 77
     0
 78
     1
 53
135.0
 43
77.890195
 44
-1.04863
 45
-1.767766952966368
 46
-1.767766952966368
 79
     0
 47
0.115254
 98
        3
 10
902.30631
 20
463.715681
 10
904.15113
 20
441.817503
 10
904.035827
 20
420.7261
  0
LINE
  5
1C0
100
AcDbEntity
  8
M04
100
AcDbLine
 10
892.180303
 20
454.510596
 30
0.0
 11
889.680303
 21
454.510596
 31
0.0
  0
LINE
  5
1C1
100
AcDbEntity
  8
M04
100
AcDbLine
 10
891.480303
 20
455.210596
 30
0.0
 11
888.180303
 21
455.210596
 31
0.0
  0
LINE
  5
1C2
100
AcDbEntity
  8
M04
100
AcDbLine
 10
892.180303
 20
460.510596
 30
0.0
 11
889.680303
 21
460.510596
 31
0.0
  0
LINE
  5
1C3
100
AcDbEntity
  8
M04
100
AcDbLine
 10
891.480303
 20
459.810596
 30
0.0
 11
888.180303
 21
459.810596
 31
0.0
  0
LINE
  5
1C4
102
{ACAD_REACTORS
330
1BF
102
}
100
AcDbEntity
  8
M01
100
AcDbLine
 10
899.480303
 20
454.510596
 30
0.0
 11
899.480303
 21
441.510596
 31
0.0
  0
LINE
  5
1C5
102
{ACAD_REACTORS
330
1BF
102
}
100
AcDbEntity
  8
M05
100
AcDbLine
 10
901.480303
 20
462.760596
 30
0.0
 11
901.480303
 21
452.260596
 31
0.0
  0
LINE
  5
1C6
102
{ACAD_REACTORS
330
1BF
102
}
100
AcDbEntity
  8
M04
100
AcDbLine
 10
901.480303
 20
452.260596
 30
0.0
 11
901.480303
 21
452.010596
 31
0.0
  0
LINE
  5
1C7
102
{ACAD_REACTORS
330
1BF
102
}
100
AcDbEntity
  8
M04
100
AcDbLine
 10
901.480303
 20
463.010596
 30
0.0
 11
905.480303
 21
463.010596
 31
0.0
  0
LINE
  5
1C8
102
{ACAD_REACTORS
330
1BF
102
}
100
AcDbEntity
  8
M04
100
AcDbLine
 10
901.480303
 20
452.010596
 30
0.0
 11
905.480303
 21
452.010596
 31
0.0
  0
LINE
  5
1C9
100
AcDbEntity
  8
M05
100
AcDbLine
 10
900.480303
 20
454.510596
 30
0.0
 11
900.480303
 21
460.510596
 31
0.0
  0
LINE
  5
1CA
100
AcDbEntity
  8
M04
100
AcDbLine
 10
888.180303
 20
459.810596
 30
0.0
 11
886.852397
 21
457.510596
 31
0.0
  0
LINE
  5
1CB
100
AcDbEntity
  8
M04
100
AcDbLine
 10
888.180303
 20
455.210596
 30
0.0
 11
886.852397
 21
457.510596
 31
0.0
  0
LINE
  5
1CC
100
AcDbEntity
  8
M04
100
AcDbLine
 10
888.180303
 20
455.210596
 30
0.0
 11
888.180303
 21
459.810596
 31
0.0
  0
LINE
  5
1CD
100
AcDbEntity
  8
M04
100
AcDbLine
 10
889.680303
 20
454.510596
 30
0.0
 11
889.680303
 21
460.510596
 31
0.0
  0
ARC
  5
1CE
100
AcDbEntity
  8
M05
100
AcDbCircle
 10
898.954166
 20
457.510596
 30
0.0
 40
5.826136
100
AcDbArc
 50
295.69541
 51
64.30459
  0
LINE
  5
1CF
100
AcDbEntity
  8
M05
100
AcDbLine
 10
892.180303
 20
460.510596
 30
0.0
 11
891.480303
 21
459.810596
 31
0.0
  0
LINE
  5
1D0
100
AcDbEntity
  8
M05
100
AcDbLine
 10
892.180303
 20
454.510596
 30
0.0
 11
891.480303
 21
455.210596
 31
0.0
  0
LINE
  5
1D1
100
AcDbEntity
  8
M05
100
AcDbLine
 10
892.180303
 20
454.510596
 30
0.0
 11
892.180303
 21
460.510596
 31
0.0
  0
LINE
  5
1D2
100
AcDbEntity
  8
M05
100
AcDbLine
 10
891.480303
 20
455.210596
 30
0.0
 11
891.480303
 21
459.810596
 31
0.0
  0
LINE
  5
1D3
102
{ACAD_REACTORS
330
1BF
102
}
100
AcDbEntity
  8
M04
100
AcDbLine
 10
899.480303
 20
453.810596
 30
0.0
 11
901.480303
 21
453.810596
 31
0.0
  0
LINE
  5
1D4
102
{ACAD_REACTORS
330
1BF
102
}
100
AcDbEntity
  8
M04
100
AcDbLine
 10
899.480303
 20
461.210596
 30
0.0
 11
901.480303
 21
461.210596
 31
0.0
  0
LINE
  5
1D5
100
AcDbEntity
  8
M05
100
AcDbLine
 10
891.480303
 20
459.810596
 30
0.0
 11
900.480303
 21
459.810596
 31
0.0
  0
LINE
  5
1D6
100
AcDbEntity
  8
M05
100
AcDbLine
 10
891.480303
 20
455.210596
 30
0.0
 11
900.480303
 21
455.210596
 31
0.0
  0
LINE
  5
1D7
100
AcDbEntity
  8
M05
100
AcDbLine
 10
892.180303
 20
454.510596
 30
0.0
 11
901.480303
 21
454.510596
 31
0.0
  0
LINE
  5
1D8
100
AcDbEntity
  8
M05
100
AcDbLine
 10
892.180303
 20
460.510596
 30
0.0
 11
901.480303
 21
460.510596
 31
0.0
  0
LINE
  5
1D9
102
{ACAD_REACTORS
330
1BF
102
}
100
AcDbEntity
  8
M04
100
AcDbLine
 10
901.480303
 20
463.010596
 30
0.0
 11
901.480303
 21
462.760596
 31
0.0
  0
LINE
  5
1DA
100
AcDbEntity
  8
CENTRE
100
AcDbLine
 10
884.213802
 20
457.510596
 30
0.0
 11
909.126491
 21
457.510596
 31
0.0
  0
DIMENSION
  5
1DB
100
AcDbEntity
  8
DIMS
100
AcDbDimension
  2
*D9
 10
800.408408
 20
498.010596
 30
0.0
 11
722.408408
 21
480.224882
 31
0.0
 12
39.331921
 22
-1.04863
 32
0.0
  1
%%c<> H7
  3
DIM1
100
AcDbAlignedDimension
 13
819.480303
 23
506.010596
 33
0.0
 14
819.480303
 24
498.010596
 34
0.0
 50
90.0
100
AcDbRotatedDimension
1001
ACAD
1000
DSTYLE
1002
{
1070
   144
1040
1.0
1002
}
  0
DIMENSION
  5
1E9
100
AcDbEntity
  8
DIMS
100
AcDbDimension
  2
*D8
 10
950.795419
 20
451.510596
 30
0.0
 11
859.795419
 21
431.510596
 31
0.0
 12
468.468709
 22
-308.296762
 32
0.0
  1
%%c<> H7
  3
DIM1
100
AcDbAlignedDimension
 13
914.480303
 23
411.510596
 33
0.0
 14
914.480303
 24
451.510596
 34
0.0
 50
90.0
100
AcDbRotatedDimension
1001
ACAD
1000
DSTYLE
1002
{
1070
   144
1040
1.0
1002
}
  0
DIMENSION
  5
1F6
100
AcDbEntity
  8
DIMS
100
AcDbDimension
  2
*D7
 10
832.480303
 20
361.230918
 30
0.0
 11
746.837446
 21
364.230918
 31
0.0
 12
455.468709
 22
-308.296762
 32
0.0
  1
7.0
  3
DIM1
100
AcDbAlignedDimension
 13
839.480303
 23
401.510596
 33
0.0
 14
832.480303
 24
392.510596
 34
0.0
100
AcDbRotatedDimension
1001
ACAD
1000
DSTYLE
1002
{
1070
   144
1040
1.0
1002
}
  0
DIMENSION
  5
204
100
AcDbEntity
  8
DIMS
100
AcDbDimension
  2
*D6
 10
906.480303
 20
361.230918
 30
0.0
 11
829.12316
 21
364.230918
 31
0.0
 12
468.468709
 22
-308.296762
 32
0.0
  1
7.0
  3
DIM1
100
AcDbAlignedDimension
 13
899.480303
 23
399.510596
 33
0.0
 14
906.480303
 24
380.997205
 34
0.0
100
AcDbRotatedDimension
1001
ACAD
1000
DSTYLE
1002
{
1070
   144
1040
1.0
1002
}
  0
DIMENSION
  5
212
100
AcDbEntity
  8
DIMS
100
AcDbDimension
  2
*D5
 10
899.480303
 20
361.230918
 30
0.0
 11
794.480303
 21
364.230918
 31
0.0
 12
166.268324
 22
-1.04863
 32
0.0
  3
DIM1
100
AcDbAlignedDimension
 13
839.480303
 23
401.510596
 33
0.0
 14
899.480303
 24
399.510596
 34
0.0
100
AcDbRotatedDimension
1001
ACAD
1000
DSTYLE
1002
{
1070
   144
1040
1.0
1002
}
  0
LINE
  5
21F
100
AcDbEntity
  8
M01
100
AcDbLine
 10
888.480303
 20
522.510596
 30
0.0
 11
898.480303
 21
522.510596
 31
0.0
  0
LINE
  5
220
100
AcDbEntity
  8
M01
100
AcDbLine
 10
842.230303
 20
529.454697
 30
0.0
 11
848.730303
 21
529.454697
 31
0.0
  0
LINE
  5
221
100
AcDbEntity
  8
M01
100
AcDbLine
 10
842.230303
 20
537.566496
 30
0.0
 11
848.730303
 21
537.566496
 31
0.0
  0
LINE
  5
222
100
AcDbEntity
  8
M01
100
AcDbLine
 10
842.230303
 20
529.454697
 30
0.0
 11
842.230303
 21
527.510596
 31
0.0
  0
ARC
  5
223
100
AcDbEntity
  8
M01
100
AcDbCircle
 10
840.980303
 20
531.015946
 30
0.0
 40
2.0
100
AcDbArc
 50
308.682187
 51
0.0
  0
ARC
  5
224
100
AcDbEntity
  8
M01
100
AcDbCircle
 10
840.980303
 20
536.005247
 30
0.0
 40
2.0
100
AcDbArc
 50
0.0
 51
51.317813
  0
LINE
  5
225
100
AcDbEntity
  8
M01
100
AcDbLine
 10
842.230303
 20
539.510596
 30
0.0
 11
842.230303
 21
537.566496
 31
0.0
  0
LINE
  5
226
100
AcDbEntity
  8
M01
100
AcDbLine
 10
842.980303
 20
536.005247
 30
0.0
 11
842.980303
 21
531.015946
 31
0.0
  0
LINE
  5
227
100
AcDbEntity
  8
M01
100
AcDbLine
 10
848.730303
 20
529.454697
 30
0.0
 11
848.730303
 21
527.510596
 31
0.0
  0
ARC
  5
228
100
AcDbEntity
  8
M01
100
AcDbCircle
 10
849.980303
 20
531.015946
 30
0.0
 40
2.0
100
AcDbArc
 50
180.0
 51
231.317813
  0
ARC
  5
229
100
AcDbEntity
  8
M01
100
AcDbCircle
 10
849.980303
 20
536.005247
 30
0.0
 40
2.0
100
AcDbArc
 50
128.682187
 51
180.0
  0
LINE
  5
22A
100
AcDbEntity
  8
M01
100
AcDbLine
 10
848.730303
 20
539.510596
 30
0.0
 11
848.730303
 21
537.566496
 31
0.0
  0
LINE
  5
22B
100
AcDbEntity
  8
M01
100
AcDbLine
 10
847.980303
 20
536.005247
 30
0.0
 11
847.980303
 21
531.015946
 31
0.0
  0
LINE
  5
22C
100
AcDbEntity
  8
M01
100
AcDbLine
 10
840.480303
 20
522.510596
 30
0.0
 11
850.480303
 21
522.510596
 31
0.0
  0
LINE
  5
22D
100
AcDbEntity
  8
M01
100
AcDbLine
 10
898.480303
 20
527.510596
 30
0.0
 11
898.480303
 21
506.510596
 31
0.0
  0
LINE
  5
22E
100
AcDbEntity
  8
M01
100
AcDbLine
 10
888.480303
 20
527.510596
 30
0.0
 11
888.480303
 21
507.510596
 31
0.0
  0
LINE
  5
22F
100
AcDbEntity
  8
M01
100
AcDbLine
 10
840.480303
 20
527.510596
 30
0.0
 11
840.480303
 21
506.510596
 31
0.0
  0
LINE
  5
230
100
AcDbEntity
  8
M01
100
AcDbLine
 10
850.480303
 20
527.510596
 30
0.0
 11
850.480303
 21
507.510596
 31
0.0
  0
LINE
  5
231
102
{ACAD_REACTORS
330
1BF
102
}
100
AcDbEntity
  8
M05
100
AcDbLine
 10
899.480303
 20
399.510596
 30
0.0
 11
899.480303
 21
401.510596
 31
0.0
  0
TEXT
  5
232
100
AcDbEntity
  8
TEXT
100
AcDbText
 10
855.058796
 20
414.854164
 30
0.0
 40
2.0
  1
MM010102
 41
0.9
100
AcDbText
  0
HATCH
  5
233
100
AcDbEntity
  8
HATCH
100
AcDbHatch
 10
0.0
 20
0.0
 30
0.0
210
0.0
220
0.0
230
1.0
  2
_U
 70
     0
 71
     1
 91
        1
 92
        7
 72
     0
 73
     1
 93
        4
 10
902.4803026726699
 20
505.5105964665645
 10
899.48030267267
 20
505.5105964665644
 10
899.48030267267
 20
466.5105964665648
 10
902.4803026726699
 20
466.5105964665646
 97
        4
330
2DD
330
2E5
330
2B4
330
2DF
 75
     0
 76
     0
 52
135.0
 41
0.8
 77
     0
 78
     1
 53
135.0
 43
77.890195
 44
-1.04863
 45
-0.5656854249492382
 46
-0.565685424949238
 79
     0
 47
0.167139
 98
        1
 10
901.375346
 20
493.788156
  0
LINE
  5
234
100
AcDbEntity
  8
M01
100
AcDbLine
 10
890.449214
 20
549.410596
 30
0.0
 11
896.511392
 21
549.410596
 31
0.0
  0
ARC
  5
235
100
AcDbEntity
  8
M01
100
AcDbCircle
 10
896.511392
 20
547.561291
 30
0.0
 40
1.150694
100
AcDbArc
 50
208.592423
 51
331.407577
  0
ARC
  5
236
100
AcDbEntity
  8
M01
100
AcDbCircle
 10
893.480303
 20
550.113374
 30
0.0
 40
3.702778
100
AcDbArc
 50
236.92527
 51
303.07473
  0
ARC
  5
237
100
AcDbEntity
  8
M01
100
AcDbCircle
 10
890.449214
 20
547.561291
 30
0.0
 40
1.150694
100
AcDbArc
 50
208.592423
 51
331.407577
  0
ARC
  5
238
100
AcDbEntity
  8
M01
100
AcDbCircle
 10
896.511392
 20
548.259902
 30
0.0
 40
1.150694
100
AcDbArc
 50
28.592423
 51
151.407577
  0
ARC
  5
239
100
AcDbEntity
  8
M01
100
AcDbCircle
 10
893.480303
 20
545.707819
 30
0.0
 40
3.702778
100
AcDbArc
 50
56.92527
 51
123.07473
  0
LINE
  5
23A
100
AcDbEntity
  8
M01
100
AcDbLine
 10
895.501029
 20
548.810596
 30
0.0
 11
895.501029
 21
547.010596
 31
0.0
  0
LINE
  5
23B
100
AcDbEntity
  8
M01
100
AcDbLine
 10
897.521755
 20
548.810596
 30
0.0
 11
897.521755
 21
547.010596
 31
0.0
  0
ARC
  5
23C
100
AcDbEntity
  8
M01
100
AcDbCircle
 10
890.449214
 20
548.259902
 30
0.0
 40
1.150694
100
AcDbArc
 50
28.592423
 51
151.407577
  0
LINE
  5
23D
100
AcDbEntity
  8
M01
100
AcDbLine
 10
891.459577
 20
548.810596
 30
0.0
 11
891.459577
 21
547.010596
 31
0.0
  0
LINE
  5
23E
100
AcDbEntity
  8
M01
100
AcDbLine
 10
889.438851
 20
548.810596
 30
0.0
 11
889.438851
 21
547.010596
 31
0.0
  0
LINE
  5
23F
100
AcDbEntity
  8
M01
100
AcDbLine
 10
898.480303
 20
544.110596
 30
0.0
 11
898.480303
 21
545.610596
 31
0.0
  0
LINE
  5
240
100
AcDbEntity
  8
M01
100
AcDbLine
 10
888.480303
 20
544.110596
 30
0.0
 11
888.480303
 21
545.610596
 31
0.0
  0
LINE
  5
241
100
AcDbEntity
  8
M01
100
AcDbLine
 10
897.980303
 20
545.610596
 30
0.0
 11
897.980303
 21
546.410596
 31
0.0
  0
LINE
  5
242
100
AcDbEntity
  8
M01
100
AcDbLine
 10
888.980303
 20
545.610596
 30
0.0
 11
888.980303
 21
546.410596
 31
0.0
  0
LINE
  5
243
100
AcDbEntity
  8
M01
100
AcDbLine
 10
888.980303
 20
546.410596
 30
0.0
 11
897.980303
 21
546.410596
 31
0.0
  0
LINE
  5
244
100
AcDbEntity
  8
M01
100
AcDbLine
 10
888.480303
 20
545.610596
 30
0.0
 11
898.480303
 21
545.610596
 31
0.0
  0
LINE
  5
245
100
AcDbEntity
  8
M01
100
AcDbLine
 10
897.980303
 20
543.310596
 30
0.0
 11
897.980303
 21
544.110596
 31
0.0
  0
LINE
  5
246
100
AcDbEntity
  8
M01
100
AcDbLine
 10
888.980303
 20
543.310596
 30
0.0
 11
888.980303
 21
544.110596
 31
0.0
  0
LINE
  5
247
100
AcDbEntity
  8
M01
100
AcDbLine
 10
883.480303
 20
544.110596
 30
0.0
 11
898.480303
 21
544.110596
 31
0.0
  0
ARC
  5
248
100
AcDbEntity
  8
M01
100
AcDbCircle
 10
896.511392
 20
541.461291
 30
0.0
 40
1.150694
100
AcDbArc
 50
208.592423
 51
331.407577
  0
ARC
  5
249
100
AcDbEntity
  8
M01
100
AcDbCircle
 10
893.480303
 20
544.013374
 30
0.0
 40
3.702778
100
AcDbArc
 50
236.92527
 51
303.07473
  0
ARC
  5
24A
100
AcDbEntity
  8
M01
100
AcDbCircle
 10
890.449214
 20
541.461291
 30
0.0
 40
1.150694
100
AcDbArc
 50
208.592423
 51
331.407577
  0
ARC
  5
24B
100
AcDbEntity
  8
M01
100
AcDbCircle
 10
896.511392
 20
542.159902
 30
0.0
 40
1.150694
100
AcDbArc
 50
28.592423
 51
151.407577
  0
ARC
  5
24C
100
AcDbEntity
  8
M01
100
AcDbCircle
 10
893.480303
 20
539.607819
 30
0.0
 40
3.702778
100
AcDbArc
 50
56.92527
 51
123.07473
  0
LINE
  5
24D
100
AcDbEntity
  8
M01
100
AcDbLine
 10
895.501029
 20
542.710596
 30
0.0
 11
895.501029
 21
540.910596
 31
0.0
  0
LINE
  5
24E
100
AcDbEntity
  8
M01
100
AcDbLine
 10
897.521755
 20
542.710596
 30
0.0
 11
897.521755
 21
540.910596
 31
0.0
  0
ARC
  5
24F
100
AcDbEntity
  8
M01
100
AcDbCircle
 10
890.449214
 20
542.159902
 30
0.0
 40
1.150694
100
AcDbArc
 50
28.592423
 51
151.407577
  0
LINE
  5
250
100
AcDbEntity
  8
M01
100
AcDbLine
 10
891.459577
 20
542.710596
 30
0.0
 11
891.459577
 21
540.910596
 31
0.0
  0
LINE
  5
251
100
AcDbEntity
  8
M01
100
AcDbLine
 10
889.438851
 20
542.710596
 30
0.0
 11
889.438851
 21
540.910596
 31
0.0
  0
LINE
  5
252
100
AcDbEntity
  8
M01
100
AcDbLine
 10
888.980303
 20
543.310596
 30
0.0
 11
897.980303
 21
543.310596
 31
0.0
  0
LINE
  5
253
100
AcDbEntity
  8
M01
100
AcDbLine
 10
888.980303
 20
540.310596
 30
0.0
 11
897.980303
 21
540.310596
 31
0.0
  0
LINE
  5
254
100
AcDbEntity
  8
M01
100
AcDbLine
 10
888.980303
 20
539.510596
 30
0.0
 11
897.980303
 21
539.510596
 31
0.0
  0
LINE
  5
255
100
AcDbEntity
  8
M01
100
AcDbLine
 10
894.980303
 20
552.510596
 30
0.0
 11
895.480303
 21
552.010596
 31
0.0
  0
LINE
  5
256
100
AcDbEntity
  8
M01
100
AcDbLine
 10
891.480303
 20
552.010596
 30
0.0
 11
891.980303
 21
552.510596
 31
0.0
  0
LINE
  5
257
100
AcDbEntity
  8
M01
100
AcDbLine
 10
891.480303
 20
552.010596
 30
0.0
 11
895.480303
 21
552.010596
 31
0.0
  0
LINE
  5
258
100
AcDbEntity
  8
M01
100
AcDbLine
 10
894.980303
 20
552.510596
 30
0.0
 11
894.980303
 21
549.410596
 31
0.0
  0
LINE
  5
259
100
AcDbEntity
  8
M01
100
AcDbLine
 10
891.980303
 20
552.510596
 30
0.0
 11
891.980303
 21
549.410596
 31
0.0
  0
LINE
  5
25A
100
AcDbEntity
  8
M01
100
AcDbLine
 10
891.480303
 20
552.010596
 30
0.0
 11
891.480303
 21
549.410596
 31
0.0
  0
LINE
  5
25B
100
AcDbEntity
  8
M01
100
AcDbLine
 10
895.480303
 20
552.010596
 30
0.0
 11
895.480303
 21
549.410596
 31
0.0
  0
LINE
  5
25C
100
AcDbEntity
  8
M01
100
AcDbLine
 10
891.980303
 20
552.510596
 30
0.0
 11
894.980303
 21
552.510596
 31
0.0
  0
LINE
  5
25D
100
AcDbEntity
  8
M01
100
AcDbLine
 10
888.480303
 20
527.510596
 30
0.0
 11
898.480303
 21
527.510596
 31
0.0
  0
LINE
  5
25E
100
AcDbEntity
  8
M01
100
AcDbLine
 10
897.980303
 20
540.310596
 30
0.0
 11
897.980303
 21
539.510596
 31
0.0
  0
LINE
  5
25F
100
AcDbEntity
  8
M01
100
AcDbLine
 10
888.980303
 20
540.310596
 30
0.0
 11
888.980303
 21
539.510596
 31
0.0
  0
LINE
  5
260
100
AcDbEntity
  8
CENTRE
100
AcDbLine
 10
893.480303
 20
558.671486
 30
0.0
 11
893.480303
 21
495.078054
 31
0.0
  0
LINE
  5
261
100
AcDbEntity
  8
M01
100
AcDbLine
 10
848.511392
 20
549.410596
 30
0.0
 11
842.449214
 21
549.410596
 31
0.0
  0
ARC
  5
262
100
AcDbEntity
  8
M01
100
AcDbCircle
 10
842.449214
 20
547.561291
 30
0.0
 40
1.150694
100
AcDbArc
 50
208.592423
 51
331.407577
  0
ARC
  5
263
100
AcDbEntity
  8
M01
100
AcDbCircle
 10
845.480303
 20
550.113374
 30
0.0
 40
3.702778
100
AcDbArc
 50
236.92527
 51
303.07473
  0
ARC
  5
264
100
AcDbEntity
  8
M01
100
AcDbCircle
 10
848.511392
 20
547.561291
 30
0.0
 40
1.150694
100
AcDbArc
 50
208.592423
 51
331.407577
  0
ARC
  5
265
100
AcDbEntity
  8
M01
100
AcDbCircle
 10
842.449214
 20
548.259902
 30
0.0
 40
1.150694
100
AcDbArc
 50
28.592423
 51
151.407577
  0
ARC
  5
266
100
AcDbEntity
  8
M01
100
AcDbCircle
 10
845.480303
 20
545.707819
 30
0.0
 40
3.702778
100
AcDbArc
 50
56.92527
 51
123.07473
  0
LINE
  5
267
100
AcDbEntity
  8
M01
100
AcDbLine
 10
843.459577
 20
548.810596
 30
0.0
 11
843.459577
 21
547.010596
 31
0.0
  0
LINE
  5
268
100
AcDbEntity
  8
M01
100
AcDbLine
 10
841.438851
 20
548.810596
 30
0.0
 11
841.438851
 21
547.010596
 31
0.0
  0
ARC
  5
269
100
AcDbEntity
  8
M01
100
AcDbCircle
 10
848.511392
 20
548.259902
 30
0.0
 40
1.150694
100
AcDbArc
 50
28.592423
 51
151.407577
  0
LINE
  5
26A
100
AcDbEntity
  8
M01
100
AcDbLine
 10
847.501029
 20
548.810596
 30
0.0
 11
847.501029
 21
547.010596
 31
0.0
  0
LINE
  5
26B
100
AcDbEntity
  8
M01
100
AcDbLine
 10
849.521755
 20
548.810596
 30
0.0
 11
849.521755
 21
547.010596
 31
0.0
  0
LINE
  5
26C
100
AcDbEntity
  8
M01
100
AcDbLine
 10
840.480303
 20
544.110596
 30
0.0
 11
840.480303
 21
545.610596
 31
0.0
  0
LINE
  5
26D
100
AcDbEntity
  8
M01
100
AcDbLine
 10
840.980303
 20
545.610596
 30
0.0
 11
840.980303
 21
546.410596
 31
0.0
  0
LINE
  5
26E
100
AcDbEntity
  8
M01
100
AcDbLine
 10
849.980303
 20
545.610596
 30
0.0
 11
849.980303
 21
546.410596
 31
0.0
  0
LINE
  5
26F
100
AcDbEntity
  8
M01
100
AcDbLine
 10
849.980303
 20
546.410596
 30
0.0
 11
840.980303
 21
546.410596
 31
0.0
  0
LINE
  5
270
100
AcDbEntity
  8
M01
100
AcDbLine
 10
850.480303
 20
545.610596
 30
0.0
 11
840.480303
 21
545.610596
 31
0.0
  0
LINE
  5
271
100
AcDbEntity
  8
M01
100
AcDbLine
 10
840.980303
 20
543.310596
 30
0.0
 11
840.980303
 21
544.110596
 31
0.0
  0
LINE
  5
272
100
AcDbEntity
  8
M01
100
AcDbLine
 10
849.980303
 20
543.310596
 30
0.0
 11
849.980303
 21
544.110596
 31
0.0
  0
ARC
  5
273
100
AcDbEntity
  8
M01
100
AcDbCircle
 10
842.449214
 20
541.461291
 30
0.0
 40
1.150694
100
AcDbArc
 50
208.592423
 51
331.407577
  0
ARC
  5
274
100
AcDbEntity
  8
M01
100
AcDbCircle
 10
845.480303
 20
544.013374
 30
0.0
 40
3.702778
100
AcDbArc
 50
236.92527
 51
303.07473
  0
ARC
  5
275
100
AcDbEntity
  8
M01
100
AcDbCircle
 10
848.511392
 20
541.461291
 30
0.0
 40
1.150694
100
AcDbArc
 50
208.592423
 51
331.407577
  0
ARC
  5
276
100
AcDbEntity
  8
M01
100
AcDbCircle
 10
842.449214
 20
542.159902
 30
0.0
 40
1.150694
100
AcDbArc
 50
28.592423
 51
151.407577
  0
ARC
  5
277
100
AcDbEntity
  8
M01
100
AcDbCircle
 10
845.480303
 20
539.607819
 30
0.0
 40
3.702778
100
AcDbArc
 50
56.92527
 51
123.07473
  0
LINE
  5
278
100
AcDbEntity
  8
M01
100
AcDbLine
 10
843.459577
 20
542.710596
 30
0.0
 11
843.459577
 21
540.910596
 31
0.0
  0
LINE
  5
279
100
AcDbEntity
  8
M01
100
AcDbLine
 10
841.438851
 20
542.710596
 30
0.0
 11
841.438851
 21
540.910596
 31
0.0
  0
ARC
  5
27A
100
AcDbEntity
  8
M01
100
AcDbCircle
 10
848.511392
 20
542.159902
 30
0.0
 40
1.150694
100
AcDbArc
 50
28.592423
 51
151.407577
  0
LINE
  5
27B
100
AcDbEntity
  8
M01
100
AcDbLine
 10
847.501029
 20
542.710596
 30
0.0
 11
847.501029
 21
540.910596
 31
0.0
  0
LINE
  5
27C
100
AcDbEntity
  8
M01
100
AcDbLine
 10
849.521755
 20
542.710596
 30
0.0
 11
849.521755
 21
540.910596
 31
0.0
  0
LINE
  5
27D
100
AcDbEntity
  8
M01
100
AcDbLine
 10
849.980303
 20
543.310596
 30
0.0
 11
840.980303
 21
543.310596
 31
0.0
  0
LINE
  5
27E
100
AcDbEntity
  8
M01
100
AcDbLine
 10
849.980303
 20
540.310596
 30
0.0
 11
840.980303
 21
540.310596
 31
0.0
  0
LINE
  5
27F
100
AcDbEntity
  8
M01
100
AcDbLine
 10
849.980303
 20
539.510596
 30
0.0
 11
840.980303
 21
539.510596
 31
0.0
  0
LINE
  5
280
100
AcDbEntity
  8
M01
100
AcDbLine
 10
843.980303
 20
552.510596
 30
0.0
 11
843.480303
 21
552.010596
 31
0.0
  0
LINE
  5
281
100
AcDbEntity
  8
M01
100
AcDbLine
 10
847.480303
 20
552.010596
 30
0.0
 11
846.980303
 21
552.510596
 31
0.0
  0
LINE
  5
282
100
AcDbEntity
  8
M01
100
AcDbLine
 10
847.480303
 20
552.010596
 30
0.0
 11
843.480303
 21
552.010596
 31
0.0
  0
LINE
  5
283
100
AcDbEntity
  8
M01
100
AcDbLine
 10
843.980303
 20
552.510596
 30
0.0
 11
843.980303
 21
549.410596
 31
0.0
  0
LINE
  5
284
100
AcDbEntity
  8
M01
100
AcDbLine
 10
846.980303
 20
552.510596
 30
0.0
 11
846.980303
 21
549.410596
 31
0.0
  0
LINE
  5
285
100
AcDbEntity
  8
M01
100
AcDbLine
 10
847.480303
 20
552.010596
 30
0.0
 11
847.480303
 21
549.410596
 31
0.0
  0
LINE
  5
286
100
AcDbEntity
  8
M01
100
AcDbLine
 10
843.480303
 20
552.010596
 30
0.0
 11
843.480303
 21
549.410596
 31
0.0
  0
LINE
  5
287
100
AcDbEntity
  8
M01
100
AcDbLine
 10
846.980303
 20
552.510596
 30
0.0
 11
843.980303
 21
552.510596
 31
0.0
  0
LINE
  5
288
100
AcDbEntity
  8
M01
100
AcDbLine
 10
850.480303
 20
527.510596
 30
0.0
 11
840.480303
 21
527.510596
 31
0.0
  0
LINE
  5
289
100
AcDbEntity
  8
M01
100
AcDbLine
 10
840.980303
 20
540.310596
 30
0.0
 11
840.980303
 21
539.510596
 31
0.0
  0
LINE
  5
28A
100
AcDbEntity
  8
M01
100
AcDbLine
 10
849.980303
 20
540.310596
 30
0.0
 11
849.980303
 21
539.510596
 31
0.0
  0
LINE
  5
28B
100
AcDbEntity
  8
CENTRE
100
AcDbLine
 10
845.480303
 20
558.671486
 30
0.0
 11
845.480303
 21
495.078054
 31
0.0
  0
TEXT
  5
28C
102
{ACAD_REACTORS
330
1BF
102
}
100
AcDbEntity
  8
TEXT
100
AcDbText
 10
891.986954
 20
437.332053
 30
0.0
 40
2.0
  1
MA010000
 41
0.9
100
AcDbText
  0
LINE
  5
28D
100
AcDbEntity
  8
M04
100
AcDbLine
 10
878.480303
 20
567.510596
 30
0.0
 11
888.480303
 21
577.510596
 31
0.0
  0
LINE
  5
28E
100
AcDbEntity
  8
M04
100
AcDbLine
 10
888.480303
 20
588.182075
 30
0.0
 11
888.480303
 21
577.510596
 31
0.0
  0
LINE
  5
28F
100
AcDbEntity
  8
M04
100
AcDbLine
 10
924.480303
 20
401.510596
 30
0.0
 11
924.480303
 21
461.510596
 31
0.0
  0
LINE
  5
290
100
AcDbEntity
  8
M04
100
AcDbLine
 10
924.480303
 20
401.510596
 30
0.0
 11
933.480303
 21
401.510596
 31
0.0
  0
LINE
  5
291
100
AcDbEntity
  8
M04
100
AcDbLine
 10
914.480303
 20
411.510596
 30
0.0
 11
924.480303
 21
401.510596
 31
0.0
  0
LINE
  5
292
100
AcDbEntity
  8
M04
100
AcDbLine
 10
832.480303
 20
567.510596
 30
0.0
 11
906.480303
 21
567.510596
 31
0.0
  0
LINE
  5
293
100
AcDbEntity
  8
M04
100
AcDbLine
 10
924.480303
 20
461.510596
 30
0.0
 11
933.480303
 21
461.510596
 31
0.0
  0
LINE
  5
294
100
AcDbEntity
  8
M04
100
AcDbLine
 10
914.480303
 20
451.510596
 30
0.0
 11
924.480303
 21
461.510596
 31
0.0
  0
LINE
  5
295
100
AcDbEntity
  8
M05
100
AcDbLine
 10
907.781517
 20
428.469722
 30
0.0
 11
907.781517
 21
434.55147
 31
0.0
  0
ARC
  5
296
102
{ACAD_REACTORS
330
1BF
102
}
100
AcDbEntity
  8
M05
100
AcDbCircle
 10
922.980303
 20
431.510596
 30
0.0
 40
15.5
100
AcDbArc
 50
191.313981
 51
216.249321
  0
LINE
  5
297
100
AcDbEntity
  8
M01
100
AcDbLine
 10
872.480303
 20
427.510596
 30
0.0
 11
889.480303
 21
427.510596
 31
0.0
  0
LINE
  5
298
102
{ACAD_REACTORS
330
1BF
102
}
100
AcDbEntity
  8
M05
100
AcDbLine
 10
889.480303
 20
427.510596
 30
0.0
 11
907.781517
 21
428.469722
 31
0.0
  0
LINE
  5
299
102
{ACAD_REACTORS
330
1BF
102
}
100
AcDbEntity
  8
M05
100
AcDbLine
 10
889.480303
 20
435.510596
 30
0.0
 11
907.781517
 21
434.55147
 31
0.0
  0
ARC
  5
29A
102
{ACAD_REACTORS
330
1BF
102
}
100
AcDbEntity
  8
M05
100
AcDbCircle
 10
922.980303
 20
431.510596
 30
0.0
 40
15.5
100
AcDbArc
 50
143.750679
 51
168.686019
  0
LINE
  5
29B
100
AcDbEntity
  8
M01
100
AcDbLine
 10
872.480303
 20
435.510596
 30
0.0
 11
889.480303
 21
435.510596
 31
0.0
  0
LINE
  5
29C
100
AcDbEntity
  8
M04
100
AcDbLine
 10
908.480303
 20
411.510596
 30
0.0
 11
906.480303
 21
411.510596
 31
0.0
  0
LINE
  5
29D
100
AcDbEntity
  8
M04
100
AcDbLine
 10
909.780303
 20
411.510596
 30
0.0
 11
914.480303
 21
411.510596
 31
0.0
  0
LINE
  5
29E
100
AcDbEntity
  8
M04
100
AcDbLine
 10
908.480303
 20
451.510596
 30
0.0
 11
906.480303
 21
451.510596
 31
0.0
  0
LINE
  5
29F
100
AcDbEntity
  8
M04
100
AcDbLine
 10
909.780303
 20
451.510596
 30
0.0
 11
914.480303
 21
451.510596
 31
0.0
  0
LINE
  5
2A0
100
AcDbEntity
  8
M04
100
AcDbLine
 10
914.480303
 20
451.510596
 30
0.0
 11
914.480303
 21
411.510596
 31
0.0
  0
LINE
  5
2A1
102
{ACAD_REACTORS
330
1BF
102
}
100
AcDbEntity
  8
M05
100
AcDbLine
 10
908.480303
 20
412.010596
 30
0.0
 11
908.480303
 21
411.510596
 31
0.0
  0
LINE
  5
2A2
102
{ACAD_REACTORS
330
1BF
102
}
100
AcDbEntity
  8
M05
100
AcDbLine
 10
905.480303
 20
412.010596
 30
0.0
 11
905.480303
 21
399.510596
 31
0.0
  0
LINE
  5
2A3
102
{ACAD_REACTORS
330
1BF
102
}
100
AcDbEntity
  8
M05
100
AcDbLine
 10
905.480303
 20
412.010596
 30
0.0
 11
908.480303
 21
412.010596
 31
0.0
  0
LINE
  5
2A4
102
{ACAD_REACTORS
330
1BF
102
}
100
AcDbEntity
  8
M05
100
AcDbLine
 10
905.480303
 20
451.010596
 30
0.0
 11
908.480303
 21
451.010596
 31
0.0
  0
LINE
  5
2A5
102
{ACAD_REACTORS
330
1BF
102
}
100
AcDbEntity
  8
M05
100
AcDbLine
 10
908.480303
 20
451.510596
 30
0.0
 11
908.480303
 21
451.010596
 31
0.0
  0
LINE
  5
2A6
100
AcDbEntity
  8
M04
100
AcDbLine
 10
906.480303
 20
412.010596
 30
0.0
 11
906.480303
 21
380.997205
 31
0.0
  0
LINE
  5
2A7
102
{ACAD_REACTORS
330
1BF
102
}
100
AcDbEntity
  8
M05
100
AcDbLine
 10
910.480303
 20
412.210596
 30
0.0
 11
909.780303
 21
411.510596
 31
0.0
  0
LINE
  5
2A8
102
{ACAD_REACTORS
330
1BF
102
}
100
AcDbEntity
  8
M05
100
AcDbLine
 10
910.480303
 20
450.810596
 30
0.0
 11
909.780303
 21
451.510596
 31
0.0
  0
LINE
  5
2A9
102
{ACAD_REACTORS
330
1BF
102
}
100
AcDbEntity
  8
M05
100
AcDbLine
 10
910.480303
 20
450.810596
 30
0.0
 11
910.480303
 21
412.210596
 31
0.0
  0
LINE
  5
2AA
102
{ACAD_REACTORS
330
1BF
102
}
100
AcDbEntity
  8
M05
100
AcDbLine
 10
908.480303
 20
411.510596
 30
0.0
 11
909.780303
 21
411.510596
 31
0.0
  0
LINE
  5
2AB
102
{ACAD_REACTORS
330
1BF
102
}
100
AcDbEntity
  8
M05
100
AcDbLine
 10
908.480303
 20
451.510596
 30
0.0
 11
909.780303
 21
451.510596
 31
0.0
  0
LINE
  5
2AC
100
AcDbEntity
  8
M04
100
AcDbLine
 10
898.980303
 20
421.510596
 30
0.0
 11
899.480303
 21
421.010596
 31
0.0
  0
LINE
  5
2AD
102
{ACAD_REACTORS
330
1BF
102
}
100
AcDbEntity
  8
M01
100
AcDbLine
 10
899.480303
 20
421.510596
 30
0.0
 11
899.480303
 21
401.510596
 31
0.0
  0
LINE
  5
2AE
100
AcDbEntity
  8
M04
100
AcDbLine
 10
898.980303
 20
441.510596
 30
0.0
 11
899.480303
 21
442.010596
 31
0.0
  0
LINE
  5
2AF
102
{ACAD_REACTORS
330
1BF
102
}
100
AcDbEntity
  8
M05
100
AcDbLine
 10
900.180303
 20
398.810596
 30
0.0
 11
899.480303
 21
399.510596
 31
0.0
  0
LINE
  5
2B0
102
{ACAD_REACTORS
330
1BF
102
}
100
AcDbEntity
  8
M05
100
AcDbLine
 10
904.780303
 20
398.810596
 30
0.0
 11
905.480303
 21
399.510596
 31
0.0
  0
LINE
  5
2B1
102
{ACAD_REACTORS
330
1BF
102
}
100
AcDbEntity
  8
M05
100
AcDbLine
 10
900.180303
 20
398.810596
 30
0.0
 11
904.780303
 21
398.810596
 31
0.0
  0
LINE
  5
2B2
102
{ACAD_REACTORS
330
1BF
102
}
100
AcDbEntity
  8
M05
100
AcDbLine
 10
900.180303
 20
465.510596
 30
0.0
 11
899.480303
 21
464.810596
 31
0.0
  0
LINE
  5
2B3
102
{ACAD_REACTORS
330
1BF
102
}
100
AcDbEntity
  8
M05
100
AcDbLine
 10
904.780303
 20
465.510596
 30
0.0
 11
905.480303
 21
464.810596
 31
0.0
  0
LINE
  5
2B4
102
{ACAD_REACTORS
330
233
102
}
100
AcDbEntity
  8
M02
100
AcDbLine
 10
899.480303
 20
466.510596
 30
0.0
 11
902.480303
 21
466.510596
 31
0.0
  0
LINE
  5
2B5
102
{ACAD_REACTORS
330
1BF
102
}
100
AcDbEntity
  8
M05
100
AcDbLine
 10
905.480303
 20
464.810596
 30
0.0
 11
905.480303
 21
451.010596
 31
0.0
  0
LINE
  5
2B6
102
{ACAD_REACTORS
330
1BF
102
}
100
AcDbEntity
  8
M05
100
AcDbLine
 10
900.180303
 20
465.510596
 30
0.0
 11
904.780303
 21
465.510596
 31
0.0
  0
LINE
  5
2B7
100
AcDbEntity
  8
M04
100
AcDbLine
 10
890.480303
 20
421.510596
 30
0.0
 11
889.480303
 21
421.510596
 31
0.0
  0
LINE
  5
2B8
100
AcDbEntity
  8
M04
100
AcDbLine
 10
889.480303
 20
422.510596
 30
0.0
 11
889.480303
 21
421.510596
 31
0.0
  0
LINE
  5
2B9
100
AcDbEntity
  8
M04
100
AcDbLine
 10
890.480303
 20
441.510596
 30
0.0
 11
889.480303
 21
441.510596
 31
0.0
  0
LINE
  5
2BA
100
AcDbEntity
  8
M04
100
AcDbLine
 10
889.480303
 20
440.510596
 30
0.0
 11
889.480303
 21
441.510596
 31
0.0
  0
LINE
  5
2BB
102
{ACAD_REACTORS
330
1BF
102
}
100
AcDbEntity
  8
M05
100
AcDbLine
 10
889.480303
 20
440.510596
 30
0.0
 11
890.480303
 21
441.510596
 31
0.0
  0
LINE
  5
2BC
102
{ACAD_REACTORS
330
1BF
102
}
100
AcDbEntity
  8
M05
100
AcDbLine
 10
890.480303
 20
421.510596
 30
0.0
 11
889.480303
 21
422.510596
 31
0.0
  0
LINE
  5
2BD
102
{ACAD_REACTORS
330
1BF
102
}
100
AcDbEntity
  8
M05
100
AcDbLine
 10
889.480303
 20
440.510596
 30
0.0
 11
889.480303
 21
422.510596
 31
0.0
  0
LINE
  5
2BE
102
{ACAD_REACTORS
330
1BF
102
}
100
AcDbEntity
  8
M05
100
AcDbLine
 10
890.480303
 20
421.510596
 30
0.0
 11
899.480303
 21
421.510596
 31
0.0
  0
LINE
  5
2BF
102
{ACAD_REACTORS
330
1BF
102
}
100
AcDbEntity
  8
M05
100
AcDbLine
 10
890.480303
 20
441.510596
 30
0.0
 11
899.480303
 21
441.510596
 31
0.0
  0
LINE
  5
2C0
100
AcDbEntity
  8
M04
100
AcDbLine
 10
817.170902
 20
502.010596
 30
0.0
 11
819.480303
 21
506.010596
 31
0.0
  0
LINE
  5
2C1
100
AcDbEntity
  8
M04
100
AcDbLine
 10
819.480303
 20
498.010596
 30
0.0
 11
817.170902
 21
502.010596
 31
0.0
  0
LINE
  5
2C2
100
AcDbEntity
  8
M04
100
AcDbLine
 10
822.480303
 20
498.010596
 30
0.0
 11
819.480303
 21
498.010596
 31
0.0
  0
LINE
  5
2C3
100
AcDbEntity
  8
M04
100
AcDbLine
 10
819.480303
 20
506.010596
 30
0.0
 11
819.480303
 21
498.010596
 31
0.0
  0
LINE
  5
2C4
100
AcDbEntity
  8
M04
100
AcDbLine
 10
822.480303
 20
506.010596
 30
0.0
 11
819.480303
 21
506.010596
 31
0.0
  0
ARC
  5
2C5
100
AcDbEntity
  8
M05
100
AcDbCircle
 10
831.818007
 20
502.010596
 30
0.0
 40
10.837705
100
AcDbArc
 50
161.372238
 51
198.627762
  0
LINE
  5
2C6
100
AcDbEntity
  8
M05
100
AcDbLine
 10
822.480303
 20
498.010596
 30
0.0
 11
821.548049
 21
498.548833
 31
0.0
  0
LINE
  5
2C7
100
AcDbEntity
  8
M05
100
AcDbLine
 10
821.548049
 20
505.47236
 30
0.0
 11
821.548049
 21
498.548833
 31
0.0
  0
LINE
  5
2C8
100
AcDbEntity
  8
M05
100
AcDbLine
 10
822.480303
 20
506.010596
 30
0.0
 11
821.548049
 21
505.47236
 31
0.0
  0
LINE
  5
2C9
100
AcDbEntity
  8
M05
100
AcDbLine
 10
822.480303
 20
506.010596
 30
0.0
 11
822.480303
 21
498.010596
 31
0.0
  0
LINE
  5
2CA
100
AcDbEntity
  8
M04
100
AcDbLine
 10
832.480303
 20
498.010596
 30
0.0
 11
832.480303
 21
453.235596
 31
0.0
  0
LINE
  5
2CB
100
AcDbEntity
  8
M04
100
AcDbLine
 10
831.980303
 20
498.010596
 30
0.0
 11
832.480303
 21
497.510596
 31
0.0
  0
LINE
  5
2CC
100
AcDbEntity
  8
M04
100
AcDbLine
 10
831.980303
 20
506.010596
 30
0.0
 11
832.480303
 21
506.510596
 31
0.0
  0
ARC
  5
2CD
100
AcDbEntity
  8
M05
100
AcDbCircle
 10
831.346969
 20
502.010596
 30
0.0
 40
13.633333
100
AcDbArc
 50
342.938469
 51
17.061531
  0
LINE
  5
2CE
100
AcDbEntity
  8
M05
100
AcDbLine
 10
844.380303
 20
506.010596
 30
0.0
 11
844.380303
 21
498.010596
 31
0.0
  0
LINE
  5
2CF
100
AcDbEntity
  8
M05
100
AcDbLine
 10
822.480303
 20
498.010596
 30
0.0
 11
844.380303
 21
498.010596
 31
0.0
  0
LINE
  5
2D0
100
AcDbEntity
  8
M05
100
AcDbLine
 10
822.480303
 20
506.010596
 30
0.0
 11
844.380303
 21
506.010596
 31
0.0
  0
CIRCLE
  5
2D1
100
AcDbEntity
  8
M01
100
AcDbCircle
 10
872.480303
 20
431.510596
 30
0.0
 40
4.0
  0
LINE
  5
2D2
100
AcDbEntity
  8
M02
100
AcDbLine
 10
836.480303
 20
420.510596
 30
0.0
 11
839.480303
 21
420.510596
 31
0.0
  0
LINE
  5
2D3
102
{ACAD_REACTORS
330
B7
102
}
100
AcDbEntity
  8
M02
100
AcDbLine
 10
836.480303
 20
409.785596
 30
0.0
 11
836.480303
 21
401.510596
 31
0.0
  0
LINE
  5
2D4
100
AcDbEntity
  8
M04
100
AcDbLine
 10
832.480303
 20
422.010596
 30
0.0
 11
832.480303
 21
392.510596
 31
0.0
  0
LINE
  5
2D5
100
AcDbEntity
  8
CENTRE
100
AcDbLine
 10
805.275287
 20
431.510596
 30
0.0
 11
939.372343
 21
431.510596
 31
0.0
  0
LINE
  5
2D6
100
AcDbEntity
  8
CENTRE
100
AcDbLine
 10
812.134185
 20
502.010596
 30
0.0
 11
850.223884
 21
502.010596
 31
0.0
  0
LINE
  5
2D7
100
AcDbEntity
  8
M04
100
AcDbLine
 10
906.480303
 20
588.182075
 30
0.0
 11
906.480303
 21
451.010596
 31
0.0
  0
LINE
  5
2D8
100
AcDbEntity
  8
M04
100
AcDbLine
 10
832.480303
 20
392.510596
 30
0.0
 11
906.480303
 21
392.510596
 31
0.0
  0
LINE
  5
2D9
100
AcDbEntity
  8
M04
100
AcDbLine
 10
832.480303
 20
567.510596
 30
0.0
 11
832.480303
 21
506.010596
 31
0.0
  0
LINE
  5
2DA
102
{ACAD_REACTORS
330
B7
102
}
100
AcDbEntity
  8
M02
100
AcDbLine
 10
839.480303
 20
495.510596
 30
0.0
 11
836.480303
 21
495.510596
 31
0.0
  0
LINE
  5
2DB
100
AcDbEntity
  8
M01
100
AcDbLine
 10
839.480303
 20
495.510596
 30
0.0
 11
845.480303
 21
495.510596
 31
0.0
  0
LINE
  5
2DC
100
AcDbEntity
  8
M01
100
AcDbLine
 10
845.480303
 20
507.510596
 30
0.0
 11
845.480303
 21
495.510596
 31
0.0
  0
LINE
  5
2DD
102
{ACAD_REACTORS
330
233
102
}
100
AcDbEntity
  8
M02
100
AcDbLine
 10
899.480303
 20
505.510596
 30
0.0
 11
902.480303
 21
505.510596
 31
0.0
  0
LINE
  5
2DE
102
{ACAD_REACTORS
330
B7
102
}
100
AcDbEntity
  8
M02
100
AcDbLine
 10
839.480303
 20
401.510596
 30
0.0
 11
836.480303
 21
401.510596
 31
0.0
  0
LINE
  5
2DF
102
{ACAD_REACTORS
330
233
102
}
100
AcDbEntity
  8
M02
100
AcDbLine
 10
902.480303
 20
505.510596
 30
0.0
 11
902.480303
 21
465.510596
 31
0.0
  0
LINE
  5
2E0
102
{ACAD_REACTORS
330
B7
102
}
100
AcDbEntity
  8
M02
100
AcDbLine
 10
836.480303
 20
498.010596
 30
0.0
 11
836.480303
 21
453.235596
 31
0.0
  0
LINE
  5
2E1
100
AcDbEntity
  8
M01
100
AcDbLine
 10
899.480303
 20
401.510596
 30
0.0
 11
897.480303
 21
399.510596
 31
0.0
  0
LINE
  5
2E2
100
AcDbEntity
  8
M01
100
AcDbLine
 10
897.480303
 20
507.510596
 30
0.0
 11
899.480303
 21
505.510596
 31
0.0
  0
LINE
  5
2E3
100
AcDbEntity
  8
M01
100
AcDbLine
 10
840.480303
 20
506.510596
 30
0.0
 11
841.480303
 21
507.510596
 31
0.0
  0
LINE
  5
2E4
100
AcDbEntity
  8
M01
100
AcDbLine
 10
841.480303
 20
399.510596
 30
0.0
 11
839.480303
 21
401.510596
 31
0.0
  0
LINE
  5
2E5
102
{ACAD_REACTORS
330
233
330
1BF
102
}
100
AcDbEntity
  8
M01
100
AcDbLine
 10
899.480303
 20
505.510596
 30
0.0
 11
899.480303
 21
460.510596
 31
0.0
  0
LINE
  5
2E6
100
AcDbEntity
  8
M01
100
AcDbLine
 10
841.480303
 20
399.510596
 30
0.0
 11
897.480303
 21
399.510596
 31
0.0
  0
LINE
  5
2E7
100
AcDbEntity
  8
M01
100
AcDbLine
 10
841.480303
 20
507.510596
 30
0.0
 11
897.480303
 21
507.510596
 31
0.0
  0
LINE
  5
2E8
102
{ACAD_REACTORS
330
B7
102
}
100
AcDbEntity
  8
M01
100
AcDbLine
 10
839.480303
 20
498.010596
 30
0.0
 11
839.480303
 21
401.510596
 31
0.0
  0
LINE
  5
2E9
100
AcDbEntity
  8
DIMS
 62
     4
100
AcDbLine
 10
682.365534
 20
382.559226
 30
0.0
 11
677.565534
 21
382.559226
 31
0.0
  0
LINE
  5
2EA
100
AcDbEntity
  8
DIMS
 62
     4
100
AcDbLine
 10
689.165534
 20
382.559226
 30
0.0
 11
693.965534
 21
382.559226
 31
0.0
  0
LINE
  5
2EB
100
AcDbEntity
  8
DIMS
 62
     4
100
AcDbLine
 10
687.465534
 20
382.559226
 30
0.0
 11
684.065534
 21
382.559226
 31
0.0
  0
CIRCLE
  5
2EC
100
AcDbEntity
  8
M04
100
AcDbCircle
 10
685.765534
 20
382.559226
 30
0.0
 40
6.5
  0
LINE
  5
2ED
100
AcDbEntity
  8
DIMS
 62
     4
100
AcDbLine
 10
507.365534
 20
382.559226
 30
0.0
 11
502.565534
 21
382.559226
 31
0.0
  0
LINE
  5
2EE
100
AcDbEntity
  8
DIMS
 62
     4
100
AcDbLine
 10
514.165534
 20
382.559226
 30
0.0
 11
518.965534
 21
382.559226
 31
0.0
  0
LINE
  5
2EF
100
AcDbEntity
  8
DIMS
 62
     4
100
AcDbLine
 10
512.465534
 20
382.559226
 30
0.0
 11
509.065534
 21
382.559226
 31
0.0
  0
CIRCLE
  5
2F0
100
AcDbEntity
  8
M04
100
AcDbCircle
 10
510.765534
 20
382.559226
 30
0.0
 40
6.5
  0
LINE
  5
2F1
100
AcDbEntity
  8
DIMS
 62
     4
100
AcDbLine
 10
164.165534
 20
382.559226
 30
0.0
 11
168.965534
 21
382.559226
 31
0.0
  0
LINE
  5
2F2
100
AcDbEntity
  8
DIMS
 62
     4
100
AcDbLine
 10
157.365534
 20
382.559226
 30
0.0
 11
152.565534
 21
382.559226
 31
0.0
  0
LINE
  5
2F3
100
AcDbEntity
  8
DIMS
 62
     4
100
AcDbLine
 10
159.065534
 20
382.559226
 30
0.0
 11
162.465534
 21
382.559226
 31
0.0
  0
CIRCLE
  5
2F4
100
AcDbEntity
  8
M04
100
AcDbCircle
 10
160.765534
 20
382.559226
 30
0.0
 40
6.5
  0
LINE
  5
2F5
100
AcDbEntity
  8
DIMS
 62
     4
100
AcDbLine
 10
339.165534
 20
382.559226
 30
0.0
 11
343.965534
 21
382.559226
 31
0.0
  0
LINE
  5
2F6
100
AcDbEntity
  8
DIMS
 62
     4
100
AcDbLine
 10
332.365534
 20
382.559226
 30
0.0
 11
327.565534
 21
382.559226
 31
0.0
  0
LINE
  5
2F7
100
AcDbEntity
  8
DIMS
 62
     4
100
AcDbLine
 10
334.065534
 20
382.559226
 30
0.0
 11
337.465534
 21
382.559226
 31
0.0
  0
CIRCLE
  5
2F8
100
AcDbEntity
  8
M04
100
AcDbCircle
 10
335.765534
 20
382.559226
 30
0.0
 40
6.5
  0
LINE
  5
2F9
100
AcDbEntity
  8
DIMS
 62
     4
100
AcDbLine
 10
685.765534
 20
485.959226
 30
0.0
 11
685.765534
 21
490.759226
 31
0.0
  0
LINE
  5
2FA
100
AcDbEntity
  8
DIMS
 62
     4
100
AcDbLine
 10
685.765534
 20
479.159226
 30
0.0
 11
685.765534
 21
474.359226
 31
0.0
  0
LINE
  5
2FB
100
AcDbEntity
  8
DIMS
 62
     4
100
AcDbLine
 10
682.365534
 20
482.559226
 30
0.0
 11
677.565534
 21
482.559226
 31
0.0
  0
LINE
  5
2FC
100
AcDbEntity
  8
DIMS
 62
     4
100
AcDbLine
 10
689.165534
 20
482.559226
 30
0.0
 11
693.965534
 21
482.559226
 31
0.0
  0
LINE
  5
2FD
100
AcDbEntity
  8
DIMS
 62
     4
100
AcDbLine
 10
685.765534
 20
480.859226
 30
0.0
 11
685.765534
 21
484.259226
 31
0.0
  0
LINE
  5
2FE
100
AcDbEntity
  8
DIMS
 62
     4
100
AcDbLine
 10
687.465534
 20
482.559226
 30
0.0
 11
684.065534
 21
482.559226
 31
0.0
  0
CIRCLE
  5
2FF
100
AcDbEntity
  8
M04
100
AcDbCircle
 10
685.765534
 20
482.559226
 30
0.0
 40
6.5
  0
LINE
  5
300
100
AcDbEntity
  8
DIMS
 62
     4
100
AcDbLine
 10
510.765534
 20
485.959226
 30
0.0
 11
510.765534
 21
490.759226
 31
0.0
  0
LINE
  5
301
100
AcDbEntity
  8
DIMS
 62
     4
100
AcDbLine
 10
510.765534
 20
479.159226
 30
0.0
 11
510.765534
 21
474.359226
 31
0.0
  0
LINE
  5
302
100
AcDbEntity
  8
DIMS
 62
     4
100
AcDbLine
 10
507.365534
 20
482.559226
 30
0.0
 11
502.565534
 21
482.559226
 31
0.0
  0
LINE
  5
303
100
AcDbEntity
  8
DIMS
 62
     4
100
AcDbLine
 10
514.165534
 20
482.559226
 30
0.0
 11
518.965534
 21
482.559226
 31
0.0
  0
LINE
  5
304
100
AcDbEntity
  8
DIMS
 62
     4
100
AcDbLine
 10
510.765534
 20
480.859226
 30
0.0
 11
510.765534
 21
484.259226
 31
0.0
  0
LINE
  5
305
100
AcDbEntity
  8
DIMS
 62
     4
100
AcDbLine
 10
512.465534
 20
482.559226
 30
0.0
 11
509.065534
 21
482.559226
 31
0.0
  0
CIRCLE
  5
306
100
AcDbEntity
  8
M04
100
AcDbCircle
 10
510.765534
 20
482.559226
 30
0.0
 40
6.5
  0
LINE
  5
307
100
AcDbEntity
  8
DIMS
 62
     4
100
AcDbLine
 10
160.765534
 20
485.959226
 30
0.0
 11
160.765534
 21
490.759226
 31
0.0
  0
LINE
  5
308
100
AcDbEntity
  8
DIMS
 62
     4
100
AcDbLine
 10
160.765534
 20
479.159226
 30
0.0
 11
160.765534
 21
474.359226
 31
0.0
  0
LINE
  5
309
100
AcDbEntity
  8
DIMS
 62
     4
100
AcDbLine
 10
164.165534
 20
482.559226
 30
0.0
 11
168.965534
 21
482.559226
 31
0.0
  0
LINE
  5
30A
100
AcDbEntity
  8
DIMS
 62
     4
100
AcDbLine
 10
157.365534
 20
482.559226
 30
0.0
 11
152.565534
 21
482.559226
 31
0.0
  0
LINE
  5
30B
100
AcDbEntity
  8
DIMS
 62
     4
100
AcDbLine
 10
160.765534
 20
480.859226
 30
0.0
 11
160.765534
 21
484.259226
 31
0.0
  0
LINE
  5
30C
100
AcDbEntity
  8
DIMS
 62
     4
100
AcDbLine
 10
159.065534
 20
482.559226
 30
0.0
 11
162.465534
 21
482.559226
 31
0.0
  0
CIRCLE
  5
30D
100
AcDbEntity
  8
M04
100
AcDbCircle
 10
160.765534
 20
482.559226
 30
0.0
 40
6.5
  0
DIMENSION
  5
30E
100
AcDbEntity
  8
DIMS
100
AcDbDimension
  2
*D4
 10
685.765534
 20
350.264883
 30
0.0
 11
598.265534
 21
353.264883
 31
0.0
  1
A=<>
  3
DIM1
100
AcDbAlignedDimension
 13
510.765534
 23
415.859226
 33
0.0
 14
685.765534
 24
415.859226
 34
0.0
100
AcDbRotatedDimension
1001
ACAD
1000
DSTYLE
1002
{
1070
    75
1070
     1
1070
   144
1040
1.0
1070
   287
1070
     4
1002
}
  0
DIMENSION
  5
31A
100
AcDbEntity
  8
DIMS
100
AcDbDimension
  2
*D3
 10
510.765534
 20
350.264883
 30
0.0
 11
423.265534
 21
353.264883
 31
0.0
  1
B=<>
  3
DIM1
100
AcDbAlignedDimension
 13
335.765534
 23
415.859226
 33
0.0
 14
510.765534
 24
415.859226
 34
0.0
100
AcDbRotatedDimension
1001
ACAD
1000
DSTYLE
1002
{
1070
    75
1070
     1
1070
   144
1040
1.0
1070
   287
1070
     4
1002
}
  0
DIMENSION
  5
326
100
AcDbEntity
  8
DIMS
100
AcDbDimension
  2
*D2
 10
335.765534
 20
350.264883
 30
0.0
 11
248.265534
 21
353.264883
 31
0.0
  1
A=<>
  3
DIM1
100
AcDbAlignedDimension
 13
160.765534
 23
415.859226
 33
0.0
 14
335.765534
 24
415.859226
 34
0.0
100
AcDbRotatedDimension
1001
ACAD
1000
DSTYLE
1002
{
1070
   144
1040
1.0
1002
}
  0
LINE
  5
333
100
AcDbEntity
  8
M04
100
AcDbLine
 10
136.765534
 20
471.559226
 30
0.0
 11
384.265534
 21
471.559226
 31
0.0
  0
POINT
  5
334
100
AcDbEntity
  8
DEFPOINTS
  6
BYBLOCK
 62
     0
100
AcDbPoint
 10
423.265534
 20
280.013886
 30
0.0
  0
LINE
  5
335
102
{ACAD_REACTORS
330
20
102
}
100
AcDbEntity
  8
M04
100
AcDbLine
 10
413.065534
 20
280.013886
 30
0.0
 11
413.765534
 21
279.313886
 31
0.0
  0
LINE
  5
336
102
{ACAD_REACTORS
330
B6
102
}
100
AcDbEntity
  8
M04
100
AcDbLine
 10
433.465534
 20
280.013886
 30
0.0
 11
432.765534
 21
279.313886
 31
0.0
  0
HATCH
  5
337
100
AcDbEntity
  8
HATCH
100
AcDbHatch
 10
0.0
 20
0.0
 30
0.0
210
0.0
220
0.0
230
1.0
  2
_U
 70
     0
 71
     1
 91
        2
 92
        7
 72
     1
 73
     1
 93
        2
 10
133.7655344179456
 20
276.0138856722448
 42
1.0
 10
141.7655344179456
 20
276.0138856722448
 42
1.0
 97
        1
330
372
 92
        7
 72
     1
 73
     1
 93
        2
 10
141.7655344179456
 20
224.0138856722445
 42
1.0
 10
133.7655344179456
 20
224.0138856722445
 42
1.0
 97
        1
330
369
 75
     0
 76
     0
 52
45.0
 41
0.8
 77
     0
 78
     1
 53
45.0
 43
-307.181706
 44
-14.472589
 45
-0.565685424949238
 46
0.565685424949238
 79
     0
 47
0.251927
 98
        2
 10
136.302432
 20
277.784946
 10
139.326805
 20
238.988148
  0
HATCH
  5
338
100
AcDbEntity
  8
M03
100
AcDbHatch
 10
0.0
 20
0.0
 30
0.0
210
0.0
220
0.0
230
1.0
  2
_U
 70
     0
 71
     0
 91
        1
 92
        7
 72
     0
 73
     1
 93
        4
 10
171.4584716247606
 20
404.4592260810629
 10
142.2200122101252
 20
404.4592260810629
 10
142.2200122101252
 20
402.5592260810629
 10
171.4584716247607
 20
402.559226081063
 97
        0
 75
     0
 76
     0
 52
330.0
 41
0.7
 77
     0
 78
     1
 53
330.0
 43
-319.681706
 44
0.0
 45
0.3500000000000003
 46
0.6062177826491069
 79
     0
 47
0.060863
 98
        1
 10
167.7673
 20
403.271795
  0
HATCH
  5
339
100
AcDbEntity
  8
M03
100
AcDbHatch
 10
0.0
 20
0.0
 30
0.0
210
0.0
220
0.0
230
1.0
  2
_U
 70
     0
 71
     0
 91
        1
 92
        7
 72
     0
 73
     1
 93
        4
 10
171.4584716247607
 20
404.4592260810629
 10
142.2200122101251
 20
404.4592260810629
 10
142.2200122101251
 20
402.5592260810628
 10
171.4584716247608
 20
402.559226081063
 97
        0
 75
     0
 76
     0
 52
30.0
 41
0.7
 77
     0
 78
     1
 53
30.0
 43
-319.681706
 44
0.0
 45
-0.3499999999999999
 46
0.6062177826491072
 79
     0
 47
0.060863
 98
        1
 10
167.584636
 20
403.515247
  0
HATCH
  5
33A
100
AcDbEntity
  8
HATCH
100
AcDbHatch
 10
0.0
 20
0.0
 30
0.0
210
0.0
220
0.0
230
1.0
  2
_U
 70
     0
 71
     1
 91
        2
 92
        7
 72
     0
 73
     1
 93
       11
 10
152.9066524304885
 20
220.0138856722447
 10
147.4655344179457
 20
220.0138856722447
 10
146.7655344179456
 20
219.3138856722447
 10
146.7655344179457
 20
213.7138856722444
 10
147.4655344179457
 20
213.0138856722445
 10
150.2655344179458
 20
213.0138856722445
 10
151.2655344179456
 20
214.0138856722444
 10
153.2655344179452
 20
214.0138856722446
 10
154.2655344179449
 20
213.0138856722445
 10
157.2655344179455
 20
213.0138856722445
 10
157.2655344179455
 20
215.6550036847876
 97
       10
330
532
330
447
330
44C
330
448
330
538
330
33E
330
340
330
33F
330
435
330
437
 92
        7
 72
     0
 73
     1
 93
       11
 10
168.6244164054027
 20
220.0138856722446
 10
164.2655344179456
 20
215.6550036847875
 10
164.2655344179456
 20
213.0138856722445
 10
167.2655344179464
 20
213.0138856722445
 10
168.2655344179461
 20
214.0138856722446
 10
170.2655344179456
 20
214.0138856722444
 10
171.2655344179455
 20
213.0138856722445
 10
174.0655344179456
 20
213.0138856722445
 10
174.7655344179455
 20
213.7138856722444
 10
174.7655344179456
 20
219.3138856722447
 10
174.0655344179457
 20
220.0138856722446
 97
       10
330
442
330
532
330
439
330
434
330
41C
330
33C
330
33D
330
33B
330
443
330
444
 75
     0
 76
     0
 52
135.0
 41
1.5
 77
     0
 78
     1
 53
135.0
 43
-339.681706
 44
-27.472589
 45
-1.060660171779821
 46
-1.060660171779821
 79
     0
 47
0.040219
 98
        2
 10
151.917317
 20
217.493456
 10
170.385605
 20
217.051044
  0
LINE
  5
33B
102
{ACAD_REACTORS
330
33A
102
}
100
AcDbEntity
  8
M05
100
AcDbLine
 10
170.265534
 20
214.013886
 30
0.0
 11
171.265534
 21
213.013886
 31
0.0
  0
LINE
  5
33C
102
{ACAD_REACTORS
330
33A
102
}
100
AcDbEntity
  8
M05
100
AcDbLine
 10
168.265534
 20
214.013886
 30
0.0
 11
167.265534
 21
213.013886
 31
0.0
  0
LINE
  5
33D
102
{ACAD_REACTORS
330
33A
102
}
100
AcDbEntity
  8
M05
100
AcDbLine
 10
170.265534
 20
214.013886
 30
0.0
 11
168.265534
 21
214.013886
 31
0.0
  0
LINE
  5
33E
102
{ACAD_REACTORS
330
33A
102
}
100
AcDbEntity
  8
M05
100
AcDbLine
 10
151.265534
 20
214.013886
 30
0.0
 11
150.265534
 21
213.013886
 31
0.0
  0
LINE
  5
33F
102
{ACAD_REACTORS
330
33A
102
}
100
AcDbEntity
  8
M05
100
AcDbLine
 10
153.265534
 20
214.013886
 30
0.0
 11
154.265534
 21
213.013886
 31
0.0
  0
LINE
  5
340
102
{ACAD_REACTORS
330
33A
102
}
100
AcDbEntity
  8
M05
100
AcDbLine
 10
151.265534
 20
214.013886
 30
0.0
 11
153.265534
 21
214.013886
 31
0.0
  0
HATCH
  5
341
100
AcDbEntity
  8
HATCH
100
AcDbHatch
 10
0.0
 20
0.0
 30
0.0
210
0.0
220
0.0
230
1.0
  2
_U
 70
     0
 71
     0
 91
        2
 92
        7
 72
     0
 73
     1
 93
       11
 10
677.9066524304885
 20
220.0138856722446
 10
672.4655344179457
 20
220.0138856722447
 10
671.7655344179457
 20
219.3138856722447
 10
671.7655344179457
 20
213.7138856722444
 10
672.4655344179454
 20
213.0138856722445
 10
675.2655344179457
 20
213.0138856722445
 10
676.2655344179454
 20
214.0138856722444
 10
678.2655344179452
 20
214.0138856722446
 10
679.2655344179447
 20
213.0138856722445
 10
682.2655344179454
 20
213.0138856722445
 10
682.2655344179454
 20
215.6550036847876
 97
        0
 92
        7
 72
     0
 73
     1
 93
       11
 10
699.7655344179456
 20
219.3138856722446
 10
699.0655344179456
 20
220.0138856722446
 10
693.6244164054025
 20
220.0138856722445
 10
689.2655344179456
 20
215.6550036847875
 10
689.2655344179456
 20
213.0138856722445
 10
692.2655344179463
 20
213.0138856722445
 10
693.2655344179461
 20
214.0138856722445
 10
695.2655344179456
 20
214.0138856722444
 10
696.2655344179454
 20
213.0138856722445
 10
699.0655344179456
 20
213.0138856722445
 10
699.7655344179454
 20
213.7138856722443
 97
        0
 75
     0
 76
     0
 52
135.0
 41
1.5
 77
     0
 78
     1
 53
135.0
 43
75.318294
 44
-27.472589
 45
-1.060660171779821
 46
-1.060660171779821
 79
     0
 47
0.151518
 98
        2
 10
676.241465
 20
216.697923
 10
694.885875
 20
217.303994
  0
LINE
  5
342
100
AcDbEntity
  8
M05
100
AcDbLine
 10
676.265534
 20
214.013886
 30
0.0
 11
675.265534
 21
213.013886
 31
0.0
  0
LINE
  5
343
100
AcDbEntity
  8
M05
100
AcDbLine
 10
678.265534
 20
214.013886
 30
0.0
 11
679.265534
 21
213.013886
 31
0.0
  0
LINE
  5
344
100
AcDbEntity
  8
M05
100
AcDbLine
 10
676.265534
 20
214.013886
 30
0.0
 11
678.265534
 21
214.013886
 31
0.0
  0
LINE
  5
345
100
AcDbEntity
  8
M05
100
AcDbLine
 10
695.265534
 20
214.013886
 30
0.0
 11
696.265534
 21
213.013886
 31
0.0
  0
LINE
  5
346
100
AcDbEntity
  8
M05
100
AcDbLine
 10
693.265534
 20
214.013886
 30
0.0
 11
692.265534
 21
213.013886
 31
0.0
  0
LINE
  5
347
100
AcDbEntity
  8
M05
100
AcDbLine
 10
695.265534
 20
214.013886
 30
0.0
 11
693.265534
 21
214.013886
 31
0.0
  0
LINE
  5
348
100
AcDbEntity
  8
M02
100
AcDbLine
 10
667.765534
 20
280.013886
 30
0.0
 11
667.765534
 21
283.013886
 31
0.0
  0
LINE
  5
349
100
AcDbEntity
  8
M02
100
AcDbLine
 10
703.765534
 20
280.013886
 30
0.0
 11
703.765534
 21
283.013886
 31
0.0
  0
MTEXT
  5
34A
100
AcDbEntity
  8
0
  6
BYBLOCK
 62
     2
100
AcDbMText
 10
508.701285
 20
508.3582
 30
0.0
 40
3.0
 41
0.0
 71
     4
 72
     1
  1
M12 PLATE RETAINING SCREWS SHOULD ALSO BE FITTED.\PMINIMUM 2 PER DROP & ALSO AROUND MANIFOLD POCKET.
  0
SOLID
  5
34B
100
AcDbEntity
  8
0
  6
BYBLOCK
 62
     4
100
AcDbTrace
 10
517.804975
 20
488.968819
 30
0.0
 11
516.963
 21
489.508335
 31
0.0
 12
515.765442
 22
486.71265
 32
0.0
 13
515.765442
 23
486.71265
 33
0.0
  0
LINE
  5
34C
100
AcDbEntity
  8
0
  6
BYBLOCK
 62
     4
100
AcDbLine
 10
517.383988
 20
489.238577
 30
0.0
 11
524.866419
 21
501.206208
 31
0.0
  0
LINE
  5
34D
100
AcDbEntity
  8
M01
100
AcDbLine
 10
438.515534
 20
530.503326
 30
0.0
 11
432.015534
 21
530.503326
 31
0.0
  0
LINE
  5
34E
100
AcDbEntity
  8
M01
100
AcDbLine
 10
438.515534
 20
538.615126
 30
0.0
 11
432.015534
 21
538.615126
 31
0.0
  0
LINE
  5
34F
100
AcDbEntity
  8
M01
100
AcDbLine
 10
438.515534
 20
530.503326
 30
0.0
 11
438.515534
 21
528.559226
 31
0.0
  0
ARC
  5
350
100
AcDbEntity
  8
M01
100
AcDbCircle
 10
439.765534
 20
532.064576
 30
0.0
 40
2.0
100
AcDbArc
 50
180.0
 51
231.317813
  0
ARC
  5
351
100
AcDbEntity
  8
M01
100
AcDbCircle
 10
439.765534
 20
537.053876
 30
0.0
 40
2.0
100
AcDbArc
 50
128.682187
 51
180.0
  0
LINE
  5
352
100
AcDbEntity
  8
M01
100
AcDbLine
 10
438.515534
 20
540.559226
 30
0.0
 11
438.515534
 21
538.615126
 31
0.0
  0
LINE
  5
353
100
AcDbEntity
  8
M01
100
AcDbLine
 10
437.765534
 20
537.053876
 30
0.0
 11
437.765534
 21
532.064576
 31
0.0
  0
LINE
  5
354
100
AcDbEntity
  8
M01
100
AcDbLine
 10
432.015534
 20
530.503326
 30
0.0
 11
432.015534
 21
528.559226
 31
0.0
  0
ARC
  5
355
100
AcDbEntity
  8
M01
100
AcDbCircle
 10
430.765534
 20
532.064576
 30
0.0
 40
2.0
100
AcDbArc
 50
308.682187
 51
0.0
  0
ARC
  5
356
100
AcDbEntity
  8
M01
100
AcDbCircle
 10
430.765534
 20
537.053876
 30
0.0
 40
2.0
100
AcDbArc
 50
0.0
 51
51.317813
  0
LINE
  5
357
100
AcDbEntity
  8
M01
100
AcDbLine
 10
432.015534
 20
540.559226
 30
0.0
 11
432.015534
 21
538.615126
 31
0.0
  0
LINE
  5
358
100
AcDbEntity
  8
M01
100
AcDbLine
 10
432.765534
 20
537.053876
 30
0.0
 11
432.765534
 21
532.064576
 31
0.0
  0
LINE
  5
359
100
AcDbEntity
  8
DIMS
 62
     4
100
AcDbLine
 10
335.765534
 20
485.959226
 30
0.0
 11
335.765534
 21
490.759226
 31
0.0
  0
LINE
  5
35A
100
AcDbEntity
  8
DIMS
 62
     4
100
AcDbLine
 10
335.765534
 20
479.159226
 30
0.0
 11
335.765534
 21
474.359226
 31
0.0
  0
LINE
  5
35B
100
AcDbEntity
  8
DIMS
 62
     4
100
AcDbLine
 10
339.165534
 20
482.559226
 30
0.0
 11
343.965534
 21
482.559226
 31
0.0
  0
LINE
  5
35C
100
AcDbEntity
  8
DIMS
 62
     4
100
AcDbLine
 10
332.365534
 20
482.559226
 30
0.0
 11
327.565534
 21
482.559226
 31
0.0
  0
LINE
  5
35D
100
AcDbEntity
  8
DIMS
 62
     4
100
AcDbLine
 10
335.765534
 20
480.859226
 30
0.0
 11
335.765534
 21
484.259226
 31
0.0
  0
LINE
  5
35E
100
AcDbEntity
  8
DIMS
 62
     4
100
AcDbLine
 10
334.065534
 20
482.559226
 30
0.0
 11
337.465534
 21
482.559226
 31
0.0
  0
CIRCLE
  5
35F
100
AcDbEntity
  8
M04
100
AcDbCircle
 10
335.765534
 20
482.559226
 30
0.0
 40
6.5
  0
HATCH
  5
360
100
AcDbEntity
  8
DIMS
100
AcDbHatch
 10
0.0
 20
0.0
 30
0.0
210
0.0
220
0.0
230
1.0
  2
_U
 70
     0
 71
     1
 91
        5
 92
        7
 72
     0
 73
     1
 93
        9
 10
454.7655344179457
 20
218.0138856722444
 10
454.7655344179457
 20
214.0138856722445
 10
456.5655344179458
 20
214.0138856722445
 10
457.2655344179459
 20
214.7138856722445
 10
457.2655344179459
 20
219.3138856722446
 10
456.5655344179456
 20
220.0138856722447
 10
452.9655344179457
 20
220.0138856722447
 10
452.9655344179456
 20
218.0138856722445
 10
454.5155344179459
 20
218.0138856722445
 97
        9
330
516
330
39F
330
3B3
330
3A4
330
3B8
330
3A6
330
519
330
517
330
51A
 92
        7
 72
     1
 73
     1
 93
       16
 10
442.5655344179456
 20
209.0138856722445
 42
0.0
 10
443.2655344179457
 20
209.7138856722446
 42
0.0
 10
443.2655344179456
 20
211.0138856722446
 42
0.0
 10
442.7655344179457
 20
211.0138856722445
 42
0.0
 10
442.7655344179457
 20
214.0138856722445
 42
0.0
 10
443.7655344179457
 20
214.0138856722445
 42
0.0
 10
443.7655344179457
 20
218.0138856722445
 42
0.0
 10
444.0155344179458
 20
218.0138856722445
 42
0.0
 10
445.5655344179456
 20
218.0138856722445
 42
0.0
 10
445.5655344179457
 20
220.0138856722447
 42
0.0
 10
433.2655344179455
 20
220.0138856722447
 42
0.0
 10
433.2655344179455
 20
229.0138856722444
 42
0.0
 10
432.2655344179455
 20
230.0138856722444
 42
0.0
 10
427.2655344179457
 20
230.0138856722445
 42
0.0
 10
426.3064084158416
 20
211.7126713253457
 42
-0.1092323044357261
 10
432.4306858078571
 20
209.0138856722444
 42
0.0
 97
       16
330
519
330
3A7
330
3A5
330
3A4
330
3B2
330
4F7
330
523
330
51F
330
521
330
500
330
501
330
50F
330
50E
330
511
330
50C
330
50B
 92
        7
 72
     1
 73
     1
 93
       16
 10
420.2246604200495
 20
211.7126713253457
 42
0.0
 10
419.2655344179457
 20
230.0138856722445
 42
0.0
 10
414.2655344179456
 20
230.0138856722445
 42
0.0
 10
413.2655344179457
 20
229.0138856722445
 42
0.0
 10
413.2655344179457
 20
220.0138856722447
 42
0.0
 10
400.9655344179456
 20
220.0138856722447
 42
0.0
 10
400.9655344179456
 20
218.0138856722445
 42
0.0
 10
402.5155344179455
 20
218.0138856722445
 42
0.0
 10
402.7655344179455
 20
218.0138856722445
 42
0.0
 10
402.7655344179455
 20
214.0138856722446
 42
0.0
 10
403.7655344179457
 20
214.0138856722446
 42
0.0
 10
403.7655344179456
 20
211.0138856722443
 42
0.0
 10
403.2655344179458
 20
211.0138856722443
 42
0.0
 10
403.2655344179456
 20
209.7138856722442
 42
0.0
 10
403.9655344179458
 20
209.0138856722442
 42
0.0
 10
414.1003830280339
 20
209.0138856722443
 42
-0.1092323044357273
 97
       16
330
521
330
520
330
522
330
532
330
397
330
389
330
38A
330
38C
330
509
330
50A
330
508
330
510
330
50D
330
50F
330
4FD
330
4FF
 92
        7
 72
     0
 73
     1
 93
        9
 10
391.7655344179456
 20
218.0138856722444
 10
392.0155344179454
 20
218.0138856722444
 10
393.5655344179456
 20
218.0138856722444
 10
393.5655344179457
 20
220.0138856722447
 10
389.9655344179456
 20
220.0138856722447
 10
389.2655344179454
 20
219.3138856722446
 10
389.2655344179454
 20
214.7138856722446
 10
389.9655344179452
 20
214.0138856722446
 10
391.7655344179456
 20
214.0138856722446
 97
        9
330
532
330
514
330
515
330
4F5
330
509
330
38B
330
39D
330
389
330
398
 92
       24
 93
        4
 72
     1
 10
427.839615
 20
215.081373
 11
442.211044
 21
215.081373
 72
     1
 10
442.211044
 20
215.081373
 11
442.211044
 21
218.081373
 72
     1
 10
442.211044
 20
218.081373
 11
427.839615
 21
218.081373
 72
     1
 10
427.839615
 20
218.081373
 11
427.839615
 21
215.081373
 97
        1
330
4F1
 75
     0
 76
     0
 52
135.0
 41
2.5
 77
     0
 78
     1
 53
135.0
 43
-132.181706
 44
-27.472589
 45
-1.767766952966368
 46
-1.767766952966368
 79
     0
 47
0.085632
 98
        4
 10
455.762497
 20
218.37187
 10
438.115052
 20
212.377641
 10
415.327573
 20
213.576487
 10
391.083754
 20
218.37187
  0
LINE
  5
361
100
AcDbEntity
  8
DIMS
 62
     4
100
AcDbLine
 10
134.365534
 20
224.013886
 30
0.0
 11
132.065534
 21
224.013886
 31
0.0
  0
LINE
  5
362
100
AcDbEntity
  8
DIMS
 62
     4
100
AcDbLine
 10
141.165534
 20
224.013886
 30
0.0
 11
143.465534
 21
224.013886
 31
0.0
  0
LINE
  5
363
100
AcDbEntity
  8
DIMS
 62
     4
100
AcDbLine
 10
137.765534
 20
227.413886
 30
0.0
 11
137.765534
 21
229.713886
 31
0.0
  0
LINE
  5
364
100
AcDbEntity
  8
DIMS
 62
     4
100
AcDbLine
 10
137.765534
 20
220.613886
 30
0.0
 11
137.765534
 21
218.313886
 31
0.0
  0
LINE
  5
365
100
AcDbEntity
  8
DIMS
 62
     4
100
AcDbLine
 10
139.465534
 20
224.013886
 30
0.0
 11
136.065534
 21
224.013886
 31
0.0
  0
LINE
  5
366
100
AcDbEntity
  8
DIMS
 62
     4
100
AcDbLine
 10
137.765534
 20
222.313886
 30
0.0
 11
137.765534
 21
225.713886
 31
0.0
  0
LINE
  5
367
102
{ACAD_REACTORS
330
20
102
}
100
AcDbEntity
  8
M01
100
AcDbLine
 10
141.765534
 20
224.013886
 30
0.0
 11
141.765534
 21
220.013886
 31
0.0
  0
LINE
  5
368
102
{ACAD_REACTORS
330
20
102
}
100
AcDbEntity
  8
M01
100
AcDbLine
 10
133.765534
 20
224.013886
 30
0.0
 11
133.765534
 21
220.013886
 31
0.0
  0
CIRCLE
  5
369
102
{ACAD_REACTORS
330
337
330
20
102
}
100
AcDbEntity
  8
M01
100
AcDbCircle
 10
137.765534
 20
224.013886
 30
0.0
 40
4.0
  0
LINE
  5
36A
100
AcDbEntity
  8
DIMS
 62
     4
100
AcDbLine
 10
134.365534
 20
276.013886
 30
0.0
 11
132.065534
 21
276.013886
 31
0.0
  0
LINE
  5
36B
100
AcDbEntity
  8
DIMS
 62
     4
100
AcDbLine
 10
141.165534
 20
276.013886
 30
0.0
 11
143.465534
 21
276.013886
 31
0.0
  0
LINE
  5
36C
100
AcDbEntity
  8
DIMS
 62
     4
100
AcDbLine
 10
137.765534
 20
272.613886
 30
0.0
 11
137.765534
 21
270.313886
 31
0.0
  0
LINE
  5
36D
100
AcDbEntity
  8
DIMS
 62
     4
100
AcDbLine
 10
137.765534
 20
279.413886
 30
0.0
 11
137.765534
 21
281.713886
 31
0.0
  0
LINE
  5
36E
100
AcDbEntity
  8
DIMS
 62
     4
100
AcDbLine
 10
139.465534
 20
276.013886
 30
0.0
 11
136.065534
 21
276.013886
 31
0.0
  0
LINE
  5
36F
100
AcDbEntity
  8
DIMS
 62
     4
100
AcDbLine
 10
137.765534
 20
277.713886
 30
0.0
 11
137.765534
 21
274.313886
 31
0.0
  0
LINE
  5
370
102
{ACAD_REACTORS
330
20
102
}
100
AcDbEntity
  8
M01
100
AcDbLine
 10
141.765534
 20
276.013886
 30
0.0
 11
141.765534
 21
280.013886
 31
0.0
  0
LINE
  5
371
102
{ACAD_REACTORS
330
20
102
}
100
AcDbEntity
  8
M01
100
AcDbLine
 10
133.765534
 20
276.013886
 30
0.0
 11
133.765534
 21
280.013886
 31
0.0
  0
CIRCLE
  5
372
102
{ACAD_REACTORS
330
337
330
20
102
}
100
AcDbEntity
  8
M01
100
AcDbCircle
 10
137.765534
 20
276.013886
 30
0.0
 40
4.0
  0
LINE
  5
373
100
AcDbEntity
  8
DIMS
 62
     4
100
AcDbLine
 10
712.165534
 20
224.013886
 30
0.0
 11
714.465534
 21
224.013886
 31
0.0
  0
LINE
  5
374
100
AcDbEntity
  8
DIMS
 62
     4
100
AcDbLine
 10
705.365534
 20
224.013886
 30
0.0
 11
703.065534
 21
224.013886
 31
0.0
  0
LINE
  5
375
100
AcDbEntity
  8
DIMS
 62
     4
100
AcDbLine
 10
708.765534
 20
227.413886
 30
0.0
 11
708.765534
 21
229.713886
 31
0.0
  0
LINE
  5
376
100
AcDbEntity
  8
DIMS
 62
     4
100
AcDbLine
 10
708.765534
 20
220.613886
 30
0.0
 11
708.765534
 21
218.313886
 31
0.0
  0
LINE
  5
377
100
AcDbEntity
  8
DIMS
 62
     4
100
AcDbLine
 10
707.065534
 20
224.013886
 30
0.0
 11
710.465534
 21
224.013886
 31
0.0
  0
LINE
  5
378
100
AcDbEntity
  8
DIMS
 62
     4
100
AcDbLine
 10
708.765534
 20
222.313886
 30
0.0
 11
708.765534
 21
225.713886
 31
0.0
  0
LINE
  5
379
102
{ACAD_REACTORS
330
B6
102
}
100
AcDbEntity
  8
M01
100
AcDbLine
 10
704.765534
 20
224.013886
 30
0.0
 11
704.765534
 21
220.013886
 31
0.0
  0
LINE
  5
37A
102
{ACAD_REACTORS
330
B6
102
}
100
AcDbEntity
  8
M01
100
AcDbLine
 10
712.765534
 20
224.013886
 30
0.0
 11
712.765534
 21
220.013886
 31
0.0
  0
CIRCLE
  5
37B
102
{ACAD_REACTORS
330
14A
330
B6
102
}
100
AcDbEntity
  8
M01
100
AcDbCircle
 10
708.765534
 20
224.013886
 30
0.0
 40
4.0
  0
LINE
  5
37C
100
AcDbEntity
  8
DIMS
 62
     4
100
AcDbLine
 10
712.165534
 20
276.013886
 30
0.0
 11
714.465534
 21
276.013886
 31
0.0
  0
LINE
  5
37D
100
AcDbEntity
  8
DIMS
 62
     4
100
AcDbLine
 10
705.365534
 20
276.013886
 30
0.0
 11
703.065534
 21
276.013886
 31
0.0
  0
LINE
  5
37E
100
AcDbEntity
  8
DIMS
 62
     4
100
AcDbLine
 10
708.765534
 20
272.613886
 30
0.0
 11
708.765534
 21
270.313886
 31
0.0
  0
LINE
  5
37F
100
AcDbEntity
  8
DIMS
 62
     4
100
AcDbLine
 10
708.765534
 20
279.413886
 30
0.0
 11
708.765534
 21
281.713886
 31
0.0
  0
LINE
  5
380
100
AcDbEntity
  8
DIMS
 62
     4
100
AcDbLine
 10
707.065534
 20
276.013886
 30
0.0
 11
710.465534
 21
276.013886
 31
0.0
  0
LINE
  5
381
100
AcDbEntity
  8
DIMS
 62
     4
100
AcDbLine
 10
708.765534
 20
277.713886
 30
0.0
 11
708.765534
 21
274.313886
 31
0.0
  0
LINE
  5
382
102
{ACAD_REACTORS
330
B6
102
}
100
AcDbEntity
  8
M01
100
AcDbLine
 10
704.765534
 20
276.013886
 30
0.0
 11
704.765534
 21
280.013886
 31
0.0
  0
LINE
  5
383
102
{ACAD_REACTORS
330
B6
102
}
100
AcDbEntity
  8
M01
100
AcDbLine
 10
712.765534
 20
276.013886
 30
0.0
 11
712.765534
 21
280.013886
 31
0.0
  0
CIRCLE
  5
384
102
{ACAD_REACTORS
330
14A
330
B6
102
}
100
AcDbEntity
  8
M01
100
AcDbCircle
 10
708.765534
 20
276.013886
 30
0.0
 40
4.0
  0
LINE
  5
385
102
{ACAD_REACTORS
330
20
102
}
100
AcDbEntity
  8
M04
100
AcDbLine
 10
400.265534
 20
227.313886
 30
0.0
 11
400.265534
 21
229.813886
 31
0.0
  0
LINE
  5
386
102
{ACAD_REACTORS
330
20
102
}
100
AcDbEntity
  8
M04
100
AcDbLine
 10
399.565534
 20
228.013886
 30
0.0
 11
399.565534
 21
231.313886
 31
0.0
  0
LINE
  5
387
102
{ACAD_REACTORS
330
20
102
}
100
AcDbEntity
  8
M04
100
AcDbLine
 10
394.265534
 20
227.313886
 30
0.0
 11
394.265534
 21
229.813886
 31
0.0
  0
LINE
  5
388
102
{ACAD_REACTORS
330
20
102
}
100
AcDbEntity
  8
M04
100
AcDbLine
 10
394.965534
 20
228.013886
 30
0.0
 11
394.965534
 21
231.313886
 31
0.0
  0
LINE
  5
389
102
{ACAD_REACTORS
330
360
102
}
100
AcDbEntity
  8
M05
100
AcDbLine
 10
392.015534
 20
218.013886
 30
0.0
 11
402.515534
 21
218.013886
 31
0.0
  0
LINE
  5
38A
102
{ACAD_REACTORS
330
360
102
}
100
AcDbEntity
  8
M04
100
AcDbLine
 10
402.515534
 20
218.013886
 30
0.0
 11
402.765534
 21
218.013886
 31
0.0
  0
LINE
  5
38B
102
{ACAD_REACTORS
330
360
102
}
100
AcDbEntity
  8
M04
100
AcDbLine
 10
391.765534
 20
218.013886
 30
0.0
 11
391.765534
 21
214.013886
 31
0.0
  0
LINE
  5
38C
102
{ACAD_REACTORS
330
360
102
}
100
AcDbEntity
  8
M04
100
AcDbLine
 10
402.765534
 20
218.013886
 30
0.0
 11
402.765534
 21
214.013886
 31
0.0
  0
LINE
  5
38D
100
AcDbEntity
  8
M05
100
AcDbLine
 10
400.265534
 20
219.013886
 30
0.0
 11
394.265534
 21
219.013886
 31
0.0
  0
LINE
  5
38E
102
{ACAD_REACTORS
330
20
102
}
100
AcDbEntity
  8
M04
100
AcDbLine
 10
394.965534
 20
231.313886
 30
0.0
 11
397.265534
 21
232.641791
 31
0.0
  0
LINE
  5
38F
102
{ACAD_REACTORS
330
20
102
}
100
AcDbEntity
  8
M04
100
AcDbLine
 10
399.565534
 20
231.313886
 30
0.0
 11
397.265534
 21
232.641791
 31
0.0
  0
LINE
  5
390
100
AcDbEntity
  8
M04
100
AcDbLine
 10
399.565534
 20
231.313886
 30
0.0
 11
394.965534
 21
231.313886
 31
0.0
  0
LINE
  5
391
102
{ACAD_REACTORS
330
20
102
}
100
AcDbEntity
  8
M04
100
AcDbLine
 10
400.265534
 20
229.813886
 30
0.0
 11
394.265534
 21
229.813886
 31
0.0
  0
ARC
  5
392
100
AcDbEntity
  8
M05
100
AcDbCircle
 10
397.265534
 20
220.540022
 30
0.0
 40
5.826136
100
AcDbArc
 50
205.69541
 51
334.30459
  0
LINE
  5
393
100
AcDbEntity
  8
M05
100
AcDbLine
 10
394.265534
 20
227.313886
 30
0.0
 11
394.965534
 21
228.013886
 31
0.0
  0
LINE
  5
394
100
AcDbEntity
  8
M05
100
AcDbLine
 10
400.265534
 20
227.313886
 30
0.0
 11
399.565534
 21
228.013886
 31
0.0
  0
LINE
  5
395
100
AcDbEntity
  8
M05
100
AcDbLine
 10
400.265534
 20
227.313886
 30
0.0
 11
394.265534
 21
227.313886
 31
0.0
  0
LINE
  5
396
100
AcDbEntity
  8
M05
100
AcDbLine
 10
399.565534
 20
228.013886
 30
0.0
 11
394.965534
 21
228.013886
 31
0.0
  0
LINE
  5
397
102
{ACAD_REACTORS
330
360
102
}
100
AcDbEntity
  8
M04
100
AcDbLine
 10
400.965534
 20
220.013886
 30
0.0
 11
400.965534
 21
218.013886
 31
0.0
  0
LINE
  5
398
102
{ACAD_REACTORS
330
360
102
}
100
AcDbEntity
  8
M04
100
AcDbLine
 10
393.565534
 20
220.013886
 30
0.0
 11
393.565534
 21
218.013886
 31
0.0
  0
LINE
  5
399
100
AcDbEntity
  8
M05
100
AcDbLine
 10
394.965534
 20
228.013886
 30
0.0
 11
394.965534
 21
219.013886
 31
0.0
  0
LINE
  5
39A
100
AcDbEntity
  8
M05
100
AcDbLine
 10
399.565534
 20
228.013886
 30
0.0
 11
399.565534
 21
219.013886
 31
0.0
  0
LINE
  5
39B
102
{ACAD_REACTORS
330
20
102
}
100
AcDbEntity
  8
M05
100
AcDbLine
 10
400.265534
 20
227.313886
 30
0.0
 11
400.265534
 21
218.013886
 31
0.0
  0
LINE
  5
39C
102
{ACAD_REACTORS
330
20
102
}
100
AcDbEntity
  8
M05
100
AcDbLine
 10
394.265534
 20
227.313886
 30
0.0
 11
394.265534
 21
218.013886
 31
0.0
  0
LINE
  5
39D
102
{ACAD_REACTORS
330
360
102
}
100
AcDbEntity
  8
M04
100
AcDbLine
 10
391.765534
 20
218.013886
 30
0.0
 11
392.015534
 21
218.013886
 31
0.0
  0
LINE
  5
39E
100
AcDbEntity
  8
CENTRE
100
AcDbLine
 10
397.265534
 20
235.280386
 30
0.0
 11
397.265534
 21
210.367697
 31
0.0
  0
LINE
  5
39F
102
{ACAD_REACTORS
330
360
330
B6
330
23
102
}
100
AcDbEntity
  8
M01
100
AcDbLine
 10
452.265534
 20
220.013886
 30
0.0
 11
715.765534
 21
220.013886
 31
0.0
  0
LINE
  5
3A0
102
{ACAD_REACTORS
330
B6
102
}
100
AcDbEntity
  8
M04
100
AcDbLine
 10
446.265534
 20
227.313886
 30
0.0
 11
446.265534
 21
229.813886
 31
0.0
  0
LINE
  5
3A1
102
{ACAD_REACTORS
330
B6
102
}
100
AcDbEntity
  8
M04
100
AcDbLine
 10
446.965534
 20
228.013886
 30
0.0
 11
446.965534
 21
231.313886
 31
0.0
  0
LINE
  5
3A2
102
{ACAD_REACTORS
330
B6
102
}
100
AcDbEntity
  8
M04
100
AcDbLine
 10
452.265534
 20
227.313886
 30
0.0
 11
452.265534
 21
229.813886
 31
0.0
  0
LINE
  5
3A3
102
{ACAD_REACTORS
330
B6
102
}
100
AcDbEntity
  8
M04
100
AcDbLine
 10
451.565534
 20
228.013886
 30
0.0
 11
451.565534
 21
231.313886
 31
0.0
  0
LINE
  5
3A4
102
{ACAD_REACTORS
330
360
102
}
100
AcDbEntity
  8
M05
100
AcDbLine
 10
454.515534
 20
218.013886
 30
0.0
 11
444.015534
 21
218.013886
 31
0.0
  0
LINE
  5
3A5
102
{ACAD_REACTORS
330
360
102
}
100
AcDbEntity
  8
M04
100
AcDbLine
 10
444.015534
 20
218.013886
 30
0.0
 11
443.765534
 21
218.013886
 31
0.0
  0
LINE
  5
3A6
102
{ACAD_REACTORS
330
360
102
}
100
AcDbEntity
  8
M04
100
AcDbLine
 10
454.765534
 20
218.013886
 30
0.0
 11
454.765534
 21
214.013886
 31
0.0
  0
LINE
  5
3A7
102
{ACAD_REACTORS
330
360
102
}
100
AcDbEntity
  8
M04
100
AcDbLine
 10
443.765534
 20
218.013886
 30
0.0
 11
443.765534
 21
214.013886
 31
0.0
  0
LINE
  5
3A8
100
AcDbEntity
  8
M05
100
AcDbLine
 10
446.265534
 20
219.013886
 30
0.0
 11
452.265534
 21
219.013886
 31
0.0
  0
LINE
  5
3A9
102
{ACAD_REACTORS
330
B6
102
}
100
AcDbEntity
  8
M04
100
AcDbLine
 10
451.565534
 20
231.313886
 30
0.0
 11
449.265534
 21
232.641791
 31
0.0
  0
LINE
  5
3AA
102
{ACAD_REACTORS
330
B6
102
}
100
AcDbEntity
  8
M04
100
AcDbLine
 10
446.965534
 20
231.313886
 30
0.0
 11
449.265534
 21
232.641791
 31
0.0
  0
LINE
  5
3AB
100
AcDbEntity
  8
M04
100
AcDbLine
 10
446.965534
 20
231.313886
 30
0.0
 11
451.565534
 21
231.313886
 31
0.0
  0
LINE
  5
3AC
102
{ACAD_REACTORS
330
B6
102
}
100
AcDbEntity
  8
M04
100
AcDbLine
 10
446.265534
 20
229.813886
 30
0.0
 11
452.265534
 21
229.813886
 31
0.0
  0
ARC
  5
3AD
100
AcDbEntity
  8
M05
100
AcDbCircle
 10
449.265534
 20
220.540022
 30
0.0
 40
5.826136
100
AcDbArc
 50
205.69541
 51
334.30459
  0
LINE
  5
3AE
100
AcDbEntity
  8
M05
100
AcDbLine
 10
452.265534
 20
227.313886
 30
0.0
 11
451.565534
 21
228.013886
 31
0.0
  0
LINE
  5
3AF
100
AcDbEntity
  8
M05
100
AcDbLine
 10
446.265534
 20
227.313886
 30
0.0
 11
446.965534
 21
228.013886
 31
0.0
  0
LINE
  5
3B0
100
AcDbEntity
  8
M05
100
AcDbLine
 10
446.265534
 20
227.313886
 30
0.0
 11
452.265534
 21
227.313886
 31
0.0
  0
LINE
  5
3B1
100
AcDbEntity
  8
M05
100
AcDbLine
 10
446.965534
 20
228.013886
 30
0.0
 11
451.565534
 21
228.013886
 31
0.0
  0
LINE
  5
3B2
102
{ACAD_REACTORS
330
360
102
}
100
AcDbEntity
  8
M04
100
AcDbLine
 10
445.565534
 20
220.013886
 30
0.0
 11
445.565534
 21
218.013886
 31
0.0
  0
LINE
  5
3B3
102
{ACAD_REACTORS
330
360
102
}
100
AcDbEntity
  8
M04
100
AcDbLine
 10
452.965534
 20
220.013886
 30
0.0
 11
452.965534
 21
218.013886
 31
0.0
  0
LINE
  5
3B4
100
AcDbEntity
  8
M05
100
AcDbLine
 10
451.565534
 20
228.013886
 30
0.0
 11
451.565534
 21
219.013886
 31
0.0
  0
LINE
  5
3B5
100
AcDbEntity
  8
M05
100
AcDbLine
 10
446.965534
 20
228.013886
 30
0.0
 11
446.965534
 21
219.013886
 31
0.0
  0
LINE
  5
3B6
102
{ACAD_REACTORS
330
B6
102
}
100
AcDbEntity
  8
M05
100
AcDbLine
 10
446.265534
 20
227.313886
 30
0.0
 11
446.265534
 21
218.013886
 31
0.0
  0
LINE
  5
3B7
102
{ACAD_REACTORS
330
B6
102
}
100
AcDbEntity
  8
M05
100
AcDbLine
 10
452.265534
 20
227.313886
 30
0.0
 11
452.265534
 21
218.013886
 31
0.0
  0
LINE
  5
3B8
102
{ACAD_REACTORS
330
360
102
}
100
AcDbEntity
  8
M04
100
AcDbLine
 10
454.765534
 20
218.013886
 30
0.0
 11
454.515534
 21
218.013886
 31
0.0
  0
LINE
  5
3B9
100
AcDbEntity
  8
CENTRE
100
AcDbLine
 10
449.265534
 20
235.280386
 30
0.0
 11
449.265534
 21
210.367697
 31
0.0
  0
LINE
  5
3BA
100
AcDbEntity
  8
DIMS
 62
     4
100
AcDbLine
 10
397.265534
 20
435.959226
 30
0.0
 11
397.265534
 21
439.759226
 31
0.0
  0
LINE
  5
3BB
100
AcDbEntity
  8
DIMS
 62
     4
100
AcDbLine
 10
397.265534
 20
429.159226
 30
0.0
 11
397.265534
 21
425.359226
 31
0.0
  0
LINE
  5
3BC
100
AcDbEntity
  8
DIMS
 62
     4
100
AcDbLine
 10
397.265534
 20
430.859226
 30
0.0
 11
397.265534
 21
434.259226
 31
0.0
  0
LINE
  5
3BD
100
AcDbEntity
  8
DIMS
 62
     4
100
AcDbLine
 10
449.265534
 20
435.959226
 30
0.0
 11
449.265534
 21
439.759226
 31
0.0
  0
LINE
  5
3BE
100
AcDbEntity
  8
DIMS
 62
     4
100
AcDbLine
 10
449.265534
 20
429.159226
 30
0.0
 11
449.265534
 21
425.359226
 31
0.0
  0
LINE
  5
3BF
100
AcDbEntity
  8
DIMS
 62
     4
100
AcDbLine
 10
449.265534
 20
430.859226
 30
0.0
 11
449.265534
 21
434.259226
 31
0.0
  0
LINE
  5
3C0
100
AcDbEntity
  8
DIMS
 62
     4
100
AcDbLine
 10
426.665534
 20
458.559226
 30
0.0
 11
430.465534
 21
458.559226
 31
0.0
  0
LINE
  5
3C1
100
AcDbEntity
  8
DIMS
 62
     4
100
AcDbLine
 10
419.865534
 20
458.559226
 30
0.0
 11
416.065534
 21
458.559226
 31
0.0
  0
LINE
  5
3C2
100
AcDbEntity
  8
DIMS
 62
     4
100
AcDbLine
 10
421.565534
 20
458.559226
 30
0.0
 11
424.965534
 21
458.559226
 31
0.0
  0
MTEXT
  5
3C3
102
{ACAD_REACTORS
330
3C4
102
}
100
AcDbEntity
  8
DIMS
 62
     2
100
AcDbMText
 10
195.425281
 20
368.397196
 30
0.0
 40
3.0
 41
0.0
 71
     4
 72
     5
  1
HGX10037
  0
LEADER
  5
3C4
100
AcDbEntity
  8
DIMS
 62
     4
100
AcDbLeader
  3
DIM1$7
 73
     0
 74
     0
 75
     1
 40
3.0
 41
21.857143
 76
     3
 10
174.73111
 20
402.973989
 30
0.0
 10
190.098677
 20
368.397196
 30
0.0
 10
193.098677
 20
368.397196
 30
0.0
 77
   256
340
3C3
213
-0.8266039885857026
223
0.0
233
0.0
1001
ACAD
1000
DSTYLE
1002
{
1070
   288
1070
     1
1070
   144
1040
1.0
1002
}
  0
CIRCLE
  5
3C6
100
AcDbEntity
  8
M03
100
AcDbCircle
 10
449.265534
 20
432.559226
 30
0.0
 40
2.3
  0
ARC
  5
3C7
100
AcDbEntity
  8
M03
100
AcDbCircle
 10
449.265534
 20
432.559226
 30
0.0
 40
3.0
100
AcDbArc
 50
167.784636
 51
96.923103
  0
CIRCLE
  5
3C8
100
AcDbEntity
  8
M03
100
AcDbCircle
 10
449.265534
 20
432.559226
 30
0.0
 40
5.5
  0
CIRCLE
  5
3C9
100
AcDbEntity
  8
M03
100
AcDbCircle
 10
397.265534
 20
432.559226
 30
0.0
 40
2.3
  0
ARC
  5
3CA
100
AcDbEntity
  8
M03
100
AcDbCircle
 10
397.265534
 20
432.559226
 30
0.0
 40
3.0
100
AcDbArc
 50
167.784636
 51
96.923103
  0
CIRCLE
  5
3CB
100
AcDbEntity
  8
M03
100
AcDbCircle
 10
397.265534
 20
432.559226
 30
0.0
 40
5.5
  0
CIRCLE
  5
3CC
100
AcDbEntity
  8
M03
100
AcDbCircle
 10
423.265534
 20
458.559226
 30
0.0
 40
2.3
  0
ARC
  5
3CD
100
AcDbEntity
  8
M03
100
AcDbCircle
 10
423.265534
 20
458.559226
 30
0.0
 40
3.0
100
AcDbArc
 50
167.784636
 51
96.923103
  0
CIRCLE
  5
3CE
100
AcDbEntity
  8
M03
100
AcDbCircle
 10
423.265534
 20
458.559226
 30
0.0
 40
5.5
  0
LINE
  5
3CF
100
AcDbEntity
  8
M03
100
AcDbLine
 10
188.065534
 20
418.059226
 30
0.0
 11
185.765534
 21
419.387132
 31
0.0
  0
LINE
  5
3D0
100
AcDbEntity
  8
M03
100
AcDbLine
 10
183.465534
 20
418.059226
 30
0.0
 11
185.765534
 21
419.387132
 31
0.0
  0
LINE
  5
3D1
100
AcDbEntity
  8
M03
100
AcDbLine
 10
183.465534
 20
418.059226
 30
0.0
 11
188.065534
 21
418.059226
 31
0.0
  0
LINE
  5
3D2
100
AcDbEntity
  8
M03
100
AcDbLine
 10
182.765534
 20
416.559226
 30
0.0
 11
188.765534
 21
416.559226
 31
0.0
  0
LINE
  5
3D3
100
AcDbEntity
  8
M03
100
AcDbLine
 10
171.458472
 20
404.459226
 30
0.0
 11
142.220012
 21
404.459226
 31
0.0
  0
LINE
  5
3D4
100
AcDbEntity
  8
M03
100
AcDbLine
 10
171.458472
 20
402.559226
 30
0.0
 11
142.220012
 21
402.559226
 31
0.0
  0
LINE
  5
3D5
100
AcDbEntity
  8
M03
100
AcDbLine
 10
178.458472
 20
404.759226
 30
0.0
 11
192.765534
 21
404.759226
 31
0.0
  0
LINE
  5
3D6
100
AcDbEntity
  8
M03
100
AcDbLine
 10
177.413707
 20
405.559226
 30
0.0
 11
177.413707
 21
404.759226
 31
0.0
  0
LINE
  5
3D7
100
AcDbEntity
  8
M03
100
AcDbLine
 10
171.458472
 20
404.759226
 30
0.0
 11
171.458472
 21
402.259226
 31
0.0
  0
LINE
  5
3D8
100
AcDbEntity
  8
M03
100
AcDbLine
 10
171.458472
 20
402.259226
 30
0.0
 11
178.458472
 21
402.259226
 31
0.0
  0
LINE
  5
3D9
100
AcDbEntity
  8
M03
100
AcDbLine
 10
178.458472
 20
404.759226
 30
0.0
 11
178.458472
 21
402.259226
 31
0.0
  0
LINE
  5
3DA
100
AcDbEntity
  8
M03
100
AcDbLine
 10
192.765534
 20
405.559226
 30
0.0
 11
192.765534
 21
404.759226
 31
0.0
  0
ARC
  5
3DB
100
AcDbEntity
  8
M03
100
AcDbCircle
 10
185.765534
 20
407.285362
 30
0.0
 40
5.826136
100
AcDbArc
 50
205.69541
 51
334.30459
  0
LINE
  5
3DC
100
AcDbEntity
  8
M03
100
AcDbLine
 10
188.765534
 20
414.059226
 30
0.0
 11
188.065534
 21
414.759226
 31
0.0
  0
LINE
  5
3DD
100
AcDbEntity
  8
M03
100
AcDbLine
 10
182.765534
 20
414.059226
 30
0.0
 11
183.465534
 21
414.759226
 31
0.0
  0
LINE
  5
3DE
100
AcDbEntity
  8
M03
100
AcDbLine
 10
182.765534
 20
414.059226
 30
0.0
 11
188.765534
 21
414.059226
 31
0.0
  0
LINE
  5
3DF
100
AcDbEntity
  8
M03
100
AcDbLine
 10
183.465534
 20
414.759226
 30
0.0
 11
188.065534
 21
414.759226
 31
0.0
  0
LINE
  5
3E0
100
AcDbEntity
  8
M03
100
AcDbLine
 10
188.765534
 20
405.559226
 30
0.0
 11
195.765534
 21
405.559226
 31
0.0
  0
LINE
  5
3E1
100
AcDbEntity
  8
M03
100
AcDbLine
 10
172.065534
 20
405.559226
 30
0.0
 11
172.065534
 21
404.759226
 31
0.0
  0
LINE
  5
3E2
100
AcDbEntity
  8
M03
100
AcDbLine
 10
189.465534
 20
405.559226
 30
0.0
 11
189.465534
 21
404.759226
 31
0.0
  0
LINE
  5
3E3
100
AcDbEntity
  8
M03
100
AcDbLine
 10
188.065534
 20
418.059226
 30
0.0
 11
188.065534
 21
404.759226
 31
0.0
  0
LINE
  5
3E4
100
AcDbEntity
  8
M03
100
AcDbLine
 10
183.465534
 20
418.059226
 30
0.0
 11
183.465534
 21
404.759226
 31
0.0
  0
LINE
  5
3E5
100
AcDbEntity
  8
M03
100
AcDbLine
 10
182.765534
 20
416.559226
 30
0.0
 11
182.765534
 21
404.759226
 31
0.0
  0
LINE
  5
3E6
100
AcDbEntity
  8
M03
100
AcDbLine
 10
188.765534
 20
416.559226
 30
0.0
 11
188.765534
 21
404.759226
 31
0.0
  0
LINE
  5
3E7
100
AcDbEntity
  8
M03
100
AcDbLine
 10
171.458472
 20
404.759226
 30
0.0
 11
177.413707
 21
404.759226
 31
0.0
  0
LINE
  5
3E8
100
AcDbEntity
  8
M03
100
AcDbLine
 10
195.765534
 20
405.559226
 30
0.0
 11
195.765534
 21
400.559226
 31
0.0
  0
LINE
  5
3E9
100
AcDbEntity
  8
M03
100
AcDbLine
 10
135.765534
 20
405.559226
 30
0.0
 11
182.765534
 21
405.559226
 31
0.0
  0
LINE
  5
3EA
100
AcDbEntity
  8
CENTRE
100
AcDbLine
 10
185.765534
 20
423.757899
 30
0.0
 11
185.765534
 21
396.597749
 31
0.0
  0
CIRCLE
  5
3EB
100
AcDbEntity
  8
M03
100
AcDbCircle
 10
160.765534
 20
432.559226
 30
0.0
 40
2.3
  0
ARC
  5
3EC
100
AcDbEntity
  8
M03
100
AcDbCircle
 10
160.765534
 20
432.559226
 30
0.0
 40
3.0
100
AcDbArc
 50
167.784636
 51
96.923103
  0
CIRCLE
  5
3ED
100
AcDbEntity
  8
M03
100
AcDbCircle
 10
685.765534
 20
432.559226
 30
0.0
 40
2.3
  0
ARC
  5
3EE
100
AcDbEntity
  8
M03
100
AcDbCircle
 10
685.765534
 20
432.559226
 30
0.0
 40
3.0
100
AcDbArc
 50
167.784636
 51
96.923103
  0
LINE
  5
3EF
100
AcDbEntity
  8
DIMS
 62
     4
100
AcDbLine
 10
160.765534
 20
435.959226
 30
0.0
 11
160.765534
 21
449.259226
 31
0.0
  0
LINE
  5
3F0
100
AcDbEntity
  8
DIMS
 62
     4
100
AcDbLine
 10
160.765534
 20
429.159226
 30
0.0
 11
160.765534
 21
415.859226
 31
0.0
  0
LINE
  5
3F1
100
AcDbEntity
  8
DIMS
 62
     4
100
AcDbLine
 10
160.765534
 20
430.859226
 30
0.0
 11
160.765534
 21
434.259226
 31
0.0
  0
LINE
  5
3F2
100
AcDbEntity
  8
DIMS
 62
     4
100
AcDbLine
 10
685.765534
 20
435.959226
 30
0.0
 11
685.765534
 21
449.259226
 31
0.0
  0
LINE
  5
3F3
100
AcDbEntity
  8
DIMS
 62
     4
100
AcDbLine
 10
685.765534
 20
429.159226
 30
0.0
 11
685.765534
 21
415.859226
 31
0.0
  0
LINE
  5
3F4
100
AcDbEntity
  8
DIMS
 62
     4
100
AcDbLine
 10
685.765534
 20
430.859226
 30
0.0
 11
685.765534
 21
434.259226
 31
0.0
  0
LINE
  5
3F5
100
AcDbEntity
  8
M03
100
AcDbLine
 10
686.315534
 20
426.584488
 30
0.0
 11
686.315534
 21
438.533965
 31
0.0
  0
LINE
  5
3F6
100
AcDbEntity
  8
M03
100
AcDbLine
 10
685.215534
 20
426.584488
 30
0.0
 11
685.215534
 21
438.533965
 31
0.0
  0
CIRCLE
  5
3F7
100
AcDbEntity
  8
M03
100
AcDbCircle
 10
685.765534
 20
432.559226
 30
0.0
 40
15.0
  0
CIRCLE
  5
3F8
100
AcDbEntity
  8
M03
100
AcDbCircle
 10
685.765534
 20
432.559226
 30
0.0
 40
14.0
  0
CIRCLE
  5
3F9
100
AcDbEntity
  8
M03
100
AcDbCircle
 10
685.765534
 20
432.559226
 30
0.0
 40
7.858882
  0
CIRCLE
  5
3FA
100
AcDbEntity
  8
M03
100
AcDbCircle
 10
685.765534
 20
432.559226
 30
0.0
 40
6.0
  0
LINE
  5
3FB
100
AcDbEntity
  8
M03
100
AcDbLine
 10
160.215534
 20
426.584488
 30
0.0
 11
160.215534
 21
438.533965
 31
0.0
  0
LINE
  5
3FC
100
AcDbEntity
  8
M03
100
AcDbLine
 10
161.315534
 20
426.584488
 30
0.0
 11
161.315534
 21
438.533965
 31
0.0
  0
CIRCLE
  5
3FD
100
AcDbEntity
  8
M03
100
AcDbCircle
 10
160.765534
 20
432.559226
 30
0.0
 40
15.0
  0
CIRCLE
  5
3FE
100
AcDbEntity
  8
M03
100
AcDbCircle
 10
160.765534
 20
432.559226
 30
0.0
 40
14.0
  0
CIRCLE
  5
3FF
100
AcDbEntity
  8
M03
100
AcDbCircle
 10
160.765534
 20
432.559226
 30
0.0
 40
7.858882
  0
CIRCLE
  5
400
100
AcDbEntity
  8
M03
100
AcDbCircle
 10
160.765534
 20
432.559226
 30
0.0
 40
6.0
  0
LINE
  5
401
100
AcDbEntity
  8
M01
100
AcDbLine
 10
430.765534
 20
540.559226
 30
0.0
 11
439.765534
 21
540.559226
 31
0.0
  0
LINE
  5
402
100
AcDbEntity
  8
M01
100
AcDbLine
 10
439.765534
 20
541.359226
 30
0.0
 11
439.765534
 21
540.559226
 31
0.0
  0
LINE
  5
403
100
AcDbEntity
  8
M01
100
AcDbLine
 10
430.765534
 20
541.359226
 30
0.0
 11
430.765534
 21
540.559226
 31
0.0
  0
LINE
  5
404
100
AcDbEntity
  8
M01
100
AcDbLine
 10
408.015534
 20
530.503326
 30
0.0
 11
414.515534
 21
530.503326
 31
0.0
  0
LINE
  5
405
100
AcDbEntity
  8
M01
100
AcDbLine
 10
408.015534
 20
538.615126
 30
0.0
 11
414.515534
 21
538.615126
 31
0.0
  0
LINE
  5
406
100
AcDbEntity
  8
M01
100
AcDbLine
 10
408.015534
 20
530.503326
 30
0.0
 11
408.015534
 21
528.559226
 31
0.0
  0
ARC
  5
407
100
AcDbEntity
  8
M01
100
AcDbCircle
 10
406.765534
 20
532.064576
 30
0.0
 40
2.0
100
AcDbArc
 50
308.682187
 51
0.0
  0
ARC
  5
408
100
AcDbEntity
  8
M01
100
AcDbCircle
 10
406.765534
 20
537.053876
 30
0.0
 40
2.0
100
AcDbArc
 50
0.0
 51
51.317813
  0
LINE
  5
409
100
AcDbEntity
  8
M01
100
AcDbLine
 10
408.015534
 20
540.559226
 30
0.0
 11
408.015534
 21
538.615126
 31
0.0
  0
LINE
  5
40A
100
AcDbEntity
  8
M01
100
AcDbLine
 10
408.765534
 20
537.053876
 30
0.0
 11
408.765534
 21
532.064576
 31
0.0
  0
LINE
  5
40B
100
AcDbEntity
  8
M01
100
AcDbLine
 10
414.515534
 20
530.503326
 30
0.0
 11
414.515534
 21
528.559226
 31
0.0
  0
ARC
  5
40C
100
AcDbEntity
  8
M01
100
AcDbCircle
 10
415.765534
 20
532.064576
 30
0.0
 40
2.0
100
AcDbArc
 50
180.0
 51
231.317813
  0
ARC
  5
40D
100
AcDbEntity
  8
M01
100
AcDbCircle
 10
415.765534
 20
537.053876
 30
0.0
 40
2.0
100
AcDbArc
 50
128.682187
 51
180.0
  0
LINE
  5
40E
100
AcDbEntity
  8
M01
100
AcDbLine
 10
414.515534
 20
540.559226
 30
0.0
 11
414.515534
 21
538.615126
 31
0.0
  0
LINE
  5
40F
100
AcDbEntity
  8
M01
100
AcDbLine
 10
413.765534
 20
537.053876
 30
0.0
 11
413.765534
 21
532.064576
 31
0.0
  0
LINE
  5
410
100
AcDbEntity
  8
M01
100
AcDbLine
 10
440.265534
 20
523.559226
 30
0.0
 11
430.265534
 21
523.559226
 31
0.0
  0
LINE
  5
411
100
AcDbEntity
  8
M01
100
AcDbLine
 10
406.265534
 20
523.559226
 30
0.0
 11
416.265534
 21
523.559226
 31
0.0
  0
LINE
  5
412
100
AcDbEntity
  8
M01
100
AcDbLine
 10
406.265534
 20
528.559226
 30
0.0
 11
406.265534
 21
508.559226
 31
0.0
  0
LINE
  5
413
100
AcDbEntity
  8
M01
100
AcDbLine
 10
416.265534
 20
528.559226
 30
0.0
 11
416.265534
 21
508.559226
 31
0.0
  0
LINE
  5
414
100
AcDbEntity
  8
M01
100
AcDbLine
 10
430.265534
 20
528.559226
 30
0.0
 11
430.265534
 21
508.559226
 31
0.0
  0
LINE
  5
415
100
AcDbEntity
  8
M01
100
AcDbLine
 10
440.265534
 20
528.559226
 30
0.0
 11
440.265534
 21
508.559226
 31
0.0
  0
LINE
  5
416
100
AcDbEntity
  8
CENTRE
100
AcDbLine
 10
502.765534
 20
264.513886
 30
0.0
 11
693.765534
 21
264.513886
 31
0.0
  0
ARC
  5
417
100
AcDbEntity
  8
M03
100
AcDbCircle
 10
423.265534
 20
432.559226
 30
0.0
 40
34.0
100
AcDbArc
 50
289.749923
 51
250.250077
  0
WIPEOUT
  5
418
100
AcDbEntity
  8
TEXT
 92
      140
310
8C000000010000008400000006000000050000001A81CC3522BC854046ADFB9323186E400000000000000000296B6D440C35864046ADFB9323186E4000000000000000002A6B6D440C35864042ADFB9323986E4000000000000000001C81CC3522BC854046ADFB9323986E4000000000000000001A81CC3522BC854046ADFB
310
9323186E400000000000000000
100
AcDbWipeout
 90
        0
 10
641.315145
 20
175.438498
 30
0.0
 11
69.315845
 21
0.0
 31
0.0
 12
0.0
 22
69.315845
 32
0.0
 13
0.0
 23
0.0
340
0
 70
     7
280
     1
281
    50
282
    50
283
     0
360
0
 71
     2
 91
        5
 14
0.28195
 24
-0.442293
 14
0.5
 24
-0.442293
 14
0.5
 24
-0.5
 14
0.28195
 24
-0.5
 14
0.28195
 24
-0.442293
  0
TEXT
  5
419
102
{ACAD_REACTORS
330
B6
102
}
100
AcDbEntity
  8
TEXT
100
AcDbText
 10
696.516704
 20
241.754343
 30
0.0
 40
2.0
  1
MM010102
 41
0.9
100
AcDbText
  0
MTEXT
  5
41A
102
{ACAD_REACTORS
330
41B
102
}
100
AcDbEntity
  8
HATCH
 62
     2
100
AcDbMText
 10
709.405714
 20
202.172659
 30
0.0
 40
3.0
 41
0.0
 71
     1
 72
     5
  1
MA010006 (x4)
  0
LEADER
  5
41B
100
AcDbEntity
  8
HATCH
 62
     4
100
AcDbLeader
  3
DIM1$7
 73
     0
 74
     0
 75
     1
 40
4.571429
 41
34.142857
 76
     3
 10
695.482889
 20
214.644599
 30
0.0
 10
704.905714
 20
200.672659
 30
0.0
 10
707.905714
 20
200.672659
 30
0.0
 77
   256
340
41A
213
0.0
223
-1.5
233
0.0
1001
ACAD
1000
DSTYLE
1002
{
1070
   144
1040
1.0
1002
}
  0
LINE
  5
41C
102
{ACAD_REACTORS
330
33A
102
}
100
AcDbEntity
  8
M04
100
AcDbLine
 10
163.765534
 20
213.013886
 30
0.0
 11
403.765534
 21
213.013886
 31
0.0
  0
LINE
  5
41D
102
{ACAD_REACTORS
330
22
102
}
100
AcDbEntity
  8
M02
100
AcDbLine
 10
174.765534
 20
217.013886
 30
0.0
 11
321.765534
 21
217.013886
 31
0.0
  0
LINE
  5
41E
100
AcDbEntity
  8
M04
100
AcDbLine
 10
160.765534
 20
195.18598
 30
0.0
 11
163.065534
 21
196.513886
 31
0.0
  0
LINE
  5
41F
100
AcDbEntity
  8
M04
100
AcDbLine
 10
158.465534
 20
196.513886
 30
0.0
 11
160.765534
 21
195.18598
 31
0.0
  0
LINE
  5
420
100
AcDbEntity
  8
M04
100
AcDbLine
 10
158.465534
 20
196.513886
 30
0.0
 11
163.065534
 21
196.513886
 31
0.0
  0
LINE
  5
421
100
AcDbEntity
  8
M04
100
AcDbLine
 10
157.765534
 20
201.575004
 30
0.0
 11
157.765534
 21
198.013886
 31
0.0
  0
LINE
  5
422
100
AcDbEntity
  8
M04
100
AcDbLine
 10
158.465534
 20
200.875004
 30
0.0
 11
158.465534
 21
196.513886
 31
0.0
  0
LINE
  5
423
100
AcDbEntity
  8
M04
100
AcDbLine
 10
163.765534
 20
201.575004
 30
0.0
 11
163.765534
 21
198.013886
 31
0.0
  0
LINE
  5
424
100
AcDbEntity
  8
M04
100
AcDbLine
 10
163.065534
 20
200.875004
 30
0.0
 11
163.065534
 21
196.513886
 31
0.0
  0
LINE
  5
425
100
AcDbEntity
  8
M05
100
AcDbLine
 10
163.065534
 20
200.875004
 30
0.0
 11
163.765534
 21
201.575004
 31
0.0
  0
LINE
  5
426
100
AcDbEntity
  8
M05
100
AcDbLine
 10
157.765534
 20
201.575004
 30
0.0
 11
158.465534
 21
200.875004
 31
0.0
  0
LINE
  5
427
100
AcDbEntity
  8
M05
100
AcDbLine
 10
163.065534
 20
213.655004
 30
0.0
 11
163.065534
 21
200.875004
 31
0.0
  0
LINE
  5
428
100
AcDbEntity
  8
M05
100
AcDbLine
 10
158.465534
 20
213.655004
 30
0.0
 11
158.465534
 21
200.875004
 31
0.0
  0
LINE
  5
429
100
AcDbEntity
  8
M05
100
AcDbLine
 10
157.765534
 20
201.575004
 30
0.0
 11
163.765534
 21
201.575004
 31
0.0
  0
LINE
  5
42A
100
AcDbEntity
  8
M04
100
AcDbLine
 10
157.765534
 20
198.013886
 30
0.0
 11
163.765534
 21
198.013886
 31
0.0
  0
LINE
  5
42B
100
AcDbEntity
  8
M05
100
AcDbLine
 10
158.465534
 20
200.875004
 30
0.0
 11
163.065534
 21
200.875004
 31
0.0
  0
LINE
  5
42C
102
{ACAD_REACTORS
330
20
102
}
100
AcDbEntity
  8
M05
  6
HIDDEN
100
AcDbLine
 10
152.606652
 20
220.313886
 30
0.0
 11
151.906652
 21
221.013886
 31
0.0
  0
LINE
  5
42D
102
{ACAD_REACTORS
330
20
102
}
100
AcDbEntity
  8
M05
  6
HIDDEN
100
AcDbLine
 10
168.924416
 20
220.313886
 30
0.0
 11
169.624416
 21
221.013886
 31
0.0
  0
LINE
  5
42E
100
AcDbEntity
  8
M05
100
AcDbLine
 10
157.765534
 20
213.655004
 30
0.0
 11
163.765534
 21
213.655004
 31
0.0
  0
LINE
  5
42F
100
AcDbEntity
  8
M05
100
AcDbLine
 10
161.315534
 20
218.155004
 30
0.0
 11
166.765534
 21
218.155004
 31
0.0
  0
LINE
  5
430
100
AcDbEntity
  8
M05
100
AcDbLine
 10
161.315534
 20
218.875004
 30
0.0
 11
166.765534
 21
218.875004
 31
0.0
  0
LINE
  5
431
100
AcDbEntity
  8
M05
100
AcDbLine
 10
161.315534
 20
218.875004
 30
0.0
 11
161.315534
 21
217.375004
 31
0.0
  0
LINE
  5
432
100
AcDbEntity
  8
M05
100
AcDbLine
 10
160.215534
 20
218.875004
 30
0.0
 11
160.215534
 21
217.375004
 31
0.0
  0
LINE
  5
433
100
AcDbEntity
  8
M05
100
AcDbLine
 10
160.215534
 20
217.375004
 30
0.0
 11
161.315534
 21
217.375004
 31
0.0
  0
LINE
  5
434
102
{ACAD_REACTORS
330
33A
102
}
100
AcDbEntity
  8
M05
100
AcDbLine
 10
164.265534
 20
215.655004
 30
0.0
 11
164.265534
 21
213.013886
 31
0.0
  0
LINE
  5
435
102
{ACAD_REACTORS
330
33A
102
}
100
AcDbEntity
  8
M05
100
AcDbLine
 10
157.265534
 20
215.655004
 30
0.0
 11
157.265534
 21
213.013886
 31
0.0
  0
LINE
  5
436
100
AcDbEntity
  8
M05
100
AcDbLine
 10
154.765534
 20
218.155004
 30
0.0
 11
160.215534
 21
218.155004
 31
0.0
  0
LINE
  5
437
102
{ACAD_REACTORS
330
33A
330
20
102
}
100
AcDbEntity
  8
M05
100
AcDbLine
 10
157.765534
 20
215.155004
 30
0.0
 11
152.606652
 21
220.313886
 31
0.0
  0
LINE
  5
438
100
AcDbEntity
  8
M05
100
AcDbLine
 10
154.765534
 20
218.875004
 30
0.0
 11
154.765534
 21
218.155004
 31
0.0
  0
LINE
  5
439
102
{ACAD_REACTORS
330
33A
330
20
102
}
100
AcDbEntity
  8
M05
100
AcDbLine
 10
163.765534
 20
215.155004
 30
0.0
 11
168.924416
 21
220.313886
 31
0.0
  0
LINE
  5
43A
100
AcDbEntity
  8
M05
100
AcDbLine
 10
157.765534
 20
215.155004
 30
0.0
 11
163.765534
 21
215.155004
 31
0.0
  0
LINE
  5
43B
100
AcDbEntity
  8
M05
100
AcDbLine
 10
157.765534
 20
215.155004
 30
0.0
 11
157.765534
 21
201.575004
 31
0.0
  0
LINE
  5
43C
100
AcDbEntity
  8
M05
100
AcDbLine
 10
163.765534
 20
215.155004
 30
0.0
 11
163.765534
 21
201.575004
 31
0.0
  0
LINE
  5
43D
100
AcDbEntity
  8
M05
100
AcDbLine
 10
166.765534
 20
218.875004
 30
0.0
 11
166.765534
 21
218.155004
 31
0.0
  0
LINE
  5
43E
100
AcDbEntity
  8
M05
100
AcDbLine
 10
154.765534
 20
218.875004
 30
0.0
 11
160.215534
 21
218.875004
 31
0.0
  0
LINE
  5
43F
102
{ACAD_REACTORS
330
20
102
}
100
AcDbEntity
  8
M05
  6
HIDDEN
100
AcDbLine
 10
146.765534
 20
220.313886
 30
0.0
 11
174.765534
 21
220.313886
 31
0.0
  0
LINE
  5
440
102
{ACAD_REACTORS
330
20
102
}
100
AcDbEntity
  8
M05
  6
HIDDEN
100
AcDbLine
 10
174.765534
 20
220.313886
 30
0.0
 11
174.065534
 21
221.013886
 31
0.0
  0
LINE
  5
441
102
{ACAD_REACTORS
330
20
102
}
100
AcDbEntity
  8
M05
  6
HIDDEN
100
AcDbLine
 10
174.765534
 20
219.313886
 30
0.0
 11
174.765534
 21
220.313886
 31
0.0
  0
LINE
  5
442
102
{ACAD_REACTORS
330
33A
102
}
100
AcDbEntity
  8
M05
100
AcDbLine
 10
174.765534
 20
219.313886
 30
0.0
 11
174.065534
 21
220.013886
 31
0.0
  0
LINE
  5
443
102
{ACAD_REACTORS
330
33A
102
}
100
AcDbEntity
  8
M05
100
AcDbLine
 10
174.765534
 20
213.713886
 30
0.0
 11
174.065534
 21
213.013886
 31
0.0
  0
LINE
  5
444
102
{ACAD_REACTORS
330
33A
102
}
100
AcDbEntity
  8
M05
100
AcDbLine
 10
174.765534
 20
219.313886
 30
0.0
 11
174.765534
 21
213.713886
 31
0.0
  0
LINE
  5
445
102
{ACAD_REACTORS
330
20
102
}
100
AcDbEntity
  8
M05
  6
HIDDEN
100
AcDbLine
 10
146.765534
 20
220.313886
 30
0.0
 11
147.465534
 21
221.013886
 31
0.0
  0
LINE
  5
446
102
{ACAD_REACTORS
330
20
102
}
100
AcDbEntity
  8
M05
  6
HIDDEN
100
AcDbLine
 10
146.765534
 20
219.313886
 30
0.0
 11
146.765534
 21
220.313886
 31
0.0
  0
LINE
  5
447
102
{ACAD_REACTORS
330
33A
102
}
100
AcDbEntity
  8
M05
100
AcDbLine
 10
146.765534
 20
219.313886
 30
0.0
 11
147.465534
 21
220.013886
 31
0.0
  0
LINE
  5
448
102
{ACAD_REACTORS
330
33A
102
}
100
AcDbEntity
  8
M05
100
AcDbLine
 10
146.765534
 20
213.713886
 30
0.0
 11
147.465534
 21
213.013886
 31
0.0
  0
LINE
  5
449
102
{ACAD_REACTORS
330
22
102
}
100
AcDbEntity
  8
M02
100
AcDbLine
 10
175.765534
 20
220.013886
 30
0.0
 11
175.765534
 21
217.013886
 31
0.0
  0
LINE
  5
44A
102
{ACAD_REACTORS
330
22
102
}
100
AcDbEntity
  8
M02
100
AcDbLine
 10
145.765534
 20
220.013886
 30
0.0
 11
145.765534
 21
217.013886
 31
0.0
  0
LINE
  5
44B
102
{ACAD_REACTORS
330
20
102
}
100
AcDbEntity
  8
M05
  6
HIDDEN
100
AcDbLine
 10
147.465534
 20
221.013886
 30
0.0
 11
174.065534
 21
221.013886
 31
0.0
  0
LINE
  5
44C
102
{ACAD_REACTORS
330
33A
102
}
100
AcDbEntity
  8
M05
100
AcDbLine
 10
146.765534
 20
219.313886
 30
0.0
 11
146.765534
 21
213.713886
 31
0.0
  0
LINE
  5
44D
102
{ACAD_REACTORS
330
20
102
}
100
AcDbEntity
  8
CENTRE
100
AcDbLine
 10
160.765534
 20
225.522996
 30
0.0
 11
160.765534
 21
192.444658
 31
0.0
  0
LINE
  5
44E
100
AcDbEntity
  8
CENTRE
100
AcDbLine
 10
685.765534
 20
256.397127
 30
0.0
 11
685.765534
 21
290.362183
 31
0.0
  0
LINE
  5
44F
100
AcDbEntity
  8
M04
100
AcDbLine
 10
685.765534
 20
195.18598
 30
0.0
 11
688.065534
 21
196.513886
 31
0.0
  0
LINE
  5
450
100
AcDbEntity
  8
M04
100
AcDbLine
 10
683.465534
 20
196.513886
 30
0.0
 11
685.765534
 21
195.18598
 31
0.0
  0
LINE
  5
451
100
AcDbEntity
  8
M04
100
AcDbLine
 10
683.465534
 20
196.513886
 30
0.0
 11
688.065534
 21
196.513886
 31
0.0
  0
LINE
  5
452
100
AcDbEntity
  8
M04
100
AcDbLine
 10
682.765534
 20
201.575004
 30
0.0
 11
682.765534
 21
198.013886
 31
0.0
  0
LINE
  5
453
100
AcDbEntity
  8
M04
100
AcDbLine
 10
683.465534
 20
200.875004
 30
0.0
 11
683.465534
 21
196.513886
 31
0.0
  0
LINE
  5
454
100
AcDbEntity
  8
M04
100
AcDbLine
 10
688.765534
 20
201.575004
 30
0.0
 11
688.765534
 21
198.013886
 31
0.0
  0
LINE
  5
455
100
AcDbEntity
  8
M04
100
AcDbLine
 10
688.065534
 20
200.875004
 30
0.0
 11
688.065534
 21
196.513886
 31
0.0
  0
LINE
  5
456
100
AcDbEntity
  8
M05
100
AcDbLine
 10
688.065534
 20
200.875004
 30
0.0
 11
688.765534
 21
201.575004
 31
0.0
  0
LINE
  5
457
100
AcDbEntity
  8
M05
100
AcDbLine
 10
682.765534
 20
201.575004
 30
0.0
 11
683.465534
 21
200.875004
 31
0.0
  0
LINE
  5
458
100
AcDbEntity
  8
M05
100
AcDbLine
 10
688.065534
 20
213.655004
 30
0.0
 11
688.065534
 21
200.875004
 31
0.0
  0
LINE
  5
459
100
AcDbEntity
  8
M05
100
AcDbLine
 10
683.465534
 20
213.655004
 30
0.0
 11
683.465534
 21
200.875004
 31
0.0
  0
LINE
  5
45A
100
AcDbEntity
  8
M05
100
AcDbLine
 10
682.765534
 20
201.575004
 30
0.0
 11
688.765534
 21
201.575004
 31
0.0
  0
LINE
  5
45B
100
AcDbEntity
  8
M04
100
AcDbLine
 10
682.765534
 20
198.013886
 30
0.0
 11
688.765534
 21
198.013886
 31
0.0
  0
LINE
  5
45C
100
AcDbEntity
  8
M05
100
AcDbLine
 10
683.465534
 20
200.875004
 30
0.0
 11
688.065534
 21
200.875004
 31
0.0
  0
LINE
  5
45D
102
{ACAD_REACTORS
330
B6
102
}
100
AcDbEntity
  8
M05
  6
HIDDEN
100
AcDbLine
 10
677.606652
 20
220.313886
 30
0.0
 11
676.906652
 21
221.013886
 31
0.0
  0
LINE
  5
45E
102
{ACAD_REACTORS
330
B6
102
}
100
AcDbEntity
  8
M05
  6
HIDDEN
100
AcDbLine
 10
693.924416
 20
220.313886
 30
0.0
 11
694.624416
 21
221.013886
 31
0.0
  0
LINE
  5
45F
100
AcDbEntity
  8
M04
100
AcDbLine
 10
688.765534
 20
213.013886
 30
0.0
 11
742.316316
 21
213.013886
 31
0.0
  0
LINE
  5
460
100
AcDbEntity
  8
M05
100
AcDbLine
 10
682.765534
 20
213.655004
 30
0.0
 11
688.765534
 21
213.655004
 31
0.0
  0
LINE
  5
461
100
AcDbEntity
  8
M05
100
AcDbLine
 10
686.315534
 20
218.155004
 30
0.0
 11
691.765534
 21
218.155004
 31
0.0
  0
LINE
  5
462
100
AcDbEntity
  8
M05
100
AcDbLine
 10
686.315534
 20
218.875004
 30
0.0
 11
691.765534
 21
218.875004
 31
0.0
  0
LINE
  5
463
100
AcDbEntity
  8
M05
100
AcDbLine
 10
686.315534
 20
218.875004
 30
0.0
 11
686.315534
 21
217.375004
 31
0.0
  0
LINE
  5
464
100
AcDbEntity
  8
M05
100
AcDbLine
 10
685.215534
 20
218.875004
 30
0.0
 11
685.215534
 21
217.375004
 31
0.0
  0
LINE
  5
465
100
AcDbEntity
  8
M05
100
AcDbLine
 10
685.215534
 20
217.375004
 30
0.0
 11
686.315534
 21
217.375004
 31
0.0
  0
LINE
  5
466
100
AcDbEntity
  8
M05
100
AcDbLine
 10
689.265534
 20
215.655004
 30
0.0
 11
689.265534
 21
213.013886
 31
0.0
  0
LINE
  5
467
100
AcDbEntity
  8
M05
100
AcDbLine
 10
682.265534
 20
215.655004
 30
0.0
 11
682.265534
 21
213.013886
 31
0.0
  0
LINE
  5
468
100
AcDbEntity
  8
M05
100
AcDbLine
 10
679.765534
 20
218.155004
 30
0.0
 11
685.215534
 21
218.155004
 31
0.0
  0
LINE
  5
469
102
{ACAD_REACTORS
330
B6
102
}
100
AcDbEntity
  8
M05
100
AcDbLine
 10
682.765534
 20
215.155004
 30
0.0
 11
677.606652
 21
220.313886
 31
0.0
  0
LINE
  5
46A
100
AcDbEntity
  8
M05
100
AcDbLine
 10
679.765534
 20
218.875004
 30
0.0
 11
679.765534
 21
218.155004
 31
0.0
  0
LINE
  5
46B
102
{ACAD_REACTORS
330
B6
102
}
100
AcDbEntity
  8
M05
100
AcDbLine
 10
688.765534
 20
215.155004
 30
0.0
 11
693.924416
 21
220.313886
 31
0.0
  0
LINE
  5
46C
100
AcDbEntity
  8
M05
100
AcDbLine
 10
682.765534
 20
215.155004
 30
0.0
 11
688.765534
 21
215.155004
 31
0.0
  0
LINE
  5
46D
100
AcDbEntity
  8
M05
100
AcDbLine
 10
682.765534
 20
215.155004
 30
0.0
 11
682.765534
 21
201.575004
 31
0.0
  0
LINE
  5
46E
100
AcDbEntity
  8
M05
100
AcDbLine
 10
688.765534
 20
215.155004
 30
0.0
 11
688.765534
 21
201.575004
 31
0.0
  0
LINE
  5
46F
100
AcDbEntity
  8
M05
100
AcDbLine
 10
691.765534
 20
218.875004
 30
0.0
 11
691.765534
 21
218.155004
 31
0.0
  0
LINE
  5
470
100
AcDbEntity
  8
M05
100
AcDbLine
 10
679.765534
 20
218.875004
 30
0.0
 11
685.215534
 21
218.875004
 31
0.0
  0
LINE
  5
471
100
AcDbEntity
  8
DIMS
 62
     4
100
AcDbLine
 10
426.665534
 20
503.059226
 30
0.0
 11
428.965534
 21
503.059226
 31
0.0
  0
LINE
  5
472
100
AcDbEntity
  8
DIMS
 62
     4
100
AcDbLine
 10
419.865534
 20
503.059226
 30
0.0
 11
417.565534
 21
503.059226
 31
0.0
  0
LINE
  5
473
100
AcDbEntity
  8
DIMS
 62
     4
100
AcDbLine
 10
421.565534
 20
503.059226
 30
0.0
 11
424.965534
 21
503.059226
 31
0.0
  0
DIMENSION
  5
474
100
AcDbEntity
  8
DIMS
100
AcDbDimension
  2
*D0
 10
747.522489
 20
464.559226
 30
0.0
 11
594.522489
 21
432.559226
 31
0.0
 12
150.0
 22
0.0
 32
0.0
  1
W=<>
  3
DIM1
100
AcDbAlignedDimension
 13
705.765534
 23
400.559226
 33
0.0
 14
705.765534
 24
464.559226
 34
0.0
 50
90.0
100
AcDbRotatedDimension
1001
ACAD
1000
DSTYLE
1002
{
1070
   144
1040
1.0
1002
}
  0
DIMENSION
  5
481
100
AcDbEntity
  8
DIMS
100
AcDbDimension
  2
*D1
 10
717.765534
 20
340.196619
 30
0.0
 11
423.265534
 21
343.196619
 31
0.0
  1
L=<>
  3
DIM1
100
AcDbAlignedDimension
 13
128.765534
 23
412.559226
 33
0.0
 14
717.765534
 24
412.559226
 34
0.0
100
AcDbRotatedDimension
1001
ACAD
1000
DSTYLE
1002
{
1070
   144
1040
1.0
1002
}
  0
LINE
  5
48E
100
AcDbEntity
  8
M01
100
AcDbLine
 10
438.296623
 20
550.459226
 30
0.0
 11
432.234446
 21
550.459226
 31
0.0
  0
ARC
  5
48F
100
AcDbEntity
  8
M01
100
AcDbCircle
 10
432.234446
 20
548.609921
 30
0.0
 40
1.150694
100
AcDbArc
 50
208.592423
 51
331.407577
  0
ARC
  5
490
100
AcDbEntity
  8
M01
100
AcDbCircle
 10
435.265534
 20
551.162004
 30
0.0
 40
3.702778
100
AcDbArc
 50
236.92527
 51
303.07473
  0
ARC
  5
491
100
AcDbEntity
  8
M01
100
AcDbCircle
 10
438.296623
 20
548.609921
 30
0.0
 40
1.150694
100
AcDbArc
 50
208.592423
 51
331.407577
  0
ARC
  5
492
100
AcDbEntity
  8
M01
100
AcDbCircle
 10
432.234446
 20
549.308532
 30
0.0
 40
1.150694
100
AcDbArc
 50
28.592423
 51
151.407577
  0
ARC
  5
493
100
AcDbEntity
  8
M01
100
AcDbCircle
 10
435.265534
 20
546.756448
 30
0.0
 40
3.702778
100
AcDbArc
 50
56.92527
 51
123.07473
  0
LINE
  5
494
100
AcDbEntity
  8
M01
100
AcDbLine
 10
433.244808
 20
549.859226
 30
0.0
 11
433.244808
 21
548.059226
 31
0.0
  0
LINE
  5
495
100
AcDbEntity
  8
M01
100
AcDbLine
 10
431.224083
 20
549.859226
 30
0.0
 11
431.224083
 21
548.059226
 31
0.0
  0
ARC
  5
496
100
AcDbEntity
  8
M01
100
AcDbCircle
 10
438.296623
 20
549.308532
 30
0.0
 40
1.150694
100
AcDbArc
 50
28.592423
 51
151.407577
  0
LINE
  5
497
100
AcDbEntity
  8
M01
100
AcDbLine
 10
437.28626
 20
549.859226
 30
0.0
 11
437.28626
 21
548.059226
 31
0.0
  0
LINE
  5
498
100
AcDbEntity
  8
M01
100
AcDbLine
 10
439.306986
 20
549.859226
 30
0.0
 11
439.306986
 21
548.059226
 31
0.0
  0
LINE
  5
499
100
AcDbEntity
  8
M01
100
AcDbLine
 10
430.265534
 20
545.159226
 30
0.0
 11
430.265534
 21
546.659226
 31
0.0
  0
LINE
  5
49A
100
AcDbEntity
  8
M01
100
AcDbLine
 10
440.265534
 20
545.159226
 30
0.0
 11
440.265534
 21
546.659226
 31
0.0
  0
LINE
  5
49B
100
AcDbEntity
  8
M01
100
AcDbLine
 10
430.765534
 20
546.659226
 30
0.0
 11
430.765534
 21
547.459226
 31
0.0
  0
LINE
  5
49C
100
AcDbEntity
  8
M01
100
AcDbLine
 10
439.765534
 20
546.659226
 30
0.0
 11
439.765534
 21
547.459226
 31
0.0
  0
LINE
  5
49D
100
AcDbEntity
  8
M01
100
AcDbLine
 10
439.765534
 20
547.459226
 30
0.0
 11
430.765534
 21
547.459226
 31
0.0
  0
LINE
  5
49E
100
AcDbEntity
  8
M01
100
AcDbLine
 10
440.265534
 20
546.659226
 30
0.0
 11
430.265534
 21
546.659226
 31
0.0
  0
LINE
  5
49F
100
AcDbEntity
  8
M01
100
AcDbLine
 10
430.765534
 20
544.359226
 30
0.0
 11
430.765534
 21
545.159226
 31
0.0
  0
LINE
  5
4A0
100
AcDbEntity
  8
M01
100
AcDbLine
 10
439.765534
 20
544.359226
 30
0.0
 11
439.765534
 21
545.159226
 31
0.0
  0
LINE
  5
4A1
100
AcDbEntity
  8
M01
100
AcDbLine
 10
440.265534
 20
545.159226
 30
0.0
 11
430.265534
 21
545.159226
 31
0.0
  0
ARC
  5
4A2
100
AcDbEntity
  8
M01
100
AcDbCircle
 10
432.234446
 20
542.509921
 30
0.0
 40
1.150694
100
AcDbArc
 50
208.592423
 51
331.407577
  0
ARC
  5
4A3
100
AcDbEntity
  8
M01
100
AcDbCircle
 10
435.265534
 20
545.062004
 30
0.0
 40
3.702778
100
AcDbArc
 50
236.92527
 51
303.07473
  0
ARC
  5
4A4
100
AcDbEntity
  8
M01
100
AcDbCircle
 10
438.296623
 20
542.509921
 30
0.0
 40
1.150694
100
AcDbArc
 50
208.592423
 51
331.407577
  0
ARC
  5
4A5
100
AcDbEntity
  8
M01
100
AcDbCircle
 10
432.234446
 20
543.208532
 30
0.0
 40
1.150694
100
AcDbArc
 50
28.592423
 51
151.407577
  0
ARC
  5
4A6
100
AcDbEntity
  8
M01
100
AcDbCircle
 10
435.265534
 20
540.656448
 30
0.0
 40
3.702778
100
AcDbArc
 50
56.92527
 51
123.07473
  0
LINE
  5
4A7
100
AcDbEntity
  8
M01
100
AcDbLine
 10
433.244808
 20
543.759226
 30
0.0
 11
433.244808
 21
541.959226
 31
0.0
  0
LINE
  5
4A8
100
AcDbEntity
  8
M01
100
AcDbLine
 10
431.224083
 20
543.759226
 30
0.0
 11
431.224083
 21
541.959226
 31
0.0
  0
ARC
  5
4A9
100
AcDbEntity
  8
M01
100
AcDbCircle
 10
438.296623
 20
543.208532
 30
0.0
 40
1.150694
100
AcDbArc
 50
28.592423
 51
151.407577
  0
LINE
  5
4AA
100
AcDbEntity
  8
M01
100
AcDbLine
 10
437.28626
 20
543.759226
 30
0.0
 11
437.28626
 21
541.959226
 31
0.0
  0
LINE
  5
4AB
100
AcDbEntity
  8
M01
100
AcDbLine
 10
439.306986
 20
543.759226
 30
0.0
 11
439.306986
 21
541.959226
 31
0.0
  0
LINE
  5
4AC
100
AcDbEntity
  8
M01
100
AcDbLine
 10
439.765534
 20
544.359226
 30
0.0
 11
430.765534
 21
544.359226
 31
0.0
  0
LINE
  5
4AD
100
AcDbEntity
  8
M01
100
AcDbLine
 10
439.765534
 20
541.359226
 30
0.0
 11
430.765534
 21
541.359226
 31
0.0
  0
LINE
  5
4AE
100
AcDbEntity
  8
M01
100
AcDbLine
 10
433.765534
 20
553.559226
 30
0.0
 11
433.265534
 21
553.059226
 31
0.0
  0
LINE
  5
4AF
100
AcDbEntity
  8
M01
100
AcDbLine
 10
437.265534
 20
553.059226
 30
0.0
 11
436.765534
 21
553.559226
 31
0.0
  0
LINE
  5
4B0
100
AcDbEntity
  8
M01
100
AcDbLine
 10
437.265534
 20
553.059226
 30
0.0
 11
433.265534
 21
553.059226
 31
0.0
  0
LINE
  5
4B1
100
AcDbEntity
  8
M01
100
AcDbLine
 10
433.765534
 20
553.559226
 30
0.0
 11
433.765534
 21
550.459226
 31
0.0
  0
LINE
  5
4B2
100
AcDbEntity
  8
M01
100
AcDbLine
 10
436.765534
 20
553.559226
 30
0.0
 11
436.765534
 21
550.459226
 31
0.0
  0
LINE
  5
4B3
100
AcDbEntity
  8
M01
100
AcDbLine
 10
437.265534
 20
553.059226
 30
0.0
 11
437.265534
 21
550.459226
 31
0.0
  0
LINE
  5
4B4
100
AcDbEntity
  8
M01
100
AcDbLine
 10
433.265534
 20
553.059226
 30
0.0
 11
433.265534
 21
550.459226
 31
0.0
  0
LINE
  5
4B5
100
AcDbEntity
  8
M01
100
AcDbLine
 10
436.765534
 20
553.559226
 30
0.0
 11
433.765534
 21
553.559226
 31
0.0
  0
LINE
  5
4B6
100
AcDbEntity
  8
M01
100
AcDbLine
 10
440.265534
 20
528.559226
 30
0.0
 11
430.265534
 21
528.559226
 31
0.0
  0
LINE
  5
4B7
100
AcDbEntity
  8
CENTRE
100
AcDbLine
 10
435.265534
 20
559.720115
 30
0.0
 11
435.265534
 21
496.126684
 31
0.0
  0
LINE
  5
4B8
100
AcDbEntity
  8
M01
100
AcDbLine
 10
408.234446
 20
550.459226
 30
0.0
 11
414.296623
 21
550.459226
 31
0.0
  0
ARC
  5
4B9
100
AcDbEntity
  8
M01
100
AcDbCircle
 10
414.296623
 20
548.609921
 30
0.0
 40
1.150694
100
AcDbArc
 50
208.592423
 51
331.407577
  0
ARC
  5
4BA
100
AcDbEntity
  8
M01
100
AcDbCircle
 10
411.265534
 20
551.162004
 30
0.0
 40
3.702778
100
AcDbArc
 50
236.92527
 51
303.07473
  0
ARC
  5
4BB
100
AcDbEntity
  8
M01
100
AcDbCircle
 10
408.234446
 20
548.609921
 30
0.0
 40
1.150694
100
AcDbArc
 50
208.592423
 51
331.407577
  0
ARC
  5
4BC
100
AcDbEntity
  8
M01
100
AcDbCircle
 10
414.296623
 20
549.308532
 30
0.0
 40
1.150694
100
AcDbArc
 50
28.592423
 51
151.407577
  0
ARC
  5
4BD
100
AcDbEntity
  8
M01
100
AcDbCircle
 10
411.265534
 20
546.756448
 30
0.0
 40
3.702778
100
AcDbArc
 50
56.92527
 51
123.07473
  0
LINE
  5
4BE
100
AcDbEntity
  8
M01
100
AcDbLine
 10
413.28626
 20
549.859226
 30
0.0
 11
413.28626
 21
548.059226
 31
0.0
  0
LINE
  5
4BF
100
AcDbEntity
  8
M01
100
AcDbLine
 10
415.306986
 20
549.859226
 30
0.0
 11
415.306986
 21
548.059226
 31
0.0
  0
ARC
  5
4C0
100
AcDbEntity
  8
M01
100
AcDbCircle
 10
408.234446
 20
549.308532
 30
0.0
 40
1.150694
100
AcDbArc
 50
28.592423
 51
151.407577
  0
LINE
  5
4C1
100
AcDbEntity
  8
M01
100
AcDbLine
 10
409.244808
 20
549.859226
 30
0.0
 11
409.244808
 21
548.059226
 31
0.0
  0
LINE
  5
4C2
100
AcDbEntity
  8
M01
100
AcDbLine
 10
407.224083
 20
549.859226
 30
0.0
 11
407.224083
 21
548.059226
 31
0.0
  0
LINE
  5
4C3
100
AcDbEntity
  8
M01
100
AcDbLine
 10
416.265534
 20
545.159226
 30
0.0
 11
416.265534
 21
546.659226
 31
0.0
  0
LINE
  5
4C4
100
AcDbEntity
  8
M01
100
AcDbLine
 10
406.265534
 20
545.159226
 30
0.0
 11
406.265534
 21
546.659226
 31
0.0
  0
LINE
  5
4C5
100
AcDbEntity
  8
M01
100
AcDbLine
 10
415.765534
 20
546.659226
 30
0.0
 11
415.765534
 21
547.459226
 31
0.0
  0
LINE
  5
4C6
100
AcDbEntity
  8
M01
100
AcDbLine
 10
406.765534
 20
546.659226
 30
0.0
 11
406.765534
 21
547.459226
 31
0.0
  0
LINE
  5
4C7
100
AcDbEntity
  8
M01
100
AcDbLine
 10
406.765534
 20
547.459226
 30
0.0
 11
415.765534
 21
547.459226
 31
0.0
  0
LINE
  5
4C8
100
AcDbEntity
  8
M01
100
AcDbLine
 10
406.265534
 20
546.659226
 30
0.0
 11
416.265534
 21
546.659226
 31
0.0
  0
LINE
  5
4C9
100
AcDbEntity
  8
M01
100
AcDbLine
 10
415.765534
 20
544.359226
 30
0.0
 11
415.765534
 21
545.159226
 31
0.0
  0
LINE
  5
4CA
100
AcDbEntity
  8
M01
100
AcDbLine
 10
406.765534
 20
544.359226
 30
0.0
 11
406.765534
 21
545.159226
 31
0.0
  0
LINE
  5
4CB
100
AcDbEntity
  8
M01
100
AcDbLine
 10
406.265534
 20
545.159226
 30
0.0
 11
416.265534
 21
545.159226
 31
0.0
  0
ARC
  5
4CC
100
AcDbEntity
  8
M01
100
AcDbCircle
 10
414.296623
 20
542.509921
 30
0.0
 40
1.150694
100
AcDbArc
 50
208.592423
 51
331.407577
  0
ARC
  5
4CD
100
AcDbEntity
  8
M01
100
AcDbCircle
 10
411.265534
 20
545.062004
 30
0.0
 40
3.702778
100
AcDbArc
 50
236.92527
 51
303.07473
  0
ARC
  5
4CE
100
AcDbEntity
  8
M01
100
AcDbCircle
 10
408.234446
 20
542.509921
 30
0.0
 40
1.150694
100
AcDbArc
 50
208.592423
 51
331.407577
  0
ARC
  5
4CF
100
AcDbEntity
  8
M01
100
AcDbCircle
 10
414.296623
 20
543.208532
 30
0.0
 40
1.150694
100
AcDbArc
 50
28.592423
 51
151.407577
  0
ARC
  5
4D0
100
AcDbEntity
  8
M01
100
AcDbCircle
 10
411.265534
 20
540.656448
 30
0.0
 40
3.702778
100
AcDbArc
 50
56.92527
 51
123.07473
  0
LINE
  5
4D1
100
AcDbEntity
  8
M01
100
AcDbLine
 10
413.28626
 20
543.759226
 30
0.0
 11
413.28626
 21
541.959226
 31
0.0
  0
LINE
  5
4D2
100
AcDbEntity
  8
M01
100
AcDbLine
 10
415.306986
 20
543.759226
 30
0.0
 11
415.306986
 21
541.959226
 31
0.0
  0
ARC
  5
4D3
100
AcDbEntity
  8
M01
100
AcDbCircle
 10
408.234446
 20
543.208532
 30
0.0
 40
1.150694
100
AcDbArc
 50
28.592423
 51
151.407577
  0
LINE
  5
4D4
100
AcDbEntity
  8
M01
100
AcDbLine
 10
409.244808
 20
543.759226
 30
0.0
 11
409.244808
 21
541.959226
 31
0.0
  0
LINE
  5
4D5
100
AcDbEntity
  8
M01
100
AcDbLine
 10
407.224083
 20
543.759226
 30
0.0
 11
407.224083
 21
541.959226
 31
0.0
  0
LINE
  5
4D6
100
AcDbEntity
  8
M01
100
AcDbLine
 10
406.765534
 20
544.359226
 30
0.0
 11
415.765534
 21
544.359226
 31
0.0
  0
LINE
  5
4D7
100
AcDbEntity
  8
M01
100
AcDbLine
 10
406.765534
 20
541.359226
 30
0.0
 11
415.765534
 21
541.359226
 31
0.0
  0
LINE
  5
4D8
100
AcDbEntity
  8
M01
100
AcDbLine
 10
406.765534
 20
540.559226
 30
0.0
 11
415.765534
 21
540.559226
 31
0.0
  0
LINE
  5
4D9
100
AcDbEntity
  8
M01
100
AcDbLine
 10
419.265534
 20
243.013886
 30
0.0
 11
423.265534
 21
247.013886
 31
0.0
  0
LINE
  5
4DA
100
AcDbEntity
  8
M01
100
AcDbLine
 10
427.265534
 20
243.013886
 30
0.0
 11
423.265534
 21
247.013886
 31
0.0
  0
LINE
  5
4DB
100
AcDbEntity
  8
M01
100
AcDbLine
 10
681.765534
 20
268.513886
 30
0.0
 11
685.765534
 21
264.513886
 31
0.0
  0
LINE
  5
4DC
102
{ACAD_REACTORS
330
B6
102
}
100
AcDbEntity
  8
M01
100
AcDbLine
 10
514.765534
 20
268.513886
 30
0.0
 11
681.765534
 21
268.513886
 31
0.0
  0
LINE
  5
4DD
102
{ACAD_REACTORS
330
B6
102
}
100
AcDbEntity
  8
M01
100
AcDbLine
 10
510.765534
 20
260.513886
 30
0.0
 11
594.265534
 21
260.513886
 31
0.0
  0
LINE
  5
4DE
102
{ACAD_REACTORS
330
B6
102
}
100
AcDbEntity
  8
M01
100
AcDbLine
 10
681.765534
 20
268.513886
 30
0.0
 11
681.765534
 21
280.013886
 31
0.0
  0
LINE
  5
4DF
102
{ACAD_REACTORS
330
B6
102
}
100
AcDbEntity
  8
M01
100
AcDbLine
 10
689.765534
 20
264.513886
 30
0.0
 11
689.765534
 21
280.013886
 31
0.0
  0
ARC
  5
4E0
102
{ACAD_REACTORS
330
B6
102
}
100
AcDbEntity
  8
M01
100
AcDbCircle
 10
685.765534
 20
264.513886
 30
0.0
 40
4.0
100
AcDbArc
 50
270.0
 51
0.0
  0
LINE
  5
4E1
102
{ACAD_REACTORS
330
23
102
}
100
AcDbEntity
  8
M02
100
AcDbLine
 10
699.765534
 20
217.013886
 30
0.0
 11
715.765534
 21
217.013886
 31
0.0
  0
LINE
  5
4E2
102
{ACAD_REACTORS
330
B6
102
}
100
AcDbEntity
  8
M05
  6
HIDDEN
100
AcDbLine
 10
671.765534
 20
220.313886
 30
0.0
 11
699.765534
 21
220.313886
 31
0.0
  0
LINE
  5
4E3
102
{ACAD_REACTORS
330
B6
102
}
100
AcDbEntity
  8
M05
  6
HIDDEN
100
AcDbLine
 10
699.765534
 20
220.313886
 30
0.0
 11
699.065534
 21
221.013886
 31
0.0
  0
LINE
  5
4E4
102
{ACAD_REACTORS
330
B6
102
}
100
AcDbEntity
  8
M05
  6
HIDDEN
100
AcDbLine
 10
699.765534
 20
219.313886
 30
0.0
 11
699.765534
 21
220.313886
 31
0.0
  0
LINE
  5
4E5
100
AcDbEntity
  8
M05
100
AcDbLine
 10
699.765534
 20
219.313886
 30
0.0
 11
699.065534
 21
220.013886
 31
0.0
  0
LINE
  5
4E6
100
AcDbEntity
  8
M05
100
AcDbLine
 10
699.765534
 20
213.713886
 30
0.0
 11
699.065534
 21
213.013886
 31
0.0
  0
LINE
  5
4E7
100
AcDbEntity
  8
M05
100
AcDbLine
 10
699.765534
 20
219.313886
 30
0.0
 11
699.765534
 21
213.713886
 31
0.0
  0
LINE
  5
4E8
102
{ACAD_REACTORS
330
B6
102
}
100
AcDbEntity
  8
M05
  6
HIDDEN
100
AcDbLine
 10
671.765534
 20
220.313886
 30
0.0
 11
672.465534
 21
221.013886
 31
0.0
  0
LINE
  5
4E9
102
{ACAD_REACTORS
330
B6
102
}
100
AcDbEntity
  8
M05
  6
HIDDEN
100
AcDbLine
 10
671.765534
 20
219.313886
 30
0.0
 11
671.765534
 21
220.313886
 31
0.0
  0
LINE
  5
4EA
100
AcDbEntity
  8
M05
100
AcDbLine
 10
671.765534
 20
219.313886
 30
0.0
 11
672.465534
 21
220.013886
 31
0.0
  0
LINE
  5
4EB
100
AcDbEntity
  8
M05
100
AcDbLine
 10
671.765534
 20
213.713886
 30
0.0
 11
672.465534
 21
213.013886
 31
0.0
  0
LINE
  5
4EC
102
{ACAD_REACTORS
330
23
102
}
100
AcDbEntity
  8
M02
100
AcDbLine
 10
700.765534
 20
220.013886
 30
0.0
 11
700.765534
 21
217.013886
 31
0.0
  0
LINE
  5
4ED
102
{ACAD_REACTORS
330
23
102
}
100
AcDbEntity
  8
M02
100
AcDbLine
 10
670.765534
 20
220.013886
 30
0.0
 11
670.765534
 21
217.013886
 31
0.0
  0
LINE
  5
4EE
102
{ACAD_REACTORS
330
B6
102
}
100
AcDbEntity
  8
M05
  6
HIDDEN
100
AcDbLine
 10
672.465534
 20
221.013886
 30
0.0
 11
699.065534
 21
221.013886
 31
0.0
  0
LINE
  5
4EF
100
AcDbEntity
  8
M05
100
AcDbLine
 10
671.765534
 20
219.313886
 30
0.0
 11
671.765534
 21
213.713886
 31
0.0
  0
LINE
  5
4F0
102
{ACAD_REACTORS
330
B6
102
}
100
AcDbEntity
  8
CENTRE
100
AcDbLine
 10
685.765534
 20
225.522996
 30
0.0
 11
685.765534
 21
192.444658
 31
0.0
  0
TEXT
  5
4F1
102
{ACAD_REACTORS
330
360
102
}
100
AcDbEntity
  8
TEXT
100
AcDbText
 10
428.339615
 20
215.581373
 30
0.0
 40
2.0
  1
MA010000
 41
0.9
100
AcDbText
  0
LINE
  5
4F2
100
AcDbEntity
  8
M04
100
AcDbLine
 10
393.265534
 20
195.013886
 30
0.0
 11
393.265534
 21
186.013886
 31
0.0
  0
LINE
  5
4F3
100
AcDbEntity
  8
M04
100
AcDbLine
 10
442.765534
 20
213.013886
 30
0.0
 11
682.765534
 21
213.013886
 31
0.0
  0
LINE
  5
4F4
102
{ACAD_REACTORS
330
23
102
}
100
AcDbEntity
  8
M02
100
AcDbLine
 10
457.265534
 20
217.013886
 30
0.0
 11
496.765534
 21
217.013886
 31
0.0
  0
LINE
  5
4F5
102
{ACAD_REACTORS
330
360
102
}
100
AcDbEntity
  8
M05
100
AcDbLine
 10
389.265534
 20
214.713886
 30
0.0
 11
389.965534
 21
214.013886
 31
0.0
  0
LINE
  5
4F6
102
{ACAD_REACTORS
330
22
102
}
100
AcDbEntity
  8
M02
100
AcDbLine
 10
388.265534
 20
220.013886
 30
0.0
 11
388.265534
 21
217.013886
 31
0.0
  0
LINE
  5
4F7
102
{ACAD_REACTORS
330
360
330
B6
102
}
100
AcDbEntity
  8
M01
100
AcDbLine
 10
433.265534
 20
220.013886
 30
0.0
 11
446.265534
 21
220.013886
 31
0.0
  0
LINE
  5
4F8
100
AcDbEntity
  8
M04
100
AcDbLine
 10
393.265534
 20
195.013886
 30
0.0
 11
453.265534
 21
195.013886
 31
0.0
  0
LINE
  5
4F9
100
AcDbEntity
  8
M04
100
AcDbLine
 10
403.265534
 20
205.013886
 30
0.0
 11
393.265534
 21
195.013886
 31
0.0
  0
LINE
  5
4FA
100
AcDbEntity
  8
M04
100
AcDbLine
 10
453.265534
 20
195.013886
 30
0.0
 11
453.265534
 21
186.013886
 31
0.0
  0
LINE
  5
4FB
100
AcDbEntity
  8
M04
100
AcDbLine
 10
443.265534
 20
205.013886
 30
0.0
 11
453.265534
 21
195.013886
 31
0.0
  0
LINE
  5
4FC
100
AcDbEntity
  8
M05
100
AcDbLine
 10
420.22466
 20
211.712671
 30
0.0
 11
426.306408
 21
211.712671
 31
0.0
  0
ARC
  5
4FD
102
{ACAD_REACTORS
330
360
102
}
100
AcDbEntity
  8
M05
100
AcDbCircle
 10
423.265534
 20
196.513886
 30
0.0
 40
15.5
100
AcDbArc
 50
101.313981
 51
126.249321
  0
LINE
  5
4FE
102
{ACAD_REACTORS
330
20
102
}
100
AcDbEntity
  8
M01
100
AcDbLine
 10
419.265534
 20
243.013886
 30
0.0
 11
419.265534
 21
230.013886
 31
0.0
  0
LINE
  5
4FF
102
{ACAD_REACTORS
330
360
102
}
100
AcDbEntity
  8
M05
100
AcDbLine
 10
419.265534
 20
230.013886
 30
0.0
 11
420.22466
 21
211.712671
 31
0.0
  0
LINE
  5
500
102
{ACAD_REACTORS
330
360
102
}
100
AcDbEntity
  8
M05
100
AcDbLine
 10
427.265534
 20
230.013886
 30
0.0
 11
426.306408
 21
211.712671
 31
0.0
  0
ARC
  5
501
102
{ACAD_REACTORS
330
360
102
}
100
AcDbEntity
  8
M05
100
AcDbCircle
 10
423.265534
 20
196.513886
 30
0.0
 40
15.5
100
AcDbArc
 50
53.750679
 51
78.686019
  0
LINE
  5
502
102
{ACAD_REACTORS
330
B6
102
}
100
AcDbEntity
  8
M01
100
AcDbLine
 10
427.265534
 20
243.013886
 30
0.0
 11
427.265534
 21
230.013886
 31
0.0
  0
LINE
  5
503
100
AcDbEntity
  8
M04
100
AcDbLine
 10
403.265534
 20
211.013886
 30
0.0
 11
403.265534
 21
213.013886
 31
0.0
  0
LINE
  5
504
100
AcDbEntity
  8
M04
100
AcDbLine
 10
403.265534
 20
209.713886
 30
0.0
 11
403.265534
 21
205.013886
 31
0.0
  0
LINE
  5
505
100
AcDbEntity
  8
M04
100
AcDbLine
 10
443.265534
 20
211.013886
 30
0.0
 11
443.265534
 21
213.013886
 31
0.0
  0
LINE
  5
506
100
AcDbEntity
  8
M04
100
AcDbLine
 10
443.265534
 20
209.713886
 30
0.0
 11
443.265534
 21
205.013886
 31
0.0
  0
LINE
  5
507
100
AcDbEntity
  8
M04
100
AcDbLine
 10
443.265534
 20
205.013886
 30
0.0
 11
403.265534
 21
205.013886
 31
0.0
  0
LINE
  5
508
102
{ACAD_REACTORS
330
360
102
}
100
AcDbEntity
  8
M05
100
AcDbLine
 10
403.765534
 20
211.013886
 30
0.0
 11
403.265534
 21
211.013886
 31
0.0
  0
LINE
  5
509
102
{ACAD_REACTORS
330
360
102
}
100
AcDbEntity
  8
M05
100
AcDbLine
 10
403.765534
 20
214.013886
 30
0.0
 11
389.965534
 21
214.013886
 31
0.0
  0
LINE
  5
50A
102
{ACAD_REACTORS
330
360
102
}
100
AcDbEntity
  8
M05
100
AcDbLine
 10
403.765534
 20
214.013886
 30
0.0
 11
403.765534
 21
211.013886
 31
0.0
  0
LINE
  5
50B
102
{ACAD_REACTORS
330
360
102
}
100
AcDbEntity
  8
M05
100
AcDbLine
 10
442.765534
 20
214.013886
 30
0.0
 11
442.765534
 21
211.013886
 31
0.0
  0
LINE
  5
50C
102
{ACAD_REACTORS
330
360
102
}
100
AcDbEntity
  8
M05
100
AcDbLine
 10
443.265534
 20
211.013886
 30
0.0
 11
442.765534
 21
211.013886
 31
0.0
  0
LINE
  5
50D
102
{ACAD_REACTORS
330
360
102
}
100
AcDbEntity
  8
M05
100
AcDbLine
 10
403.965534
 20
209.013886
 30
0.0
 11
403.265534
 21
209.713886
 31
0.0
  0
LINE
  5
50E
102
{ACAD_REACTORS
330
360
102
}
100
AcDbEntity
  8
M05
100
AcDbLine
 10
442.565534
 20
209.013886
 30
0.0
 11
443.265534
 21
209.713886
 31
0.0
  0
LINE
  5
50F
102
{ACAD_REACTORS
330
360
102
}
100
AcDbEntity
  8
M05
100
AcDbLine
 10
442.565534
 20
209.013886
 30
0.0
 11
403.965534
 21
209.013886
 31
0.0
  0
LINE
  5
510
102
{ACAD_REACTORS
330
360
102
}
100
AcDbEntity
  8
M05
100
AcDbLine
 10
403.265534
 20
211.013886
 30
0.0
 11
403.265534
 21
209.713886
 31
0.0
  0
LINE
  5
511
102
{ACAD_REACTORS
330
360
102
}
100
AcDbEntity
  8
M05
100
AcDbLine
 10
443.265534
 20
211.013886
 30
0.0
 11
443.265534
 21
209.713886
 31
0.0
  0
LINE
  5
512
102
{ACAD_REACTORS
330
20
102
}
100
AcDbEntity
  8
M04
100
AcDbLine
 10
413.265534
 20
220.513886
 30
0.0
 11
412.765534
 21
220.013886
 31
0.0
  0
LINE
  5
513
102
{ACAD_REACTORS
330
B6
102
}
100
AcDbEntity
  8
M04
100
AcDbLine
 10
433.265534
 20
220.513886
 30
0.0
 11
433.765534
 21
220.013886
 31
0.0
  0
LINE
  5
514
102
{ACAD_REACTORS
330
360
102
}
100
AcDbEntity
  8
M05
100
AcDbLine
 10
389.265534
 20
219.313886
 30
0.0
 11
389.965534
 21
220.013886
 31
0.0
  0
LINE
  5
515
102
{ACAD_REACTORS
330
360
102
}
100
AcDbEntity
  8
M05
100
AcDbLine
 10
389.265534
 20
219.313886
 30
0.0
 11
389.265534
 21
214.713886
 31
0.0
  0
LINE
  5
516
102
{ACAD_REACTORS
330
360
102
}
100
AcDbEntity
  8
M05
100
AcDbLine
 10
457.265534
 20
219.313886
 30
0.0
 11
456.565534
 21
220.013886
 31
0.0
  0
LINE
  5
517
102
{ACAD_REACTORS
330
360
102
}
100
AcDbEntity
  8
M05
100
AcDbLine
 10
457.265534
 20
214.713886
 30
0.0
 11
456.565534
 21
214.013886
 31
0.0
  0
LINE
  5
518
102
{ACAD_REACTORS
330
23
102
}
100
AcDbEntity
  8
M02
100
AcDbLine
 10
458.265534
 20
220.013886
 30
0.0
 11
458.265534
 21
217.013886
 31
0.0
  0
LINE
  5
519
102
{ACAD_REACTORS
330
360
102
}
100
AcDbEntity
  8
M05
100
AcDbLine
 10
456.565534
 20
214.013886
 30
0.0
 11
442.765534
 21
214.013886
 31
0.0
  0
LINE
  5
51A
102
{ACAD_REACTORS
330
360
102
}
100
AcDbEntity
  8
M05
100
AcDbLine
 10
457.265534
 20
219.313886
 30
0.0
 11
457.265534
 21
214.713886
 31
0.0
  0
LINE
  5
51B
102
{ACAD_REACTORS
330
20
102
}
100
AcDbEntity
  8
M04
100
AcDbLine
 10
413.265534
 20
229.013886
 30
0.0
 11
413.265534
 21
230.013886
 31
0.0
  0
LINE
  5
51C
102
{ACAD_REACTORS
330
20
102
}
100
AcDbEntity
  8
M04
100
AcDbLine
 10
414.265534
 20
230.013886
 30
0.0
 11
413.265534
 21
230.013886
 31
0.0
  0
LINE
  5
51D
102
{ACAD_REACTORS
330
B6
102
}
100
AcDbEntity
  8
M04
100
AcDbLine
 10
433.265534
 20
229.013886
 30
0.0
 11
433.265534
 21
230.013886
 31
0.0
  0
LINE
  5
51E
102
{ACAD_REACTORS
330
B6
102
}
100
AcDbEntity
  8
M04
100
AcDbLine
 10
432.265534
 20
230.013886
 30
0.0
 11
433.265534
 21
230.013886
 31
0.0
  0
LINE
  5
51F
102
{ACAD_REACTORS
330
360
102
}
100
AcDbEntity
  8
M05
100
AcDbLine
 10
432.265534
 20
230.013886
 30
0.0
 11
433.265534
 21
229.013886
 31
0.0
  0
LINE
  5
520
102
{ACAD_REACTORS
330
360
102
}
100
AcDbEntity
  8
M05
100
AcDbLine
 10
413.265534
 20
229.013886
 30
0.0
 11
414.265534
 21
230.013886
 31
0.0
  0
LINE
  5
521
102
{ACAD_REACTORS
330
360
330
B6
330
20
102
}
100
AcDbEntity
  8
M05
100
AcDbLine
 10
432.265534
 20
230.013886
 30
0.0
 11
414.265534
 21
230.013886
 31
0.0
  0
LINE
  5
522
102
{ACAD_REACTORS
330
360
330
20
102
}
100
AcDbEntity
  8
M05
100
AcDbLine
 10
413.265534
 20
229.013886
 30
0.0
 11
413.265534
 21
220.013886
 31
0.0
  0
LINE
  5
523
102
{ACAD_REACTORS
330
360
330
B6
102
}
100
AcDbEntity
  8
M05
100
AcDbLine
 10
433.265534
 20
229.013886
 30
0.0
 11
433.265534
 21
220.013886
 31
0.0
  0
LINE
  5
524
100
AcDbEntity
  8
M04
100
AcDbLine
 10
444.990534
 20
287.013886
 30
0.0
 11
724.765534
 21
287.013886
 31
0.0
  0
LINE
  5
525
100
AcDbEntity
  8
M02
100
AcDbLine
 10
444.990534
 20
283.013886
 30
0.0
 11
715.765534
 21
283.013886
 31
0.0
  0
LINE
  5
526
102
{ACAD_REACTORS
330
22
102
}
100
AcDbEntity
  8
M02
100
AcDbLine
 10
130.765534
 20
217.013886
 30
0.0
 11
146.765534
 21
217.013886
 31
0.0
  0
LINE
  5
527
102
{ACAD_REACTORS
330
23
102
}
100
AcDbEntity
  8
M02
100
AcDbLine
 10
715.765534
 20
220.013886
 30
0.0
 11
715.765534
 21
217.013886
 31
0.0
  0
LINE
  5
528
102
{ACAD_REACTORS
330
22
102
}
100
AcDbEntity
  8
M02
100
AcDbLine
 10
130.765534
 20
220.013886
 30
0.0
 11
130.765534
 21
217.013886
 31
0.0
  0
LINE
  5
529
102
{ACAD_REACTORS
330
21
102
}
100
AcDbEntity
  8
M02
100
AcDbLine
 10
130.765534
 20
283.013886
 30
0.0
 11
401.540534
 21
283.013886
 31
0.0
  0
LINE
  5
52A
100
AcDbEntity
  8
M02
100
AcDbLine
 10
715.765534
 20
280.013886
 30
0.0
 11
715.765534
 21
283.013886
 31
0.0
  0
LINE
  5
52B
102
{ACAD_REACTORS
330
21
102
}
100
AcDbEntity
  8
M02
100
AcDbLine
 10
130.765534
 20
280.013886
 30
0.0
 11
130.765534
 21
283.013886
 31
0.0
  0
LINE
  5
52C
102
{ACAD_REACTORS
330
B6
102
}
100
AcDbEntity
  8
M01
100
AcDbLine
 10
717.765534
 20
222.013886
 30
0.0
 11
715.765534
 21
220.013886
 31
0.0
  0
LINE
  5
52D
102
{ACAD_REACTORS
330
B6
102
}
100
AcDbEntity
  8
M01
100
AcDbLine
 10
715.765534
 20
280.013886
 30
0.0
 11
717.765534
 21
278.013886
 31
0.0
  0
LINE
  5
52E
102
{ACAD_REACTORS
330
20
102
}
100
AcDbEntity
  8
M01
100
AcDbLine
 10
128.765534
 20
278.013886
 30
0.0
 11
130.765534
 21
280.013886
 31
0.0
  0
LINE
  5
52F
102
{ACAD_REACTORS
330
20
102
}
100
AcDbEntity
  8
M01
100
AcDbLine
 10
130.765534
 20
220.013886
 30
0.0
 11
128.765534
 21
222.013886
 31
0.0
  0
LINE
  5
530
102
{ACAD_REACTORS
330
B6
102
}
100
AcDbEntity
  8
M01
100
AcDbLine
 10
717.765534
 20
278.013886
 30
0.0
 11
717.765534
 21
222.013886
 31
0.0
  0
LINE
  5
531
102
{ACAD_REACTORS
330
20
102
}
100
AcDbEntity
  8
M01
100
AcDbLine
 10
128.765534
 20
278.013886
 30
0.0
 11
128.765534
 21
222.013886
 31
0.0
  0
LINE
  5
532
102
{ACAD_REACTORS
330
360
330
33A
330
22
330
20
102
}
100
AcDbEntity
  8
M01
100
AcDbLine
 10
130.765534
 20
220.013886
 30
0.0
 11
413.265534
 21
220.013886
 31
0.0
  0
LINE
  5
533
102
{ACAD_REACTORS
330
B6
330
21
330
20
102
}
100
AcDbEntity
  8
M01
100
AcDbLine
 10
130.765534
 20
280.013886
 30
0.0
 11
715.765534
 21
280.013886
 31
0.0
  0
LINE
  5
534
100
AcDbEntity
  8
M04
100
AcDbLine
 10
121.765534
 20
287.013886
 30
0.0
 11
401.540534
 21
287.013886
 31
0.0
  0
LINE
  5
535
102
{ACAD_REACTORS
330
B6
330
20
102
}
100
AcDbEntity
  8
CENTRE
100
AcDbLine
 10
423.265534
 20
317.648632
 30
0.0
 11
423.265534
 21
176.693943
 31
0.0
  0
LINE
  5
536
100
AcDbEntity
  8
M04
100
AcDbLine
 10
724.765534
 20
287.013886
 30
0.0
 11
724.765534
 21
213.013886
 31
0.0
  0
LINE
  5
537
100
AcDbEntity
  8
M04
100
AcDbLine
 10
121.765534
 20
287.013886
 30
0.0
 11
121.765534
 21
213.013886
 31
0.0
  0
LINE
  5
538
102
{ACAD_REACTORS
330
33A
102
}
100
AcDbEntity
  8
M04
100
AcDbLine
 10
104.214753
 20
213.013886
 30
0.0
 11
157.765534
 21
213.013886
 31
0.0
  0
LINE
  5
539
100
AcDbEntity
  8
M04
100
AcDbLine
 10
440.265534
 20
568.559226
 30
0.0
 11
440.265534
 21
589.230704
 31
0.0
  0
LINE
  5
53A
100
AcDbEntity
  8
M04
100
AcDbLine
 10
406.265534
 20
568.559226
 30
0.0
 11
406.265534
 21
589.230704
 31
0.0
  0
ARC
  5
53B
100
AcDbEntity
  8
M04
100
AcDbCircle
 10
440.265534
 20
553.559226
 30
0.0
 40
15.0
100
AcDbArc
 50
360.0
 51
90.0
  0
ARC
  5
53C
100
AcDbEntity
  8
M04
100
AcDbCircle
 10
406.265534
 20
553.559226
 30
0.0
 40
15.0
100
AcDbArc
 50
90.0
 51
180.0
  0
LINE
  5
53D
100
AcDbEntity
  8
M04
100
AcDbLine
 10
406.265534
 20
568.559226
 30
0.0
 11
440.265534
 21
568.559226
 31
0.0
  0
LINE
  5
53E
100
AcDbEntity
  8
M01
100
AcDbLine
 10
412.765534
 20
553.559226
 30
0.0
 11
413.265534
 21
553.059226
 31
0.0
  0
LINE
  5
53F
100
AcDbEntity
  8
M01
100
AcDbLine
 10
409.265534
 20
553.059226
 30
0.0
 11
409.765534
 21
553.559226
 31
0.0
  0
LINE
  5
540
100
AcDbEntity
  8
M01
100
AcDbLine
 10
409.265534
 20
553.059226
 30
0.0
 11
413.265534
 21
553.059226
 31
0.0
  0
LINE
  5
541
100
AcDbEntity
  8
M01
100
AcDbLine
 10
412.765534
 20
553.559226
 30
0.0
 11
412.765534
 21
550.459226
 31
0.0
  0
LINE
  5
542
100
AcDbEntity
  8
M01
100
AcDbLine
 10
409.765534
 20
553.559226
 30
0.0
 11
409.765534
 21
550.459226
 31
0.0
  0
LINE
  5
543
100
AcDbEntity
  8
M01
100
AcDbLine
 10
409.265534
 20
553.059226
 30
0.0
 11
409.265534
 21
550.459226
 31
0.0
  0
LINE
  5
544
100
AcDbEntity
  8
M01
100
AcDbLine
 10
413.265534
 20
553.059226
 30
0.0
 11
413.265534
 21
550.459226
 31
0.0
  0
LINE
  5
545
100
AcDbEntity
  8
M01
100
AcDbLine
 10
409.765534
 20
553.559226
 30
0.0
 11
412.765534
 21
553.559226
 31
0.0
  0
LINE
  5
546
100
AcDbEntity
  8
M01
100
AcDbLine
 10
406.265534
 20
528.559226
 30
0.0
 11
416.265534
 21
528.559226
 31
0.0
  0
LINE
  5
547
100
AcDbEntity
  8
M01
100
AcDbLine
 10
415.765534
 20
541.359226
 30
0.0
 11
415.765534
 21
540.559226
 31
0.0
  0
LINE
  5
548
100
AcDbEntity
  8
M01
100
AcDbLine
 10
406.765534
 20
541.359226
 30
0.0
 11
406.765534
 21
540.559226
 31
0.0
  0
LINE
  5
549
100
AcDbEntity
  8
CENTRE
100
AcDbLine
 10
411.265534
 20
559.720115
 30
0.0
 11
411.265534
 21
496.126684
 31
0.0
  0
LINE
  5
54A
100
AcDbEntity
  8
M04
100
AcDbLine
 10
455.265534
 20
478.559226
 30
0.0
 11
462.265534
 21
471.559226
 31
0.0
  0
LINE
  5
54B
100
AcDbEntity
  8
M04
100
AcDbLine
 10
384.265534
 20
471.559226
 30
0.0
 11
391.265534
 21
478.559226
 31
0.0
  0
ARC
  5
54C
100
AcDbEntity
  8
M04
100
AcDbCircle
 10
136.765534
 20
408.559226
 30
0.0
 40
15.0
100
AcDbArc
 50
180.0
 51
270.0
  0
ARC
  5
54D
100
AcDbEntity
  8
M04
100
AcDbCircle
 10
136.765534
 20
456.559226
 30
0.0
 40
15.0
100
AcDbArc
 50
90.0
 51
180.0
  0
ARC
  5
54E
100
AcDbEntity
  8
M04
100
AcDbCircle
 10
709.765534
 20
456.559226
 30
0.0
 40
15.0
100
AcDbArc
 50
0.0
 51
90.0
  0
ARC
  5
54F
100
AcDbEntity
  8
M04
100
AcDbCircle
 10
709.765534
 20
408.559226
 30
0.0
 40
15.0
100
AcDbArc
 50
270.0
 51
0.0
  0
LINE
  5
550
100
AcDbEntity
  8
M04
100
AcDbLine
 10
121.765534
 20
456.559226
 30
0.0
 11
121.765534
 21
408.559226
 31
0.0
  0
LINE
  5
551
100
AcDbEntity
  8
M04
100
AcDbLine
 10
391.265534
 20
553.559226
 30
0.0
 11
391.265534
 21
478.559226
 31
0.0
  0
LINE
  5
552
100
AcDbEntity
  8
M04
100
AcDbLine
 10
455.265534
 20
553.559226
 30
0.0
 11
455.265534
 21
478.559226
 31
0.0
  0
LINE
  5
553
100
AcDbEntity
  8
M04
100
AcDbLine
 10
462.265534
 20
471.559226
 30
0.0
 11
709.765534
 21
471.559226
 31
0.0
  0
LINE
  5
554
100
AcDbEntity
  8
M04
100
AcDbLine
 10
724.765534
 20
456.559226
 30
0.0
 11
724.765534
 21
408.559226
 31
0.0
  0
LINE
  5
555
100
AcDbEntity
  8
M04
100
AcDbLine
 10
136.765534
 20
393.559226
 30
0.0
 11
709.765534
 21
393.559226
 31
0.0
  0
CIRCLE
  5
556
100
AcDbEntity
  8
M03
100
AcDbCircle
 10
423.265534
 20
432.559226
 30
0.0
 40
4.0
  0
LINE
  5
557
100
AcDbEntity
  8
M03
100
AcDbLine
 10
160.765534
 20
428.559226
 30
0.0
 11
685.765534
 21
428.559226
 31
0.0
  0
LINE
  5
558
100
AcDbEntity
  8
M03
100
AcDbLine
 10
160.765534
 20
436.559226
 30
0.0
 11
685.765534
 21
436.559226
 31
0.0
  0
CIRCLE
  5
559
100
AcDbEntity
  8
M01
100
AcDbCircle
 10
685.765534
 20
432.559226
 30
0.0
 40
4.0
  0
CIRCLE
  5
55A
100
AcDbEntity
  8
M01
100
AcDbCircle
 10
160.765534
 20
432.559226
 30
0.0
 40
4.0
  0
LWPOLYLINE
  5
55B
100
AcDbEntity
  8
M01
100
AcDbPolyline
 90
        2
 70
     0
 43
4.0
 10
423.265534
 20
505.059226
 42
0.414214
 10
421.265534
 20
503.059226
  0
LWPOLYLINE
  5
55C
100
AcDbEntity
  8
M01
100
AcDbPolyline
 90
        2
 70
     0
 43
4.0
 10
423.265534
 20
501.059226
 42
0.414214
 10
425.265534
 20
503.059226
  0
CIRCLE
  5
55D
100
AcDbEntity
  8
M01
100
AcDbCircle
 10
423.265534
 20
503.059226
 30
0.0
 40
4.0
  0
LINE
  5
55E
100
AcDbEntity
  8
M01
100
AcDbLine
 10
427.265534
 20
500.559226
 30
0.0
 11
427.265534
 21
508.559226
 31
0.0
  0
LINE
  5
55F
100
AcDbEntity
  8
M01
100
AcDbLine
 10
419.265534
 20
500.559226
 30
0.0
 11
419.265534
 21
508.559226
 31
0.0
  0
ARC
  5
560
100
AcDbEntity
  8
M01
100
AcDbCircle
 10
423.265534
 20
500.559226
 30
0.0
 40
4.0
100
AcDbArc
 50
180.0
 51
0.0
  0
LINE
  5
561
100
AcDbEntity
  8
M01
100
AcDbLine
 10
443.265534
 20
508.559226
 30
0.0
 11
445.265534
 21
506.559226
 31
0.0
  0
LINE
  5
562
100
AcDbEntity
  8
M01
100
AcDbLine
 10
401.265534
 20
506.559226
 30
0.0
 11
403.265534
 21
508.559226
 31
0.0
  0
LINE
  5
563
100
AcDbEntity
  8
M01
100
AcDbLine
 10
403.265534
 20
508.559226
 30
0.0
 11
443.265534
 21
508.559226
 31
0.0
  0
ARC
  5
564
100
AcDbEntity
  8
M01
100
AcDbCircle
 10
457.265534
 20
476.559226
 30
0.0
 40
12.0
100
AcDbArc
 50
180.0
 51
270.0
  0
ARC
  5
565
100
AcDbEntity
  8
M01
100
AcDbCircle
 10
389.265534
 20
476.559226
 30
0.0
 40
12.0
100
AcDbArc
 50
270.0
 51
0.0
  0
LINE
  5
566
100
AcDbEntity
  8
M01
100
AcDbLine
 10
457.265534
 20
464.559226
 30
0.0
 11
705.765534
 21
464.559226
 31
0.0
  0
LINE
  5
567
100
AcDbEntity
  8
M01
100
AcDbLine
 10
445.265534
 20
506.559226
 30
0.0
 11
445.265534
 21
476.559226
 31
0.0
  0
LINE
  5
568
100
AcDbEntity
  8
M01
100
AcDbLine
 10
401.265534
 20
506.559226
 30
0.0
 11
401.265534
 21
476.559226
 31
0.0
  0
LINE
  5
569
100
AcDbEntity
  8
M01
100
AcDbLine
 10
717.765534
 20
412.559226
 30
0.0
 11
705.765534
 21
400.559226
 31
0.0
  0
LINE
  5
56A
100
AcDbEntity
  8
M01
100
AcDbLine
 10
705.765534
 20
464.559226
 30
0.0
 11
717.765534
 21
452.559226
 31
0.0
  0
LINE
  5
56B
100
AcDbEntity
  8
M01
100
AcDbLine
 10
128.765534
 20
452.559226
 30
0.0
 11
140.765534
 21
464.559226
 31
0.0
  0
LINE
  5
56C
100
AcDbEntity
  8
M01
100
AcDbLine
 10
140.765534
 20
400.559226
 30
0.0
 11
128.765534
 21
412.559226
 31
0.0
  0
LINE
  5
56D
100
AcDbEntity
  8
M01
100
AcDbLine
 10
140.765534
 20
400.559226
 30
0.0
 11
705.765534
 21
400.559226
 31
0.0
  0
LINE
  5
56E
100
AcDbEntity
  8
M01
100
AcDbLine
 10
140.765534
 20
464.559226
 30
0.0
 11
389.265534
 21
464.559226
 31
0.0
  0
LINE
  5
56F
100
AcDbEntity
  8
M01
100
AcDbLine
 10
717.765534
 20
452.559226
 30
0.0
 11
717.765534
 21
412.559226
 31
0.0
  0
LINE
  5
570
100
AcDbEntity
  8
M01
100
AcDbLine
 10
128.765534
 20
452.559226
 30
0.0
 11
128.765534
 21
412.559226
 31
0.0
  0
LINE
  5
571
100
AcDbEntity
  8
CENTRE
100
AcDbLine
 10
423.265534
 20
523.559226
 30
0.0
 11
423.265534
 21
385.559226
 31
0.0
  0
LINE
  5
572
100
AcDbEntity
  8
CENTRE
100
AcDbLine
 10
113.765534
 20
432.559226
 30
0.0
 11
732.765534
 21
432.559226
 31
0.0
  0
ENDSEC
  0
SECTION
  2
OBJECTS
  0
DICTIONARY
  5
1C
100
AcDbDictionary
  3
ACAD_GROUP
350
1A
  3
ACAD_MLINESTYLE
350
1B
  0
DICTIONARY
  5
3
100
AcDbDictionary
280
     1
  3
ACAD_SORTENTS
360
4
  0
DICTIONARY
  5
1A
102
{ACAD_REACTORS
330
1C
102
}
100
AcDbDictionary
  0
DICTIONARY
  5
1B
102
{ACAD_REACTORS
330
1C
102
}
100
AcDbDictionary
  3
STANDARD
350
1E
  0
SORTENTSTABLE
  5
4
102
{ACAD_REACTORS
330
3
102
}
100
AcDbSortentsTable
330
2
  0
MLINESTYLE
  5
1E
102
{ACAD_REACTORS
330
1B
102
}
100
AcDbMlineStyle
  2
STANDARD
 70
     0
  3

 62
   256
 51
90.0
 52
90.0
 71
     2
 49
0.5
 62
   256
  6
BYLAYER
 49
-0.5
 62
   256
  6
BYLAYER
  0
ENDSEC
  0
EOF
