  0
SECTION
  2
HEADER
  9
$ACADVER
  1
AC1014
  9
$ACADMAINTVER
 70
     9
  9
$DWGCODEPAGE
  3
ANSI_1252
  9
$INSBASE
 10
0.0
 20
0.0
 30
0.0
  9
$EXTMIN
 10
141.658206
 20
176.679812
 30
0.0
  9
$EXTMAX
 10
915.807223
 20
822.67499
 30
0.0
  9
$LIMMIN
 10
0.0
 20
0.0
  9
$LIMMAX
 10
1189.0
 20
841.0
  9
$ORTHOMODE
 70
     1
  9
$REGENMODE
 70
     1
  9
$FILLMODE
 70
     1
  9
$QTEXTMODE
 70
     0
  9
$MIRRTEXT
 70
     1
  9
$DRAGMODE
 70
     2
  9
$LTSCALE
 40
8.0
  9
$OSMODE
 70
     0
  9
$ATTMODE
 70
     1
  9
$TEXTSIZE
 40
3.0
  9
$TRACEWID
 40
10.0
  9
$TEXTSTYLE
  7
STANDARD
  9
$CLAYER
  8
HATCH
  9
$CELTYPE
  6
BYLAYER
  9
$CECOLOR
 62
   256
  9
$CELTSCALE
 40
1.0
  9
$DELOBJ
 70
     1
  9
$DISPSILH
 70
     0
  9
$DIMSCALE
 40
1.0
  9
$DIMASZ
 40
3.0
  9
$DIMEXO
 40
1.0
  9
$DIMDLI
 40
10.0
  9
$DIMRND
 40
0.01
  9
$DIMDLE
 40
1.25
  9
$DIMEXE
 40
2.5
  9
$DIMTP
 40
0.05
  9
$DIMTM
 40
0.0
  9
$DIMTXT
 40
3.0
  9
$DIMCEN
 40
-1.7
  9
$DIMTSZ
 40
0.0
  9
$DIMTOL
 70
     0
  9
$DIMLIM
 70
     0
  9
$DIMTIH
 70
     0
  9
$DIMTOH
 70
     0
  9
$DIMSE1
 70
     0
  9
$DIMSE2
 70
     0
  9
$DIMTAD
 70
     3
  9
$DIMZIN
 70
     1
  9
$DIMBLK
  1

  9
$DIMASO
 70
     1
  9
$DIMSHO
 70
     0
  9
$DIMPOST
  1

  9
$DIMAPOST
  1

  9
$DIMALT
 70
     0
  9
$DIMALTD
 70
     2
  9
$DIMALTF
 40
0.039
  9
$DIMLFAC
 40
1.0
  9
$DIMTOFL
 70
     0
  9
$DIMTVP
 40
1.5
  9
$DIMTIX
 70
     0
  9
$DIMSOXD
 70
     0
  9
$DIMSAH
 70
     0
  9
$DIMBLK1
  1

  9
$DIMBLK2
  1

  9
$DIMSTYLE
  2
DIM1
  9
$DIMCLRD
 70
     4
  9
$DIMCLRE
 70
     4
  9
$DIMCLRT
 70
     2
  9
$DIMTFAC
 40
0.7
  9
$DIMGAP
 40
1.5
  9
$DIMJUST
 70
     0
  9
$DIMSD1
 70
     0
  9
$DIMSD2
 70
     0
  9
$DIMTOLJ
 70
     1
  9
$DIMTZIN
 70
     1
  9
$DIMALTZ
 70
     1
  9
$DIMALTTZ
 70
     1
  9
$DIMFIT
 70
     0
  9
$DIMUPT
 70
     0
  9
$DIMUNIT
 70
     2
  9
$DIMDEC
 70
     2
  9
$DIMTDEC
 70
     2
  9
$DIMALTU
 70
     2
  9
$DIMALTTD
 70
     2
  9
$DIMTXSTY
  7
STANDARD
  9
$DIMAUNIT
 70
     0
  9
$LUNITS
 70
     2
  9
$LUPREC
 70
     2
  9
$SKETCHINC
 40
1.0
  9
$FILLETRAD
 40
0.0
  9
$AUNITS
 70
     0
  9
$AUPREC
 70
     3
  9
$MENU
  1
ACAD
  9
$ELEVATION
 40
0.0
  9
$PELEVATION
 40
0.0
  9
$THICKNESS
 40
0.0
  9
$LIMCHECK
 70
     0
  9
$BLIPMODE
 70
     1
  9
$CHAMFERA
 40
0.7
  9
$CHAMFERB
 40
0.7
  9
$CHAMFERC
 40
0.0
  9
$CHAMFERD
 40
0.0
  9
$SKPOLY
 70
     1
  9
$TDCREATE
 40
2449993.725698611
  9
$TDUPDATE
 40
2451991.412652268
  9
$TDINDWG
 40
1.0461265278
  9
$TDUSRTIMER
 40
1.0461265278
  9
$USRTIMER
 70
     1
  9
$ANGBASE
 50
0.0
  9
$ANGDIR
 70
     0
  9
$PDMODE
 70
     3
  9
$PDSIZE
 40
0.0
  9
$PLINEWID
 40
0.0
  9
$COORDS
 70
     2
  9
$SPLFRAME
 70
     0
  9
$SPLINETYPE
 70
     6
  9
$SPLINESEGS
 70
     6
  9
$ATTDIA
 70
     1
  9
$ATTREQ
 70
     1
  9
$HANDLING
 70
     1
  9
$HANDSEED
  5
4F4
  9
$SURFTAB1
 70
    12
  9
$SURFTAB2
 70
    12
  9
$SURFTYPE
 70
     6
  9
$SURFU
 70
    12
  9
$SURFV
 70
    12
  9
$UCSNAME
  2

  9
$UCSORG
 10
0.0
 20
0.0
 30
0.0
  9
$UCSXDIR
 10
1.0
 20
0.0
 30
0.0
  9
$UCSYDIR
 10
0.0
 20
1.0
 30
0.0
  9
$PUCSNAME
  2

  9
$PUCSORG
 10
0.0
 20
0.0
 30
0.0
  9
$PUCSXDIR
 10
1.0
 20
0.0
 30
0.0
  9
$PUCSYDIR
 10
0.0
 20
1.0
 30
0.0
  9
$USERI1
 70
     0
  9
$USERI2
 70
     0
  9
$USERI3
 70
     0
  9
$USERI4
 70
     0
  9
$USERI5
 70
     0
  9
$USERR1
 40
0.0
  9
$USERR2
 40
0.0
  9
$USERR3
 40
0.0
  9
$USERR4
 40
0.0
  9
$USERR5
 40
0.0
  9
$WORLDVIEW
 70
     0
  9
$SHADEDGE
 70
     3
  9
$SHADEDIF
 70
    70
  9
$TILEMODE
 70
     1
  9
$MAXACTVP
 70
    16
  9
$PINSBASE
 10
0.0
 20
0.0
 30
0.0
  9
$PLIMCHECK
 70
     0
  9
$PEXTMIN
 10
1.000000E+20
 20
1.000000E+20
 30
1.000000E+20
  9
$PEXTMAX
 10
-1.000000E+20
 20
-1.000000E+20
 30
-1.000000E+20
  9
$PLIMMIN
 10
0.0
 20
0.0
  9
$PLIMMAX
 10
12.0
 20
9.0
  9
$UNITMODE
 70
     0
  9
$VISRETAIN
 70
     0
  9
$PLINEGEN
 70
     0
  9
$PSLTSCALE
 70
     0
  9
$TREEDEPTH
 70
  3020
  9
$PICKSTYLE
 70
     1
  9
$CMLSTYLE
  2
STANDARD
  9
$CMLJUST
 70
     0
  9
$CMLSCALE
 40
1.0
  9
$PROXYGRAPHICS
 70
     1
  9
$MEASUREMENT
 70
     0
  0
ENDSEC
  0
SECTION
  2
CLASSES
  0
CLASS
  1
DICTIONARYVAR
  2
AcDbDictionaryVar
  3
"AutoCAD"
 90
        0
280
     0
281
     0
  0
CLASS
  1
LWPOLYLINE
  2
AcDbPolyline
  3
"AutoCAD"
 90
        0
280
     0
281
     1
  0
CLASS
  1
HATCH
  2
AcDbHatch
  3
"ACAD_SEDONA"
 90
        0
280
     0
281
     1
  0
CLASS
  1
SORTENTSTABLE
  2
AcDbSortentsTable
  3
"AutoCAD"
 90
        0
280
     0
281
     0
  0
CLASS
  1
WIPEOUTVARIABLES
  2
AcDbWipeoutVariables
  3
WIPEOUT
 90
        0
280
     0
281
     0
  0
CLASS
  1
WIPEOUT
  2
AcDbWipeout
  3
WIPEOUT
 90
      127
280
     0
281
     1
  0
ENDSEC
  0
SECTION
  2
TABLES
  0
TABLE
  2
VPORT
  5
14
100
AcDbSymbolTable
 70
     2
  0
VPORT
  5
4F3
100
AcDbSymbolTableRecord
100
AcDbViewportTableRecord
  2
*ACTIVE
 70
     0
 10
0.0
 20
0.0
 11
1.0
 21
1.0
 12
602.038644
 22
407.720885
 13
0.0
 23
0.0
 14
10.0
 24
10.0
 15
0.0
 25
0.0
 16
0.0
 26
0.0
 36
1.0
 17
16.313321
 27
12.779115
 37
0.222949
 40
841.0
 41
1.470516
 42
50.0
 43
0.0
 44
0.0
 50
0.0
 51
0.0
 71
     0
 72
  2000
 73
     1
 74
     2
 75
     0
 76
     0
 77
     0
 78
     1
  0
ENDTAB
  0
TABLE
  2
LTYPE
  5
F
100
AcDbSymbolTable
 70
     3
  0
LTYPE
  5
10
100
AcDbSymbolTableRecord
100
AcDbLinetypeTableRecord
  2
BYBLOCK
 70
     0
  3

 72
    65
 73
     0
 40
0.0
  0
LTYPE
  5
11
100
AcDbSymbolTableRecord
100
AcDbLinetypeTableRecord
  2
BYLAYER
 70
     0
  3

 72
    65
 73
     0
 40
0.0
  0
LTYPE
  5
7
100
AcDbSymbolTableRecord
100
AcDbLinetypeTableRecord
  2
CONTINUOUS
 70
     0
  3
Solid line
 72
    65
 73
     0
 40
0.0
  0
LTYPE
  5
C0
100
AcDbSymbolTableRecord
100
AcDbLinetypeTableRecord
  2
CENTER
 70
     0
  3
Center ____ _ ____ _ ____ _ ____ _ ____ _ ____
 72
    65
 73
     4
 40
2.0
 49
1.25
 74
     0
 49
-0.25
 74
     0
 49
0.25
 74
     0
 49
-0.25
 74
     0
  0
LTYPE
  5
65
100
AcDbSymbolTableRecord
100
AcDbLinetypeTableRecord
  2
HIDDEN
 70
     0
  3
Hidden __ __ __ __ __ __ __ __ __ __ __ __ __ _
 72
    65
 73
     2
 40
0.375
 49
0.25
 74
     0
 49
-0.125
 74
     0
  0
ENDTAB
  0
TABLE
  2
LAYER
  5
C
100
AcDbSymbolTable
 70
    11
  0
LAYER
  5
6
100
AcDbSymbolTableRecord
100
AcDbLayerTableRecord
  2
0
 70
     0
 62
     7
  6
CONTINUOUS
  0
LAYER
  5
BF
100
AcDbSymbolTableRecord
100
AcDbLayerTableRecord
  2
CENTRE
 70
     0
 62
     3
  6
CENTER
  0
LAYER
  5
93
100
AcDbSymbolTableRecord
100
AcDbLayerTableRecord
  2
M01
 70
     0
 62
     1
  6
CONTINUOUS
  0
LAYER
  5
28
100
AcDbSymbolTableRecord
100
AcDbLayerTableRecord
  2
M02
 70
     0
 62
     2
  6
CONTINUOUS
  0
LAYER
  5
64
100
AcDbSymbolTableRecord
100
AcDbLayerTableRecord
  2
M03
 70
     0
 62
     2
  6
HIDDEN
  0
LAYER
  5
61
100
AcDbSymbolTableRecord
100
AcDbLayerTableRecord
  2
M04
 70
     0
 62
     7
  6
CONTINUOUS
  0
LAYER
  5
6F
100
AcDbSymbolTableRecord
100
AcDbLayerTableRecord
  2
M05
 70
     0
 62
     5
  6
CONTINUOUS
  0
LAYER
  5
2A
100
AcDbSymbolTableRecord
100
AcDbLayerTableRecord
  2
DIMS
 70
     0
 62
     4
  6
CONTINUOUS
  0
LAYER
  5
26
100
AcDbSymbolTableRecord
100
AcDbLayerTableRecord
  2
TEXT
 70
     0
 62
     2
  6
CONTINUOUS
  0
LAYER
  5
1D
100
AcDbSymbolTableRecord
100
AcDbLayerTableRecord
  2
HATCH
 70
     0
 62
     4
  6
CONTINUOUS
  0
LAYER
  5
33
100
AcDbSymbolTableRecord
100
AcDbLayerTableRecord
  2
DEFPOINTS
 70
     0
 62
     7
  6
CONTINUOUS
  0
ENDTAB
  0
TABLE
  2
STYLE
  5
D
100
AcDbSymbolTable
 70
     1
  0
STYLE
  5
E
100
AcDbSymbolTableRecord
100
AcDbTextStyleTableRecord
  2
STANDARD
 70
     0
 40
0.0
 41
1.0
 50
0.0
 71
     0
 42
3.0
  3
SIMPLEX
  4

  0
ENDTAB
  0
TABLE
  2
VIEW
  5
12
100
AcDbSymbolTable
 70
     0
  0
ENDTAB
  0
TABLE
  2
UCS
  5
13
100
AcDbSymbolTable
 70
     0
  0
ENDTAB
  0
TABLE
  2
APPID
  5
16
100
AcDbSymbolTable
 70
     1
  0
APPID
  5
17
100
AcDbSymbolTableRecord
100
AcDbRegAppTableRecord
  2
ACAD
 70
     0
  0
ENDTAB
  0
TABLE
  2
DIMSTYLE
  5
18
100
AcDbSymbolTable
 70
     2
  0
DIMSTYLE
105
1F
102
{ACAD_REACTORS
330
3F4
330
401
330
29E
330
292
330
286
330
18A
330
17C
330
16E
330
161
330
153
330
52
330
45
330
38
330
29
102
}
100
AcDbSymbolTableRecord
100
AcDbDimStyleTableRecord
  2
DIM1
 70
     0
  3

  4

  5

  6

  7

 40
1.0
 41
3.0
 42
1.0
 43
10.0
 44
2.5
 45
0.01
 46
1.25
 47
0.05
 48
0.0
140
3.0
141
-1.7
142
0.0
143
0.039
144
0.2
145
1.5
146
0.7
147
1.5
 71
     0
 72
     0
 73
     0
 74
     0
 75
     0
 76
     0
 77
     3
 78
     1
170
     0
171
     2
172
     0
173
     0
174
     0
175
     0
176
     4
177
     4
178
     2
270
     2
271
     2
272
     2
273
     2
274
     2
340
E
275
     0
280
     0
281
     0
282
     0
283
     1
284
     1
285
     1
286
     1
287
     0
288
     0
  0
DIMSTYLE
105
345
100
AcDbSymbolTableRecord
100
AcDbDimStyleTableRecord
  2
DIM1$7
 70
     0
  3

  4

  5

  6

  7

 40
1.0
 41
3.0
 42
1.0
 43
10.0
 44
2.5
 45
0.01
 46
1.25
 47
0.0
 48
0.0
140
3.0
141
-1.7
142
0.0
143
0.039
144
1.0
145
0.0
146
1.0
147
1.5
 71
     0
 72
     0
 73
     0
 74
     0
 75
     0
 76
     0
 77
     0
 78
     1
170
     0
171
     2
172
     0
173
     0
174
     0
175
     0
176
     4
177
     4
178
     2
270
     2
271
     2
272
     2
273
     2
274
     2
340
E
275
     0
280
     0
281
     0
282
     0
283
     1
284
     1
285
     1
286
     1
287
     0
288
     0
  0
ENDTAB
  0
TABLE
  2
BLOCK_RECORD
  5
1
100
AcDbSymbolTable
 70
    14
  0
BLOCK_RECORD
  5
2
102
{ACAD_XDICTIONARY
360
3
102
}
100
AcDbSymbolTableRecord
100
AcDbBlockTableRecord
  2
*MODEL_SPACE
  0
BLOCK_RECORD
  5
9
100
AcDbSymbolTableRecord
100
AcDbBlockTableRecord
  2
*PAPER_SPACE
  0
BLOCK_RECORD
  5
3F5
100
AcDbSymbolTableRecord
100
AcDbBlockTableRecord
  2
*D0
  0
BLOCK_RECORD
  5
402
100
AcDbSymbolTableRecord
100
AcDbBlockTableRecord
  2
*D1
  0
BLOCK_RECORD
  5
29F
100
AcDbSymbolTableRecord
100
AcDbBlockTableRecord
  2
*D2
  0
BLOCK_RECORD
  5
293
100
AcDbSymbolTableRecord
100
AcDbBlockTableRecord
  2
*D3
  0
BLOCK_RECORD
  5
287
100
AcDbSymbolTableRecord
100
AcDbBlockTableRecord
  2
*D4
  0
BLOCK_RECORD
  5
18B
100
AcDbSymbolTableRecord
100
AcDbBlockTableRecord
  2
*D5
  0
BLOCK_RECORD
  5
17D
100
AcDbSymbolTableRecord
100
AcDbBlockTableRecord
  2
*D6
  0
BLOCK_RECORD
  5
16F
100
AcDbSymbolTableRecord
100
AcDbBlockTableRecord
  2
*D7
  0
BLOCK_RECORD
  5
162
100
AcDbSymbolTableRecord
100
AcDbBlockTableRecord
  2
*D8
  0
BLOCK_RECORD
  5
154
100
AcDbSymbolTableRecord
100
AcDbBlockTableRecord
  2
*D9
  0
BLOCK_RECORD
  5
53
100
AcDbSymbolTableRecord
100
AcDbBlockTableRecord
  2
*D10
  0
BLOCK_RECORD
  5
46
100
AcDbSymbolTableRecord
100
AcDbBlockTableRecord
  2
*D11
  0
BLOCK_RECORD
  5
39
100
AcDbSymbolTableRecord
100
AcDbBlockTableRecord
  2
*D12
  0
BLOCK_RECORD
  5
2B
100
AcDbSymbolTableRecord
100
AcDbBlockTableRecord
  2
*D13
  0
ENDTAB
  0
ENDSEC
  0
SECTION
  2
BLOCKS
  0
BLOCK
  5
5
100
AcDbEntity
  8
0
100
AcDbBlockBegin
  2
*MODEL_SPACE
 70
     0
 10
0.0
 20
0.0
 30
0.0
  3
*MODEL_SPACE
  1

  0
ENDBLK
  5
8
100
AcDbEntity
  8
0
100
AcDbBlockEnd
  0
BLOCK
  5
A
100
AcDbEntity
 67
     1
  8
0
100
AcDbBlockBegin
  2
*PAPER_SPACE
 70
     0
 10
0.0
 20
0.0
 30
0.0
  3
*PAPER_SPACE
  1

  0
ENDBLK
  5
B
100
AcDbEntity
 67
     1
  8
0
100
AcDbBlockEnd
  0
BLOCK
  5
3FF
100
AcDbEntity
  8
0
100
AcDbBlockBegin
  2
*D0
 70
     1
 10
0.0
 20
0.0
 30
0.0
  3
*D0
  1

  0
LINE
  5
3F6
100
AcDbEntity
  8
0
  6
BYBLOCK
 62
     4
100
AcDbLine
 10
556.765534
 20
400.559226
 30
0.0
 11
600.022489
 21
400.559226
 31
0.0
  0
LINE
  5
3F7
100
AcDbEntity
  8
0
  6
BYBLOCK
 62
     4
100
AcDbLine
 10
556.765534
 20
464.559226
 30
0.0
 11
600.022489
 21
464.559226
 31
0.0
  0
LINE
  5
3F8
100
AcDbEntity
  8
0
  6
BYBLOCK
 62
     4
100
AcDbLine
 10
597.522489
 20
403.559226
 30
0.0
 11
597.522489
 21
461.559226
 31
0.0
  0
SOLID
  5
3F9
100
AcDbEntity
  8
0
  6
BYBLOCK
 62
     4
100
AcDbTrace
 10
597.022489
 20
403.559226
 30
0.0
 11
598.022489
 21
403.559226
 31
0.0
 12
597.522489
 22
400.559226
 32
0.0
 13
597.522489
 23
400.559226
 33
0.0
  0
SOLID
  5
3FA
100
AcDbEntity
  8
0
  6
BYBLOCK
 62
     4
100
AcDbTrace
 10
597.022489
 20
461.559226
 30
0.0
 11
598.022489
 21
461.559226
 31
0.0
 12
597.522489
 22
464.559226
 32
0.0
 13
597.522489
 23
464.559226
 33
0.0
  0
MTEXT
  5
3FB
100
AcDbEntity
  8
0
  6
BYBLOCK
 62
     2
100
AcDbMText
 10
594.522489
 20
432.559226
 30
0.0
 40
3.0
 41
0.0
 71
     5
 72
     1
  1
\A1;W=64.00
 11
0.0
 21
1.0
 31
0.0
  0
POINT
  5
3FC
100
AcDbEntity
  8
DEFPOINTS
  6
BYBLOCK
 62
     0
100
AcDbPoint
 10
555.765534
 20
400.559226
 30
0.0
  0
POINT
  5
3FD
100
AcDbEntity
  8
DEFPOINTS
  6
BYBLOCK
 62
     0
100
AcDbPoint
 10
555.765534
 20
464.559226
 30
0.0
  0
POINT
  5
3FE
100
AcDbEntity
  8
DEFPOINTS
  6
BYBLOCK
 62
     0
100
AcDbPoint
 10
597.522489
 20
464.559226
 30
0.0
  0
ENDBLK
  5
400
100
AcDbEntity
  8
0
100
AcDbBlockEnd
  0
BLOCK
  5
40C
100
AcDbEntity
  8
0
100
AcDbBlockBegin
  2
*D1
 70
     1
 10
0.0
 20
0.0
 30
0.0
  3
*D1
  1

  0
LINE
  5
403
100
AcDbEntity
  8
0
  6
BYBLOCK
 62
     4
100
AcDbLine
 10
166.265534
 20
411.559226
 30
0.0
 11
166.265534
 21
337.696619
 31
0.0
  0
LINE
  5
404
100
AcDbEntity
  8
0
  6
BYBLOCK
 62
     4
100
AcDbLine
 10
680.265534
 20
411.559226
 30
0.0
 11
680.265534
 21
337.696619
 31
0.0
  0
LINE
  5
405
100
AcDbEntity
  8
0
  6
BYBLOCK
 62
     4
100
AcDbLine
 10
169.265534
 20
340.196619
 30
0.0
 11
677.265534
 21
340.196619
 31
0.0
  0
SOLID
  5
406
100
AcDbEntity
  8
0
  6
BYBLOCK
 62
     4
100
AcDbTrace
 10
169.265534
 20
340.696619
 30
0.0
 11
169.265534
 21
339.696619
 31
0.0
 12
166.265534
 22
340.196619
 32
0.0
 13
166.265534
 23
340.196619
 33
0.0
  0
SOLID
  5
407
100
AcDbEntity
  8
0
  6
BYBLOCK
 62
     4
100
AcDbTrace
 10
677.265534
 20
340.696619
 30
0.0
 11
677.265534
 21
339.696619
 31
0.0
 12
680.265534
 22
340.196619
 32
0.0
 13
680.265534
 23
340.196619
 33
0.0
  0
MTEXT
  5
408
100
AcDbEntity
  8
0
  6
BYBLOCK
 62
     2
100
AcDbMText
 10
423.265534
 20
343.196619
 30
0.0
 40
3.0
 41
0.0
 71
     5
 72
     1
  1
\A1;L=514.00
  0
POINT
  5
409
100
AcDbEntity
  8
DEFPOINTS
  6
BYBLOCK
 62
     0
100
AcDbPoint
 10
166.265534
 20
412.559226
 30
0.0
  0
POINT
  5
40A
100
AcDbEntity
  8
DEFPOINTS
  6
BYBLOCK
 62
     0
100
AcDbPoint
 10
680.265534
 20
412.559226
 30
0.0
  0
POINT
  5
40B
100
AcDbEntity
  8
DEFPOINTS
  6
BYBLOCK
 62
     0
100
AcDbPoint
 10
680.265534
 20
340.196619
 30
0.0
  0
ENDBLK
  5
40D
100
AcDbEntity
  8
0
100
AcDbBlockEnd
  0
BLOCK
  5
2A9
100
AcDbEntity
  8
0
100
AcDbBlockBegin
  2
*D2
 70
     1
 10
0.0
 20
0.0
 30
0.0
  3
*D2
  1

  0
LINE
  5
2A0
100
AcDbEntity
  8
0
  6
BYBLOCK
 62
     4
100
AcDbLine
 10
198.265534
 20
414.859226
 30
0.0
 11
198.265534
 21
347.764883
 31
0.0
  0
LINE
  5
2A1
100
AcDbEntity
  8
0
  6
BYBLOCK
 62
     4
100
AcDbLine
 10
348.265534
 20
425.859226
 30
0.0
 11
348.265534
 21
347.764883
 31
0.0
  0
LINE
  5
2A2
100
AcDbEntity
  8
0
  6
BYBLOCK
 62
     4
100
AcDbLine
 10
201.265534
 20
350.264883
 30
0.0
 11
345.265534
 21
350.264883
 31
0.0
  0
SOLID
  5
2A3
100
AcDbEntity
  8
0
  6
BYBLOCK
 62
     4
100
AcDbTrace
 10
201.265534
 20
350.764883
 30
0.0
 11
201.265534
 21
349.764883
 31
0.0
 12
198.265534
 22
350.264883
 32
0.0
 13
198.265534
 23
350.264883
 33
0.0
  0
SOLID
  5
2A4
100
AcDbEntity
  8
0
  6
BYBLOCK
 62
     4
100
AcDbTrace
 10
345.265534
 20
350.764883
 30
0.0
 11
345.265534
 21
349.764883
 31
0.0
 12
348.265534
 22
350.264883
 32
0.0
 13
348.265534
 23
350.264883
 33
0.0
  0
MTEXT
  5
2A5
100
AcDbEntity
  8
0
  6
BYBLOCK
 62
     2
100
AcDbMText
 10
273.265534
 20
353.264883
 30
0.0
 40
3.0
 41
0.0
 71
     5
 72
     1
  1
\A1;A=150.00
  0
POINT
  5
2A6
100
AcDbEntity
  8
DEFPOINTS
  6
BYBLOCK
 62
     0
100
AcDbPoint
 10
198.265534
 20
415.859226
 30
0.0
  0
POINT
  5
2A7
100
AcDbEntity
  8
DEFPOINTS
  6
BYBLOCK
 62
     0
100
AcDbPoint
 10
348.265534
 20
426.859226
 30
0.0
  0
POINT
  5
2A8
100
AcDbEntity
  8
DEFPOINTS
  6
BYBLOCK
 62
     0
100
AcDbPoint
 10
348.265534
 20
350.264883
 30
0.0
  0
ENDBLK
  5
2AA
100
AcDbEntity
  8
0
100
AcDbBlockEnd
  0
BLOCK
  5
29C
100
AcDbEntity
  8
0
100
AcDbBlockBegin
  2
*D3
 70
     1
 10
0.0
 20
0.0
 30
0.0
  3
*D3
  1

  0
LINE
  5
294
100
AcDbEntity
  8
0
  6
BYBLOCK
 62
     4
100
AcDbLine
 10
498.265534
 20
425.859226
 30
0.0
 11
498.265534
 21
347.764883
 31
0.0
  0
LINE
  5
295
100
AcDbEntity
  8
0
  6
BYBLOCK
 62
     4
100
AcDbLine
 10
351.265534
 20
350.264883
 30
0.0
 11
495.265534
 21
350.264883
 31
0.0
  0
SOLID
  5
296
100
AcDbEntity
  8
0
  6
BYBLOCK
 62
     4
100
AcDbTrace
 10
351.265534
 20
350.764883
 30
0.0
 11
351.265534
 21
349.764883
 31
0.0
 12
348.265534
 22
350.264883
 32
0.0
 13
348.265534
 23
350.264883
 33
0.0
  0
SOLID
  5
297
100
AcDbEntity
  8
0
  6
BYBLOCK
 62
     4
100
AcDbTrace
 10
495.265534
 20
350.764883
 30
0.0
 11
495.265534
 21
349.764883
 31
0.0
 12
498.265534
 22
350.264883
 32
0.0
 13
498.265534
 23
350.264883
 33
0.0
  0
MTEXT
  5
298
100
AcDbEntity
  8
0
  6
BYBLOCK
 62
     2
100
AcDbMText
 10
423.265534
 20
353.264883
 30
0.0
 40
3.0
 41
0.0
 71
     5
 72
     1
  1
\A1;B=150.00
  0
POINT
  5
299
100
AcDbEntity
  8
DEFPOINTS
  6
BYBLOCK
 62
     0
100
AcDbPoint
 10
348.265534
 20
426.859226
 30
0.0
  0
POINT
  5
29A
100
AcDbEntity
  8
DEFPOINTS
  6
BYBLOCK
 62
     0
100
AcDbPoint
 10
498.265534
 20
426.859226
 30
0.0
  0
POINT
  5
29B
100
AcDbEntity
  8
DEFPOINTS
  6
BYBLOCK
 62
     0
100
AcDbPoint
 10
498.265534
 20
350.264883
 30
0.0
  0
ENDBLK
  5
29D
100
AcDbEntity
  8
0
100
AcDbBlockEnd
  0
BLOCK
  5
290
100
AcDbEntity
  8
0
100
AcDbBlockBegin
  2
*D4
 70
     1
 10
0.0
 20
0.0
 30
0.0
  3
*D4
  1

  0
LINE
  5
288
100
AcDbEntity
  8
0
  6
BYBLOCK
 62
     4
100
AcDbLine
 10
648.265534
 20
414.859226
 30
0.0
 11
648.265534
 21
347.764883
 31
0.0
  0
LINE
  5
289
100
AcDbEntity
  8
0
  6
BYBLOCK
 62
     4
100
AcDbLine
 10
501.265534
 20
350.264883
 30
0.0
 11
645.265534
 21
350.264883
 31
0.0
  0
SOLID
  5
28A
100
AcDbEntity
  8
0
  6
BYBLOCK
 62
     4
100
AcDbTrace
 10
501.265534
 20
350.764883
 30
0.0
 11
501.265534
 21
349.764883
 31
0.0
 12
498.265534
 22
350.264883
 32
0.0
 13
498.265534
 23
350.264883
 33
0.0
  0
SOLID
  5
28B
100
AcDbEntity
  8
0
  6
BYBLOCK
 62
     4
100
AcDbTrace
 10
645.265534
 20
350.764883
 30
0.0
 11
645.265534
 21
349.764883
 31
0.0
 12
648.265534
 22
350.264883
 32
0.0
 13
648.265534
 23
350.264883
 33
0.0
  0
MTEXT
  5
28C
100
AcDbEntity
  8
0
  6
BYBLOCK
 62
     2
100
AcDbMText
 10
573.265534
 20
353.264883
 30
0.0
 40
3.0
 41
0.0
 71
     5
 72
     1
  1
\A1;A=150.00
  0
POINT
  5
28D
100
AcDbEntity
  8
DEFPOINTS
  6
BYBLOCK
 62
     0
100
AcDbPoint
 10
498.265534
 20
426.859226
 30
0.0
  0
POINT
  5
28E
100
AcDbEntity
  8
DEFPOINTS
  6
BYBLOCK
 62
     0
100
AcDbPoint
 10
648.265534
 20
415.859226
 30
0.0
  0
POINT
  5
28F
100
AcDbEntity
  8
DEFPOINTS
  6
BYBLOCK
 62
     0
100
AcDbPoint
 10
648.265534
 20
350.264883
 30
0.0
  0
ENDBLK
  5
291
100
AcDbEntity
  8
0
100
AcDbBlockEnd
  0
BLOCK
  5
195
100
AcDbEntity
  8
0
100
AcDbBlockBegin
  2
*D5
 70
     1
 10
0.0
 20
0.0
 30
0.0
  3
*D5
  1

  0
LINE
  5
18C
100
AcDbEntity
  8
0
  6
BYBLOCK
 62
     4
100
AcDbLine
 10
673.211979
 20
401.559226
 30
0.0
 11
673.211979
 21
359.779548
 31
0.0
  0
LINE
  5
18D
100
AcDbEntity
  8
0
  6
BYBLOCK
 62
     4
100
AcDbLine
 10
733.211979
 20
399.559226
 30
0.0
 11
733.211979
 21
359.779548
 31
0.0
  0
LINE
  5
18E
100
AcDbEntity
  8
0
  6
BYBLOCK
 62
     4
100
AcDbLine
 10
676.211979
 20
362.279548
 30
0.0
 11
730.211979
 21
362.279548
 31
0.0
  0
SOLID
  5
18F
100
AcDbEntity
  8
0
  6
BYBLOCK
 62
     4
100
AcDbTrace
 10
676.211979
 20
362.779548
 30
0.0
 11
676.211979
 21
361.779548
 31
0.0
 12
673.211979
 22
362.279548
 32
0.0
 13
673.211979
 23
362.279548
 33
0.0
  0
SOLID
  5
190
100
AcDbEntity
  8
0
  6
BYBLOCK
 62
     4
100
AcDbTrace
 10
730.211979
 20
362.779548
 30
0.0
 11
730.211979
 21
361.779548
 31
0.0
 12
733.211979
 22
362.279548
 32
0.0
 13
733.211979
 23
362.279548
 33
0.0
  0
MTEXT
  5
191
100
AcDbEntity
  8
0
  6
BYBLOCK
 62
     2
100
AcDbMText
 10
703.211979
 20
365.279548
 30
0.0
 40
3.0
 41
0.0
 71
     5
 72
     1
  1
\A1;60.00
  0
POINT
  5
192
100
AcDbEntity
  8
DEFPOINTS
  6
BYBLOCK
 62
     0
100
AcDbPoint
 10
673.211979
 20
402.559226
 30
0.0
  0
POINT
  5
193
100
AcDbEntity
  8
DEFPOINTS
  6
BYBLOCK
 62
     0
100
AcDbPoint
 10
733.211979
 20
400.559226
 30
0.0
  0
POINT
  5
194
100
AcDbEntity
  8
DEFPOINTS
  6
BYBLOCK
 62
     0
100
AcDbPoint
 10
733.211979
 20
362.279548
 30
0.0
  0
ENDBLK
  5
196
100
AcDbEntity
  8
0
100
AcDbBlockEnd
  0
BLOCK
  5
188
100
AcDbEntity
  8
0
100
AcDbBlockBegin
  2
*D6
 70
     1
 10
0.0
 20
0.0
 30
0.0
  3
*D6
  1

  0
LINE
  5
17E
100
AcDbEntity
  8
0
  6
BYBLOCK
 62
     4
100
AcDbLine
 10
431.011594
 20
706.807358
 30
0.0
 11
431.011594
 21
667.02768
 31
0.0
  0
LINE
  5
17F
100
AcDbEntity
  8
0
  6
BYBLOCK
 62
     4
100
AcDbLine
 10
438.011594
 20
688.293967
 30
0.0
 11
438.011594
 21
667.02768
 31
0.0
  0
LINE
  5
180
100
AcDbEntity
  8
0
  6
BYBLOCK
 62
     4
100
AcDbLine
 10
428.011594
 20
669.52768
 30
0.0
 11
425.011594
 21
669.52768
 31
0.0
  0
LINE
  5
181
100
AcDbEntity
  8
0
  6
BYBLOCK
 62
     4
100
AcDbLine
 10
441.011594
 20
669.52768
 30
0.0
 11
453.297308
 21
669.52768
 31
0.0
  0
SOLID
  5
182
100
AcDbEntity
  8
0
  6
BYBLOCK
 62
     4
100
AcDbTrace
 10
428.011594
 20
670.02768
 30
0.0
 11
428.011594
 21
669.02768
 31
0.0
 12
431.011594
 22
669.52768
 32
0.0
 13
431.011594
 23
669.52768
 33
0.0
  0
SOLID
  5
183
100
AcDbEntity
  8
0
  6
BYBLOCK
 62
     4
100
AcDbTrace
 10
441.011594
 20
670.02768
 30
0.0
 11
441.011594
 21
669.02768
 31
0.0
 12
438.011594
 22
669.52768
 32
0.0
 13
438.011594
 23
669.52768
 33
0.0
  0
MTEXT
  5
184
100
AcDbEntity
  8
0
  6
BYBLOCK
 62
     2
100
AcDbMText
 10
448.654451
 20
672.52768
 30
0.0
 40
3.0
 41
0.0
 71
     5
 72
     1
  1
\A1;7.0
  0
POINT
  5
185
100
AcDbEntity
  8
DEFPOINTS
  6
BYBLOCK
 62
     0
100
AcDbPoint
 10
431.011594
 20
707.807358
 30
0.0
  0
POINT
  5
186
100
AcDbEntity
  8
DEFPOINTS
  6
BYBLOCK
 62
     0
100
AcDbPoint
 10
438.011594
 20
689.293967
 30
0.0
  0
POINT
  5
187
100
AcDbEntity
  8
DEFPOINTS
  6
BYBLOCK
 62
     0
100
AcDbPoint
 10
438.011594
 20
669.52768
 30
0.0
  0
ENDBLK
  5
189
100
AcDbEntity
  8
0
100
AcDbBlockEnd
  0
BLOCK
  5
17A
100
AcDbEntity
  8
0
100
AcDbBlockBegin
  2
*D7
 70
     1
 10
0.0
 20
0.0
 30
0.0
  3
*D7
  1

  0
LINE
  5
170
100
AcDbEntity
  8
0
  6
BYBLOCK
 62
     4
100
AcDbLine
 10
384.011594
 20
708.807358
 30
0.0
 11
384.011594
 21
667.02768
 31
0.0
  0
LINE
  5
171
100
AcDbEntity
  8
0
  6
BYBLOCK
 62
     4
100
AcDbLine
 10
377.011594
 20
699.807358
 30
0.0
 11
377.011594
 21
667.02768
 31
0.0
  0
LINE
  5
172
100
AcDbEntity
  8
0
  6
BYBLOCK
 62
     4
100
AcDbLine
 10
387.011594
 20
669.52768
 30
0.0
 11
390.011594
 21
669.52768
 31
0.0
  0
LINE
  5
173
100
AcDbEntity
  8
0
  6
BYBLOCK
 62
     4
100
AcDbLine
 10
374.011594
 20
669.52768
 30
0.0
 11
361.72588
 21
669.52768
 31
0.0
  0
SOLID
  5
174
100
AcDbEntity
  8
0
  6
BYBLOCK
 62
     4
100
AcDbTrace
 10
387.011594
 20
670.02768
 30
0.0
 11
387.011594
 21
669.02768
 31
0.0
 12
384.011594
 22
669.52768
 32
0.0
 13
384.011594
 23
669.52768
 33
0.0
  0
SOLID
  5
175
100
AcDbEntity
  8
0
  6
BYBLOCK
 62
     4
100
AcDbTrace
 10
374.011594
 20
670.02768
 30
0.0
 11
374.011594
 21
669.02768
 31
0.0
 12
377.011594
 22
669.52768
 32
0.0
 13
377.011594
 23
669.52768
 33
0.0
  0
MTEXT
  5
176
100
AcDbEntity
  8
0
  6
BYBLOCK
 62
     2
100
AcDbMText
 10
366.368737
 20
672.52768
 30
0.0
 40
3.0
 41
0.0
 71
     5
 72
     1
  1
\A1;7.0
  0
POINT
  5
177
100
AcDbEntity
  8
DEFPOINTS
  6
BYBLOCK
 62
     0
100
AcDbPoint
 10
384.011594
 20
709.807358
 30
0.0
  0
POINT
  5
178
100
AcDbEntity
  8
DEFPOINTS
  6
BYBLOCK
 62
     0
100
AcDbPoint
 10
377.011594
 20
700.807358
 30
0.0
  0
POINT
  5
179
100
AcDbEntity
  8
DEFPOINTS
  6
BYBLOCK
 62
     0
100
AcDbPoint
 10
377.011594
 20
669.52768
 30
0.0
  0
ENDBLK
  5
17B
100
AcDbEntity
  8
0
100
AcDbBlockEnd
  0
BLOCK
  5
16C
100
AcDbEntity
  8
0
100
AcDbBlockBegin
  2
*D8
 70
     1
 10
0.0
 20
0.0
 30
0.0
  3
*D8
  1

  0
LINE
  5
163
100
AcDbEntity
  8
0
  6
BYBLOCK
 62
     4
100
AcDbLine
 10
447.011594
 20
719.807358
 30
0.0
 11
484.826711
 21
719.807358
 31
0.0
  0
LINE
  5
164
100
AcDbEntity
  8
0
  6
BYBLOCK
 62
     4
100
AcDbLine
 10
447.011594
 20
759.807358
 30
0.0
 11
484.826711
 21
759.807358
 31
0.0
  0
LINE
  5
165
100
AcDbEntity
  8
0
  6
BYBLOCK
 62
     4
100
AcDbLine
 10
482.326711
 20
722.807358
 30
0.0
 11
482.326711
 21
756.807358
 31
0.0
  0
SOLID
  5
166
100
AcDbEntity
  8
0
  6
BYBLOCK
 62
     4
100
AcDbTrace
 10
481.826711
 20
722.807358
 30
0.0
 11
482.826711
 21
722.807358
 31
0.0
 12
482.326711
 22
719.807358
 32
0.0
 13
482.326711
 23
719.807358
 33
0.0
  0
SOLID
  5
167
100
AcDbEntity
  8
0
  6
BYBLOCK
 62
     4
100
AcDbTrace
 10
481.826711
 20
756.807358
 30
0.0
 11
482.826711
 21
756.807358
 31
0.0
 12
482.326711
 22
759.807358
 32
0.0
 13
482.326711
 23
759.807358
 33
0.0
  0
MTEXT
  5
168
100
AcDbEntity
  8
0
  6
BYBLOCK
 62
     2
100
AcDbMText
 10
479.326711
 20
739.807358
 30
0.0
 40
3.0
 41
0.0
 71
     5
 72
     1
  1
\A1;\U+220540.00 H7
 11
0.0
 21
1.0
 31
0.0
  0
POINT
  5
169
100
AcDbEntity
  8
DEFPOINTS
  6
BYBLOCK
 62
     0
100
AcDbPoint
 10
446.011594
 20
719.807358
 30
0.0
  0
POINT
  5
16A
100
AcDbEntity
  8
DEFPOINTS
  6
BYBLOCK
 62
     0
100
AcDbPoint
 10
446.011594
 20
759.807358
 30
0.0
  0
POINT
  5
16B
100
AcDbEntity
  8
DEFPOINTS
  6
BYBLOCK
 62
     0
100
AcDbPoint
 10
482.326711
 20
759.807358
 30
0.0
  0
ENDBLK
  5
16D
100
AcDbEntity
  8
0
100
AcDbBlockEnd
  0
BLOCK
  5
15F
100
AcDbEntity
  8
0
100
AcDbBlockBegin
  2
*D9
 70
     1
 10
0.0
 20
0.0
 30
0.0
  3
*D9
  1

  0
LINE
  5
155
100
AcDbEntity
  8
0
  6
BYBLOCK
 62
     4
100
AcDbLine
 10
779.148382
 20
507.059226
 30
0.0
 11
758.576487
 21
507.059226
 31
0.0
  0
LINE
  5
156
100
AcDbEntity
  8
0
  6
BYBLOCK
 62
     4
100
AcDbLine
 10
779.148382
 20
499.059226
 30
0.0
 11
758.576487
 21
499.059226
 31
0.0
  0
LINE
  5
157
100
AcDbEntity
  8
0
  6
BYBLOCK
 62
     4
100
AcDbLine
 10
761.076487
 20
510.059226
 30
0.0
 11
761.076487
 21
513.059226
 31
0.0
  0
LINE
  5
158
100
AcDbEntity
  8
0
  6
BYBLOCK
 62
     4
100
AcDbLine
 10
761.076487
 20
496.059226
 30
0.0
 11
761.076487
 21
469.487798
 31
0.0
  0
SOLID
  5
159
100
AcDbEntity
  8
0
  6
BYBLOCK
 62
     4
100
AcDbTrace
 10
760.576487
 20
510.059226
 30
0.0
 11
761.576487
 21
510.059226
 31
0.0
 12
761.076487
 22
507.059226
 32
0.0
 13
761.076487
 23
507.059226
 33
0.0
  0
SOLID
  5
15A
100
AcDbEntity
  8
0
  6
BYBLOCK
 62
     4
100
AcDbTrace
 10
760.576487
 20
496.059226
 30
0.0
 11
761.576487
 21
496.059226
 31
0.0
 12
761.076487
 22
499.059226
 32
0.0
 13
761.076487
 23
499.059226
 33
0.0
  0
MTEXT
  5
15B
100
AcDbEntity
  8
0
  6
BYBLOCK
 62
     2
100
AcDbMText
 10
758.076487
 20
481.273512
 30
0.0
 40
3.0
 41
0.0
 71
     5
 72
     1
  1
\A1;\U+22058.00 H7
 11
0.0
 21
1.0
 31
0.0
  0
POINT
  5
15C
100
AcDbEntity
  8
DEFPOINTS
  6
BYBLOCK
 62
     0
100
AcDbPoint
 10
780.148382
 20
507.059226
 30
0.0
  0
POINT
  5
15D
100
AcDbEntity
  8
DEFPOINTS
  6
BYBLOCK
 62
     0
100
AcDbPoint
 10
780.148382
 20
499.059226
 30
0.0
  0
POINT
  5
15E
100
AcDbEntity
  8
DEFPOINTS
  6
BYBLOCK
 62
     0
100
AcDbPoint
 10
761.076487
 20
499.059226
 30
0.0
  0
ENDBLK
  5
160
100
AcDbEntity
  8
0
100
AcDbBlockEnd
  0
BLOCK
  5
5D
100
AcDbEntity
  8
0
100
AcDbBlockBegin
  2
*D10
 70
     1
 10
0.0
 20
0.0
 30
0.0
  3
*D10
  1

  0
LINE
  5
54
100
AcDbEntity
  8
0
  6
BYBLOCK
 62
     4
100
AcDbLine
 10
793.148382
 20
392.559226
 30
0.0
 11
793.148382
 21
378.62743
 31
0.0
  0
LINE
  5
55
100
AcDbEntity
  8
0
  6
BYBLOCK
 62
     4
100
AcDbLine
 10
779.748382
 20
409.334226
 30
0.0
 11
779.748382
 21
378.62743
 31
0.0
  0
LINE
  5
56
100
AcDbEntity
  8
0
  6
BYBLOCK
 62
     4
100
AcDbLine
 10
790.148382
 20
381.12743
 30
0.0
 11
782.748382
 21
381.12743
 31
0.0
  0
SOLID
  5
57
100
AcDbEntity
  8
0
  6
BYBLOCK
 62
     4
100
AcDbTrace
 10
790.148382
 20
381.62743
 30
0.0
 11
790.148382
 21
380.62743
 31
0.0
 12
793.148382
 22
381.12743
 32
0.0
 13
793.148382
 23
381.12743
 33
0.0
  0
SOLID
  5
58
100
AcDbEntity
  8
0
  6
BYBLOCK
 62
     4
100
AcDbTrace
 10
782.748382
 20
381.62743
 30
0.0
 11
782.748382
 21
380.62743
 31
0.0
 12
779.748382
 22
381.12743
 32
0.0
 13
779.748382
 23
381.12743
 33
0.0
  0
MTEXT
  5
59
100
AcDbEntity
  8
0
  6
BYBLOCK
 62
     2
100
AcDbMText
 10
786.448382
 20
384.12743
 30
0.0
 40
3.0
 41
0.0
 71
     5
 72
     1
  1
\A1;13.4
  0
POINT
  5
5A
100
AcDbEntity
  8
DEFPOINTS
  6
BYBLOCK
 62
     0
100
AcDbPoint
 10
793.148382
 20
393.559226
 30
0.0
  0
POINT
  5
5B
100
AcDbEntity
  8
DEFPOINTS
  6
BYBLOCK
 62
     0
100
AcDbPoint
 10
779.748382
 20
410.334226
 30
0.0
  0
POINT
  5
5C
100
AcDbEntity
  8
DEFPOINTS
  6
BYBLOCK
 62
     0
100
AcDbPoint
 10
779.748382
 20
381.12743
 30
0.0
  0
ENDBLK
  5
5E
100
AcDbEntity
  8
0
100
AcDbBlockEnd
  0
BLOCK
  5
50
100
AcDbEntity
  8
0
100
AcDbBlockBegin
  2
*D11
 70
     1
 10
0.0
 20
0.0
 30
0.0
  3
*D11
  1

  0
LINE
  5
47
100
AcDbEntity
  8
0
  6
BYBLOCK
 62
     4
100
AcDbLine
 10
773.748382
 20
454.784226
 30
0.0
 11
754.894776
 21
454.784226
 31
0.0
  0
LINE
  5
48
100
AcDbEntity
  8
0
  6
BYBLOCK
 62
     4
100
AcDbLine
 10
773.748382
 20
410.334226
 30
0.0
 11
754.894776
 21
410.334226
 31
0.0
  0
LINE
  5
49
100
AcDbEntity
  8
0
  6
BYBLOCK
 62
     4
100
AcDbLine
 10
757.394776
 20
451.784226
 30
0.0
 11
757.394776
 21
413.334226
 31
0.0
  0
SOLID
  5
4A
100
AcDbEntity
  8
0
  6
BYBLOCK
 62
     4
100
AcDbTrace
 10
756.894776
 20
451.784226
 30
0.0
 11
757.894776
 21
451.784226
 31
0.0
 12
757.394776
 22
454.784226
 32
0.0
 13
757.394776
 23
454.784226
 33
0.0
  0
SOLID
  5
4B
100
AcDbEntity
  8
0
  6
BYBLOCK
 62
     4
100
AcDbTrace
 10
756.894776
 20
413.334226
 30
0.0
 11
757.894776
 21
413.334226
 31
0.0
 12
757.394776
 22
410.334226
 32
0.0
 13
757.394776
 23
410.334226
 33
0.0
  0
MTEXT
  5
4C
100
AcDbEntity
  8
0
  6
BYBLOCK
 62
     2
100
AcDbMText
 10
754.394776
 20
433.524437
 30
0.0
 40
3.0
 41
0.0
 71
     5
 72
     1
  1
\A1;\U+220544.45 H7
 11
0.0
 21
1.0
 31
0.0
  0
POINT
  5
4D
100
AcDbEntity
  8
DEFPOINTS
  6
BYBLOCK
 62
     0
100
AcDbPoint
 10
774.748382
 20
454.784226
 30
0.0
  0
POINT
  5
4E
100
AcDbEntity
  8
DEFPOINTS
  6
BYBLOCK
 62
     0
100
AcDbPoint
 10
774.748382
 20
410.334226
 30
0.0
  0
POINT
  5
4F
100
AcDbEntity
  8
DEFPOINTS
  6
BYBLOCK
 62
     0
100
AcDbPoint
 10
757.394776
 20
410.334226
 30
0.0
  0
ENDBLK
  5
51
100
AcDbEntity
  8
0
100
AcDbBlockEnd
  0
BLOCK
  5
43
100
AcDbEntity
  8
0
100
AcDbBlockBegin
  2
*D12
 70
     1
 10
0.0
 20
0.0
 30
0.0
  3
*D12
  1

  0
LINE
  5
3A
100
AcDbEntity
  8
0
  6
BYBLOCK
 62
     4
100
AcDbLine
 10
779.325732
 20
409.334226
 30
0.0
 11
744.853545
 21
409.334226
 31
0.0
  0
LINE
  5
3B
100
AcDbEntity
  8
0
  6
BYBLOCK
 62
     4
100
AcDbLine
 10
779.325732
 20
455.784226
 30
0.0
 11
744.853545
 21
455.784226
 31
0.0
  0
LINE
  5
3C
100
AcDbEntity
  8
0
  6
BYBLOCK
 62
     4
100
AcDbLine
 10
747.353545
 20
412.334226
 30
0.0
 11
747.353545
 21
452.784226
 31
0.0
  0
SOLID
  5
3D
100
AcDbEntity
  8
0
  6
BYBLOCK
 62
     4
100
AcDbTrace
 10
746.853545
 20
412.334226
 30
0.0
 11
747.853545
 21
412.334226
 31
0.0
 12
747.353545
 22
409.334226
 32
0.0
 13
747.353545
 23
409.334226
 33
0.0
  0
SOLID
  5
3E
100
AcDbEntity
  8
0
  6
BYBLOCK
 62
     4
100
AcDbTrace
 10
746.853545
 20
452.784226
 30
0.0
 11
747.853545
 21
452.784226
 31
0.0
 12
747.353545
 22
455.784226
 32
0.0
 13
747.353545
 23
455.784226
 33
0.0
  0
MTEXT
  5
3F
100
AcDbEntity
  8
0
  6
BYBLOCK
 62
     2
100
AcDbMText
 10
744.353545
 20
433.864678
 30
0.0
 40
3.0
 41
0.0
 71
     5
 72
     1
  1
\A1;\U+220546.5
 11
0.0
 21
1.0
 31
0.0
  0
POINT
  5
40
100
AcDbEntity
  8
DEFPOINTS
  6
BYBLOCK
 62
     0
100
AcDbPoint
 10
780.325732
 20
409.334226
 30
0.0
  0
POINT
  5
41
100
AcDbEntity
  8
DEFPOINTS
  6
BYBLOCK
 62
     0
100
AcDbPoint
 10
780.325732
 20
455.784226
 30
0.0
  0
POINT
  5
42
100
AcDbEntity
  8
DEFPOINTS
  6
BYBLOCK
 62
     0
100
AcDbPoint
 10
747.353545
 20
455.784226
 30
0.0
  0
ENDBLK
  5
44
100
AcDbEntity
  8
0
100
AcDbBlockEnd
  0
BLOCK
  5
36
100
AcDbEntity
  8
0
100
AcDbBlockBegin
  2
*D13
 70
     1
 10
0.0
 20
0.0
 30
0.0
  3
*D13
  1

  0
LINE
  5
2C
100
AcDbEntity
  8
0
  6
BYBLOCK
 62
     4
100
AcDbLine
 10
844.194512
 20
860.506172
 30
0.0
 11
844.194512
 21
876.322217
 31
0.0
  0
LINE
  5
2D
100
AcDbEntity
  8
0
  6
BYBLOCK
 62
     4
100
AcDbLine
 10
818.794512
 20
859.506172
 30
0.0
 11
818.794512
 21
876.322217
 31
0.0
  0
LINE
  5
2E
100
AcDbEntity
  8
0
  6
BYBLOCK
 62
     4
100
AcDbLine
 10
841.194512
 20
873.822217
 30
0.0
 11
821.794512
 21
873.822217
 31
0.0
  0
SOLID
  5
2F
100
AcDbEntity
  8
0
  6
BYBLOCK
 62
     4
100
AcDbTrace
 10
841.194512
 20
874.322217
 30
0.0
 11
841.194512
 21
873.322217
 31
0.0
 12
844.194512
 22
873.822217
 32
0.0
 13
844.194512
 23
873.822217
 33
0.0
  0
SOLID
  5
30
100
AcDbEntity
  8
0
  6
BYBLOCK
 62
     4
100
AcDbTrace
 10
821.794512
 20
874.322217
 30
0.0
 11
821.794512
 21
873.322217
 31
0.0
 12
818.794512
 22
873.822217
 32
0.0
 13
818.794512
 23
873.822217
 33
0.0
  0
MTEXT
  5
31
100
AcDbEntity
  8
0
  6
BYBLOCK
 62
     2
100
AcDbMText
 10
829.493096
 20
876.822217
 30
0.0
 40
3.0
 41
0.0
 71
     5
 72
     1
  1
\A1;25.40
  0
POINT
  5
32
100
AcDbEntity
  8
DEFPOINTS
  6
BYBLOCK
 62
     0
100
AcDbPoint
 10
844.194512
 20
859.506172
 30
0.0
  0
POINT
  5
34
100
AcDbEntity
  8
DEFPOINTS
  6
BYBLOCK
 62
     0
100
AcDbPoint
 10
818.794512
 20
858.506172
 30
0.0
  0
POINT
  5
35
100
AcDbEntity
  8
DEFPOINTS
  6
BYBLOCK
 62
     0
100
AcDbPoint
 10
818.794512
 20
873.822217
 30
0.0
  0
ENDBLK
  5
37
100
AcDbEntity
  8
0
100
AcDbBlockEnd
  0
ENDSEC
  0
SECTION
  2
ENTITIES
  0
HATCH
  5
20
100
AcDbEntity
  8
HATCH
100
AcDbHatch
 10
0.0
 20
0.0
 30
0.0
210
0.0
220
0.0
230
1.0
  2
_U
 70
     0
 71
     1
 91
       11
 92
        7
 72
     1
 73
     1
 93
       12
 10
423.2655344179455
 20
275.0138856722446
 42
0.0
 10
414.7655344179457
 20
275.0138856722446
 42
0.0
 10
413.7655344179457
 20
275.0138856722446
 42
0.0
 10
413.7655344179457
 20
276.0138856722446
 42
0.0
 10
413.7655344179457
 20
279.3138856722446
 42
0.0
 10
413.0655344179458
 20
280.0138856722446
 42
0.0
 10
352.2655344179456
 20
280.0138856722447
 42
0.0
 10
352.2655344179456
 20
264.5138856722445
 42
-0.4142135623730951
 10
348.2655344179456
 20
260.5138856722445
 42
0.0
 10
277.2655344179456
 20
260.5138856722445
 42
0.0
 10
277.2655344179456
 20
251.0138856722444
 42
0.0
 10
423.2655344179455
 20
251.0138856722444
 42
0.0
 97
       12
330
F2
330
EC
330
ED
330
95
330
2B5
330
4B3
330
CE
330
CF
330
D9
330
C9
330
E6
330
4B5
 92
       23
 72
     0
 73
     1
 93
        4
 10
344.2655344179456
 20
280.0138856722446
 10
202.2655344179457
 20
280.0138856722446
 10
202.2655344179456
 20
268.5138856722445
 10
344.2655344179456
 20
268.5138856722445
 97
        4
330
4B3
330
DA
330
D8
330
D2
 92
        7
 72
     1
 73
     1
 93
       42
 10
269.2655344179456
 20
247.0138856722444
 42
0.0
 10
269.2655344179456
 20
260.5138856722445
 42
0.0
 10
198.2655344179456
 20
260.5138856722445
 42
-0.4142135623730951
 10
194.2655344179456
 20
264.5138856722445
 42
0.0
 10
194.2655344179456
 20
280.0138856722446
 42
0.0
 10
179.2655344179457
 20
280.0138856722446
 42
0.0
 10
179.2655344179456
 20
276.0138856722447
 42
-1.0
 10
171.2655344179456
 20
276.0138856722448
 42
0.0
 10
171.2655344179456
 20
280.0138856722446
 42
0.0
 10
168.2655344179456
 20
280.0138856722446
 42
0.0
 10
166.2655344179456
 20
278.0138856722446
 42
0.0
 10
166.2655344179456
 20
222.0138856722446
 42
0.0
 10
168.2655344179456
 20
220.0138856722446
 42
0.0
 10
171.2655344179456
 20
220.0138856722446
 42
0.0
 10
171.2655344179456
 20
224.0138856722445
 42
-1.0
 10
179.2655344179456
 20
224.0138856722445
 42
0.0
 10
179.2655344179456
 20
220.0138856722446
 42
0.0
 10
184.2655344179456
 20
220.0138856722447
 42
0.0
 10
184.2655344179456
 20
220.3138856722446
 42
0.0
 10
184.9655344179457
 20
221.0138856722446
 42
0.0
 10
211.5655344179456
 20
221.0138856722446
 42
0.0
 10
212.2655344179456
 20
220.3138856722445
 42
0.0
 10
212.2655344179456
 20
220.0138856722447
 42
0.0
 10
394.2655344179456
 20
220.0138856722447
 42
0.0
 10
394.2655344179456
 20
227.3138856722446
 42
0.0
 10
394.2655344179456
 20
229.8138856722445
 42
0.0
 10
394.9655344179456
 20
229.8138856722445
 42
0.0
 10
394.9655344179457
 20
231.3138856722445
 42
0.0
 10
397.2655344179456
 20
232.6417912913806
 42
0.0
 10
399.5655344179456
 20
231.3138856722445
 42
0.0
 10
399.5655344179457
 20
229.8138856722445
 42
0.0
 10
400.2655344179457
 20
229.8138856722445
 42
0.0
 10
400.2655344179457
 20
227.3138856722447
 42
0.0
 10
400.2655344179457
 20
220.0138856722447
 42
0.0
 10
412.7655344179458
 20
220.0138856722447
 42
0.0
 10
413.2655344179457
 20
220.5138856722443
 42
0.0
 10
413.2655344179457
 20
229.0138856722445
 42
0.0
 10
413.2655344179458
 20
230.0138856722445
 42
0.0
 10
414.2655344179457
 20
230.0138856722445
 42
0.0
 10
419.2655344179456
 20
230.0138856722445
 42
0.0
 10
419.2655344179456
 20
243.0138856722444
 42
0.0
 10
273.2655344179456
 20
243.0138856722444
 42
-0.4142135623730951
 97
       37
330
CA
330
C3
330
DC
330
DB
330
4B3
330
2F0
330
2F2
330
2F1
330
4AE
330
4B1
330
4AF
330
4B2
330
2E8
330
2E9
330
2E7
330
3C6
330
3C5
330
3CB
330
3C0
330
3C1
330
31C
330
307
330
311
330
308
330
30E
330
30F
330
306
330
305
330
31B
330
492
330
4A2
330
49B
330
49C
330
4A1
330
47E
330
C8
330
CB
 92
       23
 72
     0
 73
     1
 93
        4
 10
190.1066524304886
 20
220.3138856722446
 10
184.2655344179456
 20
220.3138856722446
 10
184.2655344179456
 20
220.0138856722446
 10
190.4066524304885
 20
220.0138856722447
 97
        4
330
3BF
330
3C6
330
4B2
330
3B7
 92
       23
 72
     0
 73
     1
 93
        4
 10
189.4066524304884
 20
221.0138856722446
 10
184.9655344179456
 20
221.0138856722446
 10
184.2655344179456
 20
220.3138856722446
 10
190.1066524304885
 20
220.3138856722446
 97
        4
330
3CB
330
3C5
330
3BF
330
3AC
 92
       23
 72
     0
 73
     1
 93
        4
 10
198.2655344179456
 20
220.3138856722446
 10
190.1066524304886
 20
220.3138856722446
 10
190.4066524304886
 20
220.0138856722447
 10
198.2655344179456
 20
220.0138856722447
 97
        4
330
3BF
330
3B7
330
4B2
330
3CD
 92
       23
 72
     0
 73
     1
 93
        4
 10
198.2655344179456
 20
221.0138856722446
 10
189.4066524304884
 20
221.0138856722446
 10
190.1066524304885
 20
220.3138856722446
 10
198.2655344179456
 20
220.3138856722446
 97
        4
330
3CB
330
3AC
330
3BF
330
3CD
 92
        7
 72
     0
 73
     1
 93
        4
 10
206.4244164054028
 20
220.3138856722446
 10
198.2655344179456
 20
220.3138856722446
 10
198.2655344179456
 20
220.0138856722446
 10
206.1244164054027
 20
220.0138856722446
 97
        4
330
3BF
330
3CD
330
4B2
330
3B9
 92
       23
 72
     0
 73
     1
 93
        4
 10
207.1244164054028
 20
221.0138856722446
 10
198.2655344179456
 20
221.0138856722446
 10
198.2655344179456
 20
220.3138856722446
 10
206.4244164054027
 20
220.3138856722446
 97
        4
330
3CB
330
3CD
330
3BF
330
3AD
 92
       22
 72
     0
 73
     1
 93
        4
 10
212.2655344179456
 20
220.3138856722446
 10
206.4244164054027
 20
220.3138856722446
 10
206.1244164054028
 20
220.0138856722446
 10
212.2655344179456
 20
220.0138856722446
 97
        4
330
3BF
330
3B9
330
4B2
330
3C1
 92
       22
 72
     0
 73
     1
 93
        4
 10
211.5655344179455
 20
221.0138856722446
 10
207.1244164054028
 20
221.0138856722446
 10
206.4244164054027
 20
220.3138856722446
 10
212.2655344179456
 20
220.3138856722446
 97
        4
330
3CB
330
3AD
330
3BF
330
3C0
 75
     0
 76
     0
 52
45.0
 41
6.0
 77
     0
 78
     1
 53
45.0
 43
0.0
 44
0.0
 45
-4.242640687119284
 46
4.242640687119285
 79
     0
 47
0.045242
 98
       11
 10
375.52794
 20
262.656563
 10
307.574836
 20
271.263507
 10
227.520494
 20
244.046953
 10
188.068218
 20
220.136695
 10
188.068218
 20
220.679605
 10
192.730114
 20
220.181937
 10
193.001682
 20
220.498635
 10
199.519289
 20
220.136695
 10
199.790854
 20
220.634361
 10
207.439989
 20
220.227179
 10
207.84734
 20
220.589119
  0
HATCH
  5
21
100
AcDbEntity
  8
HATCH
100
AcDbHatch
 10
0.0
 20
0.0
 30
0.0
210
0.0
220
0.0
230
1.0
  2
_U
 70
     0
 71
     1
 91
        3
 92
        7
 72
     0
 73
     1
 93
        4
 10
400.0405344179456
 20
283.0138856722446
 10
366.2655344179456
 20
283.0138856722446
 10
366.2655344179457
 20
280.0138856722446
 10
400.0405344179456
 20
280.0138856722446
 97
        4
330
4A9
330
CC
330
4B3
330
98
 92
        7
 72
     0
 73
     1
 93
        4
 10
330.2655344179456
 20
283.0138856722446
 10
216.2655344179456
 20
283.0138856722446
 10
216.2655344179456
 20
280.0138856722446
 10
330.2655344179456
 20
280.0138856722446
 97
        4
330
4A9
330
D3
330
4B3
330
D0
 92
        7
 72
     0
 73
     1
 93
        4
 10
180.2655344179456
 20
283.0138856722446
 10
168.2655344179456
 20
283.0138856722446
 10
168.2655344179456
 20
280.0138856722446
 10
180.2655344179456
 20
280.0138856722446
 97
        4
330
4A9
330
4AB
330
4B3
330
D4
 75
     0
 76
     0
 52
135.0
 41
0.8
 77
     0
 78
     1
 53
135.0
 43
0.0
 44
0.0
 45
-0.5656854249492382
 46
-0.565685424949238
 79
     0
 47
0.23262
 98
        3
 10
377.622385
 20
281.498791
 10
318.279775
 20
281.26617
 10
177.253814
 20
281.964031
  0
HATCH
  5
22
100
AcDbEntity
  8
HATCH
100
AcDbHatch
 10
0.0
 20
0.0
 30
0.0
210
0.0
220
0.0
230
1.0
  2
_U
 70
     0
 71
     1
 91
        3
 92
        7
 72
     0
 73
     1
 93
        4
 10
446.4905344179456
 20
283.0138856722446
 10
446.4905344179456
 20
280.0138856722446
 10
480.2655344179457
 20
280.0138856722446
 10
480.2655344179457
 20
283.0138856722446
 97
        4
330
4A5
330
B9
330
4B3
330
EB
 92
        7
 72
     0
 73
     1
 93
        4
 10
516.2655344179456
 20
280.0138856722446
 10
630.2655344179457
 20
280.0138856722446
 10
630.2655344179456
 20
283.0138856722446
 10
516.2655344179456
 20
283.0138856722446
 97
        4
330
4A5
330
F6
330
4B3
330
2C8
 92
        7
 72
     0
 73
     1
 93
        4
 10
678.2655344179456
 20
280.0138856722446
 10
678.2655344179454
 20
283.0138856722446
 10
666.2655344179458
 20
283.0138856722446
 10
666.2655344179455
 20
280.0138856722446
 97
        4
330
4A5
330
2C9
330
4B3
330
4AA
 75
     0
 76
     0
 52
135.0
 41
0.8
 77
     0
 78
     1
 53
135.0
 43
0.0
 44
0.0
 45
-0.5656854249492382
 46
-0.565685424949238
 79
     0
 47
0.245088
 98
        3
 10
459.216456
 20
281.9515
 10
512.177408
 20
281.216235
 10
673.26697
 20
281.461323
  0
HATCH
  5
23
100
AcDbEntity
  8
HATCH
100
AcDbHatch
 10
0.0
 20
0.0
 30
0.0
210
0.0
220
0.0
230
1.0
  2
_U
 70
     0
 71
     1
 91
       12
 92
        7
 72
     1
 73
     1
 93
       12
 10
569.2655344179456
 20
251.0138856722444
 42
0.0
 10
569.2655344179456
 20
260.5138856722446
 42
0.0
 10
498.2655344179456
 20
260.5138856722445
 42
-0.4142135623730951
 10
494.2655344179456
 20
264.5138856722445
 42
0.0
 10
494.2655344179455
 20
280.0138856722446
 42
0.0
 10
433.4655344179457
 20
280.0138856722446
 42
0.0
 10
432.7655344179458
 20
279.3138856722445
 42
0.0
 10
432.7655344179458
 20
276.0138856722446
 42
0.0
 10
432.7655344179458
 20
275.0138856722446
 42
0.0
 10
431.7655344179457
 20
275.0138856722446
 42
0.0
 10
423.2655344179456
 20
275.0138856722446
 42
0.0
 10
423.2655344179456
 20
251.0138856722444
 42
0.0
 97
       12
330
F4
330
4B3
330
2B6
330
96
330
EF
330
EE
330
F2
330
4B5
330
E6
330
E8
330
45D
330
F5
 92
       23
 72
     0
 73
     1
 93
        4
 10
644.2655344179456
 20
268.5138856722445
 10
644.2655344179457
 20
280.0138856722446
 10
502.2655344179456
 20
280.0138856722446
 10
502.2655344179456
 20
268.5138856722445
 97
        4
330
4B3
330
F8
330
45C
330
45E
 92
        7
 72
     1
 73
     1
 93
       42
 10
577.2655344179456
 20
260.5138856722445
 42
0.0
 10
577.2655344179456
 20
247.0138856722444
 42
-0.4142135623730951
 10
573.2655344179456
 20
243.0138856722444
 42
0.0
 10
427.2655344179456
 20
243.0138856722444
 42
0.0
 10
427.2655344179456
 20
230.0138856722444
 42
0.0
 10
432.2655344179455
 20
230.0138856722444
 42
0.0
 10
433.2655344179454
 20
230.0138856722444
 42
0.0
 10
433.2655344179455
 20
229.0138856722444
 42
0.0
 10
433.2655344179455
 20
220.5138856722443
 42
0.0
 10
433.7655344179453
 20
220.0138856722447
 42
0.0
 10
446.2655344179457
 20
220.0138856722447
 42
0.0
 10
446.2655344179457
 20
227.3138856722446
 42
0.0
 10
446.2655344179457
 20
229.8138856722445
 42
0.0
 10
446.9655344179456
 20
229.8138856722445
 42
0.0
 10
446.9655344179456
 20
231.3138856722444
 42
0.0
 10
449.2655344179456
 20
232.6417912913806
 42
0.0
 10
451.5655344179457
 20
231.3138856722445
 42
0.0
 10
451.5655344179456
 20
229.8138856722445
 42
0.0
 10
452.2655344179456
 20
229.8138856722444
 42
0.0
 10
452.2655344179456
 20
227.3138856722447
 42
0.0
 10
452.2655344179456
 20
220.0138856722447
 42
0.0
 10
634.2655344179457
 20
220.0138856722446
 42
0.0
 10
634.2655344179457
 20
220.3138856722445
 42
0.0
 10
634.9655344179457
 20
221.0138856722446
 42
0.0
 10
661.5655344179456
 20
221.0138856722446
 42
0.0
 10
662.2655344179456
 20
220.3138856722445
 42
0.0
 10
662.2655344179456
 20
220.0138856722446
 42
0.0
 10
667.2655344179457
 20
220.0138856722446
 42
0.0
 10
667.2655344179457
 20
224.0138856722445
 42
-1.0
 10
675.2655344179457
 20
224.0138856722445
 42
0.0
 10
675.2655344179457
 20
220.0138856722445
 42
0.0
 10
678.2655344179458
 20
220.0138856722446
 42
0.0
 10
680.2655344179456
 20
222.0138856722446
 42
0.0
 10
680.2655344179457
 20
278.0138856722446
 42
0.0
 10
678.2655344179456
 20
280.0138856722446
 42
0.0
 10
675.2655344179458
 20
280.0138856722446
 42
0.0
 10
675.2655344179457
 20
276.0138856722446
 42
-1.0
 10
667.2655344179457
 20
276.0138856722448
 42
0.0
 10
667.2655344179457
 20
280.0138856722446
 42
0.0
 10
652.2655344179456
 20
280.0138856722446
 42
0.0
 10
652.2655344179456
 20
264.5138856722445
 42
-0.4142135623730951
 10
648.2655344179456
 20
260.5138856722445
 42
0.0
 97
       38
330
4AD
330
4B3
330
303
330
304
330
302
330
45F
330
460
330
E1
330
E9
330
EA
330
E7
330
482
330
4A1
330
49E
330
49D
330
4A3
330
493
330
477
330
336
330
320
330
32C
330
321
330
32A
330
329
330
323
330
322
330
337
330
31F
330
469
330
468
330
46E
330
463
330
464
330
2F9
330
2FB
330
2FA
330
4AC
330
4B0
 92
       23
 72
     0
 73
     1
 93
        4
 10
648.2655344179456
 20
220.3138856722445
 10
648.2655344179456
 20
221.0138856722446
 10
639.4066524304885
 20
221.0138856722446
 10
640.1066524304884
 20
220.3138856722446
 97
        4
330
46E
330
3DD
330
462
330
470
 92
       23
 72
     0
 73
     1
 93
        4
 10
648.2655344179456
 20
220.0138856722446
 10
648.2655344179456
 20
220.3138856722446
 10
640.1066524304885
 20
220.3138856722446
 10
640.4066524304886
 20
220.0138856722446
 97
        4
330
462
330
3E9
330
31F
330
470
 92
       23
 72
     0
 73
     1
 93
        4
 10
640.4066524304885
 20
220.0138856722446
 10
640.1066524304884
 20
220.3138856722446
 10
634.2655344179457
 20
220.3138856722445
 10
634.2655344179457
 20
220.0138856722446
 97
        4
330
462
330
469
330
31F
330
3E9
 92
       23
 72
     0
 73
     1
 93
        4
 10
640.1066524304886
 20
220.3138856722446
 10
639.4066524304885
 20
221.0138856722446
 10
634.9655344179458
 20
221.0138856722446
 10
634.2655344179457
 20
220.3138856722446
 97
        4
330
46E
330
468
330
462
330
3DD
 92
       23
 72
     0
 73
     1
 93
        4
 10
657.1244164054029
 20
221.0138856722446
 10
656.4244164054026
 20
220.3138856722446
 10
662.2655344179456
 20
220.3138856722445
 10
661.5655344179454
 20
221.0138856722446
 97
        4
330
46E
330
3DE
330
462
330
463
 92
       22
 72
     0
 73
     1
 93
        4
 10
662.2655344179456
 20
220.0138856722445
 10
662.2655344179456
 20
220.3138856722446
 10
656.4244164054027
 20
220.3138856722446
 10
656.1244164054027
 20
220.0138856722445
 97
        4
330
462
330
3EB
330
31F
330
464
 92
       23
 72
     0
 73
     1
 93
        4
 10
656.1244164054027
 20
220.0138856722446
 10
656.4244164054027
 20
220.3138856722446
 10
648.2655344179457
 20
220.3138856722446
 10
648.2655344179456
 20
220.0138856722446
 97
        4
330
462
330
470
330
31F
330
3EB
 92
       23
 72
     0
 73
     1
 93
        4
 10
656.4244164054029
 20
220.3138856722446
 10
657.1244164054029
 20
221.0138856722446
 10
648.2655344179456
 20
221.0138856722446
 10
648.2655344179456
 20
220.3138856722446
 97
        4
330
46E
330
470
330
462
330
3DE
 92
       24
 93
        4
 72
     1
 10
658.516704
 20
241.254343
 11
671.945276
 21
241.254343
 72
     1
 10
671.945276
 20
241.254343
 11
671.945276
 21
244.254343
 72
     1
 10
671.945276
 20
244.254343
 11
658.516704
 21
244.254343
 72
     1
 10
658.516704
 20
244.254343
 11
658.516704
 21
241.254343
 97
        1
330
399
 75
     0
 76
     0
 52
45.0
 41
6.0
 77
     0
 78
     1
 53
45.0
 43
0.0
 44
0.0
 45
-4.242640687119284
 46
4.242640687119285
 79
     0
 47
0.036271
 98
       11
 10
459.561755
 20
262.283351
 10
513.968033
 20
270.48192
 10
606.923483
 20
246.979358
 10
645.224702
 20
220.646646
 10
645.043275
 20
220.138855
 10
639.818123
 20
220.138855
 10
638.330408
 20
220.429021
 10
659.049578
 20
220.682917
 10
658.25129
 20
220.066314
 10
655.60243
 20
220.102584
 10
655.384716
 20
220.501563
  0
HATCH
  5
24
100
AcDbEntity
  8
HATCH
100
AcDbHatch
 10
0.0
 20
0.0
 30
0.0
210
0.0
220
0.0
230
1.0
  2
_U
 70
     0
 71
     1
 91
        2
 92
        7
 72
     0
 73
     1
 93
        4
 10
798.9803026726701
 20
401.5105964665644
 10
801.98030267267
 20
401.5105964665644
 10
801.98030267267
 20
408.2855964665645
 10
798.9803026726701
 20
408.2855964665645
 97
        4
330
27
330
24B
330
256
330
260
 92
        7
 72
     0
 73
     1
 93
        4
 10
801.9803026726702
 20
495.5105964665644
 10
798.9803026726701
 20
495.5105964665645
 10
798.9803026726701
 20
454.7355964665643
 10
801.98030267267
 20
454.7355964665643
 97
        4
330
252
330
258
330
8F
330
260
 75
     0
 76
     0
 52
135.0
 41
0.8
 77
     0
 78
     1
 53
135.0
 43
37.5
 44
0.0
 45
-0.5656854249492382
 46
-0.565685424949238
 79
     0
 47
0.264118
 98
        2
 10
800.040588
 20
405.290964
 10
800.569042
 20
460.227588
  0
TEXT
  5
25
100
AcDbEntity
  8
TEXT
100
AcDbText
 10
785.03442
 20
449.854716
 30
0.0
 40
2.0
  1
MA010002
 41
0.9
100
AcDbText
  0
LINE
  5
27
102
{ACAD_REACTORS
330
24
102
}
100
AcDbEntity
  8
M02
100
AcDbLine
 10
798.980303
 20
408.285596
 30
0.0
 11
801.980303
 21
408.285596
 31
0.0
  0
DIMENSION
  5
29
100
AcDbEntity
  8
DIMS
100
AcDbDimension
  2
*D13
 10
776.580303
 20
469.051642
 30
0.0
 11
787.278887
 21
469.051642
 31
0.0
 12
-42.214209
 22
-404.770576
 32
0.0
 70
   128
  3
DIM1
100
AcDbAlignedDimension
 13
801.980303
 23
454.735596
 33
0.0
 14
776.580303
 24
453.735596
 34
0.0
100
AcDbRotatedDimension
1001
ACAD
1000
DSTYLE
1002
{
1070
   288
1070
     1
1070
   144
1040
1.0
1002
}
  0
DIMENSION
  5
38
100
AcDbEntity
  8
DIMS
100
AcDbDimension
  2
*D12
 10
749.185465
 20
454.735596
 30
0.0
 11
749.185465
 21
432.816048
 31
0.0
 12
1.831921
 22
-1.04863
 32
0.0
 70
   128
  1
%%c46.5
  3
DIM1
100
AcDbAlignedDimension
 13
782.157653
 23
408.285596
 33
0.0
 14
782.157653
 24
454.735596
 34
0.0
 50
90.0
100
AcDbRotatedDimension
1001
ACAD
1000
DSTYLE
1002
{
1070
   288
1070
     1
1070
   144
1040
1.0
1002
}
  0
DIMENSION
  5
45
100
AcDbEntity
  8
DIMS
100
AcDbDimension
  2
*D11
 10
759.226697
 20
409.285596
 30
0.0
 11
759.226697
 21
432.475808
 31
0.0
 12
1.831921
 22
-1.04863
 32
0.0
 70
   128
  1
%%c<> H7
  3
DIM1
100
AcDbAlignedDimension
 13
776.580303
 23
453.735596
 33
0.0
 14
776.580303
 24
409.285596
 34
0.0
 50
90.0
100
AcDbRotatedDimension
1001
ACAD
1000
DSTYLE
1002
{
1070
   288
1070
     1
1070
   144
1040
1.0
1002
}
  0
DIMENSION
  5
52
100
AcDbEntity
  8
DIMS
100
AcDbDimension
  2
*D10
 10
781.580303
 20
380.078801
 30
0.0
 11
788.280303
 21
380.078801
 31
0.0
 12
1.831921
 22
-1.04863
 32
0.0
 70
   128
  1
13.4
  3
DIM1
100
AcDbAlignedDimension
 13
794.980303
 23
392.510596
 33
0.0
 14
781.580303
 24
409.285596
 34
0.0
100
AcDbRotatedDimension
1001
ACAD
1000
DSTYLE
1002
{
1070
   288
1070
     1
1070
   144
1040
1.0
1002
}
  0
POINT
  5
5F
100
AcDbEntity
  8
DEFPOINTS
  6
BYBLOCK
 62
     0
100
AcDbPoint
 10
801.980303
 20
431.510596
 30
0.0
  0
LINE
  5
60
100
AcDbEntity
  8
M04
100
AcDbLine
 10
801.980303
 20
421.310596
 30
0.0
 11
802.680303
 21
422.010596
 31
0.0
  0
LINE
  5
62
100
AcDbEntity
  8
M04
100
AcDbLine
 10
801.980303
 20
441.710596
 30
0.0
 11
802.680303
 21
441.010596
 31
0.0
  0
LINE
  5
63
100
AcDbEntity
  8
M03
100
AcDbLine
 10
794.580303
 20
433.810596
 30
0.0
 11
806.980303
 21
433.810596
 31
0.0
  0
LINE
  5
66
100
AcDbEntity
  8
M03
100
AcDbLine
 10
794.580303
 20
429.210596
 30
0.0
 11
806.980303
 21
429.210596
 31
0.0
  0
LINE
  5
67
100
AcDbEntity
  8
M03
100
AcDbLine
 10
794.580303
 20
428.510596
 30
0.0
 11
806.980303
 21
428.510596
 31
0.0
  0
LINE
  5
68
100
AcDbEntity
  8
M03
100
AcDbLine
 10
794.580303
 20
434.510596
 30
0.0
 11
806.980303
 21
434.510596
 31
0.0
  0
ARC
  5
69
100
AcDbEntity
  8
M03
100
AcDbCircle
 10
789.580303
 20
420.010596
 30
0.0
 40
5.0
100
AcDbArc
 50
270.0
 51
0.0
  0
ARC
  5
6A
100
AcDbEntity
  8
M03
100
AcDbCircle
 10
789.580303
 20
443.010596
 30
0.0
 40
5.0
100
AcDbArc
 50
0.0
 51
90.0
  0
LINE
  5
6B
100
AcDbEntity
  8
M03
100
AcDbLine
 10
776.580303
 20
415.010596
 30
0.0
 11
789.580303
 21
415.010596
 31
0.0
  0
LINE
  5
6C
100
AcDbEntity
  8
M03
100
AcDbLine
 10
776.580303
 20
448.010596
 30
0.0
 11
789.580303
 21
448.010596
 31
0.0
  0
LINE
  5
6D
100
AcDbEntity
  8
M03
100
AcDbLine
 10
794.580303
 20
443.010596
 30
0.0
 11
794.580303
 21
420.010596
 31
0.0
  0
LINE
  5
6E
100
AcDbEntity
  8
M05
100
AcDbLine
 10
801.280303
 20
409.785596
 30
0.0
 11
801.280303
 21
453.235596
 31
0.0
  0
LINE
  5
70
100
AcDbEntity
  8
M05
100
AcDbLine
 10
801.980303
 20
452.535596
 30
0.0
 11
801.280303
 21
453.235596
 31
0.0
  0
LINE
  5
71
100
AcDbEntity
  8
M05
100
AcDbLine
 10
801.280303
 20
409.785596
 30
0.0
 11
801.980303
 21
410.485596
 31
0.0
  0
LINE
  5
72
100
AcDbEntity
  8
M05
100
AcDbLine
 10
781.580303
 20
409.785596
 30
0.0
 11
801.280303
 21
409.785596
 31
0.0
  0
LINE
  5
73
100
AcDbEntity
  8
M04
100
AcDbLine
 10
782.157653
 20
408.285596
 30
0.0
 11
782.157653
 21
409.785596
 31
0.0
  0
LINE
  5
74
100
AcDbEntity
  8
M04
100
AcDbLine
 10
782.157653
 20
408.285596
 30
0.0
 11
794.980303
 21
408.285596
 31
0.0
  0
LINE
  5
75
100
AcDbEntity
  8
M04
100
AcDbLine
 10
781.580303
 20
409.285596
 30
0.0
 11
782.157653
 21
408.285596
 31
0.0
  0
LINE
  5
76
100
AcDbEntity
  8
M04
100
AcDbLine
 10
777.580303
 20
409.285596
 30
0.0
 11
776.580303
 21
409.285596
 31
0.0
  0
LINE
  5
77
100
AcDbEntity
  8
M04
100
AcDbLine
 10
776.580303
 20
410.285596
 30
0.0
 11
776.580303
 21
409.285596
 31
0.0
  0
LINE
  5
78
100
AcDbEntity
  8
M05
100
AcDbLine
 10
776.580303
 20
410.285596
 30
0.0
 11
777.580303
 21
409.285596
 31
0.0
  0
LINE
  5
79
100
AcDbEntity
  8
M05
100
AcDbLine
 10
777.580303
 20
409.285596
 30
0.0
 11
781.580303
 21
409.285596
 31
0.0
  0
LINE
  5
7A
100
AcDbEntity
  8
M05
100
AcDbLine
 10
781.580303
 20
453.235596
 30
0.0
 11
801.280303
 21
453.235596
 31
0.0
  0
LINE
  5
7B
100
AcDbEntity
  8
M04
100
AcDbLine
 10
806.980303
 20
423.010596
 30
0.0
 11
806.980303
 21
422.010596
 31
0.0
  0
LINE
  5
7C
100
AcDbEntity
  8
M04
100
AcDbLine
 10
805.980303
 20
422.010596
 30
0.0
 11
806.980303
 21
422.010596
 31
0.0
  0
LINE
  5
7D
100
AcDbEntity
  8
M04
100
AcDbLine
 10
782.157653
 20
454.735596
 30
0.0
 11
782.157653
 21
453.235596
 31
0.0
  0
LINE
  5
7E
100
AcDbEntity
  8
M04
100
AcDbLine
 10
782.157653
 20
454.735596
 30
0.0
 11
794.980303
 21
454.735596
 31
0.0
  0
LINE
  5
7F
100
AcDbEntity
  8
M04
100
AcDbLine
 10
781.580303
 20
453.735596
 30
0.0
 11
782.157653
 21
454.735596
 31
0.0
  0
LINE
  5
80
100
AcDbEntity
  8
M04
100
AcDbLine
 10
777.580303
 20
453.735596
 30
0.0
 11
776.580303
 21
453.735596
 31
0.0
  0
LINE
  5
81
100
AcDbEntity
  8
M04
100
AcDbLine
 10
776.580303
 20
452.735596
 30
0.0
 11
776.580303
 21
453.735596
 31
0.0
  0
LINE
  5
82
100
AcDbEntity
  8
M04
100
AcDbLine
 10
806.980303
 20
440.010596
 30
0.0
 11
806.980303
 21
441.010596
 31
0.0
  0
LINE
  5
83
100
AcDbEntity
  8
M04
100
AcDbLine
 10
805.980303
 20
441.010596
 30
0.0
 11
806.980303
 21
441.010596
 31
0.0
  0
LINE
  5
84
100
AcDbEntity
  8
M05
100
AcDbLine
 10
805.980303
 20
422.010596
 30
0.0
 11
805.980303
 21
441.010596
 31
0.0
  0
LINE
  5
85
100
AcDbEntity
  8
M05
100
AcDbLine
 10
777.580303
 20
409.285596
 30
0.0
 11
777.580303
 21
453.735596
 31
0.0
  0
LINE
  5
86
100
AcDbEntity
  8
M05
100
AcDbLine
 10
806.980303
 20
423.010596
 30
0.0
 11
805.980303
 21
422.010596
 31
0.0
  0
LINE
  5
87
100
AcDbEntity
  8
M05
100
AcDbLine
 10
805.980303
 20
441.010596
 30
0.0
 11
806.980303
 21
440.010596
 31
0.0
  0
LINE
  5
88
100
AcDbEntity
  8
M05
100
AcDbLine
 10
776.580303
 20
452.735596
 30
0.0
 11
777.580303
 21
453.735596
 31
0.0
  0
LINE
  5
89
100
AcDbEntity
  8
M05
100
AcDbLine
 10
777.580303
 20
453.735596
 30
0.0
 11
781.580303
 21
453.735596
 31
0.0
  0
LINE
  5
8A
100
AcDbEntity
  8
M05
100
AcDbLine
 10
781.580303
 20
453.735596
 30
0.0
 11
781.580303
 21
409.285596
 31
0.0
  0
LINE
  5
8B
100
AcDbEntity
  8
M05
100
AcDbLine
 10
776.580303
 20
452.735596
 30
0.0
 11
776.580303
 21
410.285596
 31
0.0
  0
LINE
  5
8C
100
AcDbEntity
  8
M05
100
AcDbLine
 10
801.980303
 20
422.010596
 30
0.0
 11
805.980303
 21
422.010596
 31
0.0
  0
LINE
  5
8D
100
AcDbEntity
  8
M05
100
AcDbLine
 10
801.980303
 20
441.010596
 30
0.0
 11
805.980303
 21
441.010596
 31
0.0
  0
LINE
  5
8E
100
AcDbEntity
  8
M05
100
AcDbLine
 10
806.980303
 20
440.010596
 30
0.0
 11
806.980303
 21
423.010596
 31
0.0
  0
LINE
  5
8F
102
{ACAD_REACTORS
330
24
102
}
100
AcDbEntity
  8
M02
100
AcDbLine
 10
798.980303
 20
454.735596
 30
0.0
 11
801.980303
 21
454.735596
 31
0.0
  0
HATCH
  5
90
100
AcDbEntity
  8
HATCH
100
AcDbHatch
 10
0.0
 20
0.0
 30
0.0
210
0.0
220
0.0
230
1.0
  2
_U
 70
     0
 71
     0
 91
       16
 92
        7
 72
     1
 73
     1
 93
        5
 10
423.2655344179456
 20
452.5592260810632
 42
0.0
 10
423.2655344179456
 20
453.0592260810632
 42
-0.1856631955229143
 10
419.5801956733784
 20
454.4765457926017
 42
0.3157147729334966
 10
401.4034525179984
 20
436.5592260810632
 42
0.0
 10
403.6696164756802
 20
436.5592260810632
 42
-0.3563939586925999
 97
        0
 92
       22
 72
     1
 73
     1
 93
        4
 10
423.2655344179456
 20
452.5592260810632
 42
0.3563939586925999
 10
403.6696164756802
 20
436.5592260810632
 42
0.0
 10
414.6486904481386
 20
436.5592260810632
 42
-0.2919418509678903
 10
423.2655344179456
 20
442.0592260810632
 42
0.0
 97
        0
 92
        6
 72
     1
 73
     1
 93
        3
 10
423.2655344179456
 20
442.0592260810632
 42
0.2919418509678903
 10
414.6486904481386
 20
436.5592260810632
 42
0.0
 10
423.2655344179456
 20
436.5592260810632
 42
0.0
 97
        0
 92
        7
 72
     1
 73
     1
 93
        4
 10
423.2655344179456
 20
436.5592260810632
 42
0.0
 10
414.6486904481386
 20
436.5592260810632
 42
0.1090809576248918
 10
413.7655344179457
 20
432.5592260810631
 42
0.0
 10
419.2655344179456
 20
432.5592260810631
 42
-0.4142135623730992
 97
        0
 92
       22
 72
     1
 73
     1
 93
        3
 10
423.2655344179456
 20
436.5592260810632
 42
0.4142135623730992
 10
419.2655344179456
 20
432.5592260810631
 42
0.0
 10
423.2655344179457
 20
432.5592260810631
 42
0.0
 97
        0
 92
        7
 72
     1
 73
     1
 93
        4
 10
414.6486904481386
 20
436.5592260810632
 42
0.0
 10
403.6696164756802
 20
436.5592260810632
 42
0.0503820444848851
 10
403.2655344179456
 20
432.5592260810631
 42
0.0
 10
413.7655344179457
 20
432.5592260810631
 42
-0.1090809576248918
 97
        0
 92
        7
 72
     1
 73
     1
 93
        5
 10
403.6696164756802
 20
436.5592260810632
 42
0.0
 10
401.4034525179984
 20
436.5592260810632
 42
0.003593667114849
 10
401.3482147064072
 20
436.2445648256302
 42
-0.1856631955229133
 10
402.7655344179456
 20
432.5592260810631
 42
0.0
 10
403.2655344179456
 20
432.5592260810631
 42
-0.0503820444848851
 97
        0
 92
        7
 72
     1
 73
     1
 93
        3
 10
401.3482147064072
 20
436.2445648256302
 42
0.0416713391594355
 10
401.0405344179456
 20
432.5592260810631
 42
0.0
 10
402.7655344179456
 20
432.5592260810631
 42
0.1856631955229133
 97
        0
 92
       22
 72
     1
 73
     1
 93
        3
 10
427.2655344179456
 20
432.5592260810631
 42
0.0
 10
423.2655344179457
 20
432.5592260810631
 42
0.0
 10
423.2655344179457
 20
428.5592260810632
 42
0.4142135623730826
 97
        0
 92
        7
 72
     1
 73
     1
 93
        4
 10
432.7655344179456
 20
432.5592260810631
 42
0.0
 10
427.2655344179456
 20
432.5592260810631
 42
-0.4142135623730909
 10
423.2655344179456
 20
428.5592260810632
 42
0.0
 10
431.8823783877527
 20
428.5592260810632
 42
0.1090809576248888
 97
        0
 92
        6
 72
     1
 73
     1
 93
        3
 10
431.8823783877527
 20
428.5592260810632
 42
0.0
 10
423.2655344179456
 20
428.5592260810631
 42
0.0
 10
423.2655344179456
 20
423.0592260810632
 42
0.2919418509678903
 97
        0
 92
       22
 72
     1
 73
     1
 93
        4
 10
442.861452360211
 20
428.5592260810632
 42
0.0
 10
431.8823783877527
 20
428.5592260810632
 42
-0.2919418509678903
 10
423.2655344179456
 20
423.0592260810632
 42
0.0
 10
423.2655344179456
 20
412.5592260810632
 42
0.3563939586925999
 97
        0
 92
        7
 72
     1
 73
     1
 93
        4
 10
443.2655344179456
 20
432.5592260810631
 42
0.0
 10
432.7655344179456
 20
432.5592260810631
 42
-0.1090809576248888
 10
431.8823783877527
 20
428.5592260810632
 42
0.0
 10
442.861452360211
 20
428.5592260810632
 42
0.0503820444848837
 97
        0
 92
        7
 72
     1
 73
     1
 93
        5
 10
443.7655344179456
 20
432.5592260810631
 42
0.0
 10
443.2655344179456
 20
432.5592260810631
 42
-0.0503820444848837
 10
442.861452360211
 20
428.5592260810632
 42
0.0
 10
445.1276163178929
 20
428.5592260810632
 42
0.003593667114849
 10
445.182854129484
 20
428.8738873364962
 42
-0.185663195522908
 97
        0
 92
        7
 72
     1
 73
     1
 93
        3
 10
445.4905344179457
 20
432.5592260810631
 42
0.0
 10
443.7655344179456
 20
432.5592260810631
 42
0.185663195522908
 10
445.182854129484
 20
428.8738873364962
 42
0.0416713391594342
 97
        0
 92
        7
 72
     1
 73
     1
 93
        4
 10
445.1276163178929
 20
428.5592260810632
 42
0.0
 10
442.861452360211
 20
428.5592260810632
 42
-0.3563939586925999
 10
423.2655344179456
 20
412.5592260810632
 42
0.0
 10
423.2655344179456
 20
410.3342260810632
 42
0.3621506593782504
 97
        0
 75
     0
 76
     0
 52
45.0
 41
2.0
 77
     1
 78
     2
 53
45.0
 43
-132.181706
 44
0.0
 45
-1.414213562373094
 46
1.414213562373095
 79
     0
 53
135.0
 43
-132.181706
 44
0.0
 45
-1.414213562373095
 46
-1.414213562373094
 79
     0
 47
0.113412
 98
       16
 10
410.94938
 20
449.879146
 10
412.651255
 20
446.023152
 10
420.82026
 20
439.672104
 10
417.756882
 20
435.022228
 10
421.954844
 20
434.681993
 10
410.722463
 20
434.568582
 10
402.666917
 20
435.929521
 10
402.099626
 20
433.888112
 10
425.585513
 20
430.485764
 10
429.556555
 20
430.599175
 10
426.266263
 20
426.176123
 10
433.300683
 20
424.47495
 10
437.04481
 20
430.258941
 10
443.625397
 20
429.691883
 10
445.100356
 20
430.939411
 10
443.738856
 20
424.928596
  0
CIRCLE
  5
91
100
AcDbEntity
  8
M03
100
AcDbCircle
 10
423.265534
 20
432.559226
 30
0.0
 40
20.0
  0
CIRCLE
  5
92
100
AcDbEntity
  8
M01
100
AcDbCircle
 10
423.265534
 20
432.559226
 30
0.0
 40
22.225
  0
CIRCLE
  5
94
100
AcDbEntity
  8
M03
100
AcDbCircle
 10
423.265534
 20
432.559226
 30
0.0
 40
9.5
  0
LINE
  5
95
102
{ACAD_REACTORS
330
20
102
}
100
AcDbEntity
  8
M05
100
AcDbLine
 10
413.765534
 20
280.013886
 30
0.0
 11
413.765534
 21
276.013886
 31
0.0
  0
LINE
  5
96
102
{ACAD_REACTORS
330
23
102
}
100
AcDbEntity
  8
M05
100
AcDbLine
 10
432.765534
 20
280.013886
 30
0.0
 11
432.765534
 21
276.013886
 31
0.0
  0
TEXT
  5
97
100
AcDbEntity
  8
TEXT
100
AcDbText
 10
428.976908
 20
282.734612
 30
0.0
 40
2.0
  1
MA010002
 41
0.9
100
AcDbText
  0
LINE
  5
98
102
{ACAD_REACTORS
330
21
102
}
100
AcDbEntity
  8
M02
100
AcDbLine
 10
400.040534
 20
283.013886
 30
0.0
 11
400.040534
 21
280.013886
 31
0.0
  0
LINE
  5
99
100
AcDbEntity
  8
M03
100
AcDbLine
 10
425.565534
 20
287.413886
 30
0.0
 11
425.565534
 21
275.013886
 31
0.0
  0
LINE
  5
9A
100
AcDbEntity
  8
M03
100
AcDbLine
 10
420.965534
 20
287.413886
 30
0.0
 11
420.965534
 21
275.013886
 31
0.0
  0
LINE
  5
9B
100
AcDbEntity
  8
M03
100
AcDbLine
 10
420.265534
 20
287.413886
 30
0.0
 11
420.265534
 21
275.013886
 31
0.0
  0
LINE
  5
9C
100
AcDbEntity
  8
M03
100
AcDbLine
 10
426.265534
 20
287.413886
 30
0.0
 11
426.265534
 21
275.013886
 31
0.0
  0
ARC
  5
9D
100
AcDbEntity
  8
M03
100
AcDbCircle
 10
411.765534
 20
292.413886
 30
0.0
 40
5.0
100
AcDbArc
 50
180.0
 51
270.0
  0
ARC
  5
9E
100
AcDbEntity
  8
M03
100
AcDbCircle
 10
434.765534
 20
292.413886
 30
0.0
 40
5.0
100
AcDbArc
 50
270.0
 51
0.0
  0
LINE
  5
9F
100
AcDbEntity
  8
M03
100
AcDbLine
 10
406.765534
 20
305.413886
 30
0.0
 11
406.765534
 21
292.413886
 31
0.0
  0
LINE
  5
A0
100
AcDbEntity
  8
M03
100
AcDbLine
 10
439.765534
 20
305.413886
 30
0.0
 11
439.765534
 21
292.413886
 31
0.0
  0
LINE
  5
A1
100
AcDbEntity
  8
M03
100
AcDbLine
 10
434.765534
 20
287.413886
 30
0.0
 11
411.765534
 21
287.413886
 31
0.0
  0
LINE
  5
A2
100
AcDbEntity
  8
M05
100
AcDbLine
 10
401.540534
 20
280.713886
 30
0.0
 11
444.990534
 21
280.713886
 31
0.0
  0
LINE
  5
A3
100
AcDbEntity
  8
M05
100
AcDbLine
 10
444.290534
 20
280.013886
 30
0.0
 11
444.990534
 21
280.713886
 31
0.0
  0
LINE
  5
A4
100
AcDbEntity
  8
M05
100
AcDbLine
 10
401.540534
 20
280.713886
 30
0.0
 11
402.240534
 21
280.013886
 31
0.0
  0
LINE
  5
A5
100
AcDbEntity
  8
M05
100
AcDbLine
 10
401.540534
 20
300.413886
 30
0.0
 11
401.540534
 21
280.713886
 31
0.0
  0
LINE
  5
A6
100
AcDbEntity
  8
M04
100
AcDbLine
 10
400.040534
 20
299.836535
 30
0.0
 11
401.540534
 21
299.836535
 31
0.0
  0
LINE
  5
A7
100
AcDbEntity
  8
M04
100
AcDbLine
 10
400.040534
 20
299.836535
 30
0.0
 11
400.040534
 21
287.013886
 31
0.0
  0
LINE
  5
A8
100
AcDbEntity
  8
M04
100
AcDbLine
 10
401.040534
 20
300.413886
 30
0.0
 11
400.040534
 21
299.836535
 31
0.0
  0
LINE
  5
A9
100
AcDbEntity
  8
M04
100
AcDbLine
 10
401.040534
 20
304.413886
 30
0.0
 11
401.040534
 21
305.413886
 31
0.0
  0
LINE
  5
AA
100
AcDbEntity
  8
M04
100
AcDbLine
 10
402.040534
 20
305.413886
 30
0.0
 11
401.040534
 21
305.413886
 31
0.0
  0
LINE
  5
AB
100
AcDbEntity
  8
M05
100
AcDbLine
 10
402.040534
 20
305.413886
 30
0.0
 11
401.040534
 21
304.413886
 31
0.0
  0
LINE
  5
AC
100
AcDbEntity
  8
M05
100
AcDbLine
 10
401.040534
 20
304.413886
 30
0.0
 11
401.040534
 21
300.413886
 31
0.0
  0
LINE
  5
AD
100
AcDbEntity
  8
M05
100
AcDbLine
 10
444.990534
 20
300.413886
 30
0.0
 11
444.990534
 21
280.713886
 31
0.0
  0
LINE
  5
AE
100
AcDbEntity
  8
M04
100
AcDbLine
 10
446.490534
 20
299.836535
 30
0.0
 11
444.990534
 21
299.836535
 31
0.0
  0
LINE
  5
AF
100
AcDbEntity
  8
M04
100
AcDbLine
 10
446.490534
 20
299.836535
 30
0.0
 11
446.490534
 21
287.013886
 31
0.0
  0
LINE
  5
B0
100
AcDbEntity
  8
M04
100
AcDbLine
 10
445.490534
 20
300.413886
 30
0.0
 11
446.490534
 21
299.836535
 31
0.0
  0
LINE
  5
B1
100
AcDbEntity
  8
M04
100
AcDbLine
 10
445.490534
 20
304.413886
 30
0.0
 11
445.490534
 21
305.413886
 31
0.0
  0
LINE
  5
B2
100
AcDbEntity
  8
M04
100
AcDbLine
 10
444.490534
 20
305.413886
 30
0.0
 11
445.490534
 21
305.413886
 31
0.0
  0
LINE
  5
B3
100
AcDbEntity
  8
M05
100
AcDbLine
 10
413.765534
 20
276.013886
 30
0.0
 11
432.765534
 21
276.013886
 31
0.0
  0
LINE
  5
B4
100
AcDbEntity
  8
M05
100
AcDbLine
 10
401.040534
 20
304.413886
 30
0.0
 11
445.490534
 21
304.413886
 31
0.0
  0
LINE
  5
B5
100
AcDbEntity
  8
M05
100
AcDbLine
 10
444.490534
 20
305.413886
 30
0.0
 11
445.490534
 21
304.413886
 31
0.0
  0
LINE
  5
B6
100
AcDbEntity
  8
M05
100
AcDbLine
 10
445.490534
 20
304.413886
 30
0.0
 11
445.490534
 21
300.413886
 31
0.0
  0
LINE
  5
B7
100
AcDbEntity
  8
M05
100
AcDbLine
 10
445.490534
 20
300.413886
 30
0.0
 11
401.040534
 21
300.413886
 31
0.0
  0
LINE
  5
B8
100
AcDbEntity
  8
M05
100
AcDbLine
 10
444.490534
 20
305.413886
 30
0.0
 11
402.040534
 21
305.413886
 31
0.0
  0
LINE
  5
B9
102
{ACAD_REACTORS
330
22
102
}
100
AcDbEntity
  8
M02
100
AcDbLine
 10
446.490534
 20
283.013886
 30
0.0
 11
446.490534
 21
280.013886
 31
0.0
  0
HATCH
  5
BA
100
AcDbEntity
  8
HATCH
100
AcDbHatch
 10
0.0
 20
0.0
 30
0.0
210
0.0
220
0.0
230
1.0
  2
_U
 70
     0
 71
     1
 91
        2
 92
        7
 72
     0
 73
     1
 93
        4
 10
388.2655344179455
 20
217.0138856722445
 10
388.2655344179454
 20
220.0138856722447
 10
213.2655344179456
 20
220.0138856722446
 10
213.2655344179456
 20
217.0138856722446
 97
        4
330
4B2
330
3C9
330
39D
330
476
 92
        7
 72
     0
 73
     1
 93
        4
 10
168.2655344179456
 20
220.0138856722447
 10
168.2655344179456
 20
217.0138856722446
 10
183.2655344179455
 20
217.0138856722446
 10
183.2655344179457
 20
220.0138856722447
 97
        4
330
4B2
330
4A8
330
4A6
330
3CA
 75
     0
 76
     0
 52
135.0
 41
0.8
 77
     0
 78
     1
 53
135.0
 43
-37.5
 44
0.0
 45
-0.5656854249492382
 46
-0.565685424949238
 79
     0
 47
0.428905
 98
        2
 10
332.515609
 20
218.337918
 10
178.475248
 20
218.766822
  0
LINE
  5
BB
100
AcDbEntity
  8
M03
100
AcDbLine
 10
817.480303
 20
427.510596
 30
0.0
 11
834.980303
 21
427.510596
 31
0.0
  0
LINE
  5
BC
100
AcDbEntity
  8
M03
100
AcDbLine
 10
817.480303
 20
435.510596
 30
0.0
 11
834.980303
 21
435.510596
 31
0.0
  0
HATCH
  5
BD
100
AcDbEntity
  8
HATCH
100
AcDbHatch
 10
0.0
 20
0.0
 30
0.0
210
0.0
220
0.0
230
1.0
  2
_U
 70
     0
 71
     0
 91
        5
 92
        7
 72
     1
 73
     1
 93
       31
 10
807.98030267267
 20
495.5105964665644
 42
0.0
 10
801.98030267267
 20
495.5105964665644
 42
0.0
 10
801.9803026726702
 20
441.0105964665644
 42
0.0
 10
805.9803026726701
 20
441.0105964665644
 42
0.0
 10
806.9803026726701
 20
441.0105964665644
 42
0.0
 10
806.9803026726701
 20
440.0105964665645
 42
0.0
 10
806.9803026726701
 20
431.5105964665645
 42
0.0
 10
813.4803026726698
 20
431.5105964665645
 42
-1.0
 10
821.4803026726698
 20
431.5105964665645
 42
0.0
 10
830.9803026726699
 20
431.5105964665645
 42
-0.4142135623730951
 10
834.98030267267
 20
435.5105964665645
 42
0.0
 10
851.98030267267
 20
435.5105964665645
 42
0.0
 10
851.98030267267
 20
440.5105964665644
 42
0.0
 10
851.98030267267
 20
441.5105964665642
 42
0.0
 10
852.98030267267
 20
441.5105964665643
 42
0.0
 10
861.4803026726702
 20
441.5105964665643
 42
0.0
 10
861.98030267267
 20
442.0105964665644
 42
0.0
 10
861.98030267267
 20
454.5105964665646
 42
0.0
 10
854.6803026726699
 20
454.5105964665646
 42
0.0
 10
852.1803026726701
 20
454.5105964665645
 42
0.0
 10
852.1803026726699
 20
455.2105964665646
 42
0.0
 10
850.68030267267
 20
455.2105964665646
 42
0.0
 10
849.352397053534
 20
457.5105964665645
 42
0.0
 10
850.68030267267
 20
459.8105964665646
 42
0.0
 10
852.1803026726699
 20
459.8105964665647
 42
0.0
 10
852.1803026726699
 20
460.5105964665646
 42
0.0
 10
854.6803026726697
 20
460.5105964665646
 42
0.0
 10
861.9803026726703
 20
460.5105964665646
 42
0.0
 10
861.98030267267
 20
505.5105964665645
 42
0.0
 10
859.98030267267
 20
507.5105964665645
 42
0.0
 10
807.98030267267
 20
507.5105964665645
 42
0.0
 97
        0
 92
       22
 72
     1
 73
     1
 93
        2
 10
821.4803026726698
 20
431.5105964665645
 42
1.0
 10
813.4803026726698
 20
431.5105964665645
 42
0.0
 97
        0
 92
       22
 72
     1
 73
     1
 93
        2
 10
821.4803026726698
 20
431.5105964665645
 42
0.0
 10
813.4803026726698
 20
431.5105964665645
 42
1.0
 97
        0
 92
        7
 72
     1
 73
     1
 93
       29
 10
813.4803026726698
 20
431.5105964665645
 42
0.0
 10
806.9803026726701
 20
431.5105964665644
 42
0.0
 10
806.9803026726701
 20
423.0105964665645
 42
0.0
 10
806.9803026726701
 20
422.0105964665645
 42
0.0
 10
805.9803026726701
 20
422.0105964665645
 42
0.0
 10
801.9803026726702
 20
422.0105964665645
 42
0.0
 10
801.9803026726702
 20
412.5105964665644
 42
0.0
 10
805.9803026726699
 20
412.5105964665644
 42
-0.4142135623730951
 10
809.98030267267
 20
408.5105964665644
 42
-0.4142135623730951
 10
805.9803026726699
 20
404.5105964665644
 42
0.0
 10
801.9803026726702
 20
404.5105964665644
 42
0.0
 10
801.9803026726702
 20
401.5105964665642
 42
0.0
 10
803.9803026726701
 20
399.5105964665644
 42
0.0
 10
859.9803026726698
 20
399.5105964665644
 42
0.0
 10
861.9803026726701
 20
401.5105964665646
 42
0.0
 10
861.98030267267
 20
404.5105964665644
 42
0.0
 10
857.9803026726699
 20
404.5105964665644
 42
-0.4142135623730951
 10
853.9803026726699
 20
408.5105964665644
 42
-0.4142135623730951
 10
857.9803026726699
 20
412.5105964665644
 42
0.0
 10
861.98030267267
 20
412.5105964665644
 42
0.0
 10
861.98030267267
 20
421.0105964665643
 42
0.0
 10
861.4803026726702
 20
421.5105964665644
 42
0.0
 10
852.98030267267
 20
421.5105964665644
 42
0.0
 10
851.98030267267
 20
421.5105964665647
 42
0.0
 10
851.98030267267
 20
422.5105964665646
 42
0.0
 10
851.98030267267
 20
427.5105964665645
 42
0.0
 10
834.98030267267
 20
427.5105964665645
 42
-0.4142135623730951
 10
830.9803026726699
 20
431.5105964665645
 42
0.0
 10
821.4803026726698
 20
431.5105964665645
 42
-1.0
 97
        0
 92
       24
 93
        4
 72
     1
 10
817.058796
 20
414.354164
 11
831.601653
 21
414.354164
 72
     1
 10
831.601653
 20
414.354164
 11
831.601653
 21
417.354164
 72
     1
 10
831.601653
 20
417.354164
 11
817.058796
 21
417.354164
 72
     1
 10
817.058796
 20
417.354164
 11
817.058796
 21
414.354164
 97
        0
 75
     0
 76
     0
 52
45.0
 41
6.0
 77
     0
 78
     1
 53
45.0
 43
128.768324
 44
-1.04863
 45
-4.242640687119284
 46
4.242640687119285
 79
     0
 47
0.212243
 98
        4
 10
827.144424
 20
479.233963
 10
815.890891
 20
433.177182
 10
820.137508
 20
430.205779
 10
823.534802
 20
424.475212
  0
LINE
  5
BE
100
AcDbEntity
  8
CENTRE
100
AcDbLine
 10
581.265534
 20
247.013886
 30
0.0
 11
265.265534
 21
247.013886
 31
0.0
  0
HATCH
  5
C1
100
AcDbEntity
  8
HATCH
100
AcDbHatch
 10
0.0
 20
0.0
 30
0.0
210
0.0
220
0.0
230
1.0
  2
_U
 70
     0
 71
     1
 91
        2
 92
        7
 72
     0
 73
     1
 93
        4
 10
633.2655344179454
 20
217.0138856722446
 10
633.2655344179457
 20
220.0138856722446
 10
458.2655344179459
 20
220.0138856722447
 10
458.2655344179458
 20
217.0138856722446
 97
        4
330
31F
330
498
330
474
330
46D
 92
        7
 72
     0
 73
     1
 93
        4
 10
678.2655344179456
 20
220.0138856722446
 10
663.2655344179457
 20
220.0138856722446
 10
663.2655344179457
 20
217.0138856722446
 10
678.2655344179454
 20
217.0138856722446
 97
        4
330
31F
330
46C
330
461
330
4A7
 75
     0
 76
     0
 52
135.0
 41
0.8
 77
     0
 78
     1
 53
135.0
 43
37.5
 44
0.0
 45
-0.5656854249492382
 46
-0.565685424949238
 79
     0
 47
0.142626
 98
        2
 10
519.238518
 20
218.451479
 10
573.030818
 20
218.451479
  0
HATCH
  5
C2
100
AcDbEntity
  8
HATCH
100
AcDbHatch
 10
0.0
 20
0.0
 30
0.0
210
0.0
220
0.0
230
1.0
  2
_U
 70
     0
 71
     1
 91
        2
 92
        7
 72
     1
 73
     1
 93
        2
 10
667.2655344179457
 20
276.0138856722448
 42
1.0
 10
675.2655344179457
 20
276.0138856722448
 42
1.0
 97
        1
330
304
 92
        7
 72
     1
 73
     1
 93
        2
 10
667.2655344179457
 20
224.0138856722445
 42
1.0
 10
675.2655344179457
 20
224.0138856722445
 42
1.0
 97
        1
330
2FB
 75
     0
 76
     0
 52
45.0
 41
0.8
 77
     0
 78
     1
 53
45.0
 43
137.5
 44
0.0
 45
-0.565685424949238
 46
0.565685424949238
 79
     0
 47
0.270666
 98
        2
 10
670.272507
 20
277.269966
 10
672.438727
 20
225.843466
  0
LINE
  5
C3
102
{ACAD_REACTORS
330
20
102
}
100
AcDbEntity
  8
M01
100
AcDbLine
 10
269.265534
 20
260.513886
 30
0.0
 11
198.265534
 21
260.513886
 31
0.0
  0
LINE
  5
C4
100
AcDbEntity
  8
M01
100
AcDbLine
 10
273.265534
 20
264.513886
 30
0.0
 11
269.265534
 21
260.513886
 31
0.0
  0
LINE
  5
C5
100
AcDbEntity
  8
M01
100
AcDbLine
 10
277.265534
 20
260.513886
 30
0.0
 11
273.265534
 21
264.513886
 31
0.0
  0
LINE
  5
C6
100
AcDbEntity
  8
CENTRE
100
AcDbLine
 10
273.265534
 20
238.897127
 30
0.0
 11
273.265534
 21
270.862183
 31
0.0
  0
LINE
  5
C7
100
AcDbEntity
  8
M01
100
AcDbLine
 10
277.265534
 20
251.013886
 30
0.0
 11
273.265534
 21
247.013886
 31
0.0
  0
LINE
  5
C8
102
{ACAD_REACTORS
330
20
102
}
100
AcDbEntity
  8
M01
100
AcDbLine
 10
419.265534
 20
243.013886
 30
0.0
 11
273.265534
 21
243.013886
 31
0.0
  0
LINE
  5
C9
102
{ACAD_REACTORS
330
20
102
}
100
AcDbEntity
  8
M01
100
AcDbLine
 10
277.265534
 20
251.013886
 30
0.0
 11
277.265534
 21
260.513886
 31
0.0
  0
LINE
  5
CA
102
{ACAD_REACTORS
330
20
102
}
100
AcDbEntity
  8
M01
100
AcDbLine
 10
269.265534
 20
247.013886
 30
0.0
 11
269.265534
 21
260.513886
 31
0.0
  0
ARC
  5
CB
102
{ACAD_REACTORS
330
20
102
}
100
AcDbEntity
  8
M01
100
AcDbCircle
 10
273.265534
 20
247.013886
 30
0.0
 40
4.0
100
AcDbArc
 50
180.0
 51
270.0
  0
LINE
  5
CC
102
{ACAD_REACTORS
330
21
102
}
100
AcDbEntity
  8
M02
100
AcDbLine
 10
366.265534
 20
280.013886
 30
0.0
 11
366.265534
 21
283.013886
 31
0.0
  0
LINE
  5
CD
100
AcDbEntity
  8
M01
100
AcDbLine
 10
344.265534
 20
268.513886
 30
0.0
 11
348.265534
 21
264.513886
 31
0.0
  0
LINE
  5
CE
102
{ACAD_REACTORS
330
20
102
}
100
AcDbEntity
  8
M01
100
AcDbLine
 10
352.265534
 20
264.513886
 30
0.0
 11
352.265534
 21
280.013886
 31
0.0
  0
ARC
  5
CF
102
{ACAD_REACTORS
330
20
102
}
100
AcDbEntity
  8
M01
100
AcDbCircle
 10
348.265534
 20
264.513886
 30
0.0
 40
4.0
100
AcDbArc
 50
270.0
 51
0.0
  0
LINE
  5
D0
102
{ACAD_REACTORS
330
21
102
}
100
AcDbEntity
  8
M02
100
AcDbLine
 10
330.265534
 20
280.013886
 30
0.0
 11
330.265534
 21
283.013886
 31
0.0
  0
LINE
  5
D1
100
AcDbEntity
  8
CENTRE
100
AcDbLine
 10
348.265534
 20
256.397127
 30
0.0
 11
348.265534
 21
290.362183
 31
0.0
  0
LINE
  5
D2
102
{ACAD_REACTORS
330
20
102
}
100
AcDbEntity
  8
M01
100
AcDbLine
 10
344.265534
 20
268.513886
 30
0.0
 11
344.265534
 21
280.013886
 31
0.0
  0
LINE
  5
D3
102
{ACAD_REACTORS
330
21
102
}
100
AcDbEntity
  8
M02
100
AcDbLine
 10
216.265534
 20
280.013886
 30
0.0
 11
216.265534
 21
283.013886
 31
0.0
  0
LINE
  5
D4
102
{ACAD_REACTORS
330
21
102
}
100
AcDbEntity
  8
M02
100
AcDbLine
 10
180.265534
 20
280.013886
 30
0.0
 11
180.265534
 21
283.013886
 31
0.0
  0
LINE
  5
D5
100
AcDbEntity
  8
CENTRE
100
AcDbLine
 10
356.265534
 20
264.513886
 30
0.0
 11
190.265534
 21
264.513886
 31
0.0
  0
LINE
  5
D6
100
AcDbEntity
  8
CENTRE
100
AcDbLine
 10
198.265534
 20
256.397127
 30
0.0
 11
198.265534
 21
290.362183
 31
0.0
  0
LINE
  5
D7
100
AcDbEntity
  8
M01
100
AcDbLine
 10
202.265534
 20
268.513886
 30
0.0
 11
198.265534
 21
264.513886
 31
0.0
  0
LINE
  5
D8
102
{ACAD_REACTORS
330
20
102
}
100
AcDbEntity
  8
M01
100
AcDbLine
 10
344.265534
 20
268.513886
 30
0.0
 11
202.265534
 21
268.513886
 31
0.0
  0
LINE
  5
D9
102
{ACAD_REACTORS
330
20
102
}
100
AcDbEntity
  8
M01
100
AcDbLine
 10
348.265534
 20
260.513886
 30
0.0
 11
277.265534
 21
260.513886
 31
0.0
  0
LINE
  5
DA
102
{ACAD_REACTORS
330
20
102
}
100
AcDbEntity
  8
M01
100
AcDbLine
 10
202.265534
 20
268.513886
 30
0.0
 11
202.265534
 21
280.013886
 31
0.0
  0
LINE
  5
DB
102
{ACAD_REACTORS
330
20
102
}
100
AcDbEntity
  8
M01
100
AcDbLine
 10
194.265534
 20
264.513886
 30
0.0
 11
194.265534
 21
280.013886
 31
0.0
  0
ARC
  5
DC
102
{ACAD_REACTORS
330
20
102
}
100
AcDbEntity
  8
M01
100
AcDbCircle
 10
198.265534
 20
264.513886
 30
0.0
 40
4.0
100
AcDbArc
 50
180.0
 51
270.0
  0
LINE
  5
DD
100
AcDbEntity
  8
DIMS
 62
     4
100
AcDbLine
 10
817.480303
 20
434.910596
 30
0.0
 11
817.480303
 21
437.210596
 31
0.0
  0
LINE
  5
DE
100
AcDbEntity
  8
DIMS
 62
     4
100
AcDbLine
 10
817.480303
 20
428.110596
 30
0.0
 11
817.480303
 21
425.810596
 31
0.0
  0
LINE
  5
DF
100
AcDbEntity
  8
DIMS
 62
     4
100
AcDbLine
 10
817.480303
 20
429.810596
 30
0.0
 11
817.480303
 21
433.210596
 31
0.0
  0
CIRCLE
  5
E0
100
AcDbEntity
  8
M03
100
AcDbCircle
 10
817.480303
 20
431.510596
 30
0.0
 40
4.0
  0
LINE
  5
E1
102
{ACAD_REACTORS
330
23
102
}
100
AcDbEntity
  8
M01
100
AcDbLine
 10
577.265534
 20
260.513886
 30
0.0
 11
648.265534
 21
260.513886
 31
0.0
  0
LINE
  5
E2
100
AcDbEntity
  8
M01
100
AcDbLine
 10
573.265534
 20
264.513886
 30
0.0
 11
577.265534
 21
260.513886
 31
0.0
  0
LINE
  5
E3
100
AcDbEntity
  8
M01
100
AcDbLine
 10
569.265534
 20
260.513886
 30
0.0
 11
573.265534
 21
264.513886
 31
0.0
  0
LINE
  5
E4
100
AcDbEntity
  8
CENTRE
100
AcDbLine
 10
573.265534
 20
238.897127
 30
0.0
 11
573.265534
 21
270.862183
 31
0.0
  0
LINE
  5
E5
100
AcDbEntity
  8
M01
100
AcDbLine
 10
569.265534
 20
251.013886
 30
0.0
 11
573.265534
 21
247.013886
 31
0.0
  0
LINE
  5
E6
102
{ACAD_REACTORS
330
23
330
20
102
}
100
AcDbEntity
  8
M01
100
AcDbLine
 10
277.265534
 20
251.013886
 30
0.0
 11
569.265534
 21
251.013886
 31
0.0
  0
LINE
  5
E7
102
{ACAD_REACTORS
330
23
102
}
100
AcDbEntity
  8
M01
100
AcDbLine
 10
427.265534
 20
243.013886
 30
0.0
 11
573.265534
 21
243.013886
 31
0.0
  0
LINE
  5
E8
102
{ACAD_REACTORS
330
23
102
}
100
AcDbEntity
  8
M01
100
AcDbLine
 10
569.265534
 20
251.013886
 30
0.0
 11
569.265534
 21
260.513886
 31
0.0
  0
LINE
  5
E9
102
{ACAD_REACTORS
330
23
102
}
100
AcDbEntity
  8
M01
100
AcDbLine
 10
577.265534
 20
247.013886
 30
0.0
 11
577.265534
 21
260.513886
 31
0.0
  0
ARC
  5
EA
102
{ACAD_REACTORS
330
23
102
}
100
AcDbEntity
  8
M01
100
AcDbCircle
 10
573.265534
 20
247.013886
 30
0.0
 40
4.0
100
AcDbArc
 50
270.0
 51
0.0
  0
LINE
  5
EB
102
{ACAD_REACTORS
330
22
102
}
100
AcDbEntity
  8
M02
100
AcDbLine
 10
480.265534
 20
280.013886
 30
0.0
 11
480.265534
 21
283.013886
 31
0.0
  0
LINE
  5
EC
102
{ACAD_REACTORS
330
20
102
}
100
AcDbEntity
  8
M04
100
AcDbLine
 10
414.765534
 20
275.013886
 30
0.0
 11
413.765534
 21
275.013886
 31
0.0
  0
LINE
  5
ED
102
{ACAD_REACTORS
330
20
102
}
100
AcDbEntity
  8
M04
100
AcDbLine
 10
413.765534
 20
276.013886
 30
0.0
 11
413.765534
 21
275.013886
 31
0.0
  0
LINE
  5
EE
102
{ACAD_REACTORS
330
23
102
}
100
AcDbEntity
  8
M04
100
AcDbLine
 10
431.765534
 20
275.013886
 30
0.0
 11
432.765534
 21
275.013886
 31
0.0
  0
LINE
  5
EF
102
{ACAD_REACTORS
330
23
102
}
100
AcDbEntity
  8
M04
100
AcDbLine
 10
432.765534
 20
276.013886
 30
0.0
 11
432.765534
 21
275.013886
 31
0.0
  0
LINE
  5
F0
100
AcDbEntity
  8
M05
100
AcDbLine
 10
414.765534
 20
275.013886
 30
0.0
 11
413.765534
 21
276.013886
 31
0.0
  0
LINE
  5
F1
100
AcDbEntity
  8
M05
100
AcDbLine
 10
432.765534
 20
276.013886
 30
0.0
 11
431.765534
 21
275.013886
 31
0.0
  0
LINE
  5
F2
102
{ACAD_REACTORS
330
23
330
20
102
}
100
AcDbEntity
  8
M05
100
AcDbLine
 10
431.765534
 20
275.013886
 30
0.0
 11
414.765534
 21
275.013886
 31
0.0
  0
LINE
  5
F3
100
AcDbEntity
  8
M01
100
AcDbLine
 10
502.265534
 20
268.513886
 30
0.0
 11
498.265534
 21
264.513886
 31
0.0
  0
LINE
  5
F4
102
{ACAD_REACTORS
330
23
102
}
100
AcDbEntity
  8
M01
100
AcDbLine
 10
494.265534
 20
264.513886
 30
0.0
 11
494.265534
 21
280.013886
 31
0.0
  0
ARC
  5
F5
102
{ACAD_REACTORS
330
23
102
}
100
AcDbEntity
  8
M01
100
AcDbCircle
 10
498.265534
 20
264.513886
 30
0.0
 40
4.0
100
AcDbArc
 50
180.0
 51
270.0
  0
LINE
  5
F6
102
{ACAD_REACTORS
330
22
102
}
100
AcDbEntity
  8
M02
100
AcDbLine
 10
516.265534
 20
280.013886
 30
0.0
 11
516.265534
 21
283.013886
 31
0.0
  0
LINE
  5
F7
100
AcDbEntity
  8
CENTRE
100
AcDbLine
 10
498.265534
 20
256.397127
 30
0.0
 11
498.265534
 21
290.362183
 31
0.0
  0
LINE
  5
F8
102
{ACAD_REACTORS
330
23
102
}
100
AcDbEntity
  8
M01
100
AcDbLine
 10
502.265534
 20
268.513886
 30
0.0
 11
502.265534
 21
280.013886
 31
0.0
  0
LINE
  5
F9
100
AcDbEntity
  8
M01
100
AcDbLine
 10
855.968314
 20
565.746264
 30
0.0
 11
857.948023
 21
566.952993
 31
0.0
  0
LINE
  5
FA
100
AcDbEntity
  8
M01
100
AcDbLine
 10
863.702282
 20
577.199491
 30
0.0
 11
863.702282
 21
585.774303
 31
0.0
  0
LINE
  5
FB
100
AcDbEntity
  8
M01
100
AcDbLine
 10
859.702282
 20
577.199491
 30
0.0
 11
859.702282
 21
585.774303
 31
0.0
  0
ARC
  5
FC
100
AcDbEntity
  8
M01
100
AcDbCircle
 10
851.702282
 20
577.199491
 30
0.0
 40
12.0
100
AcDbArc
 50
301.364349
 51
0.0
  0
ARC
  5
FD
100
AcDbEntity
  8
M01
100
AcDbCircle
 10
851.702282
 20
577.199491
 30
0.0
 40
8.0
100
AcDbArc
 50
308.846454
 51
0.0
  0
LINE
  5
FE
100
AcDbEntity
  8
M01
100
AcDbLine
 10
842.336954
 20
562.121811
 30
0.0
 11
852.564366
 21
568.355919
 31
0.0
  0
LINE
  5
FF
100
AcDbEntity
  8
M01
100
AcDbLine
 10
844.418867
 20
558.706312
 30
0.0
 11
844.7424
 21
558.903521
 31
0.0
  0
LINE
  5
100
100
AcDbEntity
  8
M01
100
AcDbLine
 10
842.980303
 20
551.703904
 30
0.0
 11
842.980303
 21
551.110596
 31
0.0
  0
LINE
  5
101
100
AcDbEntity
  8
M01
100
AcDbLine
 10
838.980303
 20
556.144688
 30
0.0
 11
838.980303
 21
553.418844
 31
0.0
  0
ARC
  5
102
100
AcDbEntity
  8
M01
100
AcDbCircle
 10
845.980303
 20
556.144688
 30
0.0
 40
3.0
100
AcDbArc
 50
121.364349
 51
151.672691
  0
ARC
  5
103
100
AcDbEntity
  8
M01
100
AcDbCircle
 10
845.980303
 20
556.144688
 30
0.0
 40
7.0
100
AcDbArc
 50
121.364349
 51
180.0
  0
ARC
  5
104
100
AcDbEntity
  8
M01
100
AcDbCircle
 10
845.980303
 20
551.110596
 30
0.0
 40
7.0
100
AcDbArc
 50
202.678679
 51
270.0
  0
ARC
  5
105
100
AcDbEntity
  8
M01
100
AcDbCircle
 10
845.980303
 20
551.110596
 30
0.0
 40
3.0
100
AcDbArc
 50
180.0
 51
270.0
  0
ARC
  5
106
100
AcDbEntity
  8
M01
100
AcDbCircle
 10
844.720165
 20
569.927071
 30
0.0
 40
12.0
100
AcDbArc
 50
313.586993
 51
0.0
  0
ARC
  5
107
100
AcDbEntity
  8
M01
100
AcDbCircle
 10
844.720165
 20
569.927071
 30
0.0
 40
8.0
100
AcDbArc
 50
313.586993
 51
0.0
  0
LINE
  5
108
100
AcDbEntity
  8
M01
100
AcDbLine
 10
845.980303
 20
548.110596
 30
0.0
 11
850.980303
 21
548.110596
 31
0.0
  0
LINE
  5
109
100
AcDbEntity
  8
M01
100
AcDbLine
 10
846.980303
 20
548.110596
 30
0.0
 11
846.980303
 21
544.110596
 31
0.0
  0
LINE
  5
10A
100
AcDbEntity
  8
M01
100
AcDbLine
 10
850.980303
 20
548.110596
 30
0.0
 11
850.980303
 21
544.110596
 31
0.0
  0
LINE
  5
10B
100
AcDbEntity
  8
M01
100
AcDbLine
 10
802.980303
 20
544.110596
 30
0.0
 11
830.204841
 21
544.110596
 31
0.0
  0
LINE
  5
10C
100
AcDbEntity
  8
M01
100
AcDbLine
 10
830.204841
 20
548.110596
 30
0.0
 11
812.980303
 21
548.110596
 31
0.0
  0
ARC
  5
10D
100
AcDbEntity
  8
M01
100
AcDbCircle
 10
830.204841
 20
556.110596
 30
0.0
 40
12.0
100
AcDbArc
 50
270.0
 51
313.586993
  0
ARC
  5
10E
100
AcDbEntity
  8
M01
100
AcDbCircle
 10
830.204841
 20
556.110596
 30
0.0
 40
8.0
100
AcDbArc
 50
270.0
 51
313.586993
  0
LINE
  5
10F
100
AcDbEntity
  8
M01
100
AcDbLine
 10
816.980303
 20
548.110596
 30
0.0
 11
816.980303
 21
544.110596
 31
0.0
  0
LINE
  5
110
100
AcDbEntity
  8
M01
100
AcDbLine
 10
812.980303
 20
548.110596
 30
0.0
 11
812.980303
 21
544.110596
 31
0.0
  0
LINE
  5
111
100
AcDbEntity
  8
M01
100
AcDbLine
 10
852.993627
 20
561.23513
 30
0.0
 11
838.478303
 21
547.418656
 31
0.0
  0
LINE
  5
112
100
AcDbEntity
  8
M01
100
AcDbLine
 10
850.235806
 20
564.132444
 30
0.0
 11
835.720482
 21
550.315969
 31
0.0
  0
LINE
  5
113
100
AcDbEntity
  8
M01
100
AcDbLine
 10
856.720165
 20
585.765561
 30
0.0
 11
856.720165
 21
569.927071
 31
0.0
  0
LINE
  5
114
100
AcDbEntity
  8
M01
100
AcDbLine
 10
852.720165
 20
585.765561
 30
0.0
 11
852.720165
 21
569.927071
 31
0.0
  0
LINE
  5
115
100
AcDbEntity
  8
M01
100
AcDbLine
 10
852.730303
 20
529.454697
 30
0.0
 11
859.230303
 21
529.454697
 31
0.0
  0
LINE
  5
116
100
AcDbEntity
  8
M01
100
AcDbLine
 10
852.730303
 20
537.566496
 30
0.0
 11
859.230303
 21
537.566496
 31
0.0
  0
LINE
  5
117
100
AcDbEntity
  8
M01
100
AcDbLine
 10
852.730303
 20
529.454697
 30
0.0
 11
852.730303
 21
527.510596
 31
0.0
  0
ARC
  5
118
100
AcDbEntity
  8
M01
100
AcDbCircle
 10
851.480303
 20
531.015946
 30
0.0
 40
2.0
100
AcDbArc
 50
308.682187
 51
0.0
  0
ARC
  5
119
100
AcDbEntity
  8
M01
100
AcDbCircle
 10
851.480303
 20
536.005247
 30
0.0
 40
2.0
100
AcDbArc
 50
0.0
 51
51.317813
  0
LINE
  5
11A
100
AcDbEntity
  8
M01
100
AcDbLine
 10
852.730303
 20
539.510596
 30
0.0
 11
852.730303
 21
537.566496
 31
0.0
  0
LINE
  5
11B
100
AcDbEntity
  8
M01
100
AcDbLine
 10
853.480303
 20
536.005247
 30
0.0
 11
853.480303
 21
531.015946
 31
0.0
  0
LINE
  5
11C
100
AcDbEntity
  8
M01
100
AcDbLine
 10
859.230303
 20
529.454697
 30
0.0
 11
859.230303
 21
527.510596
 31
0.0
  0
ARC
  5
11D
100
AcDbEntity
  8
M01
100
AcDbCircle
 10
860.480303
 20
531.015946
 30
0.0
 40
2.0
100
AcDbArc
 50
180.0
 51
231.317813
  0
ARC
  5
11E
100
AcDbEntity
  8
M01
100
AcDbCircle
 10
860.480303
 20
536.005247
 30
0.0
 40
2.0
100
AcDbArc
 50
128.682187
 51
180.0
  0
LINE
  5
11F
100
AcDbEntity
  8
M01
100
AcDbLine
 10
859.230303
 20
539.510596
 30
0.0
 11
859.230303
 21
537.566496
 31
0.0
  0
LINE
  5
120
100
AcDbEntity
  8
M01
100
AcDbLine
 10
858.480303
 20
536.005247
 30
0.0
 11
858.480303
 21
531.015946
 31
0.0
  0
LINE
  5
121
100
AcDbEntity
  8
DIMS
 62
     4
100
AcDbLine
 10
834.980303
 20
434.910596
 30
0.0
 11
834.980303
 21
437.210596
 31
0.0
  0
LINE
  5
122
100
AcDbEntity
  8
DIMS
 62
     4
100
AcDbLine
 10
834.980303
 20
428.110596
 30
0.0
 11
834.980303
 21
425.810596
 31
0.0
  0
LINE
  5
123
100
AcDbEntity
  8
DIMS
 62
     4
100
AcDbLine
 10
834.980303
 20
429.810596
 30
0.0
 11
834.980303
 21
433.210596
 31
0.0
  0
LINE
  5
124
100
AcDbEntity
  8
DIMS
 62
     4
100
AcDbLine
 10
857.980303
 20
411.910596
 30
0.0
 11
857.980303
 21
414.210596
 31
0.0
  0
LINE
  5
125
100
AcDbEntity
  8
DIMS
 62
     4
100
AcDbLine
 10
857.980303
 20
405.110596
 30
0.0
 11
857.980303
 21
402.810596
 31
0.0
  0
LINE
  5
126
100
AcDbEntity
  8
DIMS
 62
     4
100
AcDbLine
 10
861.380303
 20
408.510596
 30
0.0
 11
863.680303
 21
408.510596
 31
0.0
  0
LINE
  5
127
100
AcDbEntity
  8
DIMS
 62
     4
100
AcDbLine
 10
854.580303
 20
408.510596
 30
0.0
 11
852.280303
 21
408.510596
 31
0.0
  0
LINE
  5
128
100
AcDbEntity
  8
DIMS
 62
     4
100
AcDbLine
 10
857.980303
 20
406.810596
 30
0.0
 11
857.980303
 21
410.210596
 31
0.0
  0
LINE
  5
129
100
AcDbEntity
  8
DIMS
 62
     4
100
AcDbLine
 10
856.280303
 20
408.510596
 30
0.0
 11
859.680303
 21
408.510596
 31
0.0
  0
LINE
  5
12A
100
AcDbEntity
  8
DIMS
 62
     4
100
AcDbLine
 10
805.980303
 20
411.910596
 30
0.0
 11
805.980303
 21
414.210596
 31
0.0
  0
LINE
  5
12B
100
AcDbEntity
  8
DIMS
 62
     4
100
AcDbLine
 10
805.980303
 20
405.110596
 30
0.0
 11
805.980303
 21
402.810596
 31
0.0
  0
LINE
  5
12C
100
AcDbEntity
  8
DIMS
 62
     4
100
AcDbLine
 10
809.380303
 20
408.510596
 30
0.0
 11
811.680303
 21
408.510596
 31
0.0
  0
LINE
  5
12D
100
AcDbEntity
  8
DIMS
 62
     4
100
AcDbLine
 10
802.580303
 20
408.510596
 30
0.0
 11
800.280303
 21
408.510596
 31
0.0
  0
LINE
  5
12E
100
AcDbEntity
  8
DIMS
 62
     4
100
AcDbLine
 10
805.980303
 20
406.810596
 30
0.0
 11
805.980303
 21
410.210596
 31
0.0
  0
LINE
  5
12F
100
AcDbEntity
  8
DIMS
 62
     4
100
AcDbLine
 10
804.280303
 20
408.510596
 30
0.0
 11
807.680303
 21
408.510596
 31
0.0
  0
HATCH
  5
130
100
AcDbEntity
  8
HATCH
100
AcDbHatch
 10
0.0
 20
0.0
 30
0.0
210
0.0
220
0.0
230
1.0
  2
_U
 70
     0
 71
     1
 91
        2
 92
        7
 72
     1
 73
     1
 93
        2
 10
809.98030267267
 20
408.5105964665644
 42
1.0
 10
801.98030267267
 20
408.5105964665644
 42
1.0
 97
        1
330
136
 92
        7
 72
     1
 73
     1
 93
        2
 10
861.98030267267
 20
408.5105964665644
 42
1.0
 10
853.9803026726699
 20
408.5105964665644
 42
1.0
 97
        1
330
135
 75
     0
 76
     0
 52
45.0
 41
0.8
 77
     0
 78
     1
 53
45.0
 43
27.390195
 44
-1.04863
 45
-0.565685424949238
 46
0.565685424949238
 79
     0
 47
0.095608
 98
        2
 10
806.113651
 20
408.209955
 10
845.137842
 20
409.357252
  0
LINE
  5
131
100
AcDbEntity
  8
M01
100
AcDbLine
 10
857.980303
 20
404.510596
 30
0.0
 11
861.980303
 21
404.510596
 31
0.0
  0
LINE
  5
132
100
AcDbEntity
  8
M01
100
AcDbLine
 10
857.980303
 20
412.510596
 30
0.0
 11
861.980303
 21
412.510596
 31
0.0
  0
LINE
  5
133
100
AcDbEntity
  8
M01
100
AcDbLine
 10
805.980303
 20
404.510596
 30
0.0
 11
801.980303
 21
404.510596
 31
0.0
  0
LINE
  5
134
100
AcDbEntity
  8
M01
100
AcDbLine
 10
805.980303
 20
412.510596
 30
0.0
 11
801.980303
 21
412.510596
 31
0.0
  0
CIRCLE
  5
135
102
{ACAD_REACTORS
330
130
102
}
100
AcDbEntity
  8
M01
100
AcDbCircle
 10
857.980303
 20
408.510596
 30
0.0
 40
4.0
  0
CIRCLE
  5
136
102
{ACAD_REACTORS
330
130
102
}
100
AcDbEntity
  8
M01
100
AcDbCircle
 10
805.980303
 20
408.510596
 30
0.0
 40
4.0
  0
HATCH
  5
137
100
AcDbEntity
  8
HATCH
100
AcDbHatch
 10
0.0
 20
0.0
 30
0.0
210
0.0
220
0.0
230
1.0
  2
_U
 70
     0
 71
     1
 91
        4
 92
        7
 72
     0
 73
     1
 93
        9
 10
867.98030267267
 20
463.0105964665646
 10
867.98030267267
 20
464.8105964665648
 10
867.2803026726697
 20
465.5105964665647
 10
862.6803026726701
 20
465.5105964665646
 10
861.9803026726701
 20
464.8105964665647
 10
861.98030267267
 20
461.2105964665645
 10
863.9803026726701
 20
461.2105964665646
 10
863.9803026726699
 20
462.7605964665646
 10
863.9803026726701
 20
463.0105964665644
 97
        9
330
22B
330
22E
330
22A
330
25D
330
14C
330
13D
330
151
330
13F
330
22D
 92
        7
 72
     1
 73
     1
 93
       16
 10
861.9803026726701
 20
441.5105964665644
 42
0.0
 10
852.98030267267
 20
441.5105964665642
 42
0.0
 10
851.98030267267
 20
440.5105964665643
 42
0.0
 10
851.9803026726702
 20
435.5105964665645
 42
0.0
 10
870.2815170195687
 20
434.5514704644604
 42
-0.1092323044357291
 10
872.9803026726701
 20
440.6757478564761
 42
0.0
 10
872.9803026726699
 20
450.8105964665644
 42
0.0
 10
872.2803026726699
 20
451.5105964665645
 42
0.0
 10
870.9803026726698
 20
451.5105964665645
 42
0.0
 10
870.9803026726699
 20
451.0105964665644
 42
0.0
 10
867.98030267267
 20
451.0105964665645
 42
0.0
 10
867.98030267267
 20
452.0105964665646
 42
0.0
 10
863.9803026726699
 20
452.0105964665646
 42
0.0
 10
863.9803026726699
 20
452.2605964665647
 42
0.0
 10
863.9803026726701
 20
453.8105964665645
 42
0.0
 10
861.98030267267
 20
453.8105964665646
 42
0.0
 97
       16
330
220
330
223
330
21D
330
21C
330
22D
330
140
330
13E
330
13D
330
14B
330
13C
330
237
330
233
330
235
330
211
330
212
330
221
 92
        7
 72
     1
 73
     1
 93
       16
 10
861.98030267267
 20
401.5105964665645
 42
0.0
 10
861.98030267267
 20
399.5105964665646
 42
0.0
 10
862.6803026726701
 20
398.8105964665644
 42
0.0
 10
867.28030267267
 20
398.8105964665644
 42
0.0
 10
867.9803026726698
 20
399.5105964665645
 42
0.0
 10
867.98030267267
 20
412.0105964665644
 42
0.0
 10
870.9803026726701
 20
412.0105964665644
 42
0.0
 10
870.9803026726703
 20
411.5105964665644
 42
0.0
 10
872.2803026726705
 20
411.5105964665645
 42
0.0
 10
872.9803026726701
 20
412.2105964665643
 42
0.0
 10
872.9803026726701
 20
422.3454450766529
 42
-0.1092323044357248
 10
870.2815170195687
 20
428.4697224686683
 42
0.0
 10
851.9803026726702
 20
427.5105964665645
 42
0.0
 10
851.98030267267
 20
422.5105964665642
 42
0.0
 10
852.9803026726703
 20
421.5105964665644
 42
0.0
 10
861.98030267267
 20
421.5105964665644
 42
0.0
 97
       16
330
20E
330
210
330
235
330
234
330
236
330
225
330
1A9
330
227
330
229
330
228
330
21A
330
21B
330
219
330
222
330
21F
330
221
 92
       24
 93
        4
 72
     1
 10
853.986954
 20
436.832053
 11
868.358383
 21
436.832053
 72
     1
 10
868.358383
 20
436.832053
 11
868.358383
 21
439.832053
 72
     1
 10
868.358383
 20
439.832053
 11
853.986954
 21
439.832053
 72
     1
 10
853.986954
 20
439.832053
 11
853.986954
 21
436.832053
 97
        1
330
204
 75
     0
 76
     0
 52
135.0
 41
2.5
 77
     0
 78
     1
 53
135.0
 43
40.390195
 44
-1.04863
 45
-1.767766952966368
 46
-1.767766952966368
 79
     0
 47
0.115254
 98
        3
 10
864.80631
 20
463.715681
 10
866.65113
 20
441.817503
 10
866.535827
 20
420.7261
  0
LINE
  5
138
100
AcDbEntity
  8
M04
100
AcDbLine
 10
854.680303
 20
454.510596
 30
0.0
 11
852.180303
 21
454.510596
 31
0.0
  0
LINE
  5
139
100
AcDbEntity
  8
M04
100
AcDbLine
 10
853.980303
 20
455.210596
 30
0.0
 11
850.680303
 21
455.210596
 31
0.0
  0
LINE
  5
13A
100
AcDbEntity
  8
M04
100
AcDbLine
 10
854.680303
 20
460.510596
 30
0.0
 11
852.180303
 21
460.510596
 31
0.0
  0
LINE
  5
13B
100
AcDbEntity
  8
M04
100
AcDbLine
 10
853.980303
 20
459.810596
 30
0.0
 11
850.680303
 21
459.810596
 31
0.0
  0
LINE
  5
13C
102
{ACAD_REACTORS
330
137
102
}
100
AcDbEntity
  8
M01
100
AcDbLine
 10
861.980303
 20
454.510596
 30
0.0
 11
861.980303
 21
441.510596
 31
0.0
  0
LINE
  5
13D
102
{ACAD_REACTORS
330
137
102
}
100
AcDbEntity
  8
M05
100
AcDbLine
 10
863.980303
 20
462.760596
 30
0.0
 11
863.980303
 21
452.260596
 31
0.0
  0
LINE
  5
13E
102
{ACAD_REACTORS
330
137
102
}
100
AcDbEntity
  8
M04
100
AcDbLine
 10
863.980303
 20
452.260596
 30
0.0
 11
863.980303
 21
452.010596
 31
0.0
  0
LINE
  5
13F
102
{ACAD_REACTORS
330
137
102
}
100
AcDbEntity
  8
M04
100
AcDbLine
 10
863.980303
 20
463.010596
 30
0.0
 11
867.980303
 21
463.010596
 31
0.0
  0
LINE
  5
140
102
{ACAD_REACTORS
330
137
102
}
100
AcDbEntity
  8
M04
100
AcDbLine
 10
863.980303
 20
452.010596
 30
0.0
 11
867.980303
 21
452.010596
 31
0.0
  0
LINE
  5
141
100
AcDbEntity
  8
M05
100
AcDbLine
 10
862.980303
 20
454.510596
 30
0.0
 11
862.980303
 21
460.510596
 31
0.0
  0
LINE
  5
142
100
AcDbEntity
  8
M04
100
AcDbLine
 10
850.680303
 20
459.810596
 30
0.0
 11
849.352397
 21
457.510596
 31
0.0
  0
LINE
  5
143
100
AcDbEntity
  8
M04
100
AcDbLine
 10
850.680303
 20
455.210596
 30
0.0
 11
849.352397
 21
457.510596
 31
0.0
  0
LINE
  5
144
100
AcDbEntity
  8
M04
100
AcDbLine
 10
850.680303
 20
455.210596
 30
0.0
 11
850.680303
 21
459.810596
 31
0.0
  0
LINE
  5
145
100
AcDbEntity
  8
M04
100
AcDbLine
 10
852.180303
 20
454.510596
 30
0.0
 11
852.180303
 21
460.510596
 31
0.0
  0
ARC
  5
146
100
AcDbEntity
  8
M05
100
AcDbCircle
 10
861.454166
 20
457.510596
 30
0.0
 40
5.826136
100
AcDbArc
 50
295.69541
 51
64.30459
  0
LINE
  5
147
100
AcDbEntity
  8
M05
100
AcDbLine
 10
854.680303
 20
460.510596
 30
0.0
 11
853.980303
 21
459.810596
 31
0.0
  0
LINE
  5
148
100
AcDbEntity
  8
M05
100
AcDbLine
 10
854.680303
 20
454.510596
 30
0.0
 11
853.980303
 21
455.210596
 31
0.0
  0
LINE
  5
149
100
AcDbEntity
  8
M05
100
AcDbLine
 10
854.680303
 20
454.510596
 30
0.0
 11
854.680303
 21
460.510596
 31
0.0
  0
LINE
  5
14A
100
AcDbEntity
  8
M05
100
AcDbLine
 10
853.980303
 20
455.210596
 30
0.0
 11
853.980303
 21
459.810596
 31
0.0
  0
LINE
  5
14B
102
{ACAD_REACTORS
330
137
102
}
100
AcDbEntity
  8
M04
100
AcDbLine
 10
861.980303
 20
453.810596
 30
0.0
 11
863.980303
 21
453.810596
 31
0.0
  0
LINE
  5
14C
102
{ACAD_REACTORS
330
137
102
}
100
AcDbEntity
  8
M04
100
AcDbLine
 10
861.980303
 20
461.210596
 30
0.0
 11
863.980303
 21
461.210596
 31
0.0
  0
LINE
  5
14D
100
AcDbEntity
  8
M05
100
AcDbLine
 10
853.980303
 20
459.810596
 30
0.0
 11
862.980303
 21
459.810596
 31
0.0
  0
LINE
  5
14E
100
AcDbEntity
  8
M05
100
AcDbLine
 10
853.980303
 20
455.210596
 30
0.0
 11
862.980303
 21
455.210596
 31
0.0
  0
LINE
  5
14F
100
AcDbEntity
  8
M05
100
AcDbLine
 10
854.680303
 20
454.510596
 30
0.0
 11
863.980303
 21
454.510596
 31
0.0
  0
LINE
  5
150
100
AcDbEntity
  8
M05
100
AcDbLine
 10
854.680303
 20
460.510596
 30
0.0
 11
863.980303
 21
460.510596
 31
0.0
  0
LINE
  5
151
102
{ACAD_REACTORS
330
137
102
}
100
AcDbEntity
  8
M04
100
AcDbLine
 10
863.980303
 20
463.010596
 30
0.0
 11
863.980303
 21
462.760596
 31
0.0
  0
LINE
  5
152
100
AcDbEntity
  8
CENTRE
100
AcDbLine
 10
846.713802
 20
457.510596
 30
0.0
 11
871.626491
 21
457.510596
 31
0.0
  0
DIMENSION
  5
153
100
AcDbEntity
  8
DIMS
100
AcDbDimension
  2
*D9
 10
762.908408
 20
498.010596
 30
0.0
 11
722.408408
 21
480.224882
 31
0.0
 12
1.831921
 22
-1.04863
 32
0.0
  1
%%c<> H7
  3
DIM1
100
AcDbAlignedDimension
 13
781.980303
 23
506.010596
 33
0.0
 14
781.980303
 24
498.010596
 34
0.0
 50
90.0
100
AcDbRotatedDimension
1001
ACAD
1000
DSTYLE
1002
{
1070
   144
1040
1.0
1002
}
  0
DIMENSION
  5
161
100
AcDbEntity
  8
DIMS
100
AcDbDimension
  2
*D8
 10
913.295419
 20
451.510596
 30
0.0
 11
859.795419
 21
431.510596
 31
0.0
 12
430.968709
 22
-308.296762
 32
0.0
  1
%%c<> H7
  3
DIM1
100
AcDbAlignedDimension
 13
876.980303
 23
411.510596
 33
0.0
 14
876.980303
 24
451.510596
 34
0.0
 50
90.0
100
AcDbRotatedDimension
1001
ACAD
1000
DSTYLE
1002
{
1070
   144
1040
1.0
1002
}
  0
DIMENSION
  5
16E
100
AcDbEntity
  8
DIMS
100
AcDbDimension
  2
*D7
 10
794.980303
 20
361.230918
 30
0.0
 11
746.837446
 21
364.230918
 31
0.0
 12
417.968709
 22
-308.296762
 32
0.0
  1
7.0
  3
DIM1
100
AcDbAlignedDimension
 13
801.980303
 23
401.510596
 33
0.0
 14
794.980303
 24
392.510596
 34
0.0
100
AcDbRotatedDimension
1001
ACAD
1000
DSTYLE
1002
{
1070
   144
1040
1.0
1002
}
  0
DIMENSION
  5
17C
100
AcDbEntity
  8
DIMS
100
AcDbDimension
  2
*D6
 10
868.980303
 20
361.230918
 30
0.0
 11
829.12316
 21
364.230918
 31
0.0
 12
430.968709
 22
-308.296762
 32
0.0
  1
7.0
  3
DIM1
100
AcDbAlignedDimension
 13
861.980303
 23
399.510596
 33
0.0
 14
868.980303
 24
380.997205
 34
0.0
100
AcDbRotatedDimension
1001
ACAD
1000
DSTYLE
1002
{
1070
   144
1040
1.0
1002
}
  0
DIMENSION
  5
18A
100
AcDbEntity
  8
DIMS
100
AcDbDimension
  2
*D5
 10
861.980303
 20
361.230918
 30
0.0
 11
794.480303
 21
364.230918
 31
0.0
 12
128.768324
 22
-1.04863
 32
0.0
  3
DIM1
100
AcDbAlignedDimension
 13
801.980303
 23
401.510596
 33
0.0
 14
861.980303
 24
399.510596
 34
0.0
100
AcDbRotatedDimension
1001
ACAD
1000
DSTYLE
1002
{
1070
   144
1040
1.0
1002
}
  0
LINE
  5
197
100
AcDbEntity
  8
M01
100
AcDbLine
 10
850.980303
 20
522.510596
 30
0.0
 11
860.980303
 21
522.510596
 31
0.0
  0
LINE
  5
198
100
AcDbEntity
  8
M01
100
AcDbLine
 10
804.730303
 20
529.454697
 30
0.0
 11
811.230303
 21
529.454697
 31
0.0
  0
LINE
  5
199
100
AcDbEntity
  8
M01
100
AcDbLine
 10
804.730303
 20
537.566496
 30
0.0
 11
811.230303
 21
537.566496
 31
0.0
  0
LINE
  5
19A
100
AcDbEntity
  8
M01
100
AcDbLine
 10
804.730303
 20
529.454697
 30
0.0
 11
804.730303
 21
527.510596
 31
0.0
  0
ARC
  5
19B
100
AcDbEntity
  8
M01
100
AcDbCircle
 10
803.480303
 20
531.015946
 30
0.0
 40
2.0
100
AcDbArc
 50
308.682187
 51
0.0
  0
ARC
  5
19C
100
AcDbEntity
  8
M01
100
AcDbCircle
 10
803.480303
 20
536.005247
 30
0.0
 40
2.0
100
AcDbArc
 50
0.0
 51
51.317813
  0
LINE
  5
19D
100
AcDbEntity
  8
M01
100
AcDbLine
 10
804.730303
 20
539.510596
 30
0.0
 11
804.730303
 21
537.566496
 31
0.0
  0
LINE
  5
19E
100
AcDbEntity
  8
M01
100
AcDbLine
 10
805.480303
 20
536.005247
 30
0.0
 11
805.480303
 21
531.015946
 31
0.0
  0
LINE
  5
19F
100
AcDbEntity
  8
M01
100
AcDbLine
 10
811.230303
 20
529.454697
 30
0.0
 11
811.230303
 21
527.510596
 31
0.0
  0
ARC
  5
1A0
100
AcDbEntity
  8
M01
100
AcDbCircle
 10
812.480303
 20
531.015946
 30
0.0
 40
2.0
100
AcDbArc
 50
180.0
 51
231.317813
  0
ARC
  5
1A1
100
AcDbEntity
  8
M01
100
AcDbCircle
 10
812.480303
 20
536.005247
 30
0.0
 40
2.0
100
AcDbArc
 50
128.682187
 51
180.0
  0
LINE
  5
1A2
100
AcDbEntity
  8
M01
100
AcDbLine
 10
811.230303
 20
539.510596
 30
0.0
 11
811.230303
 21
537.566496
 31
0.0
  0
LINE
  5
1A3
100
AcDbEntity
  8
M01
100
AcDbLine
 10
810.480303
 20
536.005247
 30
0.0
 11
810.480303
 21
531.015946
 31
0.0
  0
LINE
  5
1A4
100
AcDbEntity
  8
M01
100
AcDbLine
 10
802.980303
 20
522.510596
 30
0.0
 11
812.980303
 21
522.510596
 31
0.0
  0
LINE
  5
1A5
100
AcDbEntity
  8
M01
100
AcDbLine
 10
860.980303
 20
527.510596
 30
0.0
 11
860.980303
 21
506.510596
 31
0.0
  0
LINE
  5
1A6
100
AcDbEntity
  8
M01
100
AcDbLine
 10
850.980303
 20
527.510596
 30
0.0
 11
850.980303
 21
507.510596
 31
0.0
  0
LINE
  5
1A7
100
AcDbEntity
  8
M01
100
AcDbLine
 10
802.980303
 20
527.510596
 30
0.0
 11
802.980303
 21
506.510596
 31
0.0
  0
LINE
  5
1A8
100
AcDbEntity
  8
M01
100
AcDbLine
 10
812.980303
 20
527.510596
 30
0.0
 11
812.980303
 21
507.510596
 31
0.0
  0
LINE
  5
1A9
102
{ACAD_REACTORS
330
137
102
}
100
AcDbEntity
  8
M05
100
AcDbLine
 10
861.980303
 20
399.510596
 30
0.0
 11
861.980303
 21
401.510596
 31
0.0
  0
TEXT
  5
1AA
100
AcDbEntity
  8
TEXT
100
AcDbText
 10
817.558796
 20
414.854164
 30
0.0
 40
2.0
  1
MM010101
 41
0.9
100
AcDbText
  0
HATCH
  5
1AB
100
AcDbEntity
  8
HATCH
100
AcDbHatch
 10
0.0
 20
0.0
 30
0.0
210
0.0
220
0.0
230
1.0
  2
_U
 70
     0
 71
     1
 91
        1
 92
        7
 72
     0
 73
     1
 93
        4
 10
864.9803026726699
 20
505.5105964665645
 10
861.98030267267
 20
505.5105964665645
 10
861.9803026726701
 20
466.5105964665647
 10
864.9803026726699
 20
466.5105964665645
 97
        4
330
255
330
25D
330
22C
330
257
 75
     0
 76
     0
 52
135.0
 41
0.8
 77
     0
 78
     1
 53
135.0
 43
40.390195
 44
-1.04863
 45
-0.5656854249492382
 46
-0.565685424949238
 79
     0
 47
0.167139
 98
        1
 10
863.875346
 20
493.788156
  0
LINE
  5
1AC
100
AcDbEntity
  8
M01
100
AcDbLine
 10
852.949214
 20
549.410596
 30
0.0
 11
859.011392
 21
549.410596
 31
0.0
  0
ARC
  5
1AD
100
AcDbEntity
  8
M01
100
AcDbCircle
 10
859.011392
 20
547.561291
 30
0.0
 40
1.150694
100
AcDbArc
 50
208.592423
 51
331.407577
  0
ARC
  5
1AE
100
AcDbEntity
  8
M01
100
AcDbCircle
 10
855.980303
 20
550.113374
 30
0.0
 40
3.702778
100
AcDbArc
 50
236.92527
 51
303.07473
  0
ARC
  5
1AF
100
AcDbEntity
  8
M01
100
AcDbCircle
 10
852.949214
 20
547.561291
 30
0.0
 40
1.150694
100
AcDbArc
 50
208.592423
 51
331.407577
  0
ARC
  5
1B0
100
AcDbEntity
  8
M01
100
AcDbCircle
 10
859.011392
 20
548.259902
 30
0.0
 40
1.150694
100
AcDbArc
 50
28.592423
 51
151.407577
  0
ARC
  5
1B1
100
AcDbEntity
  8
M01
100
AcDbCircle
 10
855.980303
 20
545.707819
 30
0.0
 40
3.702778
100
AcDbArc
 50
56.92527
 51
123.07473
  0
LINE
  5
1B2
100
AcDbEntity
  8
M01
100
AcDbLine
 10
858.001029
 20
548.810596
 30
0.0
 11
858.001029
 21
547.010596
 31
0.0
  0
LINE
  5
1B3
100
AcDbEntity
  8
M01
100
AcDbLine
 10
860.021755
 20
548.810596
 30
0.0
 11
860.021755
 21
547.010596
 31
0.0
  0
ARC
  5
1B4
100
AcDbEntity
  8
M01
100
AcDbCircle
 10
852.949214
 20
548.259902
 30
0.0
 40
1.150694
100
AcDbArc
 50
28.592423
 51
151.407577
  0
LINE
  5
1B5
100
AcDbEntity
  8
M01
100
AcDbLine
 10
853.959577
 20
548.810596
 30
0.0
 11
853.959577
 21
547.010596
 31
0.0
  0
LINE
  5
1B6
100
AcDbEntity
  8
M01
100
AcDbLine
 10
851.938851
 20
548.810596
 30
0.0
 11
851.938851
 21
547.010596
 31
0.0
  0
LINE
  5
1B7
100
AcDbEntity
  8
M01
100
AcDbLine
 10
860.980303
 20
544.110596
 30
0.0
 11
860.980303
 21
545.610596
 31
0.0
  0
LINE
  5
1B8
100
AcDbEntity
  8
M01
100
AcDbLine
 10
850.980303
 20
544.110596
 30
0.0
 11
850.980303
 21
545.610596
 31
0.0
  0
LINE
  5
1B9
100
AcDbEntity
  8
M01
100
AcDbLine
 10
860.480303
 20
545.610596
 30
0.0
 11
860.480303
 21
546.410596
 31
0.0
  0
LINE
  5
1BA
100
AcDbEntity
  8
M01
100
AcDbLine
 10
851.480303
 20
545.610596
 30
0.0
 11
851.480303
 21
546.410596
 31
0.0
  0
LINE
  5
1BB
100
AcDbEntity
  8
M01
100
AcDbLine
 10
851.480303
 20
546.410596
 30
0.0
 11
860.480303
 21
546.410596
 31
0.0
  0
LINE
  5
1BC
100
AcDbEntity
  8
M01
100
AcDbLine
 10
850.980303
 20
545.610596
 30
0.0
 11
860.980303
 21
545.610596
 31
0.0
  0
LINE
  5
1BD
100
AcDbEntity
  8
M01
100
AcDbLine
 10
860.480303
 20
543.310596
 30
0.0
 11
860.480303
 21
544.110596
 31
0.0
  0
LINE
  5
1BE
100
AcDbEntity
  8
M01
100
AcDbLine
 10
851.480303
 20
543.310596
 30
0.0
 11
851.480303
 21
544.110596
 31
0.0
  0
LINE
  5
1BF
100
AcDbEntity
  8
M01
100
AcDbLine
 10
845.980303
 20
544.110596
 30
0.0
 11
860.980303
 21
544.110596
 31
0.0
  0
ARC
  5
1C0
100
AcDbEntity
  8
M01
100
AcDbCircle
 10
859.011392
 20
541.461291
 30
0.0
 40
1.150694
100
AcDbArc
 50
208.592423
 51
331.407577
  0
ARC
  5
1C1
100
AcDbEntity
  8
M01
100
AcDbCircle
 10
855.980303
 20
544.013374
 30
0.0
 40
3.702778
100
AcDbArc
 50
236.92527
 51
303.07473
  0
ARC
  5
1C2
100
AcDbEntity
  8
M01
100
AcDbCircle
 10
852.949214
 20
541.461291
 30
0.0
 40
1.150694
100
AcDbArc
 50
208.592423
 51
331.407577
  0
ARC
  5
1C3
100
AcDbEntity
  8
M01
100
AcDbCircle
 10
859.011392
 20
542.159902
 30
0.0
 40
1.150694
100
AcDbArc
 50
28.592423
 51
151.407577
  0
ARC
  5
1C4
100
AcDbEntity
  8
M01
100
AcDbCircle
 10
855.980303
 20
539.607819
 30
0.0
 40
3.702778
100
AcDbArc
 50
56.92527
 51
123.07473
  0
LINE
  5
1C5
100
AcDbEntity
  8
M01
100
AcDbLine
 10
858.001029
 20
542.710596
 30
0.0
 11
858.001029
 21
540.910596
 31
0.0
  0
LINE
  5
1C6
100
AcDbEntity
  8
M01
100
AcDbLine
 10
860.021755
 20
542.710596
 30
0.0
 11
860.021755
 21
540.910596
 31
0.0
  0
ARC
  5
1C7
100
AcDbEntity
  8
M01
100
AcDbCircle
 10
852.949214
 20
542.159902
 30
0.0
 40
1.150694
100
AcDbArc
 50
28.592423
 51
151.407577
  0
LINE
  5
1C8
100
AcDbEntity
  8
M01
100
AcDbLine
 10
853.959577
 20
542.710596
 30
0.0
 11
853.959577
 21
540.910596
 31
0.0
  0
LINE
  5
1C9
100
AcDbEntity
  8
M01
100
AcDbLine
 10
851.938851
 20
542.710596
 30
0.0
 11
851.938851
 21
540.910596
 31
0.0
  0
LINE
  5
1CA
100
AcDbEntity
  8
M01
100
AcDbLine
 10
851.480303
 20
543.310596
 30
0.0
 11
860.480303
 21
543.310596
 31
0.0
  0
LINE
  5
1CB
100
AcDbEntity
  8
M01
100
AcDbLine
 10
851.480303
 20
540.310596
 30
0.0
 11
860.480303
 21
540.310596
 31
0.0
  0
LINE
  5
1CC
100
AcDbEntity
  8
M01
100
AcDbLine
 10
851.480303
 20
539.510596
 30
0.0
 11
860.480303
 21
539.510596
 31
0.0
  0
LINE
  5
1CD
100
AcDbEntity
  8
M01
100
AcDbLine
 10
857.480303
 20
552.510596
 30
0.0
 11
857.980303
 21
552.010596
 31
0.0
  0
LINE
  5
1CE
100
AcDbEntity
  8
M01
100
AcDbLine
 10
853.980303
 20
552.010596
 30
0.0
 11
854.480303
 21
552.510596
 31
0.0
  0
LINE
  5
1CF
100
AcDbEntity
  8
M01
100
AcDbLine
 10
853.980303
 20
552.010596
 30
0.0
 11
857.980303
 21
552.010596
 31
0.0
  0
LINE
  5
1D0
100
AcDbEntity
  8
M01
100
AcDbLine
 10
857.480303
 20
552.510596
 30
0.0
 11
857.480303
 21
549.410596
 31
0.0
  0
LINE
  5
1D1
100
AcDbEntity
  8
M01
100
AcDbLine
 10
854.480303
 20
552.510596
 30
0.0
 11
854.480303
 21
549.410596
 31
0.0
  0
LINE
  5
1D2
100
AcDbEntity
  8
M01
100
AcDbLine
 10
853.980303
 20
552.010596
 30
0.0
 11
853.980303
 21
549.410596
 31
0.0
  0
LINE
  5
1D3
100
AcDbEntity
  8
M01
100
AcDbLine
 10
857.980303
 20
552.010596
 30
0.0
 11
857.980303
 21
549.410596
 31
0.0
  0
LINE
  5
1D4
100
AcDbEntity
  8
M01
100
AcDbLine
 10
854.480303
 20
552.510596
 30
0.0
 11
857.480303
 21
552.510596
 31
0.0
  0
LINE
  5
1D5
100
AcDbEntity
  8
M01
100
AcDbLine
 10
850.980303
 20
527.510596
 30
0.0
 11
860.980303
 21
527.510596
 31
0.0
  0
LINE
  5
1D6
100
AcDbEntity
  8
M01
100
AcDbLine
 10
860.480303
 20
540.310596
 30
0.0
 11
860.480303
 21
539.510596
 31
0.0
  0
LINE
  5
1D7
100
AcDbEntity
  8
M01
100
AcDbLine
 10
851.480303
 20
540.310596
 30
0.0
 11
851.480303
 21
539.510596
 31
0.0
  0
LINE
  5
1D8
100
AcDbEntity
  8
CENTRE
100
AcDbLine
 10
855.980303
 20
558.671486
 30
0.0
 11
855.980303
 21
495.078054
 31
0.0
  0
LINE
  5
1D9
100
AcDbEntity
  8
M01
100
AcDbLine
 10
811.011392
 20
549.410596
 30
0.0
 11
804.949214
 21
549.410596
 31
0.0
  0
ARC
  5
1DA
100
AcDbEntity
  8
M01
100
AcDbCircle
 10
804.949214
 20
547.561291
 30
0.0
 40
1.150694
100
AcDbArc
 50
208.592423
 51
331.407577
  0
ARC
  5
1DB
100
AcDbEntity
  8
M01
100
AcDbCircle
 10
807.980303
 20
550.113374
 30
0.0
 40
3.702778
100
AcDbArc
 50
236.92527
 51
303.07473
  0
ARC
  5
1DC
100
AcDbEntity
  8
M01
100
AcDbCircle
 10
811.011392
 20
547.561291
 30
0.0
 40
1.150694
100
AcDbArc
 50
208.592423
 51
331.407577
  0
ARC
  5
1DD
100
AcDbEntity
  8
M01
100
AcDbCircle
 10
804.949214
 20
548.259902
 30
0.0
 40
1.150694
100
AcDbArc
 50
28.592423
 51
151.407577
  0
ARC
  5
1DE
100
AcDbEntity
  8
M01
100
AcDbCircle
 10
807.980303
 20
545.707819
 30
0.0
 40
3.702778
100
AcDbArc
 50
56.92527
 51
123.07473
  0
LINE
  5
1DF
100
AcDbEntity
  8
M01
100
AcDbLine
 10
805.959577
 20
548.810596
 30
0.0
 11
805.959577
 21
547.010596
 31
0.0
  0
LINE
  5
1E0
100
AcDbEntity
  8
M01
100
AcDbLine
 10
803.938851
 20
548.810596
 30
0.0
 11
803.938851
 21
547.010596
 31
0.0
  0
ARC
  5
1E1
100
AcDbEntity
  8
M01
100
AcDbCircle
 10
811.011392
 20
548.259902
 30
0.0
 40
1.150694
100
AcDbArc
 50
28.592423
 51
151.407577
  0
LINE
  5
1E2
100
AcDbEntity
  8
M01
100
AcDbLine
 10
810.001029
 20
548.810596
 30
0.0
 11
810.001029
 21
547.010596
 31
0.0
  0
LINE
  5
1E3
100
AcDbEntity
  8
M01
100
AcDbLine
 10
812.021755
 20
548.810596
 30
0.0
 11
812.021755
 21
547.010596
 31
0.0
  0
LINE
  5
1E4
100
AcDbEntity
  8
M01
100
AcDbLine
 10
802.980303
 20
544.110596
 30
0.0
 11
802.980303
 21
545.610596
 31
0.0
  0
LINE
  5
1E5
100
AcDbEntity
  8
M01
100
AcDbLine
 10
803.480303
 20
545.610596
 30
0.0
 11
803.480303
 21
546.410596
 31
0.0
  0
LINE
  5
1E6
100
AcDbEntity
  8
M01
100
AcDbLine
 10
812.480303
 20
545.610596
 30
0.0
 11
812.480303
 21
546.410596
 31
0.0
  0
LINE
  5
1E7
100
AcDbEntity
  8
M01
100
AcDbLine
 10
812.480303
 20
546.410596
 30
0.0
 11
803.480303
 21
546.410596
 31
0.0
  0
LINE
  5
1E8
100
AcDbEntity
  8
M01
100
AcDbLine
 10
812.980303
 20
545.610596
 30
0.0
 11
802.980303
 21
545.610596
 31
0.0
  0
LINE
  5
1E9
100
AcDbEntity
  8
M01
100
AcDbLine
 10
803.480303
 20
543.310596
 30
0.0
 11
803.480303
 21
544.110596
 31
0.0
  0
LINE
  5
1EA
100
AcDbEntity
  8
M01
100
AcDbLine
 10
812.480303
 20
543.310596
 30
0.0
 11
812.480303
 21
544.110596
 31
0.0
  0
ARC
  5
1EB
100
AcDbEntity
  8
M01
100
AcDbCircle
 10
804.949214
 20
541.461291
 30
0.0
 40
1.150694
100
AcDbArc
 50
208.592423
 51
331.407577
  0
ARC
  5
1EC
100
AcDbEntity
  8
M01
100
AcDbCircle
 10
807.980303
 20
544.013374
 30
0.0
 40
3.702778
100
AcDbArc
 50
236.92527
 51
303.07473
  0
ARC
  5
1ED
100
AcDbEntity
  8
M01
100
AcDbCircle
 10
811.011392
 20
541.461291
 30
0.0
 40
1.150694
100
AcDbArc
 50
208.592423
 51
331.407577
  0
ARC
  5
1EE
100
AcDbEntity
  8
M01
100
AcDbCircle
 10
804.949214
 20
542.159902
 30
0.0
 40
1.150694
100
AcDbArc
 50
28.592423
 51
151.407577
  0
ARC
  5
1EF
100
AcDbEntity
  8
M01
100
AcDbCircle
 10
807.980303
 20
539.607819
 30
0.0
 40
3.702778
100
AcDbArc
 50
56.92527
 51
123.07473
  0
LINE
  5
1F0
100
AcDbEntity
  8
M01
100
AcDbLine
 10
805.959577
 20
542.710596
 30
0.0
 11
805.959577
 21
540.910596
 31
0.0
  0
LINE
  5
1F1
100
AcDbEntity
  8
M01
100
AcDbLine
 10
803.938851
 20
542.710596
 30
0.0
 11
803.938851
 21
540.910596
 31
0.0
  0
ARC
  5
1F2
100
AcDbEntity
  8
M01
100
AcDbCircle
 10
811.011392
 20
542.159902
 30
0.0
 40
1.150694
100
AcDbArc
 50
28.592423
 51
151.407577
  0
LINE
  5
1F3
100
AcDbEntity
  8
M01
100
AcDbLine
 10
810.001029
 20
542.710596
 30
0.0
 11
810.001029
 21
540.910596
 31
0.0
  0
LINE
  5
1F4
100
AcDbEntity
  8
M01
100
AcDbLine
 10
812.021755
 20
542.710596
 30
0.0
 11
812.021755
 21
540.910596
 31
0.0
  0
LINE
  5
1F5
100
AcDbEntity
  8
M01
100
AcDbLine
 10
812.480303
 20
543.310596
 30
0.0
 11
803.480303
 21
543.310596
 31
0.0
  0
LINE
  5
1F6
100
AcDbEntity
  8
M01
100
AcDbLine
 10
812.480303
 20
540.310596
 30
0.0
 11
803.480303
 21
540.310596
 31
0.0
  0
LINE
  5
1F7
100
AcDbEntity
  8
M01
100
AcDbLine
 10
812.480303
 20
539.510596
 30
0.0
 11
803.480303
 21
539.510596
 31
0.0
  0
LINE
  5
1F8
100
AcDbEntity
  8
M01
100
AcDbLine
 10
806.480303
 20
552.510596
 30
0.0
 11
805.980303
 21
552.010596
 31
0.0
  0
LINE
  5
1F9
100
AcDbEntity
  8
M01
100
AcDbLine
 10
809.980303
 20
552.010596
 30
0.0
 11
809.480303
 21
552.510596
 31
0.0
  0
LINE
  5
1FA
100
AcDbEntity
  8
M01
100
AcDbLine
 10
809.980303
 20
552.010596
 30
0.0
 11
805.980303
 21
552.010596
 31
0.0
  0
LINE
  5
1FB
100
AcDbEntity
  8
M01
100
AcDbLine
 10
806.480303
 20
552.510596
 30
0.0
 11
806.480303
 21
549.410596
 31
0.0
  0
LINE
  5
1FC
100
AcDbEntity
  8
M01
100
AcDbLine
 10
809.480303
 20
552.510596
 30
0.0
 11
809.480303
 21
549.410596
 31
0.0
  0
LINE
  5
1FD
100
AcDbEntity
  8
M01
100
AcDbLine
 10
809.980303
 20
552.010596
 30
0.0
 11
809.980303
 21
549.410596
 31
0.0
  0
LINE
  5
1FE
100
AcDbEntity
  8
M01
100
AcDbLine
 10
805.980303
 20
552.010596
 30
0.0
 11
805.980303
 21
549.410596
 31
0.0
  0
LINE
  5
1FF
100
AcDbEntity
  8
M01
100
AcDbLine
 10
809.480303
 20
552.510596
 30
0.0
 11
806.480303
 21
552.510596
 31
0.0
  0
LINE
  5
200
100
AcDbEntity
  8
M01
100
AcDbLine
 10
812.980303
 20
527.510596
 30
0.0
 11
802.980303
 21
527.510596
 31
0.0
  0
LINE
  5
201
100
AcDbEntity
  8
M01
100
AcDbLine
 10
803.480303
 20
540.310596
 30
0.0
 11
803.480303
 21
539.510596
 31
0.0
  0
LINE
  5
202
100
AcDbEntity
  8
M01
100
AcDbLine
 10
812.480303
 20
540.310596
 30
0.0
 11
812.480303
 21
539.510596
 31
0.0
  0
LINE
  5
203
100
AcDbEntity
  8
CENTRE
100
AcDbLine
 10
807.980303
 20
558.671486
 30
0.0
 11
807.980303
 21
495.078054
 31
0.0
  0
TEXT
  5
204
102
{ACAD_REACTORS
330
137
102
}
100
AcDbEntity
  8
TEXT
100
AcDbText
 10
854.486954
 20
437.332053
 30
0.0
 40
2.0
  1
MA010000
 41
0.9
100
AcDbText
  0
LINE
  5
205
100
AcDbEntity
  8
M04
100
AcDbLine
 10
840.980303
 20
567.510596
 30
0.0
 11
850.980303
 21
577.510596
 31
0.0
  0
LINE
  5
206
100
AcDbEntity
  8
M04
100
AcDbLine
 10
850.980303
 20
588.182075
 30
0.0
 11
850.980303
 21
577.510596
 31
0.0
  0
LINE
  5
207
100
AcDbEntity
  8
M04
100
AcDbLine
 10
886.980303
 20
401.510596
 30
0.0
 11
886.980303
 21
461.510596
 31
0.0
  0
LINE
  5
208
100
AcDbEntity
  8
M04
100
AcDbLine
 10
886.980303
 20
401.510596
 30
0.0
 11
895.980303
 21
401.510596
 31
0.0
  0
LINE
  5
209
100
AcDbEntity
  8
M04
100
AcDbLine
 10
876.980303
 20
411.510596
 30
0.0
 11
886.980303
 21
401.510596
 31
0.0
  0
LINE
  5
20A
100
AcDbEntity
  8
M04
100
AcDbLine
 10
794.980303
 20
567.510596
 30
0.0
 11
868.980303
 21
567.510596
 31
0.0
  0
LINE
  5
20B
100
AcDbEntity
  8
M04
100
AcDbLine
 10
886.980303
 20
461.510596
 30
0.0
 11
895.980303
 21
461.510596
 31
0.0
  0
LINE
  5
20C
100
AcDbEntity
  8
M04
100
AcDbLine
 10
876.980303
 20
451.510596
 30
0.0
 11
886.980303
 21
461.510596
 31
0.0
  0
LINE
  5
20D
100
AcDbEntity
  8
M05
100
AcDbLine
 10
870.281517
 20
428.469722
 30
0.0
 11
870.281517
 21
434.55147
 31
0.0
  0
ARC
  5
20E
102
{ACAD_REACTORS
330
137
102
}
100
AcDbEntity
  8
M05
100
AcDbCircle
 10
885.480303
 20
431.510596
 30
0.0
 40
15.5
100
AcDbArc
 50
191.313981
 51
216.249321
  0
LINE
  5
20F
100
AcDbEntity
  8
M01
100
AcDbLine
 10
834.980303
 20
427.510596
 30
0.0
 11
851.980303
 21
427.510596
 31
0.0
  0
LINE
  5
210
102
{ACAD_REACTORS
330
137
102
}
100
AcDbEntity
  8
M05
100
AcDbLine
 10
851.980303
 20
427.510596
 30
0.0
 11
870.281517
 21
428.469722
 31
0.0
  0
LINE
  5
211
102
{ACAD_REACTORS
330
137
102
}
100
AcDbEntity
  8
M05
100
AcDbLine
 10
851.980303
 20
435.510596
 30
0.0
 11
870.281517
 21
434.55147
 31
0.0
  0
ARC
  5
212
102
{ACAD_REACTORS
330
137
102
}
100
AcDbEntity
  8
M05
100
AcDbCircle
 10
885.480303
 20
431.510596
 30
0.0
 40
15.5
100
AcDbArc
 50
143.750679
 51
168.686019
  0
LINE
  5
213
100
AcDbEntity
  8
M01
100
AcDbLine
 10
834.980303
 20
435.510596
 30
0.0
 11
851.980303
 21
435.510596
 31
0.0
  0
LINE
  5
214
100
AcDbEntity
  8
M04
100
AcDbLine
 10
870.980303
 20
411.510596
 30
0.0
 11
868.980303
 21
411.510596
 31
0.0
  0
LINE
  5
215
100
AcDbEntity
  8
M04
100
AcDbLine
 10
872.280303
 20
411.510596
 30
0.0
 11
876.980303
 21
411.510596
 31
0.0
  0
LINE
  5
216
100
AcDbEntity
  8
M04
100
AcDbLine
 10
870.980303
 20
451.510596
 30
0.0
 11
868.980303
 21
451.510596
 31
0.0
  0
LINE
  5
217
100
AcDbEntity
  8
M04
100
AcDbLine
 10
872.280303
 20
451.510596
 30
0.0
 11
876.980303
 21
451.510596
 31
0.0
  0
LINE
  5
218
100
AcDbEntity
  8
M04
100
AcDbLine
 10
876.980303
 20
451.510596
 30
0.0
 11
876.980303
 21
411.510596
 31
0.0
  0
LINE
  5
219
102
{ACAD_REACTORS
330
137
102
}
100
AcDbEntity
  8
M05
100
AcDbLine
 10
870.980303
 20
412.010596
 30
0.0
 11
870.980303
 21
411.510596
 31
0.0
  0
LINE
  5
21A
102
{ACAD_REACTORS
330
137
102
}
100
AcDbEntity
  8
M05
100
AcDbLine
 10
867.980303
 20
412.010596
 30
0.0
 11
867.980303
 21
399.510596
 31
0.0
  0
LINE
  5
21B
102
{ACAD_REACTORS
330
137
102
}
100
AcDbEntity
  8
M05
100
AcDbLine
 10
867.980303
 20
412.010596
 30
0.0
 11
870.980303
 21
412.010596
 31
0.0
  0
LINE
  5
21C
102
{ACAD_REACTORS
330
137
102
}
100
AcDbEntity
  8
M05
100
AcDbLine
 10
867.980303
 20
451.010596
 30
0.0
 11
870.980303
 21
451.010596
 31
0.0
  0
LINE
  5
21D
102
{ACAD_REACTORS
330
137
102
}
100
AcDbEntity
  8
M05
100
AcDbLine
 10
870.980303
 20
451.510596
 30
0.0
 11
870.980303
 21
451.010596
 31
0.0
  0
LINE
  5
21E
100
AcDbEntity
  8
M04
100
AcDbLine
 10
868.980303
 20
412.010596
 30
0.0
 11
868.980303
 21
380.997205
 31
0.0
  0
LINE
  5
21F
102
{ACAD_REACTORS
330
137
102
}
100
AcDbEntity
  8
M05
100
AcDbLine
 10
872.980303
 20
412.210596
 30
0.0
 11
872.280303
 21
411.510596
 31
0.0
  0
LINE
  5
220
102
{ACAD_REACTORS
330
137
102
}
100
AcDbEntity
  8
M05
100
AcDbLine
 10
872.980303
 20
450.810596
 30
0.0
 11
872.280303
 21
451.510596
 31
0.0
  0
LINE
  5
221
102
{ACAD_REACTORS
330
137
102
}
100
AcDbEntity
  8
M05
100
AcDbLine
 10
872.980303
 20
450.810596
 30
0.0
 11
872.980303
 21
412.210596
 31
0.0
  0
LINE
  5
222
102
{ACAD_REACTORS
330
137
102
}
100
AcDbEntity
  8
M05
100
AcDbLine
 10
870.980303
 20
411.510596
 30
0.0
 11
872.280303
 21
411.510596
 31
0.0
  0
LINE
  5
223
102
{ACAD_REACTORS
330
137
102
}
100
AcDbEntity
  8
M05
100
AcDbLine
 10
870.980303
 20
451.510596
 30
0.0
 11
872.280303
 21
451.510596
 31
0.0
  0
LINE
  5
224
100
AcDbEntity
  8
M04
100
AcDbLine
 10
861.480303
 20
421.510596
 30
0.0
 11
861.980303
 21
421.010596
 31
0.0
  0
LINE
  5
225
102
{ACAD_REACTORS
330
137
102
}
100
AcDbEntity
  8
M01
100
AcDbLine
 10
861.980303
 20
421.510596
 30
0.0
 11
861.980303
 21
401.510596
 31
0.0
  0
LINE
  5
226
100
AcDbEntity
  8
M04
100
AcDbLine
 10
861.480303
 20
441.510596
 30
0.0
 11
861.980303
 21
442.010596
 31
0.0
  0
LINE
  5
227
102
{ACAD_REACTORS
330
137
102
}
100
AcDbEntity
  8
M05
100
AcDbLine
 10
862.680303
 20
398.810596
 30
0.0
 11
861.980303
 21
399.510596
 31
0.0
  0
LINE
  5
228
102
{ACAD_REACTORS
330
137
102
}
100
AcDbEntity
  8
M05
100
AcDbLine
 10
867.280303
 20
398.810596
 30
0.0
 11
867.980303
 21
399.510596
 31
0.0
  0
LINE
  5
229
102
{ACAD_REACTORS
330
137
102
}
100
AcDbEntity
  8
M05
100
AcDbLine
 10
862.680303
 20
398.810596
 30
0.0
 11
867.280303
 21
398.810596
 31
0.0
  0
LINE
  5
22A
102
{ACAD_REACTORS
330
137
102
}
100
AcDbEntity
  8
M05
100
AcDbLine
 10
862.680303
 20
465.510596
 30
0.0
 11
861.980303
 21
464.810596
 31
0.0
  0
LINE
  5
22B
102
{ACAD_REACTORS
330
137
102
}
100
AcDbEntity
  8
M05
100
AcDbLine
 10
867.280303
 20
465.510596
 30
0.0
 11
867.980303
 21
464.810596
 31
0.0
  0
LINE
  5
22C
102
{ACAD_REACTORS
330
1AB
102
}
100
AcDbEntity
  8
M02
100
AcDbLine
 10
861.980303
 20
466.510596
 30
0.0
 11
864.980303
 21
466.510596
 31
0.0
  0
LINE
  5
22D
102
{ACAD_REACTORS
330
137
102
}
100
AcDbEntity
  8
M05
100
AcDbLine
 10
867.980303
 20
464.810596
 30
0.0
 11
867.980303
 21
451.010596
 31
0.0
  0
LINE
  5
22E
102
{ACAD_REACTORS
330
137
102
}
100
AcDbEntity
  8
M05
100
AcDbLine
 10
862.680303
 20
465.510596
 30
0.0
 11
867.280303
 21
465.510596
 31
0.0
  0
LINE
  5
22F
100
AcDbEntity
  8
M04
100
AcDbLine
 10
852.980303
 20
421.510596
 30
0.0
 11
851.980303
 21
421.510596
 31
0.0
  0
LINE
  5
230
100
AcDbEntity
  8
M04
100
AcDbLine
 10
851.980303
 20
422.510596
 30
0.0
 11
851.980303
 21
421.510596
 31
0.0
  0
LINE
  5
231
100
AcDbEntity
  8
M04
100
AcDbLine
 10
852.980303
 20
441.510596
 30
0.0
 11
851.980303
 21
441.510596
 31
0.0
  0
LINE
  5
232
100
AcDbEntity
  8
M04
100
AcDbLine
 10
851.980303
 20
440.510596
 30
0.0
 11
851.980303
 21
441.510596
 31
0.0
  0
LINE
  5
233
102
{ACAD_REACTORS
330
137
102
}
100
AcDbEntity
  8
M05
100
AcDbLine
 10
851.980303
 20
440.510596
 30
0.0
 11
852.980303
 21
441.510596
 31
0.0
  0
LINE
  5
234
102
{ACAD_REACTORS
330
137
102
}
100
AcDbEntity
  8
M05
100
AcDbLine
 10
852.980303
 20
421.510596
 30
0.0
 11
851.980303
 21
422.510596
 31
0.0
  0
LINE
  5
235
102
{ACAD_REACTORS
330
137
102
}
100
AcDbEntity
  8
M05
100
AcDbLine
 10
851.980303
 20
440.510596
 30
0.0
 11
851.980303
 21
422.510596
 31
0.0
  0
LINE
  5
236
102
{ACAD_REACTORS
330
137
102
}
100
AcDbEntity
  8
M05
100
AcDbLine
 10
852.980303
 20
421.510596
 30
0.0
 11
861.980303
 21
421.510596
 31
0.0
  0
LINE
  5
237
102
{ACAD_REACTORS
330
137
102
}
100
AcDbEntity
  8
M05
100
AcDbLine
 10
852.980303
 20
441.510596
 30
0.0
 11
861.980303
 21
441.510596
 31
0.0
  0
LINE
  5
238
100
AcDbEntity
  8
M04
100
AcDbLine
 10
779.670902
 20
502.010596
 30
0.0
 11
781.980303
 21
506.010596
 31
0.0
  0
LINE
  5
239
100
AcDbEntity
  8
M04
100
AcDbLine
 10
781.980303
 20
498.010596
 30
0.0
 11
779.670902
 21
502.010596
 31
0.0
  0
LINE
  5
23A
100
AcDbEntity
  8
M04
100
AcDbLine
 10
784.980303
 20
498.010596
 30
0.0
 11
781.980303
 21
498.010596
 31
0.0
  0
LINE
  5
23B
100
AcDbEntity
  8
M04
100
AcDbLine
 10
781.980303
 20
506.010596
 30
0.0
 11
781.980303
 21
498.010596
 31
0.0
  0
LINE
  5
23C
100
AcDbEntity
  8
M04
100
AcDbLine
 10
784.980303
 20
506.010596
 30
0.0
 11
781.980303
 21
506.010596
 31
0.0
  0
ARC
  5
23D
100
AcDbEntity
  8
M05
100
AcDbCircle
 10
794.318007
 20
502.010596
 30
0.0
 40
10.837705
100
AcDbArc
 50
161.372238
 51
198.627762
  0
LINE
  5
23E
100
AcDbEntity
  8
M05
100
AcDbLine
 10
784.980303
 20
498.010596
 30
0.0
 11
784.048049
 21
498.548833
 31
0.0
  0
LINE
  5
23F
100
AcDbEntity
  8
M05
100
AcDbLine
 10
784.048049
 20
505.47236
 30
0.0
 11
784.048049
 21
498.548833
 31
0.0
  0
LINE
  5
240
100
AcDbEntity
  8
M05
100
AcDbLine
 10
784.980303
 20
506.010596
 30
0.0
 11
784.048049
 21
505.47236
 31
0.0
  0
LINE
  5
241
100
AcDbEntity
  8
M05
100
AcDbLine
 10
784.980303
 20
506.010596
 30
0.0
 11
784.980303
 21
498.010596
 31
0.0
  0
LINE
  5
242
100
AcDbEntity
  8
M04
100
AcDbLine
 10
794.980303
 20
498.010596
 30
0.0
 11
794.980303
 21
453.235596
 31
0.0
  0
LINE
  5
243
100
AcDbEntity
  8
M04
100
AcDbLine
 10
794.480303
 20
498.010596
 30
0.0
 11
794.980303
 21
497.510596
 31
0.0
  0
LINE
  5
244
100
AcDbEntity
  8
M04
100
AcDbLine
 10
794.480303
 20
506.010596
 30
0.0
 11
794.980303
 21
506.510596
 31
0.0
  0
ARC
  5
245
100
AcDbEntity
  8
M05
100
AcDbCircle
 10
793.846969
 20
502.010596
 30
0.0
 40
13.633333
100
AcDbArc
 50
342.938469
 51
17.061531
  0
LINE
  5
246
100
AcDbEntity
  8
M05
100
AcDbLine
 10
806.880303
 20
506.010596
 30
0.0
 11
806.880303
 21
498.010596
 31
0.0
  0
LINE
  5
247
100
AcDbEntity
  8
M05
100
AcDbLine
 10
784.980303
 20
498.010596
 30
0.0
 11
806.880303
 21
498.010596
 31
0.0
  0
LINE
  5
248
100
AcDbEntity
  8
M05
100
AcDbLine
 10
784.980303
 20
506.010596
 30
0.0
 11
806.880303
 21
506.010596
 31
0.0
  0
CIRCLE
  5
249
100
AcDbEntity
  8
M01
100
AcDbCircle
 10
834.980303
 20
431.510596
 30
0.0
 40
4.0
  0
LINE
  5
24A
100
AcDbEntity
  8
M02
100
AcDbLine
 10
798.980303
 20
420.510596
 30
0.0
 11
801.980303
 21
420.510596
 31
0.0
  0
LINE
  5
24B
102
{ACAD_REACTORS
330
24
102
}
100
AcDbEntity
  8
M02
100
AcDbLine
 10
798.980303
 20
409.785596
 30
0.0
 11
798.980303
 21
401.510596
 31
0.0
  0
LINE
  5
24C
100
AcDbEntity
  8
M04
100
AcDbLine
 10
794.980303
 20
422.010596
 30
0.0
 11
794.980303
 21
392.510596
 31
0.0
  0
LINE
  5
24D
100
AcDbEntity
  8
CENTRE
100
AcDbLine
 10
767.775287
 20
431.510596
 30
0.0
 11
901.872343
 21
431.510596
 31
0.0
  0
LINE
  5
24E
100
AcDbEntity
  8
CENTRE
100
AcDbLine
 10
774.634185
 20
502.010596
 30
0.0
 11
812.723884
 21
502.010596
 31
0.0
  0
LINE
  5
24F
100
AcDbEntity
  8
M04
100
AcDbLine
 10
868.980303
 20
588.182075
 30
0.0
 11
868.980303
 21
451.010596
 31
0.0
  0
LINE
  5
250
100
AcDbEntity
  8
M04
100
AcDbLine
 10
794.980303
 20
392.510596
 30
0.0
 11
868.980303
 21
392.510596
 31
0.0
  0
LINE
  5
251
100
AcDbEntity
  8
M04
100
AcDbLine
 10
794.980303
 20
567.510596
 30
0.0
 11
794.980303
 21
506.010596
 31
0.0
  0
LINE
  5
252
102
{ACAD_REACTORS
330
24
102
}
100
AcDbEntity
  8
M02
100
AcDbLine
 10
801.980303
 20
495.510596
 30
0.0
 11
798.980303
 21
495.510596
 31
0.0
  0
LINE
  5
253
100
AcDbEntity
  8
M01
100
AcDbLine
 10
801.980303
 20
495.510596
 30
0.0
 11
807.980303
 21
495.510596
 31
0.0
  0
LINE
  5
254
100
AcDbEntity
  8
M01
100
AcDbLine
 10
807.980303
 20
507.510596
 30
0.0
 11
807.980303
 21
495.510596
 31
0.0
  0
LINE
  5
255
102
{ACAD_REACTORS
330
1AB
102
}
100
AcDbEntity
  8
M02
100
AcDbLine
 10
861.980303
 20
505.510596
 30
0.0
 11
864.980303
 21
505.510596
 31
0.0
  0
LINE
  5
256
102
{ACAD_REACTORS
330
24
102
}
100
AcDbEntity
  8
M02
100
AcDbLine
 10
801.980303
 20
401.510596
 30
0.0
 11
798.980303
 21
401.510596
 31
0.0
  0
LINE
  5
257
102
{ACAD_REACTORS
330
1AB
102
}
100
AcDbEntity
  8
M02
100
AcDbLine
 10
864.980303
 20
505.510596
 30
0.0
 11
864.980303
 21
465.510596
 31
0.0
  0
LINE
  5
258
102
{ACAD_REACTORS
330
24
102
}
100
AcDbEntity
  8
M02
100
AcDbLine
 10
798.980303
 20
498.010596
 30
0.0
 11
798.980303
 21
453.235596
 31
0.0
  0
LINE
  5
259
100
AcDbEntity
  8
M01
100
AcDbLine
 10
861.980303
 20
401.510596
 30
0.0
 11
859.980303
 21
399.510596
 31
0.0
  0
LINE
  5
25A
100
AcDbEntity
  8
M01
100
AcDbLine
 10
859.980303
 20
507.510596
 30
0.0
 11
861.980303
 21
505.510596
 31
0.0
  0
LINE
  5
25B
100
AcDbEntity
  8
M01
100
AcDbLine
 10
802.980303
 20
506.510596
 30
0.0
 11
803.980303
 21
507.510596
 31
0.0
  0
LINE
  5
25C
100
AcDbEntity
  8
M01
100
AcDbLine
 10
803.980303
 20
399.510596
 30
0.0
 11
801.980303
 21
401.510596
 31
0.0
  0
LINE
  5
25D
102
{ACAD_REACTORS
330
1AB
330
137
102
}
100
AcDbEntity
  8
M01
100
AcDbLine
 10
861.980303
 20
505.510596
 30
0.0
 11
861.980303
 21
460.510596
 31
0.0
  0
LINE
  5
25E
100
AcDbEntity
  8
M01
100
AcDbLine
 10
803.980303
 20
399.510596
 30
0.0
 11
859.980303
 21
399.510596
 31
0.0
  0
LINE
  5
25F
100
AcDbEntity
  8
M01
100
AcDbLine
 10
803.980303
 20
507.510596
 30
0.0
 11
859.980303
 21
507.510596
 31
0.0
  0
LINE
  5
260
102
{ACAD_REACTORS
330
24
102
}
100
AcDbEntity
  8
M01
100
AcDbLine
 10
801.980303
 20
498.010596
 30
0.0
 11
801.980303
 21
401.510596
 31
0.0
  0
LINE
  5
261
100
AcDbEntity
  8
DIMS
 62
     4
100
AcDbLine
 10
644.865534
 20
382.559226
 30
0.0
 11
640.065534
 21
382.559226
 31
0.0
  0
LINE
  5
262
100
AcDbEntity
  8
DIMS
 62
     4
100
AcDbLine
 10
651.665534
 20
382.559226
 30
0.0
 11
656.465534
 21
382.559226
 31
0.0
  0
LINE
  5
263
100
AcDbEntity
  8
DIMS
 62
     4
100
AcDbLine
 10
649.965534
 20
382.559226
 30
0.0
 11
646.565534
 21
382.559226
 31
0.0
  0
CIRCLE
  5
264
100
AcDbEntity
  8
M04
100
AcDbCircle
 10
648.265534
 20
382.559226
 30
0.0
 40
6.5
  0
LINE
  5
265
100
AcDbEntity
  8
DIMS
 62
     4
100
AcDbLine
 10
494.865534
 20
382.559226
 30
0.0
 11
490.065534
 21
382.559226
 31
0.0
  0
LINE
  5
266
100
AcDbEntity
  8
DIMS
 62
     4
100
AcDbLine
 10
501.665534
 20
382.559226
 30
0.0
 11
506.465534
 21
382.559226
 31
0.0
  0
LINE
  5
267
100
AcDbEntity
  8
DIMS
 62
     4
100
AcDbLine
 10
499.965534
 20
382.559226
 30
0.0
 11
496.565534
 21
382.559226
 31
0.0
  0
CIRCLE
  5
268
100
AcDbEntity
  8
M04
100
AcDbCircle
 10
498.265534
 20
382.559226
 30
0.0
 40
6.5
  0
LINE
  5
269
100
AcDbEntity
  8
DIMS
 62
     4
100
AcDbLine
 10
201.665534
 20
382.559226
 30
0.0
 11
206.465534
 21
382.559226
 31
0.0
  0
LINE
  5
26A
100
AcDbEntity
  8
DIMS
 62
     4
100
AcDbLine
 10
194.865534
 20
382.559226
 30
0.0
 11
190.065534
 21
382.559226
 31
0.0
  0
LINE
  5
26B
100
AcDbEntity
  8
DIMS
 62
     4
100
AcDbLine
 10
196.565534
 20
382.559226
 30
0.0
 11
199.965534
 21
382.559226
 31
0.0
  0
CIRCLE
  5
26C
100
AcDbEntity
  8
M04
100
AcDbCircle
 10
198.265534
 20
382.559226
 30
0.0
 40
6.5
  0
LINE
  5
26D
100
AcDbEntity
  8
DIMS
 62
     4
100
AcDbLine
 10
351.665534
 20
382.559226
 30
0.0
 11
356.465534
 21
382.559226
 31
0.0
  0
LINE
  5
26E
100
AcDbEntity
  8
DIMS
 62
     4
100
AcDbLine
 10
344.865534
 20
382.559226
 30
0.0
 11
340.065534
 21
382.559226
 31
0.0
  0
LINE
  5
26F
100
AcDbEntity
  8
DIMS
 62
     4
100
AcDbLine
 10
346.565534
 20
382.559226
 30
0.0
 11
349.965534
 21
382.559226
 31
0.0
  0
CIRCLE
  5
270
100
AcDbEntity
  8
M04
100
AcDbCircle
 10
348.265534
 20
382.559226
 30
0.0
 40
6.5
  0
LINE
  5
271
100
AcDbEntity
  8
DIMS
 62
     4
100
AcDbLine
 10
648.265534
 20
485.959226
 30
0.0
 11
648.265534
 21
490.759226
 31
0.0
  0
LINE
  5
272
100
AcDbEntity
  8
DIMS
 62
     4
100
AcDbLine
 10
648.265534
 20
479.159226
 30
0.0
 11
648.265534
 21
474.359226
 31
0.0
  0
LINE
  5
273
100
AcDbEntity
  8
DIMS
 62
     4
100
AcDbLine
 10
644.865534
 20
482.559226
 30
0.0
 11
640.065534
 21
482.559226
 31
0.0
  0
LINE
  5
274
100
AcDbEntity
  8
DIMS
 62
     4
100
AcDbLine
 10
651.665534
 20
482.559226
 30
0.0
 11
656.465534
 21
482.559226
 31
0.0
  0
LINE
  5
275
100
AcDbEntity
  8
DIMS
 62
     4
100
AcDbLine
 10
648.265534
 20
480.859226
 30
0.0
 11
648.265534
 21
484.259226
 31
0.0
  0
LINE
  5
276
100
AcDbEntity
  8
DIMS
 62
     4
100
AcDbLine
 10
649.965534
 20
482.559226
 30
0.0
 11
646.565534
 21
482.559226
 31
0.0
  0
CIRCLE
  5
277
100
AcDbEntity
  8
M04
100
AcDbCircle
 10
648.265534
 20
482.559226
 30
0.0
 40
6.5
  0
LINE
  5
278
100
AcDbEntity
  8
DIMS
 62
     4
100
AcDbLine
 10
498.265534
 20
485.959226
 30
0.0
 11
498.265534
 21
490.759226
 31
0.0
  0
LINE
  5
279
100
AcDbEntity
  8
DIMS
 62
     4
100
AcDbLine
 10
498.265534
 20
479.159226
 30
0.0
 11
498.265534
 21
474.359226
 31
0.0
  0
LINE
  5
27A
100
AcDbEntity
  8
DIMS
 62
     4
100
AcDbLine
 10
494.865534
 20
482.559226
 30
0.0
 11
490.065534
 21
482.559226
 31
0.0
  0
LINE
  5
27B
100
AcDbEntity
  8
DIMS
 62
     4
100
AcDbLine
 10
501.665534
 20
482.559226
 30
0.0
 11
506.465534
 21
482.559226
 31
0.0
  0
LINE
  5
27C
100
AcDbEntity
  8
DIMS
 62
     4
100
AcDbLine
 10
498.265534
 20
480.859226
 30
0.0
 11
498.265534
 21
484.259226
 31
0.0
  0
LINE
  5
27D
100
AcDbEntity
  8
DIMS
 62
     4
100
AcDbLine
 10
499.965534
 20
482.559226
 30
0.0
 11
496.565534
 21
482.559226
 31
0.0
  0
CIRCLE
  5
27E
100
AcDbEntity
  8
M04
100
AcDbCircle
 10
498.265534
 20
482.559226
 30
0.0
 40
6.5
  0
LINE
  5
27F
100
AcDbEntity
  8
DIMS
 62
     4
100
AcDbLine
 10
198.265534
 20
485.959226
 30
0.0
 11
198.265534
 21
490.759226
 31
0.0
  0
LINE
  5
280
100
AcDbEntity
  8
DIMS
 62
     4
100
AcDbLine
 10
198.265534
 20
479.159226
 30
0.0
 11
198.265534
 21
474.359226
 31
0.0
  0
LINE
  5
281
100
AcDbEntity
  8
DIMS
 62
     4
100
AcDbLine
 10
201.665534
 20
482.559226
 30
0.0
 11
206.465534
 21
482.559226
 31
0.0
  0
LINE
  5
282
100
AcDbEntity
  8
DIMS
 62
     4
100
AcDbLine
 10
194.865534
 20
482.559226
 30
0.0
 11
190.065534
 21
482.559226
 31
0.0
  0
LINE
  5
283
100
AcDbEntity
  8
DIMS
 62
     4
100
AcDbLine
 10
198.265534
 20
480.859226
 30
0.0
 11
198.265534
 21
484.259226
 31
0.0
  0
LINE
  5
284
100
AcDbEntity
  8
DIMS
 62
     4
100
AcDbLine
 10
196.565534
 20
482.559226
 30
0.0
 11
199.965534
 21
482.559226
 31
0.0
  0
CIRCLE
  5
285
100
AcDbEntity
  8
M04
100
AcDbCircle
 10
198.265534
 20
482.559226
 30
0.0
 40
6.5
  0
DIMENSION
  5
286
100
AcDbEntity
  8
DIMS
100
AcDbDimension
  2
*D4
 10
648.265534
 20
350.264883
 30
0.0
 11
573.265534
 21
353.264883
 31
0.0
  1
A=<>
  3
DIM1
100
AcDbAlignedDimension
 13
498.265534
 23
426.859226
 33
0.0
 14
648.265534
 24
415.859226
 34
0.0
100
AcDbRotatedDimension
1001
ACAD
1000
DSTYLE
1002
{
1070
    75
1070
     1
1070
   144
1040
1.0
1070
   287
1070
     4
1002
}
  0
DIMENSION
  5
292
100
AcDbEntity
  8
DIMS
100
AcDbDimension
  2
*D3
 10
498.265534
 20
350.264883
 30
0.0
 11
423.265534
 21
353.264883
 31
0.0
  1
B=<>
  3
DIM1
100
AcDbAlignedDimension
 13
348.265534
 23
426.859226
 33
0.0
 14
498.265534
 24
426.859226
 34
0.0
100
AcDbRotatedDimension
1001
ACAD
1000
DSTYLE
1002
{
1070
    75
1070
     1
1070
   144
1040
1.0
1070
   287
1070
     4
1002
}
  0
DIMENSION
  5
29E
100
AcDbEntity
  8
DIMS
100
AcDbDimension
  2
*D2
 10
348.265534
 20
350.264883
 30
0.0
 11
273.265534
 21
353.264883
 31
0.0
  1
A=<>
  3
DIM1
100
AcDbAlignedDimension
 13
198.265534
 23
415.859226
 33
0.0
 14
348.265534
 24
426.859226
 34
0.0
100
AcDbRotatedDimension
1001
ACAD
1000
DSTYLE
1002
{
1070
   144
1040
1.0
1002
}
  0
LINE
  5
2AB
100
AcDbEntity
  8
DIMS
 62
     4
100
AcDbLine
 10
498.265534
 20
435.959226
 30
0.0
 11
498.265534
 21
438.259226
 31
0.0
  0
LINE
  5
2AC
100
AcDbEntity
  8
DIMS
 62
     4
100
AcDbLine
 10
498.265534
 20
429.159226
 30
0.0
 11
498.265534
 21
426.859226
 31
0.0
  0
LINE
  5
2AD
100
AcDbEntity
  8
DIMS
 62
     4
100
AcDbLine
 10
498.265534
 20
430.859226
 30
0.0
 11
498.265534
 21
434.259226
 31
0.0
  0
LINE
  5
2AE
100
AcDbEntity
  8
DIMS
 62
     4
100
AcDbLine
 10
348.265534
 20
435.959226
 30
0.0
 11
348.265534
 21
438.259226
 31
0.0
  0
LINE
  5
2AF
100
AcDbEntity
  8
DIMS
 62
     4
100
AcDbLine
 10
348.265534
 20
429.159226
 30
0.0
 11
348.265534
 21
426.859226
 31
0.0
  0
LINE
  5
2B0
100
AcDbEntity
  8
DIMS
 62
     4
100
AcDbLine
 10
348.265534
 20
430.859226
 30
0.0
 11
348.265534
 21
434.259226
 31
0.0
  0
CIRCLE
  5
2B1
100
AcDbEntity
  8
M01
100
AcDbCircle
 10
498.265534
 20
432.559226
 30
0.0
 40
4.0
  0
CIRCLE
  5
2B2
100
AcDbEntity
  8
M01
100
AcDbCircle
 10
348.265534
 20
432.559226
 30
0.0
 40
4.0
  0
LINE
  5
2B3
100
AcDbEntity
  8
M04
100
AcDbLine
 10
174.265534
 20
471.559226
 30
0.0
 11
384.265534
 21
471.559226
 31
0.0
  0
POINT
  5
2B4
100
AcDbEntity
  8
DEFPOINTS
  6
BYBLOCK
 62
     0
100
AcDbPoint
 10
423.265534
 20
280.013886
 30
0.0
  0
LINE
  5
2B5
102
{ACAD_REACTORS
330
20
102
}
100
AcDbEntity
  8
M04
100
AcDbLine
 10
413.065534
 20
280.013886
 30
0.0
 11
413.765534
 21
279.313886
 31
0.0
  0
LINE
  5
2B6
102
{ACAD_REACTORS
330
23
102
}
100
AcDbEntity
  8
M04
100
AcDbLine
 10
433.465534
 20
280.013886
 30
0.0
 11
432.765534
 21
279.313886
 31
0.0
  0
HATCH
  5
2B7
100
AcDbEntity
  8
HATCH
100
AcDbHatch
 10
0.0
 20
0.0
 30
0.0
210
0.0
220
0.0
230
1.0
  2
_U
 70
     0
 71
     1
 91
        2
 92
        7
 72
     1
 73
     1
 93
        2
 10
171.2655344179456
 20
276.0138856722448
 42
1.0
 10
179.2655344179456
 20
276.0138856722448
 42
1.0
 97
        1
330
2F2
 92
        7
 72
     1
 73
     1
 93
        2
 10
179.2655344179456
 20
224.0138856722445
 42
1.0
 10
171.2655344179456
 20
224.0138856722445
 42
1.0
 97
        1
330
2E9
 75
     0
 76
     0
 52
45.0
 41
0.8
 77
     0
 78
     1
 53
45.0
 43
-269.681706
 44
-14.472589
 45
-0.565685424949238
 46
0.565685424949238
 79
     0
 47
0.251927
 98
        2
 10
173.802432
 20
277.784946
 10
176.826805
 20
238.988148
  0
HATCH
  5
2B8
100
AcDbEntity
  8
M03
100
AcDbHatch
 10
0.0
 20
0.0
 30
0.0
210
0.0
220
0.0
230
1.0
  2
_U
 70
     0
 71
     0
 91
        1
 92
        7
 72
     0
 73
     1
 93
        4
 10
208.9584716247606
 20
404.4592260810629
 10
179.7200122101252
 20
404.4592260810629
 10
179.7200122101252
 20
402.5592260810629
 10
208.9584716247607
 20
402.559226081063
 97
        0
 75
     0
 76
     0
 52
330.0
 41
0.7
 77
     0
 78
     1
 53
330.0
 43
-282.181706
 44
0.0
 45
0.3500000000000003
 46
0.6062177826491069
 79
     0
 47
0.060863
 98
        1
 10
205.2673
 20
403.271795
  0
HATCH
  5
2B9
100
AcDbEntity
  8
M03
100
AcDbHatch
 10
0.0
 20
0.0
 30
0.0
210
0.0
220
0.0
230
1.0
  2
_U
 70
     0
 71
     0
 91
        1
 92
        7
 72
     0
 73
     1
 93
        4
 10
208.9584716247607
 20
404.4592260810629
 10
179.7200122101251
 20
404.4592260810629
 10
179.7200122101251
 20
402.5592260810628
 10
208.9584716247608
 20
402.559226081063
 97
        0
 75
     0
 76
     0
 52
30.0
 41
0.7
 77
     0
 78
     1
 53
30.0
 43
-282.181706
 44
0.0
 45
-0.3499999999999999
 46
0.6062177826491072
 79
     0
 47
0.060863
 98
        1
 10
205.084636
 20
403.515247
  0
HATCH
  5
2BA
100
AcDbEntity
  8
HATCH
100
AcDbHatch
 10
0.0
 20
0.0
 30
0.0
210
0.0
220
0.0
230
1.0
  2
_U
 70
     0
 71
     1
 91
        2
 92
        7
 72
     0
 73
     1
 93
       11
 10
190.4066524304885
 20
220.0138856722447
 10
184.9655344179457
 20
220.0138856722446
 10
184.2655344179457
 20
219.3138856722447
 10
184.2655344179457
 20
213.7138856722444
 10
184.9655344179456
 20
213.0138856722445
 10
187.7655344179458
 20
213.0138856722445
 10
188.7655344179456
 20
214.0138856722444
 10
190.7655344179452
 20
214.0138856722446
 10
191.7655344179449
 20
213.0138856722445
 10
194.7655344179455
 20
213.0138856722446
 10
194.7655344179455
 20
215.6550036847876
 97
       10
330
4B2
330
3C7
330
3CC
330
3C8
330
4B8
330
2BE
330
2C0
330
2BF
330
3B5
330
3B7
 92
        7
 72
     0
 73
     1
 93
       11
 10
206.1244164054027
 20
220.0138856722446
 10
201.7655344179456
 20
215.6550036847875
 10
201.7655344179456
 20
213.0138856722446
 10
204.7655344179465
 20
213.0138856722446
 10
205.7655344179461
 20
214.0138856722446
 10
207.7655344179456
 20
214.0138856722444
 10
208.7655344179456
 20
213.0138856722445
 10
211.5655344179456
 20
213.0138856722446
 10
212.2655344179455
 20
213.7138856722444
 10
212.2655344179456
 20
219.3138856722447
 10
211.5655344179455
 20
220.0138856722447
 97
       10
330
3C2
330
4B2
330
3B9
330
3B4
330
39C
330
2BC
330
2BD
330
2BB
330
3C3
330
3C4
 75
     0
 76
     0
 52
135.0
 41
1.5
 77
     0
 78
     1
 53
135.0
 43
-302.181706
 44
-27.472589
 45
-1.060660171779821
 46
-1.060660171779821
 79
     0
 47
0.040219
 98
        2
 10
189.417317
 20
217.493456
 10
207.885605
 20
217.051044
  0
LINE
  5
2BB
102
{ACAD_REACTORS
330
2BA
102
}
100
AcDbEntity
  8
M05
100
AcDbLine
 10
207.765534
 20
214.013886
 30
0.0
 11
208.765534
 21
213.013886
 31
0.0
  0
LINE
  5
2BC
102
{ACAD_REACTORS
330
2BA
102
}
100
AcDbEntity
  8
M05
100
AcDbLine
 10
205.765534
 20
214.013886
 30
0.0
 11
204.765534
 21
213.013886
 31
0.0
  0
LINE
  5
2BD
102
{ACAD_REACTORS
330
2BA
102
}
100
AcDbEntity
  8
M05
100
AcDbLine
 10
207.765534
 20
214.013886
 30
0.0
 11
205.765534
 21
214.013886
 31
0.0
  0
LINE
  5
2BE
102
{ACAD_REACTORS
330
2BA
102
}
100
AcDbEntity
  8
M05
100
AcDbLine
 10
188.765534
 20
214.013886
 30
0.0
 11
187.765534
 21
213.013886
 31
0.0
  0
LINE
  5
2BF
102
{ACAD_REACTORS
330
2BA
102
}
100
AcDbEntity
  8
M05
100
AcDbLine
 10
190.765534
 20
214.013886
 30
0.0
 11
191.765534
 21
213.013886
 31
0.0
  0
LINE
  5
2C0
102
{ACAD_REACTORS
330
2BA
102
}
100
AcDbEntity
  8
M05
100
AcDbLine
 10
188.765534
 20
214.013886
 30
0.0
 11
190.765534
 21
214.013886
 31
0.0
  0
HATCH
  5
2C1
100
AcDbEntity
  8
HATCH
100
AcDbHatch
 10
0.0
 20
0.0
 30
0.0
210
0.0
220
0.0
230
1.0
  2
_U
 70
     0
 71
     0
 91
        2
 92
        7
 72
     0
 73
     1
 93
       11
 10
640.4066524304885
 20
220.0138856722446
 10
634.9655344179457
 20
220.0138856722447
 10
634.2655344179457
 20
219.3138856722447
 10
634.2655344179457
 20
213.7138856722444
 10
634.9655344179454
 20
213.0138856722445
 10
637.7655344179457
 20
213.0138856722445
 10
638.7655344179454
 20
214.0138856722444
 10
640.7655344179452
 20
214.0138856722446
 10
641.7655344179447
 20
213.0138856722445
 10
644.7655344179454
 20
213.0138856722445
 10
644.7655344179454
 20
215.6550036847876
 97
        0
 92
        7
 72
     0
 73
     1
 93
       11
 10
662.2655344179456
 20
219.3138856722446
 10
661.5655344179456
 20
220.0138856722446
 10
656.1244164054025
 20
220.0138856722445
 10
651.7655344179456
 20
215.6550036847875
 10
651.7655344179456
 20
213.0138856722445
 10
654.7655344179463
 20
213.0138856722445
 10
655.7655344179461
 20
214.0138856722445
 10
657.7655344179456
 20
214.0138856722444
 10
658.7655344179454
 20
213.0138856722445
 10
661.5655344179456
 20
213.0138856722445
 10
662.2655344179454
 20
213.7138856722443
 97
        0
 75
     0
 76
     0
 52
135.0
 41
1.5
 77
     0
 78
     1
 53
135.0
 43
37.818294
 44
-27.472589
 45
-1.060660171779821
 46
-1.060660171779821
 79
     0
 47
0.151518
 98
        2
 10
638.741465
 20
216.697923
 10
657.385875
 20
217.303994
  0
LINE
  5
2C2
100
AcDbEntity
  8
M05
100
AcDbLine
 10
638.765534
 20
214.013886
 30
0.0
 11
637.765534
 21
213.013886
 31
0.0
  0
LINE
  5
2C3
100
AcDbEntity
  8
M05
100
AcDbLine
 10
640.765534
 20
214.013886
 30
0.0
 11
641.765534
 21
213.013886
 31
0.0
  0
LINE
  5
2C4
100
AcDbEntity
  8
M05
100
AcDbLine
 10
638.765534
 20
214.013886
 30
0.0
 11
640.765534
 21
214.013886
 31
0.0
  0
LINE
  5
2C5
100
AcDbEntity
  8
M05
100
AcDbLine
 10
657.765534
 20
214.013886
 30
0.0
 11
658.765534
 21
213.013886
 31
0.0
  0
LINE
  5
2C6
100
AcDbEntity
  8
M05
100
AcDbLine
 10
655.765534
 20
214.013886
 30
0.0
 11
654.765534
 21
213.013886
 31
0.0
  0
LINE
  5
2C7
100
AcDbEntity
  8
M05
100
AcDbLine
 10
657.765534
 20
214.013886
 30
0.0
 11
655.765534
 21
214.013886
 31
0.0
  0
LINE
  5
2C8
102
{ACAD_REACTORS
330
22
102
}
100
AcDbEntity
  8
M02
100
AcDbLine
 10
630.265534
 20
280.013886
 30
0.0
 11
630.265534
 21
283.013886
 31
0.0
  0
LINE
  5
2C9
102
{ACAD_REACTORS
330
22
102
}
100
AcDbEntity
  8
M02
100
AcDbLine
 10
666.265534
 20
280.013886
 30
0.0
 11
666.265534
 21
283.013886
 31
0.0
  0
MTEXT
  5
2CA
100
AcDbEntity
  8
0
  6
BYBLOCK
 62
     2
100
AcDbMText
 10
496.201285
 20
508.3582
 30
0.0
 40
3.0
 41
0.0
 71
     4
 72
     1
  1
M12 PLATE RETAINING SCREWS SHOULD ALSO BE FITTED.\PMINIMUM 2 PER DROP & ALSO AROUND MANIFOLD POCKET.
  0
SOLID
  5
2CB
100
AcDbEntity
  8
0
  6
BYBLOCK
 62
     4
100
AcDbTrace
 10
505.304975
 20
488.968819
 30
0.0
 11
504.463
 21
489.508335
 31
0.0
 12
503.265442
 22
486.71265
 32
0.0
 13
503.265442
 23
486.71265
 33
0.0
  0
LINE
  5
2CC
100
AcDbEntity
  8
0
  6
BYBLOCK
 62
     4
100
AcDbLine
 10
504.883988
 20
489.238577
 30
0.0
 11
512.366419
 21
501.206208
 31
0.0
  0
LINE
  5
2CD
100
AcDbEntity
  8
M01
100
AcDbLine
 10
438.515534
 20
530.503326
 30
0.0
 11
432.015534
 21
530.503326
 31
0.0
  0
LINE
  5
2CE
100
AcDbEntity
  8
M01
100
AcDbLine
 10
438.515534
 20
538.615126
 30
0.0
 11
432.015534
 21
538.615126
 31
0.0
  0
LINE
  5
2CF
100
AcDbEntity
  8
M01
100
AcDbLine
 10
438.515534
 20
530.503326
 30
0.0
 11
438.515534
 21
528.559226
 31
0.0
  0
ARC
  5
2D0
100
AcDbEntity
  8
M01
100
AcDbCircle
 10
439.765534
 20
532.064576
 30
0.0
 40
2.0
100
AcDbArc
 50
180.0
 51
231.317813
  0
ARC
  5
2D1
100
AcDbEntity
  8
M01
100
AcDbCircle
 10
439.765534
 20
537.053876
 30
0.0
 40
2.0
100
AcDbArc
 50
128.682187
 51
180.0
  0
LINE
  5
2D2
100
AcDbEntity
  8
M01
100
AcDbLine
 10
438.515534
 20
540.559226
 30
0.0
 11
438.515534
 21
538.615126
 31
0.0
  0
LINE
  5
2D3
100
AcDbEntity
  8
M01
100
AcDbLine
 10
437.765534
 20
537.053876
 30
0.0
 11
437.765534
 21
532.064576
 31
0.0
  0
LINE
  5
2D4
100
AcDbEntity
  8
M01
100
AcDbLine
 10
432.015534
 20
530.503326
 30
0.0
 11
432.015534
 21
528.559226
 31
0.0
  0
ARC
  5
2D5
100
AcDbEntity
  8
M01
100
AcDbCircle
 10
430.765534
 20
532.064576
 30
0.0
 40
2.0
100
AcDbArc
 50
308.682187
 51
0.0
  0
ARC
  5
2D6
100
AcDbEntity
  8
M01
100
AcDbCircle
 10
430.765534
 20
537.053876
 30
0.0
 40
2.0
100
AcDbArc
 50
0.0
 51
51.317813
  0
LINE
  5
2D7
100
AcDbEntity
  8
M01
100
AcDbLine
 10
432.015534
 20
540.559226
 30
0.0
 11
432.015534
 21
538.615126
 31
0.0
  0
LINE
  5
2D8
100
AcDbEntity
  8
M01
100
AcDbLine
 10
432.765534
 20
537.053876
 30
0.0
 11
432.765534
 21
532.064576
 31
0.0
  0
LINE
  5
2D9
100
AcDbEntity
  8
DIMS
 62
     4
100
AcDbLine
 10
348.265534
 20
485.959226
 30
0.0
 11
348.265534
 21
490.759226
 31
0.0
  0
LINE
  5
2DA
100
AcDbEntity
  8
DIMS
 62
     4
100
AcDbLine
 10
348.265534
 20
479.159226
 30
0.0
 11
348.265534
 21
474.359226
 31
0.0
  0
LINE
  5
2DB
100
AcDbEntity
  8
DIMS
 62
     4
100
AcDbLine
 10
351.665534
 20
482.559226
 30
0.0
 11
356.465534
 21
482.559226
 31
0.0
  0
LINE
  5
2DC
100
AcDbEntity
  8
DIMS
 62
     4
100
AcDbLine
 10
344.865534
 20
482.559226
 30
0.0
 11
340.065534
 21
482.559226
 31
0.0
  0
LINE
  5
2DD
100
AcDbEntity
  8
DIMS
 62
     4
100
AcDbLine
 10
348.265534
 20
480.859226
 30
0.0
 11
348.265534
 21
484.259226
 31
0.0
  0
LINE
  5
2DE
100
AcDbEntity
  8
DIMS
 62
     4
100
AcDbLine
 10
346.565534
 20
482.559226
 30
0.0
 11
349.965534
 21
482.559226
 31
0.0
  0
CIRCLE
  5
2DF
100
AcDbEntity
  8
M04
100
AcDbCircle
 10
348.265534
 20
482.559226
 30
0.0
 40
6.5
  0
HATCH
  5
2E0
100
AcDbEntity
  8
DIMS
100
AcDbHatch
 10
0.0
 20
0.0
 30
0.0
210
0.0
220
0.0
230
1.0
  2
_U
 70
     0
 71
     1
 91
        5
 92
        7
 72
     0
 73
     1
 93
        9
 10
454.7655344179457
 20
218.0138856722444
 10
454.7655344179457
 20
214.0138856722445
 10
456.5655344179458
 20
214.0138856722445
 10
457.2655344179459
 20
214.7138856722445
 10
457.2655344179459
 20
219.3138856722446
 10
456.5655344179456
 20
220.0138856722447
 10
452.9655344179457
 20
220.0138856722447
 10
452.9655344179456
 20
218.0138856722445
 10
454.5155344179459
 20
218.0138856722445
 97
        9
330
496
330
31F
330
333
330
324
330
338
330
326
330
499
330
497
330
49A
 92
        7
 72
     1
 73
     1
 93
       16
 10
442.5655344179456
 20
209.0138856722445
 42
0.0
 10
443.2655344179457
 20
209.7138856722446
 42
0.0
 10
443.2655344179456
 20
211.0138856722446
 42
0.0
 10
442.7655344179457
 20
211.0138856722445
 42
0.0
 10
442.7655344179457
 20
214.0138856722445
 42
0.0
 10
443.7655344179457
 20
214.0138856722445
 42
0.0
 10
443.7655344179457
 20
218.0138856722445
 42
0.0
 10
444.0155344179458
 20
218.0138856722445
 42
0.0
 10
445.5655344179456
 20
218.0138856722445
 42
0.0
 10
445.5655344179457
 20
220.0138856722447
 42
0.0
 10
433.2655344179455
 20
220.0138856722447
 42
0.0
 10
433.2655344179455
 20
229.0138856722444
 42
0.0
 10
432.2655344179455
 20
230.0138856722444
 42
0.0
 10
427.2655344179457
 20
230.0138856722445
 42
0.0
 10
426.3064084158416
 20
211.7126713253457
 42
-0.1092323044357261
 10
432.4306858078571
 20
209.0138856722444
 42
0.0
 97
       16
330
499
330
327
330
325
330
324
330
332
330
477
330
4A3
330
49F
330
4A1
330
480
330
481
330
48F
330
48E
330
491
330
48C
330
48B
 92
        7
 72
     1
 73
     1
 93
       16
 10
420.2246604200495
 20
211.7126713253457
 42
0.0
 10
419.2655344179457
 20
230.0138856722445
 42
0.0
 10
414.2655344179456
 20
230.0138856722445
 42
0.0
 10
413.2655344179457
 20
229.0138856722445
 42
0.0
 10
413.2655344179457
 20
220.0138856722447
 42
0.0
 10
400.9655344179456
 20
220.0138856722447
 42
0.0
 10
400.9655344179456
 20
218.0138856722445
 42
0.0
 10
402.5155344179455
 20
218.0138856722445
 42
0.0
 10
402.7655344179455
 20
218.0138856722445
 42
0.0
 10
402.7655344179455
 20
214.0138856722446
 42
0.0
 10
403.7655344179457
 20
214.0138856722446
 42
0.0
 10
403.7655344179456
 20
211.0138856722443
 42
0.0
 10
403.2655344179458
 20
211.0138856722443
 42
0.0
 10
403.2655344179456
 20
209.7138856722442
 42
0.0
 10
403.9655344179458
 20
209.0138856722442
 42
0.0
 10
414.1003830280339
 20
209.0138856722443
 42
-0.1092323044357273
 97
       16
330
4A1
330
4A0
330
4A2
330
4B2
330
317
330
309
330
30A
330
30C
330
489
330
48A
330
488
330
490
330
48D
330
48F
330
47D
330
47F
 92
        7
 72
     0
 73
     1
 93
        9
 10
391.7655344179456
 20
218.0138856722444
 10
392.0155344179454
 20
218.0138856722444
 10
393.5655344179456
 20
218.0138856722444
 10
393.5655344179456
 20
220.0138856722447
 10
389.9655344179455
 20
220.0138856722447
 10
389.2655344179454
 20
219.3138856722447
 10
389.2655344179454
 20
214.7138856722445
 10
389.9655344179453
 20
214.0138856722446
 10
391.7655344179456
 20
214.0138856722446
 97
        9
330
4B2
330
494
330
495
330
475
330
489
330
30B
330
31D
330
309
330
318
 92
       24
 93
        4
 72
     1
 10
427.839615
 20
215.081373
 11
442.211044
 21
215.081373
 72
     1
 10
442.211044
 20
215.081373
 11
442.211044
 21
218.081373
 72
     1
 10
442.211044
 20
218.081373
 11
427.839615
 21
218.081373
 72
     1
 10
427.839615
 20
218.081373
 11
427.839615
 21
215.081373
 97
        1
330
471
 75
     0
 76
     0
 52
135.0
 41
2.5
 77
     0
 78
     1
 53
135.0
 43
-132.181706
 44
-27.472589
 45
-1.767766952966368
 46
-1.767766952966368
 79
     0
 47
0.085632
 98
        4
 10
455.762497
 20
218.37187
 10
438.115052
 20
212.377641
 10
415.327573
 20
213.576487
 10
391.083754
 20
218.37187
  0
LINE
  5
2E1
100
AcDbEntity
  8
DIMS
 62
     4
100
AcDbLine
 10
171.865534
 20
224.013886
 30
0.0
 11
169.565534
 21
224.013886
 31
0.0
  0
LINE
  5
2E2
100
AcDbEntity
  8
DIMS
 62
     4
100
AcDbLine
 10
178.665534
 20
224.013886
 30
0.0
 11
180.965534
 21
224.013886
 31
0.0
  0
LINE
  5
2E3
100
AcDbEntity
  8
DIMS
 62
     4
100
AcDbLine
 10
175.265534
 20
227.413886
 30
0.0
 11
175.265534
 21
229.713886
 31
0.0
  0
LINE
  5
2E4
100
AcDbEntity
  8
DIMS
 62
     4
100
AcDbLine
 10
175.265534
 20
220.613886
 30
0.0
 11
175.265534
 21
218.313886
 31
0.0
  0
LINE
  5
2E5
100
AcDbEntity
  8
DIMS
 62
     4
100
AcDbLine
 10
176.965534
 20
224.013886
 30
0.0
 11
173.565534
 21
224.013886
 31
0.0
  0
LINE
  5
2E6
100
AcDbEntity
  8
DIMS
 62
     4
100
AcDbLine
 10
175.265534
 20
222.313886
 30
0.0
 11
175.265534
 21
225.713886
 31
0.0
  0
LINE
  5
2E7
102
{ACAD_REACTORS
330
20
102
}
100
AcDbEntity
  8
M01
100
AcDbLine
 10
179.265534
 20
224.013886
 30
0.0
 11
179.265534
 21
220.013886
 31
0.0
  0
LINE
  5
2E8
102
{ACAD_REACTORS
330
20
102
}
100
AcDbEntity
  8
M01
100
AcDbLine
 10
171.265534
 20
224.013886
 30
0.0
 11
171.265534
 21
220.013886
 31
0.0
  0
CIRCLE
  5
2E9
102
{ACAD_REACTORS
330
2B7
330
20
102
}
100
AcDbEntity
  8
M01
100
AcDbCircle
 10
175.265534
 20
224.013886
 30
0.0
 40
4.0
  0
LINE
  5
2EA
100
AcDbEntity
  8
DIMS
 62
     4
100
AcDbLine
 10
171.865534
 20
276.013886
 30
0.0
 11
169.565534
 21
276.013886
 31
0.0
  0
LINE
  5
2EB
100
AcDbEntity
  8
DIMS
 62
     4
100
AcDbLine
 10
178.665534
 20
276.013886
 30
0.0
 11
180.965534
 21
276.013886
 31
0.0
  0
LINE
  5
2EC
100
AcDbEntity
  8
DIMS
 62
     4
100
AcDbLine
 10
175.265534
 20
272.613886
 30
0.0
 11
175.265534
 21
270.313886
 31
0.0
  0
LINE
  5
2ED
100
AcDbEntity
  8
DIMS
 62
     4
100
AcDbLine
 10
175.265534
 20
279.413886
 30
0.0
 11
175.265534
 21
281.713886
 31
0.0
  0
LINE
  5
2EE
100
AcDbEntity
  8
DIMS
 62
     4
100
AcDbLine
 10
176.965534
 20
276.013886
 30
0.0
 11
173.565534
 21
276.013886
 31
0.0
  0
LINE
  5
2EF
100
AcDbEntity
  8
DIMS
 62
     4
100
AcDbLine
 10
175.265534
 20
277.713886
 30
0.0
 11
175.265534
 21
274.313886
 31
0.0
  0
LINE
  5
2F0
102
{ACAD_REACTORS
330
20
102
}
100
AcDbEntity
  8
M01
100
AcDbLine
 10
179.265534
 20
276.013886
 30
0.0
 11
179.265534
 21
280.013886
 31
0.0
  0
LINE
  5
2F1
102
{ACAD_REACTORS
330
20
102
}
100
AcDbEntity
  8
M01
100
AcDbLine
 10
171.265534
 20
276.013886
 30
0.0
 11
171.265534
 21
280.013886
 31
0.0
  0
CIRCLE
  5
2F2
102
{ACAD_REACTORS
330
2B7
330
20
102
}
100
AcDbEntity
  8
M01
100
AcDbCircle
 10
175.265534
 20
276.013886
 30
0.0
 40
4.0
  0
LINE
  5
2F3
100
AcDbEntity
  8
DIMS
 62
     4
100
AcDbLine
 10
674.665534
 20
224.013886
 30
0.0
 11
676.965534
 21
224.013886
 31
0.0
  0
LINE
  5
2F4
100
AcDbEntity
  8
DIMS
 62
     4
100
AcDbLine
 10
667.865534
 20
224.013886
 30
0.0
 11
665.565534
 21
224.013886
 31
0.0
  0
LINE
  5
2F5
100
AcDbEntity
  8
DIMS
 62
     4
100
AcDbLine
 10
671.265534
 20
227.413886
 30
0.0
 11
671.265534
 21
229.713886
 31
0.0
  0
LINE
  5
2F6
100
AcDbEntity
  8
DIMS
 62
     4
100
AcDbLine
 10
671.265534
 20
220.613886
 30
0.0
 11
671.265534
 21
218.313886
 31
0.0
  0
LINE
  5
2F7
100
AcDbEntity
  8
DIMS
 62
     4
100
AcDbLine
 10
669.565534
 20
224.013886
 30
0.0
 11
672.965534
 21
224.013886
 31
0.0
  0
LINE
  5
2F8
100
AcDbEntity
  8
DIMS
 62
     4
100
AcDbLine
 10
671.265534
 20
222.313886
 30
0.0
 11
671.265534
 21
225.713886
 31
0.0
  0
LINE
  5
2F9
102
{ACAD_REACTORS
330
23
102
}
100
AcDbEntity
  8
M01
100
AcDbLine
 10
667.265534
 20
224.013886
 30
0.0
 11
667.265534
 21
220.013886
 31
0.0
  0
LINE
  5
2FA
102
{ACAD_REACTORS
330
23
102
}
100
AcDbEntity
  8
M01
100
AcDbLine
 10
675.265534
 20
224.013886
 30
0.0
 11
675.265534
 21
220.013886
 31
0.0
  0
CIRCLE
  5
2FB
102
{ACAD_REACTORS
330
C2
330
23
102
}
100
AcDbEntity
  8
M01
100
AcDbCircle
 10
671.265534
 20
224.013886
 30
0.0
 40
4.0
  0
LINE
  5
2FC
100
AcDbEntity
  8
DIMS
 62
     4
100
AcDbLine
 10
674.665534
 20
276.013886
 30
0.0
 11
676.965534
 21
276.013886
 31
0.0
  0
LINE
  5
2FD
100
AcDbEntity
  8
DIMS
 62
     4
100
AcDbLine
 10
667.865534
 20
276.013886
 30
0.0
 11
665.565534
 21
276.013886
 31
0.0
  0
LINE
  5
2FE
100
AcDbEntity
  8
DIMS
 62
     4
100
AcDbLine
 10
671.265534
 20
272.613886
 30
0.0
 11
671.265534
 21
270.313886
 31
0.0
  0
LINE
  5
2FF
100
AcDbEntity
  8
DIMS
 62
     4
100
AcDbLine
 10
671.265534
 20
279.413886
 30
0.0
 11
671.265534
 21
281.713886
 31
0.0
  0
LINE
  5
300
100
AcDbEntity
  8
DIMS
 62
     4
100
AcDbLine
 10
669.565534
 20
276.013886
 30
0.0
 11
672.965534
 21
276.013886
 31
0.0
  0
LINE
  5
301
100
AcDbEntity
  8
DIMS
 62
     4
100
AcDbLine
 10
671.265534
 20
277.713886
 30
0.0
 11
671.265534
 21
274.313886
 31
0.0
  0
LINE
  5
302
102
{ACAD_REACTORS
330
23
102
}
100
AcDbEntity
  8
M01
100
AcDbLine
 10
667.265534
 20
276.013886
 30
0.0
 11
667.265534
 21
280.013886
 31
0.0
  0
LINE
  5
303
102
{ACAD_REACTORS
330
23
102
}
100
AcDbEntity
  8
M01
100
AcDbLine
 10
675.265534
 20
276.013886
 30
0.0
 11
675.265534
 21
280.013886
 31
0.0
  0
CIRCLE
  5
304
102
{ACAD_REACTORS
330
C2
330
23
102
}
100
AcDbEntity
  8
M01
100
AcDbCircle
 10
671.265534
 20
276.013886
 30
0.0
 40
4.0
  0
LINE
  5
305
102
{ACAD_REACTORS
330
20
102
}
100
AcDbEntity
  8
M04
100
AcDbLine
 10
400.265534
 20
227.313886
 30
0.0
 11
400.265534
 21
229.813886
 31
0.0
  0
LINE
  5
306
102
{ACAD_REACTORS
330
20
102
}
100
AcDbEntity
  8
M04
100
AcDbLine
 10
399.565534
 20
228.013886
 30
0.0
 11
399.565534
 21
231.313886
 31
0.0
  0
LINE
  5
307
102
{ACAD_REACTORS
330
20
102
}
100
AcDbEntity
  8
M04
100
AcDbLine
 10
394.265534
 20
227.313886
 30
0.0
 11
394.265534
 21
229.813886
 31
0.0
  0
LINE
  5
308
102
{ACAD_REACTORS
330
20
102
}
100
AcDbEntity
  8
M04
100
AcDbLine
 10
394.965534
 20
228.013886
 30
0.0
 11
394.965534
 21
231.313886
 31
0.0
  0
LINE
  5
309
102
{ACAD_REACTORS
330
2E0
102
}
100
AcDbEntity
  8
M05
100
AcDbLine
 10
392.015534
 20
218.013886
 30
0.0
 11
402.515534
 21
218.013886
 31
0.0
  0
LINE
  5
30A
102
{ACAD_REACTORS
330
2E0
102
}
100
AcDbEntity
  8
M04
100
AcDbLine
 10
402.515534
 20
218.013886
 30
0.0
 11
402.765534
 21
218.013886
 31
0.0
  0
LINE
  5
30B
102
{ACAD_REACTORS
330
2E0
102
}
100
AcDbEntity
  8
M04
100
AcDbLine
 10
391.765534
 20
218.013886
 30
0.0
 11
391.765534
 21
214.013886
 31
0.0
  0
LINE
  5
30C
102
{ACAD_REACTORS
330
2E0
102
}
100
AcDbEntity
  8
M04
100
AcDbLine
 10
402.765534
 20
218.013886
 30
0.0
 11
402.765534
 21
214.013886
 31
0.0
  0
LINE
  5
30D
100
AcDbEntity
  8
M05
100
AcDbLine
 10
400.265534
 20
219.013886
 30
0.0
 11
394.265534
 21
219.013886
 31
0.0
  0
LINE
  5
30E
102
{ACAD_REACTORS
330
20
102
}
100
AcDbEntity
  8
M04
100
AcDbLine
 10
394.965534
 20
231.313886
 30
0.0
 11
397.265534
 21
232.641791
 31
0.0
  0
LINE
  5
30F
102
{ACAD_REACTORS
330
20
102
}
100
AcDbEntity
  8
M04
100
AcDbLine
 10
399.565534
 20
231.313886
 30
0.0
 11
397.265534
 21
232.641791
 31
0.0
  0
LINE
  5
310
100
AcDbEntity
  8
M04
100
AcDbLine
 10
399.565534
 20
231.313886
 30
0.0
 11
394.965534
 21
231.313886
 31
0.0
  0
LINE
  5
311
102
{ACAD_REACTORS
330
20
102
}
100
AcDbEntity
  8
M04
100
AcDbLine
 10
400.265534
 20
229.813886
 30
0.0
 11
394.265534
 21
229.813886
 31
0.0
  0
ARC
  5
312
100
AcDbEntity
  8
M05
100
AcDbCircle
 10
397.265534
 20
220.540022
 30
0.0
 40
5.826136
100
AcDbArc
 50
205.69541
 51
334.30459
  0
LINE
  5
313
100
AcDbEntity
  8
M05
100
AcDbLine
 10
394.265534
 20
227.313886
 30
0.0
 11
394.965534
 21
228.013886
 31
0.0
  0
LINE
  5
314
100
AcDbEntity
  8
M05
100
AcDbLine
 10
400.265534
 20
227.313886
 30
0.0
 11
399.565534
 21
228.013886
 31
0.0
  0
LINE
  5
315
100
AcDbEntity
  8
M05
100
AcDbLine
 10
400.265534
 20
227.313886
 30
0.0
 11
394.265534
 21
227.313886
 31
0.0
  0
LINE
  5
316
100
AcDbEntity
  8
M05
100
AcDbLine
 10
399.565534
 20
228.013886
 30
0.0
 11
394.965534
 21
228.013886
 31
0.0
  0
LINE
  5
317
102
{ACAD_REACTORS
330
2E0
102
}
100
AcDbEntity
  8
M04
100
AcDbLine
 10
400.965534
 20
220.013886
 30
0.0
 11
400.965534
 21
218.013886
 31
0.0
  0
LINE
  5
318
102
{ACAD_REACTORS
330
2E0
102
}
100
AcDbEntity
  8
M04
100
AcDbLine
 10
393.565534
 20
220.013886
 30
0.0
 11
393.565534
 21
218.013886
 31
0.0
  0
LINE
  5
319
100
AcDbEntity
  8
M05
100
AcDbLine
 10
394.965534
 20
228.013886
 30
0.0
 11
394.965534
 21
219.013886
 31
0.0
  0
LINE
  5
31A
100
AcDbEntity
  8
M05
100
AcDbLine
 10
399.565534
 20
228.013886
 30
0.0
 11
399.565534
 21
219.013886
 31
0.0
  0
LINE
  5
31B
102
{ACAD_REACTORS
330
20
102
}
100
AcDbEntity
  8
M05
100
AcDbLine
 10
400.265534
 20
227.313886
 30
0.0
 11
400.265534
 21
218.013886
 31
0.0
  0
LINE
  5
31C
102
{ACAD_REACTORS
330
20
102
}
100
AcDbEntity
  8
M05
100
AcDbLine
 10
394.265534
 20
227.313886
 30
0.0
 11
394.265534
 21
218.013886
 31
0.0
  0
LINE
  5
31D
102
{ACAD_REACTORS
330
2E0
102
}
100
AcDbEntity
  8
M04
100
AcDbLine
 10
391.765534
 20
218.013886
 30
0.0
 11
392.015534
 21
218.013886
 31
0.0
  0
LINE
  5
31E
100
AcDbEntity
  8
CENTRE
100
AcDbLine
 10
397.265534
 20
235.280386
 30
0.0
 11
397.265534
 21
210.367697
 31
0.0
  0
LINE
  5
31F
102
{ACAD_REACTORS
330
2E0
330
C1
330
23
102
}
100
AcDbEntity
  8
M01
100
AcDbLine
 10
452.265534
 20
220.013886
 30
0.0
 11
678.265534
 21
220.013886
 31
0.0
  0
LINE
  5
320
102
{ACAD_REACTORS
330
23
102
}
100
AcDbEntity
  8
M04
100
AcDbLine
 10
446.265534
 20
227.313886
 30
0.0
 11
446.265534
 21
229.813886
 31
0.0
  0
LINE
  5
321
102
{ACAD_REACTORS
330
23
102
}
100
AcDbEntity
  8
M04
100
AcDbLine
 10
446.965534
 20
228.013886
 30
0.0
 11
446.965534
 21
231.313886
 31
0.0
  0
LINE
  5
322
102
{ACAD_REACTORS
330
23
102
}
100
AcDbEntity
  8
M04
100
AcDbLine
 10
452.265534
 20
227.313886
 30
0.0
 11
452.265534
 21
229.813886
 31
0.0
  0
LINE
  5
323
102
{ACAD_REACTORS
330
23
102
}
100
AcDbEntity
  8
M04
100
AcDbLine
 10
451.565534
 20
228.013886
 30
0.0
 11
451.565534
 21
231.313886
 31
0.0
  0
LINE
  5
324
102
{ACAD_REACTORS
330
2E0
102
}
100
AcDbEntity
  8
M05
100
AcDbLine
 10
454.515534
 20
218.013886
 30
0.0
 11
444.015534
 21
218.013886
 31
0.0
  0
LINE
  5
325
102
{ACAD_REACTORS
330
2E0
102
}
100
AcDbEntity
  8
M04
100
AcDbLine
 10
444.015534
 20
218.013886
 30
0.0
 11
443.765534
 21
218.013886
 31
0.0
  0
LINE
  5
326
102
{ACAD_REACTORS
330
2E0
102
}
100
AcDbEntity
  8
M04
100
AcDbLine
 10
454.765534
 20
218.013886
 30
0.0
 11
454.765534
 21
214.013886
 31
0.0
  0
LINE
  5
327
102
{ACAD_REACTORS
330
2E0
102
}
100
AcDbEntity
  8
M04
100
AcDbLine
 10
443.765534
 20
218.013886
 30
0.0
 11
443.765534
 21
214.013886
 31
0.0
  0
LINE
  5
328
100
AcDbEntity
  8
M05
100
AcDbLine
 10
446.265534
 20
219.013886
 30
0.0
 11
452.265534
 21
219.013886
 31
0.0
  0
LINE
  5
329
102
{ACAD_REACTORS
330
23
102
}
100
AcDbEntity
  8
M04
100
AcDbLine
 10
451.565534
 20
231.313886
 30
0.0
 11
449.265534
 21
232.641791
 31
0.0
  0
LINE
  5
32A
102
{ACAD_REACTORS
330
23
102
}
100
AcDbEntity
  8
M04
100
AcDbLine
 10
446.965534
 20
231.313886
 30
0.0
 11
449.265534
 21
232.641791
 31
0.0
  0
LINE
  5
32B
100
AcDbEntity
  8
M04
100
AcDbLine
 10
446.965534
 20
231.313886
 30
0.0
 11
451.565534
 21
231.313886
 31
0.0
  0
LINE
  5
32C
102
{ACAD_REACTORS
330
23
102
}
100
AcDbEntity
  8
M04
100
AcDbLine
 10
446.265534
 20
229.813886
 30
0.0
 11
452.265534
 21
229.813886
 31
0.0
  0
ARC
  5
32D
100
AcDbEntity
  8
M05
100
AcDbCircle
 10
449.265534
 20
220.540022
 30
0.0
 40
5.826136
100
AcDbArc
 50
205.69541
 51
334.30459
  0
LINE
  5
32E
100
AcDbEntity
  8
M05
100
AcDbLine
 10
452.265534
 20
227.313886
 30
0.0
 11
451.565534
 21
228.013886
 31
0.0
  0
LINE
  5
32F
100
AcDbEntity
  8
M05
100
AcDbLine
 10
446.265534
 20
227.313886
 30
0.0
 11
446.965534
 21
228.013886
 31
0.0
  0
LINE
  5
330
100
AcDbEntity
  8
M05
100
AcDbLine
 10
446.265534
 20
227.313886
 30
0.0
 11
452.265534
 21
227.313886
 31
0.0
  0
LINE
  5
331
100
AcDbEntity
  8
M05
100
AcDbLine
 10
446.965534
 20
228.013886
 30
0.0
 11
451.565534
 21
228.013886
 31
0.0
  0
LINE
  5
332
102
{ACAD_REACTORS
330
2E0
102
}
100
AcDbEntity
  8
M04
100
AcDbLine
 10
445.565534
 20
220.013886
 30
0.0
 11
445.565534
 21
218.013886
 31
0.0
  0
LINE
  5
333
102
{ACAD_REACTORS
330
2E0
102
}
100
AcDbEntity
  8
M04
100
AcDbLine
 10
452.965534
 20
220.013886
 30
0.0
 11
452.965534
 21
218.013886
 31
0.0
  0
LINE
  5
334
100
AcDbEntity
  8
M05
100
AcDbLine
 10
451.565534
 20
228.013886
 30
0.0
 11
451.565534
 21
219.013886
 31
0.0
  0
LINE
  5
335
100
AcDbEntity
  8
M05
100
AcDbLine
 10
446.965534
 20
228.013886
 30
0.0
 11
446.965534
 21
219.013886
 31
0.0
  0
LINE
  5
336
102
{ACAD_REACTORS
330
23
102
}
100
AcDbEntity
  8
M05
100
AcDbLine
 10
446.265534
 20
227.313886
 30
0.0
 11
446.265534
 21
218.013886
 31
0.0
  0
LINE
  5
337
102
{ACAD_REACTORS
330
23
102
}
100
AcDbEntity
  8
M05
100
AcDbLine
 10
452.265534
 20
227.313886
 30
0.0
 11
452.265534
 21
218.013886
 31
0.0
  0
LINE
  5
338
102
{ACAD_REACTORS
330
2E0
102
}
100
AcDbEntity
  8
M04
100
AcDbLine
 10
454.765534
 20
218.013886
 30
0.0
 11
454.515534
 21
218.013886
 31
0.0
  0
LINE
  5
339
100
AcDbEntity
  8
CENTRE
100
AcDbLine
 10
449.265534
 20
235.280386
 30
0.0
 11
449.265534
 21
210.367697
 31
0.0
  0
LINE
  5
33A
100
AcDbEntity
  8
DIMS
 62
     4
100
AcDbLine
 10
397.265534
 20
435.959226
 30
0.0
 11
397.265534
 21
439.759226
 31
0.0
  0
LINE
  5
33B
100
AcDbEntity
  8
DIMS
 62
     4
100
AcDbLine
 10
397.265534
 20
429.159226
 30
0.0
 11
397.265534
 21
425.359226
 31
0.0
  0
LINE
  5
33C
100
AcDbEntity
  8
DIMS
 62
     4
100
AcDbLine
 10
397.265534
 20
430.859226
 30
0.0
 11
397.265534
 21
434.259226
 31
0.0
  0
LINE
  5
33D
100
AcDbEntity
  8
DIMS
 62
     4
100
AcDbLine
 10
449.265534
 20
435.959226
 30
0.0
 11
449.265534
 21
439.759226
 31
0.0
  0
LINE
  5
33E
100
AcDbEntity
  8
DIMS
 62
     4
100
AcDbLine
 10
449.265534
 20
429.159226
 30
0.0
 11
449.265534
 21
425.359226
 31
0.0
  0
LINE
  5
33F
100
AcDbEntity
  8
DIMS
 62
     4
100
AcDbLine
 10
449.265534
 20
430.859226
 30
0.0
 11
449.265534
 21
434.259226
 31
0.0
  0
LINE
  5
340
100
AcDbEntity
  8
DIMS
 62
     4
100
AcDbLine
 10
426.665534
 20
458.559226
 30
0.0
 11
430.465534
 21
458.559226
 31
0.0
  0
LINE
  5
341
100
AcDbEntity
  8
DIMS
 62
     4
100
AcDbLine
 10
419.865534
 20
458.559226
 30
0.0
 11
416.065534
 21
458.559226
 31
0.0
  0
LINE
  5
342
100
AcDbEntity
  8
DIMS
 62
     4
100
AcDbLine
 10
421.565534
 20
458.559226
 30
0.0
 11
424.965534
 21
458.559226
 31
0.0
  0
MTEXT
  5
343
102
{ACAD_REACTORS
330
344
102
}
100
AcDbEntity
  8
DIMS
 62
     2
100
AcDbMText
 10
232.925281
 20
368.397196
 30
0.0
 40
3.0
 41
0.0
 71
     4
 72
     5
  1
HGX10037
  0
LEADER
  5
344
100
AcDbEntity
  8
DIMS
 62
     4
100
AcDbLeader
  3
DIM1$7
 73
     0
 74
     0
 75
     1
 40
3.0
 41
21.857143
 76
     3
 10
212.23111
 20
402.973989
 30
0.0
 10
227.598677
 20
368.397196
 30
0.0
 10
230.598677
 20
368.397196
 30
0.0
 77
   256
340
343
213
-0.8266039885857026
223
0.0
233
0.0
1001
ACAD
1000
DSTYLE
1002
{
1070
   288
1070
     1
1070
   144
1040
1.0
1002
}
  0
CIRCLE
  5
346
100
AcDbEntity
  8
M03
100
AcDbCircle
 10
449.265534
 20
432.559226
 30
0.0
 40
2.3
  0
ARC
  5
347
100
AcDbEntity
  8
M03
100
AcDbCircle
 10
449.265534
 20
432.559226
 30
0.0
 40
3.0
100
AcDbArc
 50
167.784636
 51
96.923103
  0
CIRCLE
  5
348
100
AcDbEntity
  8
M03
100
AcDbCircle
 10
449.265534
 20
432.559226
 30
0.0
 40
5.5
  0
CIRCLE
  5
349
100
AcDbEntity
  8
M03
100
AcDbCircle
 10
397.265534
 20
432.559226
 30
0.0
 40
2.3
  0
ARC
  5
34A
100
AcDbEntity
  8
M03
100
AcDbCircle
 10
397.265534
 20
432.559226
 30
0.0
 40
3.0
100
AcDbArc
 50
167.784636
 51
96.923103
  0
CIRCLE
  5
34B
100
AcDbEntity
  8
M03
100
AcDbCircle
 10
397.265534
 20
432.559226
 30
0.0
 40
5.5
  0
CIRCLE
  5
34C
100
AcDbEntity
  8
M03
100
AcDbCircle
 10
423.265534
 20
458.559226
 30
0.0
 40
2.3
  0
ARC
  5
34D
100
AcDbEntity
  8
M03
100
AcDbCircle
 10
423.265534
 20
458.559226
 30
0.0
 40
3.0
100
AcDbArc
 50
167.784636
 51
96.923103
  0
CIRCLE
  5
34E
100
AcDbEntity
  8
M03
100
AcDbCircle
 10
423.265534
 20
458.559226
 30
0.0
 40
5.5
  0
LINE
  5
34F
100
AcDbEntity
  8
M03
100
AcDbLine
 10
225.565534
 20
418.059226
 30
0.0
 11
223.265534
 21
419.387132
 31
0.0
  0
LINE
  5
350
100
AcDbEntity
  8
M03
100
AcDbLine
 10
220.965534
 20
418.059226
 30
0.0
 11
223.265534
 21
419.387132
 31
0.0
  0
LINE
  5
351
100
AcDbEntity
  8
M03
100
AcDbLine
 10
220.965534
 20
418.059226
 30
0.0
 11
225.565534
 21
418.059226
 31
0.0
  0
LINE
  5
352
100
AcDbEntity
  8
M03
100
AcDbLine
 10
220.265534
 20
416.559226
 30
0.0
 11
226.265534
 21
416.559226
 31
0.0
  0
LINE
  5
353
100
AcDbEntity
  8
M03
100
AcDbLine
 10
208.958472
 20
404.459226
 30
0.0
 11
179.720012
 21
404.459226
 31
0.0
  0
LINE
  5
354
100
AcDbEntity
  8
M03
100
AcDbLine
 10
208.958472
 20
402.559226
 30
0.0
 11
179.720012
 21
402.559226
 31
0.0
  0
LINE
  5
355
100
AcDbEntity
  8
M03
100
AcDbLine
 10
215.958472
 20
404.759226
 30
0.0
 11
230.265534
 21
404.759226
 31
0.0
  0
LINE
  5
356
100
AcDbEntity
  8
M03
100
AcDbLine
 10
214.913707
 20
405.559226
 30
0.0
 11
214.913707
 21
404.759226
 31
0.0
  0
LINE
  5
357
100
AcDbEntity
  8
M03
100
AcDbLine
 10
208.958472
 20
404.759226
 30
0.0
 11
208.958472
 21
402.259226
 31
0.0
  0
LINE
  5
358
100
AcDbEntity
  8
M03
100
AcDbLine
 10
208.958472
 20
402.259226
 30
0.0
 11
215.958472
 21
402.259226
 31
0.0
  0
LINE
  5
359
100
AcDbEntity
  8
M03
100
AcDbLine
 10
215.958472
 20
404.759226
 30
0.0
 11
215.958472
 21
402.259226
 31
0.0
  0
LINE
  5
35A
100
AcDbEntity
  8
M03
100
AcDbLine
 10
230.265534
 20
405.559226
 30
0.0
 11
230.265534
 21
404.759226
 31
0.0
  0
ARC
  5
35B
100
AcDbEntity
  8
M03
100
AcDbCircle
 10
223.265534
 20
407.285362
 30
0.0
 40
5.826136
100
AcDbArc
 50
205.69541
 51
334.30459
  0
LINE
  5
35C
100
AcDbEntity
  8
M03
100
AcDbLine
 10
226.265534
 20
414.059226
 30
0.0
 11
225.565534
 21
414.759226
 31
0.0
  0
LINE
  5
35D
100
AcDbEntity
  8
M03
100
AcDbLine
 10
220.265534
 20
414.059226
 30
0.0
 11
220.965534
 21
414.759226
 31
0.0
  0
LINE
  5
35E
100
AcDbEntity
  8
M03
100
AcDbLine
 10
220.265534
 20
414.059226
 30
0.0
 11
226.265534
 21
414.059226
 31
0.0
  0
LINE
  5
35F
100
AcDbEntity
  8
M03
100
AcDbLine
 10
220.965534
 20
414.759226
 30
0.0
 11
225.565534
 21
414.759226
 31
0.0
  0
LINE
  5
360
100
AcDbEntity
  8
M03
100
AcDbLine
 10
226.265534
 20
405.559226
 30
0.0
 11
233.265534
 21
405.559226
 31
0.0
  0
LINE
  5
361
100
AcDbEntity
  8
M03
100
AcDbLine
 10
209.565534
 20
405.559226
 30
0.0
 11
209.565534
 21
404.759226
 31
0.0
  0
LINE
  5
362
100
AcDbEntity
  8
M03
100
AcDbLine
 10
226.965534
 20
405.559226
 30
0.0
 11
226.965534
 21
404.759226
 31
0.0
  0
LINE
  5
363
100
AcDbEntity
  8
M03
100
AcDbLine
 10
225.565534
 20
418.059226
 30
0.0
 11
225.565534
 21
404.759226
 31
0.0
  0
LINE
  5
364
100
AcDbEntity
  8
M03
100
AcDbLine
 10
220.965534
 20
418.059226
 30
0.0
 11
220.965534
 21
404.759226
 31
0.0
  0
LINE
  5
365
100
AcDbEntity
  8
M03
100
AcDbLine
 10
220.265534
 20
416.559226
 30
0.0
 11
220.265534
 21
404.759226
 31
0.0
  0
LINE
  5
366
100
AcDbEntity
  8
M03
100
AcDbLine
 10
226.265534
 20
416.559226
 30
0.0
 11
226.265534
 21
404.759226
 31
0.0
  0
LINE
  5
367
100
AcDbEntity
  8
M03
100
AcDbLine
 10
208.958472
 20
404.759226
 30
0.0
 11
214.913707
 21
404.759226
 31
0.0
  0
LINE
  5
368
100
AcDbEntity
  8
M03
100
AcDbLine
 10
233.265534
 20
405.559226
 30
0.0
 11
233.265534
 21
400.559226
 31
0.0
  0
LINE
  5
369
100
AcDbEntity
  8
M03
100
AcDbLine
 10
173.265534
 20
405.559226
 30
0.0
 11
220.265534
 21
405.559226
 31
0.0
  0
LINE
  5
36A
100
AcDbEntity
  8
CENTRE
100
AcDbLine
 10
223.265534
 20
423.757899
 30
0.0
 11
223.265534
 21
396.597749
 31
0.0
  0
CIRCLE
  5
36B
100
AcDbEntity
  8
M03
100
AcDbCircle
 10
198.265534
 20
432.559226
 30
0.0
 40
2.3
  0
ARC
  5
36C
100
AcDbEntity
  8
M03
100
AcDbCircle
 10
198.265534
 20
432.559226
 30
0.0
 40
3.0
100
AcDbArc
 50
167.784636
 51
96.923103
  0
CIRCLE
  5
36D
100
AcDbEntity
  8
M03
100
AcDbCircle
 10
648.265534
 20
432.559226
 30
0.0
 40
2.3
  0
ARC
  5
36E
100
AcDbEntity
  8
M03
100
AcDbCircle
 10
648.265534
 20
432.559226
 30
0.0
 40
3.0
100
AcDbArc
 50
167.784636
 51
96.923103
  0
LINE
  5
36F
100
AcDbEntity
  8
DIMS
 62
     4
100
AcDbLine
 10
198.265534
 20
435.959226
 30
0.0
 11
198.265534
 21
449.259226
 31
0.0
  0
LINE
  5
370
100
AcDbEntity
  8
DIMS
 62
     4
100
AcDbLine
 10
198.265534
 20
429.159226
 30
0.0
 11
198.265534
 21
415.859226
 31
0.0
  0
LINE
  5
371
100
AcDbEntity
  8
DIMS
 62
     4
100
AcDbLine
 10
198.265534
 20
430.859226
 30
0.0
 11
198.265534
 21
434.259226
 31
0.0
  0
LINE
  5
372
100
AcDbEntity
  8
DIMS
 62
     4
100
AcDbLine
 10
648.265534
 20
435.959226
 30
0.0
 11
648.265534
 21
449.259226
 31
0.0
  0
LINE
  5
373
100
AcDbEntity
  8
DIMS
 62
     4
100
AcDbLine
 10
648.265534
 20
429.159226
 30
0.0
 11
648.265534
 21
415.859226
 31
0.0
  0
LINE
  5
374
100
AcDbEntity
  8
DIMS
 62
     4
100
AcDbLine
 10
648.265534
 20
430.859226
 30
0.0
 11
648.265534
 21
434.259226
 31
0.0
  0
LINE
  5
375
100
AcDbEntity
  8
M03
100
AcDbLine
 10
648.815534
 20
426.584488
 30
0.0
 11
648.815534
 21
438.533965
 31
0.0
  0
LINE
  5
376
100
AcDbEntity
  8
M03
100
AcDbLine
 10
647.715534
 20
426.584488
 30
0.0
 11
647.715534
 21
438.533965
 31
0.0
  0
CIRCLE
  5
377
100
AcDbEntity
  8
M03
100
AcDbCircle
 10
648.265534
 20
432.559226
 30
0.0
 40
15.0
  0
CIRCLE
  5
378
100
AcDbEntity
  8
M03
100
AcDbCircle
 10
648.265534
 20
432.559226
 30
0.0
 40
14.0
  0
CIRCLE
  5
379
100
AcDbEntity
  8
M03
100
AcDbCircle
 10
648.265534
 20
432.559226
 30
0.0
 40
7.858882
  0
CIRCLE
  5
37A
100
AcDbEntity
  8
M03
100
AcDbCircle
 10
648.265534
 20
432.559226
 30
0.0
 40
6.0
  0
LINE
  5
37B
100
AcDbEntity
  8
M03
100
AcDbLine
 10
197.715534
 20
426.584488
 30
0.0
 11
197.715534
 21
438.533965
 31
0.0
  0
LINE
  5
37C
100
AcDbEntity
  8
M03
100
AcDbLine
 10
198.815534
 20
426.584488
 30
0.0
 11
198.815534
 21
438.533965
 31
0.0
  0
CIRCLE
  5
37D
100
AcDbEntity
  8
M03
100
AcDbCircle
 10
198.265534
 20
432.559226
 30
0.0
 40
15.0
  0
CIRCLE
  5
37E
100
AcDbEntity
  8
M03
100
AcDbCircle
 10
198.265534
 20
432.559226
 30
0.0
 40
14.0
  0
CIRCLE
  5
37F
100
AcDbEntity
  8
M03
100
AcDbCircle
 10
198.265534
 20
432.559226
 30
0.0
 40
7.858882
  0
CIRCLE
  5
380
100
AcDbEntity
  8
M03
100
AcDbCircle
 10
198.265534
 20
432.559226
 30
0.0
 40
6.0
  0
LINE
  5
381
100
AcDbEntity
  8
M01
100
AcDbLine
 10
430.765534
 20
540.559226
 30
0.0
 11
439.765534
 21
540.559226
 31
0.0
  0
LINE
  5
382
100
AcDbEntity
  8
M01
100
AcDbLine
 10
439.765534
 20
541.359226
 30
0.0
 11
439.765534
 21
540.559226
 31
0.0
  0
LINE
  5
383
100
AcDbEntity
  8
M01
100
AcDbLine
 10
430.765534
 20
541.359226
 30
0.0
 11
430.765534
 21
540.559226
 31
0.0
  0
LINE
  5
384
100
AcDbEntity
  8
M01
100
AcDbLine
 10
408.015534
 20
530.503326
 30
0.0
 11
414.515534
 21
530.503326
 31
0.0
  0
LINE
  5
385
100
AcDbEntity
  8
M01
100
AcDbLine
 10
408.015534
 20
538.615126
 30
0.0
 11
414.515534
 21
538.615126
 31
0.0
  0
LINE
  5
386
100
AcDbEntity
  8
M01
100
AcDbLine
 10
408.015534
 20
530.503326
 30
0.0
 11
408.015534
 21
528.559226
 31
0.0
  0
ARC
  5
387
100
AcDbEntity
  8
M01
100
AcDbCircle
 10
406.765534
 20
532.064576
 30
0.0
 40
2.0
100
AcDbArc
 50
308.682187
 51
0.0
  0
ARC
  5
388
100
AcDbEntity
  8
M01
100
AcDbCircle
 10
406.765534
 20
537.053876
 30
0.0
 40
2.0
100
AcDbArc
 50
0.0
 51
51.317813
  0
LINE
  5
389
100
AcDbEntity
  8
M01
100
AcDbLine
 10
408.015534
 20
540.559226
 30
0.0
 11
408.015534
 21
538.615126
 31
0.0
  0
LINE
  5
38A
100
AcDbEntity
  8
M01
100
AcDbLine
 10
408.765534
 20
537.053876
 30
0.0
 11
408.765534
 21
532.064576
 31
0.0
  0
LINE
  5
38B
100
AcDbEntity
  8
M01
100
AcDbLine
 10
414.515534
 20
530.503326
 30
0.0
 11
414.515534
 21
528.559226
 31
0.0
  0
ARC
  5
38C
100
AcDbEntity
  8
M01
100
AcDbCircle
 10
415.765534
 20
532.064576
 30
0.0
 40
2.0
100
AcDbArc
 50
180.0
 51
231.317813
  0
ARC
  5
38D
100
AcDbEntity
  8
M01
100
AcDbCircle
 10
415.765534
 20
537.053876
 30
0.0
 40
2.0
100
AcDbArc
 50
128.682187
 51
180.0
  0
LINE
  5
38E
100
AcDbEntity
  8
M01
100
AcDbLine
 10
414.515534
 20
540.559226
 30
0.0
 11
414.515534
 21
538.615126
 31
0.0
  0
LINE
  5
38F
100
AcDbEntity
  8
M01
100
AcDbLine
 10
413.765534
 20
537.053876
 30
0.0
 11
413.765534
 21
532.064576
 31
0.0
  0
LINE
  5
390
100
AcDbEntity
  8
M01
100
AcDbLine
 10
440.265534
 20
523.559226
 30
0.0
 11
430.265534
 21
523.559226
 31
0.0
  0
LINE
  5
391
100
AcDbEntity
  8
M01
100
AcDbLine
 10
406.265534
 20
523.559226
 30
0.0
 11
416.265534
 21
523.559226
 31
0.0
  0
LINE
  5
392
100
AcDbEntity
  8
M01
100
AcDbLine
 10
406.265534
 20
528.559226
 30
0.0
 11
406.265534
 21
508.559226
 31
0.0
  0
LINE
  5
393
100
AcDbEntity
  8
M01
100
AcDbLine
 10
416.265534
 20
528.559226
 30
0.0
 11
416.265534
 21
508.559226
 31
0.0
  0
LINE
  5
394
100
AcDbEntity
  8
M01
100
AcDbLine
 10
430.265534
 20
528.559226
 30
0.0
 11
430.265534
 21
508.559226
 31
0.0
  0
LINE
  5
395
100
AcDbEntity
  8
M01
100
AcDbLine
 10
440.265534
 20
528.559226
 30
0.0
 11
440.265534
 21
508.559226
 31
0.0
  0
LINE
  5
396
100
AcDbEntity
  8
CENTRE
100
AcDbLine
 10
490.265534
 20
264.513886
 30
0.0
 11
656.265534
 21
264.513886
 31
0.0
  0
ARC
  5
397
100
AcDbEntity
  8
M03
100
AcDbCircle
 10
423.265534
 20
432.559226
 30
0.0
 40
34.0
100
AcDbArc
 50
289.749923
 51
250.250077
  0
WIPEOUT
  5
398
100
AcDbEntity
  8
TEXT
 92
      140
310
8C000000010000008400000006000000050000001A81CC352290844044ADFB9323186E400000000000000000296B6D440C09854044ADFB9323186E4000000000000000002A6B6D440C09854040ADFB9323986E4000000000000000001C81CC352290844044ADFB9323986E4000000000000000001A81CC352290844044ADFB
310
9323186E400000000000000000
100
AcDbWipeout
 90
        0
 10
609.499299
 20
181.122652
 30
0.0
 11
63.631691
 21
0.0
 31
0.0
 12
0.0
 22
63.631691
 32
0.0
 13
0.0
 23
0.0
340
0
 70
     7
280
     1
281
    50
282
    50
283
     0
360
0
 71
     2
 91
        5
 14
0.262472
 24
-0.437138
 14
0.5
 24
-0.437138
 14
0.5
 24
-0.5
 14
0.262472
 24
-0.5
 14
0.262472
 24
-0.437138
  0
TEXT
  5
399
102
{ACAD_REACTORS
330
23
102
}
100
AcDbEntity
  8
TEXT
100
AcDbText
 10
659.016704
 20
241.754343
 30
0.0
 40
2.0
  1
MM010101
 41
0.9
100
AcDbText
  0
MTEXT
  5
39A
102
{ACAD_REACTORS
330
39B
102
}
100
AcDbEntity
  8
HATCH
 62
     2
100
AcDbMText
 10
671.905714
 20
202.172659
 30
0.0
 40
3.0
 41
0.0
 71
     1
 72
     5
  1
MA010006 (x2)
  0
LEADER
  5
39B
100
AcDbEntity
  8
HATCH
 62
     4
100
AcDbLeader
  3
DIM1$7
 73
     0
 74
     0
 75
     1
 40
4.571429
 41
34.142857
 76
     3
 10
657.982889
 20
214.644599
 30
0.0
 10
667.405714
 20
200.672659
 30
0.0
 10
670.405714
 20
200.672659
 30
0.0
 77
   256
340
39A
213
0.0
223
-1.5
233
0.0
1001
ACAD
1000
DSTYLE
1002
{
1070
   144
1040
1.0
1002
}
  0
LINE
  5
39C
102
{ACAD_REACTORS
330
2BA
102
}
100
AcDbEntity
  8
M04
100
AcDbLine
 10
201.265534
 20
213.013886
 30
0.0
 11
403.765534
 21
213.013886
 31
0.0
  0
LINE
  5
39D
102
{ACAD_REACTORS
330
BA
102
}
100
AcDbEntity
  8
M02
100
AcDbLine
 10
212.265534
 20
217.013886
 30
0.0
 11
389.265534
 21
217.013886
 31
0.0
  0
LINE
  5
39E
100
AcDbEntity
  8
M04
100
AcDbLine
 10
198.265534
 20
195.18598
 30
0.0
 11
200.565534
 21
196.513886
 31
0.0
  0
LINE
  5
39F
100
AcDbEntity
  8
M04
100
AcDbLine
 10
195.965534
 20
196.513886
 30
0.0
 11
198.265534
 21
195.18598
 31
0.0
  0
LINE
  5
3A0
100
AcDbEntity
  8
M04
100
AcDbLine
 10
195.965534
 20
196.513886
 30
0.0
 11
200.565534
 21
196.513886
 31
0.0
  0
LINE
  5
3A1
100
AcDbEntity
  8
M04
100
AcDbLine
 10
195.265534
 20
201.575004
 30
0.0
 11
195.265534
 21
198.013886
 31
0.0
  0
LINE
  5
3A2
100
AcDbEntity
  8
M04
100
AcDbLine
 10
195.965534
 20
200.875004
 30
0.0
 11
195.965534
 21
196.513886
 31
0.0
  0
LINE
  5
3A3
100
AcDbEntity
  8
M04
100
AcDbLine
 10
201.265534
 20
201.575004
 30
0.0
 11
201.265534
 21
198.013886
 31
0.0
  0
LINE
  5
3A4
100
AcDbEntity
  8
M04
100
AcDbLine
 10
200.565534
 20
200.875004
 30
0.0
 11
200.565534
 21
196.513886
 31
0.0
  0
LINE
  5
3A5
100
AcDbEntity
  8
M05
100
AcDbLine
 10
200.565534
 20
200.875004
 30
0.0
 11
201.265534
 21
201.575004
 31
0.0
  0
LINE
  5
3A6
100
AcDbEntity
  8
M05
100
AcDbLine
 10
195.265534
 20
201.575004
 30
0.0
 11
195.965534
 21
200.875004
 31
0.0
  0
LINE
  5
3A7
100
AcDbEntity
  8
M05
100
AcDbLine
 10
200.565534
 20
213.655004
 30
0.0
 11
200.565534
 21
200.875004
 31
0.0
  0
LINE
  5
3A8
100
AcDbEntity
  8
M05
100
AcDbLine
 10
195.965534
 20
213.655004
 30
0.0
 11
195.965534
 21
200.875004
 31
0.0
  0
LINE
  5
3A9
100
AcDbEntity
  8
M05
100
AcDbLine
 10
195.265534
 20
201.575004
 30
0.0
 11
201.265534
 21
201.575004
 31
0.0
  0
LINE
  5
3AA
100
AcDbEntity
  8
M04
100
AcDbLine
 10
195.265534
 20
198.013886
 30
0.0
 11
201.265534
 21
198.013886
 31
0.0
  0
LINE
  5
3AB
100
AcDbEntity
  8
M05
100
AcDbLine
 10
195.965534
 20
200.875004
 30
0.0
 11
200.565534
 21
200.875004
 31
0.0
  0
LINE
  5
3AC
102
{ACAD_REACTORS
330
20
102
}
100
AcDbEntity
  8
M05
  6
HIDDEN
100
AcDbLine
 10
190.106652
 20
220.313886
 30
0.0
 11
189.406652
 21
221.013886
 31
0.0
  0
LINE
  5
3AD
102
{ACAD_REACTORS
330
20
102
}
100
AcDbEntity
  8
M05
  6
HIDDEN
100
AcDbLine
 10
206.424416
 20
220.313886
 30
0.0
 11
207.124416
 21
221.013886
 31
0.0
  0
LINE
  5
3AE
100
AcDbEntity
  8
M05
100
AcDbLine
 10
195.265534
 20
213.655004
 30
0.0
 11
201.265534
 21
213.655004
 31
0.0
  0
LINE
  5
3AF
100
AcDbEntity
  8
M05
100
AcDbLine
 10
198.815534
 20
218.155004
 30
0.0
 11
204.265534
 21
218.155004
 31
0.0
  0
LINE
  5
3B0
100
AcDbEntity
  8
M05
100
AcDbLine
 10
198.815534
 20
218.875004
 30
0.0
 11
204.265534
 21
218.875004
 31
0.0
  0
LINE
  5
3B1
100
AcDbEntity
  8
M05
100
AcDbLine
 10
198.815534
 20
218.875004
 30
0.0
 11
198.815534
 21
217.375004
 31
0.0
  0
LINE
  5
3B2
100
AcDbEntity
  8
M05
100
AcDbLine
 10
197.715534
 20
218.875004
 30
0.0
 11
197.715534
 21
217.375004
 31
0.0
  0
LINE
  5
3B3
100
AcDbEntity
  8
M05
100
AcDbLine
 10
197.715534
 20
217.375004
 30
0.0
 11
198.815534
 21
217.375004
 31
0.0
  0
LINE
  5
3B4
102
{ACAD_REACTORS
330
2BA
102
}
100
AcDbEntity
  8
M05
100
AcDbLine
 10
201.765534
 20
215.655004
 30
0.0
 11
201.765534
 21
213.013886
 31
0.0
  0
LINE
  5
3B5
102
{ACAD_REACTORS
330
2BA
102
}
100
AcDbEntity
  8
M05
100
AcDbLine
 10
194.765534
 20
215.655004
 30
0.0
 11
194.765534
 21
213.013886
 31
0.0
  0
LINE
  5
3B6
100
AcDbEntity
  8
M05
100
AcDbLine
 10
192.265534
 20
218.155004
 30
0.0
 11
197.715534
 21
218.155004
 31
0.0
  0
LINE
  5
3B7
102
{ACAD_REACTORS
330
2BA
330
20
102
}
100
AcDbEntity
  8
M05
100
AcDbLine
 10
195.265534
 20
215.155004
 30
0.0
 11
190.106652
 21
220.313886
 31
0.0
  0
LINE
  5
3B8
100
AcDbEntity
  8
M05
100
AcDbLine
 10
192.265534
 20
218.875004
 30
0.0
 11
192.265534
 21
218.155004
 31
0.0
  0
LINE
  5
3B9
102
{ACAD_REACTORS
330
2BA
330
20
102
}
100
AcDbEntity
  8
M05
100
AcDbLine
 10
201.265534
 20
215.155004
 30
0.0
 11
206.424416
 21
220.313886
 31
0.0
  0
LINE
  5
3BA
100
AcDbEntity
  8
M05
100
AcDbLine
 10
195.265534
 20
215.155004
 30
0.0
 11
201.265534
 21
215.155004
 31
0.0
  0
LINE
  5
3BB
100
AcDbEntity
  8
M05
100
AcDbLine
 10
195.265534
 20
215.155004
 30
0.0
 11
195.265534
 21
201.575004
 31
0.0
  0
LINE
  5
3BC
100
AcDbEntity
  8
M05
100
AcDbLine
 10
201.265534
 20
215.155004
 30
0.0
 11
201.265534
 21
201.575004
 31
0.0
  0
LINE
  5
3BD
100
AcDbEntity
  8
M05
100
AcDbLine
 10
204.265534
 20
218.875004
 30
0.0
 11
204.265534
 21
218.155004
 31
0.0
  0
LINE
  5
3BE
100
AcDbEntity
  8
M05
100
AcDbLine
 10
192.265534
 20
218.875004
 30
0.0
 11
197.715534
 21
218.875004
 31
0.0
  0
LINE
  5
3BF
102
{ACAD_REACTORS
330
20
102
}
100
AcDbEntity
  8
M05
  6
HIDDEN
100
AcDbLine
 10
184.265534
 20
220.313886
 30
0.0
 11
212.265534
 21
220.313886
 31
0.0
  0
LINE
  5
3C0
102
{ACAD_REACTORS
330
20
102
}
100
AcDbEntity
  8
M05
  6
HIDDEN
100
AcDbLine
 10
212.265534
 20
220.313886
 30
0.0
 11
211.565534
 21
221.013886
 31
0.0
  0
LINE
  5
3C1
102
{ACAD_REACTORS
330
20
102
}
100
AcDbEntity
  8
M05
  6
HIDDEN
100
AcDbLine
 10
212.265534
 20
219.313886
 30
0.0
 11
212.265534
 21
220.313886
 31
0.0
  0
LINE
  5
3C2
102
{ACAD_REACTORS
330
2BA
102
}
100
AcDbEntity
  8
M05
100
AcDbLine
 10
212.265534
 20
219.313886
 30
0.0
 11
211.565534
 21
220.013886
 31
0.0
  0
LINE
  5
3C3
102
{ACAD_REACTORS
330
2BA
102
}
100
AcDbEntity
  8
M05
100
AcDbLine
 10
212.265534
 20
213.713886
 30
0.0
 11
211.565534
 21
213.013886
 31
0.0
  0
LINE
  5
3C4
102
{ACAD_REACTORS
330
2BA
102
}
100
AcDbEntity
  8
M05
100
AcDbLine
 10
212.265534
 20
219.313886
 30
0.0
 11
212.265534
 21
213.713886
 31
0.0
  0
LINE
  5
3C5
102
{ACAD_REACTORS
330
20
102
}
100
AcDbEntity
  8
M05
  6
HIDDEN
100
AcDbLine
 10
184.265534
 20
220.313886
 30
0.0
 11
184.965534
 21
221.013886
 31
0.0
  0
LINE
  5
3C6
102
{ACAD_REACTORS
330
20
102
}
100
AcDbEntity
  8
M05
  6
HIDDEN
100
AcDbLine
 10
184.265534
 20
219.313886
 30
0.0
 11
184.265534
 21
220.313886
 31
0.0
  0
LINE
  5
3C7
102
{ACAD_REACTORS
330
2BA
102
}
100
AcDbEntity
  8
M05
100
AcDbLine
 10
184.265534
 20
219.313886
 30
0.0
 11
184.965534
 21
220.013886
 31
0.0
  0
LINE
  5
3C8
102
{ACAD_REACTORS
330
2BA
102
}
100
AcDbEntity
  8
M05
100
AcDbLine
 10
184.265534
 20
213.713886
 30
0.0
 11
184.965534
 21
213.013886
 31
0.0
  0
LINE
  5
3C9
102
{ACAD_REACTORS
330
BA
102
}
100
AcDbEntity
  8
M02
100
AcDbLine
 10
213.265534
 20
220.013886
 30
0.0
 11
213.265534
 21
217.013886
 31
0.0
  0
LINE
  5
3CA
102
{ACAD_REACTORS
330
BA
102
}
100
AcDbEntity
  8
M02
100
AcDbLine
 10
183.265534
 20
220.013886
 30
0.0
 11
183.265534
 21
217.013886
 31
0.0
  0
LINE
  5
3CB
102
{ACAD_REACTORS
330
20
102
}
100
AcDbEntity
  8
M05
  6
HIDDEN
100
AcDbLine
 10
184.965534
 20
221.013886
 30
0.0
 11
211.565534
 21
221.013886
 31
0.0
  0
LINE
  5
3CC
102
{ACAD_REACTORS
330
2BA
102
}
100
AcDbEntity
  8
M05
100
AcDbLine
 10
184.265534
 20
219.313886
 30
0.0
 11
184.265534
 21
213.713886
 31
0.0
  0
LINE
  5
3CD
102
{ACAD_REACTORS
330
20
102
}
100
AcDbEntity
  8
CENTRE
100
AcDbLine
 10
198.265534
 20
225.522996
 30
0.0
 11
198.265534
 21
192.444658
 31
0.0
  0
LINE
  5
3CE
100
AcDbEntity
  8
CENTRE
100
AcDbLine
 10
648.265534
 20
256.397127
 30
0.0
 11
648.265534
 21
290.362183
 31
0.0
  0
LINE
  5
3CF
100
AcDbEntity
  8
M04
100
AcDbLine
 10
648.265534
 20
195.18598
 30
0.0
 11
650.565534
 21
196.513886
 31
0.0
  0
LINE
  5
3D0
100
AcDbEntity
  8
M04
100
AcDbLine
 10
645.965534
 20
196.513886
 30
0.0
 11
648.265534
 21
195.18598
 31
0.0
  0
LINE
  5
3D1
100
AcDbEntity
  8
M04
100
AcDbLine
 10
645.965534
 20
196.513886
 30
0.0
 11
650.565534
 21
196.513886
 31
0.0
  0
LINE
  5
3D2
100
AcDbEntity
  8
M04
100
AcDbLine
 10
645.265534
 20
201.575004
 30
0.0
 11
645.265534
 21
198.013886
 31
0.0
  0
LINE
  5
3D3
100
AcDbEntity
  8
M04
100
AcDbLine
 10
645.965534
 20
200.875004
 30
0.0
 11
645.965534
 21
196.513886
 31
0.0
  0
LINE
  5
3D4
100
AcDbEntity
  8
M04
100
AcDbLine
 10
651.265534
 20
201.575004
 30
0.0
 11
651.265534
 21
198.013886
 31
0.0
  0
LINE
  5
3D5
100
AcDbEntity
  8
M04
100
AcDbLine
 10
650.565534
 20
200.875004
 30
0.0
 11
650.565534
 21
196.513886
 31
0.0
  0
LINE
  5
3D6
100
AcDbEntity
  8
M05
100
AcDbLine
 10
650.565534
 20
200.875004
 30
0.0
 11
651.265534
 21
201.575004
 31
0.0
  0
LINE
  5
3D7
100
AcDbEntity
  8
M05
100
AcDbLine
 10
645.265534
 20
201.575004
 30
0.0
 11
645.965534
 21
200.875004
 31
0.0
  0
LINE
  5
3D8
100
AcDbEntity
  8
M05
100
AcDbLine
 10
650.565534
 20
213.655004
 30
0.0
 11
650.565534
 21
200.875004
 31
0.0
  0
LINE
  5
3D9
100
AcDbEntity
  8
M05
100
AcDbLine
 10
645.965534
 20
213.655004
 30
0.0
 11
645.965534
 21
200.875004
 31
0.0
  0
LINE
  5
3DA
100
AcDbEntity
  8
M05
100
AcDbLine
 10
645.265534
 20
201.575004
 30
0.0
 11
651.265534
 21
201.575004
 31
0.0
  0
LINE
  5
3DB
100
AcDbEntity
  8
M04
100
AcDbLine
 10
645.265534
 20
198.013886
 30
0.0
 11
651.265534
 21
198.013886
 31
0.0
  0
LINE
  5
3DC
100
AcDbEntity
  8
M05
100
AcDbLine
 10
645.965534
 20
200.875004
 30
0.0
 11
650.565534
 21
200.875004
 31
0.0
  0
LINE
  5
3DD
102
{ACAD_REACTORS
330
23
102
}
100
AcDbEntity
  8
M05
  6
HIDDEN
100
AcDbLine
 10
640.106652
 20
220.313886
 30
0.0
 11
639.406652
 21
221.013886
 31
0.0
  0
LINE
  5
3DE
102
{ACAD_REACTORS
330
23
102
}
100
AcDbEntity
  8
M05
  6
HIDDEN
100
AcDbLine
 10
656.424416
 20
220.313886
 30
0.0
 11
657.124416
 21
221.013886
 31
0.0
  0
LINE
  5
3DF
100
AcDbEntity
  8
M04
100
AcDbLine
 10
651.265534
 20
213.013886
 30
0.0
 11
704.816316
 21
213.013886
 31
0.0
  0
LINE
  5
3E0
100
AcDbEntity
  8
M05
100
AcDbLine
 10
645.265534
 20
213.655004
 30
0.0
 11
651.265534
 21
213.655004
 31
0.0
  0
LINE
  5
3E1
100
AcDbEntity
  8
M05
100
AcDbLine
 10
648.815534
 20
218.155004
 30
0.0
 11
654.265534
 21
218.155004
 31
0.0
  0
LINE
  5
3E2
100
AcDbEntity
  8
M05
100
AcDbLine
 10
648.815534
 20
218.875004
 30
0.0
 11
654.265534
 21
218.875004
 31
0.0
  0
LINE
  5
3E3
100
AcDbEntity
  8
M05
100
AcDbLine
 10
648.815534
 20
218.875004
 30
0.0
 11
648.815534
 21
217.375004
 31
0.0
  0
LINE
  5
3E4
100
AcDbEntity
  8
M05
100
AcDbLine
 10
647.715534
 20
218.875004
 30
0.0
 11
647.715534
 21
217.375004
 31
0.0
  0
LINE
  5
3E5
100
AcDbEntity
  8
M05
100
AcDbLine
 10
647.715534
 20
217.375004
 30
0.0
 11
648.815534
 21
217.375004
 31
0.0
  0
LINE
  5
3E6
100
AcDbEntity
  8
M05
100
AcDbLine
 10
651.765534
 20
215.655004
 30
0.0
 11
651.765534
 21
213.013886
 31
0.0
  0
LINE
  5
3E7
100
AcDbEntity
  8
M05
100
AcDbLine
 10
644.765534
 20
215.655004
 30
0.0
 11
644.765534
 21
213.013886
 31
0.0
  0
LINE
  5
3E8
100
AcDbEntity
  8
M05
100
AcDbLine
 10
642.265534
 20
218.155004
 30
0.0
 11
647.715534
 21
218.155004
 31
0.0
  0
LINE
  5
3E9
102
{ACAD_REACTORS
330
23
102
}
100
AcDbEntity
  8
M05
100
AcDbLine
 10
645.265534
 20
215.155004
 30
0.0
 11
640.106652
 21
220.313886
 31
0.0
  0
LINE
  5
3EA
100
AcDbEntity
  8
M05
100
AcDbLine
 10
642.265534
 20
218.875004
 30
0.0
 11
642.265534
 21
218.155004
 31
0.0
  0
LINE
  5
3EB
102
{ACAD_REACTORS
330
23
102
}
100
AcDbEntity
  8
M05
100
AcDbLine
 10
651.265534
 20
215.155004
 30
0.0
 11
656.424416
 21
220.313886
 31
0.0
  0
LINE
  5
3EC
100
AcDbEntity
  8
M05
100
AcDbLine
 10
645.265534
 20
215.155004
 30
0.0
 11
651.265534
 21
215.155004
 31
0.0
  0
LINE
  5
3ED
100
AcDbEntity
  8
M05
100
AcDbLine
 10
645.265534
 20
215.155004
 30
0.0
 11
645.265534
 21
201.575004
 31
0.0
  0
LINE
  5
3EE
100
AcDbEntity
  8
M05
100
AcDbLine
 10
651.265534
 20
215.155004
 30
0.0
 11
651.265534
 21
201.575004
 31
0.0
  0
LINE
  5
3EF
100
AcDbEntity
  8
M05
100
AcDbLine
 10
654.265534
 20
218.875004
 30
0.0
 11
654.265534
 21
218.155004
 31
0.0
  0
LINE
  5
3F0
100
AcDbEntity
  8
M05
100
AcDbLine
 10
642.265534
 20
218.875004
 30
0.0
 11
647.715534
 21
218.875004
 31
0.0
  0
LINE
  5
3F1
100
AcDbEntity
  8
DIMS
 62
     4
100
AcDbLine
 10
426.665534
 20
503.059226
 30
0.0
 11
428.965534
 21
503.059226
 31
0.0
  0
LINE
  5
3F2
100
AcDbEntity
  8
DIMS
 62
     4
100
AcDbLine
 10
419.865534
 20
503.059226
 30
0.0
 11
417.565534
 21
503.059226
 31
0.0
  0
LINE
  5
3F3
100
AcDbEntity
  8
DIMS
 62
     4
100
AcDbLine
 10
421.565534
 20
503.059226
 30
0.0
 11
424.965534
 21
503.059226
 31
0.0
  0
DIMENSION
  5
3F4
100
AcDbEntity
  8
DIMS
100
AcDbDimension
  2
*D0
 10
710.022489
 20
464.559226
 30
0.0
 11
594.522489
 21
432.559226
 31
0.0
 12
112.5
 22
0.0
 32
0.0
  1
W=<>
  3
DIM1
100
AcDbAlignedDimension
 13
668.265534
 23
400.559226
 33
0.0
 14
668.265534
 24
464.559226
 34
0.0
 50
90.0
100
AcDbRotatedDimension
1001
ACAD
1000
DSTYLE
1002
{
1070
   144
1040
1.0
1002
}
  0
DIMENSION
  5
401
100
AcDbEntity
  8
DIMS
100
AcDbDimension
  2
*D1
 10
680.265534
 20
340.196619
 30
0.0
 11
423.265534
 21
343.196619
 31
0.0
  1
L=<>
  3
DIM1
100
AcDbAlignedDimension
 13
166.265534
 23
412.559226
 33
0.0
 14
680.265534
 24
412.559226
 34
0.0
100
AcDbRotatedDimension
1001
ACAD
1000
DSTYLE
1002
{
1070
   144
1040
1.0
1002
}
  0
LINE
  5
40E
100
AcDbEntity
  8
M01
100
AcDbLine
 10
438.296623
 20
550.459226
 30
0.0
 11
432.234446
 21
550.459226
 31
0.0
  0
ARC
  5
40F
100
AcDbEntity
  8
M01
100
AcDbCircle
 10
432.234446
 20
548.609921
 30
0.0
 40
1.150694
100
AcDbArc
 50
208.592423
 51
331.407577
  0
ARC
  5
410
100
AcDbEntity
  8
M01
100
AcDbCircle
 10
435.265534
 20
551.162004
 30
0.0
 40
3.702778
100
AcDbArc
 50
236.92527
 51
303.07473
  0
ARC
  5
411
100
AcDbEntity
  8
M01
100
AcDbCircle
 10
438.296623
 20
548.609921
 30
0.0
 40
1.150694
100
AcDbArc
 50
208.592423
 51
331.407577
  0
ARC
  5
412
100
AcDbEntity
  8
M01
100
AcDbCircle
 10
432.234446
 20
549.308532
 30
0.0
 40
1.150694
100
AcDbArc
 50
28.592423
 51
151.407577
  0
ARC
  5
413
100
AcDbEntity
  8
M01
100
AcDbCircle
 10
435.265534
 20
546.756448
 30
0.0
 40
3.702778
100
AcDbArc
 50
56.92527
 51
123.07473
  0
LINE
  5
414
100
AcDbEntity
  8
M01
100
AcDbLine
 10
433.244808
 20
549.859226
 30
0.0
 11
433.244808
 21
548.059226
 31
0.0
  0
LINE
  5
415
100
AcDbEntity
  8
M01
100
AcDbLine
 10
431.224083
 20
549.859226
 30
0.0
 11
431.224083
 21
548.059226
 31
0.0
  0
ARC
  5
416
100
AcDbEntity
  8
M01
100
AcDbCircle
 10
438.296623
 20
549.308532
 30
0.0
 40
1.150694
100
AcDbArc
 50
28.592423
 51
151.407577
  0
LINE
  5
417
100
AcDbEntity
  8
M01
100
AcDbLine
 10
437.28626
 20
549.859226
 30
0.0
 11
437.28626
 21
548.059226
 31
0.0
  0
LINE
  5
418
100
AcDbEntity
  8
M01
100
AcDbLine
 10
439.306986
 20
549.859226
 30
0.0
 11
439.306986
 21
548.059226
 31
0.0
  0
LINE
  5
419
100
AcDbEntity
  8
M01
100
AcDbLine
 10
430.265534
 20
545.159226
 30
0.0
 11
430.265534
 21
546.659226
 31
0.0
  0
LINE
  5
41A
100
AcDbEntity
  8
M01
100
AcDbLine
 10
440.265534
 20
545.159226
 30
0.0
 11
440.265534
 21
546.659226
 31
0.0
  0
LINE
  5
41B
100
AcDbEntity
  8
M01
100
AcDbLine
 10
430.765534
 20
546.659226
 30
0.0
 11
430.765534
 21
547.459226
 31
0.0
  0
LINE
  5
41C
100
AcDbEntity
  8
M01
100
AcDbLine
 10
439.765534
 20
546.659226
 30
0.0
 11
439.765534
 21
547.459226
 31
0.0
  0
LINE
  5
41D
100
AcDbEntity
  8
M01
100
AcDbLine
 10
439.765534
 20
547.459226
 30
0.0
 11
430.765534
 21
547.459226
 31
0.0
  0
LINE
  5
41E
100
AcDbEntity
  8
M01
100
AcDbLine
 10
440.265534
 20
546.659226
 30
0.0
 11
430.265534
 21
546.659226
 31
0.0
  0
LINE
  5
41F
100
AcDbEntity
  8
M01
100
AcDbLine
 10
430.765534
 20
544.359226
 30
0.0
 11
430.765534
 21
545.159226
 31
0.0
  0
LINE
  5
420
100
AcDbEntity
  8
M01
100
AcDbLine
 10
439.765534
 20
544.359226
 30
0.0
 11
439.765534
 21
545.159226
 31
0.0
  0
LINE
  5
421
100
AcDbEntity
  8
M01
100
AcDbLine
 10
440.265534
 20
545.159226
 30
0.0
 11
430.265534
 21
545.159226
 31
0.0
  0
ARC
  5
422
100
AcDbEntity
  8
M01
100
AcDbCircle
 10
432.234446
 20
542.509921
 30
0.0
 40
1.150694
100
AcDbArc
 50
208.592423
 51
331.407577
  0
ARC
  5
423
100
AcDbEntity
  8
M01
100
AcDbCircle
 10
435.265534
 20
545.062004
 30
0.0
 40
3.702778
100
AcDbArc
 50
236.92527
 51
303.07473
  0
ARC
  5
424
100
AcDbEntity
  8
M01
100
AcDbCircle
 10
438.296623
 20
542.509921
 30
0.0
 40
1.150694
100
AcDbArc
 50
208.592423
 51
331.407577
  0
ARC
  5
425
100
AcDbEntity
  8
M01
100
AcDbCircle
 10
432.234446
 20
543.208532
 30
0.0
 40
1.150694
100
AcDbArc
 50
28.592423
 51
151.407577
  0
ARC
  5
426
100
AcDbEntity
  8
M01
100
AcDbCircle
 10
435.265534
 20
540.656448
 30
0.0
 40
3.702778
100
AcDbArc
 50
56.92527
 51
123.07473
  0
LINE
  5
427
100
AcDbEntity
  8
M01
100
AcDbLine
 10
433.244808
 20
543.759226
 30
0.0
 11
433.244808
 21
541.959226
 31
0.0
  0
LINE
  5
428
100
AcDbEntity
  8
M01
100
AcDbLine
 10
431.224083
 20
543.759226
 30
0.0
 11
431.224083
 21
541.959226
 31
0.0
  0
ARC
  5
429
100
AcDbEntity
  8
M01
100
AcDbCircle
 10
438.296623
 20
543.208532
 30
0.0
 40
1.150694
100
AcDbArc
 50
28.592423
 51
151.407577
  0
LINE
  5
42A
100
AcDbEntity
  8
M01
100
AcDbLine
 10
437.28626
 20
543.759226
 30
0.0
 11
437.28626
 21
541.959226
 31
0.0
  0
LINE
  5
42B
100
AcDbEntity
  8
M01
100
AcDbLine
 10
439.306986
 20
543.759226
 30
0.0
 11
439.306986
 21
541.959226
 31
0.0
  0
LINE
  5
42C
100
AcDbEntity
  8
M01
100
AcDbLine
 10
439.765534
 20
544.359226
 30
0.0
 11
430.765534
 21
544.359226
 31
0.0
  0
LINE
  5
42D
100
AcDbEntity
  8
M01
100
AcDbLine
 10
439.765534
 20
541.359226
 30
0.0
 11
430.765534
 21
541.359226
 31
0.0
  0
LINE
  5
42E
100
AcDbEntity
  8
M01
100
AcDbLine
 10
433.765534
 20
553.559226
 30
0.0
 11
433.265534
 21
553.059226
 31
0.0
  0
LINE
  5
42F
100
AcDbEntity
  8
M01
100
AcDbLine
 10
437.265534
 20
553.059226
 30
0.0
 11
436.765534
 21
553.559226
 31
0.0
  0
LINE
  5
430
100
AcDbEntity
  8
M01
100
AcDbLine
 10
437.265534
 20
553.059226
 30
0.0
 11
433.265534
 21
553.059226
 31
0.0
  0
LINE
  5
431
100
AcDbEntity
  8
M01
100
AcDbLine
 10
433.765534
 20
553.559226
 30
0.0
 11
433.765534
 21
550.459226
 31
0.0
  0
LINE
  5
432
100
AcDbEntity
  8
M01
100
AcDbLine
 10
436.765534
 20
553.559226
 30
0.0
 11
436.765534
 21
550.459226
 31
0.0
  0
LINE
  5
433
100
AcDbEntity
  8
M01
100
AcDbLine
 10
437.265534
 20
553.059226
 30
0.0
 11
437.265534
 21
550.459226
 31
0.0
  0
LINE
  5
434
100
AcDbEntity
  8
M01
100
AcDbLine
 10
433.265534
 20
553.059226
 30
0.0
 11
433.265534
 21
550.459226
 31
0.0
  0
LINE
  5
435
100
AcDbEntity
  8
M01
100
AcDbLine
 10
436.765534
 20
553.559226
 30
0.0
 11
433.765534
 21
553.559226
 31
0.0
  0
LINE
  5
436
100
AcDbEntity
  8
M01
100
AcDbLine
 10
440.265534
 20
528.559226
 30
0.0
 11
430.265534
 21
528.559226
 31
0.0
  0
LINE
  5
437
100
AcDbEntity
  8
CENTRE
100
AcDbLine
 10
435.265534
 20
559.720115
 30
0.0
 11
435.265534
 21
496.126684
 31
0.0
  0
LINE
  5
438
100
AcDbEntity
  8
M01
100
AcDbLine
 10
408.234446
 20
550.459226
 30
0.0
 11
414.296623
 21
550.459226
 31
0.0
  0
ARC
  5
439
100
AcDbEntity
  8
M01
100
AcDbCircle
 10
414.296623
 20
548.609921
 30
0.0
 40
1.150694
100
AcDbArc
 50
208.592423
 51
331.407577
  0
ARC
  5
43A
100
AcDbEntity
  8
M01
100
AcDbCircle
 10
411.265534
 20
551.162004
 30
0.0
 40
3.702778
100
AcDbArc
 50
236.92527
 51
303.07473
  0
ARC
  5
43B
100
AcDbEntity
  8
M01
100
AcDbCircle
 10
408.234446
 20
548.609921
 30
0.0
 40
1.150694
100
AcDbArc
 50
208.592423
 51
331.407577
  0
ARC
  5
43C
100
AcDbEntity
  8
M01
100
AcDbCircle
 10
414.296623
 20
549.308532
 30
0.0
 40
1.150694
100
AcDbArc
 50
28.592423
 51
151.407577
  0
ARC
  5
43D
100
AcDbEntity
  8
M01
100
AcDbCircle
 10
411.265534
 20
546.756448
 30
0.0
 40
3.702778
100
AcDbArc
 50
56.92527
 51
123.07473
  0
LINE
  5
43E
100
AcDbEntity
  8
M01
100
AcDbLine
 10
413.28626
 20
549.859226
 30
0.0
 11
413.28626
 21
548.059226
 31
0.0
  0
LINE
  5
43F
100
AcDbEntity
  8
M01
100
AcDbLine
 10
415.306986
 20
549.859226
 30
0.0
 11
415.306986
 21
548.059226
 31
0.0
  0
ARC
  5
440
100
AcDbEntity
  8
M01
100
AcDbCircle
 10
408.234446
 20
549.308532
 30
0.0
 40
1.150694
100
AcDbArc
 50
28.592423
 51
151.407577
  0
LINE
  5
441
100
AcDbEntity
  8
M01
100
AcDbLine
 10
409.244808
 20
549.859226
 30
0.0
 11
409.244808
 21
548.059226
 31
0.0
  0
LINE
  5
442
100
AcDbEntity
  8
M01
100
AcDbLine
 10
407.224083
 20
549.859226
 30
0.0
 11
407.224083
 21
548.059226
 31
0.0
  0
LINE
  5
443
100
AcDbEntity
  8
M01
100
AcDbLine
 10
416.265534
 20
545.159226
 30
0.0
 11
416.265534
 21
546.659226
 31
0.0
  0
LINE
  5
444
100
AcDbEntity
  8
M01
100
AcDbLine
 10
406.265534
 20
545.159226
 30
0.0
 11
406.265534
 21
546.659226
 31
0.0
  0
LINE
  5
445
100
AcDbEntity
  8
M01
100
AcDbLine
 10
415.765534
 20
546.659226
 30
0.0
 11
415.765534
 21
547.459226
 31
0.0
  0
LINE
  5
446
100
AcDbEntity
  8
M01
100
AcDbLine
 10
406.765534
 20
546.659226
 30
0.0
 11
406.765534
 21
547.459226
 31
0.0
  0
LINE
  5
447
100
AcDbEntity
  8
M01
100
AcDbLine
 10
406.765534
 20
547.459226
 30
0.0
 11
415.765534
 21
547.459226
 31
0.0
  0
LINE
  5
448
100
AcDbEntity
  8
M01
100
AcDbLine
 10
406.265534
 20
546.659226
 30
0.0
 11
416.265534
 21
546.659226
 31
0.0
  0
LINE
  5
449
100
AcDbEntity
  8
M01
100
AcDbLine
 10
415.765534
 20
544.359226
 30
0.0
 11
415.765534
 21
545.159226
 31
0.0
  0
LINE
  5
44A
100
AcDbEntity
  8
M01
100
AcDbLine
 10
406.765534
 20
544.359226
 30
0.0
 11
406.765534
 21
545.159226
 31
0.0
  0
LINE
  5
44B
100
AcDbEntity
  8
M01
100
AcDbLine
 10
406.265534
 20
545.159226
 30
0.0
 11
416.265534
 21
545.159226
 31
0.0
  0
ARC
  5
44C
100
AcDbEntity
  8
M01
100
AcDbCircle
 10
414.296623
 20
542.509921
 30
0.0
 40
1.150694
100
AcDbArc
 50
208.592423
 51
331.407577
  0
ARC
  5
44D
100
AcDbEntity
  8
M01
100
AcDbCircle
 10
411.265534
 20
545.062004
 30
0.0
 40
3.702778
100
AcDbArc
 50
236.92527
 51
303.07473
  0
ARC
  5
44E
100
AcDbEntity
  8
M01
100
AcDbCircle
 10
408.234446
 20
542.509921
 30
0.0
 40
1.150694
100
AcDbArc
 50
208.592423
 51
331.407577
  0
ARC
  5
44F
100
AcDbEntity
  8
M01
100
AcDbCircle
 10
414.296623
 20
543.208532
 30
0.0
 40
1.150694
100
AcDbArc
 50
28.592423
 51
151.407577
  0
ARC
  5
450
100
AcDbEntity
  8
M01
100
AcDbCircle
 10
411.265534
 20
540.656448
 30
0.0
 40
3.702778
100
AcDbArc
 50
56.92527
 51
123.07473
  0
LINE
  5
451
100
AcDbEntity
  8
M01
100
AcDbLine
 10
413.28626
 20
543.759226
 30
0.0
 11
413.28626
 21
541.959226
 31
0.0
  0
LINE
  5
452
100
AcDbEntity
  8
M01
100
AcDbLine
 10
415.306986
 20
543.759226
 30
0.0
 11
415.306986
 21
541.959226
 31
0.0
  0
ARC
  5
453
100
AcDbEntity
  8
M01
100
AcDbCircle
 10
408.234446
 20
543.208532
 30
0.0
 40
1.150694
100
AcDbArc
 50
28.592423
 51
151.407577
  0
LINE
  5
454
100
AcDbEntity
  8
M01
100
AcDbLine
 10
409.244808
 20
543.759226
 30
0.0
 11
409.244808
 21
541.959226
 31
0.0
  0
LINE
  5
455
100
AcDbEntity
  8
M01
100
AcDbLine
 10
407.224083
 20
543.759226
 30
0.0
 11
407.224083
 21
541.959226
 31
0.0
  0
LINE
  5
456
100
AcDbEntity
  8
M01
100
AcDbLine
 10
406.765534
 20
544.359226
 30
0.0
 11
415.765534
 21
544.359226
 31
0.0
  0
LINE
  5
457
100
AcDbEntity
  8
M01
100
AcDbLine
 10
406.765534
 20
541.359226
 30
0.0
 11
415.765534
 21
541.359226
 31
0.0
  0
LINE
  5
458
100
AcDbEntity
  8
M01
100
AcDbLine
 10
406.765534
 20
540.559226
 30
0.0
 11
415.765534
 21
540.559226
 31
0.0
  0
LINE
  5
459
100
AcDbEntity
  8
M01
100
AcDbLine
 10
419.265534
 20
243.013886
 30
0.0
 11
423.265534
 21
247.013886
 31
0.0
  0
LINE
  5
45A
100
AcDbEntity
  8
M01
100
AcDbLine
 10
427.265534
 20
243.013886
 30
0.0
 11
423.265534
 21
247.013886
 31
0.0
  0
LINE
  5
45B
100
AcDbEntity
  8
M01
100
AcDbLine
 10
644.265534
 20
268.513886
 30
0.0
 11
648.265534
 21
264.513886
 31
0.0
  0
LINE
  5
45C
102
{ACAD_REACTORS
330
23
102
}
100
AcDbEntity
  8
M01
100
AcDbLine
 10
502.265534
 20
268.513886
 30
0.0
 11
644.265534
 21
268.513886
 31
0.0
  0
LINE
  5
45D
102
{ACAD_REACTORS
330
23
102
}
100
AcDbEntity
  8
M01
100
AcDbLine
 10
498.265534
 20
260.513886
 30
0.0
 11
569.265534
 21
260.513886
 31
0.0
  0
LINE
  5
45E
102
{ACAD_REACTORS
330
23
102
}
100
AcDbEntity
  8
M01
100
AcDbLine
 10
644.265534
 20
268.513886
 30
0.0
 11
644.265534
 21
280.013886
 31
0.0
  0
LINE
  5
45F
102
{ACAD_REACTORS
330
23
102
}
100
AcDbEntity
  8
M01
100
AcDbLine
 10
652.265534
 20
264.513886
 30
0.0
 11
652.265534
 21
280.013886
 31
0.0
  0
ARC
  5
460
102
{ACAD_REACTORS
330
23
102
}
100
AcDbEntity
  8
M01
100
AcDbCircle
 10
648.265534
 20
264.513886
 30
0.0
 40
4.0
100
AcDbArc
 50
270.0
 51
0.0
  0
LINE
  5
461
102
{ACAD_REACTORS
330
C1
102
}
100
AcDbEntity
  8
M02
100
AcDbLine
 10
662.265534
 20
217.013886
 30
0.0
 11
678.265534
 21
217.013886
 31
0.0
  0
LINE
  5
462
102
{ACAD_REACTORS
330
23
102
}
100
AcDbEntity
  8
M05
  6
HIDDEN
100
AcDbLine
 10
634.265534
 20
220.313886
 30
0.0
 11
662.265534
 21
220.313886
 31
0.0
  0
LINE
  5
463
102
{ACAD_REACTORS
330
23
102
}
100
AcDbEntity
  8
M05
  6
HIDDEN
100
AcDbLine
 10
662.265534
 20
220.313886
 30
0.0
 11
661.565534
 21
221.013886
 31
0.0
  0
LINE
  5
464
102
{ACAD_REACTORS
330
23
102
}
100
AcDbEntity
  8
M05
  6
HIDDEN
100
AcDbLine
 10
662.265534
 20
219.313886
 30
0.0
 11
662.265534
 21
220.313886
 31
0.0
  0
LINE
  5
465
100
AcDbEntity
  8
M05
100
AcDbLine
 10
662.265534
 20
219.313886
 30
0.0
 11
661.565534
 21
220.013886
 31
0.0
  0
LINE
  5
466
100
AcDbEntity
  8
M05
100
AcDbLine
 10
662.265534
 20
213.713886
 30
0.0
 11
661.565534
 21
213.013886
 31
0.0
  0
LINE
  5
467
100
AcDbEntity
  8
M05
100
AcDbLine
 10
662.265534
 20
219.313886
 30
0.0
 11
662.265534
 21
213.713886
 31
0.0
  0
LINE
  5
468
102
{ACAD_REACTORS
330
23
102
}
100
AcDbEntity
  8
M05
  6
HIDDEN
100
AcDbLine
 10
634.265534
 20
220.313886
 30
0.0
 11
634.965534
 21
221.013886
 31
0.0
  0
LINE
  5
469
102
{ACAD_REACTORS
330
23
102
}
100
AcDbEntity
  8
M05
  6
HIDDEN
100
AcDbLine
 10
634.265534
 20
219.313886
 30
0.0
 11
634.265534
 21
220.313886
 31
0.0
  0
LINE
  5
46A
100
AcDbEntity
  8
M05
100
AcDbLine
 10
634.265534
 20
219.313886
 30
0.0
 11
634.965534
 21
220.013886
 31
0.0
  0
LINE
  5
46B
100
AcDbEntity
  8
M05
100
AcDbLine
 10
634.265534
 20
213.713886
 30
0.0
 11
634.965534
 21
213.013886
 31
0.0
  0
LINE
  5
46C
102
{ACAD_REACTORS
330
C1
102
}
100
AcDbEntity
  8
M02
100
AcDbLine
 10
663.265534
 20
220.013886
 30
0.0
 11
663.265534
 21
217.013886
 31
0.0
  0
LINE
  5
46D
102
{ACAD_REACTORS
330
C1
102
}
100
AcDbEntity
  8
M02
100
AcDbLine
 10
633.265534
 20
220.013886
 30
0.0
 11
633.265534
 21
217.013886
 31
0.0
  0
LINE
  5
46E
102
{ACAD_REACTORS
330
23
102
}
100
AcDbEntity
  8
M05
  6
HIDDEN
100
AcDbLine
 10
634.965534
 20
221.013886
 30
0.0
 11
661.565534
 21
221.013886
 31
0.0
  0
LINE
  5
46F
100
AcDbEntity
  8
M05
100
AcDbLine
 10
634.265534
 20
219.313886
 30
0.0
 11
634.265534
 21
213.713886
 31
0.0
  0
LINE
  5
470
102
{ACAD_REACTORS
330
23
102
}
100
AcDbEntity
  8
CENTRE
100
AcDbLine
 10
648.265534
 20
225.522996
 30
0.0
 11
648.265534
 21
192.444658
 31
0.0
  0
TEXT
  5
471
102
{ACAD_REACTORS
330
2E0
102
}
100
AcDbEntity
  8
TEXT
100
AcDbText
 10
428.339615
 20
215.581373
 30
0.0
 40
2.0
  1
MA010000
 41
0.9
100
AcDbText
  0
LINE
  5
472
100
AcDbEntity
  8
M04
100
AcDbLine
 10
393.265534
 20
195.013886
 30
0.0
 11
393.265534
 21
186.013886
 31
0.0
  0
LINE
  5
473
100
AcDbEntity
  8
M04
100
AcDbLine
 10
442.765534
 20
213.013886
 30
0.0
 11
645.265534
 21
213.013886
 31
0.0
  0
LINE
  5
474
102
{ACAD_REACTORS
330
C1
102
}
100
AcDbEntity
  8
M02
100
AcDbLine
 10
457.265534
 20
217.013886
 30
0.0
 11
634.265534
 21
217.013886
 31
0.0
  0
LINE
  5
475
102
{ACAD_REACTORS
330
2E0
102
}
100
AcDbEntity
  8
M05
100
AcDbLine
 10
389.265534
 20
214.713886
 30
0.0
 11
389.965534
 21
214.013886
 31
0.0
  0
LINE
  5
476
102
{ACAD_REACTORS
330
BA
102
}
100
AcDbEntity
  8
M02
100
AcDbLine
 10
388.265534
 20
220.013886
 30
0.0
 11
388.265534
 21
217.013886
 31
0.0
  0
LINE
  5
477
102
{ACAD_REACTORS
330
2E0
330
23
102
}
100
AcDbEntity
  8
M01
100
AcDbLine
 10
433.265534
 20
220.013886
 30
0.0
 11
446.265534
 21
220.013886
 31
0.0
  0
LINE
  5
478
100
AcDbEntity
  8
M04
100
AcDbLine
 10
393.265534
 20
195.013886
 30
0.0
 11
453.265534
 21
195.013886
 31
0.0
  0
LINE
  5
479
100
AcDbEntity
  8
M04
100
AcDbLine
 10
403.265534
 20
205.013886
 30
0.0
 11
393.265534
 21
195.013886
 31
0.0
  0
LINE
  5
47A
100
AcDbEntity
  8
M04
100
AcDbLine
 10
453.265534
 20
195.013886
 30
0.0
 11
453.265534
 21
186.013886
 31
0.0
  0
LINE
  5
47B
100
AcDbEntity
  8
M04
100
AcDbLine
 10
443.265534
 20
205.013886
 30
0.0
 11
453.265534
 21
195.013886
 31
0.0
  0
LINE
  5
47C
100
AcDbEntity
  8
M05
100
AcDbLine
 10
420.22466
 20
211.712671
 30
0.0
 11
426.306408
 21
211.712671
 31
0.0
  0
ARC
  5
47D
102
{ACAD_REACTORS
330
2E0
102
}
100
AcDbEntity
  8
M05
100
AcDbCircle
 10
423.265534
 20
196.513886
 30
0.0
 40
15.5
100
AcDbArc
 50
101.313981
 51
126.249321
  0
LINE
  5
47E
102
{ACAD_REACTORS
330
20
102
}
100
AcDbEntity
  8
M01
100
AcDbLine
 10
419.265534
 20
243.013886
 30
0.0
 11
419.265534
 21
230.013886
 31
0.0
  0
LINE
  5
47F
102
{ACAD_REACTORS
330
2E0
102
}
100
AcDbEntity
  8
M05
100
AcDbLine
 10
419.265534
 20
230.013886
 30
0.0
 11
420.22466
 21
211.712671
 31
0.0
  0
LINE
  5
480
102
{ACAD_REACTORS
330
2E0
102
}
100
AcDbEntity
  8
M05
100
AcDbLine
 10
427.265534
 20
230.013886
 30
0.0
 11
426.306408
 21
211.712671
 31
0.0
  0
ARC
  5
481
102
{ACAD_REACTORS
330
2E0
102
}
100
AcDbEntity
  8
M05
100
AcDbCircle
 10
423.265534
 20
196.513886
 30
0.0
 40
15.5
100
AcDbArc
 50
53.750679
 51
78.686019
  0
LINE
  5
482
102
{ACAD_REACTORS
330
23
102
}
100
AcDbEntity
  8
M01
100
AcDbLine
 10
427.265534
 20
243.013886
 30
0.0
 11
427.265534
 21
230.013886
 31
0.0
  0
LINE
  5
483
100
AcDbEntity
  8
M04
100
AcDbLine
 10
403.265534
 20
211.013886
 30
0.0
 11
403.265534
 21
213.013886
 31
0.0
  0
LINE
  5
484
100
AcDbEntity
  8
M04
100
AcDbLine
 10
403.265534
 20
209.713886
 30
0.0
 11
403.265534
 21
205.013886
 31
0.0
  0
LINE
  5
485
100
AcDbEntity
  8
M04
100
AcDbLine
 10
443.265534
 20
211.013886
 30
0.0
 11
443.265534
 21
213.013886
 31
0.0
  0
LINE
  5
486
100
AcDbEntity
  8
M04
100
AcDbLine
 10
443.265534
 20
209.713886
 30
0.0
 11
443.265534
 21
205.013886
 31
0.0
  0
LINE
  5
487
100
AcDbEntity
  8
M04
100
AcDbLine
 10
443.265534
 20
205.013886
 30
0.0
 11
403.265534
 21
205.013886
 31
0.0
  0
LINE
  5
488
102
{ACAD_REACTORS
330
2E0
102
}
100
AcDbEntity
  8
M05
100
AcDbLine
 10
403.765534
 20
211.013886
 30
0.0
 11
403.265534
 21
211.013886
 31
0.0
  0
LINE
  5
489
102
{ACAD_REACTORS
330
2E0
102
}
100
AcDbEntity
  8
M05
100
AcDbLine
 10
403.765534
 20
214.013886
 30
0.0
 11
389.965534
 21
214.013886
 31
0.0
  0
LINE
  5
48A
102
{ACAD_REACTORS
330
2E0
102
}
100
AcDbEntity
  8
M05
100
AcDbLine
 10
403.765534
 20
214.013886
 30
0.0
 11
403.765534
 21
211.013886
 31
0.0
  0
LINE
  5
48B
102
{ACAD_REACTORS
330
2E0
102
}
100
AcDbEntity
  8
M05
100
AcDbLine
 10
442.765534
 20
214.013886
 30
0.0
 11
442.765534
 21
211.013886
 31
0.0
  0
LINE
  5
48C
102
{ACAD_REACTORS
330
2E0
102
}
100
AcDbEntity
  8
M05
100
AcDbLine
 10
443.265534
 20
211.013886
 30
0.0
 11
442.765534
 21
211.013886
 31
0.0
  0
LINE
  5
48D
102
{ACAD_REACTORS
330
2E0
102
}
100
AcDbEntity
  8
M05
100
AcDbLine
 10
403.965534
 20
209.013886
 30
0.0
 11
403.265534
 21
209.713886
 31
0.0
  0
LINE
  5
48E
102
{ACAD_REACTORS
330
2E0
102
}
100
AcDbEntity
  8
M05
100
AcDbLine
 10
442.565534
 20
209.013886
 30
0.0
 11
443.265534
 21
209.713886
 31
0.0
  0
LINE
  5
48F
102
{ACAD_REACTORS
330
2E0
102
}
100
AcDbEntity
  8
M05
100
AcDbLine
 10
442.565534
 20
209.013886
 30
0.0
 11
403.965534
 21
209.013886
 31
0.0
  0
LINE
  5
490
102
{ACAD_REACTORS
330
2E0
102
}
100
AcDbEntity
  8
M05
100
AcDbLine
 10
403.265534
 20
211.013886
 30
0.0
 11
403.265534
 21
209.713886
 31
0.0
  0
LINE
  5
491
102
{ACAD_REACTORS
330
2E0
102
}
100
AcDbEntity
  8
M05
100
AcDbLine
 10
443.265534
 20
211.013886
 30
0.0
 11
443.265534
 21
209.713886
 31
0.0
  0
LINE
  5
492
102
{ACAD_REACTORS
330
20
102
}
100
AcDbEntity
  8
M04
100
AcDbLine
 10
413.265534
 20
220.513886
 30
0.0
 11
412.765534
 21
220.013886
 31
0.0
  0
LINE
  5
493
102
{ACAD_REACTORS
330
23
102
}
100
AcDbEntity
  8
M04
100
AcDbLine
 10
433.265534
 20
220.513886
 30
0.0
 11
433.765534
 21
220.013886
 31
0.0
  0
LINE
  5
494
102
{ACAD_REACTORS
330
2E0
102
}
100
AcDbEntity
  8
M05
100
AcDbLine
 10
389.265534
 20
219.313886
 30
0.0
 11
389.965534
 21
220.013886
 31
0.0
  0
LINE
  5
495
102
{ACAD_REACTORS
330
2E0
102
}
100
AcDbEntity
  8
M05
100
AcDbLine
 10
389.265534
 20
219.313886
 30
0.0
 11
389.265534
 21
214.713886
 31
0.0
  0
LINE
  5
496
102
{ACAD_REACTORS
330
2E0
102
}
100
AcDbEntity
  8
M05
100
AcDbLine
 10
457.265534
 20
219.313886
 30
0.0
 11
456.565534
 21
220.013886
 31
0.0
  0
LINE
  5
497
102
{ACAD_REACTORS
330
2E0
102
}
100
AcDbEntity
  8
M05
100
AcDbLine
 10
457.265534
 20
214.713886
 30
0.0
 11
456.565534
 21
214.013886
 31
0.0
  0
LINE
  5
498
102
{ACAD_REACTORS
330
C1
102
}
100
AcDbEntity
  8
M02
100
AcDbLine
 10
458.265534
 20
220.013886
 30
0.0
 11
458.265534
 21
217.013886
 31
0.0
  0
LINE
  5
499
102
{ACAD_REACTORS
330
2E0
102
}
100
AcDbEntity
  8
M05
100
AcDbLine
 10
456.565534
 20
214.013886
 30
0.0
 11
442.765534
 21
214.013886
 31
0.0
  0
LINE
  5
49A
102
{ACAD_REACTORS
330
2E0
102
}
100
AcDbEntity
  8
M05
100
AcDbLine
 10
457.265534
 20
219.313886
 30
0.0
 11
457.265534
 21
214.713886
 31
0.0
  0
LINE
  5
49B
102
{ACAD_REACTORS
330
20
102
}
100
AcDbEntity
  8
M04
100
AcDbLine
 10
413.265534
 20
229.013886
 30
0.0
 11
413.265534
 21
230.013886
 31
0.0
  0
LINE
  5
49C
102
{ACAD_REACTORS
330
20
102
}
100
AcDbEntity
  8
M04
100
AcDbLine
 10
414.265534
 20
230.013886
 30
0.0
 11
413.265534
 21
230.013886
 31
0.0
  0
LINE
  5
49D
102
{ACAD_REACTORS
330
23
102
}
100
AcDbEntity
  8
M04
100
AcDbLine
 10
433.265534
 20
229.013886
 30
0.0
 11
433.265534
 21
230.013886
 31
0.0
  0
LINE
  5
49E
102
{ACAD_REACTORS
330
23
102
}
100
AcDbEntity
  8
M04
100
AcDbLine
 10
432.265534
 20
230.013886
 30
0.0
 11
433.265534
 21
230.013886
 31
0.0
  0
LINE
  5
49F
102
{ACAD_REACTORS
330
2E0
102
}
100
AcDbEntity
  8
M05
100
AcDbLine
 10
432.265534
 20
230.013886
 30
0.0
 11
433.265534
 21
229.013886
 31
0.0
  0
LINE
  5
4A0
102
{ACAD_REACTORS
330
2E0
102
}
100
AcDbEntity
  8
M05
100
AcDbLine
 10
413.265534
 20
229.013886
 30
0.0
 11
414.265534
 21
230.013886
 31
0.0
  0
LINE
  5
4A1
102
{ACAD_REACTORS
330
2E0
330
23
330
20
102
}
100
AcDbEntity
  8
M05
100
AcDbLine
 10
432.265534
 20
230.013886
 30
0.0
 11
414.265534
 21
230.013886
 31
0.0
  0
LINE
  5
4A2
102
{ACAD_REACTORS
330
2E0
330
20
102
}
100
AcDbEntity
  8
M05
100
AcDbLine
 10
413.265534
 20
229.013886
 30
0.0
 11
413.265534
 21
220.013886
 31
0.0
  0
LINE
  5
4A3
102
{ACAD_REACTORS
330
2E0
330
23
102
}
100
AcDbEntity
  8
M05
100
AcDbLine
 10
433.265534
 20
229.013886
 30
0.0
 11
433.265534
 21
220.013886
 31
0.0
  0
LINE
  5
4A4
100
AcDbEntity
  8
M04
100
AcDbLine
 10
444.990534
 20
287.013886
 30
0.0
 11
687.265534
 21
287.013886
 31
0.0
  0
LINE
  5
4A5
102
{ACAD_REACTORS
330
22
102
}
100
AcDbEntity
  8
M02
100
AcDbLine
 10
444.990534
 20
283.013886
 30
0.0
 11
678.265534
 21
283.013886
 31
0.0
  0
LINE
  5
4A6
102
{ACAD_REACTORS
330
BA
102
}
100
AcDbEntity
  8
M02
100
AcDbLine
 10
168.265534
 20
217.013886
 30
0.0
 11
184.265534
 21
217.013886
 31
0.0
  0
LINE
  5
4A7
102
{ACAD_REACTORS
330
C1
102
}
100
AcDbEntity
  8
M02
100
AcDbLine
 10
678.265534
 20
220.013886
 30
0.0
 11
678.265534
 21
217.013886
 31
0.0
  0
LINE
  5
4A8
102
{ACAD_REACTORS
330
BA
102
}
100
AcDbEntity
  8
M02
100
AcDbLine
 10
168.265534
 20
220.013886
 30
0.0
 11
168.265534
 21
217.013886
 31
0.0
  0
LINE
  5
4A9
102
{ACAD_REACTORS
330
21
102
}
100
AcDbEntity
  8
M02
100
AcDbLine
 10
168.265534
 20
283.013886
 30
0.0
 11
401.540534
 21
283.013886
 31
0.0
  0
LINE
  5
4AA
102
{ACAD_REACTORS
330
22
102
}
100
AcDbEntity
  8
M02
100
AcDbLine
 10
678.265534
 20
280.013886
 30
0.0
 11
678.265534
 21
283.013886
 31
0.0
  0
LINE
  5
4AB
102
{ACAD_REACTORS
330
21
102
}
100
AcDbEntity
  8
M02
100
AcDbLine
 10
168.265534
 20
280.013886
 30
0.0
 11
168.265534
 21
283.013886
 31
0.0
  0
LINE
  5
4AC
102
{ACAD_REACTORS
330
23
102
}
100
AcDbEntity
  8
M01
100
AcDbLine
 10
680.265534
 20
222.013886
 30
0.0
 11
678.265534
 21
220.013886
 31
0.0
  0
LINE
  5
4AD
102
{ACAD_REACTORS
330
23
102
}
100
AcDbEntity
  8
M01
100
AcDbLine
 10
678.265534
 20
280.013886
 30
0.0
 11
680.265534
 21
278.013886
 31
0.0
  0
LINE
  5
4AE
102
{ACAD_REACTORS
330
20
102
}
100
AcDbEntity
  8
M01
100
AcDbLine
 10
166.265534
 20
278.013886
 30
0.0
 11
168.265534
 21
280.013886
 31
0.0
  0
LINE
  5
4AF
102
{ACAD_REACTORS
330
20
102
}
100
AcDbEntity
  8
M01
100
AcDbLine
 10
168.265534
 20
220.013886
 30
0.0
 11
166.265534
 21
222.013886
 31
0.0
  0
LINE
  5
4B0
102
{ACAD_REACTORS
330
23
102
}
100
AcDbEntity
  8
M01
100
AcDbLine
 10
680.265534
 20
278.013886
 30
0.0
 11
680.265534
 21
222.013886
 31
0.0
  0
LINE
  5
4B1
102
{ACAD_REACTORS
330
20
102
}
100
AcDbEntity
  8
M01
100
AcDbLine
 10
166.265534
 20
278.013886
 30
0.0
 11
166.265534
 21
222.013886
 31
0.0
  0
LINE
  5
4B2
102
{ACAD_REACTORS
330
2E0
330
2BA
330
BA
330
20
102
}
100
AcDbEntity
  8
M01
100
AcDbLine
 10
168.265534
 20
220.013886
 30
0.0
 11
413.265534
 21
220.013886
 31
0.0
  0
LINE
  5
4B3
102
{ACAD_REACTORS
330
23
330
22
330
21
330
20
102
}
100
AcDbEntity
  8
M01
100
AcDbLine
 10
168.265534
 20
280.013886
 30
0.0
 11
678.265534
 21
280.013886
 31
0.0
  0
LINE
  5
4B4
100
AcDbEntity
  8
M04
100
AcDbLine
 10
159.265534
 20
287.013886
 30
0.0
 11
401.540534
 21
287.013886
 31
0.0
  0
LINE
  5
4B5
102
{ACAD_REACTORS
330
23
330
20
102
}
100
AcDbEntity
  8
CENTRE
100
AcDbLine
 10
423.265534
 20
317.648632
 30
0.0
 11
423.265534
 21
176.693943
 31
0.0
  0
LINE
  5
4B6
100
AcDbEntity
  8
M04
100
AcDbLine
 10
687.265534
 20
287.013886
 30
0.0
 11
687.265534
 21
213.013886
 31
0.0
  0
LINE
  5
4B7
100
AcDbEntity
  8
M04
100
AcDbLine
 10
159.265534
 20
287.013886
 30
0.0
 11
159.265534
 21
213.013886
 31
0.0
  0
LINE
  5
4B8
102
{ACAD_REACTORS
330
2BA
102
}
100
AcDbEntity
  8
M04
100
AcDbLine
 10
141.714753
 20
213.013886
 30
0.0
 11
195.265534
 21
213.013886
 31
0.0
  0
LINE
  5
4B9
100
AcDbEntity
  8
M04
100
AcDbLine
 10
440.265534
 20
568.559226
 30
0.0
 11
440.265534
 21
589.230704
 31
0.0
  0
LINE
  5
4BA
100
AcDbEntity
  8
M04
100
AcDbLine
 10
406.265534
 20
568.559226
 30
0.0
 11
406.265534
 21
589.230704
 31
0.0
  0
ARC
  5
4BB
100
AcDbEntity
  8
M04
100
AcDbCircle
 10
440.265534
 20
553.559226
 30
0.0
 40
15.0
100
AcDbArc
 50
360.0
 51
90.0
  0
ARC
  5
4BC
100
AcDbEntity
  8
M04
100
AcDbCircle
 10
406.265534
 20
553.559226
 30
0.0
 40
15.0
100
AcDbArc
 50
90.0
 51
180.0
  0
LINE
  5
4BD
100
AcDbEntity
  8
M04
100
AcDbLine
 10
406.265534
 20
568.559226
 30
0.0
 11
440.265534
 21
568.559226
 31
0.0
  0
LINE
  5
4BE
100
AcDbEntity
  8
M01
100
AcDbLine
 10
412.765534
 20
553.559226
 30
0.0
 11
413.265534
 21
553.059226
 31
0.0
  0
LINE
  5
4BF
100
AcDbEntity
  8
M01
100
AcDbLine
 10
409.265534
 20
553.059226
 30
0.0
 11
409.765534
 21
553.559226
 31
0.0
  0
LINE
  5
4C0
100
AcDbEntity
  8
M01
100
AcDbLine
 10
409.265534
 20
553.059226
 30
0.0
 11
413.265534
 21
553.059226
 31
0.0
  0
LINE
  5
4C1
100
AcDbEntity
  8
M01
100
AcDbLine
 10
412.765534
 20
553.559226
 30
0.0
 11
412.765534
 21
550.459226
 31
0.0
  0
LINE
  5
4C2
100
AcDbEntity
  8
M01
100
AcDbLine
 10
409.765534
 20
553.559226
 30
0.0
 11
409.765534
 21
550.459226
 31
0.0
  0
LINE
  5
4C3
100
AcDbEntity
  8
M01
100
AcDbLine
 10
409.265534
 20
553.059226
 30
0.0
 11
409.265534
 21
550.459226
 31
0.0
  0
LINE
  5
4C4
100
AcDbEntity
  8
M01
100
AcDbLine
 10
413.265534
 20
553.059226
 30
0.0
 11
413.265534
 21
550.459226
 31
0.0
  0
LINE
  5
4C5
100
AcDbEntity
  8
M01
100
AcDbLine
 10
409.765534
 20
553.559226
 30
0.0
 11
412.765534
 21
553.559226
 31
0.0
  0
LINE
  5
4C6
100
AcDbEntity
  8
M01
100
AcDbLine
 10
406.265534
 20
528.559226
 30
0.0
 11
416.265534
 21
528.559226
 31
0.0
  0
LINE
  5
4C7
100
AcDbEntity
  8
M01
100
AcDbLine
 10
415.765534
 20
541.359226
 30
0.0
 11
415.765534
 21
540.559226
 31
0.0
  0
LINE
  5
4C8
100
AcDbEntity
  8
M01
100
AcDbLine
 10
406.765534
 20
541.359226
 30
0.0
 11
406.765534
 21
540.559226
 31
0.0
  0
LINE
  5
4C9
100
AcDbEntity
  8
CENTRE
100
AcDbLine
 10
411.265534
 20
559.720115
 30
0.0
 11
411.265534
 21
496.126684
 31
0.0
  0
LINE
  5
4CA
100
AcDbEntity
  8
M04
100
AcDbLine
 10
455.265534
 20
478.559226
 30
0.0
 11
462.265534
 21
471.559226
 31
0.0
  0
LINE
  5
4CB
100
AcDbEntity
  8
M04
100
AcDbLine
 10
384.265534
 20
471.559226
 30
0.0
 11
391.265534
 21
478.559226
 31
0.0
  0
ARC
  5
4CC
100
AcDbEntity
  8
M04
100
AcDbCircle
 10
174.265534
 20
408.559226
 30
0.0
 40
15.0
100
AcDbArc
 50
180.0
 51
270.0
  0
ARC
  5
4CD
100
AcDbEntity
  8
M04
100
AcDbCircle
 10
174.265534
 20
456.559226
 30
0.0
 40
15.0
100
AcDbArc
 50
90.0
 51
180.0
  0
ARC
  5
4CE
100
AcDbEntity
  8
M04
100
AcDbCircle
 10
672.265534
 20
456.559226
 30
0.0
 40
15.0
100
AcDbArc
 50
0.0
 51
90.0
  0
ARC
  5
4CF
100
AcDbEntity
  8
M04
100
AcDbCircle
 10
672.265534
 20
408.559226
 30
0.0
 40
15.0
100
AcDbArc
 50
270.0
 51
0.0
  0
LINE
  5
4D0
100
AcDbEntity
  8
M04
100
AcDbLine
 10
159.265534
 20
456.559226
 30
0.0
 11
159.265534
 21
408.559226
 31
0.0
  0
LINE
  5
4D1
100
AcDbEntity
  8
M04
100
AcDbLine
 10
391.265534
 20
553.559226
 30
0.0
 11
391.265534
 21
478.559226
 31
0.0
  0
LINE
  5
4D2
100
AcDbEntity
  8
M04
100
AcDbLine
 10
455.265534
 20
553.559226
 30
0.0
 11
455.265534
 21
478.559226
 31
0.0
  0
LINE
  5
4D3
100
AcDbEntity
  8
M04
100
AcDbLine
 10
462.265534
 20
471.559226
 30
0.0
 11
672.265534
 21
471.559226
 31
0.0
  0
LINE
  5
4D4
100
AcDbEntity
  8
M04
100
AcDbLine
 10
687.265534
 20
456.559226
 30
0.0
 11
687.265534
 21
408.559226
 31
0.0
  0
LINE
  5
4D5
100
AcDbEntity
  8
M04
100
AcDbLine
 10
174.265534
 20
393.559226
 30
0.0
 11
672.265534
 21
393.559226
 31
0.0
  0
CIRCLE
  5
4D6
100
AcDbEntity
  8
M03
100
AcDbCircle
 10
423.265534
 20
432.559226
 30
0.0
 40
4.0
  0
LINE
  5
4D7
100
AcDbEntity
  8
M03
100
AcDbLine
 10
198.265534
 20
428.559226
 30
0.0
 11
648.265534
 21
428.559226
 31
0.0
  0
LINE
  5
4D8
100
AcDbEntity
  8
M03
100
AcDbLine
 10
198.265534
 20
436.559226
 30
0.0
 11
648.265534
 21
436.559226
 31
0.0
  0
CIRCLE
  5
4D9
100
AcDbEntity
  8
M01
100
AcDbCircle
 10
648.265534
 20
432.559226
 30
0.0
 40
4.0
  0
CIRCLE
  5
4DA
100
AcDbEntity
  8
M01
100
AcDbCircle
 10
198.265534
 20
432.559226
 30
0.0
 40
4.0
  0
LWPOLYLINE
  5
4DB
100
AcDbEntity
  8
M01
100
AcDbPolyline
 90
        2
 70
     0
 43
4.0
 10
423.265534
 20
505.059226
 42
0.414214
 10
421.265534
 20
503.059226
  0
LWPOLYLINE
  5
4DC
100
AcDbEntity
  8
M01
100
AcDbPolyline
 90
        2
 70
     0
 43
4.0
 10
423.265534
 20
501.059226
 42
0.414214
 10
425.265534
 20
503.059226
  0
CIRCLE
  5
4DD
100
AcDbEntity
  8
M01
100
AcDbCircle
 10
423.265534
 20
503.059226
 30
0.0
 40
4.0
  0
LINE
  5
4DE
100
AcDbEntity
  8
M01
100
AcDbLine
 10
427.265534
 20
500.559226
 30
0.0
 11
427.265534
 21
508.559226
 31
0.0
  0
LINE
  5
4DF
100
AcDbEntity
  8
M01
100
AcDbLine
 10
419.265534
 20
500.559226
 30
0.0
 11
419.265534
 21
508.559226
 31
0.0
  0
ARC
  5
4E0
100
AcDbEntity
  8
M01
100
AcDbCircle
 10
423.265534
 20
500.559226
 30
0.0
 40
4.0
100
AcDbArc
 50
180.0
 51
0.0
  0
LINE
  5
4E1
100
AcDbEntity
  8
M01
100
AcDbLine
 10
443.265534
 20
508.559226
 30
0.0
 11
445.265534
 21
506.559226
 31
0.0
  0
LINE
  5
4E2
100
AcDbEntity
  8
M01
100
AcDbLine
 10
401.265534
 20
506.559226
 30
0.0
 11
403.265534
 21
508.559226
 31
0.0
  0
LINE
  5
4E3
100
AcDbEntity
  8
M01
100
AcDbLine
 10
403.265534
 20
508.559226
 30
0.0
 11
443.265534
 21
508.559226
 31
0.0
  0
ARC
  5
4E4
100
AcDbEntity
  8
M01
100
AcDbCircle
 10
457.265534
 20
476.559226
 30
0.0
 40
12.0
100
AcDbArc
 50
180.0
 51
270.0
  0
ARC
  5
4E5
100
AcDbEntity
  8
M01
100
AcDbCircle
 10
389.265534
 20
476.559226
 30
0.0
 40
12.0
100
AcDbArc
 50
270.0
 51
0.0
  0
LINE
  5
4E6
100
AcDbEntity
  8
M01
100
AcDbLine
 10
457.265534
 20
464.559226
 30
0.0
 11
668.265534
 21
464.559226
 31
0.0
  0
LINE
  5
4E7
100
AcDbEntity
  8
M01
100
AcDbLine
 10
445.265534
 20
506.559226
 30
0.0
 11
445.265534
 21
476.559226
 31
0.0
  0
LINE
  5
4E8
100
AcDbEntity
  8
M01
100
AcDbLine
 10
401.265534
 20
506.559226
 30
0.0
 11
401.265534
 21
476.559226
 31
0.0
  0
LINE
  5
4E9
100
AcDbEntity
  8
M01
100
AcDbLine
 10
680.265534
 20
412.559226
 30
0.0
 11
668.265534
 21
400.559226
 31
0.0
  0
LINE
  5
4EA
100
AcDbEntity
  8
M01
100
AcDbLine
 10
668.265534
 20
464.559226
 30
0.0
 11
680.265534
 21
452.559226
 31
0.0
  0
LINE
  5
4EB
100
AcDbEntity
  8
M01
100
AcDbLine
 10
166.265534
 20
452.559226
 30
0.0
 11
178.265534
 21
464.559226
 31
0.0
  0
LINE
  5
4EC
100
AcDbEntity
  8
M01
100
AcDbLine
 10
178.265534
 20
400.559226
 30
0.0
 11
166.265534
 21
412.559226
 31
0.0
  0
LINE
  5
4ED
100
AcDbEntity
  8
M01
100
AcDbLine
 10
178.265534
 20
400.559226
 30
0.0
 11
668.265534
 21
400.559226
 31
0.0
  0
LINE
  5
4EE
100
AcDbEntity
  8
M01
100
AcDbLine
 10
178.265534
 20
464.559226
 30
0.0
 11
389.265534
 21
464.559226
 31
0.0
  0
LINE
  5
4EF
100
AcDbEntity
  8
M01
100
AcDbLine
 10
680.265534
 20
452.559226
 30
0.0
 11
680.265534
 21
412.559226
 31
0.0
  0
LINE
  5
4F0
100
AcDbEntity
  8
M01
100
AcDbLine
 10
166.265534
 20
452.559226
 30
0.0
 11
166.265534
 21
412.559226
 31
0.0
  0
LINE
  5
4F1
100
AcDbEntity
  8
CENTRE
100
AcDbLine
 10
423.265534
 20
523.559226
 30
0.0
 11
423.265534
 21
385.559226
 31
0.0
  0
LINE
  5
4F2
100
AcDbEntity
  8
CENTRE
100
AcDbLine
 10
151.265534
 20
432.559226
 30
0.0
 11
695.265534
 21
432.559226
 31
0.0
  0
ENDSEC
  0
SECTION
  2
OBJECTS
  0
DICTIONARY
  5
1C
100
AcDbDictionary
  3
ACAD_GROUP
350
1A
  3
ACAD_MLINESTYLE
350
1B
  0
DICTIONARY
  5
3
100
AcDbDictionary
280
     1
  3
ACAD_SORTENTS
360
4
  0
DICTIONARY
  5
1A
102
{ACAD_REACTORS
330
1C
102
}
100
AcDbDictionary
  0
DICTIONARY
  5
1B
102
{ACAD_REACTORS
330
1C
102
}
100
AcDbDictionary
  3
STANDARD
350
1E
  0
SORTENTSTABLE
  5
4
102
{ACAD_REACTORS
330
3
102
}
100
AcDbSortentsTable
330
2
  0
MLINESTYLE
  5
1E
102
{ACAD_REACTORS
330
1B
102
}
100
AcDbMlineStyle
  2
STANDARD
 70
     0
  3

 62
   256
 51
90.0
 52
90.0
 71
     2
 49
0.5
 62
   256
  6
BYLAYER
 49
-0.5
 62
   256
  6
BYLAYER
  0
ENDSEC
  0
EOF
