  0
SECTION
  2
HEADER
  9
$ACADVER
  1
AC1014
  9
$ACADMAINTVER
 70
     9
  9
$DWGCODEPAGE
  3
ANSI_1252
  9
$INSBASE
 10
0.0
 20
0.0
 30
0.0
  9
$EXTMIN
 10
173.782646
 20
161.00006
 30
0.0
  9
$EXTMAX
 10
976.362329
 20
726.150925
 30
0.0
  9
$LIMMIN
 10
0.0
 20
0.0
  9
$LIMMAX
 10
1189.0
 20
841.0
  9
$ORTHOMODE
 70
     1
  9
$REGENMODE
 70
     1
  9
$FILLMODE
 70
     1
  9
$QTEXTMODE
 70
     0
  9
$MIRRTEXT
 70
     1
  9
$DRAGMODE
 70
     2
  9
$LTSCALE
 40
8.0
  9
$OSMODE
 70
     0
  9
$ATTMODE
 70
     1
  9
$TEXTSIZE
 40
3.0
  9
$TRACEWID
 40
10.0
  9
$TEXTSTYLE
  7
STANDARD
  9
$CLAYER
  8
HATCH
  9
$CELTYPE
  6
BYLAYER
  9
$CECOLOR
 62
   256
  9
$CELTSCALE
 40
1.0
  9
$DELOBJ
 70
     1
  9
$DISPSILH
 70
     0
  9
$DIMSCALE
 40
1.0
  9
$DIMASZ
 40
3.0
  9
$DIMEXO
 40
1.0
  9
$DIMDLI
 40
10.0
  9
$DIMRND
 40
0.01
  9
$DIMDLE
 40
1.25
  9
$DIMEXE
 40
2.5
  9
$DIMTP
 40
0.05
  9
$DIMTM
 40
0.0
  9
$DIMTXT
 40
3.0
  9
$DIMCEN
 40
-1.7
  9
$DIMTSZ
 40
0.0
  9
$DIMTOL
 70
     0
  9
$DIMLIM
 70
     0
  9
$DIMTIH
 70
     0
  9
$DIMTOH
 70
     0
  9
$DIMSE1
 70
     0
  9
$DIMSE2
 70
     0
  9
$DIMTAD
 70
     3
  9
$DIMZIN
 70
     1
  9
$DIMBLK
  1

  9
$DIMASO
 70
     1
  9
$DIMSHO
 70
     0
  9
$DIMPOST
  1

  9
$DIMAPOST
  1

  9
$DIMALT
 70
     0
  9
$DIMALTD
 70
     2
  9
$DIMALTF
 40
0.039
  9
$DIMLFAC
 40
1.0
  9
$DIMTOFL
 70
     0
  9
$DIMTVP
 40
1.5
  9
$DIMTIX
 70
     0
  9
$DIMSOXD
 70
     0
  9
$DIMSAH
 70
     0
  9
$DIMBLK1
  1

  9
$DIMBLK2
  1

  9
$DIMSTYLE
  2
DIM1
  9
$DIMCLRD
 70
     4
  9
$DIMCLRE
 70
     4
  9
$DIMCLRT
 70
     2
  9
$DIMTFAC
 40
0.7
  9
$DIMGAP
 40
1.5
  9
$DIMJUST
 70
     0
  9
$DIMSD1
 70
     0
  9
$DIMSD2
 70
     0
  9
$DIMTOLJ
 70
     1
  9
$DIMTZIN
 70
     1
  9
$DIMALTZ
 70
     1
  9
$DIMALTTZ
 70
     1
  9
$DIMFIT
 70
     0
  9
$DIMUPT
 70
     0
  9
$DIMUNIT
 70
     2
  9
$DIMDEC
 70
     2
  9
$DIMTDEC
 70
     2
  9
$DIMALTU
 70
     2
  9
$DIMALTTD
 70
     2
  9
$DIMTXSTY
  7
STANDARD
  9
$DIMAUNIT
 70
     0
  9
$LUNITS
 70
     2
  9
$LUPREC
 70
     2
  9
$SKETCHINC
 40
1.0
  9
$FILLETRAD
 40
0.0
  9
$AUNITS
 70
     0
  9
$AUPREC
 70
     3
  9
$MENU
  1
ACAD
  9
$ELEVATION
 40
0.0
  9
$PELEVATION
 40
0.0
  9
$THICKNESS
 40
0.0
  9
$LIMCHECK
 70
     0
  9
$BLIPMODE
 70
     1
  9
$CHAMFERA
 40
0.7
  9
$CHAMFERB
 40
0.7
  9
$CHAMFERC
 40
0.0
  9
$CHAMFERD
 40
0.0
  9
$SKPOLY
 70
     1
  9
$TDCREATE
 40
2449993.725698611
  9
$TDUPDATE
 40
2451991.388215972
  9
$TDINDWG
 40
1.0145466204
  9
$TDUSRTIMER
 40
1.0145466204
  9
$USRTIMER
 70
     1
  9
$ANGBASE
 50
0.0
  9
$ANGDIR
 70
     0
  9
$PDMODE
 70
     3
  9
$PDSIZE
 40
0.0
  9
$PLINEWID
 40
0.0
  9
$COORDS
 70
     2
  9
$SPLFRAME
 70
     0
  9
$SPLINETYPE
 70
     6
  9
$SPLINESEGS
 70
     6
  9
$ATTDIA
 70
     1
  9
$ATTREQ
 70
     1
  9
$HANDLING
 70
     1
  9
$HANDSEED
  5
4E4
  9
$SURFTAB1
 70
    12
  9
$SURFTAB2
 70
    12
  9
$SURFTYPE
 70
     6
  9
$SURFU
 70
    12
  9
$SURFV
 70
    12
  9
$UCSNAME
  2

  9
$UCSORG
 10
0.0
 20
0.0
 30
0.0
  9
$UCSXDIR
 10
1.0
 20
0.0
 30
0.0
  9
$UCSYDIR
 10
0.0
 20
1.0
 30
0.0
  9
$PUCSNAME
  2

  9
$PUCSORG
 10
0.0
 20
0.0
 30
0.0
  9
$PUCSXDIR
 10
1.0
 20
0.0
 30
0.0
  9
$PUCSYDIR
 10
0.0
 20
1.0
 30
0.0
  9
$USERI1
 70
     0
  9
$USERI2
 70
     0
  9
$USERI3
 70
     0
  9
$USERI4
 70
     0
  9
$USERI5
 70
     0
  9
$USERR1
 40
0.0
  9
$USERR2
 40
0.0
  9
$USERR3
 40
0.0
  9
$USERR4
 40
0.0
  9
$USERR5
 40
0.0
  9
$WORLDVIEW
 70
     0
  9
$SHADEDGE
 70
     3
  9
$SHADEDIF
 70
    70
  9
$TILEMODE
 70
     1
  9
$MAXACTVP
 70
    16
  9
$PINSBASE
 10
0.0
 20
0.0
 30
0.0
  9
$PLIMCHECK
 70
     0
  9
$PEXTMIN
 10
1.000000E+20
 20
1.000000E+20
 30
1.000000E+20
  9
$PEXTMAX
 10
-1.000000E+20
 20
-1.000000E+20
 30
-1.000000E+20
  9
$PLIMMIN
 10
0.0
 20
0.0
  9
$PLIMMAX
 10
12.0
 20
9.0
  9
$UNITMODE
 70
     0
  9
$VISRETAIN
 70
     0
  9
$PLINEGEN
 70
     0
  9
$PSLTSCALE
 70
     0
  9
$TREEDEPTH
 70
  3020
  9
$PICKSTYLE
 70
     1
  9
$CMLSTYLE
  2
STANDARD
  9
$CMLJUST
 70
     0
  9
$CMLSCALE
 40
1.0
  9
$PROXYGRAPHICS
 70
     1
  9
$MEASUREMENT
 70
     0
  0
ENDSEC
  0
SECTION
  2
CLASSES
  0
CLASS
  1
DICTIONARYVAR
  2
AcDbDictionaryVar
  3
"AutoCAD"
 90
        0
280
     0
281
     0
  0
CLASS
  1
LWPOLYLINE
  2
AcDbPolyline
  3
"AutoCAD"
 90
        0
280
     0
281
     1
  0
CLASS
  1
HATCH
  2
AcDbHatch
  3
"ACAD_SEDONA"
 90
        0
280
     0
281
     1
  0
CLASS
  1
SORTENTSTABLE
  2
AcDbSortentsTable
  3
"AutoCAD"
 90
        0
280
     0
281
     0
  0
CLASS
  1
WIPEOUTVARIABLES
  2
AcDbWipeoutVariables
  3
WIPEOUT
 90
        0
280
     0
281
     0
  0
CLASS
  1
WIPEOUT
  2
AcDbWipeout
  3
WIPEOUT
 90
      127
280
     0
281
     1
  0
ENDSEC
  0
SECTION
  2
TABLES
  0
TABLE
  2
VPORT
  5
14
100
AcDbSymbolTable
 70
     2
  0
VPORT
  5
4E3
100
AcDbSymbolTableRecord
100
AcDbViewportTableRecord
  2
*ACTIVE
 70
     0
 10
0.0
 20
0.0
 11
1.0
 21
1.0
 12
612.074319
 22
414.545479
 13
0.0
 23
0.0
 14
10.0
 24
10.0
 15
0.0
 25
0.0
 16
0.0
 26
0.0
 36
1.0
 17
16.313321
 27
12.779115
 37
0.222949
 40
854.649189
 41
1.470516
 42
50.0
 43
0.0
 44
0.0
 50
0.0
 51
0.0
 71
     0
 72
  2000
 73
     1
 74
     2
 75
     0
 76
     0
 77
     0
 78
     1
  0
ENDTAB
  0
TABLE
  2
LTYPE
  5
F
100
AcDbSymbolTable
 70
     3
  0
LTYPE
  5
10
100
AcDbSymbolTableRecord
100
AcDbLinetypeTableRecord
  2
BYBLOCK
 70
     0
  3

 72
    65
 73
     0
 40
0.0
  0
LTYPE
  5
11
100
AcDbSymbolTableRecord
100
AcDbLinetypeTableRecord
  2
BYLAYER
 70
     0
  3

 72
    65
 73
     0
 40
0.0
  0
LTYPE
  5
7
100
AcDbSymbolTableRecord
100
AcDbLinetypeTableRecord
  2
CONTINUOUS
 70
     0
  3
Solid line
 72
    65
 73
     0
 40
0.0
  0
LTYPE
  5
27
100
AcDbSymbolTableRecord
100
AcDbLinetypeTableRecord
  2
CENTER
 70
     0
  3
Center ____ _ ____ _ ____ _ ____ _ ____ _ ____
 72
    65
 73
     4
 40
2.0
 49
1.25
 74
     0
 49
-0.25
 74
     0
 49
0.25
 74
     0
 49
-0.25
 74
     0
  0
LTYPE
  5
22
100
AcDbSymbolTableRecord
100
AcDbLinetypeTableRecord
  2
HIDDEN
 70
     0
  3
Hidden __ __ __ __ __ __ __ __ __ __ __ __ __ _
 72
    65
 73
     2
 40
0.375
 49
0.25
 74
     0
 49
-0.125
 74
     0
  0
ENDTAB
  0
TABLE
  2
LAYER
  5
C
100
AcDbSymbolTable
 70
    11
  0
LAYER
  5
6
100
AcDbSymbolTableRecord
100
AcDbLayerTableRecord
  2
0
 70
     0
 62
     7
  6
CONTINUOUS
  0
LAYER
  5
26
100
AcDbSymbolTableRecord
100
AcDbLayerTableRecord
  2
CENTRE
 70
     0
 62
     3
  6
CENTER
  0
LAYER
  5
2F
100
AcDbSymbolTableRecord
100
AcDbLayerTableRecord
  2
M01
 70
     0
 62
     1
  6
CONTINUOUS
  0
LAYER
  5
39
100
AcDbSymbolTableRecord
100
AcDbLayerTableRecord
  2
M02
 70
     0
 62
     2
  6
CONTINUOUS
  0
LAYER
  5
21
100
AcDbSymbolTableRecord
100
AcDbLayerTableRecord
  2
M03
 70
     0
 62
     2
  6
HIDDEN
  0
LAYER
  5
60
100
AcDbSymbolTableRecord
100
AcDbLayerTableRecord
  2
M04
 70
     0
 62
     7
  6
CONTINUOUS
  0
LAYER
  5
6F
100
AcDbSymbolTableRecord
100
AcDbLayerTableRecord
  2
M05
 70
     0
 62
     5
  6
CONTINUOUS
  0
LAYER
  5
4B
100
AcDbSymbolTableRecord
100
AcDbLayerTableRecord
  2
DIMS
 70
     0
 62
     4
  6
CONTINUOUS
  0
LAYER
  5
5B
100
AcDbSymbolTableRecord
100
AcDbLayerTableRecord
  2
TEXT
 70
     0
 62
     2
  6
CONTINUOUS
  0
LAYER
  5
1D
100
AcDbSymbolTableRecord
100
AcDbLayerTableRecord
  2
HATCH
 70
     0
 62
     4
  6
CONTINUOUS
  0
LAYER
  5
E6
100
AcDbSymbolTableRecord
100
AcDbLayerTableRecord
  2
DEFPOINTS
 70
     0
 62
     7
  6
CONTINUOUS
  0
ENDTAB
  0
TABLE
  2
STYLE
  5
D
100
AcDbSymbolTable
 70
     1
  0
STYLE
  5
E
100
AcDbSymbolTableRecord
100
AcDbTextStyleTableRecord
  2
STANDARD
 70
     0
 40
0.0
 41
1.0
 50
0.0
 71
     0
 42
3.0
  3
SIMPLEX
  4

  0
ENDTAB
  0
TABLE
  2
VIEW
  5
12
100
AcDbSymbolTable
 70
     0
  0
ENDTAB
  0
TABLE
  2
UCS
  5
13
100
AcDbSymbolTable
 70
     0
  0
ENDTAB
  0
TABLE
  2
APPID
  5
16
100
AcDbSymbolTable
 70
     1
  0
APPID
  5
17
100
AcDbSymbolTableRecord
100
AcDbRegAppTableRecord
  2
ACAD
 70
     0
  0
ENDTAB
  0
TABLE
  2
DIMSTYLE
  5
18
100
AcDbSymbolTable
 70
     2
  0
DIMSTYLE
105
1F
102
{ACAD_REACTORS
330
3E4
330
3F1
330
28E
330
282
330
276
330
14B
330
13D
330
12F
330
122
330
114
330
106
330
F9
330
EB
330
DC
102
}
100
AcDbSymbolTableRecord
100
AcDbDimStyleTableRecord
  2
DIM1
 70
     0
  3

  4

  5

  6

  7

 40
1.0
 41
3.0
 42
1.0
 43
10.0
 44
2.5
 45
0.01
 46
1.25
 47
0.05
 48
0.0
140
3.0
141
-1.7
142
0.0
143
0.039
144
0.2
145
1.5
146
0.7
147
1.5
 71
     0
 72
     0
 73
     0
 74
     0
 75
     0
 76
     0
 77
     3
 78
     1
170
     0
171
     2
172
     0
173
     0
174
     0
175
     0
176
     4
177
     4
178
     2
270
     2
271
     2
272
     2
273
     2
274
     2
340
E
275
     0
280
     0
281
     0
282
     0
283
     1
284
     1
285
     1
286
     1
287
     0
288
     0
  0
DIMSTYLE
105
335
100
AcDbSymbolTableRecord
100
AcDbDimStyleTableRecord
  2
DIM1$7
 70
     0
  3

  4

  5

  6

  7

 40
1.0
 41
3.0
 42
1.0
 43
10.0
 44
2.5
 45
0.01
 46
1.25
 47
0.0
 48
0.0
140
3.0
141
-1.7
142
0.0
143
0.039
144
1.0
145
0.0
146
1.0
147
1.5
 71
     0
 72
     0
 73
     0
 74
     0
 75
     0
 76
     0
 77
     0
 78
     1
170
     0
171
     2
172
     0
173
     0
174
     0
175
     0
176
     4
177
     4
178
     2
270
     2
271
     2
272
     2
273
     2
274
     2
340
E
275
     0
280
     0
281
     0
282
     0
283
     1
284
     1
285
     1
286
     1
287
     0
288
     0
  0
ENDTAB
  0
TABLE
  2
BLOCK_RECORD
  5
1
100
AcDbSymbolTable
 70
    14
  0
BLOCK_RECORD
  5
2
102
{ACAD_XDICTIONARY
360
3
102
}
100
AcDbSymbolTableRecord
100
AcDbBlockTableRecord
  2
*MODEL_SPACE
  0
BLOCK_RECORD
  5
9
100
AcDbSymbolTableRecord
100
AcDbBlockTableRecord
  2
*PAPER_SPACE
  0
BLOCK_RECORD
  5
3E5
100
AcDbSymbolTableRecord
100
AcDbBlockTableRecord
  2
*D0
  0
BLOCK_RECORD
  5
3F2
100
AcDbSymbolTableRecord
100
AcDbBlockTableRecord
  2
*D1
  0
BLOCK_RECORD
  5
28F
100
AcDbSymbolTableRecord
100
AcDbBlockTableRecord
  2
*D2
  0
BLOCK_RECORD
  5
283
100
AcDbSymbolTableRecord
100
AcDbBlockTableRecord
  2
*D3
  0
BLOCK_RECORD
  5
277
100
AcDbSymbolTableRecord
100
AcDbBlockTableRecord
  2
*D4
  0
BLOCK_RECORD
  5
14C
100
AcDbSymbolTableRecord
100
AcDbBlockTableRecord
  2
*D5
  0
BLOCK_RECORD
  5
13E
100
AcDbSymbolTableRecord
100
AcDbBlockTableRecord
  2
*D6
  0
BLOCK_RECORD
  5
130
100
AcDbSymbolTableRecord
100
AcDbBlockTableRecord
  2
*D7
  0
BLOCK_RECORD
  5
123
100
AcDbSymbolTableRecord
100
AcDbBlockTableRecord
  2
*D8
  0
BLOCK_RECORD
  5
115
100
AcDbSymbolTableRecord
100
AcDbBlockTableRecord
  2
*D9
  0
BLOCK_RECORD
  5
107
100
AcDbSymbolTableRecord
100
AcDbBlockTableRecord
  2
*D10
  0
BLOCK_RECORD
  5
FA
100
AcDbSymbolTableRecord
100
AcDbBlockTableRecord
  2
*D11
  0
BLOCK_RECORD
  5
EC
100
AcDbSymbolTableRecord
100
AcDbBlockTableRecord
  2
*D12
  0
BLOCK_RECORD
  5
DD
100
AcDbSymbolTableRecord
100
AcDbBlockTableRecord
  2
*D13
  0
ENDTAB
  0
ENDSEC
  0
SECTION
  2
BLOCKS
  0
BLOCK
  5
5
100
AcDbEntity
  8
0
100
AcDbBlockBegin
  2
*MODEL_SPACE
 70
     0
 10
0.0
 20
0.0
 30
0.0
  3
*MODEL_SPACE
  1

  0
ENDBLK
  5
8
100
AcDbEntity
  8
0
100
AcDbBlockEnd
  0
BLOCK
  5
A
100
AcDbEntity
 67
     1
  8
0
100
AcDbBlockBegin
  2
*PAPER_SPACE
 70
     0
 10
0.0
 20
0.0
 30
0.0
  3
*PAPER_SPACE
  1

  0
ENDBLK
  5
B
100
AcDbEntity
 67
     1
  8
0
100
AcDbBlockEnd
  0
BLOCK
  5
3EF
100
AcDbEntity
  8
0
100
AcDbBlockBegin
  2
*D0
 70
     1
 10
0.0
 20
0.0
 30
0.0
  3
*D0
  1

  0
LINE
  5
3E6
100
AcDbEntity
  8
0
  6
BYBLOCK
 62
     4
100
AcDbLine
 10
694.265534
 20
400.559226
 30
0.0
 11
737.522489
 21
400.559226
 31
0.0
  0
LINE
  5
3E7
100
AcDbEntity
  8
0
  6
BYBLOCK
 62
     4
100
AcDbLine
 10
694.265534
 20
464.559226
 30
0.0
 11
737.522489
 21
464.559226
 31
0.0
  0
LINE
  5
3E8
100
AcDbEntity
  8
0
  6
BYBLOCK
 62
     4
100
AcDbLine
 10
735.022489
 20
403.559226
 30
0.0
 11
735.022489
 21
461.559226
 31
0.0
  0
SOLID
  5
3E9
100
AcDbEntity
  8
0
  6
BYBLOCK
 62
     4
100
AcDbTrace
 10
734.522489
 20
403.559226
 30
0.0
 11
735.522489
 21
403.559226
 31
0.0
 12
735.022489
 22
400.559226
 32
0.0
 13
735.022489
 23
400.559226
 33
0.0
  0
SOLID
  5
3EA
100
AcDbEntity
  8
0
  6
BYBLOCK
 62
     4
100
AcDbTrace
 10
734.522489
 20
461.559226
 30
0.0
 11
735.522489
 21
461.559226
 31
0.0
 12
735.022489
 22
464.559226
 32
0.0
 13
735.022489
 23
464.559226
 33
0.0
  0
MTEXT
  5
3EB
100
AcDbEntity
  8
0
  6
BYBLOCK
 62
     2
100
AcDbMText
 10
732.022489
 20
432.559226
 30
0.0
 40
3.0
 41
0.0
 71
     5
 72
     1
  1
\A1;W=64.00
 11
0.0
 21
1.0
 31
0.0
  0
POINT
  5
3EC
100
AcDbEntity
  8
DEFPOINTS
  6
BYBLOCK
 62
     0
100
AcDbPoint
 10
693.265534
 20
400.559226
 30
0.0
  0
POINT
  5
3ED
100
AcDbEntity
  8
DEFPOINTS
  6
BYBLOCK
 62
     0
100
AcDbPoint
 10
693.265534
 20
464.559226
 30
0.0
  0
POINT
  5
3EE
100
AcDbEntity
  8
DEFPOINTS
  6
BYBLOCK
 62
     0
100
AcDbPoint
 10
735.022489
 20
464.559226
 30
0.0
  0
ENDBLK
  5
3F0
100
AcDbEntity
  8
0
100
AcDbBlockEnd
  0
BLOCK
  5
3FC
100
AcDbEntity
  8
0
100
AcDbBlockBegin
  2
*D1
 70
     1
 10
0.0
 20
0.0
 30
0.0
  3
*D1
  1

  0
LINE
  5
3F3
100
AcDbEntity
  8
0
  6
BYBLOCK
 62
     4
100
AcDbLine
 10
303.765534
 20
411.559226
 30
0.0
 11
303.765534
 21
337.696619
 31
0.0
  0
LINE
  5
3F4
100
AcDbEntity
  8
0
  6
BYBLOCK
 62
     4
100
AcDbLine
 10
542.765534
 20
411.559226
 30
0.0
 11
542.765534
 21
337.696619
 31
0.0
  0
LINE
  5
3F5
100
AcDbEntity
  8
0
  6
BYBLOCK
 62
     4
100
AcDbLine
 10
306.765534
 20
340.196619
 30
0.0
 11
539.765534
 21
340.196619
 31
0.0
  0
SOLID
  5
3F6
100
AcDbEntity
  8
0
  6
BYBLOCK
 62
     4
100
AcDbTrace
 10
306.765534
 20
340.696619
 30
0.0
 11
306.765534
 21
339.696619
 31
0.0
 12
303.765534
 22
340.196619
 32
0.0
 13
303.765534
 23
340.196619
 33
0.0
  0
SOLID
  5
3F7
100
AcDbEntity
  8
0
  6
BYBLOCK
 62
     4
100
AcDbTrace
 10
539.765534
 20
340.696619
 30
0.0
 11
539.765534
 21
339.696619
 31
0.0
 12
542.765534
 22
340.196619
 32
0.0
 13
542.765534
 23
340.196619
 33
0.0
  0
MTEXT
  5
3F8
100
AcDbEntity
  8
0
  6
BYBLOCK
 62
     2
100
AcDbMText
 10
423.265534
 20
343.196619
 30
0.0
 40
3.0
 41
0.0
 71
     5
 72
     1
  1
\A1;L=239.00
  0
POINT
  5
3F9
100
AcDbEntity
  8
DEFPOINTS
  6
BYBLOCK
 62
     0
100
AcDbPoint
 10
303.765534
 20
412.559226
 30
0.0
  0
POINT
  5
3FA
100
AcDbEntity
  8
DEFPOINTS
  6
BYBLOCK
 62
     0
100
AcDbPoint
 10
542.765534
 20
412.559226
 30
0.0
  0
POINT
  5
3FB
100
AcDbEntity
  8
DEFPOINTS
  6
BYBLOCK
 62
     0
100
AcDbPoint
 10
542.765534
 20
340.196619
 30
0.0
  0
ENDBLK
  5
3FD
100
AcDbEntity
  8
0
100
AcDbBlockEnd
  0
BLOCK
  5
299
100
AcDbEntity
  8
0
100
AcDbBlockBegin
  2
*D2
 70
     1
 10
0.0
 20
0.0
 30
0.0
  3
*D2
  1

  0
LINE
  5
290
100
AcDbEntity
  8
0
  6
BYBLOCK
 62
     4
100
AcDbLine
 10
335.765534
 20
414.859226
 30
0.0
 11
335.765534
 21
347.764883
 31
0.0
  0
LINE
  5
291
100
AcDbEntity
  8
0
  6
BYBLOCK
 62
     4
100
AcDbLine
 10
385.765534
 20
425.859226
 30
0.0
 11
385.765534
 21
347.764883
 31
0.0
  0
LINE
  5
292
100
AcDbEntity
  8
0
  6
BYBLOCK
 62
     4
100
AcDbLine
 10
338.765534
 20
350.264883
 30
0.0
 11
382.765534
 21
350.264883
 31
0.0
  0
SOLID
  5
293
100
AcDbEntity
  8
0
  6
BYBLOCK
 62
     4
100
AcDbTrace
 10
338.765534
 20
350.764883
 30
0.0
 11
338.765534
 21
349.764883
 31
0.0
 12
335.765534
 22
350.264883
 32
0.0
 13
335.765534
 23
350.264883
 33
0.0
  0
SOLID
  5
294
100
AcDbEntity
  8
0
  6
BYBLOCK
 62
     4
100
AcDbTrace
 10
382.765534
 20
350.764883
 30
0.0
 11
382.765534
 21
349.764883
 31
0.0
 12
385.765534
 22
350.264883
 32
0.0
 13
385.765534
 23
350.264883
 33
0.0
  0
MTEXT
  5
295
100
AcDbEntity
  8
0
  6
BYBLOCK
 62
     2
100
AcDbMText
 10
360.765534
 20
353.264883
 30
0.0
 40
3.0
 41
0.0
 71
     5
 72
     1
  1
\A1;A=50.00
  0
POINT
  5
296
100
AcDbEntity
  8
DEFPOINTS
  6
BYBLOCK
 62
     0
100
AcDbPoint
 10
335.765534
 20
415.859226
 30
0.0
  0
POINT
  5
297
100
AcDbEntity
  8
DEFPOINTS
  6
BYBLOCK
 62
     0
100
AcDbPoint
 10
385.765534
 20
426.859226
 30
0.0
  0
POINT
  5
298
100
AcDbEntity
  8
DEFPOINTS
  6
BYBLOCK
 62
     0
100
AcDbPoint
 10
385.765534
 20
350.264883
 30
0.0
  0
ENDBLK
  5
29A
100
AcDbEntity
  8
0
100
AcDbBlockEnd
  0
BLOCK
  5
28C
100
AcDbEntity
  8
0
100
AcDbBlockBegin
  2
*D3
 70
     1
 10
0.0
 20
0.0
 30
0.0
  3
*D3
  1

  0
LINE
  5
284
100
AcDbEntity
  8
0
  6
BYBLOCK
 62
     4
100
AcDbLine
 10
460.765534
 20
425.859226
 30
0.0
 11
460.765534
 21
347.764883
 31
0.0
  0
LINE
  5
285
100
AcDbEntity
  8
0
  6
BYBLOCK
 62
     4
100
AcDbLine
 10
388.765534
 20
350.264883
 30
0.0
 11
457.765534
 21
350.264883
 31
0.0
  0
SOLID
  5
286
100
AcDbEntity
  8
0
  6
BYBLOCK
 62
     4
100
AcDbTrace
 10
388.765534
 20
350.764883
 30
0.0
 11
388.765534
 21
349.764883
 31
0.0
 12
385.765534
 22
350.264883
 32
0.0
 13
385.765534
 23
350.264883
 33
0.0
  0
SOLID
  5
287
100
AcDbEntity
  8
0
  6
BYBLOCK
 62
     4
100
AcDbTrace
 10
457.765534
 20
350.764883
 30
0.0
 11
457.765534
 21
349.764883
 31
0.0
 12
460.765534
 22
350.264883
 32
0.0
 13
460.765534
 23
350.264883
 33
0.0
  0
MTEXT
  5
288
100
AcDbEntity
  8
0
  6
BYBLOCK
 62
     2
100
AcDbMText
 10
423.265534
 20
353.264883
 30
0.0
 40
3.0
 41
0.0
 71
     5
 72
     1
  1
\A1;B=75.00
  0
POINT
  5
289
100
AcDbEntity
  8
DEFPOINTS
  6
BYBLOCK
 62
     0
100
AcDbPoint
 10
385.765534
 20
426.859226
 30
0.0
  0
POINT
  5
28A
100
AcDbEntity
  8
DEFPOINTS
  6
BYBLOCK
 62
     0
100
AcDbPoint
 10
460.765534
 20
426.859226
 30
0.0
  0
POINT
  5
28B
100
AcDbEntity
  8
DEFPOINTS
  6
BYBLOCK
 62
     0
100
AcDbPoint
 10
460.765534
 20
350.264883
 30
0.0
  0
ENDBLK
  5
28D
100
AcDbEntity
  8
0
100
AcDbBlockEnd
  0
BLOCK
  5
280
100
AcDbEntity
  8
0
100
AcDbBlockBegin
  2
*D4
 70
     1
 10
0.0
 20
0.0
 30
0.0
  3
*D4
  1

  0
LINE
  5
278
100
AcDbEntity
  8
0
  6
BYBLOCK
 62
     4
100
AcDbLine
 10
510.765534
 20
414.859226
 30
0.0
 11
510.765534
 21
347.764883
 31
0.0
  0
LINE
  5
279
100
AcDbEntity
  8
0
  6
BYBLOCK
 62
     4
100
AcDbLine
 10
463.765534
 20
350.264883
 30
0.0
 11
507.765534
 21
350.264883
 31
0.0
  0
SOLID
  5
27A
100
AcDbEntity
  8
0
  6
BYBLOCK
 62
     4
100
AcDbTrace
 10
463.765534
 20
350.764883
 30
0.0
 11
463.765534
 21
349.764883
 31
0.0
 12
460.765534
 22
350.264883
 32
0.0
 13
460.765534
 23
350.264883
 33
0.0
  0
SOLID
  5
27B
100
AcDbEntity
  8
0
  6
BYBLOCK
 62
     4
100
AcDbTrace
 10
507.765534
 20
350.764883
 30
0.0
 11
507.765534
 21
349.764883
 31
0.0
 12
510.765534
 22
350.264883
 32
0.0
 13
510.765534
 23
350.264883
 33
0.0
  0
MTEXT
  5
27C
100
AcDbEntity
  8
0
  6
BYBLOCK
 62
     2
100
AcDbMText
 10
485.765534
 20
353.264883
 30
0.0
 40
3.0
 41
0.0
 71
     5
 72
     1
  1
\A1;A=50.00
  0
POINT
  5
27D
100
AcDbEntity
  8
DEFPOINTS
  6
BYBLOCK
 62
     0
100
AcDbPoint
 10
460.765534
 20
426.859226
 30
0.0
  0
POINT
  5
27E
100
AcDbEntity
  8
DEFPOINTS
  6
BYBLOCK
 62
     0
100
AcDbPoint
 10
510.765534
 20
415.859226
 30
0.0
  0
POINT
  5
27F
100
AcDbEntity
  8
DEFPOINTS
  6
BYBLOCK
 62
     0
100
AcDbPoint
 10
510.765534
 20
350.264883
 30
0.0
  0
ENDBLK
  5
281
100
AcDbEntity
  8
0
100
AcDbBlockEnd
  0
BLOCK
  5
156
100
AcDbEntity
  8
0
100
AcDbBlockBegin
  2
*D5
 70
     1
 10
0.0
 20
0.0
 30
0.0
  3
*D5
  1

  0
LINE
  5
14D
100
AcDbEntity
  8
0
  6
BYBLOCK
 62
     4
100
AcDbLine
 10
673.211979
 20
401.559226
 30
0.0
 11
673.211979
 21
359.779548
 31
0.0
  0
LINE
  5
14E
100
AcDbEntity
  8
0
  6
BYBLOCK
 62
     4
100
AcDbLine
 10
733.211979
 20
399.559226
 30
0.0
 11
733.211979
 21
359.779548
 31
0.0
  0
LINE
  5
14F
100
AcDbEntity
  8
0
  6
BYBLOCK
 62
     4
100
AcDbLine
 10
676.211979
 20
362.279548
 30
0.0
 11
730.211979
 21
362.279548
 31
0.0
  0
SOLID
  5
150
100
AcDbEntity
  8
0
  6
BYBLOCK
 62
     4
100
AcDbTrace
 10
676.211979
 20
362.779548
 30
0.0
 11
676.211979
 21
361.779548
 31
0.0
 12
673.211979
 22
362.279548
 32
0.0
 13
673.211979
 23
362.279548
 33
0.0
  0
SOLID
  5
151
100
AcDbEntity
  8
0
  6
BYBLOCK
 62
     4
100
AcDbTrace
 10
730.211979
 20
362.779548
 30
0.0
 11
730.211979
 21
361.779548
 31
0.0
 12
733.211979
 22
362.279548
 32
0.0
 13
733.211979
 23
362.279548
 33
0.0
  0
MTEXT
  5
152
100
AcDbEntity
  8
0
  6
BYBLOCK
 62
     2
100
AcDbMText
 10
703.211979
 20
365.279548
 30
0.0
 40
3.0
 41
0.0
 71
     5
 72
     1
  1
\A1;60.00
  0
POINT
  5
153
100
AcDbEntity
  8
DEFPOINTS
  6
BYBLOCK
 62
     0
100
AcDbPoint
 10
673.211979
 20
402.559226
 30
0.0
  0
POINT
  5
154
100
AcDbEntity
  8
DEFPOINTS
  6
BYBLOCK
 62
     0
100
AcDbPoint
 10
733.211979
 20
400.559226
 30
0.0
  0
POINT
  5
155
100
AcDbEntity
  8
DEFPOINTS
  6
BYBLOCK
 62
     0
100
AcDbPoint
 10
733.211979
 20
362.279548
 30
0.0
  0
ENDBLK
  5
157
100
AcDbEntity
  8
0
100
AcDbBlockEnd
  0
BLOCK
  5
149
100
AcDbEntity
  8
0
100
AcDbBlockBegin
  2
*D6
 70
     1
 10
0.0
 20
0.0
 30
0.0
  3
*D6
  1

  0
LINE
  5
13F
100
AcDbEntity
  8
0
  6
BYBLOCK
 62
     4
100
AcDbLine
 10
431.011594
 20
706.807358
 30
0.0
 11
431.011594
 21
667.02768
 31
0.0
  0
LINE
  5
140
100
AcDbEntity
  8
0
  6
BYBLOCK
 62
     4
100
AcDbLine
 10
438.011594
 20
688.293967
 30
0.0
 11
438.011594
 21
667.02768
 31
0.0
  0
LINE
  5
141
100
AcDbEntity
  8
0
  6
BYBLOCK
 62
     4
100
AcDbLine
 10
428.011594
 20
669.52768
 30
0.0
 11
425.011594
 21
669.52768
 31
0.0
  0
LINE
  5
142
100
AcDbEntity
  8
0
  6
BYBLOCK
 62
     4
100
AcDbLine
 10
441.011594
 20
669.52768
 30
0.0
 11
453.297308
 21
669.52768
 31
0.0
  0
SOLID
  5
143
100
AcDbEntity
  8
0
  6
BYBLOCK
 62
     4
100
AcDbTrace
 10
428.011594
 20
670.02768
 30
0.0
 11
428.011594
 21
669.02768
 31
0.0
 12
431.011594
 22
669.52768
 32
0.0
 13
431.011594
 23
669.52768
 33
0.0
  0
SOLID
  5
144
100
AcDbEntity
  8
0
  6
BYBLOCK
 62
     4
100
AcDbTrace
 10
441.011594
 20
670.02768
 30
0.0
 11
441.011594
 21
669.02768
 31
0.0
 12
438.011594
 22
669.52768
 32
0.0
 13
438.011594
 23
669.52768
 33
0.0
  0
MTEXT
  5
145
100
AcDbEntity
  8
0
  6
BYBLOCK
 62
     2
100
AcDbMText
 10
448.654451
 20
672.52768
 30
0.0
 40
3.0
 41
0.0
 71
     5
 72
     1
  1
\A1;7.0
  0
POINT
  5
146
100
AcDbEntity
  8
DEFPOINTS
  6
BYBLOCK
 62
     0
100
AcDbPoint
 10
431.011594
 20
707.807358
 30
0.0
  0
POINT
  5
147
100
AcDbEntity
  8
DEFPOINTS
  6
BYBLOCK
 62
     0
100
AcDbPoint
 10
438.011594
 20
689.293967
 30
0.0
  0
POINT
  5
148
100
AcDbEntity
  8
DEFPOINTS
  6
BYBLOCK
 62
     0
100
AcDbPoint
 10
438.011594
 20
669.52768
 30
0.0
  0
ENDBLK
  5
14A
100
AcDbEntity
  8
0
100
AcDbBlockEnd
  0
BLOCK
  5
13B
100
AcDbEntity
  8
0
100
AcDbBlockBegin
  2
*D7
 70
     1
 10
0.0
 20
0.0
 30
0.0
  3
*D7
  1

  0
LINE
  5
131
100
AcDbEntity
  8
0
  6
BYBLOCK
 62
     4
100
AcDbLine
 10
384.011594
 20
708.807358
 30
0.0
 11
384.011594
 21
667.02768
 31
0.0
  0
LINE
  5
132
100
AcDbEntity
  8
0
  6
BYBLOCK
 62
     4
100
AcDbLine
 10
377.011594
 20
699.807358
 30
0.0
 11
377.011594
 21
667.02768
 31
0.0
  0
LINE
  5
133
100
AcDbEntity
  8
0
  6
BYBLOCK
 62
     4
100
AcDbLine
 10
387.011594
 20
669.52768
 30
0.0
 11
390.011594
 21
669.52768
 31
0.0
  0
LINE
  5
134
100
AcDbEntity
  8
0
  6
BYBLOCK
 62
     4
100
AcDbLine
 10
374.011594
 20
669.52768
 30
0.0
 11
361.72588
 21
669.52768
 31
0.0
  0
SOLID
  5
135
100
AcDbEntity
  8
0
  6
BYBLOCK
 62
     4
100
AcDbTrace
 10
387.011594
 20
670.02768
 30
0.0
 11
387.011594
 21
669.02768
 31
0.0
 12
384.011594
 22
669.52768
 32
0.0
 13
384.011594
 23
669.52768
 33
0.0
  0
SOLID
  5
136
100
AcDbEntity
  8
0
  6
BYBLOCK
 62
     4
100
AcDbTrace
 10
374.011594
 20
670.02768
 30
0.0
 11
374.011594
 21
669.02768
 31
0.0
 12
377.011594
 22
669.52768
 32
0.0
 13
377.011594
 23
669.52768
 33
0.0
  0
MTEXT
  5
137
100
AcDbEntity
  8
0
  6
BYBLOCK
 62
     2
100
AcDbMText
 10
366.368737
 20
672.52768
 30
0.0
 40
3.0
 41
0.0
 71
     5
 72
     1
  1
\A1;7.0
  0
POINT
  5
138
100
AcDbEntity
  8
DEFPOINTS
  6
BYBLOCK
 62
     0
100
AcDbPoint
 10
384.011594
 20
709.807358
 30
0.0
  0
POINT
  5
139
100
AcDbEntity
  8
DEFPOINTS
  6
BYBLOCK
 62
     0
100
AcDbPoint
 10
377.011594
 20
700.807358
 30
0.0
  0
POINT
  5
13A
100
AcDbEntity
  8
DEFPOINTS
  6
BYBLOCK
 62
     0
100
AcDbPoint
 10
377.011594
 20
669.52768
 30
0.0
  0
ENDBLK
  5
13C
100
AcDbEntity
  8
0
100
AcDbBlockEnd
  0
BLOCK
  5
12D
100
AcDbEntity
  8
0
100
AcDbBlockBegin
  2
*D8
 70
     1
 10
0.0
 20
0.0
 30
0.0
  3
*D8
  1

  0
LINE
  5
124
100
AcDbEntity
  8
0
  6
BYBLOCK
 62
     4
100
AcDbLine
 10
447.011594
 20
719.807358
 30
0.0
 11
484.826711
 21
719.807358
 31
0.0
  0
LINE
  5
125
100
AcDbEntity
  8
0
  6
BYBLOCK
 62
     4
100
AcDbLine
 10
447.011594
 20
759.807358
 30
0.0
 11
484.826711
 21
759.807358
 31
0.0
  0
LINE
  5
126
100
AcDbEntity
  8
0
  6
BYBLOCK
 62
     4
100
AcDbLine
 10
482.326711
 20
722.807358
 30
0.0
 11
482.326711
 21
756.807358
 31
0.0
  0
SOLID
  5
127
100
AcDbEntity
  8
0
  6
BYBLOCK
 62
     4
100
AcDbTrace
 10
481.826711
 20
722.807358
 30
0.0
 11
482.826711
 21
722.807358
 31
0.0
 12
482.326711
 22
719.807358
 32
0.0
 13
482.326711
 23
719.807358
 33
0.0
  0
SOLID
  5
128
100
AcDbEntity
  8
0
  6
BYBLOCK
 62
     4
100
AcDbTrace
 10
481.826711
 20
756.807358
 30
0.0
 11
482.826711
 21
756.807358
 31
0.0
 12
482.326711
 22
759.807358
 32
0.0
 13
482.326711
 23
759.807358
 33
0.0
  0
MTEXT
  5
129
100
AcDbEntity
  8
0
  6
BYBLOCK
 62
     2
100
AcDbMText
 10
479.326711
 20
739.807358
 30
0.0
 40
3.0
 41
0.0
 71
     5
 72
     1
  1
\A1;\U+220540.00 H7
 11
0.0
 21
1.0
 31
0.0
  0
POINT
  5
12A
100
AcDbEntity
  8
DEFPOINTS
  6
BYBLOCK
 62
     0
100
AcDbPoint
 10
446.011594
 20
719.807358
 30
0.0
  0
POINT
  5
12B
100
AcDbEntity
  8
DEFPOINTS
  6
BYBLOCK
 62
     0
100
AcDbPoint
 10
446.011594
 20
759.807358
 30
0.0
  0
POINT
  5
12C
100
AcDbEntity
  8
DEFPOINTS
  6
BYBLOCK
 62
     0
100
AcDbPoint
 10
482.326711
 20
759.807358
 30
0.0
  0
ENDBLK
  5
12E
100
AcDbEntity
  8
0
100
AcDbBlockEnd
  0
BLOCK
  5
120
100
AcDbEntity
  8
0
100
AcDbBlockBegin
  2
*D9
 70
     1
 10
0.0
 20
0.0
 30
0.0
  3
*D9
  1

  0
LINE
  5
116
100
AcDbEntity
  8
0
  6
BYBLOCK
 62
     4
100
AcDbLine
 10
384.011594
 20
750.307358
 30
0.0
 11
384.011594
 21
768.594375
 31
0.0
  0
LINE
  5
117
100
AcDbEntity
  8
0
  6
BYBLOCK
 62
     4
100
AcDbLine
 10
367.011594
 20
750.807358
 30
0.0
 11
367.011594
 21
768.594375
 31
0.0
  0
LINE
  5
118
100
AcDbEntity
  8
0
  6
BYBLOCK
 62
     4
100
AcDbLine
 10
387.011594
 20
766.094375
 30
0.0
 11
390.011594
 21
766.094375
 31
0.0
  0
LINE
  5
119
100
AcDbEntity
  8
0
  6
BYBLOCK
 62
     4
100
AcDbLine
 10
364.011594
 20
766.094375
 30
0.0
 11
346.583023
 21
766.094375
 31
0.0
  0
SOLID
  5
11A
100
AcDbEntity
  8
0
  6
BYBLOCK
 62
     4
100
AcDbTrace
 10
387.011594
 20
766.594375
 30
0.0
 11
387.011594
 21
765.594375
 31
0.0
 12
384.011594
 22
766.094375
 32
0.0
 13
384.011594
 23
766.094375
 33
0.0
  0
SOLID
  5
11B
100
AcDbEntity
  8
0
  6
BYBLOCK
 62
     4
100
AcDbTrace
 10
364.011594
 20
766.594375
 30
0.0
 11
364.011594
 21
765.594375
 31
0.0
 12
367.011594
 22
766.094375
 32
0.0
 13
367.011594
 23
766.094375
 33
0.0
  0
MTEXT
  5
11C
100
AcDbEntity
  8
0
  6
BYBLOCK
 62
     2
100
AcDbMText
 10
353.797308
 20
769.094375
 30
0.0
 40
3.0
 41
0.0
 71
     5
 72
     1
  1
\A1;17.00
  0
POINT
  5
11D
100
AcDbEntity
  8
DEFPOINTS
  6
BYBLOCK
 62
     0
100
AcDbPoint
 10
384.011594
 20
749.307358
 30
0.0
  0
POINT
  5
11E
100
AcDbEntity
  8
DEFPOINTS
  6
BYBLOCK
 62
     0
100
AcDbPoint
 10
367.011594
 20
749.807358
 30
0.0
  0
POINT
  5
11F
100
AcDbEntity
  8
DEFPOINTS
  6
BYBLOCK
 62
     0
100
AcDbPoint
 10
367.011594
 20
766.094375
 30
0.0
  0
ENDBLK
  5
121
100
AcDbEntity
  8
0
100
AcDbBlockEnd
  0
BLOCK
  5
112
100
AcDbEntity
  8
0
100
AcDbBlockBegin
  2
*D10
 70
     1
 10
0.0
 20
0.0
 30
0.0
  3
*D10
  1

  0
LINE
  5
108
100
AcDbEntity
  8
0
  6
BYBLOCK
 62
     4
100
AcDbLine
 10
366.011594
 20
749.807358
 30
0.0
 11
346.861779
 21
749.807358
 31
0.0
  0
LINE
  5
109
100
AcDbEntity
  8
0
  6
BYBLOCK
 62
     4
100
AcDbLine
 10
366.011594
 20
729.807358
 30
0.0
 11
346.861779
 21
729.807358
 31
0.0
  0
LINE
  5
10A
100
AcDbEntity
  8
0
  6
BYBLOCK
 62
     4
100
AcDbLine
 10
349.361779
 20
752.807358
 30
0.0
 11
349.361779
 21
755.807358
 31
0.0
  0
LINE
  5
10B
100
AcDbEntity
  8
0
  6
BYBLOCK
 62
     4
100
AcDbLine
 10
349.361779
 20
726.807358
 30
0.0
 11
349.361779
 21
697.378787
 31
0.0
  0
SOLID
  5
10C
100
AcDbEntity
  8
0
  6
BYBLOCK
 62
     4
100
AcDbTrace
 10
348.861779
 20
752.807358
 30
0.0
 11
349.861779
 21
752.807358
 31
0.0
 12
349.361779
 22
749.807358
 32
0.0
 13
349.361779
 23
749.807358
 33
0.0
  0
SOLID
  5
10D
100
AcDbEntity
  8
0
  6
BYBLOCK
 62
     4
100
AcDbTrace
 10
348.861779
 20
726.807358
 30
0.0
 11
349.861779
 21
726.807358
 31
0.0
 12
349.361779
 22
729.807358
 32
0.0
 13
349.361779
 23
729.807358
 33
0.0
  0
MTEXT
  5
10E
100
AcDbEntity
  8
0
  6
BYBLOCK
 62
     2
100
AcDbMText
 10
346.361779
 20
710.593072
 30
0.0
 40
3.0
 41
0.0
 71
     5
 72
     1
  1
\A1;\U+220520.00 H7
 11
0.0
 21
1.0
 31
0.0
  0
POINT
  5
10F
100
AcDbEntity
  8
DEFPOINTS
  6
BYBLOCK
 62
     0
100
AcDbPoint
 10
367.011594
 20
749.807358
 30
0.0
  0
POINT
  5
110
100
AcDbEntity
  8
DEFPOINTS
  6
BYBLOCK
 62
     0
100
AcDbPoint
 10
367.011594
 20
729.807358
 30
0.0
  0
POINT
  5
111
100
AcDbEntity
  8
DEFPOINTS
  6
BYBLOCK
 62
     0
100
AcDbPoint
 10
349.361779
 20
729.807358
 30
0.0
  0
ENDBLK
  5
113
100
AcDbEntity
  8
0
100
AcDbBlockEnd
  0
BLOCK
  5
104
100
AcDbEntity
  8
0
100
AcDbBlockBegin
  2
*D11
 70
     1
 10
0.0
 20
0.0
 30
0.0
  3
*D11
  1

  0
LINE
  5
FB
100
AcDbEntity
  8
0
  6
BYBLOCK
 62
     4
100
AcDbLine
 10
371.588944
 20
750.807358
 30
0.0
 11
336.984366
 21
750.807358
 31
0.0
  0
LINE
  5
FC
100
AcDbEntity
  8
0
  6
BYBLOCK
 62
     4
100
AcDbLine
 10
371.588944
 20
728.807358
 30
0.0
 11
336.984366
 21
728.807358
 31
0.0
  0
LINE
  5
FD
100
AcDbEntity
  8
0
  6
BYBLOCK
 62
     4
100
AcDbLine
 10
339.484366
 20
747.807358
 30
0.0
 11
339.484366
 21
731.807358
 31
0.0
  0
SOLID
  5
FE
100
AcDbEntity
  8
0
  6
BYBLOCK
 62
     4
100
AcDbTrace
 10
338.984366
 20
747.807358
 30
0.0
 11
339.984366
 21
747.807358
 31
0.0
 12
339.484366
 22
750.807358
 32
0.0
 13
339.484366
 23
750.807358
 33
0.0
  0
SOLID
  5
FF
100
AcDbEntity
  8
0
  6
BYBLOCK
 62
     4
100
AcDbTrace
 10
338.984366
 20
731.807358
 30
0.0
 11
339.984366
 21
731.807358
 31
0.0
 12
339.484366
 22
728.807358
 32
0.0
 13
339.484366
 23
728.807358
 33
0.0
  0
MTEXT
  5
100
100
AcDbEntity
  8
0
  6
BYBLOCK
 62
     2
100
AcDbMText
 10
336.484366
 20
739.807358
 30
0.0
 40
3.0
 41
0.0
 71
     5
 72
     1
  1
\A1;22.00
 11
0.0
 21
1.0
 31
0.0
  0
POINT
  5
101
100
AcDbEntity
  8
DEFPOINTS
  6
BYBLOCK
 62
     0
100
AcDbPoint
 10
372.588944
 20
750.807358
 30
0.0
  0
POINT
  5
102
100
AcDbEntity
  8
DEFPOINTS
  6
BYBLOCK
 62
     0
100
AcDbPoint
 10
372.588944
 20
728.807358
 30
0.0
  0
POINT
  5
103
100
AcDbEntity
  8
DEFPOINTS
  6
BYBLOCK
 62
     0
100
AcDbPoint
 10
339.484366
 20
728.807358
 30
0.0
  0
ENDBLK
  5
105
100
AcDbEntity
  8
0
100
AcDbBlockEnd
  0
BLOCK
  5
F7
100
AcDbEntity
  8
0
100
AcDbBlockBegin
  2
*D12
 70
     1
 10
0.0
 20
0.0
 30
0.0
  3
*D12
  1

  0
LINE
  5
ED
100
AcDbEntity
  8
0
  6
BYBLOCK
 62
     4
100
AcDbLine
 10
377.011594
 20
727.807358
 30
0.0
 11
377.011594
 21
704.019336
 31
0.0
  0
LINE
  5
EE
100
AcDbEntity
  8
0
  6
BYBLOCK
 62
     4
100
AcDbLine
 10
372.011594
 20
728.807358
 30
0.0
 11
372.011594
 21
704.019336
 31
0.0
  0
LINE
  5
EF
100
AcDbEntity
  8
0
  6
BYBLOCK
 62
     4
100
AcDbLine
 10
380.011594
 20
706.519336
 30
0.0
 11
383.011594
 21
706.519336
 31
0.0
  0
LINE
  5
F0
100
AcDbEntity
  8
0
  6
BYBLOCK
 62
     4
100
AcDbLine
 10
369.011594
 20
706.519336
 30
0.0
 11
356.72588
 21
706.519336
 31
0.0
  0
SOLID
  5
F1
100
AcDbEntity
  8
0
  6
BYBLOCK
 62
     4
100
AcDbTrace
 10
380.011594
 20
707.019336
 30
0.0
 11
380.011594
 21
706.019336
 31
0.0
 12
377.011594
 22
706.519336
 32
0.0
 13
377.011594
 23
706.519336
 33
0.0
  0
SOLID
  5
F2
100
AcDbEntity
  8
0
  6
BYBLOCK
 62
     4
100
AcDbTrace
 10
369.011594
 20
707.019336
 30
0.0
 11
369.011594
 21
706.019336
 31
0.0
 12
372.011594
 22
706.519336
 32
0.0
 13
372.011594
 23
706.519336
 33
0.0
  0
MTEXT
  5
F3
100
AcDbEntity
  8
0
  6
BYBLOCK
 62
     2
100
AcDbMText
 10
361.368737
 20
709.519336
 30
0.0
 40
3.0
 41
0.0
 71
     5
 72
     1
  1
\A1;5.0
  0
POINT
  5
F4
100
AcDbEntity
  8
DEFPOINTS
  6
BYBLOCK
 62
     0
100
AcDbPoint
 10
377.011594
 20
728.807358
 30
0.0
  0
POINT
  5
F5
100
AcDbEntity
  8
DEFPOINTS
  6
BYBLOCK
 62
     0
100
AcDbPoint
 10
372.011594
 20
729.807358
 30
0.0
  0
POINT
  5
F6
100
AcDbEntity
  8
DEFPOINTS
  6
BYBLOCK
 62
     0
100
AcDbPoint
 10
372.011594
 20
706.519336
 30
0.0
  0
ENDBLK
  5
F8
100
AcDbEntity
  8
0
100
AcDbBlockEnd
  0
BLOCK
  5
E9
100
AcDbEntity
  8
0
100
AcDbBlockBegin
  2
*D13
 70
     1
 10
0.0
 20
0.0
 30
0.0
  3
*D13
  1

  0
LINE
  5
DE
100
AcDbEntity
  8
0
  6
BYBLOCK
 62
     4
100
AcDbLine
 10
363.011594
 20
814.307358
 30
0.0
 11
346.835429
 21
814.307358
 31
0.0
  0
LINE
  5
DF
100
AcDbEntity
  8
0
  6
BYBLOCK
 62
     4
100
AcDbLine
 10
363.011594
 20
806.307358
 30
0.0
 11
346.835429
 21
806.307358
 31
0.0
  0
LINE
  5
E0
100
AcDbEntity
  8
0
  6
BYBLOCK
 62
     4
100
AcDbLine
 10
349.335429
 20
817.307358
 30
0.0
 11
349.335429
 21
820.307358
 31
0.0
  0
LINE
  5
E1
100
AcDbEntity
  8
0
  6
BYBLOCK
 62
     4
100
AcDbLine
 10
349.335429
 20
803.307358
 30
0.0
 11
349.335429
 21
776.735929
 31
0.0
  0
SOLID
  5
E2
100
AcDbEntity
  8
0
  6
BYBLOCK
 62
     4
100
AcDbTrace
 10
348.835429
 20
817.307358
 30
0.0
 11
349.835429
 21
817.307358
 31
0.0
 12
349.335429
 22
814.307358
 32
0.0
 13
349.335429
 23
814.307358
 33
0.0
  0
SOLID
  5
E3
100
AcDbEntity
  8
0
  6
BYBLOCK
 62
     4
100
AcDbTrace
 10
348.835429
 20
803.307358
 30
0.0
 11
349.835429
 21
803.307358
 31
0.0
 12
349.335429
 22
806.307358
 32
0.0
 13
349.335429
 23
806.307358
 33
0.0
  0
MTEXT
  5
E4
100
AcDbEntity
  8
0
  6
BYBLOCK
 62
     2
100
AcDbMText
 10
346.335429
 20
788.521644
 30
0.0
 40
3.0
 41
0.0
 71
     5
 72
     1
  1
\A1;\U+22058.00 H7
 11
0.0
 21
1.0
 31
0.0
  0
POINT
  5
E5
100
AcDbEntity
  8
DEFPOINTS
  6
BYBLOCK
 62
     0
100
AcDbPoint
 10
364.011594
 20
814.307358
 30
0.0
  0
POINT
  5
E7
100
AcDbEntity
  8
DEFPOINTS
  6
BYBLOCK
 62
     0
100
AcDbPoint
 10
364.011594
 20
806.307358
 30
0.0
  0
POINT
  5
E8
100
AcDbEntity
  8
DEFPOINTS
  6
BYBLOCK
 62
     0
100
AcDbPoint
 10
349.335429
 20
806.307358
 30
0.0
  0
ENDBLK
  5
EA
100
AcDbEntity
  8
0
100
AcDbBlockEnd
  0
ENDSEC
  0
SECTION
  2
ENTITIES
  0
LINE
  5
20
100
AcDbEntity
  8
M03
100
AcDbLine
 10
688.711979
 20
428.559226
 30
0.0
 11
706.211979
 21
428.559226
 31
0.0
  0
LINE
  5
23
100
AcDbEntity
  8
M03
100
AcDbLine
 10
688.711979
 20
436.559226
 30
0.0
 11
706.211979
 21
436.559226
 31
0.0
  0
HATCH
  5
24
100
AcDbEntity
  8
HATCH
100
AcDbHatch
 10
0.0
 20
0.0
 30
0.0
210
0.0
220
0.0
230
1.0
  2
_U
 70
     0
 71
     1
 91
        5
 92
        7
 72
     1
 73
     1
 93
       31
 10
733.2119788178301
 20
506.559226081063
 42
0.0
 10
731.2119788178299
 20
508.559226081063
 42
0.0
 10
679.2119788178303
 20
508.559226081063
 42
0.0
 10
679.2119788178303
 20
496.559226081063
 42
0.0
 10
673.2119788178303
 20
496.559226081063
 42
0.0
 10
673.2119788178303
 20
442.059226081063
 42
0.0
 10
677.2119788178303
 20
442.059226081063
 42
0.0
 10
678.2119788178302
 20
442.059226081063
 42
0.0
 10
678.2119788178302
 20
441.0592260810631
 42
0.0
 10
678.2119788178302
 20
432.5592260810631
 42
0.0
 10
684.7119788178302
 20
432.5592260810631
 42
-1.0
 10
692.7119788178302
 20
432.5592260810631
 42
0.0
 10
702.2119788178302
 20
432.5592260810631
 42
-0.4142135623730951
 10
706.2119788178302
 20
436.5592260810631
 42
0.0
 10
723.2119788178303
 20
436.5592260810631
 42
0.0
 10
723.2119788178303
 20
441.559226081063
 42
0.0
 10
723.2119788178303
 20
442.5592260810629
 42
0.0
 10
724.2119788178302
 20
442.5592260810629
 42
0.0
 10
732.7119788178304
 20
442.5592260810629
 42
0.0
 10
733.2119788178304
 20
443.0592260810631
 42
0.0
 10
733.2119788178303
 20
455.5592260810632
 42
0.0
 10
725.9119788178301
 20
455.5592260810632
 42
0.0
 10
723.4119788178301
 20
455.5592260810631
 42
0.0
 10
723.4119788178301
 20
456.2592260810633
 42
0.0
 10
721.9119788178304
 20
456.2592260810633
 42
0.0
 10
720.5840731986942
 20
458.5592260810632
 42
0.0
 10
721.9119788178302
 20
460.8592260810632
 42
0.0
 10
723.4119788178301
 20
460.8592260810631
 42
0.0
 10
723.4119788178303
 20
461.5592260810633
 42
0.0
 10
725.91197881783
 20
461.5592260810632
 42
0.0
 10
733.2119788178303
 20
461.5592260810633
 42
0.0
 97
       29
330
23A
330
23F
330
1C5
330
233
330
240
330
22B
330
21A
330
219
330
22D
330
22C
330
4E
330
20C
330
1D5
330
1F7
330
1F4
330
1F3
330
1F9
330
1E8
330
C5
330
D8
330
C1
330
CE
330
C2
330
CC
330
CB
330
C4
330
C3
330
D9
330
23D
 92
       22
 72
     1
 73
     1
 93
        2
 10
684.7119788178302
 20
432.5592260810631
 42
0.0
 10
692.7119788178302
 20
432.5592260810631
 42
1.0
 97
        2
330
22C
330
4E
 92
       22
 72
     1
 73
     1
 93
        2
 10
692.7119788178302
 20
432.5592260810631
 42
0.0
 10
684.7119788178302
 20
432.5592260810631
 42
1.0
 97
        2
330
22C
330
4E
 92
        7
 72
     1
 73
     1
 93
       29
 10
723.2119788178303
 20
428.5592260810631
 42
0.0
 10
706.2119788178302
 20
428.5592260810631
 42
-0.4142135623730951
 10
702.2119788178302
 20
432.5592260810631
 42
0.0
 10
692.7119788178302
 20
432.5592260810631
 42
-1.0
 10
684.7119788178302
 20
432.5592260810631
 42
0.0
 10
678.2119788178302
 20
432.559226081063
 42
0.0
 10
678.2119788178302
 20
424.0592260810631
 42
0.0
 10
678.2119788178302
 20
423.0592260810631
 42
0.0
 10
677.2119788178303
 20
423.0592260810631
 42
0.0
 10
673.2119788178303
 20
423.0592260810631
 42
0.0
 10
673.2119788178303
 20
413.559226081063
 42
0.0
 10
677.2119788178302
 20
413.559226081063
 42
-0.4142135623730951
 10
681.2119788178302
 20
409.5592260810631
 42
-0.4142135623730951
 10
677.2119788178302
 20
405.5592260810631
 42
0.0
 10
673.2119788178303
 20
405.5592260810631
 42
0.0
 10
673.2119788178303
 20
402.5592260810629
 42
0.0
 10
675.2119788178301
 20
400.559226081063
 42
0.0
 10
731.2119788178302
 20
400.559226081063
 42
0.0
 10
733.2119788178303
 20
402.5592260810631
 42
0.0
 10
733.2119788178303
 20
405.5592260810631
 42
0.0
 10
729.2119788178301
 20
405.5592260810631
 42
-0.4142135623730951
 10
725.2119788178301
 20
409.5592260810631
 42
-0.4142135623730951
 10
729.2119788178301
 20
413.559226081063
 42
0.0
 10
733.2119788178303
 20
413.559226081063
 42
0.0
 10
733.2119788178304
 20
422.0592260810629
 42
0.0
 10
732.7119788178305
 20
422.5592260810631
 42
0.0
 10
724.2119788178302
 20
422.5592260810631
 42
0.0
 10
723.2119788178303
 20
422.5592260810633
 42
0.0
 10
723.2119788178303
 20
423.5592260810632
 42
0.0
 97
       24
330
1D1
330
20C
330
22C
330
4E
330
22D
330
212
330
213
330
22A
330
21D
330
BD
330
BF
330
BC
330
23C
330
23E
330
239
330
1E7
330
BA
330
BE
330
BB
330
1E6
330
1F8
330
1F1
330
1F2
330
1F7
 92
       24
 93
        4
 72
     1
 10
688.290472
 20
415.402793
 11
702.83333
 21
415.402793
 72
     1
 10
702.83333
 20
415.402793
 11
702.83333
 21
418.402793
 72
     1
 10
702.83333
 20
418.402793
 11
688.290472
 21
418.402793
 72
     1
 10
688.290472
 20
418.402793
 11
688.290472
 21
415.402793
 97
        1
330
16B
 75
     0
 76
     0
 52
45.0
 41
6.0
 77
     0
 78
     1
 53
45.0
 43
0.0
 44
0.0
 45
-4.242640687119284
 46
4.242640687119285
 79
     0
 47
0.212243
 98
        4
 10
698.3761
 20
480.282593
 10
687.122567
 20
434.225812
 10
691.369184
 20
431.254408
 10
694.766478
 20
425.523841
  0
LINE
  5
25
100
AcDbEntity
  8
CENTRE
100
AcDbLine
 10
493.765534
 20
247.013886
 30
0.0
 11
352.765534
 21
247.013886
 31
0.0
  0
HATCH
  5
28
100
AcDbEntity
  8
HATCH
100
AcDbHatch
 10
0.0
 20
0.0
 30
0.0
210
0.0
220
0.0
230
1.0
  2
_U
 70
     0
 71
     1
 91
        2
 92
        7
 72
     0
 73
     1
 93
        4
 10
495.7655344179456
 20
220.0138856722446
 10
458.2655344179459
 20
220.0138856722447
 10
458.2655344179457
 20
217.0138856722446
 10
495.7655344179454
 20
217.0138856722446
 97
        4
330
30F
330
488
330
464
330
45D
 92
        7
 72
     0
 73
     1
 93
        4
 10
540.7655344179456
 20
220.0138856722446
 10
525.7655344179457
 20
220.0138856722445
 10
525.7655344179457
 20
217.0138856722446
 10
540.7655344179454
 20
217.0138856722446
 97
        4
330
30F
330
45C
330
451
330
497
 75
     0
 76
     0
 52
135.0
 41
0.8
 77
     0
 78
     1
 53
135.0
 43
0.0
 44
0.0
 45
-0.5656854249492382
 46
-0.565685424949238
 79
     0
 47
0.142626
 98
        2
 10
481.738518
 20
218.451479
 10
535.530818
 20
218.451479
  0
HATCH
  5
29
100
AcDbEntity
  8
HATCH
100
AcDbHatch
 10
0.0
 20
0.0
 30
0.0
210
0.0
220
0.0
230
1.0
  2
_U
 70
     0
 71
     1
 91
        3
 92
        7
 72
     0
 73
     1
 93
        4
 10
442.7655344179457
 20
283.0138856722447
 10
434.2655344179457
 20
283.0138856722447
 10
434.2655344179456
 20
280.0138856722446
 10
442.7655344179457
 20
280.0138856722446
 97
        4
330
495
330
5D
330
5E
330
59
 92
        7
 72
     0
 73
     1
 93
        4
 10
492.7655344179455
 20
283.0138856722447
 10
478.7655344179456
 20
283.0138856722447
 10
478.7655344179457
 20
280.0138856722446
 10
492.7655344179457
 20
280.0138856722446
 97
        4
330
495
330
7F
330
5E
330
2B8
 92
        7
 72
     0
 73
     1
 93
        4
 10
540.7655344179453
 20
283.0138856722446
 10
528.7655344179456
 20
283.0138856722446
 10
528.7655344179456
 20
280.0138856722446
 10
540.7655344179456
 20
280.0138856722446
 97
        4
330
495
330
2B9
330
5E
330
49A
 75
     0
 76
     0
 52
135.0
 41
0.8
 77
     0
 78
     1
 53
135.0
 43
0.0
 44
0.0
 45
-0.5656854249492382
 46
-0.565685424949238
 79
     0
 47
0.142626
 98
        3
 10
438.362234
 20
281.634924
 10
481.881203
 20
281.492297
 10
538.527205
 20
281.492297
  0
HATCH
  5
2A
100
AcDbEntity
  8
HATCH
100
AcDbHatch
 10
0.0
 20
0.0
 30
0.0
210
0.0
220
0.0
230
1.0
  2
_U
 70
     0
 71
     1
 91
        2
 92
        7
 72
     0
 73
     1
 93
        4
 10
320.7655344179456
 20
220.0138856722447
 10
305.7655344179456
 20
220.0138856722446
 10
305.7655344179456
 20
217.0138856722446
 10
320.7655344179455
 20
217.0138856722446
 97
        4
330
4A2
330
498
330
496
330
3BA
 92
        7
 72
     0
 73
     1
 93
        4
 10
388.2655344179454
 20
220.0138856722447
 10
350.7655344179456
 20
220.0138856722447
 10
350.7655344179456
 20
217.0138856722446
 10
388.2655344179455
 20
217.0138856722446
 97
        4
330
4A2
330
3B9
330
38D
330
466
 75
     0
 76
     0
 52
135.0
 41
0.8
 77
     0
 78
     1
 53
135.0
 43
0.0
 44
0.0
 45
-0.5656854249492382
 46
-0.565685424949238
 79
     0
 47
0.174501
 98
        2
 10
316.779629
 20
218.052505
 10
360.597478
 20
218.92501
  0
HATCH
  5
2B
100
AcDbEntity
  8
HATCH
100
AcDbHatch
 10
0.0
 20
0.0
 30
0.0
210
0.0
220
0.0
230
1.0
  2
_U
 70
     0
 71
     1
 91
        3
 92
        7
 72
     0
 73
     1
 93
        4
 10
412.2655344179456
 20
283.0138856722446
 10
403.7655344179456
 20
283.0138856722446
 10
403.7655344179456
 20
280.0138856722446
 10
412.2655344179456
 20
280.0138856722446
 97
        4
330
499
330
38
330
4A3
330
5C
 92
        7
 72
     0
 73
     1
 93
        4
 10
367.7655344179456
 20
283.0138856722446
 10
353.7655344179457
 20
283.0138856722446
 10
353.7655344179456
 20
280.0138856722446
 10
367.7655344179456
 20
280.0138856722447
 97
        4
330
499
330
40
330
4A3
330
3D
 92
        7
 72
     0
 73
     1
 93
        4
 10
317.7655344179456
 20
283.0138856722447
 10
305.7655344179456
 20
283.0138856722446
 10
305.7655344179456
 20
280.0138856722446
 10
317.7655344179456
 20
280.0138856722446
 97
        4
330
499
330
49B
330
4A3
330
41
 75
     0
 76
     0
 52
135.0
 41
0.8
 77
     0
 78
     1
 53
135.0
 43
0.0
 44
0.0
 45
-0.5656854249492382
 46
-0.565685424949238
 79
     0
 47
0.174501
 98
        3
 10
409.128806
 20
281.919907
 10
358.502601
 20
281.919907
 10
314.510177
 20
281.221902
  0
HATCH
  5
2C
100
AcDbEntity
  8
HATCH
100
AcDbHatch
 10
0.0
 20
0.0
 30
0.0
210
0.0
220
0.0
230
1.0
  2
_U
 70
     0
 71
     1
 91
       23
 92
       23
 72
     0
 73
     1
 93
        4
 10
506.7655344179456
 20
280.0138856722446
 10
464.7655344179456
 20
280.0138856722446
 10
464.7655344179456
 20
268.5138856722445
 10
506.7655344179456
 20
268.5138856722445
 97
        4
330
5E
330
81
330
44C
330
44E
 92
        7
 72
     1
 73
     1
 93
       12
 10
456.7655344179456
 20
264.5138856722445
 42
0.0
 10
456.7655344179457
 20
280.0138856722446
 42
0.0
 10
433.4655344179457
 20
280.0138856722446
 42
0.0
 10
432.7655344179458
 20
279.3138856722445
 42
0.0
 10
432.7655344179458
 20
276.0138856722446
 42
0.0
 10
432.7655344179458
 20
275.0138856722446
 42
0.0
 10
431.7655344179457
 20
275.0138856722446
 42
0.0
 10
423.2655344179456
 20
275.0138856722446
 42
0.0
 10
423.2655344179455
 20
251.0138856722444
 42
0.0
 10
481.7655344179456
 20
251.0138856722444
 42
0.0
 10
481.7655344179455
 20
260.5138856722445
 42
0.0
 10
460.7655344179456
 20
260.5138856722445
 42
-0.4142135623730951
 97
       12
330
7D
330
5E
330
2A6
330
7A
330
6D
330
6C
330
7B
330
4A5
330
54
330
56
330
44D
330
7E
 92
        7
 72
     1
 73
     1
 93
       42
 10
542.7655344179457
 20
278.0138856722446
 42
0.0
 10
540.7655344179456
 20
280.0138856722446
 42
0.0
 10
537.7655344179458
 20
280.0138856722446
 42
0.0
 10
537.7655344179457
 20
276.0138856722446
 42
-1.0
 10
529.7655344179457
 20
276.0138856722448
 42
0.0
 10
529.7655344179457
 20
280.0138856722446
 42
0.0
 10
514.7655344179456
 20
280.0138856722446
 42
0.0
 10
514.7655344179456
 20
264.5138856722445
 42
-0.4142135623730951
 10
510.7655344179456
 20
260.5138856722445
 42
0.0
 10
489.7655344179457
 20
260.5138856722446
 42
0.0
 10
489.7655344179456
 20
247.0138856722444
 42
-0.4142135623730929
 10
485.7655344179456
 20
243.0138856722444
 42
0.0
 10
427.2655344179457
 20
243.0138856722444
 42
0.0
 10
427.2655344179456
 20
230.0138856722444
 42
0.0
 10
432.2655344179455
 20
230.0138856722444
 42
0.0
 10
433.2655344179454
 20
230.0138856722444
 42
0.0
 10
433.2655344179455
 20
229.0138856722444
 42
0.0
 10
433.2655344179455
 20
220.5138856722443
 42
0.0
 10
433.7655344179453
 20
220.0138856722447
 42
0.0
 10
446.2655344179457
 20
220.0138856722447
 42
0.0
 10
446.2655344179457
 20
227.3138856722446
 42
0.0
 10
446.2655344179457
 20
229.8138856722445
 42
0.0
 10
446.9655344179456
 20
229.8138856722445
 42
0.0
 10
446.9655344179456
 20
231.3138856722444
 42
0.0
 10
449.2655344179456
 20
232.6417912913806
 42
0.0
 10
451.5655344179457
 20
231.3138856722445
 42
0.0
 10
451.5655344179456
 20
229.8138856722445
 42
0.0
 10
452.2655344179456
 20
229.8138856722444
 42
0.0
 10
452.2655344179456
 20
227.3138856722447
 42
0.0
 10
452.2655344179456
 20
220.0138856722447
 42
0.0
 10
496.7655344179457
 20
220.0138856722446
 42
0.0
 10
496.7655344179456
 20
220.3138856722445
 42
0.0
 10
497.4655344179457
 20
221.0138856722446
 42
0.0
 10
524.0655344179456
 20
221.0138856722446
 42
0.0
 10
524.7655344179456
 20
220.3138856722445
 42
0.0
 10
524.7655344179456
 20
220.0138856722446
 42
0.0
 10
529.7655344179457
 20
220.0138856722446
 42
0.0
 10
529.7655344179457
 20
224.0138856722445
 42
-1.0
 10
537.7655344179457
 20
224.0138856722445
 42
0.0
 10
537.7655344179457
 20
220.0138856722446
 42
0.0
 10
540.7655344179456
 20
220.0138856722445
 42
0.0
 10
542.7655344179457
 20
222.0138856722444
 42
0.0
 97
       38
330
49D
330
5E
330
2F3
330
2F4
330
2F2
330
44F
330
450
330
4F
330
57
330
58
330
55
330
472
330
491
330
48E
330
48D
330
493
330
483
330
467
330
326
330
310
330
31C
330
311
330
31A
330
319
330
313
330
312
330
327
330
30F
330
459
330
458
330
45E
330
453
330
454
330
2E9
330
2EB
330
2EA
330
49C
330
4A0
 92
        7
 72
     1
 73
     1
 93
       42
 10
419.2655344179456
 20
243.0138856722444
 42
0.0
 10
360.7655344179456
 20
243.0138856722444
 42
-0.4142135623730951
 10
356.7655344179456
 20
247.0138856722444
 42
0.0
 10
356.7655344179456
 20
260.5138856722446
 42
0.0
 10
335.7655344179456
 20
260.5138856722445
 42
-0.4142135623730951
 10
331.7655344179456
 20
264.5138856722445
 42
0.0
 10
331.7655344179456
 20
280.0138856722446
 42
0.0
 10
316.7655344179457
 20
280.0138856722446
 42
0.0
 10
316.7655344179456
 20
276.0138856722447
 42
-1.0
 10
308.7655344179456
 20
276.0138856722448
 42
0.0
 10
308.7655344179456
 20
280.0138856722446
 42
0.0
 10
305.7655344179456
 20
280.0138856722446
 42
0.0
 10
303.7655344179456
 20
278.0138856722446
 42
0.0
 10
303.7655344179456
 20
222.0138856722446
 42
0.0
 10
305.7655344179456
 20
220.0138856722446
 42
0.0
 10
308.7655344179456
 20
220.0138856722446
 42
0.0
 10
308.7655344179456
 20
224.0138856722445
 42
-1.0
 10
316.7655344179456
 20
224.0138856722445
 42
0.0
 10
316.7655344179457
 20
220.0138856722446
 42
0.0
 10
321.7655344179456
 20
220.0138856722446
 42
0.0
 10
321.7655344179456
 20
220.3138856722445
 42
0.0
 10
322.4655344179457
 20
221.0138856722446
 42
0.0
 10
349.0655344179455
 20
221.0138856722446
 42
0.0
 10
349.7655344179456
 20
220.3138856722446
 42
0.0
 10
349.7655344179455
 20
220.0138856722446
 42
0.0
 10
394.2655344179456
 20
220.0138856722447
 42
0.0
 10
394.2655344179456
 20
227.3138856722446
 42
0.0
 10
394.2655344179456
 20
229.8138856722445
 42
0.0
 10
394.9655344179456
 20
229.8138856722445
 42
0.0
 10
394.9655344179457
 20
231.3138856722445
 42
0.0
 10
397.2655344179456
 20
232.6417912913806
 42
0.0
 10
399.5655344179456
 20
231.3138856722445
 42
0.0
 10
399.5655344179457
 20
229.8138856722445
 42
0.0
 10
400.2655344179457
 20
229.8138856722445
 42
0.0
 10
400.2655344179457
 20
227.3138856722447
 42
0.0
 10
400.2655344179457
 20
220.0138856722447
 42
0.0
 10
412.7655344179458
 20
220.0138856722447
 42
0.0
 10
413.2655344179457
 20
220.5138856722443
 42
0.0
 10
413.2655344179457
 20
229.0138856722445
 42
0.0
 10
413.2655344179458
 20
230.0138856722445
 42
0.0
 10
414.2655344179457
 20
230.0138856722445
 42
0.0
 10
419.2655344179456
 20
230.0138856722445
 42
0.0
 97
       37
330
34
330
37
330
36
330
2E
330
49
330
48
330
4A3
330
2E0
330
2E2
330
2E1
330
49E
330
4A1
330
49F
330
4A2
330
2D8
330
2D9
330
2D7
330
3B6
330
3B5
330
3BB
330
3B0
330
3B1
330
30C
330
2F7
330
301
330
2F8
330
2FE
330
2FF
330
2F6
330
2F5
330
30B
330
482
330
492
330
48B
330
48C
330
491
330
46E
 92
        7
 72
     1
 73
     1
 93
       12
 10
423.2655344179456
 20
275.0138856722446
 42
0.0
 10
414.7655344179457
 20
275.0138856722446
 42
0.0
 10
413.7655344179457
 20
275.0138856722446
 42
0.0
 10
413.7655344179457
 20
276.0138856722446
 42
0.0
 10
413.7655344179457
 20
279.3138856722446
 42
0.0
 10
413.0655344179458
 20
280.0138856722446
 42
0.0
 10
389.7655344179456
 20
280.0138856722446
 42
0.0
 10
389.7655344179456
 20
264.5138856722445
 42
-0.4142135623730951
 10
385.7655344179456
 20
260.5138856722445
 42
0.0
 10
364.7655344179456
 20
260.5138856722445
 42
0.0
 10
364.7655344179457
 20
251.0138856722444
 42
0.0
 10
423.2655344179456
 20
251.0138856722444
 42
0.0
 97
       12
330
7B
330
65
330
66
330
79
330
2A5
330
4A3
330
3B
330
3C
330
46
330
35
330
54
330
4A5
 92
       23
 72
     0
 73
     1
 93
        4
 10
381.7655344179456
 20
280.0138856722446
 10
339.7655344179456
 20
280.0138856722446
 10
339.7655344179456
 20
268.5138856722445
 10
381.7655344179456
 20
268.5138856722445
 97
        4
330
4A3
330
47
330
45
330
3F
 92
       23
 72
     0
 73
     1
 93
        4
 10
327.6066524304888
 20
220.3138856722445
 10
321.7655344179456
 20
220.3138856722446
 10
321.7655344179456
 20
220.0138856722446
 10
327.9066524304886
 20
220.0138856722447
 97
        4
330
3AF
330
3B6
330
4A2
330
3A7
 92
       23
 72
     0
 73
     1
 93
        4
 10
326.9066524304885
 20
221.0138856722446
 10
322.4655344179457
 20
221.0138856722446
 10
321.7655344179456
 20
220.3138856722446
 10
327.6066524304884
 20
220.3138856722446
 97
        4
330
3BB
330
3B5
330
3AF
330
39C
 92
       23
 72
     0
 73
     1
 93
        4
 10
335.7655344179456
 20
221.0138856722446
 10
326.9066524304883
 20
221.0138856722446
 10
327.6066524304886
 20
220.3138856722446
 10
335.7655344179456
 20
220.3138856722446
 97
        4
330
3BB
330
39C
330
3AF
330
3BD
 92
       23
 72
     0
 73
     1
 93
        4
 10
335.7655344179456
 20
220.3138856722445
 10
327.6066524304886
 20
220.3138856722445
 10
327.9066524304885
 20
220.0138856722446
 10
335.7655344179456
 20
220.0138856722446
 97
        4
330
3AF
330
3A7
330
4A2
330
3BD
 92
       23
 72
     0
 73
     1
 93
        4
 10
343.9244164054027
 20
220.3138856722446
 10
335.7655344179457
 20
220.3138856722446
 10
335.7655344179457
 20
220.0138856722447
 10
343.6244164054028
 20
220.0138856722446
 97
        4
330
3AF
330
3BD
330
4A2
330
3A9
 92
       23
 72
     0
 73
     1
 93
        4
 10
344.6244164054029
 20
221.0138856722446
 10
335.7655344179456
 20
221.0138856722446
 10
335.7655344179456
 20
220.3138856722446
 10
343.9244164054027
 20
220.3138856722446
 97
        4
330
3BB
330
3BD
330
3AF
330
39D
 92
       22
 72
     0
 73
     1
 93
        4
 10
349.0655344179454
 20
221.0138856722446
 10
344.6244164054028
 20
221.0138856722446
 10
343.9244164054027
 20
220.3138856722446
 10
349.7655344179456
 20
220.3138856722446
 97
        4
330
3BB
330
39D
330
3AF
330
3B0
 92
       22
 72
     0
 73
     1
 93
        4
 10
349.7655344179456
 20
220.3138856722445
 10
343.9244164054027
 20
220.3138856722445
 10
343.6244164054028
 20
220.0138856722447
 10
349.7655344179457
 20
220.0138856722447
 97
        4
330
3AF
330
3A9
330
4A2
330
3B1
 92
       23
 72
     0
 73
     1
 93
        4
 10
502.6066524304884
 20
220.3138856722446
 10
496.7655344179456
 20
220.3138856722445
 10
496.7655344179456
 20
220.0138856722446
 10
502.9066524304885
 20
220.0138856722447
 97
        4
330
452
330
459
330
30F
330
3D9
 92
       23
 72
     0
 73
     1
 93
        4
 10
501.9066524304884
 20
221.0138856722446
 10
497.4655344179457
 20
221.0138856722446
 10
496.7655344179456
 20
220.3138856722446
 10
502.6066524304885
 20
220.3138856722446
 97
        4
330
45E
330
458
330
452
330
3CD
 92
       23
 72
     0
 73
     1
 93
        4
 10
510.7655344179455
 20
221.0138856722446
 10
501.9066524304886
 20
221.0138856722446
 10
502.6066524304885
 20
220.3138856722445
 10
510.7655344179456
 20
220.3138856722445
 97
        4
330
45E
330
3CD
330
452
330
460
 92
       23
 72
     0
 73
     1
 93
        4
 10
510.7655344179455
 20
220.3138856722445
 10
502.6066524304884
 20
220.3138856722445
 10
502.9066524304885
 20
220.0138856722446
 10
510.7655344179455
 20
220.0138856722446
 97
        4
330
452
330
3D9
330
30F
330
460
 92
       23
 72
     0
 73
     1
 93
        4
 10
519.6244164054028
 20
221.0138856722446
 10
510.7655344179456
 20
221.0138856722446
 10
510.7655344179457
 20
220.3138856722446
 10
518.9244164054027
 20
220.3138856722445
 97
        4
330
45E
330
460
330
452
330
3CE
 92
       23
 72
     0
 73
     1
 93
        4
 10
518.9244164054029
 20
220.3138856722446
 10
510.7655344179455
 20
220.3138856722446
 10
510.7655344179455
 20
220.0138856722446
 10
518.6244164054027
 20
220.0138856722446
 97
        4
330
452
330
460
330
30F
330
3DB
 92
       22
 72
     0
 73
     1
 93
        4
 10
524.0655344179454
 20
221.0138856722446
 10
519.6244164054028
 20
221.0138856722446
 10
518.9244164054026
 20
220.3138856722446
 10
524.7655344179456
 20
220.3138856722446
 97
        4
330
45E
330
3CE
330
452
330
453
 92
       22
 72
     0
 73
     1
 93
        4
 10
524.7655344179456
 20
220.3138856722446
 10
518.9244164054027
 20
220.3138856722446
 10
518.6244164054029
 20
220.0138856722446
 10
524.7655344179456
 20
220.0138856722446
 97
        4
330
452
330
3DB
330
30F
330
454
 92
       24
 93
        4
 72
     1
 10
521.016704
 20
241.254343
 11
535.559561
 21
241.254343
 72
     1
 10
535.559561
 20
241.254343
 11
535.559561
 21
244.254343
 72
     1
 10
535.559561
 20
244.254343
 11
521.016704
 21
244.254343
 72
     1
 10
521.016704
 20
244.254343
 11
521.016704
 21
241.254343
 97
        1
330
389
 75
     0
 76
     0
 52
45.0
 41
6.0
 77
     0
 78
     1
 53
45.0
 43
0.0
 44
0.0
 45
-4.242640687119284
 46
4.242640687119285
 79
     0
 47
0.045638
 98
       22
 10
491.072773
 20
275.645971
 10
434.209501
 20
263.736677
 10
511.651863
 20
252.368713
 10
377.075452
 20
238.023426
 10
395.48832
 20
258.594027
 10
360.287246
 20
272.397982
 10
324.550266
 20
220.082893
 10
324.710291
 20
220.536112
 10
328.204181
 20
220.509452
 10
328.417549
 20
220.109553
 10
341.486293
 20
220.162872
 10
341.859686
 20
220.616091
 10
346.04702
 20
220.722731
 10
345.913664
 20
220.136213
 10
500.874332
 20
220.147737
 10
500.874332
 20
220.558479
 10
503.796378
 20
220.558479
 10
503.933347
 20
220.193374
 10
516.123762
 20
220.649756
 10
515.758506
 20
220.147737
 10
520.826429
 20
220.467204
 10
520.23289
 20
220.147737
  0
HATCH
  5
2D
100
AcDbEntity
  8
HATCH
100
AcDbHatch
 10
0.0
 20
0.0
 30
0.0
210
0.0
220
0.0
230
1.0
  2
_U
 70
     0
 71
     1
 91
        2
 92
        7
 72
     1
 73
     1
 93
        2
 10
529.7655344179457
 20
276.0138856722448
 42
1.0
 10
537.7655344179457
 20
276.0138856722448
 42
1.0
 97
        1
330
2F4
 92
        7
 72
     1
 73
     1
 93
        2
 10
529.7655344179457
 20
224.0138856722445
 42
1.0
 10
537.7655344179457
 20
224.0138856722445
 42
1.0
 97
        1
330
2EB
 75
     0
 76
     0
 52
45.0
 41
0.8
 77
     0
 78
     1
 53
45.0
 43
0.0
 44
0.0
 45
-0.565685424949238
 46
0.565685424949238
 79
     0
 47
0.270666
 98
        2
 10
532.772507
 20
277.269966
 10
534.938727
 20
225.843466
  0
LINE
  5
2E
102
{ACAD_REACTORS
330
2C
102
}
100
AcDbEntity
  8
M01
100
AcDbLine
 10
356.765534
 20
260.513886
 30
0.0
 11
335.765534
 21
260.513886
 31
0.0
  0
LINE
  5
30
100
AcDbEntity
  8
M01
100
AcDbLine
 10
360.765534
 20
264.513886
 30
0.0
 11
356.765534
 21
260.513886
 31
0.0
  0
LINE
  5
31
100
AcDbEntity
  8
M01
100
AcDbLine
 10
364.765534
 20
260.513886
 30
0.0
 11
360.765534
 21
264.513886
 31
0.0
  0
LINE
  5
32
100
AcDbEntity
  8
CENTRE
100
AcDbLine
 10
360.765534
 20
238.897127
 30
0.0
 11
360.765534
 21
270.862183
 31
0.0
  0
LINE
  5
33
100
AcDbEntity
  8
M01
100
AcDbLine
 10
364.765534
 20
251.013886
 30
0.0
 11
360.765534
 21
247.013886
 31
0.0
  0
LINE
  5
34
102
{ACAD_REACTORS
330
2C
102
}
100
AcDbEntity
  8
M01
100
AcDbLine
 10
419.265534
 20
243.013886
 30
0.0
 11
360.765534
 21
243.013886
 31
0.0
  0
LINE
  5
35
102
{ACAD_REACTORS
330
2C
102
}
100
AcDbEntity
  8
M01
100
AcDbLine
 10
364.765534
 20
251.013886
 30
0.0
 11
364.765534
 21
260.513886
 31
0.0
  0
LINE
  5
36
102
{ACAD_REACTORS
330
2C
102
}
100
AcDbEntity
  8
M01
100
AcDbLine
 10
356.765534
 20
247.013886
 30
0.0
 11
356.765534
 21
260.513886
 31
0.0
  0
ARC
  5
37
102
{ACAD_REACTORS
330
2C
102
}
100
AcDbEntity
  8
M01
100
AcDbCircle
 10
360.765534
 20
247.013886
 30
0.0
 40
4.0
100
AcDbArc
 50
180.0
 51
270.0
  0
LINE
  5
38
102
{ACAD_REACTORS
330
2B
102
}
100
AcDbEntity
  8
M02
100
AcDbLine
 10
403.765534
 20
280.013886
 30
0.0
 11
403.765534
 21
283.013886
 31
0.0
  0
LINE
  5
3A
100
AcDbEntity
  8
M01
100
AcDbLine
 10
381.765534
 20
268.513886
 30
0.0
 11
385.765534
 21
264.513886
 31
0.0
  0
LINE
  5
3B
102
{ACAD_REACTORS
330
2C
102
}
100
AcDbEntity
  8
M01
100
AcDbLine
 10
389.765534
 20
264.513886
 30
0.0
 11
389.765534
 21
280.013886
 31
0.0
  0
ARC
  5
3C
102
{ACAD_REACTORS
330
2C
102
}
100
AcDbEntity
  8
M01
100
AcDbCircle
 10
385.765534
 20
264.513886
 30
0.0
 40
4.0
100
AcDbArc
 50
270.0
 51
0.0
  0
LINE
  5
3D
102
{ACAD_REACTORS
330
2B
102
}
100
AcDbEntity
  8
M02
100
AcDbLine
 10
367.765534
 20
280.013886
 30
0.0
 11
367.765534
 21
283.013886
 31
0.0
  0
LINE
  5
3E
100
AcDbEntity
  8
CENTRE
100
AcDbLine
 10
385.765534
 20
256.397127
 30
0.0
 11
385.765534
 21
290.362183
 31
0.0
  0
LINE
  5
3F
102
{ACAD_REACTORS
330
2C
102
}
100
AcDbEntity
  8
M01
100
AcDbLine
 10
381.765534
 20
268.513886
 30
0.0
 11
381.765534
 21
280.013886
 31
0.0
  0
LINE
  5
40
102
{ACAD_REACTORS
330
2B
102
}
100
AcDbEntity
  8
M02
100
AcDbLine
 10
353.765534
 20
280.013886
 30
0.0
 11
353.765534
 21
283.013886
 31
0.0
  0
LINE
  5
41
102
{ACAD_REACTORS
330
2B
102
}
100
AcDbEntity
  8
M02
100
AcDbLine
 10
317.765534
 20
280.013886
 30
0.0
 11
317.765534
 21
283.013886
 31
0.0
  0
LINE
  5
42
100
AcDbEntity
  8
CENTRE
100
AcDbLine
 10
393.765534
 20
264.513886
 30
0.0
 11
327.765534
 21
264.513886
 31
0.0
  0
LINE
  5
43
100
AcDbEntity
  8
CENTRE
100
AcDbLine
 10
335.765534
 20
256.397127
 30
0.0
 11
335.765534
 21
290.362183
 31
0.0
  0
LINE
  5
44
100
AcDbEntity
  8
M01
100
AcDbLine
 10
339.765534
 20
268.513886
 30
0.0
 11
335.765534
 21
264.513886
 31
0.0
  0
LINE
  5
45
102
{ACAD_REACTORS
330
2C
102
}
100
AcDbEntity
  8
M01
100
AcDbLine
 10
381.765534
 20
268.513886
 30
0.0
 11
339.765534
 21
268.513886
 31
0.0
  0
LINE
  5
46
102
{ACAD_REACTORS
330
2C
102
}
100
AcDbEntity
  8
M01
100
AcDbLine
 10
385.765534
 20
260.513886
 30
0.0
 11
364.765534
 21
260.513886
 31
0.0
  0
LINE
  5
47
102
{ACAD_REACTORS
330
2C
102
}
100
AcDbEntity
  8
M01
100
AcDbLine
 10
339.765534
 20
268.513886
 30
0.0
 11
339.765534
 21
280.013886
 31
0.0
  0
LINE
  5
48
102
{ACAD_REACTORS
330
2C
102
}
100
AcDbEntity
  8
M01
100
AcDbLine
 10
331.765534
 20
264.513886
 30
0.0
 11
331.765534
 21
280.013886
 31
0.0
  0
ARC
  5
49
102
{ACAD_REACTORS
330
2C
102
}
100
AcDbEntity
  8
M01
100
AcDbCircle
 10
335.765534
 20
264.513886
 30
0.0
 40
4.0
100
AcDbArc
 50
180.0
 51
270.0
  0
LINE
  5
4A
100
AcDbEntity
  8
DIMS
 62
     4
100
AcDbLine
 10
688.711979
 20
435.959226
 30
0.0
 11
688.711979
 21
438.259226
 31
0.0
  0
LINE
  5
4C
100
AcDbEntity
  8
DIMS
 62
     4
100
AcDbLine
 10
688.711979
 20
429.159226
 30
0.0
 11
688.711979
 21
426.859226
 31
0.0
  0
LINE
  5
4D
100
AcDbEntity
  8
DIMS
 62
     4
100
AcDbLine
 10
688.711979
 20
430.859226
 30
0.0
 11
688.711979
 21
434.259226
 31
0.0
  0
CIRCLE
  5
4E
102
{ACAD_REACTORS
330
24
102
}
100
AcDbEntity
  8
M03
100
AcDbCircle
 10
688.711979
 20
432.559226
 30
0.0
 40
4.0
  0
LINE
  5
4F
102
{ACAD_REACTORS
330
2C
102
}
100
AcDbEntity
  8
M01
100
AcDbLine
 10
489.765534
 20
260.513886
 30
0.0
 11
510.765534
 21
260.513886
 31
0.0
  0
LINE
  5
50
100
AcDbEntity
  8
M01
100
AcDbLine
 10
485.765534
 20
264.513886
 30
0.0
 11
489.765534
 21
260.513886
 31
0.0
  0
LINE
  5
51
100
AcDbEntity
  8
M01
100
AcDbLine
 10
481.765534
 20
260.513886
 30
0.0
 11
485.765534
 21
264.513886
 31
0.0
  0
LINE
  5
52
100
AcDbEntity
  8
CENTRE
100
AcDbLine
 10
485.765534
 20
238.897127
 30
0.0
 11
485.765534
 21
270.862183
 31
0.0
  0
LINE
  5
53
100
AcDbEntity
  8
M01
100
AcDbLine
 10
481.765534
 20
251.013886
 30
0.0
 11
485.765534
 21
247.013886
 31
0.0
  0
LINE
  5
54
102
{ACAD_REACTORS
330
2C
102
}
100
AcDbEntity
  8
M01
100
AcDbLine
 10
364.765534
 20
251.013886
 30
0.0
 11
481.765534
 21
251.013886
 31
0.0
  0
LINE
  5
55
102
{ACAD_REACTORS
330
2C
102
}
100
AcDbEntity
  8
M01
100
AcDbLine
 10
427.265534
 20
243.013886
 30
0.0
 11
485.765534
 21
243.013886
 31
0.0
  0
LINE
  5
56
102
{ACAD_REACTORS
330
2C
102
}
100
AcDbEntity
  8
M01
100
AcDbLine
 10
481.765534
 20
251.013886
 30
0.0
 11
481.765534
 21
260.513886
 31
0.0
  0
LINE
  5
57
102
{ACAD_REACTORS
330
2C
102
}
100
AcDbEntity
  8
M01
100
AcDbLine
 10
489.765534
 20
247.013886
 30
0.0
 11
489.765534
 21
260.513886
 31
0.0
  0
ARC
  5
58
102
{ACAD_REACTORS
330
2C
102
}
100
AcDbEntity
  8
M01
100
AcDbCircle
 10
485.765534
 20
247.013886
 30
0.0
 40
4.0
100
AcDbArc
 50
270.0
 51
0.0
  0
LINE
  5
59
102
{ACAD_REACTORS
330
29
102
}
100
AcDbEntity
  8
M02
100
AcDbLine
 10
442.765534
 20
280.013886
 30
0.0
 11
442.765534
 21
283.013886
 31
0.0
  0
TEXT
  5
5A
100
AcDbEntity
  8
TEXT
100
AcDbText
 10
425.977701
 20
290.649662
 30
0.0
 40
2.0
  1
MA010008
 50
270.0
 41
0.9
100
AcDbText
  0
LINE
  5
5C
102
{ACAD_REACTORS
330
2B
102
}
100
AcDbEntity
  8
M02
100
AcDbLine
 10
412.265534
 20
283.013886
 30
0.0
 11
412.265534
 21
280.013886
 31
0.0
  0
LINE
  5
5D
102
{ACAD_REACTORS
330
29
102
}
100
AcDbEntity
  8
M02
100
AcDbLine
 10
434.265534
 20
283.013886
 30
0.0
 11
434.265534
 21
280.013886
 31
0.0
  0
LINE
  5
5E
102
{ACAD_REACTORS
330
2C
330
29
102
}
100
AcDbEntity
  8
M01
100
AcDbLine
 10
432.765534
 20
280.013886
 30
0.0
 11
540.765534
 21
280.013886
 31
0.0
  0
LINE
  5
5F
100
AcDbEntity
  8
M04
100
AcDbLine
 10
412.265534
 20
291.436535
 30
0.0
 11
413.765534
 21
291.436535
 31
0.0
  0
LINE
  5
61
100
AcDbEntity
  8
M04
100
AcDbLine
 10
412.265534
 20
291.436535
 30
0.0
 11
412.265534
 21
287.013886
 31
0.0
  0
LINE
  5
62
100
AcDbEntity
  8
M04
100
AcDbLine
 10
413.265534
 20
292.013886
 30
0.0
 11
412.265534
 21
291.436535
 31
0.0
  0
LINE
  5
63
100
AcDbEntity
  8
M04
100
AcDbLine
 10
413.265534
 20
296.013886
 30
0.0
 11
413.265534
 21
297.013886
 31
0.0
  0
LINE
  5
64
100
AcDbEntity
  8
M04
100
AcDbLine
 10
414.265534
 20
297.013886
 30
0.0
 11
413.265534
 21
297.013886
 31
0.0
  0
LINE
  5
65
102
{ACAD_REACTORS
330
2C
102
}
100
AcDbEntity
  8
M04
100
AcDbLine
 10
414.765534
 20
275.013886
 30
0.0
 11
413.765534
 21
275.013886
 31
0.0
  0
LINE
  5
66
102
{ACAD_REACTORS
330
2C
102
}
100
AcDbEntity
  8
M04
100
AcDbLine
 10
413.765534
 20
276.013886
 30
0.0
 11
413.765534
 21
275.013886
 31
0.0
  0
LINE
  5
67
100
AcDbEntity
  8
M04
100
AcDbLine
 10
434.265534
 20
291.436535
 30
0.0
 11
432.765534
 21
291.436535
 31
0.0
  0
LINE
  5
68
100
AcDbEntity
  8
M04
100
AcDbLine
 10
434.265534
 20
291.436535
 30
0.0
 11
434.265534
 21
287.013886
 31
0.0
  0
LINE
  5
69
100
AcDbEntity
  8
M04
100
AcDbLine
 10
433.265534
 20
292.013886
 30
0.0
 11
434.265534
 21
291.436535
 31
0.0
  0
LINE
  5
6A
100
AcDbEntity
  8
M04
100
AcDbLine
 10
433.265534
 20
296.013886
 30
0.0
 11
433.265534
 21
297.013886
 31
0.0
  0
LINE
  5
6B
100
AcDbEntity
  8
M04
100
AcDbLine
 10
432.265534
 20
297.013886
 30
0.0
 11
433.265534
 21
297.013886
 31
0.0
  0
LINE
  5
6C
102
{ACAD_REACTORS
330
2C
102
}
100
AcDbEntity
  8
M04
100
AcDbLine
 10
431.765534
 20
275.013886
 30
0.0
 11
432.765534
 21
275.013886
 31
0.0
  0
LINE
  5
6D
102
{ACAD_REACTORS
330
2C
102
}
100
AcDbEntity
  8
M04
100
AcDbLine
 10
432.765534
 20
276.013886
 30
0.0
 11
432.765534
 21
275.013886
 31
0.0
  0
LINE
  5
6E
100
AcDbEntity
  8
M05
100
AcDbLine
 10
413.765534
 20
276.013886
 30
0.0
 11
432.765534
 21
276.013886
 31
0.0
  0
LINE
  5
70
100
AcDbEntity
  8
M05
100
AcDbLine
 10
413.265534
 20
296.013886
 30
0.0
 11
433.265534
 21
296.013886
 31
0.0
  0
LINE
  5
71
100
AcDbEntity
  8
M05
100
AcDbLine
 10
414.765534
 20
275.013886
 30
0.0
 11
413.765534
 21
276.013886
 31
0.0
  0
LINE
  5
72
100
AcDbEntity
  8
M05
100
AcDbLine
 10
432.765534
 20
276.013886
 30
0.0
 11
431.765534
 21
275.013886
 31
0.0
  0
LINE
  5
73
100
AcDbEntity
  8
M05
100
AcDbLine
 10
432.265534
 20
297.013886
 30
0.0
 11
433.265534
 21
296.013886
 31
0.0
  0
LINE
  5
74
100
AcDbEntity
  8
M05
100
AcDbLine
 10
413.265534
 20
296.013886
 30
0.0
 11
414.265534
 21
297.013886
 31
0.0
  0
LINE
  5
75
100
AcDbEntity
  8
M05
100
AcDbLine
 10
433.265534
 20
296.013886
 30
0.0
 11
433.265534
 21
292.013886
 31
0.0
  0
LINE
  5
76
100
AcDbEntity
  8
M05
100
AcDbLine
 10
413.265534
 20
296.013886
 30
0.0
 11
413.265534
 21
292.013886
 31
0.0
  0
LINE
  5
77
100
AcDbEntity
  8
M05
100
AcDbLine
 10
433.265534
 20
292.013886
 30
0.0
 11
413.265534
 21
292.013886
 31
0.0
  0
LINE
  5
78
100
AcDbEntity
  8
M05
100
AcDbLine
 10
432.265534
 20
297.013886
 30
0.0
 11
414.265534
 21
297.013886
 31
0.0
  0
LINE
  5
79
102
{ACAD_REACTORS
330
2C
102
}
100
AcDbEntity
  8
M05
100
AcDbLine
 10
413.765534
 20
292.013886
 30
0.0
 11
413.765534
 21
276.013886
 31
0.0
  0
LINE
  5
7A
102
{ACAD_REACTORS
330
2C
102
}
100
AcDbEntity
  8
M05
100
AcDbLine
 10
432.765534
 20
292.013886
 30
0.0
 11
432.765534
 21
276.013886
 31
0.0
  0
LINE
  5
7B
102
{ACAD_REACTORS
330
2C
102
}
100
AcDbEntity
  8
M05
100
AcDbLine
 10
431.765534
 20
275.013886
 30
0.0
 11
414.765534
 21
275.013886
 31
0.0
  0
LINE
  5
7C
100
AcDbEntity
  8
M01
100
AcDbLine
 10
464.765534
 20
268.513886
 30
0.0
 11
460.765534
 21
264.513886
 31
0.0
  0
LINE
  5
7D
102
{ACAD_REACTORS
330
2C
102
}
100
AcDbEntity
  8
M01
100
AcDbLine
 10
456.765534
 20
264.513886
 30
0.0
 11
456.765534
 21
280.013886
 31
0.0
  0
ARC
  5
7E
102
{ACAD_REACTORS
330
2C
102
}
100
AcDbEntity
  8
M01
100
AcDbCircle
 10
460.765534
 20
264.513886
 30
0.0
 40
4.0
100
AcDbArc
 50
180.0
 51
270.0
  0
LINE
  5
7F
102
{ACAD_REACTORS
330
29
102
}
100
AcDbEntity
  8
M02
100
AcDbLine
 10
478.765534
 20
280.013886
 30
0.0
 11
478.765534
 21
283.013886
 31
0.0
  0
LINE
  5
80
100
AcDbEntity
  8
CENTRE
100
AcDbLine
 10
460.765534
 20
256.397127
 30
0.0
 11
460.765534
 21
290.362183
 31
0.0
  0
LINE
  5
81
102
{ACAD_REACTORS
330
2C
102
}
100
AcDbEntity
  8
M01
100
AcDbLine
 10
464.765534
 20
268.513886
 30
0.0
 11
464.765534
 21
280.013886
 31
0.0
  0
LINE
  5
82
100
AcDbEntity
  8
M01
100
AcDbLine
 10
727.199991
 20
566.794894
 30
0.0
 11
729.179699
 21
568.001623
 31
0.0
  0
LINE
  5
83
100
AcDbEntity
  8
M01
100
AcDbLine
 10
734.933958
 20
578.248121
 30
0.0
 11
734.933958
 21
586.822933
 31
0.0
  0
LINE
  5
84
100
AcDbEntity
  8
M01
100
AcDbLine
 10
730.933958
 20
578.248121
 30
0.0
 11
730.933958
 21
586.822933
 31
0.0
  0
ARC
  5
85
100
AcDbEntity
  8
M01
100
AcDbCircle
 10
722.933958
 20
578.248121
 30
0.0
 40
12.0
100
AcDbArc
 50
301.364349
 51
0.0
  0
ARC
  5
86
100
AcDbEntity
  8
M01
100
AcDbCircle
 10
722.933958
 20
578.248121
 30
0.0
 40
8.0
100
AcDbArc
 50
308.846454
 51
0.0
  0
LINE
  5
87
100
AcDbEntity
  8
M01
100
AcDbLine
 10
713.56863
 20
563.170441
 30
0.0
 11
723.796042
 21
569.404549
 31
0.0
  0
LINE
  5
88
100
AcDbEntity
  8
M01
100
AcDbLine
 10
715.650544
 20
559.754942
 30
0.0
 11
715.974076
 21
559.952151
 31
0.0
  0
LINE
  5
89
100
AcDbEntity
  8
M01
100
AcDbLine
 10
714.211979
 20
552.752534
 30
0.0
 11
714.211979
 21
552.159226
 31
0.0
  0
LINE
  5
8A
100
AcDbEntity
  8
M01
100
AcDbLine
 10
710.211979
 20
557.193317
 30
0.0
 11
710.211979
 21
554.467473
 31
0.0
  0
ARC
  5
8B
100
AcDbEntity
  8
M01
100
AcDbCircle
 10
717.211979
 20
557.193317
 30
0.0
 40
3.0
100
AcDbArc
 50
121.364349
 51
151.672691
  0
ARC
  5
8C
100
AcDbEntity
  8
M01
100
AcDbCircle
 10
717.211979
 20
557.193317
 30
0.0
 40
7.0
100
AcDbArc
 50
121.364349
 51
180.0
  0
ARC
  5
8D
100
AcDbEntity
  8
M01
100
AcDbCircle
 10
717.211979
 20
552.159226
 30
0.0
 40
7.0
100
AcDbArc
 50
202.678679
 51
270.0
  0
ARC
  5
8E
100
AcDbEntity
  8
M01
100
AcDbCircle
 10
717.211979
 20
552.159226
 30
0.0
 40
3.0
100
AcDbArc
 50
180.0
 51
270.0
  0
ARC
  5
8F
100
AcDbEntity
  8
M01
100
AcDbCircle
 10
715.951842
 20
570.975701
 30
0.0
 40
12.0
100
AcDbArc
 50
313.586993
 51
0.0
  0
ARC
  5
90
100
AcDbEntity
  8
M01
100
AcDbCircle
 10
715.951842
 20
570.975701
 30
0.0
 40
8.0
100
AcDbArc
 50
313.586993
 51
0.0
  0
LINE
  5
91
100
AcDbEntity
  8
M01
100
AcDbLine
 10
717.211979
 20
549.159226
 30
0.0
 11
722.211979
 21
549.159226
 31
0.0
  0
LINE
  5
92
100
AcDbEntity
  8
M01
100
AcDbLine
 10
718.211979
 20
549.159226
 30
0.0
 11
718.211979
 21
545.159226
 31
0.0
  0
LINE
  5
93
100
AcDbEntity
  8
M01
100
AcDbLine
 10
722.211979
 20
549.159226
 30
0.0
 11
722.211979
 21
545.159226
 31
0.0
  0
LINE
  5
94
100
AcDbEntity
  8
M01
100
AcDbLine
 10
674.211979
 20
545.159226
 30
0.0
 11
701.436517
 21
545.159226
 31
0.0
  0
LINE
  5
95
100
AcDbEntity
  8
M01
100
AcDbLine
 10
701.436517
 20
549.159226
 30
0.0
 11
684.211979
 21
549.159226
 31
0.0
  0
ARC
  5
96
100
AcDbEntity
  8
M01
100
AcDbCircle
 10
701.436517
 20
557.159226
 30
0.0
 40
12.0
100
AcDbArc
 50
270.0
 51
313.586993
  0
ARC
  5
97
100
AcDbEntity
  8
M01
100
AcDbCircle
 10
701.436517
 20
557.159226
 30
0.0
 40
8.0
100
AcDbArc
 50
270.0
 51
313.586993
  0
LINE
  5
98
100
AcDbEntity
  8
M01
100
AcDbLine
 10
688.211979
 20
549.159226
 30
0.0
 11
688.211979
 21
545.159226
 31
0.0
  0
LINE
  5
99
100
AcDbEntity
  8
M01
100
AcDbLine
 10
684.211979
 20
549.159226
 30
0.0
 11
684.211979
 21
545.159226
 31
0.0
  0
LINE
  5
9A
100
AcDbEntity
  8
M01
100
AcDbLine
 10
724.225303
 20
562.28376
 30
0.0
 11
709.709979
 21
548.467285
 31
0.0
  0
LINE
  5
9B
100
AcDbEntity
  8
M01
100
AcDbLine
 10
721.467483
 20
565.181074
 30
0.0
 11
706.952158
 21
551.364599
 31
0.0
  0
LINE
  5
9C
100
AcDbEntity
  8
M01
100
AcDbLine
 10
727.951842
 20
586.814191
 30
0.0
 11
727.951842
 21
570.975701
 31
0.0
  0
LINE
  5
9D
100
AcDbEntity
  8
M01
100
AcDbLine
 10
723.951842
 20
586.814191
 30
0.0
 11
723.951842
 21
570.975701
 31
0.0
  0
LINE
  5
9E
100
AcDbEntity
  8
M01
100
AcDbLine
 10
723.961979
 20
530.503326
 30
0.0
 11
730.461979
 21
530.503326
 31
0.0
  0
LINE
  5
9F
100
AcDbEntity
  8
M01
100
AcDbLine
 10
723.961979
 20
538.615126
 30
0.0
 11
730.461979
 21
538.615126
 31
0.0
  0
LINE
  5
A0
100
AcDbEntity
  8
M01
100
AcDbLine
 10
723.961979
 20
530.503326
 30
0.0
 11
723.961979
 21
528.559226
 31
0.0
  0
ARC
  5
A1
100
AcDbEntity
  8
M01
100
AcDbCircle
 10
722.711979
 20
532.064576
 30
0.0
 40
2.0
100
AcDbArc
 50
308.682187
 51
0.0
  0
ARC
  5
A2
100
AcDbEntity
  8
M01
100
AcDbCircle
 10
722.711979
 20
537.053876
 30
0.0
 40
2.0
100
AcDbArc
 50
0.0
 51
51.317813
  0
LINE
  5
A3
100
AcDbEntity
  8
M01
100
AcDbLine
 10
723.961979
 20
540.559226
 30
0.0
 11
723.961979
 21
538.615126
 31
0.0
  0
LINE
  5
A4
100
AcDbEntity
  8
M01
100
AcDbLine
 10
724.711979
 20
537.053876
 30
0.0
 11
724.711979
 21
532.064576
 31
0.0
  0
LINE
  5
A5
100
AcDbEntity
  8
M01
100
AcDbLine
 10
730.461979
 20
530.503326
 30
0.0
 11
730.461979
 21
528.559226
 31
0.0
  0
ARC
  5
A6
100
AcDbEntity
  8
M01
100
AcDbCircle
 10
731.711979
 20
532.064576
 30
0.0
 40
2.0
100
AcDbArc
 50
180.0
 51
231.317813
  0
ARC
  5
A7
100
AcDbEntity
  8
M01
100
AcDbCircle
 10
731.711979
 20
537.053876
 30
0.0
 40
2.0
100
AcDbArc
 50
128.682187
 51
180.0
  0
LINE
  5
A8
100
AcDbEntity
  8
M01
100
AcDbLine
 10
730.461979
 20
540.559226
 30
0.0
 11
730.461979
 21
538.615126
 31
0.0
  0
LINE
  5
A9
100
AcDbEntity
  8
M01
100
AcDbLine
 10
729.711979
 20
537.053876
 30
0.0
 11
729.711979
 21
532.064576
 31
0.0
  0
LINE
  5
AA
100
AcDbEntity
  8
DIMS
 62
     4
100
AcDbLine
 10
706.211979
 20
435.959226
 30
0.0
 11
706.211979
 21
438.259226
 31
0.0
  0
LINE
  5
AB
100
AcDbEntity
  8
DIMS
 62
     4
100
AcDbLine
 10
706.211979
 20
429.159226
 30
0.0
 11
706.211979
 21
426.859226
 31
0.0
  0
LINE
  5
AC
100
AcDbEntity
  8
DIMS
 62
     4
100
AcDbLine
 10
706.211979
 20
430.859226
 30
0.0
 11
706.211979
 21
434.259226
 31
0.0
  0
LINE
  5
AD
100
AcDbEntity
  8
DIMS
 62
     4
100
AcDbLine
 10
729.211979
 20
412.959226
 30
0.0
 11
729.211979
 21
415.259226
 31
0.0
  0
LINE
  5
AE
100
AcDbEntity
  8
DIMS
 62
     4
100
AcDbLine
 10
729.211979
 20
406.159226
 30
0.0
 11
729.211979
 21
403.859226
 31
0.0
  0
LINE
  5
AF
100
AcDbEntity
  8
DIMS
 62
     4
100
AcDbLine
 10
732.611979
 20
409.559226
 30
0.0
 11
734.911979
 21
409.559226
 31
0.0
  0
LINE
  5
B0
100
AcDbEntity
  8
DIMS
 62
     4
100
AcDbLine
 10
725.811979
 20
409.559226
 30
0.0
 11
723.511979
 21
409.559226
 31
0.0
  0
LINE
  5
B1
100
AcDbEntity
  8
DIMS
 62
     4
100
AcDbLine
 10
729.211979
 20
407.859226
 30
0.0
 11
729.211979
 21
411.259226
 31
0.0
  0
LINE
  5
B2
100
AcDbEntity
  8
DIMS
 62
     4
100
AcDbLine
 10
727.511979
 20
409.559226
 30
0.0
 11
730.911979
 21
409.559226
 31
0.0
  0
LINE
  5
B3
100
AcDbEntity
  8
DIMS
 62
     4
100
AcDbLine
 10
677.211979
 20
412.959226
 30
0.0
 11
677.211979
 21
415.259226
 31
0.0
  0
LINE
  5
B4
100
AcDbEntity
  8
DIMS
 62
     4
100
AcDbLine
 10
677.211979
 20
406.159226
 30
0.0
 11
677.211979
 21
403.859226
 31
0.0
  0
LINE
  5
B5
100
AcDbEntity
  8
DIMS
 62
     4
100
AcDbLine
 10
680.611979
 20
409.559226
 30
0.0
 11
682.911979
 21
409.559226
 31
0.0
  0
LINE
  5
B6
100
AcDbEntity
  8
DIMS
 62
     4
100
AcDbLine
 10
673.811979
 20
409.559226
 30
0.0
 11
671.511979
 21
409.559226
 31
0.0
  0
LINE
  5
B7
100
AcDbEntity
  8
DIMS
 62
     4
100
AcDbLine
 10
677.211979
 20
407.859226
 30
0.0
 11
677.211979
 21
411.259226
 31
0.0
  0
LINE
  5
B8
100
AcDbEntity
  8
DIMS
 62
     4
100
AcDbLine
 10
675.511979
 20
409.559226
 30
0.0
 11
678.911979
 21
409.559226
 31
0.0
  0
HATCH
  5
B9
100
AcDbEntity
  8
HATCH
100
AcDbHatch
 10
0.0
 20
0.0
 30
0.0
210
0.0
220
0.0
230
1.0
  2
_U
 70
     0
 71
     1
 91
        2
 92
        7
 72
     1
 73
     1
 93
        2
 10
681.2119788178302
 20
409.5592260810631
 42
1.0
 10
673.2119788178302
 20
409.5592260810631
 42
1.0
 97
        1
330
BF
 92
        7
 72
     1
 73
     1
 93
        2
 10
733.2119788178301
 20
409.5592260810631
 42
1.0
 10
725.2119788178301
 20
409.5592260810631
 42
1.0
 97
        1
330
BE
 75
     0
 76
     0
 52
45.0
 41
0.8
 77
     0
 78
     1
 53
45.0
 43
-101.378129
 44
0.0
 45
-0.565685424949238
 46
0.565685424949238
 79
     0
 47
0.095608
 98
        2
 10
677.345327
 20
409.258585
 10
716.369518
 20
410.405882
  0
LINE
  5
BA
102
{ACAD_REACTORS
330
24
102
}
100
AcDbEntity
  8
M01
100
AcDbLine
 10
729.211979
 20
405.559226
 30
0.0
 11
733.211979
 21
405.559226
 31
0.0
  0
LINE
  5
BB
102
{ACAD_REACTORS
330
24
102
}
100
AcDbEntity
  8
M01
100
AcDbLine
 10
729.211979
 20
413.559226
 30
0.0
 11
733.211979
 21
413.559226
 31
0.0
  0
LINE
  5
BC
102
{ACAD_REACTORS
330
24
102
}
100
AcDbEntity
  8
M01
100
AcDbLine
 10
677.211979
 20
405.559226
 30
0.0
 11
673.211979
 21
405.559226
 31
0.0
  0
LINE
  5
BD
102
{ACAD_REACTORS
330
24
102
}
100
AcDbEntity
  8
M01
100
AcDbLine
 10
677.211979
 20
413.559226
 30
0.0
 11
673.211979
 21
413.559226
 31
0.0
  0
CIRCLE
  5
BE
102
{ACAD_REACTORS
330
B9
330
24
102
}
100
AcDbEntity
  8
M01
100
AcDbCircle
 10
729.211979
 20
409.559226
 30
0.0
 40
4.0
  0
CIRCLE
  5
BF
102
{ACAD_REACTORS
330
B9
330
24
102
}
100
AcDbEntity
  8
M01
100
AcDbCircle
 10
677.211979
 20
409.559226
 30
0.0
 40
4.0
  0
HATCH
  5
C0
100
AcDbEntity
  8
HATCH
100
AcDbHatch
 10
0.0
 20
0.0
 30
0.0
210
0.0
220
0.0
230
1.0
  2
_U
 70
     0
 71
     1
 91
        4
 92
        7
 72
     0
 73
     1
 93
        9
 10
739.21197881783
 20
464.0592260810633
 10
739.2119788178304
 20
465.8592260810634
 10
738.5119788178301
 20
466.5592260810633
 10
733.9119788178302
 20
466.5592260810633
 10
733.2119788178303
 20
465.8592260810633
 10
733.2119788178303
 20
462.2592260810631
 10
735.2119788178302
 20
462.2592260810632
 10
735.2119788178302
 20
463.8092260810633
 10
735.2119788178302
 20
464.0592260810631
 97
        9
330
1ED
330
1F0
330
1EC
330
23D
330
D5
330
C6
330
DA
330
C8
330
1EF
 92
        7
 72
     1
 73
     1
 93
       16
 10
733.2119788178303
 20
442.5592260810629
 42
0.0
 10
724.2119788178302
 20
442.5592260810629
 42
0.0
 10
723.2119788178303
 20
441.559226081063
 42
0.0
 10
723.2119788178303
 20
436.5592260810632
 42
0.0
 10
741.513193164729
 20
435.600100078959
 42
-0.1092323044357291
 10
744.2119788178302
 20
441.7243774709747
 42
0.0
 10
744.2119788178302
 20
451.8592260810631
 42
0.0
 10
743.5119788178302
 20
452.5592260810631
 42
0.0
 10
742.21197881783
 20
452.5592260810631
 42
0.0
 10
742.21197881783
 20
452.0592260810631
 42
0.0
 10
739.2119788178302
 20
452.0592260810631
 42
0.0
 10
739.2119788178302
 20
453.0592260810633
 42
0.0
 10
735.2119788178302
 20
453.0592260810633
 42
0.0
 10
735.2119788178302
 20
453.3092260810633
 42
0.0
 10
735.2119788178302
 20
454.8592260810631
 42
0.0
 10
733.2119788178303
 20
454.8592260810632
 42
0.0
 97
       16
330
1E2
330
1E5
330
1DF
330
1DE
330
1EF
330
C9
330
C7
330
C6
330
D4
330
C5
330
1F9
330
1F5
330
1F7
330
1D3
330
1D4
330
1E3
 92
        7
 72
     1
 73
     1
 93
       16
 10
733.2119788178303
 20
402.5592260810631
 42
0.0
 10
733.2119788178301
 20
400.5592260810632
 42
0.0
 10
733.9119788178301
 20
399.859226081063
 42
0.0
 10
738.5119788178301
 20
399.859226081063
 42
0.0
 10
739.2119788178302
 20
400.5592260810631
 42
0.0
 10
739.2119788178303
 20
413.059226081063
 42
0.0
 10
742.2119788178305
 20
413.059226081063
 42
0.0
 10
742.2119788178305
 20
412.5592260810631
 42
0.0
 10
743.5119788178305
 20
412.5592260810631
 42
0.0
 10
744.2119788178305
 20
413.259226081063
 42
0.0
 10
744.2119788178303
 20
423.3940746911513
 42
-0.1092323044357273
 10
741.513193164729
 20
429.5183520831669
 42
0.0
 10
723.2119788178303
 20
428.5592260810632
 42
0.0
 10
723.2119788178303
 20
423.559226081063
 42
0.0
 10
724.2119788178302
 20
422.559226081063
 42
0.0
 10
733.2119788178303
 20
422.559226081063
 42
0.0
 97
       16
330
1D0
330
1D2
330
1F7
330
1F6
330
1F8
330
1E7
330
16A
330
1E9
330
1EB
330
1EA
330
1DC
330
1DD
330
1DB
330
1E4
330
1E1
330
1E3
 92
       24
 93
        4
 72
     1
 10
725.218631
 20
437.880683
 11
739.590059
 21
437.880683
 72
     1
 10
739.590059
 20
437.880683
 11
739.590059
 21
440.880683
 72
     1
 10
739.590059
 20
440.880683
 11
725.218631
 21
440.880683
 72
     1
 10
725.218631
 20
440.880683
 11
725.218631
 21
437.880683
 97
        1
330
1C6
 75
     0
 76
     0
 52
135.0
 41
2.5
 77
     0
 78
     1
 53
135.0
 43
-88.378129
 44
0.0
 45
-1.767766952966368
 46
-1.767766952966368
 79
     0
 47
0.115254
 98
        3
 10
736.037986
 20
464.76431
 10
737.882806
 20
442.866133
 10
737.767504
 20
421.77473
  0
LINE
  5
C1
102
{ACAD_REACTORS
330
24
102
}
100
AcDbEntity
  8
M04
100
AcDbLine
 10
725.911979
 20
455.559226
 30
0.0
 11
723.411979
 21
455.559226
 31
0.0
  0
LINE
  5
C2
102
{ACAD_REACTORS
330
24
102
}
100
AcDbEntity
  8
M04
100
AcDbLine
 10
725.211979
 20
456.259226
 30
0.0
 11
721.911979
 21
456.259226
 31
0.0
  0
LINE
  5
C3
102
{ACAD_REACTORS
330
24
102
}
100
AcDbEntity
  8
M04
100
AcDbLine
 10
725.911979
 20
461.559226
 30
0.0
 11
723.411979
 21
461.559226
 31
0.0
  0
LINE
  5
C4
102
{ACAD_REACTORS
330
24
102
}
100
AcDbEntity
  8
M04
100
AcDbLine
 10
725.211979
 20
460.859226
 30
0.0
 11
721.911979
 21
460.859226
 31
0.0
  0
LINE
  5
C5
102
{ACAD_REACTORS
330
C0
330
24
102
}
100
AcDbEntity
  8
M01
100
AcDbLine
 10
733.211979
 20
455.559226
 30
0.0
 11
733.211979
 21
442.559226
 31
0.0
  0
LINE
  5
C6
102
{ACAD_REACTORS
330
C0
102
}
100
AcDbEntity
  8
M05
100
AcDbLine
 10
735.211979
 20
463.809226
 30
0.0
 11
735.211979
 21
453.309226
 31
0.0
  0
LINE
  5
C7
102
{ACAD_REACTORS
330
C0
102
}
100
AcDbEntity
  8
M04
100
AcDbLine
 10
735.211979
 20
453.309226
 30
0.0
 11
735.211979
 21
453.059226
 31
0.0
  0
LINE
  5
C8
102
{ACAD_REACTORS
330
C0
102
}
100
AcDbEntity
  8
M04
100
AcDbLine
 10
735.211979
 20
464.059226
 30
0.0
 11
739.211979
 21
464.059226
 31
0.0
  0
LINE
  5
C9
102
{ACAD_REACTORS
330
C0
102
}
100
AcDbEntity
  8
M04
100
AcDbLine
 10
735.211979
 20
453.059226
 30
0.0
 11
739.211979
 21
453.059226
 31
0.0
  0
LINE
  5
CA
100
AcDbEntity
  8
M05
100
AcDbLine
 10
734.211979
 20
455.559226
 30
0.0
 11
734.211979
 21
461.559226
 31
0.0
  0
LINE
  5
CB
102
{ACAD_REACTORS
330
24
102
}
100
AcDbEntity
  8
M04
100
AcDbLine
 10
721.911979
 20
460.859226
 30
0.0
 11
720.584073
 21
458.559226
 31
0.0
  0
LINE
  5
CC
102
{ACAD_REACTORS
330
24
102
}
100
AcDbEntity
  8
M04
100
AcDbLine
 10
721.911979
 20
456.259226
 30
0.0
 11
720.584073
 21
458.559226
 31
0.0
  0
LINE
  5
CD
100
AcDbEntity
  8
M04
100
AcDbLine
 10
721.911979
 20
456.259226
 30
0.0
 11
721.911979
 21
460.859226
 31
0.0
  0
LINE
  5
CE
102
{ACAD_REACTORS
330
24
102
}
100
AcDbEntity
  8
M04
100
AcDbLine
 10
723.411979
 20
455.559226
 30
0.0
 11
723.411979
 21
461.559226
 31
0.0
  0
ARC
  5
CF
100
AcDbEntity
  8
M05
100
AcDbCircle
 10
732.685842
 20
458.559226
 30
0.0
 40
5.826136
100
AcDbArc
 50
295.69541
 51
64.30459
  0
LINE
  5
D0
100
AcDbEntity
  8
M05
100
AcDbLine
 10
725.911979
 20
461.559226
 30
0.0
 11
725.211979
 21
460.859226
 31
0.0
  0
LINE
  5
D1
100
AcDbEntity
  8
M05
100
AcDbLine
 10
725.911979
 20
455.559226
 30
0.0
 11
725.211979
 21
456.259226
 31
0.0
  0
LINE
  5
D2
100
AcDbEntity
  8
M05
100
AcDbLine
 10
725.911979
 20
455.559226
 30
0.0
 11
725.911979
 21
461.559226
 31
0.0
  0
LINE
  5
D3
100
AcDbEntity
  8
M05
100
AcDbLine
 10
725.211979
 20
456.259226
 30
0.0
 11
725.211979
 21
460.859226
 31
0.0
  0
LINE
  5
D4
102
{ACAD_REACTORS
330
C0
102
}
100
AcDbEntity
  8
M04
100
AcDbLine
 10
733.211979
 20
454.859226
 30
0.0
 11
735.211979
 21
454.859226
 31
0.0
  0
LINE
  5
D5
102
{ACAD_REACTORS
330
C0
102
}
100
AcDbEntity
  8
M04
100
AcDbLine
 10
733.211979
 20
462.259226
 30
0.0
 11
735.211979
 21
462.259226
 31
0.0
  0
LINE
  5
D6
100
AcDbEntity
  8
M05
100
AcDbLine
 10
725.211979
 20
460.859226
 30
0.0
 11
734.211979
 21
460.859226
 31
0.0
  0
LINE
  5
D7
100
AcDbEntity
  8
M05
100
AcDbLine
 10
725.211979
 20
456.259226
 30
0.0
 11
734.211979
 21
456.259226
 31
0.0
  0
LINE
  5
D8
102
{ACAD_REACTORS
330
24
102
}
100
AcDbEntity
  8
M05
100
AcDbLine
 10
725.911979
 20
455.559226
 30
0.0
 11
735.211979
 21
455.559226
 31
0.0
  0
LINE
  5
D9
102
{ACAD_REACTORS
330
24
102
}
100
AcDbEntity
  8
M05
100
AcDbLine
 10
725.911979
 20
461.559226
 30
0.0
 11
735.211979
 21
461.559226
 31
0.0
  0
LINE
  5
DA
102
{ACAD_REACTORS
330
C0
102
}
100
AcDbEntity
  8
M04
100
AcDbLine
 10
735.211979
 20
464.059226
 30
0.0
 11
735.211979
 21
463.809226
 31
0.0
  0
LINE
  5
DB
100
AcDbEntity
  8
CENTRE
100
AcDbLine
 10
717.945478
 20
458.559226
 30
0.0
 11
742.858167
 21
458.559226
 31
0.0
  0
DIMENSION
  5
DC
100
AcDbEntity
  8
DIMS
100
AcDbDimension
  2
*D13
 10
638.535814
 20
499.059226
 30
0.0
 11
635.535814
 21
481.273512
 31
0.0
 12
289.200385
 22
-307.248132
 32
0.0
  1
%%c<> H7
  3
DIM1
100
AcDbAlignedDimension
 13
653.211979
 23
507.059226
 33
0.0
 14
653.211979
 24
499.059226
 34
0.0
 50
90.0
100
AcDbRotatedDimension
1001
ACAD
1000
DSTYLE
1002
{
1070
   144
1040
1.0
1002
}
  0
DIMENSION
  5
EB
100
AcDbEntity
  8
DIMS
100
AcDbDimension
  2
*D12
 10
661.211979
 20
399.271204
 30
0.0
 11
650.569122
 21
402.271204
 31
0.0
 12
289.200385
 22
-307.248132
 32
0.0
  1
5.0
  3
DIM1
100
AcDbAlignedDimension
 13
666.211979
 23
421.559226
 33
0.0
 14
661.211979
 24
422.559226
 34
0.0
100
AcDbRotatedDimension
1001
ACAD
1000
DSTYLE
1002
{
1070
   144
1040
1.0
1002
}
  0
DIMENSION
  5
F9
100
AcDbEntity
  8
DIMS
100
AcDbDimension
  2
*D11
 10
628.684751
 20
421.559226
 30
0.0
 11
625.684751
 21
432.559226
 31
0.0
 12
289.200385
 22
-307.248132
 32
0.0
  3
DIM1
100
AcDbAlignedDimension
 13
661.789329
 23
443.559226
 33
0.0
 14
661.789329
 24
421.559226
 34
0.0
 50
90.0
100
AcDbRotatedDimension
1001
ACAD
1000
DSTYLE
1002
{
1070
   144
1040
1.0
1002
}
  0
DIMENSION
  5
106
100
AcDbEntity
  8
DIMS
100
AcDbDimension
  2
*D10
 10
638.562164
 20
422.559226
 30
0.0
 11
635.562164
 21
403.34494
 31
0.0
 12
289.200385
 22
-307.248132
 32
0.0
  1
%%c<> H7
  3
DIM1
100
AcDbAlignedDimension
 13
656.211979
 23
442.559226
 33
0.0
 14
656.211979
 24
422.559226
 34
0.0
 50
90.0
100
AcDbRotatedDimension
1001
ACAD
1000
DSTYLE
1002
{
1070
   144
1040
1.0
1002
}
  0
DIMENSION
  5
114
100
AcDbEntity
  8
DIMS
100
AcDbDimension
  2
*D9
 10
656.211979
 20
458.846243
 30
0.0
 11
642.997693
 21
458.846243
 31
0.0
 12
289.200385
 22
-307.248132
 32
0.0
 70
   128
  3
DIM1
100
AcDbAlignedDimension
 13
673.211979
 23
442.059226
 33
0.0
 14
656.211979
 24
442.559226
 34
0.0
100
AcDbRotatedDimension
1001
ACAD
1000
DSTYLE
1002
{
1070
   144
1040
1.0
1002
}
  0
DIMENSION
  5
122
100
AcDbEntity
  8
DIMS
100
AcDbDimension
  2
*D8
 10
784.527096
 20
452.559226
 30
0.0
 11
768.527096
 21
432.559226
 31
0.0
 12
302.200385
 22
-307.248132
 32
0.0
  1
%%c<> H7
  3
DIM1
100
AcDbAlignedDimension
 13
748.211979
 23
412.559226
 33
0.0
 14
748.211979
 24
452.559226
 34
0.0
 50
90.0
100
AcDbRotatedDimension
1001
ACAD
1000
DSTYLE
1002
{
1070
   144
1040
1.0
1002
}
  0
DIMENSION
  5
12F
100
AcDbEntity
  8
DIMS
100
AcDbDimension
  2
*D7
 10
666.211979
 20
362.279548
 30
0.0
 11
655.569122
 21
365.279548
 31
0.0
 12
289.200385
 22
-307.248132
 32
0.0
  1
7.0
  3
DIM1
100
AcDbAlignedDimension
 13
673.211979
 23
402.559226
 33
0.0
 14
666.211979
 24
393.559226
 34
0.0
100
AcDbRotatedDimension
1001
ACAD
1000
DSTYLE
1002
{
1070
   144
1040
1.0
1002
}
  0
DIMENSION
  5
13D
100
AcDbEntity
  8
DIMS
100
AcDbDimension
  2
*D6
 10
740.211979
 20
362.279548
 30
0.0
 11
737.854836
 21
365.279548
 31
0.0
 12
302.200385
 22
-307.248132
 32
0.0
  1
7.0
  3
DIM1
100
AcDbAlignedDimension
 13
733.211979
 23
400.559226
 33
0.0
 14
740.211979
 24
382.045835
 34
0.0
100
AcDbRotatedDimension
1001
ACAD
1000
DSTYLE
1002
{
1070
   144
1040
1.0
1002
}
  0
DIMENSION
  5
14B
100
AcDbEntity
  8
DIMS
100
AcDbDimension
  2
*D5
 10
733.211979
 20
362.279548
 30
0.0
 11
703.211979
 21
365.279548
 31
0.0
  3
DIM1
100
AcDbAlignedDimension
 13
673.211979
 23
402.559226
 33
0.0
 14
733.211979
 24
400.559226
 34
0.0
100
AcDbRotatedDimension
1001
ACAD
1000
DSTYLE
1002
{
1070
   144
1040
1.0
1002
}
  0
LINE
  5
158
100
AcDbEntity
  8
M01
100
AcDbLine
 10
722.211979
 20
523.559226
 30
0.0
 11
732.211979
 21
523.559226
 31
0.0
  0
LINE
  5
159
100
AcDbEntity
  8
M01
100
AcDbLine
 10
675.961979
 20
530.503326
 30
0.0
 11
682.461979
 21
530.503326
 31
0.0
  0
LINE
  5
15A
100
AcDbEntity
  8
M01
100
AcDbLine
 10
675.961979
 20
538.615126
 30
0.0
 11
682.461979
 21
538.615126
 31
0.0
  0
LINE
  5
15B
100
AcDbEntity
  8
M01
100
AcDbLine
 10
675.961979
 20
530.503326
 30
0.0
 11
675.961979
 21
528.559226
 31
0.0
  0
ARC
  5
15C
100
AcDbEntity
  8
M01
100
AcDbCircle
 10
674.711979
 20
532.064576
 30
0.0
 40
2.0
100
AcDbArc
 50
308.682187
 51
0.0
  0
ARC
  5
15D
100
AcDbEntity
  8
M01
100
AcDbCircle
 10
674.711979
 20
537.053876
 30
0.0
 40
2.0
100
AcDbArc
 50
0.0
 51
51.317813
  0
LINE
  5
15E
100
AcDbEntity
  8
M01
100
AcDbLine
 10
675.961979
 20
540.559226
 30
0.0
 11
675.961979
 21
538.615126
 31
0.0
  0
LINE
  5
15F
100
AcDbEntity
  8
M01
100
AcDbLine
 10
676.711979
 20
537.053876
 30
0.0
 11
676.711979
 21
532.064576
 31
0.0
  0
LINE
  5
160
100
AcDbEntity
  8
M01
100
AcDbLine
 10
682.461979
 20
530.503326
 30
0.0
 11
682.461979
 21
528.559226
 31
0.0
  0
ARC
  5
161
100
AcDbEntity
  8
M01
100
AcDbCircle
 10
683.711979
 20
532.064576
 30
0.0
 40
2.0
100
AcDbArc
 50
180.0
 51
231.317813
  0
ARC
  5
162
100
AcDbEntity
  8
M01
100
AcDbCircle
 10
683.711979
 20
537.053876
 30
0.0
 40
2.0
100
AcDbArc
 50
128.682187
 51
180.0
  0
LINE
  5
163
100
AcDbEntity
  8
M01
100
AcDbLine
 10
682.461979
 20
540.559226
 30
0.0
 11
682.461979
 21
538.615126
 31
0.0
  0
LINE
  5
164
100
AcDbEntity
  8
M01
100
AcDbLine
 10
681.711979
 20
537.053876
 30
0.0
 11
681.711979
 21
532.064576
 31
0.0
  0
LINE
  5
165
100
AcDbEntity
  8
M01
100
AcDbLine
 10
674.211979
 20
523.559226
 30
0.0
 11
684.211979
 21
523.559226
 31
0.0
  0
LINE
  5
166
100
AcDbEntity
  8
M01
100
AcDbLine
 10
732.211979
 20
528.559226
 30
0.0
 11
732.211979
 21
507.559226
 31
0.0
  0
LINE
  5
167
100
AcDbEntity
  8
M01
100
AcDbLine
 10
722.211979
 20
528.559226
 30
0.0
 11
722.211979
 21
508.559226
 31
0.0
  0
LINE
  5
168
100
AcDbEntity
  8
M01
100
AcDbLine
 10
674.211979
 20
528.559226
 30
0.0
 11
674.211979
 21
507.559226
 31
0.0
  0
LINE
  5
169
100
AcDbEntity
  8
M01
100
AcDbLine
 10
684.211979
 20
528.559226
 30
0.0
 11
684.211979
 21
508.559226
 31
0.0
  0
LINE
  5
16A
102
{ACAD_REACTORS
330
C0
102
}
100
AcDbEntity
  8
M05
100
AcDbLine
 10
733.211979
 20
400.559226
 30
0.0
 11
733.211979
 21
402.559226
 31
0.0
  0
TEXT
  5
16B
102
{ACAD_REACTORS
330
24
102
}
100
AcDbEntity
  8
TEXT
100
AcDbText
 10
688.790472
 20
415.902793
 30
0.0
 40
2.0
  1
MM010088
 41
0.9
100
AcDbText
  0
HATCH
  5
16C
100
AcDbEntity
  8
HATCH
100
AcDbHatch
 10
0.0
 20
0.0
 30
0.0
210
0.0
220
0.0
230
1.0
  2
_U
 70
     0
 71
     1
 91
        1
 92
        7
 72
     0
 73
     1
 93
        4
 10
736.2119788178301
 20
506.5592260810631
 10
733.2119788178301
 20
506.5592260810631
 10
733.2119788178303
 20
467.5592260810633
 10
736.2119788178302
 20
467.5592260810632
 97
        4
330
235
330
23D
330
1EE
330
237
 75
     0
 76
     0
 52
135.0
 41
0.8
 77
     0
 78
     1
 53
135.0
 43
-88.378129
 44
0.0
 45
-0.5656854249492382
 46
-0.565685424949238
 79
     0
 47
0.167139
 98
        1
 10
735.107022
 20
494.836786
  0
HATCH
  5
16D
100
AcDbEntity
  8
HATCH
100
AcDbHatch
 10
0.0
 20
0.0
 30
0.0
210
0.0
220
0.0
230
1.0
  2
_U
 70
     0
 71
     1
 91
        2
 92
        7
 72
     0
 73
     1
 93
        4
 10
670.2119788178304
 20
443.5592260810631
 10
673.2119788178305
 20
443.5592260810631
 10
673.2119788178303
 20
496.559226081063
 10
670.2119788178301
 20
496.5592260810631
 97
        4
330
232
330
238
330
21C
330
240
 92
        7
 72
     0
 73
     1
 93
        4
 10
670.2119788178302
 20
402.5592260810631
 10
673.2119788178303
 20
402.5592260810631
 10
673.2119788178303
 20
421.5592260810631
 10
670.2119788178304
 20
421.5592260810631
 97
        4
330
21B
330
21E
330
236
330
21D
 75
     0
 76
     0
 52
135.0
 41
0.8
 77
     0
 78
     1
 53
135.0
 43
-101.378129
 44
0.0
 45
-0.5656854249492382
 46
-0.565685424949238
 79
     0
 47
0.167139
 98
        2
 10
671.610065
 20
492.162554
 10
671.275647
 20
418.955455
  0
LINE
  5
16E
100
AcDbEntity
  8
M01
100
AcDbLine
 10
724.18089
 20
550.459226
 30
0.0
 11
730.243068
 21
550.459226
 31
0.0
  0
ARC
  5
16F
100
AcDbEntity
  8
M01
100
AcDbCircle
 10
730.243068
 20
548.609921
 30
0.0
 40
1.150694
100
AcDbArc
 50
208.592423
 51
331.407577
  0
ARC
  5
170
100
AcDbEntity
  8
M01
100
AcDbCircle
 10
727.211979
 20
551.162004
 30
0.0
 40
3.702778
100
AcDbArc
 50
236.92527
 51
303.07473
  0
ARC
  5
171
100
AcDbEntity
  8
M01
100
AcDbCircle
 10
724.18089
 20
548.609921
 30
0.0
 40
1.150694
100
AcDbArc
 50
208.592423
 51
331.407577
  0
ARC
  5
172
100
AcDbEntity
  8
M01
100
AcDbCircle
 10
730.243068
 20
549.308532
 30
0.0
 40
1.150694
100
AcDbArc
 50
28.592423
 51
151.407577
  0
ARC
  5
173
100
AcDbEntity
  8
M01
100
AcDbCircle
 10
727.211979
 20
546.756448
 30
0.0
 40
3.702778
100
AcDbArc
 50
56.92527
 51
123.07473
  0
LINE
  5
174
100
AcDbEntity
  8
M01
100
AcDbLine
 10
729.232705
 20
549.859226
 30
0.0
 11
729.232705
 21
548.059226
 31
0.0
  0
LINE
  5
175
100
AcDbEntity
  8
M01
100
AcDbLine
 10
731.253431
 20
549.859226
 30
0.0
 11
731.253431
 21
548.059226
 31
0.0
  0
ARC
  5
176
100
AcDbEntity
  8
M01
100
AcDbCircle
 10
724.18089
 20
549.308532
 30
0.0
 40
1.150694
100
AcDbArc
 50
28.592423
 51
151.407577
  0
LINE
  5
177
100
AcDbEntity
  8
M01
100
AcDbLine
 10
725.191253
 20
549.859226
 30
0.0
 11
725.191253
 21
548.059226
 31
0.0
  0
LINE
  5
178
100
AcDbEntity
  8
M01
100
AcDbLine
 10
723.170527
 20
549.859226
 30
0.0
 11
723.170527
 21
548.059226
 31
0.0
  0
LINE
  5
179
100
AcDbEntity
  8
M01
100
AcDbLine
 10
732.211979
 20
545.159226
 30
0.0
 11
732.211979
 21
546.659226
 31
0.0
  0
LINE
  5
17A
100
AcDbEntity
  8
M01
100
AcDbLine
 10
722.211979
 20
545.159226
 30
0.0
 11
722.211979
 21
546.659226
 31
0.0
  0
LINE
  5
17B
100
AcDbEntity
  8
M01
100
AcDbLine
 10
731.711979
 20
546.659226
 30
0.0
 11
731.711979
 21
547.459226
 31
0.0
  0
LINE
  5
17C
100
AcDbEntity
  8
M01
100
AcDbLine
 10
722.711979
 20
546.659226
 30
0.0
 11
722.711979
 21
547.459226
 31
0.0
  0
LINE
  5
17D
100
AcDbEntity
  8
M01
100
AcDbLine
 10
722.711979
 20
547.459226
 30
0.0
 11
731.711979
 21
547.459226
 31
0.0
  0
LINE
  5
17E
100
AcDbEntity
  8
M01
100
AcDbLine
 10
722.211979
 20
546.659226
 30
0.0
 11
732.211979
 21
546.659226
 31
0.0
  0
LINE
  5
17F
100
AcDbEntity
  8
M01
100
AcDbLine
 10
731.711979
 20
544.359226
 30
0.0
 11
731.711979
 21
545.159226
 31
0.0
  0
LINE
  5
180
100
AcDbEntity
  8
M01
100
AcDbLine
 10
722.711979
 20
544.359226
 30
0.0
 11
722.711979
 21
545.159226
 31
0.0
  0
LINE
  5
181
100
AcDbEntity
  8
M01
100
AcDbLine
 10
717.211979
 20
545.159226
 30
0.0
 11
732.211979
 21
545.159226
 31
0.0
  0
ARC
  5
182
100
AcDbEntity
  8
M01
100
AcDbCircle
 10
730.243068
 20
542.509921
 30
0.0
 40
1.150694
100
AcDbArc
 50
208.592423
 51
331.407577
  0
ARC
  5
183
100
AcDbEntity
  8
M01
100
AcDbCircle
 10
727.211979
 20
545.062004
 30
0.0
 40
3.702778
100
AcDbArc
 50
236.92527
 51
303.07473
  0
ARC
  5
184
100
AcDbEntity
  8
M01
100
AcDbCircle
 10
724.18089
 20
542.509921
 30
0.0
 40
1.150694
100
AcDbArc
 50
208.592423
 51
331.407577
  0
ARC
  5
185
100
AcDbEntity
  8
M01
100
AcDbCircle
 10
730.243068
 20
543.208532
 30
0.0
 40
1.150694
100
AcDbArc
 50
28.592423
 51
151.407577
  0
ARC
  5
186
100
AcDbEntity
  8
M01
100
AcDbCircle
 10
727.211979
 20
540.656448
 30
0.0
 40
3.702778
100
AcDbArc
 50
56.92527
 51
123.07473
  0
LINE
  5
187
100
AcDbEntity
  8
M01
100
AcDbLine
 10
729.232705
 20
543.759226
 30
0.0
 11
729.232705
 21
541.959226
 31
0.0
  0
LINE
  5
188
100
AcDbEntity
  8
M01
100
AcDbLine
 10
731.253431
 20
543.759226
 30
0.0
 11
731.253431
 21
541.959226
 31
0.0
  0
ARC
  5
189
100
AcDbEntity
  8
M01
100
AcDbCircle
 10
724.18089
 20
543.208532
 30
0.0
 40
1.150694
100
AcDbArc
 50
28.592423
 51
151.407577
  0
LINE
  5
18A
100
AcDbEntity
  8
M01
100
AcDbLine
 10
725.191253
 20
543.759226
 30
0.0
 11
725.191253
 21
541.959226
 31
0.0
  0
LINE
  5
18B
100
AcDbEntity
  8
M01
100
AcDbLine
 10
723.170527
 20
543.759226
 30
0.0
 11
723.170527
 21
541.959226
 31
0.0
  0
LINE
  5
18C
100
AcDbEntity
  8
M01
100
AcDbLine
 10
722.711979
 20
544.359226
 30
0.0
 11
731.711979
 21
544.359226
 31
0.0
  0
LINE
  5
18D
100
AcDbEntity
  8
M01
100
AcDbLine
 10
722.711979
 20
541.359226
 30
0.0
 11
731.711979
 21
541.359226
 31
0.0
  0
LINE
  5
18E
100
AcDbEntity
  8
M01
100
AcDbLine
 10
722.711979
 20
540.559226
 30
0.0
 11
731.711979
 21
540.559226
 31
0.0
  0
LINE
  5
18F
100
AcDbEntity
  8
M01
100
AcDbLine
 10
728.711979
 20
553.559226
 30
0.0
 11
729.211979
 21
553.059226
 31
0.0
  0
LINE
  5
190
100
AcDbEntity
  8
M01
100
AcDbLine
 10
725.211979
 20
553.059226
 30
0.0
 11
725.711979
 21
553.559226
 31
0.0
  0
LINE
  5
191
100
AcDbEntity
  8
M01
100
AcDbLine
 10
725.211979
 20
553.059226
 30
0.0
 11
729.211979
 21
553.059226
 31
0.0
  0
LINE
  5
192
100
AcDbEntity
  8
M01
100
AcDbLine
 10
728.711979
 20
553.559226
 30
0.0
 11
728.711979
 21
550.459226
 31
0.0
  0
LINE
  5
193
100
AcDbEntity
  8
M01
100
AcDbLine
 10
725.711979
 20
553.559226
 30
0.0
 11
725.711979
 21
550.459226
 31
0.0
  0
LINE
  5
194
100
AcDbEntity
  8
M01
100
AcDbLine
 10
725.211979
 20
553.059226
 30
0.0
 11
725.211979
 21
550.459226
 31
0.0
  0
LINE
  5
195
100
AcDbEntity
  8
M01
100
AcDbLine
 10
729.211979
 20
553.059226
 30
0.0
 11
729.211979
 21
550.459226
 31
0.0
  0
LINE
  5
196
100
AcDbEntity
  8
M01
100
AcDbLine
 10
725.711979
 20
553.559226
 30
0.0
 11
728.711979
 21
553.559226
 31
0.0
  0
LINE
  5
197
100
AcDbEntity
  8
M01
100
AcDbLine
 10
722.211979
 20
528.559226
 30
0.0
 11
732.211979
 21
528.559226
 31
0.0
  0
LINE
  5
198
100
AcDbEntity
  8
M01
100
AcDbLine
 10
731.711979
 20
541.359226
 30
0.0
 11
731.711979
 21
540.559226
 31
0.0
  0
LINE
  5
199
100
AcDbEntity
  8
M01
100
AcDbLine
 10
722.711979
 20
541.359226
 30
0.0
 11
722.711979
 21
540.559226
 31
0.0
  0
LINE
  5
19A
100
AcDbEntity
  8
CENTRE
100
AcDbLine
 10
727.211979
 20
559.720115
 30
0.0
 11
727.211979
 21
496.126684
 31
0.0
  0
LINE
  5
19B
100
AcDbEntity
  8
M01
100
AcDbLine
 10
682.243068
 20
550.459226
 30
0.0
 11
676.18089
 21
550.459226
 31
0.0
  0
ARC
  5
19C
100
AcDbEntity
  8
M01
100
AcDbCircle
 10
676.18089
 20
548.609921
 30
0.0
 40
1.150694
100
AcDbArc
 50
208.592423
 51
331.407577
  0
ARC
  5
19D
100
AcDbEntity
  8
M01
100
AcDbCircle
 10
679.211979
 20
551.162004
 30
0.0
 40
3.702778
100
AcDbArc
 50
236.92527
 51
303.07473
  0
ARC
  5
19E
100
AcDbEntity
  8
M01
100
AcDbCircle
 10
682.243068
 20
548.609921
 30
0.0
 40
1.150694
100
AcDbArc
 50
208.592423
 51
331.407577
  0
ARC
  5
19F
100
AcDbEntity
  8
M01
100
AcDbCircle
 10
676.18089
 20
549.308532
 30
0.0
 40
1.150694
100
AcDbArc
 50
28.592423
 51
151.407577
  0
ARC
  5
1A0
100
AcDbEntity
  8
M01
100
AcDbCircle
 10
679.211979
 20
546.756448
 30
0.0
 40
3.702778
100
AcDbArc
 50
56.92527
 51
123.07473
  0
LINE
  5
1A1
100
AcDbEntity
  8
M01
100
AcDbLine
 10
677.191253
 20
549.859226
 30
0.0
 11
677.191253
 21
548.059226
 31
0.0
  0
LINE
  5
1A2
100
AcDbEntity
  8
M01
100
AcDbLine
 10
675.170527
 20
549.859226
 30
0.0
 11
675.170527
 21
548.059226
 31
0.0
  0
ARC
  5
1A3
100
AcDbEntity
  8
M01
100
AcDbCircle
 10
682.243068
 20
549.308532
 30
0.0
 40
1.150694
100
AcDbArc
 50
28.592423
 51
151.407577
  0
LINE
  5
1A4
100
AcDbEntity
  8
M01
100
AcDbLine
 10
681.232705
 20
549.859226
 30
0.0
 11
681.232705
 21
548.059226
 31
0.0
  0
LINE
  5
1A5
100
AcDbEntity
  8
M01
100
AcDbLine
 10
683.253431
 20
549.859226
 30
0.0
 11
683.253431
 21
548.059226
 31
0.0
  0
LINE
  5
1A6
100
AcDbEntity
  8
M01
100
AcDbLine
 10
674.211979
 20
545.159226
 30
0.0
 11
674.211979
 21
546.659226
 31
0.0
  0
LINE
  5
1A7
100
AcDbEntity
  8
M01
100
AcDbLine
 10
674.711979
 20
546.659226
 30
0.0
 11
674.711979
 21
547.459226
 31
0.0
  0
LINE
  5
1A8
100
AcDbEntity
  8
M01
100
AcDbLine
 10
683.711979
 20
546.659226
 30
0.0
 11
683.711979
 21
547.459226
 31
0.0
  0
LINE
  5
1A9
100
AcDbEntity
  8
M01
100
AcDbLine
 10
683.711979
 20
547.459226
 30
0.0
 11
674.711979
 21
547.459226
 31
0.0
  0
LINE
  5
1AA
100
AcDbEntity
  8
M01
100
AcDbLine
 10
684.211979
 20
546.659226
 30
0.0
 11
674.211979
 21
546.659226
 31
0.0
  0
LINE
  5
1AB
100
AcDbEntity
  8
M01
100
AcDbLine
 10
674.711979
 20
544.359226
 30
0.0
 11
674.711979
 21
545.159226
 31
0.0
  0
LINE
  5
1AC
100
AcDbEntity
  8
M01
100
AcDbLine
 10
683.711979
 20
544.359226
 30
0.0
 11
683.711979
 21
545.159226
 31
0.0
  0
ARC
  5
1AD
100
AcDbEntity
  8
M01
100
AcDbCircle
 10
676.18089
 20
542.509921
 30
0.0
 40
1.150694
100
AcDbArc
 50
208.592423
 51
331.407577
  0
ARC
  5
1AE
100
AcDbEntity
  8
M01
100
AcDbCircle
 10
679.211979
 20
545.062004
 30
0.0
 40
3.702778
100
AcDbArc
 50
236.92527
 51
303.07473
  0
ARC
  5
1AF
100
AcDbEntity
  8
M01
100
AcDbCircle
 10
682.243068
 20
542.509921
 30
0.0
 40
1.150694
100
AcDbArc
 50
208.592423
 51
331.407577
  0
ARC
  5
1B0
100
AcDbEntity
  8
M01
100
AcDbCircle
 10
676.18089
 20
543.208532
 30
0.0
 40
1.150694
100
AcDbArc
 50
28.592423
 51
151.407577
  0
ARC
  5
1B1
100
AcDbEntity
  8
M01
100
AcDbCircle
 10
679.211979
 20
540.656448
 30
0.0
 40
3.702778
100
AcDbArc
 50
56.92527
 51
123.07473
  0
LINE
  5
1B2
100
AcDbEntity
  8
M01
100
AcDbLine
 10
677.191253
 20
543.759226
 30
0.0
 11
677.191253
 21
541.959226
 31
0.0
  0
LINE
  5
1B3
100
AcDbEntity
  8
M01
100
AcDbLine
 10
675.170527
 20
543.759226
 30
0.0
 11
675.170527
 21
541.959226
 31
0.0
  0
ARC
  5
1B4
100
AcDbEntity
  8
M01
100
AcDbCircle
 10
682.243068
 20
543.208532
 30
0.0
 40
1.150694
100
AcDbArc
 50
28.592423
 51
151.407577
  0
LINE
  5
1B5
100
AcDbEntity
  8
M01
100
AcDbLine
 10
681.232705
 20
543.759226
 30
0.0
 11
681.232705
 21
541.959226
 31
0.0
  0
LINE
  5
1B6
100
AcDbEntity
  8
M01
100
AcDbLine
 10
683.253431
 20
543.759226
 30
0.0
 11
683.253431
 21
541.959226
 31
0.0
  0
LINE
  5
1B7
100
AcDbEntity
  8
M01
100
AcDbLine
 10
683.711979
 20
544.359226
 30
0.0
 11
674.711979
 21
544.359226
 31
0.0
  0
LINE
  5
1B8
100
AcDbEntity
  8
M01
100
AcDbLine
 10
683.711979
 20
541.359226
 30
0.0
 11
674.711979
 21
541.359226
 31
0.0
  0
LINE
  5
1B9
100
AcDbEntity
  8
M01
100
AcDbLine
 10
683.711979
 20
540.559226
 30
0.0
 11
674.711979
 21
540.559226
 31
0.0
  0
LINE
  5
1BA
100
AcDbEntity
  8
M01
100
AcDbLine
 10
677.711979
 20
553.559226
 30
0.0
 11
677.211979
 21
553.059226
 31
0.0
  0
LINE
  5
1BB
100
AcDbEntity
  8
M01
100
AcDbLine
 10
681.211979
 20
553.059226
 30
0.0
 11
680.711979
 21
553.559226
 31
0.0
  0
LINE
  5
1BC
100
AcDbEntity
  8
M01
100
AcDbLine
 10
681.211979
 20
553.059226
 30
0.0
 11
677.211979
 21
553.059226
 31
0.0
  0
LINE
  5
1BD
100
AcDbEntity
  8
M01
100
AcDbLine
 10
677.711979
 20
553.559226
 30
0.0
 11
677.711979
 21
550.459226
 31
0.0
  0
LINE
  5
1BE
100
AcDbEntity
  8
M01
100
AcDbLine
 10
680.711979
 20
553.559226
 30
0.0
 11
680.711979
 21
550.459226
 31
0.0
  0
LINE
  5
1BF
100
AcDbEntity
  8
M01
100
AcDbLine
 10
681.211979
 20
553.059226
 30
0.0
 11
681.211979
 21
550.459226
 31
0.0
  0
LINE
  5
1C0
100
AcDbEntity
  8
M01
100
AcDbLine
 10
677.211979
 20
553.059226
 30
0.0
 11
677.211979
 21
550.459226
 31
0.0
  0
LINE
  5
1C1
100
AcDbEntity
  8
M01
100
AcDbLine
 10
680.711979
 20
553.559226
 30
0.0
 11
677.711979
 21
553.559226
 31
0.0
  0
LINE
  5
1C2
100
AcDbEntity
  8
M01
100
AcDbLine
 10
684.211979
 20
528.559226
 30
0.0
 11
674.211979
 21
528.559226
 31
0.0
  0
LINE
  5
1C3
100
AcDbEntity
  8
M01
100
AcDbLine
 10
674.711979
 20
541.359226
 30
0.0
 11
674.711979
 21
540.559226
 31
0.0
  0
LINE
  5
1C4
100
AcDbEntity
  8
M01
100
AcDbLine
 10
683.711979
 20
541.359226
 30
0.0
 11
683.711979
 21
540.559226
 31
0.0
  0
LINE
  5
1C5
102
{ACAD_REACTORS
330
24
102
}
100
AcDbEntity
  8
CENTRE
100
AcDbLine
 10
679.211979
 20
559.720115
 30
0.0
 11
679.211979
 21
496.126684
 31
0.0
  0
TEXT
  5
1C6
102
{ACAD_REACTORS
330
C0
102
}
100
AcDbEntity
  8
TEXT
100
AcDbText
 10
725.718631
 20
438.380683
 30
0.0
 40
2.0
  1
MA010000
 41
0.9
100
AcDbText
  0
LINE
  5
1C7
100
AcDbEntity
  8
M04
100
AcDbLine
 10
712.211979
 20
568.559226
 30
0.0
 11
722.211979
 21
578.559226
 31
0.0
  0
LINE
  5
1C8
100
AcDbEntity
  8
M04
100
AcDbLine
 10
722.211979
 20
589.230704
 30
0.0
 11
722.211979
 21
578.559226
 31
0.0
  0
LINE
  5
1C9
100
AcDbEntity
  8
M04
100
AcDbLine
 10
758.211979
 20
402.559226
 30
0.0
 11
758.211979
 21
462.559226
 31
0.0
  0
LINE
  5
1CA
100
AcDbEntity
  8
M04
100
AcDbLine
 10
758.211979
 20
402.559226
 30
0.0
 11
767.211979
 21
402.559226
 31
0.0
  0
LINE
  5
1CB
100
AcDbEntity
  8
M04
100
AcDbLine
 10
748.211979
 20
412.559226
 30
0.0
 11
758.211979
 21
402.559226
 31
0.0
  0
LINE
  5
1CC
100
AcDbEntity
  8
M04
100
AcDbLine
 10
666.211979
 20
568.559226
 30
0.0
 11
740.211979
 21
568.559226
 31
0.0
  0
LINE
  5
1CD
100
AcDbEntity
  8
M04
100
AcDbLine
 10
758.211979
 20
462.559226
 30
0.0
 11
767.211979
 21
462.559226
 31
0.0
  0
LINE
  5
1CE
100
AcDbEntity
  8
M04
100
AcDbLine
 10
748.211979
 20
452.559226
 30
0.0
 11
758.211979
 21
462.559226
 31
0.0
  0
LINE
  5
1CF
100
AcDbEntity
  8
M05
100
AcDbLine
 10
741.513193
 20
429.518352
 30
0.0
 11
741.513193
 21
435.6001
 31
0.0
  0
ARC
  5
1D0
102
{ACAD_REACTORS
330
C0
102
}
100
AcDbEntity
  8
M05
100
AcDbCircle
 10
756.711979
 20
432.559226
 30
0.0
 40
15.5
100
AcDbArc
 50
191.313981
 51
216.249321
  0
LINE
  5
1D1
102
{ACAD_REACTORS
330
24
102
}
100
AcDbEntity
  8
M01
100
AcDbLine
 10
706.211979
 20
428.559226
 30
0.0
 11
723.211979
 21
428.559226
 31
0.0
  0
LINE
  5
1D2
102
{ACAD_REACTORS
330
C0
102
}
100
AcDbEntity
  8
M05
100
AcDbLine
 10
723.211979
 20
428.559226
 30
0.0
 11
741.513193
 21
429.518352
 31
0.0
  0
LINE
  5
1D3
102
{ACAD_REACTORS
330
C0
102
}
100
AcDbEntity
  8
M05
100
AcDbLine
 10
723.211979
 20
436.559226
 30
0.0
 11
741.513193
 21
435.6001
 31
0.0
  0
ARC
  5
1D4
102
{ACAD_REACTORS
330
C0
102
}
100
AcDbEntity
  8
M05
100
AcDbCircle
 10
756.711979
 20
432.559226
 30
0.0
 40
15.5
100
AcDbArc
 50
143.750679
 51
168.686019
  0
LINE
  5
1D5
102
{ACAD_REACTORS
330
24
102
}
100
AcDbEntity
  8
M01
100
AcDbLine
 10
706.211979
 20
436.559226
 30
0.0
 11
723.211979
 21
436.559226
 31
0.0
  0
LINE
  5
1D6
100
AcDbEntity
  8
M04
100
AcDbLine
 10
742.211979
 20
412.559226
 30
0.0
 11
740.211979
 21
412.559226
 31
0.0
  0
LINE
  5
1D7
100
AcDbEntity
  8
M04
100
AcDbLine
 10
743.511979
 20
412.559226
 30
0.0
 11
748.211979
 21
412.559226
 31
0.0
  0
LINE
  5
1D8
100
AcDbEntity
  8
M04
100
AcDbLine
 10
742.211979
 20
452.559226
 30
0.0
 11
740.211979
 21
452.559226
 31
0.0
  0
LINE
  5
1D9
100
AcDbEntity
  8
M04
100
AcDbLine
 10
743.511979
 20
452.559226
 30
0.0
 11
748.211979
 21
452.559226
 31
0.0
  0
LINE
  5
1DA
100
AcDbEntity
  8
M04
100
AcDbLine
 10
748.211979
 20
452.559226
 30
0.0
 11
748.211979
 21
412.559226
 31
0.0
  0
LINE
  5
1DB
102
{ACAD_REACTORS
330
C0
102
}
100
AcDbEntity
  8
M05
100
AcDbLine
 10
742.211979
 20
413.059226
 30
0.0
 11
742.211979
 21
412.559226
 31
0.0
  0
LINE
  5
1DC
102
{ACAD_REACTORS
330
C0
102
}
100
AcDbEntity
  8
M05
100
AcDbLine
 10
739.211979
 20
413.059226
 30
0.0
 11
739.211979
 21
400.559226
 31
0.0
  0
LINE
  5
1DD
102
{ACAD_REACTORS
330
C0
102
}
100
AcDbEntity
  8
M05
100
AcDbLine
 10
739.211979
 20
413.059226
 30
0.0
 11
742.211979
 21
413.059226
 31
0.0
  0
LINE
  5
1DE
102
{ACAD_REACTORS
330
C0
102
}
100
AcDbEntity
  8
M05
100
AcDbLine
 10
739.211979
 20
452.059226
 30
0.0
 11
742.211979
 21
452.059226
 31
0.0
  0
LINE
  5
1DF
102
{ACAD_REACTORS
330
C0
102
}
100
AcDbEntity
  8
M05
100
AcDbLine
 10
742.211979
 20
452.559226
 30
0.0
 11
742.211979
 21
452.059226
 31
0.0
  0
LINE
  5
1E0
100
AcDbEntity
  8
M04
100
AcDbLine
 10
740.211979
 20
413.059226
 30
0.0
 11
740.211979
 21
382.045835
 31
0.0
  0
LINE
  5
1E1
102
{ACAD_REACTORS
330
C0
102
}
100
AcDbEntity
  8
M05
100
AcDbLine
 10
744.211979
 20
413.259226
 30
0.0
 11
743.511979
 21
412.559226
 31
0.0
  0
LINE
  5
1E2
102
{ACAD_REACTORS
330
C0
102
}
100
AcDbEntity
  8
M05
100
AcDbLine
 10
744.211979
 20
451.859226
 30
0.0
 11
743.511979
 21
452.559226
 31
0.0
  0
LINE
  5
1E3
102
{ACAD_REACTORS
330
C0
102
}
100
AcDbEntity
  8
M05
100
AcDbLine
 10
744.211979
 20
451.859226
 30
0.0
 11
744.211979
 21
413.259226
 31
0.0
  0
LINE
  5
1E4
102
{ACAD_REACTORS
330
C0
102
}
100
AcDbEntity
  8
M05
100
AcDbLine
 10
742.211979
 20
412.559226
 30
0.0
 11
743.511979
 21
412.559226
 31
0.0
  0
LINE
  5
1E5
102
{ACAD_REACTORS
330
C0
102
}
100
AcDbEntity
  8
M05
100
AcDbLine
 10
742.211979
 20
452.559226
 30
0.0
 11
743.511979
 21
452.559226
 31
0.0
  0
LINE
  5
1E6
102
{ACAD_REACTORS
330
24
102
}
100
AcDbEntity
  8
M04
100
AcDbLine
 10
732.711979
 20
422.559226
 30
0.0
 11
733.211979
 21
422.059226
 31
0.0
  0
LINE
  5
1E7
102
{ACAD_REACTORS
330
C0
330
24
102
}
100
AcDbEntity
  8
M01
100
AcDbLine
 10
733.211979
 20
422.559226
 30
0.0
 11
733.211979
 21
402.559226
 31
0.0
  0
LINE
  5
1E8
102
{ACAD_REACTORS
330
24
102
}
100
AcDbEntity
  8
M04
100
AcDbLine
 10
732.711979
 20
442.559226
 30
0.0
 11
733.211979
 21
443.059226
 31
0.0
  0
LINE
  5
1E9
102
{ACAD_REACTORS
330
C0
102
}
100
AcDbEntity
  8
M05
100
AcDbLine
 10
733.911979
 20
399.859226
 30
0.0
 11
733.211979
 21
400.559226
 31
0.0
  0
LINE
  5
1EA
102
{ACAD_REACTORS
330
C0
102
}
100
AcDbEntity
  8
M05
100
AcDbLine
 10
738.511979
 20
399.859226
 30
0.0
 11
739.211979
 21
400.559226
 31
0.0
  0
LINE
  5
1EB
102
{ACAD_REACTORS
330
C0
102
}
100
AcDbEntity
  8
M05
100
AcDbLine
 10
733.911979
 20
399.859226
 30
0.0
 11
738.511979
 21
399.859226
 31
0.0
  0
LINE
  5
1EC
102
{ACAD_REACTORS
330
C0
102
}
100
AcDbEntity
  8
M05
100
AcDbLine
 10
733.911979
 20
466.559226
 30
0.0
 11
733.211979
 21
465.859226
 31
0.0
  0
LINE
  5
1ED
102
{ACAD_REACTORS
330
C0
102
}
100
AcDbEntity
  8
M05
100
AcDbLine
 10
738.511979
 20
466.559226
 30
0.0
 11
739.211979
 21
465.859226
 31
0.0
  0
LINE
  5
1EE
102
{ACAD_REACTORS
330
16C
102
}
100
AcDbEntity
  8
M02
100
AcDbLine
 10
733.211979
 20
467.559226
 30
0.0
 11
736.211979
 21
467.559226
 31
0.0
  0
LINE
  5
1EF
102
{ACAD_REACTORS
330
C0
102
}
100
AcDbEntity
  8
M05
100
AcDbLine
 10
739.211979
 20
465.859226
 30
0.0
 11
739.211979
 21
452.059226
 31
0.0
  0
LINE
  5
1F0
102
{ACAD_REACTORS
330
C0
102
}
100
AcDbEntity
  8
M05
100
AcDbLine
 10
733.911979
 20
466.559226
 30
0.0
 11
738.511979
 21
466.559226
 31
0.0
  0
LINE
  5
1F1
102
{ACAD_REACTORS
330
24
102
}
100
AcDbEntity
  8
M04
100
AcDbLine
 10
724.211979
 20
422.559226
 30
0.0
 11
723.211979
 21
422.559226
 31
0.0
  0
LINE
  5
1F2
102
{ACAD_REACTORS
330
24
102
}
100
AcDbEntity
  8
M04
100
AcDbLine
 10
723.211979
 20
423.559226
 30
0.0
 11
723.211979
 21
422.559226
 31
0.0
  0
LINE
  5
1F3
102
{ACAD_REACTORS
330
24
102
}
100
AcDbEntity
  8
M04
100
AcDbLine
 10
724.211979
 20
442.559226
 30
0.0
 11
723.211979
 21
442.559226
 31
0.0
  0
LINE
  5
1F4
102
{ACAD_REACTORS
330
24
102
}
100
AcDbEntity
  8
M04
100
AcDbLine
 10
723.211979
 20
441.559226
 30
0.0
 11
723.211979
 21
442.559226
 31
0.0
  0
LINE
  5
1F5
102
{ACAD_REACTORS
330
C0
102
}
100
AcDbEntity
  8
M05
100
AcDbLine
 10
723.211979
 20
441.559226
 30
0.0
 11
724.211979
 21
442.559226
 31
0.0
  0
LINE
  5
1F6
102
{ACAD_REACTORS
330
C0
102
}
100
AcDbEntity
  8
M05
100
AcDbLine
 10
724.211979
 20
422.559226
 30
0.0
 11
723.211979
 21
423.559226
 31
0.0
  0
LINE
  5
1F7
102
{ACAD_REACTORS
330
C0
330
24
102
}
100
AcDbEntity
  8
M05
100
AcDbLine
 10
723.211979
 20
441.559226
 30
0.0
 11
723.211979
 21
423.559226
 31
0.0
  0
LINE
  5
1F8
102
{ACAD_REACTORS
330
C0
330
24
102
}
100
AcDbEntity
  8
M05
100
AcDbLine
 10
724.211979
 20
422.559226
 30
0.0
 11
733.211979
 21
422.559226
 31
0.0
  0
LINE
  5
1F9
102
{ACAD_REACTORS
330
C0
330
24
102
}
100
AcDbEntity
  8
M05
100
AcDbLine
 10
724.211979
 20
442.559226
 30
0.0
 11
733.211979
 21
442.559226
 31
0.0
  0
TEXT
  5
1FA
100
AcDbEntity
  8
TEXT
100
AcDbText
 10
662.576202
 20
435.271393
 30
0.0
 40
2.0
  1
MA010008
 41
0.9
100
AcDbText
  0
LINE
  5
1FB
100
AcDbEntity
  8
M04
100
AcDbLine
 10
650.902578
 20
503.059226
 30
0.0
 11
653.211979
 21
507.059226
 31
0.0
  0
LINE
  5
1FC
100
AcDbEntity
  8
M04
100
AcDbLine
 10
653.211979
 20
499.059226
 30
0.0
 11
650.902578
 21
503.059226
 31
0.0
  0
LINE
  5
1FD
100
AcDbEntity
  8
M04
100
AcDbLine
 10
656.211979
 20
499.059226
 30
0.0
 11
653.211979
 21
499.059226
 31
0.0
  0
LINE
  5
1FE
100
AcDbEntity
  8
M04
100
AcDbLine
 10
653.211979
 20
507.059226
 30
0.0
 11
653.211979
 21
499.059226
 31
0.0
  0
LINE
  5
1FF
100
AcDbEntity
  8
M04
100
AcDbLine
 10
656.211979
 20
507.059226
 30
0.0
 11
653.211979
 21
507.059226
 31
0.0
  0
ARC
  5
200
100
AcDbEntity
  8
M05
100
AcDbCircle
 10
665.549683
 20
503.059226
 30
0.0
 40
10.837705
100
AcDbArc
 50
161.372238
 51
198.627762
  0
LINE
  5
201
100
AcDbEntity
  8
M05
100
AcDbLine
 10
656.211979
 20
499.059226
 30
0.0
 11
655.279725
 21
499.597463
 31
0.0
  0
LINE
  5
202
100
AcDbEntity
  8
M05
100
AcDbLine
 10
655.279725
 20
506.520989
 30
0.0
 11
655.279725
 21
499.597463
 31
0.0
  0
LINE
  5
203
100
AcDbEntity
  8
M05
100
AcDbLine
 10
656.211979
 20
507.059226
 30
0.0
 11
655.279725
 21
506.520989
 31
0.0
  0
LINE
  5
204
100
AcDbEntity
  8
M05
100
AcDbLine
 10
656.211979
 20
507.059226
 30
0.0
 11
656.211979
 21
499.059226
 31
0.0
  0
LINE
  5
205
100
AcDbEntity
  8
M04
100
AcDbLine
 10
666.211979
 20
499.059226
 30
0.0
 11
666.211979
 21
442.059226
 31
0.0
  0
LINE
  5
206
100
AcDbEntity
  8
M04
100
AcDbLine
 10
665.711979
 20
499.059226
 30
0.0
 11
666.211979
 21
498.559226
 31
0.0
  0
LINE
  5
207
100
AcDbEntity
  8
M04
100
AcDbLine
 10
665.711979
 20
507.059226
 30
0.0
 11
666.211979
 21
507.559226
 31
0.0
  0
ARC
  5
208
100
AcDbEntity
  8
M05
100
AcDbCircle
 10
665.078645
 20
503.059226
 30
0.0
 40
13.633333
100
AcDbArc
 50
342.938469
 51
17.061531
  0
LINE
  5
209
100
AcDbEntity
  8
M05
100
AcDbLine
 10
678.111979
 20
507.059226
 30
0.0
 11
678.111979
 21
499.059226
 31
0.0
  0
LINE
  5
20A
100
AcDbEntity
  8
M05
100
AcDbLine
 10
656.211979
 20
499.059226
 30
0.0
 11
678.111979
 21
499.059226
 31
0.0
  0
LINE
  5
20B
100
AcDbEntity
  8
M05
100
AcDbLine
 10
656.211979
 20
507.059226
 30
0.0
 11
678.111979
 21
507.059226
 31
0.0
  0
CIRCLE
  5
20C
102
{ACAD_REACTORS
330
24
102
}
100
AcDbEntity
  8
M01
100
AcDbCircle
 10
706.211979
 20
432.559226
 30
0.0
 40
4.0
  0
LINE
  5
20D
100
AcDbEntity
  8
M04
100
AcDbLine
 10
661.789329
 20
421.559226
 30
0.0
 11
661.789329
 21
423.059226
 31
0.0
  0
LINE
  5
20E
100
AcDbEntity
  8
M04
100
AcDbLine
 10
661.789329
 20
421.559226
 30
0.0
 11
666.211979
 21
421.559226
 31
0.0
  0
LINE
  5
20F
100
AcDbEntity
  8
M04
100
AcDbLine
 10
661.211979
 20
422.559226
 30
0.0
 11
661.789329
 21
421.559226
 31
0.0
  0
LINE
  5
210
100
AcDbEntity
  8
M04
100
AcDbLine
 10
657.211979
 20
422.559226
 30
0.0
 11
656.211979
 21
422.559226
 31
0.0
  0
LINE
  5
211
100
AcDbEntity
  8
M04
100
AcDbLine
 10
656.211979
 20
423.559226
 30
0.0
 11
656.211979
 21
422.559226
 31
0.0
  0
LINE
  5
212
102
{ACAD_REACTORS
330
24
102
}
100
AcDbEntity
  8
M04
100
AcDbLine
 10
678.211979
 20
424.059226
 30
0.0
 11
678.211979
 21
423.059226
 31
0.0
  0
LINE
  5
213
102
{ACAD_REACTORS
330
24
102
}
100
AcDbEntity
  8
M04
100
AcDbLine
 10
677.211979
 20
423.059226
 30
0.0
 11
678.211979
 21
423.059226
 31
0.0
  0
LINE
  5
214
100
AcDbEntity
  8
M04
100
AcDbLine
 10
661.789329
 20
443.559226
 30
0.0
 11
661.789329
 21
442.059226
 31
0.0
  0
LINE
  5
215
100
AcDbEntity
  8
M04
100
AcDbLine
 10
661.789329
 20
443.559226
 30
0.0
 11
666.211979
 21
443.559226
 31
0.0
  0
LINE
  5
216
100
AcDbEntity
  8
M04
100
AcDbLine
 10
661.211979
 20
442.559226
 30
0.0
 11
661.789329
 21
443.559226
 31
0.0
  0
LINE
  5
217
100
AcDbEntity
  8
M04
100
AcDbLine
 10
657.211979
 20
442.559226
 30
0.0
 11
656.211979
 21
442.559226
 31
0.0
  0
LINE
  5
218
100
AcDbEntity
  8
M04
100
AcDbLine
 10
656.211979
 20
441.559226
 30
0.0
 11
656.211979
 21
442.559226
 31
0.0
  0
LINE
  5
219
102
{ACAD_REACTORS
330
24
102
}
100
AcDbEntity
  8
M04
100
AcDbLine
 10
678.211979
 20
441.059226
 30
0.0
 11
678.211979
 21
442.059226
 31
0.0
  0
LINE
  5
21A
102
{ACAD_REACTORS
330
24
102
}
100
AcDbEntity
  8
M04
100
AcDbLine
 10
677.211979
 20
442.059226
 30
0.0
 11
678.211979
 21
442.059226
 31
0.0
  0
LINE
  5
21B
102
{ACAD_REACTORS
330
16D
102
}
100
AcDbEntity
  8
M02
100
AcDbLine
 10
670.211979
 20
421.559226
 30
0.0
 11
673.211979
 21
421.559226
 31
0.0
  0
LINE
  5
21C
102
{ACAD_REACTORS
330
16D
102
}
100
AcDbEntity
  8
M02
100
AcDbLine
 10
670.211979
 20
443.559226
 30
0.0
 11
673.211979
 21
443.559226
 31
0.0
  0
LINE
  5
21D
102
{ACAD_REACTORS
330
16D
330
24
102
}
100
AcDbEntity
  8
M01
100
AcDbLine
 10
673.211979
 20
423.059226
 30
0.0
 11
673.211979
 21
402.559226
 31
0.0
  0
LINE
  5
21E
102
{ACAD_REACTORS
330
16D
102
}
100
AcDbEntity
  8
M02
100
AcDbLine
 10
670.211979
 20
423.059226
 30
0.0
 11
670.211979
 21
402.559226
 31
0.0
  0
LINE
  5
21F
100
AcDbEntity
  8
M04
100
AcDbLine
 10
666.211979
 20
423.059226
 30
0.0
 11
666.211979
 21
393.559226
 31
0.0
  0
LINE
  5
220
100
AcDbEntity
  8
M05
100
AcDbLine
 10
677.211979
 20
423.059226
 30
0.0
 11
677.211979
 21
442.059226
 31
0.0
  0
LINE
  5
221
100
AcDbEntity
  8
M05
100
AcDbLine
 10
657.211979
 20
422.559226
 30
0.0
 11
657.211979
 21
442.559226
 31
0.0
  0
LINE
  5
222
100
AcDbEntity
  8
M05
100
AcDbLine
 10
678.211979
 20
424.059226
 30
0.0
 11
677.211979
 21
423.059226
 31
0.0
  0
LINE
  5
223
100
AcDbEntity
  8
M05
100
AcDbLine
 10
677.211979
 20
442.059226
 30
0.0
 11
678.211979
 21
441.059226
 31
0.0
  0
LINE
  5
224
100
AcDbEntity
  8
M05
100
AcDbLine
 10
656.211979
 20
441.559226
 30
0.0
 11
657.211979
 21
442.559226
 31
0.0
  0
LINE
  5
225
100
AcDbEntity
  8
M05
100
AcDbLine
 10
657.211979
 20
422.559226
 30
0.0
 11
656.211979
 21
423.559226
 31
0.0
  0
LINE
  5
226
100
AcDbEntity
  8
M05
100
AcDbLine
 10
657.211979
 20
442.559226
 30
0.0
 11
661.211979
 21
442.559226
 31
0.0
  0
LINE
  5
227
100
AcDbEntity
  8
M05
100
AcDbLine
 10
657.211979
 20
422.559226
 30
0.0
 11
661.211979
 21
422.559226
 31
0.0
  0
LINE
  5
228
100
AcDbEntity
  8
M05
100
AcDbLine
 10
661.211979
 20
442.559226
 30
0.0
 11
661.211979
 21
422.559226
 31
0.0
  0
LINE
  5
229
100
AcDbEntity
  8
M05
100
AcDbLine
 10
656.211979
 20
441.559226
 30
0.0
 11
656.211979
 21
423.559226
 31
0.0
  0
LINE
  5
22A
102
{ACAD_REACTORS
330
24
102
}
100
AcDbEntity
  8
M05
100
AcDbLine
 10
661.211979
 20
423.059226
 30
0.0
 11
677.211979
 21
423.059226
 31
0.0
  0
LINE
  5
22B
102
{ACAD_REACTORS
330
24
102
}
100
AcDbEntity
  8
M05
100
AcDbLine
 10
661.211979
 20
442.059226
 30
0.0
 11
677.211979
 21
442.059226
 31
0.0
  0
LINE
  5
22C
102
{ACAD_REACTORS
330
24
102
}
100
AcDbEntity
  8
CENTRE
100
AcDbLine
 10
650.387056
 20
432.559226
 30
0.0
 11
773.104019
 21
432.559226
 31
0.0
  0
LINE
  5
22D
102
{ACAD_REACTORS
330
24
102
}
100
AcDbEntity
  8
M05
100
AcDbLine
 10
678.211979
 20
441.059226
 30
0.0
 11
678.211979
 21
424.059226
 31
0.0
  0
LINE
  5
22E
100
AcDbEntity
  8
CENTRE
100
AcDbLine
 10
645.865861
 20
503.059226
 30
0.0
 11
683.955561
 21
503.059226
 31
0.0
  0
LINE
  5
22F
100
AcDbEntity
  8
M04
100
AcDbLine
 10
740.211979
 20
589.230704
 30
0.0
 11
740.211979
 21
452.059226
 31
0.0
  0
LINE
  5
230
100
AcDbEntity
  8
M04
100
AcDbLine
 10
666.211979
 20
393.559226
 30
0.0
 11
740.211979
 21
393.559226
 31
0.0
  0
LINE
  5
231
100
AcDbEntity
  8
M04
100
AcDbLine
 10
666.211979
 20
568.559226
 30
0.0
 11
666.211979
 21
507.059226
 31
0.0
  0
LINE
  5
232
102
{ACAD_REACTORS
330
16D
102
}
100
AcDbEntity
  8
M02
100
AcDbLine
 10
673.211979
 20
496.559226
 30
0.0
 11
670.211979
 21
496.559226
 31
0.0
  0
LINE
  5
233
102
{ACAD_REACTORS
330
24
102
}
100
AcDbEntity
  8
M01
100
AcDbLine
 10
673.211979
 20
496.559226
 30
0.0
 11
679.211979
 21
496.559226
 31
0.0
  0
LINE
  5
234
100
AcDbEntity
  8
M01
100
AcDbLine
 10
679.211979
 20
508.559226
 30
0.0
 11
679.211979
 21
496.559226
 31
0.0
  0
LINE
  5
235
102
{ACAD_REACTORS
330
16C
102
}
100
AcDbEntity
  8
M02
100
AcDbLine
 10
733.211979
 20
506.559226
 30
0.0
 11
736.211979
 21
506.559226
 31
0.0
  0
LINE
  5
236
102
{ACAD_REACTORS
330
16D
102
}
100
AcDbEntity
  8
M02
100
AcDbLine
 10
673.211979
 20
402.559226
 30
0.0
 11
670.211979
 21
402.559226
 31
0.0
  0
LINE
  5
237
102
{ACAD_REACTORS
330
16C
102
}
100
AcDbEntity
  8
M02
100
AcDbLine
 10
736.211979
 20
506.559226
 30
0.0
 11
736.211979
 21
466.559226
 31
0.0
  0
LINE
  5
238
102
{ACAD_REACTORS
330
16D
102
}
100
AcDbEntity
  8
M02
100
AcDbLine
 10
670.211979
 20
499.059226
 30
0.0
 11
670.211979
 21
442.059226
 31
0.0
  0
LINE
  5
239
102
{ACAD_REACTORS
330
24
102
}
100
AcDbEntity
  8
M01
100
AcDbLine
 10
733.211979
 20
402.559226
 30
0.0
 11
731.211979
 21
400.559226
 31
0.0
  0
LINE
  5
23A
102
{ACAD_REACTORS
330
24
102
}
100
AcDbEntity
  8
M01
100
AcDbLine
 10
731.211979
 20
508.559226
 30
0.0
 11
733.211979
 21
506.559226
 31
0.0
  0
LINE
  5
23B
100
AcDbEntity
  8
M01
100
AcDbLine
 10
674.211979
 20
507.559226
 30
0.0
 11
675.211979
 21
508.559226
 31
0.0
  0
LINE
  5
23C
102
{ACAD_REACTORS
330
24
102
}
100
AcDbEntity
  8
M01
100
AcDbLine
 10
675.211979
 20
400.559226
 30
0.0
 11
673.211979
 21
402.559226
 31
0.0
  0
LINE
  5
23D
102
{ACAD_REACTORS
330
16C
330
C0
330
24
102
}
100
AcDbEntity
  8
M01
100
AcDbLine
 10
733.211979
 20
506.559226
 30
0.0
 11
733.211979
 21
461.559226
 31
0.0
  0
LINE
  5
23E
102
{ACAD_REACTORS
330
24
102
}
100
AcDbEntity
  8
M01
100
AcDbLine
 10
675.211979
 20
400.559226
 30
0.0
 11
731.211979
 21
400.559226
 31
0.0
  0
LINE
  5
23F
102
{ACAD_REACTORS
330
24
102
}
100
AcDbEntity
  8
M01
100
AcDbLine
 10
675.211979
 20
508.559226
 30
0.0
 11
731.211979
 21
508.559226
 31
0.0
  0
LINE
  5
240
102
{ACAD_REACTORS
330
16D
330
24
102
}
100
AcDbEntity
  8
M01
100
AcDbLine
 10
673.211979
 20
499.059226
 30
0.0
 11
673.211979
 21
442.059226
 31
0.0
  0
CIRCLE
  5
241
100
AcDbEntity
  8
M03
100
AcDbCircle
 10
423.265534
 20
432.559226
 30
0.0
 40
20.0
  0
HATCH
  5
242
100
AcDbEntity
  8
M01
 62
     4
100
AcDbHatch
 10
0.0
 20
0.0
 30
0.0
210
0.0
220
0.0
230
1.0
  2
_U
 70
     0
 71
     0
 91
       13
 92
        7
 72
     1
 73
     1
 93
        4
 10
417.2655344179457
 20
439.9246860123912
 42
0.0
 10
417.2655344179455
 20
436.5592260810632
 42
0.0
 10
423.2655344179456
 20
436.5592260810632
 42
0.0
 10
423.2655344179456
 20
442.0592260810632
 42
0.1725804109198133
 97
        0
 92
        7
 72
     1
 73
     1
 93
        4
 10
423.2655344179456
 20
436.5592260810632
 42
0.0
 10
417.2655344179455
 20
436.5592260810632
 42
0.0
 10
417.2655344179457
 20
432.5592260810631
 42
0.0
 10
419.2655344179456
 20
432.5592260810631
 42
-0.4142135623730992
 97
        0
 92
       22
 72
     1
 73
     1
 93
        3
 10
423.2655344179455
 20
436.5592260810632
 42
0.4142135623730909
 10
419.2655344179456
 20
432.5592260810631
 42
0.0
 10
423.2655344179456
 20
432.5592260810631
 42
0.0
 97
        0
 92
        7
 72
     1
 73
     1
 93
        4
 10
417.2655344179455
 20
436.5592260810632
 42
0.0
 10
414.6486904481386
 20
436.5592260810632
 42
0.1090809576248918
 10
413.7655344179457
 20
432.5592260810631
 42
0.0
 10
417.2655344179457
 20
432.5592260810631
 42
0.0
 97
        0
 92
       22
 72
     1
 73
     1
 93
        3
 10
417.2655344179455
 20
439.9246860123912
 42
0.1136360637262233
 10
414.6486904481386
 20
436.5592260810632
 42
0.0
 10
417.2655344179454
 20
436.5592260810632
 42
0.0
 97
        0
 92
        7
 72
     1
 73
     1
 93
        4
 10
413.2655344179457
 20
432.5592260810631
 42
0.0
 10
413.7655344179457
 20
432.5592260810631
 42
-0.1090809576248918
 10
414.6486904481386
 20
436.5592260810632
 42
0.0
 10
414.100383028034
 20
436.5592260810632
 42
0.1032437171755979
 97
        0
 92
        7
 72
     1
 73
     1
 93
        4
 10
414.100383028034
 20
436.5592260810632
 42
0.0
 10
414.6486904481386
 20
436.5592260810632
 42
-0.1136360637262264
 10
417.2655344179457
 20
439.9246860123912
 42
0.0
 10
417.2655344179457
 20
440.5592260810632
 42
0.1296640194076911
 97
        0
 92
        7
 72
     1
 73
     1
 93
        4
 10
423.2655344179456
 20
442.0592260810632
 42
0.0
 10
423.2655344179456
 20
442.5592260810632
 42
0.1622776601683798
 10
417.2655344179457
 20
440.5592260810631
 42
0.0
 10
417.2655344179457
 20
439.9246860123914
 42
-0.1725804109198127
 97
        0
 92
       23
 72
     1
 73
     1
 93
        3
 10
423.2655344179456
 20
432.5592260810631
 42
0.0
 10
423.2655344179456
 20
428.5592260810632
 42
0.4142135623730909
 10
427.2655344179456
 20
432.5592260810631
 42
0.0
 97
        0
 92
        7
 72
     1
 73
     1
 93
        4
 10
427.2655344179456
 20
432.5592260810631
 42
-0.4142135623730909
 10
423.2655344179456
 20
428.5592260810632
 42
0.0
 10
431.8823783877527
 20
428.5592260810632
 42
0.1090809576248888
 10
432.7655344179456
 20
432.5592260810631
 42
0.0
 97
        0
 92
       23
 72
     1
 73
     1
 93
        3
 10
423.2655344179456
 20
428.5592260810632
 42
0.0
 10
423.2655344179456
 20
423.0592260810632
 42
0.2919418509678903
 10
431.8823783877527
 20
428.5592260810632
 42
0.0
 97
        0
 92
        7
 72
     1
 73
     1
 93
        4
 10
432.4306858078573
 20
428.5592260810632
 42
0.0
 10
431.8823783877527
 20
428.5592260810632
 42
-0.2919418509678903
 10
423.2655344179456
 20
423.0592260810632
 42
0.0
 10
423.2655344179456
 20
422.5592260810632
 42
0.2982166266986068
 97
        0
 92
        7
 72
     1
 73
     1
 93
        4
 10
433.2655344179456
 20
432.5592260810631
 42
0.0
 10
432.7655344179456
 20
432.5592260810631
 42
-0.1090809576248888
 10
431.8823783877527
 20
428.5592260810632
 42
0.0
 10
432.4306858078573
 20
428.5592260810632
 42
0.1032437171755951
 97
        0
 75
     0
 76
     0
 52
45.0
 41
1.0
 77
     1
 78
     2
 53
45.0
 43
-132.181706
 44
0.0
 45
-0.7071067811865475
 46
0.7071067811865476
 79
     0
 53
135.0
 43
-132.181706
 44
0.0
 45
-0.7071067811865476
 46
-0.7071067811865475
 79
     0
 47
0.087843
 98
       13
 10
420.596504
 20
439.374762
 10
419.014679
 20
434.982616
 10
422.002571
 20
434.455558
 10
416.114666
 20
434.455558
 10
416.554062
 20
437.442217
 10
413.829807
 20
435.158301
 10
416.729821
 20
439.813977
 10
419.366196
 20
441.482992
 10
424.990464
 20
431.381055
 10
429.120785
 20
430.590469
 10
426.835927
 20
426.988909
 10
425.781377
 20
423.035977
 10
432.89959
 20
430.678312
  0
CIRCLE
  5
243
100
AcDbEntity
  8
M01
100
AcDbCircle
 10
423.265534
 20
432.559226
 30
0.0
 40
10.0
  0
CIRCLE
  5
244
100
AcDbEntity
  8
M03
100
AcDbCircle
 10
423.265534
 20
432.559226
 30
0.0
 40
9.5
  0
LINE
  5
245
100
AcDbEntity
  8
DIMS
 62
     4
100
AcDbLine
 10
535.765534
 20
379.159226
 30
0.0
 11
535.765534
 21
374.359226
 31
0.0
  0
LINE
  5
246
100
AcDbEntity
  8
DIMS
 62
     4
100
AcDbLine
 10
535.765534
 20
385.959226
 30
0.0
 11
535.765534
 21
390.759226
 31
0.0
  0
LINE
  5
247
100
AcDbEntity
  8
DIMS
 62
     4
100
AcDbLine
 10
532.365534
 20
382.559226
 30
0.0
 11
527.565534
 21
382.559226
 31
0.0
  0
LINE
  5
248
100
AcDbEntity
  8
DIMS
 62
     4
100
AcDbLine
 10
539.165534
 20
382.559226
 30
0.0
 11
543.965534
 21
382.559226
 31
0.0
  0
LINE
  5
249
100
AcDbEntity
  8
DIMS
 62
     4
100
AcDbLine
 10
535.765534
 20
384.259226
 30
0.0
 11
535.765534
 21
380.859226
 31
0.0
  0
LINE
  5
24A
100
AcDbEntity
  8
DIMS
 62
     4
100
AcDbLine
 10
537.465534
 20
382.559226
 30
0.0
 11
534.065534
 21
382.559226
 31
0.0
  0
CIRCLE
  5
24B
100
AcDbEntity
  8
M04
100
AcDbCircle
 10
535.765534
 20
382.559226
 30
0.0
 40
6.5
  0
LINE
  5
24C
100
AcDbEntity
  8
DIMS
 62
     4
100
AcDbLine
 10
470.765534
 20
379.159226
 30
0.0
 11
470.765534
 21
374.359226
 31
0.0
  0
LINE
  5
24D
100
AcDbEntity
  8
DIMS
 62
     4
100
AcDbLine
 10
470.765534
 20
385.959226
 30
0.0
 11
470.765534
 21
390.759226
 31
0.0
  0
LINE
  5
24E
100
AcDbEntity
  8
DIMS
 62
     4
100
AcDbLine
 10
467.365534
 20
382.559226
 30
0.0
 11
462.565534
 21
382.559226
 31
0.0
  0
LINE
  5
24F
100
AcDbEntity
  8
DIMS
 62
     4
100
AcDbLine
 10
474.165534
 20
382.559226
 30
0.0
 11
478.965534
 21
382.559226
 31
0.0
  0
LINE
  5
250
100
AcDbEntity
  8
DIMS
 62
     4
100
AcDbLine
 10
470.765534
 20
384.259226
 30
0.0
 11
470.765534
 21
380.859226
 31
0.0
  0
LINE
  5
251
100
AcDbEntity
  8
DIMS
 62
     4
100
AcDbLine
 10
472.465534
 20
382.559226
 30
0.0
 11
469.065534
 21
382.559226
 31
0.0
  0
CIRCLE
  5
252
100
AcDbEntity
  8
M04
100
AcDbCircle
 10
470.765534
 20
382.559226
 30
0.0
 40
6.5
  0
LINE
  5
253
100
AcDbEntity
  8
DIMS
 62
     4
100
AcDbLine
 10
310.765534
 20
379.159226
 30
0.0
 11
310.765534
 21
374.359226
 31
0.0
  0
LINE
  5
254
100
AcDbEntity
  8
DIMS
 62
     4
100
AcDbLine
 10
310.765534
 20
385.959226
 30
0.0
 11
310.765534
 21
390.759226
 31
0.0
  0
LINE
  5
255
100
AcDbEntity
  8
DIMS
 62
     4
100
AcDbLine
 10
314.165534
 20
382.559226
 30
0.0
 11
318.965534
 21
382.559226
 31
0.0
  0
LINE
  5
256
100
AcDbEntity
  8
DIMS
 62
     4
100
AcDbLine
 10
307.365534
 20
382.559226
 30
0.0
 11
302.565534
 21
382.559226
 31
0.0
  0
LINE
  5
257
100
AcDbEntity
  8
DIMS
 62
     4
100
AcDbLine
 10
310.765534
 20
384.259226
 30
0.0
 11
310.765534
 21
380.859226
 31
0.0
  0
LINE
  5
258
100
AcDbEntity
  8
DIMS
 62
     4
100
AcDbLine
 10
309.065534
 20
382.559226
 30
0.0
 11
312.465534
 21
382.559226
 31
0.0
  0
CIRCLE
  5
259
100
AcDbEntity
  8
M04
100
AcDbCircle
 10
310.765534
 20
382.559226
 30
0.0
 40
6.5
  0
LINE
  5
25A
100
AcDbEntity
  8
DIMS
 62
     4
100
AcDbLine
 10
375.765534
 20
379.159226
 30
0.0
 11
375.765534
 21
374.359226
 31
0.0
  0
LINE
  5
25B
100
AcDbEntity
  8
DIMS
 62
     4
100
AcDbLine
 10
375.765534
 20
385.959226
 30
0.0
 11
375.765534
 21
390.759226
 31
0.0
  0
LINE
  5
25C
100
AcDbEntity
  8
DIMS
 62
     4
100
AcDbLine
 10
379.165534
 20
382.559226
 30
0.0
 11
383.965534
 21
382.559226
 31
0.0
  0
LINE
  5
25D
100
AcDbEntity
  8
DIMS
 62
     4
100
AcDbLine
 10
372.365534
 20
382.559226
 30
0.0
 11
367.565534
 21
382.559226
 31
0.0
  0
LINE
  5
25E
100
AcDbEntity
  8
DIMS
 62
     4
100
AcDbLine
 10
375.765534
 20
384.259226
 30
0.0
 11
375.765534
 21
380.859226
 31
0.0
  0
LINE
  5
25F
100
AcDbEntity
  8
DIMS
 62
     4
100
AcDbLine
 10
374.065534
 20
382.559226
 30
0.0
 11
377.465534
 21
382.559226
 31
0.0
  0
CIRCLE
  5
260
100
AcDbEntity
  8
M04
100
AcDbCircle
 10
375.765534
 20
382.559226
 30
0.0
 40
6.5
  0
LINE
  5
261
100
AcDbEntity
  8
DIMS
 62
     4
100
AcDbLine
 10
535.765534
 20
485.959226
 30
0.0
 11
535.765534
 21
490.759226
 31
0.0
  0
LINE
  5
262
100
AcDbEntity
  8
DIMS
 62
     4
100
AcDbLine
 10
535.765534
 20
479.159226
 30
0.0
 11
535.765534
 21
474.359226
 31
0.0
  0
LINE
  5
263
100
AcDbEntity
  8
DIMS
 62
     4
100
AcDbLine
 10
532.365534
 20
482.559226
 30
0.0
 11
527.565534
 21
482.559226
 31
0.0
  0
LINE
  5
264
100
AcDbEntity
  8
DIMS
 62
     4
100
AcDbLine
 10
539.165534
 20
482.559226
 30
0.0
 11
543.965534
 21
482.559226
 31
0.0
  0
LINE
  5
265
100
AcDbEntity
  8
DIMS
 62
     4
100
AcDbLine
 10
535.765534
 20
480.859226
 30
0.0
 11
535.765534
 21
484.259226
 31
0.0
  0
LINE
  5
266
100
AcDbEntity
  8
DIMS
 62
     4
100
AcDbLine
 10
537.465534
 20
482.559226
 30
0.0
 11
534.065534
 21
482.559226
 31
0.0
  0
CIRCLE
  5
267
100
AcDbEntity
  8
M04
100
AcDbCircle
 10
535.765534
 20
482.559226
 30
0.0
 40
6.5
  0
LINE
  5
268
100
AcDbEntity
  8
DIMS
 62
     4
100
AcDbLine
 10
470.765534
 20
485.959226
 30
0.0
 11
470.765534
 21
490.759226
 31
0.0
  0
LINE
  5
269
100
AcDbEntity
  8
DIMS
 62
     4
100
AcDbLine
 10
470.765534
 20
479.159226
 30
0.0
 11
470.765534
 21
474.359226
 31
0.0
  0
LINE
  5
26A
100
AcDbEntity
  8
DIMS
 62
     4
100
AcDbLine
 10
467.365534
 20
482.559226
 30
0.0
 11
462.565534
 21
482.559226
 31
0.0
  0
LINE
  5
26B
100
AcDbEntity
  8
DIMS
 62
     4
100
AcDbLine
 10
474.165534
 20
482.559226
 30
0.0
 11
478.965534
 21
482.559226
 31
0.0
  0
LINE
  5
26C
100
AcDbEntity
  8
DIMS
 62
     4
100
AcDbLine
 10
470.765534
 20
480.859226
 30
0.0
 11
470.765534
 21
484.259226
 31
0.0
  0
LINE
  5
26D
100
AcDbEntity
  8
DIMS
 62
     4
100
AcDbLine
 10
472.465534
 20
482.559226
 30
0.0
 11
469.065534
 21
482.559226
 31
0.0
  0
CIRCLE
  5
26E
100
AcDbEntity
  8
M04
100
AcDbCircle
 10
470.765534
 20
482.559226
 30
0.0
 40
6.5
  0
LINE
  5
26F
100
AcDbEntity
  8
DIMS
 62
     4
100
AcDbLine
 10
310.765534
 20
485.959226
 30
0.0
 11
310.765534
 21
490.759226
 31
0.0
  0
LINE
  5
270
100
AcDbEntity
  8
DIMS
 62
     4
100
AcDbLine
 10
310.765534
 20
479.159226
 30
0.0
 11
310.765534
 21
474.359226
 31
0.0
  0
LINE
  5
271
100
AcDbEntity
  8
DIMS
 62
     4
100
AcDbLine
 10
314.165534
 20
482.559226
 30
0.0
 11
318.965534
 21
482.559226
 31
0.0
  0
LINE
  5
272
100
AcDbEntity
  8
DIMS
 62
     4
100
AcDbLine
 10
307.365534
 20
482.559226
 30
0.0
 11
302.565534
 21
482.559226
 31
0.0
  0
LINE
  5
273
100
AcDbEntity
  8
DIMS
 62
     4
100
AcDbLine
 10
310.765534
 20
480.859226
 30
0.0
 11
310.765534
 21
484.259226
 31
0.0
  0
LINE
  5
274
100
AcDbEntity
  8
DIMS
 62
     4
100
AcDbLine
 10
309.065534
 20
482.559226
 30
0.0
 11
312.465534
 21
482.559226
 31
0.0
  0
CIRCLE
  5
275
100
AcDbEntity
  8
M04
100
AcDbCircle
 10
310.765534
 20
482.559226
 30
0.0
 40
6.5
  0
DIMENSION
  5
276
100
AcDbEntity
  8
DIMS
100
AcDbDimension
  2
*D4
 10
510.765534
 20
350.264883
 30
0.0
 11
485.765534
 21
353.264883
 31
0.0
  1
A=<>
  3
DIM1
100
AcDbAlignedDimension
 13
460.765534
 23
426.859226
 33
0.0
 14
510.765534
 24
415.859226
 34
0.0
100
AcDbRotatedDimension
1001
ACAD
1000
DSTYLE
1002
{
1070
    75
1070
     1
1070
   144
1040
1.0
1070
   287
1070
     4
1002
}
  0
DIMENSION
  5
282
100
AcDbEntity
  8
DIMS
100
AcDbDimension
  2
*D3
 10
460.765534
 20
350.264883
 30
0.0
 11
423.265534
 21
353.264883
 31
0.0
  1
B=<>
  3
DIM1
100
AcDbAlignedDimension
 13
385.765534
 23
426.859226
 33
0.0
 14
460.765534
 24
426.859226
 34
0.0
100
AcDbRotatedDimension
1001
ACAD
1000
DSTYLE
1002
{
1070
    75
1070
     1
1070
   144
1040
1.0
1070
   287
1070
     4
1002
}
  0
DIMENSION
  5
28E
100
AcDbEntity
  8
DIMS
100
AcDbDimension
  2
*D2
 10
385.765534
 20
350.264883
 30
0.0
 11
360.765534
 21
353.264883
 31
0.0
  1
A=<>
  3
DIM1
100
AcDbAlignedDimension
 13
335.765534
 23
415.859226
 33
0.0
 14
385.765534
 24
426.859226
 34
0.0
100
AcDbRotatedDimension
1001
ACAD
1000
DSTYLE
1002
{
1070
   144
1040
1.0
1002
}
  0
LINE
  5
29B
100
AcDbEntity
  8
DIMS
 62
     4
100
AcDbLine
 10
460.765534
 20
435.959226
 30
0.0
 11
460.765534
 21
438.259226
 31
0.0
  0
LINE
  5
29C
100
AcDbEntity
  8
DIMS
 62
     4
100
AcDbLine
 10
460.765534
 20
429.159226
 30
0.0
 11
460.765534
 21
426.859226
 31
0.0
  0
LINE
  5
29D
100
AcDbEntity
  8
DIMS
 62
     4
100
AcDbLine
 10
460.765534
 20
430.859226
 30
0.0
 11
460.765534
 21
434.259226
 31
0.0
  0
LINE
  5
29E
100
AcDbEntity
  8
DIMS
 62
     4
100
AcDbLine
 10
385.765534
 20
435.959226
 30
0.0
 11
385.765534
 21
438.259226
 31
0.0
  0
LINE
  5
29F
100
AcDbEntity
  8
DIMS
 62
     4
100
AcDbLine
 10
385.765534
 20
429.159226
 30
0.0
 11
385.765534
 21
426.859226
 31
0.0
  0
LINE
  5
2A0
100
AcDbEntity
  8
DIMS
 62
     4
100
AcDbLine
 10
385.765534
 20
430.859226
 30
0.0
 11
385.765534
 21
434.259226
 31
0.0
  0
CIRCLE
  5
2A1
100
AcDbEntity
  8
M01
100
AcDbCircle
 10
460.765534
 20
432.559226
 30
0.0
 40
4.0
  0
CIRCLE
  5
2A2
100
AcDbEntity
  8
M01
100
AcDbCircle
 10
385.765534
 20
432.559226
 30
0.0
 40
4.0
  0
LINE
  5
2A3
100
AcDbEntity
  8
M04
100
AcDbLine
 10
311.765534
 20
471.559226
 30
0.0
 11
384.265534
 21
471.559226
 31
0.0
  0
POINT
  5
2A4
100
AcDbEntity
  8
DEFPOINTS
  6
BYBLOCK
 62
     0
100
AcDbPoint
 10
423.265534
 20
280.013886
 30
0.0
  0
LINE
  5
2A5
102
{ACAD_REACTORS
330
2C
102
}
100
AcDbEntity
  8
M04
100
AcDbLine
 10
413.065534
 20
280.013886
 30
0.0
 11
413.765534
 21
279.313886
 31
0.0
  0
LINE
  5
2A6
102
{ACAD_REACTORS
330
2C
102
}
100
AcDbEntity
  8
M04
100
AcDbLine
 10
433.465534
 20
280.013886
 30
0.0
 11
432.765534
 21
279.313886
 31
0.0
  0
HATCH
  5
2A7
100
AcDbEntity
  8
HATCH
100
AcDbHatch
 10
0.0
 20
0.0
 30
0.0
210
0.0
220
0.0
230
1.0
  2
_U
 70
     0
 71
     1
 91
        2
 92
        7
 72
     1
 73
     1
 93
        2
 10
308.7655344179456
 20
276.0138856722448
 42
1.0
 10
316.7655344179456
 20
276.0138856722448
 42
1.0
 97
        1
330
2E2
 92
        7
 72
     1
 73
     1
 93
        2
 10
316.7655344179456
 20
224.0138856722445
 42
1.0
 10
308.7655344179456
 20
224.0138856722445
 42
1.0
 97
        1
330
2D9
 75
     0
 76
     0
 52
45.0
 41
0.8
 77
     0
 78
     1
 53
45.0
 43
-132.181706
 44
-14.472589
 45
-0.565685424949238
 46
0.565685424949238
 79
     0
 47
0.251927
 98
        2
 10
311.302432
 20
277.784946
 10
314.326805
 20
238.988148
  0
HATCH
  5
2A8
100
AcDbEntity
  8
M03
100
AcDbHatch
 10
0.0
 20
0.0
 30
0.0
210
0.0
220
0.0
230
1.0
  2
_U
 70
     0
 71
     0
 91
        1
 92
        7
 72
     0
 73
     1
 93
        4
 10
346.4584716247606
 20
404.4592260810629
 10
317.2200122101252
 20
404.4592260810629
 10
317.2200122101252
 20
402.5592260810629
 10
346.4584716247607
 20
402.559226081063
 97
        0
 75
     0
 76
     0
 52
330.0
 41
0.7
 77
     0
 78
     1
 53
330.0
 43
-144.681706
 44
0.0
 45
0.3500000000000003
 46
0.6062177826491069
 79
     0
 47
0.060863
 98
        1
 10
342.7673
 20
403.271795
  0
HATCH
  5
2A9
100
AcDbEntity
  8
M03
100
AcDbHatch
 10
0.0
 20
0.0
 30
0.0
210
0.0
220
0.0
230
1.0
  2
_U
 70
     0
 71
     0
 91
        1
 92
        7
 72
     0
 73
     1
 93
        4
 10
346.4584716247607
 20
404.4592260810629
 10
317.2200122101251
 20
404.4592260810629
 10
317.2200122101251
 20
402.5592260810628
 10
346.4584716247608
 20
402.559226081063
 97
        0
 75
     0
 76
     0
 52
30.0
 41
0.7
 77
     0
 78
     1
 53
30.0
 43
-144.681706
 44
0.0
 45
-0.3499999999999999
 46
0.6062177826491072
 79
     0
 47
0.060863
 98
        1
 10
342.584636
 20
403.515247
  0
HATCH
  5
2AA
100
AcDbEntity
  8
HATCH
100
AcDbHatch
 10
0.0
 20
0.0
 30
0.0
210
0.0
220
0.0
230
1.0
  2
_U
 70
     0
 71
     1
 91
        2
 92
        7
 72
     0
 73
     1
 93
       11
 10
327.9066524304886
 20
220.0138856722446
 10
322.4655344179456
 20
220.0138856722446
 10
321.7655344179456
 20
219.3138856722447
 10
321.7655344179458
 20
213.7138856722444
 10
322.4655344179456
 20
213.0138856722445
 10
325.2655344179458
 20
213.0138856722445
 10
326.2655344179457
 20
214.0138856722444
 10
328.2655344179453
 20
214.0138856722446
 10
329.265534417945
 20
213.0138856722445
 10
332.2655344179455
 20
213.0138856722445
 10
332.2655344179455
 20
215.6550036847876
 97
       10
330
4A2
330
3B7
330
3BC
330
3B8
330
4A8
330
2AE
330
2B0
330
2AF
330
3A5
330
3A7
 92
        7
 72
     0
 73
     1
 93
       11
 10
343.6244164054028
 20
220.0138856722446
 10
339.2655344179457
 20
215.6550036847876
 10
339.2655344179456
 20
213.0138856722445
 10
342.2655344179464
 20
213.0138856722445
 10
343.2655344179461
 20
214.0138856722446
 10
345.2655344179455
 20
214.0138856722444
 10
346.2655344179454
 20
213.0138856722445
 10
349.0655344179456
 20
213.0138856722445
 10
349.7655344179455
 20
213.7138856722444
 10
349.7655344179457
 20
219.3138856722446
 10
349.0655344179455
 20
220.0138856722447
 97
       10
330
3B2
330
4A2
330
3A9
330
3A4
330
38C
330
2AC
330
2AD
330
2AB
330
3B3
330
3B4
 75
     0
 76
     0
 52
135.0
 41
1.5
 77
     0
 78
     1
 53
135.0
 43
-164.681706
 44
-27.472589
 45
-1.060660171779821
 46
-1.060660171779821
 79
     0
 47
0.040219
 98
        2
 10
326.917317
 20
217.493456
 10
345.385605
 20
217.051044
  0
LINE
  5
2AB
102
{ACAD_REACTORS
330
2AA
102
}
100
AcDbEntity
  8
M05
100
AcDbLine
 10
345.265534
 20
214.013886
 30
0.0
 11
346.265534
 21
213.013886
 31
0.0
  0
LINE
  5
2AC
102
{ACAD_REACTORS
330
2AA
102
}
100
AcDbEntity
  8
M05
100
AcDbLine
 10
343.265534
 20
214.013886
 30
0.0
 11
342.265534
 21
213.013886
 31
0.0
  0
LINE
  5
2AD
102
{ACAD_REACTORS
330
2AA
102
}
100
AcDbEntity
  8
M05
100
AcDbLine
 10
345.265534
 20
214.013886
 30
0.0
 11
343.265534
 21
214.013886
 31
0.0
  0
LINE
  5
2AE
102
{ACAD_REACTORS
330
2AA
102
}
100
AcDbEntity
  8
M05
100
AcDbLine
 10
326.265534
 20
214.013886
 30
0.0
 11
325.265534
 21
213.013886
 31
0.0
  0
LINE
  5
2AF
102
{ACAD_REACTORS
330
2AA
102
}
100
AcDbEntity
  8
M05
100
AcDbLine
 10
328.265534
 20
214.013886
 30
0.0
 11
329.265534
 21
213.013886
 31
0.0
  0
LINE
  5
2B0
102
{ACAD_REACTORS
330
2AA
102
}
100
AcDbEntity
  8
M05
100
AcDbLine
 10
326.265534
 20
214.013886
 30
0.0
 11
328.265534
 21
214.013886
 31
0.0
  0
HATCH
  5
2B1
100
AcDbEntity
  8
HATCH
100
AcDbHatch
 10
0.0
 20
0.0
 30
0.0
210
0.0
220
0.0
230
1.0
  2
_U
 70
     0
 71
     0
 91
        2
 92
        7
 72
     0
 73
     1
 93
       11
 10
502.9066524304885
 20
220.0138856722446
 10
497.4655344179457
 20
220.0138856722447
 10
496.7655344179457
 20
219.3138856722447
 10
496.7655344179457
 20
213.7138856722444
 10
497.4655344179454
 20
213.0138856722445
 10
500.2655344179457
 20
213.0138856722445
 10
501.2655344179454
 20
214.0138856722444
 10
503.2655344179452
 20
214.0138856722446
 10
504.2655344179447
 20
213.0138856722445
 10
507.2655344179454
 20
213.0138856722445
 10
507.2655344179454
 20
215.6550036847876
 97
        0
 92
        7
 72
     0
 73
     1
 93
       11
 10
524.7655344179456
 20
219.3138856722446
 10
524.0655344179456
 20
220.0138856722446
 10
518.6244164054025
 20
220.0138856722445
 10
514.2655344179456
 20
215.6550036847875
 10
514.2655344179456
 20
213.0138856722445
 10
517.2655344179463
 20
213.0138856722445
 10
518.2655344179461
 20
214.0138856722445
 10
520.2655344179456
 20
214.0138856722444
 10
521.2655344179454
 20
213.0138856722445
 10
524.0655344179456
 20
213.0138856722445
 10
524.7655344179454
 20
213.7138856722443
 97
        0
 75
     0
 76
     0
 52
135.0
 41
1.5
 77
     0
 78
     1
 53
135.0
 43
-99.681706
 44
-27.472589
 45
-1.060660171779821
 46
-1.060660171779821
 79
     0
 47
0.151518
 98
        2
 10
501.241465
 20
216.697923
 10
519.885875
 20
217.303994
  0
LINE
  5
2B2
100
AcDbEntity
  8
M05
100
AcDbLine
 10
501.265534
 20
214.013886
 30
0.0
 11
500.265534
 21
213.013886
 31
0.0
  0
LINE
  5
2B3
100
AcDbEntity
  8
M05
100
AcDbLine
 10
503.265534
 20
214.013886
 30
0.0
 11
504.265534
 21
213.013886
 31
0.0
  0
LINE
  5
2B4
100
AcDbEntity
  8
M05
100
AcDbLine
 10
501.265534
 20
214.013886
 30
0.0
 11
503.265534
 21
214.013886
 31
0.0
  0
LINE
  5
2B5
100
AcDbEntity
  8
M05
100
AcDbLine
 10
520.265534
 20
214.013886
 30
0.0
 11
521.265534
 21
213.013886
 31
0.0
  0
LINE
  5
2B6
100
AcDbEntity
  8
M05
100
AcDbLine
 10
518.265534
 20
214.013886
 30
0.0
 11
517.265534
 21
213.013886
 31
0.0
  0
LINE
  5
2B7
100
AcDbEntity
  8
M05
100
AcDbLine
 10
520.265534
 20
214.013886
 30
0.0
 11
518.265534
 21
214.013886
 31
0.0
  0
LINE
  5
2B8
102
{ACAD_REACTORS
330
29
102
}
100
AcDbEntity
  8
M02
100
AcDbLine
 10
492.765534
 20
280.013886
 30
0.0
 11
492.765534
 21
283.013886
 31
0.0
  0
LINE
  5
2B9
102
{ACAD_REACTORS
330
29
102
}
100
AcDbEntity
  8
M02
100
AcDbLine
 10
528.765534
 20
280.013886
 30
0.0
 11
528.765534
 21
283.013886
 31
0.0
  0
MTEXT
  5
2BA
100
AcDbEntity
  8
0
  6
BYBLOCK
 62
     2
100
AcDbMText
 10
468.701285
 20
508.3582
 30
0.0
 40
3.0
 41
0.0
 71
     4
 72
     1
  1
M12 PLATE RETAINING SCREWS SHOULD ALSO BE FITTED.\PMINIMUM 2 PER DROP & ALSO AROUND MANIFOLD POCKET.
  0
SOLID
  5
2BB
100
AcDbEntity
  8
0
  6
BYBLOCK
 62
     4
100
AcDbTrace
 10
477.804975
 20
488.968819
 30
0.0
 11
476.963
 21
489.508335
 31
0.0
 12
475.765442
 22
486.71265
 32
0.0
 13
475.765442
 23
486.71265
 33
0.0
  0
LINE
  5
2BC
100
AcDbEntity
  8
0
  6
BYBLOCK
 62
     4
100
AcDbLine
 10
477.383988
 20
489.238577
 30
0.0
 11
484.866419
 21
501.206208
 31
0.0
  0
LINE
  5
2BD
100
AcDbEntity
  8
M01
100
AcDbLine
 10
438.515534
 20
530.503326
 30
0.0
 11
432.015534
 21
530.503326
 31
0.0
  0
LINE
  5
2BE
100
AcDbEntity
  8
M01
100
AcDbLine
 10
438.515534
 20
538.615126
 30
0.0
 11
432.015534
 21
538.615126
 31
0.0
  0
LINE
  5
2BF
100
AcDbEntity
  8
M01
100
AcDbLine
 10
438.515534
 20
530.503326
 30
0.0
 11
438.515534
 21
528.559226
 31
0.0
  0
ARC
  5
2C0
100
AcDbEntity
  8
M01
100
AcDbCircle
 10
439.765534
 20
532.064576
 30
0.0
 40
2.0
100
AcDbArc
 50
180.0
 51
231.317813
  0
ARC
  5
2C1
100
AcDbEntity
  8
M01
100
AcDbCircle
 10
439.765534
 20
537.053876
 30
0.0
 40
2.0
100
AcDbArc
 50
128.682187
 51
180.0
  0
LINE
  5
2C2
100
AcDbEntity
  8
M01
100
AcDbLine
 10
438.515534
 20
540.559226
 30
0.0
 11
438.515534
 21
538.615126
 31
0.0
  0
LINE
  5
2C3
100
AcDbEntity
  8
M01
100
AcDbLine
 10
437.765534
 20
537.053876
 30
0.0
 11
437.765534
 21
532.064576
 31
0.0
  0
LINE
  5
2C4
100
AcDbEntity
  8
M01
100
AcDbLine
 10
432.015534
 20
530.503326
 30
0.0
 11
432.015534
 21
528.559226
 31
0.0
  0
ARC
  5
2C5
100
AcDbEntity
  8
M01
100
AcDbCircle
 10
430.765534
 20
532.064576
 30
0.0
 40
2.0
100
AcDbArc
 50
308.682187
 51
0.0
  0
ARC
  5
2C6
100
AcDbEntity
  8
M01
100
AcDbCircle
 10
430.765534
 20
537.053876
 30
0.0
 40
2.0
100
AcDbArc
 50
0.0
 51
51.317813
  0
LINE
  5
2C7
100
AcDbEntity
  8
M01
100
AcDbLine
 10
432.015534
 20
540.559226
 30
0.0
 11
432.015534
 21
538.615126
 31
0.0
  0
LINE
  5
2C8
100
AcDbEntity
  8
M01
100
AcDbLine
 10
432.765534
 20
537.053876
 30
0.0
 11
432.765534
 21
532.064576
 31
0.0
  0
LINE
  5
2C9
100
AcDbEntity
  8
DIMS
 62
     4
100
AcDbLine
 10
375.765534
 20
485.959226
 30
0.0
 11
375.765534
 21
490.759226
 31
0.0
  0
LINE
  5
2CA
100
AcDbEntity
  8
DIMS
 62
     4
100
AcDbLine
 10
375.765534
 20
479.159226
 30
0.0
 11
375.765534
 21
474.359226
 31
0.0
  0
LINE
  5
2CB
100
AcDbEntity
  8
DIMS
 62
     4
100
AcDbLine
 10
379.165534
 20
482.559226
 30
0.0
 11
383.965534
 21
482.559226
 31
0.0
  0
LINE
  5
2CC
100
AcDbEntity
  8
DIMS
 62
     4
100
AcDbLine
 10
372.365534
 20
482.559226
 30
0.0
 11
367.565534
 21
482.559226
 31
0.0
  0
LINE
  5
2CD
100
AcDbEntity
  8
DIMS
 62
     4
100
AcDbLine
 10
375.765534
 20
480.859226
 30
0.0
 11
375.765534
 21
484.259226
 31
0.0
  0
LINE
  5
2CE
100
AcDbEntity
  8
DIMS
 62
     4
100
AcDbLine
 10
374.065534
 20
482.559226
 30
0.0
 11
377.465534
 21
482.559226
 31
0.0
  0
CIRCLE
  5
2CF
100
AcDbEntity
  8
M04
100
AcDbCircle
 10
375.765534
 20
482.559226
 30
0.0
 40
6.5
  0
HATCH
  5
2D0
100
AcDbEntity
  8
DIMS
100
AcDbHatch
 10
0.0
 20
0.0
 30
0.0
210
0.0
220
0.0
230
1.0
  2
_U
 70
     0
 71
     1
 91
        5
 92
        7
 72
     0
 73
     1
 93
        9
 10
454.7655344179457
 20
218.0138856722444
 10
454.7655344179457
 20
214.0138856722445
 10
456.5655344179458
 20
214.0138856722445
 10
457.2655344179459
 20
214.7138856722445
 10
457.2655344179459
 20
219.3138856722446
 10
456.5655344179456
 20
220.0138856722447
 10
452.9655344179457
 20
220.0138856722447
 10
452.9655344179456
 20
218.0138856722445
 10
454.5155344179459
 20
218.0138856722445
 97
        9
330
486
330
30F
330
323
330
314
330
328
330
316
330
489
330
487
330
48A
 92
        7
 72
     1
 73
     1
 93
       16
 10
442.5655344179456
 20
209.0138856722445
 42
0.0
 10
443.2655344179457
 20
209.7138856722446
 42
0.0
 10
443.2655344179456
 20
211.0138856722446
 42
0.0
 10
442.7655344179457
 20
211.0138856722445
 42
0.0
 10
442.7655344179457
 20
214.0138856722445
 42
0.0
 10
443.7655344179457
 20
214.0138856722445
 42
0.0
 10
443.7655344179457
 20
218.0138856722445
 42
0.0
 10
444.0155344179458
 20
218.0138856722445
 42
0.0
 10
445.5655344179456
 20
218.0138856722445
 42
0.0
 10
445.5655344179457
 20
220.0138856722447
 42
0.0
 10
433.2655344179455
 20
220.0138856722447
 42
0.0
 10
433.2655344179455
 20
229.0138856722444
 42
0.0
 10
432.2655344179455
 20
230.0138856722444
 42
0.0
 10
427.2655344179457
 20
230.0138856722445
 42
0.0
 10
426.3064084158416
 20
211.7126713253457
 42
-0.1092323044357261
 10
432.4306858078571
 20
209.0138856722444
 42
0.0
 97
       16
330
489
330
317
330
315
330
314
330
322
330
467
330
493
330
48F
330
491
330
470
330
471
330
47F
330
47E
330
481
330
47C
330
47B
 92
        7
 72
     1
 73
     1
 93
       16
 10
420.2246604200495
 20
211.7126713253457
 42
0.0
 10
419.2655344179457
 20
230.0138856722445
 42
0.0
 10
414.2655344179456
 20
230.0138856722445
 42
0.0
 10
413.2655344179457
 20
229.0138856722445
 42
0.0
 10
413.2655344179457
 20
220.0138856722447
 42
0.0
 10
400.9655344179455
 20
220.0138856722446
 42
0.0
 10
400.9655344179456
 20
218.0138856722445
 42
0.0
 10
402.5155344179455
 20
218.0138856722445
 42
0.0
 10
402.7655344179455
 20
218.0138856722445
 42
0.0
 10
402.7655344179455
 20
214.0138856722446
 42
0.0
 10
403.7655344179457
 20
214.0138856722446
 42
0.0
 10
403.7655344179456
 20
211.0138856722443
 42
0.0
 10
403.2655344179458
 20
211.0138856722443
 42
0.0
 10
403.2655344179456
 20
209.7138856722442
 42
0.0
 10
403.9655344179458
 20
209.0138856722442
 42
0.0
 10
414.1003830280339
 20
209.0138856722443
 42
-0.1092323044357273
 97
       16
330
491
330
490
330
492
330
4A2
330
307
330
2F9
330
2FA
330
2FC
330
479
330
47A
330
478
330
480
330
47D
330
47F
330
46D
330
46F
 92
        7
 72
     0
 73
     1
 93
        9
 10
391.7655344179456
 20
218.0138856722444
 10
392.0155344179454
 20
218.0138856722444
 10
393.5655344179456
 20
218.0138856722444
 10
393.5655344179457
 20
220.0138856722447
 10
389.9655344179456
 20
220.0138856722447
 10
389.2655344179454
 20
219.3138856722445
 10
389.2655344179453
 20
214.7138856722445
 10
389.9655344179453
 20
214.0138856722446
 10
391.7655344179456
 20
214.0138856722446
 97
        9
330
4A2
330
484
330
485
330
465
330
479
330
2FB
330
30D
330
2F9
330
308
 92
       24
 93
        4
 72
     1
 10
427.839615
 20
215.081373
 11
442.211044
 21
215.081373
 72
     1
 10
442.211044
 20
215.081373
 11
442.211044
 21
218.081373
 72
     1
 10
442.211044
 20
218.081373
 11
427.839615
 21
218.081373
 72
     1
 10
427.839615
 20
218.081373
 11
427.839615
 21
215.081373
 97
        1
330
461
 75
     0
 76
     0
 52
135.0
 41
2.5
 77
     0
 78
     1
 53
135.0
 43
-132.181706
 44
-27.472589
 45
-1.767766952966368
 46
-1.767766952966368
 79
     0
 47
0.085632
 98
        4
 10
455.762497
 20
218.37187
 10
438.115052
 20
212.377641
 10
415.327573
 20
213.576487
 10
391.083754
 20
218.37187
  0
LINE
  5
2D1
100
AcDbEntity
  8
DIMS
 62
     4
100
AcDbLine
 10
309.365534
 20
224.013886
 30
0.0
 11
307.065534
 21
224.013886
 31
0.0
  0
LINE
  5
2D2
100
AcDbEntity
  8
DIMS
 62
     4
100
AcDbLine
 10
316.165534
 20
224.013886
 30
0.0
 11
318.465534
 21
224.013886
 31
0.0
  0
LINE
  5
2D3
100
AcDbEntity
  8
DIMS
 62
     4
100
AcDbLine
 10
312.765534
 20
227.413886
 30
0.0
 11
312.765534
 21
229.713886
 31
0.0
  0
LINE
  5
2D4
100
AcDbEntity
  8
DIMS
 62
     4
100
AcDbLine
 10
312.765534
 20
220.613886
 30
0.0
 11
312.765534
 21
218.313886
 31
0.0
  0
LINE
  5
2D5
100
AcDbEntity
  8
DIMS
 62
     4
100
AcDbLine
 10
314.465534
 20
224.013886
 30
0.0
 11
311.065534
 21
224.013886
 31
0.0
  0
LINE
  5
2D6
100
AcDbEntity
  8
DIMS
 62
     4
100
AcDbLine
 10
312.765534
 20
222.313886
 30
0.0
 11
312.765534
 21
225.713886
 31
0.0
  0
LINE
  5
2D7
102
{ACAD_REACTORS
330
2C
102
}
100
AcDbEntity
  8
M01
100
AcDbLine
 10
316.765534
 20
224.013886
 30
0.0
 11
316.765534
 21
220.013886
 31
0.0
  0
LINE
  5
2D8
102
{ACAD_REACTORS
330
2C
102
}
100
AcDbEntity
  8
M01
100
AcDbLine
 10
308.765534
 20
224.013886
 30
0.0
 11
308.765534
 21
220.013886
 31
0.0
  0
CIRCLE
  5
2D9
102
{ACAD_REACTORS
330
2A7
330
2C
102
}
100
AcDbEntity
  8
M01
100
AcDbCircle
 10
312.765534
 20
224.013886
 30
0.0
 40
4.0
  0
LINE
  5
2DA
100
AcDbEntity
  8
DIMS
 62
     4
100
AcDbLine
 10
309.365534
 20
276.013886
 30
0.0
 11
307.065534
 21
276.013886
 31
0.0
  0
LINE
  5
2DB
100
AcDbEntity
  8
DIMS
 62
     4
100
AcDbLine
 10
316.165534
 20
276.013886
 30
0.0
 11
318.465534
 21
276.013886
 31
0.0
  0
LINE
  5
2DC
100
AcDbEntity
  8
DIMS
 62
     4
100
AcDbLine
 10
312.765534
 20
272.613886
 30
0.0
 11
312.765534
 21
270.313886
 31
0.0
  0
LINE
  5
2DD
100
AcDbEntity
  8
DIMS
 62
     4
100
AcDbLine
 10
312.765534
 20
279.413886
 30
0.0
 11
312.765534
 21
281.713886
 31
0.0
  0
LINE
  5
2DE
100
AcDbEntity
  8
DIMS
 62
     4
100
AcDbLine
 10
314.465534
 20
276.013886
 30
0.0
 11
311.065534
 21
276.013886
 31
0.0
  0
LINE
  5
2DF
100
AcDbEntity
  8
DIMS
 62
     4
100
AcDbLine
 10
312.765534
 20
277.713886
 30
0.0
 11
312.765534
 21
274.313886
 31
0.0
  0
LINE
  5
2E0
102
{ACAD_REACTORS
330
2C
102
}
100
AcDbEntity
  8
M01
100
AcDbLine
 10
316.765534
 20
276.013886
 30
0.0
 11
316.765534
 21
280.013886
 31
0.0
  0
LINE
  5
2E1
102
{ACAD_REACTORS
330
2C
102
}
100
AcDbEntity
  8
M01
100
AcDbLine
 10
308.765534
 20
276.013886
 30
0.0
 11
308.765534
 21
280.013886
 31
0.0
  0
CIRCLE
  5
2E2
102
{ACAD_REACTORS
330
2A7
330
2C
102
}
100
AcDbEntity
  8
M01
100
AcDbCircle
 10
312.765534
 20
276.013886
 30
0.0
 40
4.0
  0
LINE
  5
2E3
100
AcDbEntity
  8
DIMS
 62
     4
100
AcDbLine
 10
537.165534
 20
224.013886
 30
0.0
 11
539.465534
 21
224.013886
 31
0.0
  0
LINE
  5
2E4
100
AcDbEntity
  8
DIMS
 62
     4
100
AcDbLine
 10
530.365534
 20
224.013886
 30
0.0
 11
528.065534
 21
224.013886
 31
0.0
  0
LINE
  5
2E5
100
AcDbEntity
  8
DIMS
 62
     4
100
AcDbLine
 10
533.765534
 20
227.413886
 30
0.0
 11
533.765534
 21
229.713886
 31
0.0
  0
LINE
  5
2E6
100
AcDbEntity
  8
DIMS
 62
     4
100
AcDbLine
 10
533.765534
 20
220.613886
 30
0.0
 11
533.765534
 21
218.313886
 31
0.0
  0
LINE
  5
2E7
100
AcDbEntity
  8
DIMS
 62
     4
100
AcDbLine
 10
532.065534
 20
224.013886
 30
0.0
 11
535.465534
 21
224.013886
 31
0.0
  0
LINE
  5
2E8
100
AcDbEntity
  8
DIMS
 62
     4
100
AcDbLine
 10
533.765534
 20
222.313886
 30
0.0
 11
533.765534
 21
225.713886
 31
0.0
  0
LINE
  5
2E9
102
{ACAD_REACTORS
330
2C
102
}
100
AcDbEntity
  8
M01
100
AcDbLine
 10
529.765534
 20
224.013886
 30
0.0
 11
529.765534
 21
220.013886
 31
0.0
  0
LINE
  5
2EA
102
{ACAD_REACTORS
330
2C
102
}
100
AcDbEntity
  8
M01
100
AcDbLine
 10
537.765534
 20
224.013886
 30
0.0
 11
537.765534
 21
220.013886
 31
0.0
  0
CIRCLE
  5
2EB
102
{ACAD_REACTORS
330
2D
330
2C
102
}
100
AcDbEntity
  8
M01
100
AcDbCircle
 10
533.765534
 20
224.013886
 30
0.0
 40
4.0
  0
LINE
  5
2EC
100
AcDbEntity
  8
DIMS
 62
     4
100
AcDbLine
 10
537.165534
 20
276.013886
 30
0.0
 11
539.465534
 21
276.013886
 31
0.0
  0
LINE
  5
2ED
100
AcDbEntity
  8
DIMS
 62
     4
100
AcDbLine
 10
530.365534
 20
276.013886
 30
0.0
 11
528.065534
 21
276.013886
 31
0.0
  0
LINE
  5
2EE
100
AcDbEntity
  8
DIMS
 62
     4
100
AcDbLine
 10
533.765534
 20
272.613886
 30
0.0
 11
533.765534
 21
270.313886
 31
0.0
  0
LINE
  5
2EF
100
AcDbEntity
  8
DIMS
 62
     4
100
AcDbLine
 10
533.765534
 20
279.413886
 30
0.0
 11
533.765534
 21
281.713886
 31
0.0
  0
LINE
  5
2F0
100
AcDbEntity
  8
DIMS
 62
     4
100
AcDbLine
 10
532.065534
 20
276.013886
 30
0.0
 11
535.465534
 21
276.013886
 31
0.0
  0
LINE
  5
2F1
100
AcDbEntity
  8
DIMS
 62
     4
100
AcDbLine
 10
533.765534
 20
277.713886
 30
0.0
 11
533.765534
 21
274.313886
 31
0.0
  0
LINE
  5
2F2
102
{ACAD_REACTORS
330
2C
102
}
100
AcDbEntity
  8
M01
100
AcDbLine
 10
529.765534
 20
276.013886
 30
0.0
 11
529.765534
 21
280.013886
 31
0.0
  0
LINE
  5
2F3
102
{ACAD_REACTORS
330
2C
102
}
100
AcDbEntity
  8
M01
100
AcDbLine
 10
537.765534
 20
276.013886
 30
0.0
 11
537.765534
 21
280.013886
 31
0.0
  0
CIRCLE
  5
2F4
102
{ACAD_REACTORS
330
2D
330
2C
102
}
100
AcDbEntity
  8
M01
100
AcDbCircle
 10
533.765534
 20
276.013886
 30
0.0
 40
4.0
  0
LINE
  5
2F5
102
{ACAD_REACTORS
330
2C
102
}
100
AcDbEntity
  8
M04
100
AcDbLine
 10
400.265534
 20
227.313886
 30
0.0
 11
400.265534
 21
229.813886
 31
0.0
  0
LINE
  5
2F6
102
{ACAD_REACTORS
330
2C
102
}
100
AcDbEntity
  8
M04
100
AcDbLine
 10
399.565534
 20
228.013886
 30
0.0
 11
399.565534
 21
231.313886
 31
0.0
  0
LINE
  5
2F7
102
{ACAD_REACTORS
330
2C
102
}
100
AcDbEntity
  8
M04
100
AcDbLine
 10
394.265534
 20
227.313886
 30
0.0
 11
394.265534
 21
229.813886
 31
0.0
  0
LINE
  5
2F8
102
{ACAD_REACTORS
330
2C
102
}
100
AcDbEntity
  8
M04
100
AcDbLine
 10
394.965534
 20
228.013886
 30
0.0
 11
394.965534
 21
231.313886
 31
0.0
  0
LINE
  5
2F9
102
{ACAD_REACTORS
330
2D0
102
}
100
AcDbEntity
  8
M05
100
AcDbLine
 10
392.015534
 20
218.013886
 30
0.0
 11
402.515534
 21
218.013886
 31
0.0
  0
LINE
  5
2FA
102
{ACAD_REACTORS
330
2D0
102
}
100
AcDbEntity
  8
M04
100
AcDbLine
 10
402.515534
 20
218.013886
 30
0.0
 11
402.765534
 21
218.013886
 31
0.0
  0
LINE
  5
2FB
102
{ACAD_REACTORS
330
2D0
102
}
100
AcDbEntity
  8
M04
100
AcDbLine
 10
391.765534
 20
218.013886
 30
0.0
 11
391.765534
 21
214.013886
 31
0.0
  0
LINE
  5
2FC
102
{ACAD_REACTORS
330
2D0
102
}
100
AcDbEntity
  8
M04
100
AcDbLine
 10
402.765534
 20
218.013886
 30
0.0
 11
402.765534
 21
214.013886
 31
0.0
  0
LINE
  5
2FD
100
AcDbEntity
  8
M05
100
AcDbLine
 10
400.265534
 20
219.013886
 30
0.0
 11
394.265534
 21
219.013886
 31
0.0
  0
LINE
  5
2FE
102
{ACAD_REACTORS
330
2C
102
}
100
AcDbEntity
  8
M04
100
AcDbLine
 10
394.965534
 20
231.313886
 30
0.0
 11
397.265534
 21
232.641791
 31
0.0
  0
LINE
  5
2FF
102
{ACAD_REACTORS
330
2C
102
}
100
AcDbEntity
  8
M04
100
AcDbLine
 10
399.565534
 20
231.313886
 30
0.0
 11
397.265534
 21
232.641791
 31
0.0
  0
LINE
  5
300
100
AcDbEntity
  8
M04
100
AcDbLine
 10
399.565534
 20
231.313886
 30
0.0
 11
394.965534
 21
231.313886
 31
0.0
  0
LINE
  5
301
102
{ACAD_REACTORS
330
2C
102
}
100
AcDbEntity
  8
M04
100
AcDbLine
 10
400.265534
 20
229.813886
 30
0.0
 11
394.265534
 21
229.813886
 31
0.0
  0
ARC
  5
302
100
AcDbEntity
  8
M05
100
AcDbCircle
 10
397.265534
 20
220.540022
 30
0.0
 40
5.826136
100
AcDbArc
 50
205.69541
 51
334.30459
  0
LINE
  5
303
100
AcDbEntity
  8
M05
100
AcDbLine
 10
394.265534
 20
227.313886
 30
0.0
 11
394.965534
 21
228.013886
 31
0.0
  0
LINE
  5
304
100
AcDbEntity
  8
M05
100
AcDbLine
 10
400.265534
 20
227.313886
 30
0.0
 11
399.565534
 21
228.013886
 31
0.0
  0
LINE
  5
305
100
AcDbEntity
  8
M05
100
AcDbLine
 10
400.265534
 20
227.313886
 30
0.0
 11
394.265534
 21
227.313886
 31
0.0
  0
LINE
  5
306
100
AcDbEntity
  8
M05
100
AcDbLine
 10
399.565534
 20
228.013886
 30
0.0
 11
394.965534
 21
228.013886
 31
0.0
  0
LINE
  5
307
102
{ACAD_REACTORS
330
2D0
102
}
100
AcDbEntity
  8
M04
100
AcDbLine
 10
400.965534
 20
220.013886
 30
0.0
 11
400.965534
 21
218.013886
 31
0.0
  0
LINE
  5
308
102
{ACAD_REACTORS
330
2D0
102
}
100
AcDbEntity
  8
M04
100
AcDbLine
 10
393.565534
 20
220.013886
 30
0.0
 11
393.565534
 21
218.013886
 31
0.0
  0
LINE
  5
309
100
AcDbEntity
  8
M05
100
AcDbLine
 10
394.965534
 20
228.013886
 30
0.0
 11
394.965534
 21
219.013886
 31
0.0
  0
LINE
  5
30A
100
AcDbEntity
  8
M05
100
AcDbLine
 10
399.565534
 20
228.013886
 30
0.0
 11
399.565534
 21
219.013886
 31
0.0
  0
LINE
  5
30B
102
{ACAD_REACTORS
330
2C
102
}
100
AcDbEntity
  8
M05
100
AcDbLine
 10
400.265534
 20
227.313886
 30
0.0
 11
400.265534
 21
218.013886
 31
0.0
  0
LINE
  5
30C
102
{ACAD_REACTORS
330
2C
102
}
100
AcDbEntity
  8
M05
100
AcDbLine
 10
394.265534
 20
227.313886
 30
0.0
 11
394.265534
 21
218.013886
 31
0.0
  0
LINE
  5
30D
102
{ACAD_REACTORS
330
2D0
102
}
100
AcDbEntity
  8
M04
100
AcDbLine
 10
391.765534
 20
218.013886
 30
0.0
 11
392.015534
 21
218.013886
 31
0.0
  0
LINE
  5
30E
100
AcDbEntity
  8
CENTRE
100
AcDbLine
 10
397.265534
 20
235.280386
 30
0.0
 11
397.265534
 21
210.367697
 31
0.0
  0
LINE
  5
30F
102
{ACAD_REACTORS
330
2D0
330
2C
330
28
102
}
100
AcDbEntity
  8
M01
100
AcDbLine
 10
452.265534
 20
220.013886
 30
0.0
 11
540.765534
 21
220.013886
 31
0.0
  0
LINE
  5
310
102
{ACAD_REACTORS
330
2C
102
}
100
AcDbEntity
  8
M04
100
AcDbLine
 10
446.265534
 20
227.313886
 30
0.0
 11
446.265534
 21
229.813886
 31
0.0
  0
LINE
  5
311
102
{ACAD_REACTORS
330
2C
102
}
100
AcDbEntity
  8
M04
100
AcDbLine
 10
446.965534
 20
228.013886
 30
0.0
 11
446.965534
 21
231.313886
 31
0.0
  0
LINE
  5
312
102
{ACAD_REACTORS
330
2C
102
}
100
AcDbEntity
  8
M04
100
AcDbLine
 10
452.265534
 20
227.313886
 30
0.0
 11
452.265534
 21
229.813886
 31
0.0
  0
LINE
  5
313
102
{ACAD_REACTORS
330
2C
102
}
100
AcDbEntity
  8
M04
100
AcDbLine
 10
451.565534
 20
228.013886
 30
0.0
 11
451.565534
 21
231.313886
 31
0.0
  0
LINE
  5
314
102
{ACAD_REACTORS
330
2D0
102
}
100
AcDbEntity
  8
M05
100
AcDbLine
 10
454.515534
 20
218.013886
 30
0.0
 11
444.015534
 21
218.013886
 31
0.0
  0
LINE
  5
315
102
{ACAD_REACTORS
330
2D0
102
}
100
AcDbEntity
  8
M04
100
AcDbLine
 10
444.015534
 20
218.013886
 30
0.0
 11
443.765534
 21
218.013886
 31
0.0
  0
LINE
  5
316
102
{ACAD_REACTORS
330
2D0
102
}
100
AcDbEntity
  8
M04
100
AcDbLine
 10
454.765534
 20
218.013886
 30
0.0
 11
454.765534
 21
214.013886
 31
0.0
  0
LINE
  5
317
102
{ACAD_REACTORS
330
2D0
102
}
100
AcDbEntity
  8
M04
100
AcDbLine
 10
443.765534
 20
218.013886
 30
0.0
 11
443.765534
 21
214.013886
 31
0.0
  0
LINE
  5
318
100
AcDbEntity
  8
M05
100
AcDbLine
 10
446.265534
 20
219.013886
 30
0.0
 11
452.265534
 21
219.013886
 31
0.0
  0
LINE
  5
319
102
{ACAD_REACTORS
330
2C
102
}
100
AcDbEntity
  8
M04
100
AcDbLine
 10
451.565534
 20
231.313886
 30
0.0
 11
449.265534
 21
232.641791
 31
0.0
  0
LINE
  5
31A
102
{ACAD_REACTORS
330
2C
102
}
100
AcDbEntity
  8
M04
100
AcDbLine
 10
446.965534
 20
231.313886
 30
0.0
 11
449.265534
 21
232.641791
 31
0.0
  0
LINE
  5
31B
100
AcDbEntity
  8
M04
100
AcDbLine
 10
446.965534
 20
231.313886
 30
0.0
 11
451.565534
 21
231.313886
 31
0.0
  0
LINE
  5
31C
102
{ACAD_REACTORS
330
2C
102
}
100
AcDbEntity
  8
M04
100
AcDbLine
 10
446.265534
 20
229.813886
 30
0.0
 11
452.265534
 21
229.813886
 31
0.0
  0
ARC
  5
31D
100
AcDbEntity
  8
M05
100
AcDbCircle
 10
449.265534
 20
220.540022
 30
0.0
 40
5.826136
100
AcDbArc
 50
205.69541
 51
334.30459
  0
LINE
  5
31E
100
AcDbEntity
  8
M05
100
AcDbLine
 10
452.265534
 20
227.313886
 30
0.0
 11
451.565534
 21
228.013886
 31
0.0
  0
LINE
  5
31F
100
AcDbEntity
  8
M05
100
AcDbLine
 10
446.265534
 20
227.313886
 30
0.0
 11
446.965534
 21
228.013886
 31
0.0
  0
LINE
  5
320
100
AcDbEntity
  8
M05
100
AcDbLine
 10
446.265534
 20
227.313886
 30
0.0
 11
452.265534
 21
227.313886
 31
0.0
  0
LINE
  5
321
100
AcDbEntity
  8
M05
100
AcDbLine
 10
446.965534
 20
228.013886
 30
0.0
 11
451.565534
 21
228.013886
 31
0.0
  0
LINE
  5
322
102
{ACAD_REACTORS
330
2D0
102
}
100
AcDbEntity
  8
M04
100
AcDbLine
 10
445.565534
 20
220.013886
 30
0.0
 11
445.565534
 21
218.013886
 31
0.0
  0
LINE
  5
323
102
{ACAD_REACTORS
330
2D0
102
}
100
AcDbEntity
  8
M04
100
AcDbLine
 10
452.965534
 20
220.013886
 30
0.0
 11
452.965534
 21
218.013886
 31
0.0
  0
LINE
  5
324
100
AcDbEntity
  8
M05
100
AcDbLine
 10
451.565534
 20
228.013886
 30
0.0
 11
451.565534
 21
219.013886
 31
0.0
  0
LINE
  5
325
100
AcDbEntity
  8
M05
100
AcDbLine
 10
446.965534
 20
228.013886
 30
0.0
 11
446.965534
 21
219.013886
 31
0.0
  0
LINE
  5
326
102
{ACAD_REACTORS
330
2C
102
}
100
AcDbEntity
  8
M05
100
AcDbLine
 10
446.265534
 20
227.313886
 30
0.0
 11
446.265534
 21
218.013886
 31
0.0
  0
LINE
  5
327
102
{ACAD_REACTORS
330
2C
102
}
100
AcDbEntity
  8
M05
100
AcDbLine
 10
452.265534
 20
227.313886
 30
0.0
 11
452.265534
 21
218.013886
 31
0.0
  0
LINE
  5
328
102
{ACAD_REACTORS
330
2D0
102
}
100
AcDbEntity
  8
M04
100
AcDbLine
 10
454.765534
 20
218.013886
 30
0.0
 11
454.515534
 21
218.013886
 31
0.0
  0
LINE
  5
329
100
AcDbEntity
  8
CENTRE
100
AcDbLine
 10
449.265534
 20
235.280386
 30
0.0
 11
449.265534
 21
210.367697
 31
0.0
  0
LINE
  5
32A
100
AcDbEntity
  8
DIMS
 62
     4
100
AcDbLine
 10
397.265534
 20
435.959226
 30
0.0
 11
397.265534
 21
439.759226
 31
0.0
  0
LINE
  5
32B
100
AcDbEntity
  8
DIMS
 62
     4
100
AcDbLine
 10
397.265534
 20
429.159226
 30
0.0
 11
397.265534
 21
425.359226
 31
0.0
  0
LINE
  5
32C
100
AcDbEntity
  8
DIMS
 62
     4
100
AcDbLine
 10
397.265534
 20
430.859226
 30
0.0
 11
397.265534
 21
434.259226
 31
0.0
  0
LINE
  5
32D
100
AcDbEntity
  8
DIMS
 62
     4
100
AcDbLine
 10
449.265534
 20
435.959226
 30
0.0
 11
449.265534
 21
439.759226
 31
0.0
  0
LINE
  5
32E
100
AcDbEntity
  8
DIMS
 62
     4
100
AcDbLine
 10
449.265534
 20
429.159226
 30
0.0
 11
449.265534
 21
425.359226
 31
0.0
  0
LINE
  5
32F
100
AcDbEntity
  8
DIMS
 62
     4
100
AcDbLine
 10
449.265534
 20
430.859226
 30
0.0
 11
449.265534
 21
434.259226
 31
0.0
  0
LINE
  5
330
100
AcDbEntity
  8
DIMS
 62
     4
100
AcDbLine
 10
426.665534
 20
458.559226
 30
0.0
 11
430.465534
 21
458.559226
 31
0.0
  0
LINE
  5
331
100
AcDbEntity
  8
DIMS
 62
     4
100
AcDbLine
 10
419.865534
 20
458.559226
 30
0.0
 11
416.065534
 21
458.559226
 31
0.0
  0
LINE
  5
332
100
AcDbEntity
  8
DIMS
 62
     4
100
AcDbLine
 10
421.565534
 20
458.559226
 30
0.0
 11
424.965534
 21
458.559226
 31
0.0
  0
MTEXT
  5
333
102
{ACAD_REACTORS
330
334
102
}
100
AcDbEntity
  8
DIMS
 62
     2
100
AcDbMText
 10
356.043967
 20
368.397196
 30
0.0
 40
3.0
 41
0.0
 71
     4
 72
     5
  1
HGX10037
  0
LEADER
  5
334
100
AcDbEntity
  8
DIMS
 62
     4
100
AcDbLeader
  3
DIM1$7
 73
     0
 74
     0
 75
     1
 40
3.0
 41
21.857143
 76
     3
 10
349.73111
 20
402.973989
 30
0.0
 10
351.543967
 20
368.397196
 30
0.0
 10
354.543967
 20
368.397196
 30
0.0
 77
   256
340
333
1001
ACAD
1000
DSTYLE
1002
{
1070
   288
1070
     1
1070
   144
1040
1.0
1002
}
  0
CIRCLE
  5
336
100
AcDbEntity
  8
M03
100
AcDbCircle
 10
449.265534
 20
432.559226
 30
0.0
 40
2.3
  0
ARC
  5
337
100
AcDbEntity
  8
M03
100
AcDbCircle
 10
449.265534
 20
432.559226
 30
0.0
 40
3.0
100
AcDbArc
 50
167.784636
 51
96.923103
  0
CIRCLE
  5
338
100
AcDbEntity
  8
M03
100
AcDbCircle
 10
449.265534
 20
432.559226
 30
0.0
 40
5.5
  0
CIRCLE
  5
339
100
AcDbEntity
  8
M03
100
AcDbCircle
 10
397.265534
 20
432.559226
 30
0.0
 40
2.3
  0
ARC
  5
33A
100
AcDbEntity
  8
M03
100
AcDbCircle
 10
397.265534
 20
432.559226
 30
0.0
 40
3.0
100
AcDbArc
 50
167.784636
 51
96.923103
  0
CIRCLE
  5
33B
100
AcDbEntity
  8
M03
100
AcDbCircle
 10
397.265534
 20
432.559226
 30
0.0
 40
5.5
  0
CIRCLE
  5
33C
100
AcDbEntity
  8
M03
100
AcDbCircle
 10
423.265534
 20
458.559226
 30
0.0
 40
2.3
  0
ARC
  5
33D
100
AcDbEntity
  8
M03
100
AcDbCircle
 10
423.265534
 20
458.559226
 30
0.0
 40
3.0
100
AcDbArc
 50
167.784636
 51
96.923103
  0
CIRCLE
  5
33E
100
AcDbEntity
  8
M03
100
AcDbCircle
 10
423.265534
 20
458.559226
 30
0.0
 40
5.5
  0
LINE
  5
33F
100
AcDbEntity
  8
M03
100
AcDbLine
 10
363.065534
 20
418.059226
 30
0.0
 11
360.765534
 21
419.387132
 31
0.0
  0
LINE
  5
340
100
AcDbEntity
  8
M03
100
AcDbLine
 10
358.465534
 20
418.059226
 30
0.0
 11
360.765534
 21
419.387132
 31
0.0
  0
LINE
  5
341
100
AcDbEntity
  8
M03
100
AcDbLine
 10
358.465534
 20
418.059226
 30
0.0
 11
363.065534
 21
418.059226
 31
0.0
  0
LINE
  5
342
100
AcDbEntity
  8
M03
100
AcDbLine
 10
357.765534
 20
416.559226
 30
0.0
 11
363.765534
 21
416.559226
 31
0.0
  0
LINE
  5
343
100
AcDbEntity
  8
M03
100
AcDbLine
 10
346.458472
 20
404.459226
 30
0.0
 11
317.220012
 21
404.459226
 31
0.0
  0
LINE
  5
344
100
AcDbEntity
  8
M03
100
AcDbLine
 10
346.458472
 20
402.559226
 30
0.0
 11
317.220012
 21
402.559226
 31
0.0
  0
LINE
  5
345
100
AcDbEntity
  8
M03
100
AcDbLine
 10
353.458472
 20
404.759226
 30
0.0
 11
367.765534
 21
404.759226
 31
0.0
  0
LINE
  5
346
100
AcDbEntity
  8
M03
100
AcDbLine
 10
352.413707
 20
405.559226
 30
0.0
 11
352.413707
 21
404.759226
 31
0.0
  0
LINE
  5
347
100
AcDbEntity
  8
M03
100
AcDbLine
 10
346.458472
 20
404.759226
 30
0.0
 11
346.458472
 21
402.259226
 31
0.0
  0
LINE
  5
348
100
AcDbEntity
  8
M03
100
AcDbLine
 10
346.458472
 20
402.259226
 30
0.0
 11
353.458472
 21
402.259226
 31
0.0
  0
LINE
  5
349
100
AcDbEntity
  8
M03
100
AcDbLine
 10
353.458472
 20
404.759226
 30
0.0
 11
353.458472
 21
402.259226
 31
0.0
  0
LINE
  5
34A
100
AcDbEntity
  8
M03
100
AcDbLine
 10
367.765534
 20
405.559226
 30
0.0
 11
367.765534
 21
404.759226
 31
0.0
  0
ARC
  5
34B
100
AcDbEntity
  8
M03
100
AcDbCircle
 10
360.765534
 20
407.285362
 30
0.0
 40
5.826136
100
AcDbArc
 50
205.69541
 51
334.30459
  0
LINE
  5
34C
100
AcDbEntity
  8
M03
100
AcDbLine
 10
363.765534
 20
414.059226
 30
0.0
 11
363.065534
 21
414.759226
 31
0.0
  0
LINE
  5
34D
100
AcDbEntity
  8
M03
100
AcDbLine
 10
357.765534
 20
414.059226
 30
0.0
 11
358.465534
 21
414.759226
 31
0.0
  0
LINE
  5
34E
100
AcDbEntity
  8
M03
100
AcDbLine
 10
357.765534
 20
414.059226
 30
0.0
 11
363.765534
 21
414.059226
 31
0.0
  0
LINE
  5
34F
100
AcDbEntity
  8
M03
100
AcDbLine
 10
358.465534
 20
414.759226
 30
0.0
 11
363.065534
 21
414.759226
 31
0.0
  0
LINE
  5
350
100
AcDbEntity
  8
M03
100
AcDbLine
 10
363.765534
 20
405.559226
 30
0.0
 11
370.765534
 21
405.559226
 31
0.0
  0
LINE
  5
351
100
AcDbEntity
  8
M03
100
AcDbLine
 10
347.065534
 20
405.559226
 30
0.0
 11
347.065534
 21
404.759226
 31
0.0
  0
LINE
  5
352
100
AcDbEntity
  8
M03
100
AcDbLine
 10
364.465534
 20
405.559226
 30
0.0
 11
364.465534
 21
404.759226
 31
0.0
  0
LINE
  5
353
100
AcDbEntity
  8
M03
100
AcDbLine
 10
363.065534
 20
418.059226
 30
0.0
 11
363.065534
 21
404.759226
 31
0.0
  0
LINE
  5
354
100
AcDbEntity
  8
M03
100
AcDbLine
 10
358.465534
 20
418.059226
 30
0.0
 11
358.465534
 21
404.759226
 31
0.0
  0
LINE
  5
355
100
AcDbEntity
  8
M03
100
AcDbLine
 10
357.765534
 20
416.559226
 30
0.0
 11
357.765534
 21
404.759226
 31
0.0
  0
LINE
  5
356
100
AcDbEntity
  8
M03
100
AcDbLine
 10
363.765534
 20
416.559226
 30
0.0
 11
363.765534
 21
404.759226
 31
0.0
  0
LINE
  5
357
100
AcDbEntity
  8
M03
100
AcDbLine
 10
346.458472
 20
404.759226
 30
0.0
 11
352.413707
 21
404.759226
 31
0.0
  0
LINE
  5
358
100
AcDbEntity
  8
M03
100
AcDbLine
 10
370.765534
 20
405.559226
 30
0.0
 11
370.765534
 21
400.559226
 31
0.0
  0
LINE
  5
359
100
AcDbEntity
  8
M03
100
AcDbLine
 10
310.765534
 20
405.559226
 30
0.0
 11
357.765534
 21
405.559226
 31
0.0
  0
LINE
  5
35A
100
AcDbEntity
  8
CENTRE
100
AcDbLine
 10
360.765534
 20
423.757899
 30
0.0
 11
360.765534
 21
396.597749
 31
0.0
  0
CIRCLE
  5
35B
100
AcDbEntity
  8
M03
100
AcDbCircle
 10
335.765534
 20
432.559226
 30
0.0
 40
2.3
  0
ARC
  5
35C
100
AcDbEntity
  8
M03
100
AcDbCircle
 10
335.765534
 20
432.559226
 30
0.0
 40
3.0
100
AcDbArc
 50
167.784636
 51
96.923103
  0
CIRCLE
  5
35D
100
AcDbEntity
  8
M03
100
AcDbCircle
 10
510.765534
 20
432.559226
 30
0.0
 40
2.3
  0
ARC
  5
35E
100
AcDbEntity
  8
M03
100
AcDbCircle
 10
510.765534
 20
432.559226
 30
0.0
 40
3.0
100
AcDbArc
 50
167.784636
 51
96.923103
  0
LINE
  5
35F
100
AcDbEntity
  8
DIMS
 62
     4
100
AcDbLine
 10
335.765534
 20
435.959226
 30
0.0
 11
335.765534
 21
449.259226
 31
0.0
  0
LINE
  5
360
100
AcDbEntity
  8
DIMS
 62
     4
100
AcDbLine
 10
335.765534
 20
429.159226
 30
0.0
 11
335.765534
 21
415.859226
 31
0.0
  0
LINE
  5
361
100
AcDbEntity
  8
DIMS
 62
     4
100
AcDbLine
 10
335.765534
 20
430.859226
 30
0.0
 11
335.765534
 21
434.259226
 31
0.0
  0
LINE
  5
362
100
AcDbEntity
  8
DIMS
 62
     4
100
AcDbLine
 10
510.765534
 20
435.959226
 30
0.0
 11
510.765534
 21
449.259226
 31
0.0
  0
LINE
  5
363
100
AcDbEntity
  8
DIMS
 62
     4
100
AcDbLine
 10
510.765534
 20
429.159226
 30
0.0
 11
510.765534
 21
415.859226
 31
0.0
  0
LINE
  5
364
100
AcDbEntity
  8
DIMS
 62
     4
100
AcDbLine
 10
510.765534
 20
430.859226
 30
0.0
 11
510.765534
 21
434.259226
 31
0.0
  0
LINE
  5
365
100
AcDbEntity
  8
M03
100
AcDbLine
 10
511.315534
 20
426.584488
 30
0.0
 11
511.315534
 21
438.533965
 31
0.0
  0
LINE
  5
366
100
AcDbEntity
  8
M03
100
AcDbLine
 10
510.215534
 20
426.584488
 30
0.0
 11
510.215534
 21
438.533965
 31
0.0
  0
CIRCLE
  5
367
100
AcDbEntity
  8
M03
100
AcDbCircle
 10
510.765534
 20
432.559226
 30
0.0
 40
15.0
  0
CIRCLE
  5
368
100
AcDbEntity
  8
M03
100
AcDbCircle
 10
510.765534
 20
432.559226
 30
0.0
 40
14.0
  0
CIRCLE
  5
369
100
AcDbEntity
  8
M03
100
AcDbCircle
 10
510.765534
 20
432.559226
 30
0.0
 40
7.858882
  0
CIRCLE
  5
36A
100
AcDbEntity
  8
M03
100
AcDbCircle
 10
510.765534
 20
432.559226
 30
0.0
 40
6.0
  0
LINE
  5
36B
100
AcDbEntity
  8
M03
100
AcDbLine
 10
335.215534
 20
426.584488
 30
0.0
 11
335.215534
 21
438.533965
 31
0.0
  0
LINE
  5
36C
100
AcDbEntity
  8
M03
100
AcDbLine
 10
336.315534
 20
426.584488
 30
0.0
 11
336.315534
 21
438.533965
 31
0.0
  0
CIRCLE
  5
36D
100
AcDbEntity
  8
M03
100
AcDbCircle
 10
335.765534
 20
432.559226
 30
0.0
 40
15.0
  0
CIRCLE
  5
36E
100
AcDbEntity
  8
M03
100
AcDbCircle
 10
335.765534
 20
432.559226
 30
0.0
 40
14.0
  0
CIRCLE
  5
36F
100
AcDbEntity
  8
M03
100
AcDbCircle
 10
335.765534
 20
432.559226
 30
0.0
 40
7.858882
  0
CIRCLE
  5
370
100
AcDbEntity
  8
M03
100
AcDbCircle
 10
335.765534
 20
432.559226
 30
0.0
 40
6.0
  0
LINE
  5
371
100
AcDbEntity
  8
M01
100
AcDbLine
 10
430.765534
 20
540.559226
 30
0.0
 11
439.765534
 21
540.559226
 31
0.0
  0
LINE
  5
372
100
AcDbEntity
  8
M01
100
AcDbLine
 10
439.765534
 20
541.359226
 30
0.0
 11
439.765534
 21
540.559226
 31
0.0
  0
LINE
  5
373
100
AcDbEntity
  8
M01
100
AcDbLine
 10
430.765534
 20
541.359226
 30
0.0
 11
430.765534
 21
540.559226
 31
0.0
  0
LINE
  5
374
100
AcDbEntity
  8
M01
100
AcDbLine
 10
408.015534
 20
530.503326
 30
0.0
 11
414.515534
 21
530.503326
 31
0.0
  0
LINE
  5
375
100
AcDbEntity
  8
M01
100
AcDbLine
 10
408.015534
 20
538.615126
 30
0.0
 11
414.515534
 21
538.615126
 31
0.0
  0
LINE
  5
376
100
AcDbEntity
  8
M01
100
AcDbLine
 10
408.015534
 20
530.503326
 30
0.0
 11
408.015534
 21
528.559226
 31
0.0
  0
ARC
  5
377
100
AcDbEntity
  8
M01
100
AcDbCircle
 10
406.765534
 20
532.064576
 30
0.0
 40
2.0
100
AcDbArc
 50
308.682187
 51
0.0
  0
ARC
  5
378
100
AcDbEntity
  8
M01
100
AcDbCircle
 10
406.765534
 20
537.053876
 30
0.0
 40
2.0
100
AcDbArc
 50
0.0
 51
51.317813
  0
LINE
  5
379
100
AcDbEntity
  8
M01
100
AcDbLine
 10
408.015534
 20
540.559226
 30
0.0
 11
408.015534
 21
538.615126
 31
0.0
  0
LINE
  5
37A
100
AcDbEntity
  8
M01
100
AcDbLine
 10
408.765534
 20
537.053876
 30
0.0
 11
408.765534
 21
532.064576
 31
0.0
  0
LINE
  5
37B
100
AcDbEntity
  8
M01
100
AcDbLine
 10
414.515534
 20
530.503326
 30
0.0
 11
414.515534
 21
528.559226
 31
0.0
  0
ARC
  5
37C
100
AcDbEntity
  8
M01
100
AcDbCircle
 10
415.765534
 20
532.064576
 30
0.0
 40
2.0
100
AcDbArc
 50
180.0
 51
231.317813
  0
ARC
  5
37D
100
AcDbEntity
  8
M01
100
AcDbCircle
 10
415.765534
 20
537.053876
 30
0.0
 40
2.0
100
AcDbArc
 50
128.682187
 51
180.0
  0
LINE
  5
37E
100
AcDbEntity
  8
M01
100
AcDbLine
 10
414.515534
 20
540.559226
 30
0.0
 11
414.515534
 21
538.615126
 31
0.0
  0
LINE
  5
37F
100
AcDbEntity
  8
M01
100
AcDbLine
 10
413.765534
 20
537.053876
 30
0.0
 11
413.765534
 21
532.064576
 31
0.0
  0
LINE
  5
380
100
AcDbEntity
  8
M01
100
AcDbLine
 10
440.265534
 20
523.559226
 30
0.0
 11
430.265534
 21
523.559226
 31
0.0
  0
LINE
  5
381
100
AcDbEntity
  8
M01
100
AcDbLine
 10
406.265534
 20
523.559226
 30
0.0
 11
416.265534
 21
523.559226
 31
0.0
  0
LINE
  5
382
100
AcDbEntity
  8
M01
100
AcDbLine
 10
406.265534
 20
528.559226
 30
0.0
 11
406.265534
 21
508.559226
 31
0.0
  0
LINE
  5
383
100
AcDbEntity
  8
M01
100
AcDbLine
 10
416.265534
 20
528.559226
 30
0.0
 11
416.265534
 21
508.559226
 31
0.0
  0
LINE
  5
384
100
AcDbEntity
  8
M01
100
AcDbLine
 10
430.265534
 20
528.559226
 30
0.0
 11
430.265534
 21
508.559226
 31
0.0
  0
LINE
  5
385
100
AcDbEntity
  8
M01
100
AcDbLine
 10
440.265534
 20
528.559226
 30
0.0
 11
440.265534
 21
508.559226
 31
0.0
  0
LINE
  5
386
100
AcDbEntity
  8
CENTRE
100
AcDbLine
 10
452.765534
 20
264.513886
 30
0.0
 11
518.765534
 21
264.513886
 31
0.0
  0
ARC
  5
387
100
AcDbEntity
  8
M03
100
AcDbCircle
 10
423.265534
 20
432.559226
 30
0.0
 40
34.0
100
AcDbArc
 50
289.749923
 51
250.250077
  0
WIPEOUT
  5
388
100
AcDbEntity
  8
TEXT
 92
      140
310
8C000000010000008400000006000000050000001A81CC352244804045ADFB9323186E400000000000000000296B6D440CBD804045ADFB9323186E4000000000000000002A6B6D440CBD804042ADFB9323986E4000000000000000001C81CC352244804046ADFB9323986E4000000000000000001A81CC352244804045ADFB
310
9323186E400000000000000000
100
AcDbWipeout
 90
        0
 10
520.516704
 20
160.054162
 30
0.0
 11
84.700181
 21
0.0
 31
0.0
 12
0.0
 22
84.700181
 32
0.0
 13
0.0
 23
0.0
340
0
 70
     7
280
     1
281
    50
282
    50
283
     0
360
0
 71
     2
 91
        5
 14
-0.5
 24
-0.452775
 14
-0.321555
 24
-0.452775
 14
-0.321555
 24
-0.5
 14
-0.5
 24
-0.5
 14
-0.5
 24
-0.452775
  0
TEXT
  5
389
102
{ACAD_REACTORS
330
2C
102
}
100
AcDbEntity
  8
TEXT
100
AcDbText
 10
521.516704
 20
241.754343
 30
0.0
 40
2.0
  1
MM010088
 41
0.9
100
AcDbText
  0
MTEXT
  5
38A
102
{ACAD_REACTORS
330
38B
102
}
100
AcDbEntity
  8
HATCH
 62
     2
100
AcDbMText
 10
534.405714
 20
202.172659
 30
0.0
 40
3.0
 41
0.0
 71
     1
 72
     5
  1
MA010006 (x2)
  0
LEADER
  5
38B
100
AcDbEntity
  8
HATCH
 62
     4
100
AcDbLeader
  3
DIM1$7
 73
     0
 74
     0
 75
     1
 40
4.571429
 41
34.142857
 76
     3
 10
520.482889
 20
214.644599
 30
0.0
 10
529.905714
 20
200.672659
 30
0.0
 10
532.905714
 20
200.672659
 30
0.0
 77
   256
340
38A
213
0.0
223
-1.5
233
0.0
1001
ACAD
1000
DSTYLE
1002
{
1070
   144
1040
1.0
1002
}
  0
LINE
  5
38C
102
{ACAD_REACTORS
330
2AA
102
}
100
AcDbEntity
  8
M04
100
AcDbLine
 10
338.765534
 20
213.013886
 30
0.0
 11
403.765534
 21
213.013886
 31
0.0
  0
LINE
  5
38D
102
{ACAD_REACTORS
330
2A
102
}
100
AcDbEntity
  8
M02
100
AcDbLine
 10
349.765534
 20
217.013886
 30
0.0
 11
389.265534
 21
217.013886
 31
0.0
  0
LINE
  5
38E
100
AcDbEntity
  8
M04
100
AcDbLine
 10
335.765534
 20
195.18598
 30
0.0
 11
338.065534
 21
196.513886
 31
0.0
  0
LINE
  5
38F
100
AcDbEntity
  8
M04
100
AcDbLine
 10
333.465534
 20
196.513886
 30
0.0
 11
335.765534
 21
195.18598
 31
0.0
  0
LINE
  5
390
100
AcDbEntity
  8
M04
100
AcDbLine
 10
333.465534
 20
196.513886
 30
0.0
 11
338.065534
 21
196.513886
 31
0.0
  0
LINE
  5
391
100
AcDbEntity
  8
M04
100
AcDbLine
 10
332.765534
 20
201.575004
 30
0.0
 11
332.765534
 21
198.013886
 31
0.0
  0
LINE
  5
392
100
AcDbEntity
  8
M04
100
AcDbLine
 10
333.465534
 20
200.875004
 30
0.0
 11
333.465534
 21
196.513886
 31
0.0
  0
LINE
  5
393
100
AcDbEntity
  8
M04
100
AcDbLine
 10
338.765534
 20
201.575004
 30
0.0
 11
338.765534
 21
198.013886
 31
0.0
  0
LINE
  5
394
100
AcDbEntity
  8
M04
100
AcDbLine
 10
338.065534
 20
200.875004
 30
0.0
 11
338.065534
 21
196.513886
 31
0.0
  0
LINE
  5
395
100
AcDbEntity
  8
M05
100
AcDbLine
 10
338.065534
 20
200.875004
 30
0.0
 11
338.765534
 21
201.575004
 31
0.0
  0
LINE
  5
396
100
AcDbEntity
  8
M05
100
AcDbLine
 10
332.765534
 20
201.575004
 30
0.0
 11
333.465534
 21
200.875004
 31
0.0
  0
LINE
  5
397
100
AcDbEntity
  8
M05
100
AcDbLine
 10
338.065534
 20
213.655004
 30
0.0
 11
338.065534
 21
200.875004
 31
0.0
  0
LINE
  5
398
100
AcDbEntity
  8
M05
100
AcDbLine
 10
333.465534
 20
213.655004
 30
0.0
 11
333.465534
 21
200.875004
 31
0.0
  0
LINE
  5
399
100
AcDbEntity
  8
M05
100
AcDbLine
 10
332.765534
 20
201.575004
 30
0.0
 11
338.765534
 21
201.575004
 31
0.0
  0
LINE
  5
39A
100
AcDbEntity
  8
M04
100
AcDbLine
 10
332.765534
 20
198.013886
 30
0.0
 11
338.765534
 21
198.013886
 31
0.0
  0
LINE
  5
39B
100
AcDbEntity
  8
M05
100
AcDbLine
 10
333.465534
 20
200.875004
 30
0.0
 11
338.065534
 21
200.875004
 31
0.0
  0
LINE
  5
39C
102
{ACAD_REACTORS
330
2C
102
}
100
AcDbEntity
  8
M05
  6
HIDDEN
100
AcDbLine
 10
327.606652
 20
220.313886
 30
0.0
 11
326.906652
 21
221.013886
 31
0.0
  0
LINE
  5
39D
102
{ACAD_REACTORS
330
2C
102
}
100
AcDbEntity
  8
M05
  6
HIDDEN
100
AcDbLine
 10
343.924416
 20
220.313886
 30
0.0
 11
344.624416
 21
221.013886
 31
0.0
  0
LINE
  5
39E
100
AcDbEntity
  8
M05
100
AcDbLine
 10
332.765534
 20
213.655004
 30
0.0
 11
338.765534
 21
213.655004
 31
0.0
  0
LINE
  5
39F
100
AcDbEntity
  8
M05
100
AcDbLine
 10
336.315534
 20
218.155004
 30
0.0
 11
341.765534
 21
218.155004
 31
0.0
  0
LINE
  5
3A0
100
AcDbEntity
  8
M05
100
AcDbLine
 10
336.315534
 20
218.875004
 30
0.0
 11
341.765534
 21
218.875004
 31
0.0
  0
LINE
  5
3A1
100
AcDbEntity
  8
M05
100
AcDbLine
 10
336.315534
 20
218.875004
 30
0.0
 11
336.315534
 21
217.375004
 31
0.0
  0
LINE
  5
3A2
100
AcDbEntity
  8
M05
100
AcDbLine
 10
335.215534
 20
218.875004
 30
0.0
 11
335.215534
 21
217.375004
 31
0.0
  0
LINE
  5
3A3
100
AcDbEntity
  8
M05
100
AcDbLine
 10
335.215534
 20
217.375004
 30
0.0
 11
336.315534
 21
217.375004
 31
0.0
  0
LINE
  5
3A4
102
{ACAD_REACTORS
330
2AA
102
}
100
AcDbEntity
  8
M05
100
AcDbLine
 10
339.265534
 20
215.655004
 30
0.0
 11
339.265534
 21
213.013886
 31
0.0
  0
LINE
  5
3A5
102
{ACAD_REACTORS
330
2AA
102
}
100
AcDbEntity
  8
M05
100
AcDbLine
 10
332.265534
 20
215.655004
 30
0.0
 11
332.265534
 21
213.013886
 31
0.0
  0
LINE
  5
3A6
100
AcDbEntity
  8
M05
100
AcDbLine
 10
329.765534
 20
218.155004
 30
0.0
 11
335.215534
 21
218.155004
 31
0.0
  0
LINE
  5
3A7
102
{ACAD_REACTORS
330
2AA
330
2C
102
}
100
AcDbEntity
  8
M05
100
AcDbLine
 10
332.765534
 20
215.155004
 30
0.0
 11
327.606652
 21
220.313886
 31
0.0
  0
LINE
  5
3A8
100
AcDbEntity
  8
M05
100
AcDbLine
 10
329.765534
 20
218.875004
 30
0.0
 11
329.765534
 21
218.155004
 31
0.0
  0
LINE
  5
3A9
102
{ACAD_REACTORS
330
2AA
330
2C
102
}
100
AcDbEntity
  8
M05
100
AcDbLine
 10
338.765534
 20
215.155004
 30
0.0
 11
343.924416
 21
220.313886
 31
0.0
  0
LINE
  5
3AA
100
AcDbEntity
  8
M05
100
AcDbLine
 10
332.765534
 20
215.155004
 30
0.0
 11
338.765534
 21
215.155004
 31
0.0
  0
LINE
  5
3AB
100
AcDbEntity
  8
M05
100
AcDbLine
 10
332.765534
 20
215.155004
 30
0.0
 11
332.765534
 21
201.575004
 31
0.0
  0
LINE
  5
3AC
100
AcDbEntity
  8
M05
100
AcDbLine
 10
338.765534
 20
215.155004
 30
0.0
 11
338.765534
 21
201.575004
 31
0.0
  0
LINE
  5
3AD
100
AcDbEntity
  8
M05
100
AcDbLine
 10
341.765534
 20
218.875004
 30
0.0
 11
341.765534
 21
218.155004
 31
0.0
  0
LINE
  5
3AE
100
AcDbEntity
  8
M05
100
AcDbLine
 10
329.765534
 20
218.875004
 30
0.0
 11
335.215534
 21
218.875004
 31
0.0
  0
LINE
  5
3AF
102
{ACAD_REACTORS
330
2C
102
}
100
AcDbEntity
  8
M05
  6
HIDDEN
100
AcDbLine
 10
321.765534
 20
220.313886
 30
0.0
 11
349.765534
 21
220.313886
 31
0.0
  0
LINE
  5
3B0
102
{ACAD_REACTORS
330
2C
102
}
100
AcDbEntity
  8
M05
  6
HIDDEN
100
AcDbLine
 10
349.765534
 20
220.313886
 30
0.0
 11
349.065534
 21
221.013886
 31
0.0
  0
LINE
  5
3B1
102
{ACAD_REACTORS
330
2C
102
}
100
AcDbEntity
  8
M05
  6
HIDDEN
100
AcDbLine
 10
349.765534
 20
219.313886
 30
0.0
 11
349.765534
 21
220.313886
 31
0.0
  0
LINE
  5
3B2
102
{ACAD_REACTORS
330
2AA
102
}
100
AcDbEntity
  8
M05
100
AcDbLine
 10
349.765534
 20
219.313886
 30
0.0
 11
349.065534
 21
220.013886
 31
0.0
  0
LINE
  5
3B3
102
{ACAD_REACTORS
330
2AA
102
}
100
AcDbEntity
  8
M05
100
AcDbLine
 10
349.765534
 20
213.713886
 30
0.0
 11
349.065534
 21
213.013886
 31
0.0
  0
LINE
  5
3B4
102
{ACAD_REACTORS
330
2AA
102
}
100
AcDbEntity
  8
M05
100
AcDbLine
 10
349.765534
 20
219.313886
 30
0.0
 11
349.765534
 21
213.713886
 31
0.0
  0
LINE
  5
3B5
102
{ACAD_REACTORS
330
2C
102
}
100
AcDbEntity
  8
M05
  6
HIDDEN
100
AcDbLine
 10
321.765534
 20
220.313886
 30
0.0
 11
322.465534
 21
221.013886
 31
0.0
  0
LINE
  5
3B6
102
{ACAD_REACTORS
330
2C
102
}
100
AcDbEntity
  8
M05
  6
HIDDEN
100
AcDbLine
 10
321.765534
 20
219.313886
 30
0.0
 11
321.765534
 21
220.313886
 31
0.0
  0
LINE
  5
3B7
102
{ACAD_REACTORS
330
2AA
102
}
100
AcDbEntity
  8
M05
100
AcDbLine
 10
321.765534
 20
219.313886
 30
0.0
 11
322.465534
 21
220.013886
 31
0.0
  0
LINE
  5
3B8
102
{ACAD_REACTORS
330
2AA
102
}
100
AcDbEntity
  8
M05
100
AcDbLine
 10
321.765534
 20
213.713886
 30
0.0
 11
322.465534
 21
213.013886
 31
0.0
  0
LINE
  5
3B9
102
{ACAD_REACTORS
330
2A
102
}
100
AcDbEntity
  8
M02
100
AcDbLine
 10
350.765534
 20
220.013886
 30
0.0
 11
350.765534
 21
217.013886
 31
0.0
  0
LINE
  5
3BA
102
{ACAD_REACTORS
330
2A
102
}
100
AcDbEntity
  8
M02
100
AcDbLine
 10
320.765534
 20
220.013886
 30
0.0
 11
320.765534
 21
217.013886
 31
0.0
  0
LINE
  5
3BB
102
{ACAD_REACTORS
330
2C
102
}
100
AcDbEntity
  8
M05
  6
HIDDEN
100
AcDbLine
 10
322.465534
 20
221.013886
 30
0.0
 11
349.065534
 21
221.013886
 31
0.0
  0
LINE
  5
3BC
102
{ACAD_REACTORS
330
2AA
102
}
100
AcDbEntity
  8
M05
100
AcDbLine
 10
321.765534
 20
219.313886
 30
0.0
 11
321.765534
 21
213.713886
 31
0.0
  0
LINE
  5
3BD
102
{ACAD_REACTORS
330
2C
102
}
100
AcDbEntity
  8
CENTRE
100
AcDbLine
 10
335.765534
 20
225.522996
 30
0.0
 11
335.765534
 21
192.444658
 31
0.0
  0
LINE
  5
3BE
100
AcDbEntity
  8
CENTRE
100
AcDbLine
 10
510.765534
 20
256.397127
 30
0.0
 11
510.765534
 21
290.362183
 31
0.0
  0
LINE
  5
3BF
100
AcDbEntity
  8
M04
100
AcDbLine
 10
510.765534
 20
195.18598
 30
0.0
 11
513.065534
 21
196.513886
 31
0.0
  0
LINE
  5
3C0
100
AcDbEntity
  8
M04
100
AcDbLine
 10
508.465534
 20
196.513886
 30
0.0
 11
510.765534
 21
195.18598
 31
0.0
  0
LINE
  5
3C1
100
AcDbEntity
  8
M04
100
AcDbLine
 10
508.465534
 20
196.513886
 30
0.0
 11
513.065534
 21
196.513886
 31
0.0
  0
LINE
  5
3C2
100
AcDbEntity
  8
M04
100
AcDbLine
 10
507.765534
 20
201.575004
 30
0.0
 11
507.765534
 21
198.013886
 31
0.0
  0
LINE
  5
3C3
100
AcDbEntity
  8
M04
100
AcDbLine
 10
508.465534
 20
200.875004
 30
0.0
 11
508.465534
 21
196.513886
 31
0.0
  0
LINE
  5
3C4
100
AcDbEntity
  8
M04
100
AcDbLine
 10
513.765534
 20
201.575004
 30
0.0
 11
513.765534
 21
198.013886
 31
0.0
  0
LINE
  5
3C5
100
AcDbEntity
  8
M04
100
AcDbLine
 10
513.065534
 20
200.875004
 30
0.0
 11
513.065534
 21
196.513886
 31
0.0
  0
LINE
  5
3C6
100
AcDbEntity
  8
M05
100
AcDbLine
 10
513.065534
 20
200.875004
 30
0.0
 11
513.765534
 21
201.575004
 31
0.0
  0
LINE
  5
3C7
100
AcDbEntity
  8
M05
100
AcDbLine
 10
507.765534
 20
201.575004
 30
0.0
 11
508.465534
 21
200.875004
 31
0.0
  0
LINE
  5
3C8
100
AcDbEntity
  8
M05
100
AcDbLine
 10
513.065534
 20
213.655004
 30
0.0
 11
513.065534
 21
200.875004
 31
0.0
  0
LINE
  5
3C9
100
AcDbEntity
  8
M05
100
AcDbLine
 10
508.465534
 20
213.655004
 30
0.0
 11
508.465534
 21
200.875004
 31
0.0
  0
LINE
  5
3CA
100
AcDbEntity
  8
M05
100
AcDbLine
 10
507.765534
 20
201.575004
 30
0.0
 11
513.765534
 21
201.575004
 31
0.0
  0
LINE
  5
3CB
100
AcDbEntity
  8
M04
100
AcDbLine
 10
507.765534
 20
198.013886
 30
0.0
 11
513.765534
 21
198.013886
 31
0.0
  0
LINE
  5
3CC
100
AcDbEntity
  8
M05
100
AcDbLine
 10
508.465534
 20
200.875004
 30
0.0
 11
513.065534
 21
200.875004
 31
0.0
  0
LINE
  5
3CD
102
{ACAD_REACTORS
330
2C
102
}
100
AcDbEntity
  8
M05
  6
HIDDEN
100
AcDbLine
 10
502.606652
 20
220.313886
 30
0.0
 11
501.906652
 21
221.013886
 31
0.0
  0
LINE
  5
3CE
102
{ACAD_REACTORS
330
2C
102
}
100
AcDbEntity
  8
M05
  6
HIDDEN
100
AcDbLine
 10
518.924416
 20
220.313886
 30
0.0
 11
519.624416
 21
221.013886
 31
0.0
  0
LINE
  5
3CF
100
AcDbEntity
  8
M04
100
AcDbLine
 10
513.765534
 20
213.013886
 30
0.0
 11
567.316316
 21
213.013886
 31
0.0
  0
LINE
  5
3D0
100
AcDbEntity
  8
M05
100
AcDbLine
 10
507.765534
 20
213.655004
 30
0.0
 11
513.765534
 21
213.655004
 31
0.0
  0
LINE
  5
3D1
100
AcDbEntity
  8
M05
100
AcDbLine
 10
511.315534
 20
218.155004
 30
0.0
 11
516.765534
 21
218.155004
 31
0.0
  0
LINE
  5
3D2
100
AcDbEntity
  8
M05
100
AcDbLine
 10
511.315534
 20
218.875004
 30
0.0
 11
516.765534
 21
218.875004
 31
0.0
  0
LINE
  5
3D3
100
AcDbEntity
  8
M05
100
AcDbLine
 10
511.315534
 20
218.875004
 30
0.0
 11
511.315534
 21
217.375004
 31
0.0
  0
LINE
  5
3D4
100
AcDbEntity
  8
M05
100
AcDbLine
 10
510.215534
 20
218.875004
 30
0.0
 11
510.215534
 21
217.375004
 31
0.0
  0
LINE
  5
3D5
100
AcDbEntity
  8
M05
100
AcDbLine
 10
510.215534
 20
217.375004
 30
0.0
 11
511.315534
 21
217.375004
 31
0.0
  0
LINE
  5
3D6
100
AcDbEntity
  8
M05
100
AcDbLine
 10
514.265534
 20
215.655004
 30
0.0
 11
514.265534
 21
213.013886
 31
0.0
  0
LINE
  5
3D7
100
AcDbEntity
  8
M05
100
AcDbLine
 10
507.265534
 20
215.655004
 30
0.0
 11
507.265534
 21
213.013886
 31
0.0
  0
LINE
  5
3D8
100
AcDbEntity
  8
M05
100
AcDbLine
 10
504.765534
 20
218.155004
 30
0.0
 11
510.215534
 21
218.155004
 31
0.0
  0
LINE
  5
3D9
102
{ACAD_REACTORS
330
2C
102
}
100
AcDbEntity
  8
M05
100
AcDbLine
 10
507.765534
 20
215.155004
 30
0.0
 11
502.606652
 21
220.313886
 31
0.0
  0
LINE
  5
3DA
100
AcDbEntity
  8
M05
100
AcDbLine
 10
504.765534
 20
218.875004
 30
0.0
 11
504.765534
 21
218.155004
 31
0.0
  0
LINE
  5
3DB
102
{ACAD_REACTORS
330
2C
102
}
100
AcDbEntity
  8
M05
100
AcDbLine
 10
513.765534
 20
215.155004
 30
0.0
 11
518.924416
 21
220.313886
 31
0.0
  0
LINE
  5
3DC
100
AcDbEntity
  8
M05
100
AcDbLine
 10
507.765534
 20
215.155004
 30
0.0
 11
513.765534
 21
215.155004
 31
0.0
  0
LINE
  5
3DD
100
AcDbEntity
  8
M05
100
AcDbLine
 10
507.765534
 20
215.155004
 30
0.0
 11
507.765534
 21
201.575004
 31
0.0
  0
LINE
  5
3DE
100
AcDbEntity
  8
M05
100
AcDbLine
 10
513.765534
 20
215.155004
 30
0.0
 11
513.765534
 21
201.575004
 31
0.0
  0
LINE
  5
3DF
100
AcDbEntity
  8
M05
100
AcDbLine
 10
516.765534
 20
218.875004
 30
0.0
 11
516.765534
 21
218.155004
 31
0.0
  0
LINE
  5
3E0
100
AcDbEntity
  8
M05
100
AcDbLine
 10
504.765534
 20
218.875004
 30
0.0
 11
510.215534
 21
218.875004
 31
0.0
  0
LINE
  5
3E1
100
AcDbEntity
  8
DIMS
 62
     4
100
AcDbLine
 10
426.665534
 20
503.059226
 30
0.0
 11
428.965534
 21
503.059226
 31
0.0
  0
LINE
  5
3E2
100
AcDbEntity
  8
DIMS
 62
     4
100
AcDbLine
 10
419.865534
 20
503.059226
 30
0.0
 11
417.565534
 21
503.059226
 31
0.0
  0
LINE
  5
3E3
100
AcDbEntity
  8
DIMS
 62
     4
100
AcDbLine
 10
421.565534
 20
503.059226
 30
0.0
 11
424.965534
 21
503.059226
 31
0.0
  0
DIMENSION
  5
3E4
100
AcDbEntity
  8
DIMS
100
AcDbDimension
  2
*D0
 10
572.522489
 20
464.559226
 30
0.0
 11
732.022489
 21
432.559226
 31
0.0
 12
-162.5
 22
0.0
 32
0.0
  1
W=<>
  3
DIM1
100
AcDbAlignedDimension
 13
530.765534
 23
400.559226
 33
0.0
 14
530.765534
 24
464.559226
 34
0.0
 50
90.0
100
AcDbRotatedDimension
1001
ACAD
1000
DSTYLE
1002
{
1070
   144
1040
1.0
1002
}
  0
DIMENSION
  5
3F1
100
AcDbEntity
  8
DIMS
100
AcDbDimension
  2
*D1
 10
542.765534
 20
340.196619
 30
0.0
 11
423.265534
 21
343.196619
 31
0.0
  1
L=<>
  3
DIM1
100
AcDbAlignedDimension
 13
303.765534
 23
412.559226
 33
0.0
 14
542.765534
 24
412.559226
 34
0.0
100
AcDbRotatedDimension
1001
ACAD
1000
DSTYLE
1002
{
1070
   144
1040
1.0
1002
}
  0
LINE
  5
3FE
100
AcDbEntity
  8
M01
100
AcDbLine
 10
438.296623
 20
550.459226
 30
0.0
 11
432.234446
 21
550.459226
 31
0.0
  0
ARC
  5
3FF
100
AcDbEntity
  8
M01
100
AcDbCircle
 10
432.234446
 20
548.609921
 30
0.0
 40
1.150694
100
AcDbArc
 50
208.592423
 51
331.407577
  0
ARC
  5
400
100
AcDbEntity
  8
M01
100
AcDbCircle
 10
435.265534
 20
551.162004
 30
0.0
 40
3.702778
100
AcDbArc
 50
236.92527
 51
303.07473
  0
ARC
  5
401
100
AcDbEntity
  8
M01
100
AcDbCircle
 10
438.296623
 20
548.609921
 30
0.0
 40
1.150694
100
AcDbArc
 50
208.592423
 51
331.407577
  0
ARC
  5
402
100
AcDbEntity
  8
M01
100
AcDbCircle
 10
432.234446
 20
549.308532
 30
0.0
 40
1.150694
100
AcDbArc
 50
28.592423
 51
151.407577
  0
ARC
  5
403
100
AcDbEntity
  8
M01
100
AcDbCircle
 10
435.265534
 20
546.756448
 30
0.0
 40
3.702778
100
AcDbArc
 50
56.92527
 51
123.07473
  0
LINE
  5
404
100
AcDbEntity
  8
M01
100
AcDbLine
 10
433.244808
 20
549.859226
 30
0.0
 11
433.244808
 21
548.059226
 31
0.0
  0
LINE
  5
405
100
AcDbEntity
  8
M01
100
AcDbLine
 10
431.224083
 20
549.859226
 30
0.0
 11
431.224083
 21
548.059226
 31
0.0
  0
ARC
  5
406
100
AcDbEntity
  8
M01
100
AcDbCircle
 10
438.296623
 20
549.308532
 30
0.0
 40
1.150694
100
AcDbArc
 50
28.592423
 51
151.407577
  0
LINE
  5
407
100
AcDbEntity
  8
M01
100
AcDbLine
 10
437.28626
 20
549.859226
 30
0.0
 11
437.28626
 21
548.059226
 31
0.0
  0
LINE
  5
408
100
AcDbEntity
  8
M01
100
AcDbLine
 10
439.306986
 20
549.859226
 30
0.0
 11
439.306986
 21
548.059226
 31
0.0
  0
LINE
  5
409
100
AcDbEntity
  8
M01
100
AcDbLine
 10
430.265534
 20
545.159226
 30
0.0
 11
430.265534
 21
546.659226
 31
0.0
  0
LINE
  5
40A
100
AcDbEntity
  8
M01
100
AcDbLine
 10
440.265534
 20
545.159226
 30
0.0
 11
440.265534
 21
546.659226
 31
0.0
  0
LINE
  5
40B
100
AcDbEntity
  8
M01
100
AcDbLine
 10
430.765534
 20
546.659226
 30
0.0
 11
430.765534
 21
547.459226
 31
0.0
  0
LINE
  5
40C
100
AcDbEntity
  8
M01
100
AcDbLine
 10
439.765534
 20
546.659226
 30
0.0
 11
439.765534
 21
547.459226
 31
0.0
  0
LINE
  5
40D
100
AcDbEntity
  8
M01
100
AcDbLine
 10
439.765534
 20
547.459226
 30
0.0
 11
430.765534
 21
547.459226
 31
0.0
  0
LINE
  5
40E
100
AcDbEntity
  8
M01
100
AcDbLine
 10
440.265534
 20
546.659226
 30
0.0
 11
430.265534
 21
546.659226
 31
0.0
  0
LINE
  5
40F
100
AcDbEntity
  8
M01
100
AcDbLine
 10
430.765534
 20
544.359226
 30
0.0
 11
430.765534
 21
545.159226
 31
0.0
  0
LINE
  5
410
100
AcDbEntity
  8
M01
100
AcDbLine
 10
439.765534
 20
544.359226
 30
0.0
 11
439.765534
 21
545.159226
 31
0.0
  0
LINE
  5
411
100
AcDbEntity
  8
M01
100
AcDbLine
 10
440.265534
 20
545.159226
 30
0.0
 11
430.265534
 21
545.159226
 31
0.0
  0
ARC
  5
412
100
AcDbEntity
  8
M01
100
AcDbCircle
 10
432.234446
 20
542.509921
 30
0.0
 40
1.150694
100
AcDbArc
 50
208.592423
 51
331.407577
  0
ARC
  5
413
100
AcDbEntity
  8
M01
100
AcDbCircle
 10
435.265534
 20
545.062004
 30
0.0
 40
3.702778
100
AcDbArc
 50
236.92527
 51
303.07473
  0
ARC
  5
414
100
AcDbEntity
  8
M01
100
AcDbCircle
 10
438.296623
 20
542.509921
 30
0.0
 40
1.150694
100
AcDbArc
 50
208.592423
 51
331.407577
  0
ARC
  5
415
100
AcDbEntity
  8
M01
100
AcDbCircle
 10
432.234446
 20
543.208532
 30
0.0
 40
1.150694
100
AcDbArc
 50
28.592423
 51
151.407577
  0
ARC
  5
416
100
AcDbEntity
  8
M01
100
AcDbCircle
 10
435.265534
 20
540.656448
 30
0.0
 40
3.702778
100
AcDbArc
 50
56.92527
 51
123.07473
  0
LINE
  5
417
100
AcDbEntity
  8
M01
100
AcDbLine
 10
433.244808
 20
543.759226
 30
0.0
 11
433.244808
 21
541.959226
 31
0.0
  0
LINE
  5
418
100
AcDbEntity
  8
M01
100
AcDbLine
 10
431.224083
 20
543.759226
 30
0.0
 11
431.224083
 21
541.959226
 31
0.0
  0
ARC
  5
419
100
AcDbEntity
  8
M01
100
AcDbCircle
 10
438.296623
 20
543.208532
 30
0.0
 40
1.150694
100
AcDbArc
 50
28.592423
 51
151.407577
  0
LINE
  5
41A
100
AcDbEntity
  8
M01
100
AcDbLine
 10
437.28626
 20
543.759226
 30
0.0
 11
437.28626
 21
541.959226
 31
0.0
  0
LINE
  5
41B
100
AcDbEntity
  8
M01
100
AcDbLine
 10
439.306986
 20
543.759226
 30
0.0
 11
439.306986
 21
541.959226
 31
0.0
  0
LINE
  5
41C
100
AcDbEntity
  8
M01
100
AcDbLine
 10
439.765534
 20
544.359226
 30
0.0
 11
430.765534
 21
544.359226
 31
0.0
  0
LINE
  5
41D
100
AcDbEntity
  8
M01
100
AcDbLine
 10
439.765534
 20
541.359226
 30
0.0
 11
430.765534
 21
541.359226
 31
0.0
  0
LINE
  5
41E
100
AcDbEntity
  8
M01
100
AcDbLine
 10
433.765534
 20
553.559226
 30
0.0
 11
433.265534
 21
553.059226
 31
0.0
  0
LINE
  5
41F
100
AcDbEntity
  8
M01
100
AcDbLine
 10
437.265534
 20
553.059226
 30
0.0
 11
436.765534
 21
553.559226
 31
0.0
  0
LINE
  5
420
100
AcDbEntity
  8
M01
100
AcDbLine
 10
437.265534
 20
553.059226
 30
0.0
 11
433.265534
 21
553.059226
 31
0.0
  0
LINE
  5
421
100
AcDbEntity
  8
M01
100
AcDbLine
 10
433.765534
 20
553.559226
 30
0.0
 11
433.765534
 21
550.459226
 31
0.0
  0
LINE
  5
422
100
AcDbEntity
  8
M01
100
AcDbLine
 10
436.765534
 20
553.559226
 30
0.0
 11
436.765534
 21
550.459226
 31
0.0
  0
LINE
  5
423
100
AcDbEntity
  8
M01
100
AcDbLine
 10
437.265534
 20
553.059226
 30
0.0
 11
437.265534
 21
550.459226
 31
0.0
  0
LINE
  5
424
100
AcDbEntity
  8
M01
100
AcDbLine
 10
433.265534
 20
553.059226
 30
0.0
 11
433.265534
 21
550.459226
 31
0.0
  0
LINE
  5
425
100
AcDbEntity
  8
M01
100
AcDbLine
 10
436.765534
 20
553.559226
 30
0.0
 11
433.765534
 21
553.559226
 31
0.0
  0
LINE
  5
426
100
AcDbEntity
  8
M01
100
AcDbLine
 10
440.265534
 20
528.559226
 30
0.0
 11
430.265534
 21
528.559226
 31
0.0
  0
LINE
  5
427
100
AcDbEntity
  8
CENTRE
100
AcDbLine
 10
435.265534
 20
559.720115
 30
0.0
 11
435.265534
 21
496.126684
 31
0.0
  0
LINE
  5
428
100
AcDbEntity
  8
M01
100
AcDbLine
 10
408.234446
 20
550.459226
 30
0.0
 11
414.296623
 21
550.459226
 31
0.0
  0
ARC
  5
429
100
AcDbEntity
  8
M01
100
AcDbCircle
 10
414.296623
 20
548.609921
 30
0.0
 40
1.150694
100
AcDbArc
 50
208.592423
 51
331.407577
  0
ARC
  5
42A
100
AcDbEntity
  8
M01
100
AcDbCircle
 10
411.265534
 20
551.162004
 30
0.0
 40
3.702778
100
AcDbArc
 50
236.92527
 51
303.07473
  0
ARC
  5
42B
100
AcDbEntity
  8
M01
100
AcDbCircle
 10
408.234446
 20
548.609921
 30
0.0
 40
1.150694
100
AcDbArc
 50
208.592423
 51
331.407577
  0
ARC
  5
42C
100
AcDbEntity
  8
M01
100
AcDbCircle
 10
414.296623
 20
549.308532
 30
0.0
 40
1.150694
100
AcDbArc
 50
28.592423
 51
151.407577
  0
ARC
  5
42D
100
AcDbEntity
  8
M01
100
AcDbCircle
 10
411.265534
 20
546.756448
 30
0.0
 40
3.702778
100
AcDbArc
 50
56.92527
 51
123.07473
  0
LINE
  5
42E
100
AcDbEntity
  8
M01
100
AcDbLine
 10
413.28626
 20
549.859226
 30
0.0
 11
413.28626
 21
548.059226
 31
0.0
  0
LINE
  5
42F
100
AcDbEntity
  8
M01
100
AcDbLine
 10
415.306986
 20
549.859226
 30
0.0
 11
415.306986
 21
548.059226
 31
0.0
  0
ARC
  5
430
100
AcDbEntity
  8
M01
100
AcDbCircle
 10
408.234446
 20
549.308532
 30
0.0
 40
1.150694
100
AcDbArc
 50
28.592423
 51
151.407577
  0
LINE
  5
431
100
AcDbEntity
  8
M01
100
AcDbLine
 10
409.244808
 20
549.859226
 30
0.0
 11
409.244808
 21
548.059226
 31
0.0
  0
LINE
  5
432
100
AcDbEntity
  8
M01
100
AcDbLine
 10
407.224083
 20
549.859226
 30
0.0
 11
407.224083
 21
548.059226
 31
0.0
  0
LINE
  5
433
100
AcDbEntity
  8
M01
100
AcDbLine
 10
416.265534
 20
545.159226
 30
0.0
 11
416.265534
 21
546.659226
 31
0.0
  0
LINE
  5
434
100
AcDbEntity
  8
M01
100
AcDbLine
 10
406.265534
 20
545.159226
 30
0.0
 11
406.265534
 21
546.659226
 31
0.0
  0
LINE
  5
435
100
AcDbEntity
  8
M01
100
AcDbLine
 10
415.765534
 20
546.659226
 30
0.0
 11
415.765534
 21
547.459226
 31
0.0
  0
LINE
  5
436
100
AcDbEntity
  8
M01
100
AcDbLine
 10
406.765534
 20
546.659226
 30
0.0
 11
406.765534
 21
547.459226
 31
0.0
  0
LINE
  5
437
100
AcDbEntity
  8
M01
100
AcDbLine
 10
406.765534
 20
547.459226
 30
0.0
 11
415.765534
 21
547.459226
 31
0.0
  0
LINE
  5
438
100
AcDbEntity
  8
M01
100
AcDbLine
 10
406.265534
 20
546.659226
 30
0.0
 11
416.265534
 21
546.659226
 31
0.0
  0
LINE
  5
439
100
AcDbEntity
  8
M01
100
AcDbLine
 10
415.765534
 20
544.359226
 30
0.0
 11
415.765534
 21
545.159226
 31
0.0
  0
LINE
  5
43A
100
AcDbEntity
  8
M01
100
AcDbLine
 10
406.765534
 20
544.359226
 30
0.0
 11
406.765534
 21
545.159226
 31
0.0
  0
LINE
  5
43B
100
AcDbEntity
  8
M01
100
AcDbLine
 10
406.265534
 20
545.159226
 30
0.0
 11
416.265534
 21
545.159226
 31
0.0
  0
ARC
  5
43C
100
AcDbEntity
  8
M01
100
AcDbCircle
 10
414.296623
 20
542.509921
 30
0.0
 40
1.150694
100
AcDbArc
 50
208.592423
 51
331.407577
  0
ARC
  5
43D
100
AcDbEntity
  8
M01
100
AcDbCircle
 10
411.265534
 20
545.062004
 30
0.0
 40
3.702778
100
AcDbArc
 50
236.92527
 51
303.07473
  0
ARC
  5
43E
100
AcDbEntity
  8
M01
100
AcDbCircle
 10
408.234446
 20
542.509921
 30
0.0
 40
1.150694
100
AcDbArc
 50
208.592423
 51
331.407577
  0
ARC
  5
43F
100
AcDbEntity
  8
M01
100
AcDbCircle
 10
414.296623
 20
543.208532
 30
0.0
 40
1.150694
100
AcDbArc
 50
28.592423
 51
151.407577
  0
ARC
  5
440
100
AcDbEntity
  8
M01
100
AcDbCircle
 10
411.265534
 20
540.656448
 30
0.0
 40
3.702778
100
AcDbArc
 50
56.92527
 51
123.07473
  0
LINE
  5
441
100
AcDbEntity
  8
M01
100
AcDbLine
 10
413.28626
 20
543.759226
 30
0.0
 11
413.28626
 21
541.959226
 31
0.0
  0
LINE
  5
442
100
AcDbEntity
  8
M01
100
AcDbLine
 10
415.306986
 20
543.759226
 30
0.0
 11
415.306986
 21
541.959226
 31
0.0
  0
ARC
  5
443
100
AcDbEntity
  8
M01
100
AcDbCircle
 10
408.234446
 20
543.208532
 30
0.0
 40
1.150694
100
AcDbArc
 50
28.592423
 51
151.407577
  0
LINE
  5
444
100
AcDbEntity
  8
M01
100
AcDbLine
 10
409.244808
 20
543.759226
 30
0.0
 11
409.244808
 21
541.959226
 31
0.0
  0
LINE
  5
445
100
AcDbEntity
  8
M01
100
AcDbLine
 10
407.224083
 20
543.759226
 30
0.0
 11
407.224083
 21
541.959226
 31
0.0
  0
LINE
  5
446
100
AcDbEntity
  8
M01
100
AcDbLine
 10
406.765534
 20
544.359226
 30
0.0
 11
415.765534
 21
544.359226
 31
0.0
  0
LINE
  5
447
100
AcDbEntity
  8
M01
100
AcDbLine
 10
406.765534
 20
541.359226
 30
0.0
 11
415.765534
 21
541.359226
 31
0.0
  0
LINE
  5
448
100
AcDbEntity
  8
M01
100
AcDbLine
 10
406.765534
 20
540.559226
 30
0.0
 11
415.765534
 21
540.559226
 31
0.0
  0
LINE
  5
449
100
AcDbEntity
  8
M01
100
AcDbLine
 10
419.265534
 20
243.013886
 30
0.0
 11
423.265534
 21
247.013886
 31
0.0
  0
LINE
  5
44A
100
AcDbEntity
  8
M01
100
AcDbLine
 10
427.265534
 20
243.013886
 30
0.0
 11
423.265534
 21
247.013886
 31
0.0
  0
LINE
  5
44B
100
AcDbEntity
  8
M01
100
AcDbLine
 10
506.765534
 20
268.513886
 30
0.0
 11
510.765534
 21
264.513886
 31
0.0
  0
LINE
  5
44C
102
{ACAD_REACTORS
330
2C
102
}
100
AcDbEntity
  8
M01
100
AcDbLine
 10
464.765534
 20
268.513886
 30
0.0
 11
506.765534
 21
268.513886
 31
0.0
  0
LINE
  5
44D
102
{ACAD_REACTORS
330
2C
102
}
100
AcDbEntity
  8
M01
100
AcDbLine
 10
460.765534
 20
260.513886
 30
0.0
 11
481.765534
 21
260.513886
 31
0.0
  0
LINE
  5
44E
102
{ACAD_REACTORS
330
2C
102
}
100
AcDbEntity
  8
M01
100
AcDbLine
 10
506.765534
 20
268.513886
 30
0.0
 11
506.765534
 21
280.013886
 31
0.0
  0
LINE
  5
44F
102
{ACAD_REACTORS
330
2C
102
}
100
AcDbEntity
  8
M01
100
AcDbLine
 10
514.765534
 20
264.513886
 30
0.0
 11
514.765534
 21
280.013886
 31
0.0
  0
ARC
  5
450
102
{ACAD_REACTORS
330
2C
102
}
100
AcDbEntity
  8
M01
100
AcDbCircle
 10
510.765534
 20
264.513886
 30
0.0
 40
4.0
100
AcDbArc
 50
270.0
 51
0.0
  0
LINE
  5
451
102
{ACAD_REACTORS
330
28
102
}
100
AcDbEntity
  8
M02
100
AcDbLine
 10
524.765534
 20
217.013886
 30
0.0
 11
540.765534
 21
217.013886
 31
0.0
  0
LINE
  5
452
102
{ACAD_REACTORS
330
2C
102
}
100
AcDbEntity
  8
M05
  6
HIDDEN
100
AcDbLine
 10
496.765534
 20
220.313886
 30
0.0
 11
524.765534
 21
220.313886
 31
0.0
  0
LINE
  5
453
102
{ACAD_REACTORS
330
2C
102
}
100
AcDbEntity
  8
M05
  6
HIDDEN
100
AcDbLine
 10
524.765534
 20
220.313886
 30
0.0
 11
524.065534
 21
221.013886
 31
0.0
  0
LINE
  5
454
102
{ACAD_REACTORS
330
2C
102
}
100
AcDbEntity
  8
M05
  6
HIDDEN
100
AcDbLine
 10
524.765534
 20
219.313886
 30
0.0
 11
524.765534
 21
220.313886
 31
0.0
  0
LINE
  5
455
100
AcDbEntity
  8
M05
100
AcDbLine
 10
524.765534
 20
219.313886
 30
0.0
 11
524.065534
 21
220.013886
 31
0.0
  0
LINE
  5
456
100
AcDbEntity
  8
M05
100
AcDbLine
 10
524.765534
 20
213.713886
 30
0.0
 11
524.065534
 21
213.013886
 31
0.0
  0
LINE
  5
457
100
AcDbEntity
  8
M05
100
AcDbLine
 10
524.765534
 20
219.313886
 30
0.0
 11
524.765534
 21
213.713886
 31
0.0
  0
LINE
  5
458
102
{ACAD_REACTORS
330
2C
102
}
100
AcDbEntity
  8
M05
  6
HIDDEN
100
AcDbLine
 10
496.765534
 20
220.313886
 30
0.0
 11
497.465534
 21
221.013886
 31
0.0
  0
LINE
  5
459
102
{ACAD_REACTORS
330
2C
102
}
100
AcDbEntity
  8
M05
  6
HIDDEN
100
AcDbLine
 10
496.765534
 20
219.313886
 30
0.0
 11
496.765534
 21
220.313886
 31
0.0
  0
LINE
  5
45A
100
AcDbEntity
  8
M05
100
AcDbLine
 10
496.765534
 20
219.313886
 30
0.0
 11
497.465534
 21
220.013886
 31
0.0
  0
LINE
  5
45B
100
AcDbEntity
  8
M05
100
AcDbLine
 10
496.765534
 20
213.713886
 30
0.0
 11
497.465534
 21
213.013886
 31
0.0
  0
LINE
  5
45C
102
{ACAD_REACTORS
330
28
102
}
100
AcDbEntity
  8
M02
100
AcDbLine
 10
525.765534
 20
220.013886
 30
0.0
 11
525.765534
 21
217.013886
 31
0.0
  0
LINE
  5
45D
102
{ACAD_REACTORS
330
28
102
}
100
AcDbEntity
  8
M02
100
AcDbLine
 10
495.765534
 20
220.013886
 30
0.0
 11
495.765534
 21
217.013886
 31
0.0
  0
LINE
  5
45E
102
{ACAD_REACTORS
330
2C
102
}
100
AcDbEntity
  8
M05
  6
HIDDEN
100
AcDbLine
 10
497.465534
 20
221.013886
 30
0.0
 11
524.065534
 21
221.013886
 31
0.0
  0
LINE
  5
45F
100
AcDbEntity
  8
M05
100
AcDbLine
 10
496.765534
 20
219.313886
 30
0.0
 11
496.765534
 21
213.713886
 31
0.0
  0
LINE
  5
460
102
{ACAD_REACTORS
330
2C
102
}
100
AcDbEntity
  8
CENTRE
100
AcDbLine
 10
510.765534
 20
225.522996
 30
0.0
 11
510.765534
 21
192.444658
 31
0.0
  0
TEXT
  5
461
102
{ACAD_REACTORS
330
2D0
102
}
100
AcDbEntity
  8
TEXT
100
AcDbText
 10
428.339615
 20
215.581373
 30
0.0
 40
2.0
  1
MA010000
 41
0.9
100
AcDbText
  0
LINE
  5
462
100
AcDbEntity
  8
M04
100
AcDbLine
 10
393.265534
 20
195.013886
 30
0.0
 11
393.265534
 21
186.013886
 31
0.0
  0
LINE
  5
463
100
AcDbEntity
  8
M04
100
AcDbLine
 10
442.765534
 20
213.013886
 30
0.0
 11
507.765534
 21
213.013886
 31
0.0
  0
LINE
  5
464
102
{ACAD_REACTORS
330
28
102
}
100
AcDbEntity
  8
M02
100
AcDbLine
 10
457.265534
 20
217.013886
 30
0.0
 11
496.765534
 21
217.013886
 31
0.0
  0
LINE
  5
465
102
{ACAD_REACTORS
330
2D0
102
}
100
AcDbEntity
  8
M05
100
AcDbLine
 10
389.265534
 20
214.713886
 30
0.0
 11
389.965534
 21
214.013886
 31
0.0
  0
LINE
  5
466
102
{ACAD_REACTORS
330
2A
102
}
100
AcDbEntity
  8
M02
100
AcDbLine
 10
388.265534
 20
220.013886
 30
0.0
 11
388.265534
 21
217.013886
 31
0.0
  0
LINE
  5
467
102
{ACAD_REACTORS
330
2D0
330
2C
102
}
100
AcDbEntity
  8
M01
100
AcDbLine
 10
433.265534
 20
220.013886
 30
0.0
 11
446.265534
 21
220.013886
 31
0.0
  0
LINE
  5
468
100
AcDbEntity
  8
M04
100
AcDbLine
 10
393.265534
 20
195.013886
 30
0.0
 11
453.265534
 21
195.013886
 31
0.0
  0
LINE
  5
469
100
AcDbEntity
  8
M04
100
AcDbLine
 10
403.265534
 20
205.013886
 30
0.0
 11
393.265534
 21
195.013886
 31
0.0
  0
LINE
  5
46A
100
AcDbEntity
  8
M04
100
AcDbLine
 10
453.265534
 20
195.013886
 30
0.0
 11
453.265534
 21
186.013886
 31
0.0
  0
LINE
  5
46B
100
AcDbEntity
  8
M04
100
AcDbLine
 10
443.265534
 20
205.013886
 30
0.0
 11
453.265534
 21
195.013886
 31
0.0
  0
LINE
  5
46C
100
AcDbEntity
  8
M05
100
AcDbLine
 10
420.22466
 20
211.712671
 30
0.0
 11
426.306408
 21
211.712671
 31
0.0
  0
ARC
  5
46D
102
{ACAD_REACTORS
330
2D0
102
}
100
AcDbEntity
  8
M05
100
AcDbCircle
 10
423.265534
 20
196.513886
 30
0.0
 40
15.5
100
AcDbArc
 50
101.313981
 51
126.249321
  0
LINE
  5
46E
102
{ACAD_REACTORS
330
2C
102
}
100
AcDbEntity
  8
M01
100
AcDbLine
 10
419.265534
 20
243.013886
 30
0.0
 11
419.265534
 21
230.013886
 31
0.0
  0
LINE
  5
46F
102
{ACAD_REACTORS
330
2D0
102
}
100
AcDbEntity
  8
M05
100
AcDbLine
 10
419.265534
 20
230.013886
 30
0.0
 11
420.22466
 21
211.712671
 31
0.0
  0
LINE
  5
470
102
{ACAD_REACTORS
330
2D0
102
}
100
AcDbEntity
  8
M05
100
AcDbLine
 10
427.265534
 20
230.013886
 30
0.0
 11
426.306408
 21
211.712671
 31
0.0
  0
ARC
  5
471
102
{ACAD_REACTORS
330
2D0
102
}
100
AcDbEntity
  8
M05
100
AcDbCircle
 10
423.265534
 20
196.513886
 30
0.0
 40
15.5
100
AcDbArc
 50
53.750679
 51
78.686019
  0
LINE
  5
472
102
{ACAD_REACTORS
330
2C
102
}
100
AcDbEntity
  8
M01
100
AcDbLine
 10
427.265534
 20
243.013886
 30
0.0
 11
427.265534
 21
230.013886
 31
0.0
  0
LINE
  5
473
100
AcDbEntity
  8
M04
100
AcDbLine
 10
403.265534
 20
211.013886
 30
0.0
 11
403.265534
 21
213.013886
 31
0.0
  0
LINE
  5
474
100
AcDbEntity
  8
M04
100
AcDbLine
 10
403.265534
 20
209.713886
 30
0.0
 11
403.265534
 21
205.013886
 31
0.0
  0
LINE
  5
475
100
AcDbEntity
  8
M04
100
AcDbLine
 10
443.265534
 20
211.013886
 30
0.0
 11
443.265534
 21
213.013886
 31
0.0
  0
LINE
  5
476
100
AcDbEntity
  8
M04
100
AcDbLine
 10
443.265534
 20
209.713886
 30
0.0
 11
443.265534
 21
205.013886
 31
0.0
  0
LINE
  5
477
100
AcDbEntity
  8
M04
100
AcDbLine
 10
443.265534
 20
205.013886
 30
0.0
 11
403.265534
 21
205.013886
 31
0.0
  0
LINE
  5
478
102
{ACAD_REACTORS
330
2D0
102
}
100
AcDbEntity
  8
M05
100
AcDbLine
 10
403.765534
 20
211.013886
 30
0.0
 11
403.265534
 21
211.013886
 31
0.0
  0
LINE
  5
479
102
{ACAD_REACTORS
330
2D0
102
}
100
AcDbEntity
  8
M05
100
AcDbLine
 10
403.765534
 20
214.013886
 30
0.0
 11
389.965534
 21
214.013886
 31
0.0
  0
LINE
  5
47A
102
{ACAD_REACTORS
330
2D0
102
}
100
AcDbEntity
  8
M05
100
AcDbLine
 10
403.765534
 20
214.013886
 30
0.0
 11
403.765534
 21
211.013886
 31
0.0
  0
LINE
  5
47B
102
{ACAD_REACTORS
330
2D0
102
}
100
AcDbEntity
  8
M05
100
AcDbLine
 10
442.765534
 20
214.013886
 30
0.0
 11
442.765534
 21
211.013886
 31
0.0
  0
LINE
  5
47C
102
{ACAD_REACTORS
330
2D0
102
}
100
AcDbEntity
  8
M05
100
AcDbLine
 10
443.265534
 20
211.013886
 30
0.0
 11
442.765534
 21
211.013886
 31
0.0
  0
LINE
  5
47D
102
{ACAD_REACTORS
330
2D0
102
}
100
AcDbEntity
  8
M05
100
AcDbLine
 10
403.965534
 20
209.013886
 30
0.0
 11
403.265534
 21
209.713886
 31
0.0
  0
LINE
  5
47E
102
{ACAD_REACTORS
330
2D0
102
}
100
AcDbEntity
  8
M05
100
AcDbLine
 10
442.565534
 20
209.013886
 30
0.0
 11
443.265534
 21
209.713886
 31
0.0
  0
LINE
  5
47F
102
{ACAD_REACTORS
330
2D0
102
}
100
AcDbEntity
  8
M05
100
AcDbLine
 10
442.565534
 20
209.013886
 30
0.0
 11
403.965534
 21
209.013886
 31
0.0
  0
LINE
  5
480
102
{ACAD_REACTORS
330
2D0
102
}
100
AcDbEntity
  8
M05
100
AcDbLine
 10
403.265534
 20
211.013886
 30
0.0
 11
403.265534
 21
209.713886
 31
0.0
  0
LINE
  5
481
102
{ACAD_REACTORS
330
2D0
102
}
100
AcDbEntity
  8
M05
100
AcDbLine
 10
443.265534
 20
211.013886
 30
0.0
 11
443.265534
 21
209.713886
 31
0.0
  0
LINE
  5
482
102
{ACAD_REACTORS
330
2C
102
}
100
AcDbEntity
  8
M04
100
AcDbLine
 10
413.265534
 20
220.513886
 30
0.0
 11
412.765534
 21
220.013886
 31
0.0
  0
LINE
  5
483
102
{ACAD_REACTORS
330
2C
102
}
100
AcDbEntity
  8
M04
100
AcDbLine
 10
433.265534
 20
220.513886
 30
0.0
 11
433.765534
 21
220.013886
 31
0.0
  0
LINE
  5
484
102
{ACAD_REACTORS
330
2D0
102
}
100
AcDbEntity
  8
M05
100
AcDbLine
 10
389.265534
 20
219.313886
 30
0.0
 11
389.965534
 21
220.013886
 31
0.0
  0
LINE
  5
485
102
{ACAD_REACTORS
330
2D0
102
}
100
AcDbEntity
  8
M05
100
AcDbLine
 10
389.265534
 20
219.313886
 30
0.0
 11
389.265534
 21
214.713886
 31
0.0
  0
LINE
  5
486
102
{ACAD_REACTORS
330
2D0
102
}
100
AcDbEntity
  8
M05
100
AcDbLine
 10
457.265534
 20
219.313886
 30
0.0
 11
456.565534
 21
220.013886
 31
0.0
  0
LINE
  5
487
102
{ACAD_REACTORS
330
2D0
102
}
100
AcDbEntity
  8
M05
100
AcDbLine
 10
457.265534
 20
214.713886
 30
0.0
 11
456.565534
 21
214.013886
 31
0.0
  0
LINE
  5
488
102
{ACAD_REACTORS
330
28
102
}
100
AcDbEntity
  8
M02
100
AcDbLine
 10
458.265534
 20
220.013886
 30
0.0
 11
458.265534
 21
217.013886
 31
0.0
  0
LINE
  5
489
102
{ACAD_REACTORS
330
2D0
102
}
100
AcDbEntity
  8
M05
100
AcDbLine
 10
456.565534
 20
214.013886
 30
0.0
 11
442.765534
 21
214.013886
 31
0.0
  0
LINE
  5
48A
102
{ACAD_REACTORS
330
2D0
102
}
100
AcDbEntity
  8
M05
100
AcDbLine
 10
457.265534
 20
219.313886
 30
0.0
 11
457.265534
 21
214.713886
 31
0.0
  0
LINE
  5
48B
102
{ACAD_REACTORS
330
2C
102
}
100
AcDbEntity
  8
M04
100
AcDbLine
 10
413.265534
 20
229.013886
 30
0.0
 11
413.265534
 21
230.013886
 31
0.0
  0
LINE
  5
48C
102
{ACAD_REACTORS
330
2C
102
}
100
AcDbEntity
  8
M04
100
AcDbLine
 10
414.265534
 20
230.013886
 30
0.0
 11
413.265534
 21
230.013886
 31
0.0
  0
LINE
  5
48D
102
{ACAD_REACTORS
330
2C
102
}
100
AcDbEntity
  8
M04
100
AcDbLine
 10
433.265534
 20
229.013886
 30
0.0
 11
433.265534
 21
230.013886
 31
0.0
  0
LINE
  5
48E
102
{ACAD_REACTORS
330
2C
102
}
100
AcDbEntity
  8
M04
100
AcDbLine
 10
432.265534
 20
230.013886
 30
0.0
 11
433.265534
 21
230.013886
 31
0.0
  0
LINE
  5
48F
102
{ACAD_REACTORS
330
2D0
102
}
100
AcDbEntity
  8
M05
100
AcDbLine
 10
432.265534
 20
230.013886
 30
0.0
 11
433.265534
 21
229.013886
 31
0.0
  0
LINE
  5
490
102
{ACAD_REACTORS
330
2D0
102
}
100
AcDbEntity
  8
M05
100
AcDbLine
 10
413.265534
 20
229.013886
 30
0.0
 11
414.265534
 21
230.013886
 31
0.0
  0
LINE
  5
491
102
{ACAD_REACTORS
330
2D0
330
2C
102
}
100
AcDbEntity
  8
M05
100
AcDbLine
 10
432.265534
 20
230.013886
 30
0.0
 11
414.265534
 21
230.013886
 31
0.0
  0
LINE
  5
492
102
{ACAD_REACTORS
330
2D0
330
2C
102
}
100
AcDbEntity
  8
M05
100
AcDbLine
 10
413.265534
 20
229.013886
 30
0.0
 11
413.265534
 21
220.013886
 31
0.0
  0
LINE
  5
493
102
{ACAD_REACTORS
330
2D0
330
2C
102
}
100
AcDbEntity
  8
M05
100
AcDbLine
 10
433.265534
 20
229.013886
 30
0.0
 11
433.265534
 21
220.013886
 31
0.0
  0
LINE
  5
494
100
AcDbEntity
  8
M04
100
AcDbLine
 10
432.765534
 20
287.013886
 30
0.0
 11
549.765534
 21
287.013886
 31
0.0
  0
LINE
  5
495
102
{ACAD_REACTORS
330
29
102
}
100
AcDbEntity
  8
M02
100
AcDbLine
 10
432.765534
 20
283.013886
 30
0.0
 11
540.765534
 21
283.013886
 31
0.0
  0
LINE
  5
496
102
{ACAD_REACTORS
330
2A
102
}
100
AcDbEntity
  8
M02
100
AcDbLine
 10
305.765534
 20
217.013886
 30
0.0
 11
321.765534
 21
217.013886
 31
0.0
  0
LINE
  5
497
102
{ACAD_REACTORS
330
28
102
}
100
AcDbEntity
  8
M02
100
AcDbLine
 10
540.765534
 20
220.013886
 30
0.0
 11
540.765534
 21
217.013886
 31
0.0
  0
LINE
  5
498
102
{ACAD_REACTORS
330
2A
102
}
100
AcDbEntity
  8
M02
100
AcDbLine
 10
305.765534
 20
220.013886
 30
0.0
 11
305.765534
 21
217.013886
 31
0.0
  0
LINE
  5
499
102
{ACAD_REACTORS
330
2B
102
}
100
AcDbEntity
  8
M02
100
AcDbLine
 10
305.765534
 20
283.013886
 30
0.0
 11
413.765534
 21
283.013886
 31
0.0
  0
LINE
  5
49A
102
{ACAD_REACTORS
330
29
102
}
100
AcDbEntity
  8
M02
100
AcDbLine
 10
540.765534
 20
280.013886
 30
0.0
 11
540.765534
 21
283.013886
 31
0.0
  0
LINE
  5
49B
102
{ACAD_REACTORS
330
2B
102
}
100
AcDbEntity
  8
M02
100
AcDbLine
 10
305.765534
 20
280.013886
 30
0.0
 11
305.765534
 21
283.013886
 31
0.0
  0
LINE
  5
49C
102
{ACAD_REACTORS
330
2C
102
}
100
AcDbEntity
  8
M01
100
AcDbLine
 10
542.765534
 20
222.013886
 30
0.0
 11
540.765534
 21
220.013886
 31
0.0
  0
LINE
  5
49D
102
{ACAD_REACTORS
330
2C
102
}
100
AcDbEntity
  8
M01
100
AcDbLine
 10
540.765534
 20
280.013886
 30
0.0
 11
542.765534
 21
278.013886
 31
0.0
  0
LINE
  5
49E
102
{ACAD_REACTORS
330
2C
102
}
100
AcDbEntity
  8
M01
100
AcDbLine
 10
303.765534
 20
278.013886
 30
0.0
 11
305.765534
 21
280.013886
 31
0.0
  0
LINE
  5
49F
102
{ACAD_REACTORS
330
2C
102
}
100
AcDbEntity
  8
M01
100
AcDbLine
 10
305.765534
 20
220.013886
 30
0.0
 11
303.765534
 21
222.013886
 31
0.0
  0
LINE
  5
4A0
102
{ACAD_REACTORS
330
2C
102
}
100
AcDbEntity
  8
M01
100
AcDbLine
 10
542.765534
 20
278.013886
 30
0.0
 11
542.765534
 21
222.013886
 31
0.0
  0
LINE
  5
4A1
102
{ACAD_REACTORS
330
2C
102
}
100
AcDbEntity
  8
M01
100
AcDbLine
 10
303.765534
 20
278.013886
 30
0.0
 11
303.765534
 21
222.013886
 31
0.0
  0
LINE
  5
4A2
102
{ACAD_REACTORS
330
2D0
330
2AA
330
2C
330
2A
102
}
100
AcDbEntity
  8
M01
100
AcDbLine
 10
305.765534
 20
220.013886
 30
0.0
 11
413.265534
 21
220.013886
 31
0.0
  0
LINE
  5
4A3
102
{ACAD_REACTORS
330
2C
330
2B
102
}
100
AcDbEntity
  8
M01
100
AcDbLine
 10
305.765534
 20
280.013886
 30
0.0
 11
413.765534
 21
280.013886
 31
0.0
  0
LINE
  5
4A4
100
AcDbEntity
  8
M04
100
AcDbLine
 10
296.765534
 20
287.013886
 30
0.0
 11
413.765534
 21
287.013886
 31
0.0
  0
LINE
  5
4A5
102
{ACAD_REACTORS
330
2C
102
}
100
AcDbEntity
  8
CENTRE
100
AcDbLine
 10
423.265534
 20
307.602467
 30
0.0
 11
423.265534
 21
176.693943
 31
0.0
  0
LINE
  5
4A6
100
AcDbEntity
  8
M04
100
AcDbLine
 10
549.765534
 20
287.013886
 30
0.0
 11
549.765534
 21
213.013886
 31
0.0
  0
LINE
  5
4A7
100
AcDbEntity
  8
M04
100
AcDbLine
 10
296.765534
 20
287.013886
 30
0.0
 11
296.765534
 21
213.013886
 31
0.0
  0
LINE
  5
4A8
102
{ACAD_REACTORS
330
2AA
102
}
100
AcDbEntity
  8
M04
100
AcDbLine
 10
279.214753
 20
213.013886
 30
0.0
 11
332.765534
 21
213.013886
 31
0.0
  0
LINE
  5
4A9
100
AcDbEntity
  8
M04
100
AcDbLine
 10
440.265534
 20
568.559226
 30
0.0
 11
440.265534
 21
589.230704
 31
0.0
  0
LINE
  5
4AA
100
AcDbEntity
  8
M04
100
AcDbLine
 10
406.265534
 20
568.559226
 30
0.0
 11
406.265534
 21
589.230704
 31
0.0
  0
ARC
  5
4AB
100
AcDbEntity
  8
M04
100
AcDbCircle
 10
440.265534
 20
553.559226
 30
0.0
 40
15.0
100
AcDbArc
 50
360.0
 51
90.0
  0
ARC
  5
4AC
100
AcDbEntity
  8
M04
100
AcDbCircle
 10
406.265534
 20
553.559226
 30
0.0
 40
15.0
100
AcDbArc
 50
90.0
 51
180.0
  0
LINE
  5
4AD
100
AcDbEntity
  8
M04
100
AcDbLine
 10
406.265534
 20
568.559226
 30
0.0
 11
440.265534
 21
568.559226
 31
0.0
  0
LINE
  5
4AE
100
AcDbEntity
  8
M01
100
AcDbLine
 10
412.765534
 20
553.559226
 30
0.0
 11
413.265534
 21
553.059226
 31
0.0
  0
LINE
  5
4AF
100
AcDbEntity
  8
M01
100
AcDbLine
 10
409.265534
 20
553.059226
 30
0.0
 11
409.765534
 21
553.559226
 31
0.0
  0
LINE
  5
4B0
100
AcDbEntity
  8
M01
100
AcDbLine
 10
409.265534
 20
553.059226
 30
0.0
 11
413.265534
 21
553.059226
 31
0.0
  0
LINE
  5
4B1
100
AcDbEntity
  8
M01
100
AcDbLine
 10
412.765534
 20
553.559226
 30
0.0
 11
412.765534
 21
550.459226
 31
0.0
  0
LINE
  5
4B2
100
AcDbEntity
  8
M01
100
AcDbLine
 10
409.765534
 20
553.559226
 30
0.0
 11
409.765534
 21
550.459226
 31
0.0
  0
LINE
  5
4B3
100
AcDbEntity
  8
M01
100
AcDbLine
 10
409.265534
 20
553.059226
 30
0.0
 11
409.265534
 21
550.459226
 31
0.0
  0
LINE
  5
4B4
100
AcDbEntity
  8
M01
100
AcDbLine
 10
413.265534
 20
553.059226
 30
0.0
 11
413.265534
 21
550.459226
 31
0.0
  0
LINE
  5
4B5
100
AcDbEntity
  8
M01
100
AcDbLine
 10
409.765534
 20
553.559226
 30
0.0
 11
412.765534
 21
553.559226
 31
0.0
  0
LINE
  5
4B6
100
AcDbEntity
  8
M01
100
AcDbLine
 10
406.265534
 20
528.559226
 30
0.0
 11
416.265534
 21
528.559226
 31
0.0
  0
LINE
  5
4B7
100
AcDbEntity
  8
M01
100
AcDbLine
 10
415.765534
 20
541.359226
 30
0.0
 11
415.765534
 21
540.559226
 31
0.0
  0
LINE
  5
4B8
100
AcDbEntity
  8
M01
100
AcDbLine
 10
406.765534
 20
541.359226
 30
0.0
 11
406.765534
 21
540.559226
 31
0.0
  0
LINE
  5
4B9
100
AcDbEntity
  8
CENTRE
100
AcDbLine
 10
411.265534
 20
559.720115
 30
0.0
 11
411.265534
 21
496.126684
 31
0.0
  0
LINE
  5
4BA
100
AcDbEntity
  8
M04
100
AcDbLine
 10
455.265534
 20
478.559226
 30
0.0
 11
462.265534
 21
471.559226
 31
0.0
  0
LINE
  5
4BB
100
AcDbEntity
  8
M04
100
AcDbLine
 10
384.265534
 20
471.559226
 30
0.0
 11
391.265534
 21
478.559226
 31
0.0
  0
ARC
  5
4BC
100
AcDbEntity
  8
M04
100
AcDbCircle
 10
311.765534
 20
408.559226
 30
0.0
 40
15.0
100
AcDbArc
 50
180.0
 51
270.0
  0
ARC
  5
4BD
100
AcDbEntity
  8
M04
100
AcDbCircle
 10
311.765534
 20
456.559226
 30
0.0
 40
15.0
100
AcDbArc
 50
90.0
 51
180.0
  0
ARC
  5
4BE
100
AcDbEntity
  8
M04
100
AcDbCircle
 10
534.765534
 20
456.559226
 30
0.0
 40
15.0
100
AcDbArc
 50
0.0
 51
90.0
  0
ARC
  5
4BF
100
AcDbEntity
  8
M04
100
AcDbCircle
 10
534.765534
 20
408.559226
 30
0.0
 40
15.0
100
AcDbArc
 50
270.0
 51
0.0
  0
LINE
  5
4C0
100
AcDbEntity
  8
M04
100
AcDbLine
 10
296.765534
 20
456.559226
 30
0.0
 11
296.765534
 21
408.559226
 31
0.0
  0
LINE
  5
4C1
100
AcDbEntity
  8
M04
100
AcDbLine
 10
391.265534
 20
553.559226
 30
0.0
 11
391.265534
 21
478.559226
 31
0.0
  0
LINE
  5
4C2
100
AcDbEntity
  8
M04
100
AcDbLine
 10
455.265534
 20
553.559226
 30
0.0
 11
455.265534
 21
478.559226
 31
0.0
  0
LINE
  5
4C3
100
AcDbEntity
  8
M04
100
AcDbLine
 10
462.265534
 20
471.559226
 30
0.0
 11
534.765534
 21
471.559226
 31
0.0
  0
LINE
  5
4C4
100
AcDbEntity
  8
M04
100
AcDbLine
 10
549.765534
 20
456.559226
 30
0.0
 11
549.765534
 21
408.559226
 31
0.0
  0
LINE
  5
4C5
100
AcDbEntity
  8
M04
100
AcDbLine
 10
311.765534
 20
393.559226
 30
0.0
 11
534.765534
 21
393.559226
 31
0.0
  0
CIRCLE
  5
4C6
100
AcDbEntity
  8
M03
100
AcDbCircle
 10
423.265534
 20
432.559226
 30
0.0
 40
4.0
  0
LINE
  5
4C7
100
AcDbEntity
  8
M03
100
AcDbLine
 10
335.765534
 20
428.559226
 30
0.0
 11
510.765534
 21
428.559226
 31
0.0
  0
LINE
  5
4C8
100
AcDbEntity
  8
M03
100
AcDbLine
 10
335.765534
 20
436.559226
 30
0.0
 11
510.765534
 21
436.559226
 31
0.0
  0
CIRCLE
  5
4C9
100
AcDbEntity
  8
M01
100
AcDbCircle
 10
510.765534
 20
432.559226
 30
0.0
 40
4.0
  0
CIRCLE
  5
4CA
100
AcDbEntity
  8
M01
100
AcDbCircle
 10
335.765534
 20
432.559226
 30
0.0
 40
4.0
  0
LWPOLYLINE
  5
4CB
100
AcDbEntity
  8
M01
100
AcDbPolyline
 90
        2
 70
     0
 43
4.0
 10
423.265534
 20
505.059226
 42
0.414214
 10
421.265534
 20
503.059226
  0
LWPOLYLINE
  5
4CC
100
AcDbEntity
  8
M01
100
AcDbPolyline
 90
        2
 70
     0
 43
4.0
 10
423.265534
 20
501.059226
 42
0.414214
 10
425.265534
 20
503.059226
  0
CIRCLE
  5
4CD
100
AcDbEntity
  8
M01
100
AcDbCircle
 10
423.265534
 20
503.059226
 30
0.0
 40
4.0
  0
LINE
  5
4CE
100
AcDbEntity
  8
M01
100
AcDbLine
 10
427.265534
 20
500.559226
 30
0.0
 11
427.265534
 21
508.559226
 31
0.0
  0
LINE
  5
4CF
100
AcDbEntity
  8
M01
100
AcDbLine
 10
419.265534
 20
500.559226
 30
0.0
 11
419.265534
 21
508.559226
 31
0.0
  0
ARC
  5
4D0
100
AcDbEntity
  8
M01
100
AcDbCircle
 10
423.265534
 20
500.559226
 30
0.0
 40
4.0
100
AcDbArc
 50
180.0
 51
0.0
  0
LINE
  5
4D1
100
AcDbEntity
  8
M01
100
AcDbLine
 10
443.265534
 20
508.559226
 30
0.0
 11
445.265534
 21
506.559226
 31
0.0
  0
LINE
  5
4D2
100
AcDbEntity
  8
M01
100
AcDbLine
 10
401.265534
 20
506.559226
 30
0.0
 11
403.265534
 21
508.559226
 31
0.0
  0
LINE
  5
4D3
100
AcDbEntity
  8
M01
100
AcDbLine
 10
403.265534
 20
508.559226
 30
0.0
 11
443.265534
 21
508.559226
 31
0.0
  0
ARC
  5
4D4
100
AcDbEntity
  8
M01
100
AcDbCircle
 10
457.265534
 20
476.559226
 30
0.0
 40
12.0
100
AcDbArc
 50
180.0
 51
270.0
  0
ARC
  5
4D5
100
AcDbEntity
  8
M01
100
AcDbCircle
 10
389.265534
 20
476.559226
 30
0.0
 40
12.0
100
AcDbArc
 50
270.0
 51
0.0
  0
LINE
  5
4D6
100
AcDbEntity
  8
M01
100
AcDbLine
 10
457.265534
 20
464.559226
 30
0.0
 11
530.765534
 21
464.559226
 31
0.0
  0
LINE
  5
4D7
100
AcDbEntity
  8
M01
100
AcDbLine
 10
445.265534
 20
506.559226
 30
0.0
 11
445.265534
 21
476.559226
 31
0.0
  0
LINE
  5
4D8
100
AcDbEntity
  8
M01
100
AcDbLine
 10
401.265534
 20
506.559226
 30
0.0
 11
401.265534
 21
476.559226
 31
0.0
  0
LINE
  5
4D9
100
AcDbEntity
  8
M01
100
AcDbLine
 10
542.765534
 20
412.559226
 30
0.0
 11
530.765534
 21
400.559226
 31
0.0
  0
LINE
  5
4DA
100
AcDbEntity
  8
M01
100
AcDbLine
 10
530.765534
 20
464.559226
 30
0.0
 11
542.765534
 21
452.559226
 31
0.0
  0
LINE
  5
4DB
100
AcDbEntity
  8
M01
100
AcDbLine
 10
303.765534
 20
452.559226
 30
0.0
 11
315.765534
 21
464.559226
 31
0.0
  0
LINE
  5
4DC
100
AcDbEntity
  8
M01
100
AcDbLine
 10
315.765534
 20
400.559226
 30
0.0
 11
303.765534
 21
412.559226
 31
0.0
  0
LINE
  5
4DD
100
AcDbEntity
  8
M01
100
AcDbLine
 10
315.765534
 20
400.559226
 30
0.0
 11
530.765534
 21
400.559226
 31
0.0
  0
LINE
  5
4DE
100
AcDbEntity
  8
M01
100
AcDbLine
 10
315.765534
 20
464.559226
 30
0.0
 11
389.265534
 21
464.559226
 31
0.0
  0
LINE
  5
4DF
100
AcDbEntity
  8
M01
100
AcDbLine
 10
542.765534
 20
452.559226
 30
0.0
 11
542.765534
 21
412.559226
 31
0.0
  0
LINE
  5
4E0
100
AcDbEntity
  8
M01
100
AcDbLine
 10
303.765534
 20
452.559226
 30
0.0
 11
303.765534
 21
412.559226
 31
0.0
  0
LINE
  5
4E1
100
AcDbEntity
  8
CENTRE
100
AcDbLine
 10
423.265534
 20
523.559226
 30
0.0
 11
423.265534
 21
385.559226
 31
0.0
  0
LINE
  5
4E2
100
AcDbEntity
  8
CENTRE
100
AcDbLine
 10
288.765534
 20
432.559226
 30
0.0
 11
557.765534
 21
432.559226
 31
0.0
  0
ENDSEC
  0
SECTION
  2
OBJECTS
  0
DICTIONARY
  5
1C
100
AcDbDictionary
  3
ACAD_GROUP
350
1A
  3
ACAD_MLINESTYLE
350
1B
  0
DICTIONARY
  5
3
100
AcDbDictionary
280
     1
  3
ACAD_SORTENTS
360
4
  0
DICTIONARY
  5
1A
102
{ACAD_REACTORS
330
1C
102
}
100
AcDbDictionary
  0
DICTIONARY
  5
1B
102
{ACAD_REACTORS
330
1C
102
}
100
AcDbDictionary
  3
STANDARD
350
1E
  0
SORTENTSTABLE
  5
4
102
{ACAD_REACTORS
330
3
102
}
100
AcDbSortentsTable
330
2
  0
MLINESTYLE
  5
1E
102
{ACAD_REACTORS
330
1B
102
}
100
AcDbMlineStyle
  2
STANDARD
 70
     0
  3

 62
   256
 51
90.0
 52
90.0
 71
     2
 49
0.5
 62
   256
  6
BYLAYER
 49
-0.5
 62
   256
  6
BYLAYER
  0
ENDSEC
  0
EOF
