  0
SECTION
  2
HEADER
  9
$ACADVER
  1
AC1014
  9
$ACADMAINTVER
 70
     9
  9
$DWGCODEPAGE
  3
ANSI_1252
  9
$INSBASE
 10
0.0
 20
0.0
 30
0.0
  9
$EXTMIN
 10
173.782646
 20
176.693943
 30
0.0
  9
$EXTMAX
 10
812.027096
 20
726.150925
 30
0.0
  9
$LIMMIN
 10
0.0
 20
0.0
  9
$LIMMAX
 10
1189.0
 20
841.0
  9
$ORTHOMODE
 70
     1
  9
$REGENMODE
 70
     1
  9
$FILLMODE
 70
     1
  9
$QTEXTMODE
 70
     0
  9
$MIRRTEXT
 70
     1
  9
$DRAGMODE
 70
     2
  9
$LTSCALE
 40
8.0
  9
$OSMODE
 70
     0
  9
$ATTMODE
 70
     1
  9
$TEXTSIZE
 40
3.0
  9
$TRACEWID
 40
10.0
  9
$TEXTSTYLE
  7
STANDARD
  9
$CLAYER
  8
HATCH
  9
$CELTYPE
  6
BYLAYER
  9
$CECOLOR
 62
   256
  9
$CELTSCALE
 40
1.0
  9
$DELOBJ
 70
     1
  9
$DISPSILH
 70
     0
  9
$DIMSCALE
 40
1.0
  9
$DIMASZ
 40
3.0
  9
$DIMEXO
 40
1.0
  9
$DIMDLI
 40
10.0
  9
$DIMRND
 40
0.01
  9
$DIMDLE
 40
1.25
  9
$DIMEXE
 40
2.5
  9
$DIMTP
 40
0.05
  9
$DIMTM
 40
0.0
  9
$DIMTXT
 40
3.0
  9
$DIMCEN
 40
-1.7
  9
$DIMTSZ
 40
0.0
  9
$DIMTOL
 70
     0
  9
$DIMLIM
 70
     0
  9
$DIMTIH
 70
     0
  9
$DIMTOH
 70
     0
  9
$DIMSE1
 70
     0
  9
$DIMSE2
 70
     0
  9
$DIMTAD
 70
     3
  9
$DIMZIN
 70
     1
  9
$DIMBLK
  1

  9
$DIMASO
 70
     1
  9
$DIMSHO
 70
     0
  9
$DIMPOST
  1

  9
$DIMAPOST
  1

  9
$DIMALT
 70
     0
  9
$DIMALTD
 70
     2
  9
$DIMALTF
 40
0.039
  9
$DIMLFAC
 40
1.0
  9
$DIMTOFL
 70
     0
  9
$DIMTVP
 40
1.5
  9
$DIMTIX
 70
     0
  9
$DIMSOXD
 70
     0
  9
$DIMSAH
 70
     0
  9
$DIMBLK1
  1

  9
$DIMBLK2
  1

  9
$DIMSTYLE
  2
DIM1
  9
$DIMCLRD
 70
     4
  9
$DIMCLRE
 70
     4
  9
$DIMCLRT
 70
     2
  9
$DIMTFAC
 40
0.7
  9
$DIMGAP
 40
1.5
  9
$DIMJUST
 70
     0
  9
$DIMSD1
 70
     0
  9
$DIMSD2
 70
     0
  9
$DIMTOLJ
 70
     1
  9
$DIMTZIN
 70
     1
  9
$DIMALTZ
 70
     1
  9
$DIMALTTZ
 70
     1
  9
$DIMFIT
 70
     0
  9
$DIMUPT
 70
     0
  9
$DIMUNIT
 70
     2
  9
$DIMDEC
 70
     2
  9
$DIMTDEC
 70
     2
  9
$DIMALTU
 70
     2
  9
$DIMALTTD
 70
     2
  9
$DIMTXSTY
  7
STANDARD
  9
$DIMAUNIT
 70
     0
  9
$LUNITS
 70
     2
  9
$LUPREC
 70
     2
  9
$SKETCHINC
 40
1.0
  9
$FILLETRAD
 40
0.0
  9
$AUNITS
 70
     0
  9
$AUPREC
 70
     3
  9
$MENU
  1
ACAD
  9
$ELEVATION
 40
0.0
  9
$PELEVATION
 40
0.0
  9
$THICKNESS
 40
0.0
  9
$LIMCHECK
 70
     0
  9
$BLIPMODE
 70
     1
  9
$CHAMFERA
 40
0.7
  9
$CHAMFERB
 40
0.7
  9
$CHAMFERC
 40
0.0
  9
$CHAMFERD
 40
0.0
  9
$SKPOLY
 70
     1
  9
$TDCREATE
 40
2449993.725698611
  9
$TDUPDATE
 40
2452009.697571655
  9
$TDINDWG
 40
1.0791965278
  9
$TDUSRTIMER
 40
1.0791965278
  9
$USRTIMER
 70
     1
  9
$ANGBASE
 50
0.0
  9
$ANGDIR
 70
     0
  9
$PDMODE
 70
     3
  9
$PDSIZE
 40
0.0
  9
$PLINEWID
 40
0.0
  9
$COORDS
 70
     2
  9
$SPLFRAME
 70
     0
  9
$SPLINETYPE
 70
     6
  9
$SPLINESEGS
 70
     6
  9
$ATTDIA
 70
     1
  9
$ATTREQ
 70
     1
  9
$HANDLING
 70
     1
  9
$HANDSEED
  5
455
  9
$SURFTAB1
 70
    12
  9
$SURFTAB2
 70
    12
  9
$SURFTYPE
 70
     6
  9
$SURFU
 70
    12
  9
$SURFV
 70
    12
  9
$UCSNAME
  2

  9
$UCSORG
 10
0.0
 20
0.0
 30
0.0
  9
$UCSXDIR
 10
1.0
 20
0.0
 30
0.0
  9
$UCSYDIR
 10
0.0
 20
1.0
 30
0.0
  9
$PUCSNAME
  2

  9
$PUCSORG
 10
0.0
 20
0.0
 30
0.0
  9
$PUCSXDIR
 10
1.0
 20
0.0
 30
0.0
  9
$PUCSYDIR
 10
0.0
 20
1.0
 30
0.0
  9
$USERI1
 70
     0
  9
$USERI2
 70
     0
  9
$USERI3
 70
     0
  9
$USERI4
 70
     0
  9
$USERI5
 70
     0
  9
$USERR1
 40
0.0
  9
$USERR2
 40
0.0
  9
$USERR3
 40
0.0
  9
$USERR4
 40
0.0
  9
$USERR5
 40
0.0
  9
$WORLDVIEW
 70
     0
  9
$SHADEDGE
 70
     3
  9
$SHADEDIF
 70
    70
  9
$TILEMODE
 70
     1
  9
$MAXACTVP
 70
    16
  9
$PINSBASE
 10
0.0
 20
0.0
 30
0.0
  9
$PLIMCHECK
 70
     0
  9
$PEXTMIN
 10
1.000000E+20
 20
1.000000E+20
 30
1.000000E+20
  9
$PEXTMAX
 10
-1.000000E+20
 20
-1.000000E+20
 30
-1.000000E+20
  9
$PLIMMIN
 10
0.0
 20
0.0
  9
$PLIMMAX
 10
12.0
 20
9.0
  9
$UNITMODE
 70
     0
  9
$VISRETAIN
 70
     0
  9
$PLINEGEN
 70
     0
  9
$PSLTSCALE
 70
     0
  9
$TREEDEPTH
 70
  3020
  9
$PICKSTYLE
 70
     1
  9
$CMLSTYLE
  2
STANDARD
  9
$CMLJUST
 70
     0
  9
$CMLSCALE
 40
1.0
  9
$PROXYGRAPHICS
 70
     1
  9
$MEASUREMENT
 70
     0
  0
ENDSEC
  0
SECTION
  2
CLASSES
  0
CLASS
  1
DICTIONARYVAR
  2
AcDbDictionaryVar
  3
"AutoCAD"
 90
        0
280
     0
281
     0
  0
CLASS
  1
LWPOLYLINE
  2
AcDbPolyline
  3
"AutoCAD"
 90
        0
280
     0
281
     1
  0
CLASS
  1
HATCH
  2
AcDbHatch
  3
"ACAD_SEDONA"
 90
        0
280
     0
281
     1
  0
CLASS
  1
SORTENTSTABLE
  2
AcDbSortentsTable
  3
"AutoCAD"
 90
        0
280
     0
281
     0
  0
CLASS
  1
WIPEOUTVARIABLES
  2
AcDbWipeoutVariables
  3
WIPEOUT
 90
        0
280
     0
281
     0
  0
CLASS
  1
WIPEOUT
  2
AcDbWipeout
  3
WIPEOUT
 90
      127
280
     0
281
     1
  0
ENDSEC
  0
SECTION
  2
TABLES
  0
TABLE
  2
VPORT
  5
14
100
AcDbSymbolTable
 70
     2
  0
VPORT
  5
454
100
AcDbSymbolTableRecord
100
AcDbViewportTableRecord
  2
*ACTIVE
 70
     0
 10
0.0
 20
0.0
 11
1.0
 21
1.0
 12
510.163311
 22
381.407388
 13
0.0
 23
0.0
 14
10.0
 24
10.0
 15
0.0
 25
0.0
 16
0.0
 26
0.0
 36
1.0
 17
16.313321
 27
12.779115
 37
0.222949
 40
527.204509
 41
1.470516
 42
50.0
 43
0.0
 44
0.0
 50
0.0
 51
0.0
 71
     0
 72
  2000
 73
     1
 74
     2
 75
     0
 76
     0
 77
     0
 78
     1
  0
ENDTAB
  0
TABLE
  2
LTYPE
  5
F
100
AcDbSymbolTable
 70
     3
  0
LTYPE
  5
10
100
AcDbSymbolTableRecord
100
AcDbLinetypeTableRecord
  2
BYBLOCK
 70
     0
  3

 72
    65
 73
     0
 40
0.0
  0
LTYPE
  5
11
100
AcDbSymbolTableRecord
100
AcDbLinetypeTableRecord
  2
BYLAYER
 70
     0
  3

 72
    65
 73
     0
 40
0.0
  0
LTYPE
  5
7
100
AcDbSymbolTableRecord
100
AcDbLinetypeTableRecord
  2
CONTINUOUS
 70
     0
  3
Solid line
 72
    65
 73
     0
 40
0.0
  0
LTYPE
  5
3C
100
AcDbSymbolTableRecord
100
AcDbLinetypeTableRecord
  2
CENTER
 70
     0
  3
Center ____ _ ____ _ ____ _ ____ _ ____ _ ____
 72
    65
 73
     4
 40
2.0
 49
1.25
 74
     0
 49
-0.25
 74
     0
 49
0.25
 74
     0
 49
-0.25
 74
     0
  0
LTYPE
  5
27
100
AcDbSymbolTableRecord
100
AcDbLinetypeTableRecord
  2
HIDDEN
 70
     0
  3
Hidden __ __ __ __ __ __ __ __ __ __ __ __ __ _
 72
    65
 73
     2
 40
0.375
 49
0.25
 74
     0
 49
-0.125
 74
     0
  0
ENDTAB
  0
TABLE
  2
LAYER
  5
C
100
AcDbSymbolTable
 70
    11
  0
LAYER
  5
6
100
AcDbSymbolTableRecord
100
AcDbLayerTableRecord
  2
0
 70
     0
 62
     7
  6
CONTINUOUS
  0
LAYER
  5
3B
100
AcDbSymbolTableRecord
100
AcDbLayerTableRecord
  2
CENTRE
 70
     0
 62
     3
  6
CENTER
  0
LAYER
  5
2E
100
AcDbSymbolTableRecord
100
AcDbLayerTableRecord
  2
M01
 70
     0
 62
     1
  6
CONTINUOUS
  0
LAYER
  5
33
100
AcDbSymbolTableRecord
100
AcDbLayerTableRecord
  2
M02
 70
     0
 62
     2
  6
CONTINUOUS
  0
LAYER
  5
26
100
AcDbSymbolTableRecord
100
AcDbLayerTableRecord
  2
M03
 70
     0
 62
     2
  6
HIDDEN
  0
LAYER
  5
CE
100
AcDbSymbolTableRecord
100
AcDbLayerTableRecord
  2
M04
 70
     0
 62
     7
  6
CONTINUOUS
  0
LAYER
  5
D4
100
AcDbSymbolTableRecord
100
AcDbLayerTableRecord
  2
M05
 70
     0
 62
     5
  6
CONTINUOUS
  0
LAYER
  5
63
100
AcDbSymbolTableRecord
100
AcDbLayerTableRecord
  2
DIMS
 70
     0
 62
     4
  6
CONTINUOUS
  0
LAYER
  5
142
100
AcDbSymbolTableRecord
100
AcDbLayerTableRecord
  2
TEXT
 70
     0
 62
     2
  6
CONTINUOUS
  0
LAYER
  5
1D
100
AcDbSymbolTableRecord
100
AcDbLayerTableRecord
  2
HATCH
 70
     0
 62
     4
  6
CONTINUOUS
  0
LAYER
  5
6B
100
AcDbSymbolTableRecord
100
AcDbLayerTableRecord
  2
DEFPOINTS
 70
     0
 62
     7
  6
CONTINUOUS
  0
ENDTAB
  0
TABLE
  2
STYLE
  5
D
100
AcDbSymbolTable
 70
     1
  0
STYLE
  5
E
100
AcDbSymbolTableRecord
100
AcDbTextStyleTableRecord
  2
STANDARD
 70
     0
 40
0.0
 41
1.0
 50
0.0
 71
     0
 42
3.0
  3
SIMPLEX
  4

  0
ENDTAB
  0
TABLE
  2
VIEW
  5
12
100
AcDbSymbolTable
 70
     0
  0
ENDTAB
  0
TABLE
  2
UCS
  5
13
100
AcDbSymbolTable
 70
     0
  0
ENDTAB
  0
TABLE
  2
APPID
  5
16
100
AcDbSymbolTable
 70
     1
  0
APPID
  5
17
100
AcDbSymbolTableRecord
100
AcDbRegAppTableRecord
  2
ACAD
 70
     0
  0
ENDTAB
  0
TABLE
  2
DIMSTYLE
  5
18
100
AcDbSymbolTable
 70
     2
  0
DIMSTYLE
105
1F
102
{ACAD_REACTORS
330
EA
330
F8
330
105
330
113
330
121
330
360
330
36D
330
70
330
62
102
}
100
AcDbSymbolTableRecord
100
AcDbDimStyleTableRecord
  2
DIM1
 70
     0
  3

  4

  5

  6

  7

 40
1.0
 41
3.0
 42
1.0
 43
10.0
 44
2.5
 45
0.01
 46
1.25
 47
0.05
 48
0.0
140
3.0
141
-1.7
142
0.0
143
0.039
144
0.2
145
1.5
146
0.7
147
1.5
 71
     0
 72
     0
 73
     0
 74
     0
 75
     0
 76
     0
 77
     3
 78
     1
170
     0
171
     2
172
     0
173
     0
174
     0
175
     0
176
     4
177
     4
178
     2
270
     2
271
     2
272
     2
273
     2
274
     2
340
E
275
     0
280
     0
281
     0
282
     0
283
     1
284
     1
285
     1
286
     1
287
     0
288
     0
  0
DIMSTYLE
105
2B3
100
AcDbSymbolTableRecord
100
AcDbDimStyleTableRecord
  2
DIM1$7
 70
     0
  3

  4

  5

  6

  7

 40
1.0
 41
3.0
 42
1.0
 43
10.0
 44
2.5
 45
0.01
 46
1.25
 47
0.0
 48
0.0
140
3.0
141
-1.7
142
0.0
143
0.039
144
1.0
145
0.0
146
1.0
147
1.5
 71
     0
 72
     0
 73
     0
 74
     0
 75
     0
 76
     0
 77
     0
 78
     1
170
     0
171
     2
172
     0
173
     0
174
     0
175
     0
176
     4
177
     4
178
     2
270
     2
271
     2
272
     2
273
     2
274
     2
340
E
275
     0
280
     0
281
     0
282
     0
283
     1
284
     1
285
     1
286
     1
287
     0
288
     0
  0
ENDTAB
  0
TABLE
  2
BLOCK_RECORD
  5
1
100
AcDbSymbolTable
 70
     9
  0
BLOCK_RECORD
  5
2
102
{ACAD_XDICTIONARY
360
3
102
}
100
AcDbSymbolTableRecord
100
AcDbBlockTableRecord
  2
*MODEL_SPACE
  0
BLOCK_RECORD
  5
9
100
AcDbSymbolTableRecord
100
AcDbBlockTableRecord
  2
*PAPER_SPACE
  0
BLOCK_RECORD
  5
EB
100
AcDbSymbolTableRecord
100
AcDbBlockTableRecord
  2
*D0
  0
BLOCK_RECORD
  5
F9
100
AcDbSymbolTableRecord
100
AcDbBlockTableRecord
  2
*D1
  0
BLOCK_RECORD
  5
106
100
AcDbSymbolTableRecord
100
AcDbBlockTableRecord
  2
*D2
  0
BLOCK_RECORD
  5
114
100
AcDbSymbolTableRecord
100
AcDbBlockTableRecord
  2
*D3
  0
BLOCK_RECORD
  5
122
100
AcDbSymbolTableRecord
100
AcDbBlockTableRecord
  2
*D4
  0
BLOCK_RECORD
  5
361
100
AcDbSymbolTableRecord
100
AcDbBlockTableRecord
  2
*D5
  0
BLOCK_RECORD
  5
36E
100
AcDbSymbolTableRecord
100
AcDbBlockTableRecord
  2
*D6
  0
BLOCK_RECORD
  5
71
100
AcDbSymbolTableRecord
100
AcDbBlockTableRecord
  2
*D7
  0
BLOCK_RECORD
  5
64
100
AcDbSymbolTableRecord
100
AcDbBlockTableRecord
  2
*D8
  0
ENDTAB
  0
ENDSEC
  0
SECTION
  2
BLOCKS
  0
BLOCK
  5
5
100
AcDbEntity
  8
0
100
AcDbBlockBegin
  2
*MODEL_SPACE
 70
     0
 10
0.0
 20
0.0
 30
0.0
  3
*MODEL_SPACE
  1

  0
ENDBLK
  5
8
100
AcDbEntity
  8
0
100
AcDbBlockEnd
  0
BLOCK
  5
A
100
AcDbEntity
 67
     1
  8
0
100
AcDbBlockBegin
  2
*PAPER_SPACE
 70
     0
 10
0.0
 20
0.0
 30
0.0
  3
*PAPER_SPACE
  1

  0
ENDBLK
  5
B
100
AcDbEntity
 67
     1
  8
0
100
AcDbBlockEnd
  0
BLOCK
  5
F6
100
AcDbEntity
  8
0
100
AcDbBlockBegin
  2
*D0
 70
     1
 10
0.0
 20
0.0
 30
0.0
  3
*D0
  1

  0
LINE
  5
EC
100
AcDbEntity
  8
0
  6
BYBLOCK
 62
     4
100
AcDbLine
 10
652.211979
 20
507.059226
 30
0.0
 11
636.035814
 21
507.059226
 31
0.0
  0
LINE
  5
ED
100
AcDbEntity
  8
0
  6
BYBLOCK
 62
     4
100
AcDbLine
 10
652.211979
 20
499.059226
 30
0.0
 11
636.035814
 21
499.059226
 31
0.0
  0
LINE
  5
EE
100
AcDbEntity
  8
0
  6
BYBLOCK
 62
     4
100
AcDbLine
 10
638.535814
 20
510.059226
 30
0.0
 11
638.535814
 21
513.059226
 31
0.0
  0
LINE
  5
EF
100
AcDbEntity
  8
0
  6
BYBLOCK
 62
     4
100
AcDbLine
 10
638.535814
 20
496.059226
 30
0.0
 11
638.535814
 21
469.487798
 31
0.0
  0
SOLID
  5
F0
100
AcDbEntity
  8
0
  6
BYBLOCK
 62
     4
100
AcDbTrace
 10
638.035814
 20
510.059226
 30
0.0
 11
639.035814
 21
510.059226
 31
0.0
 12
638.535814
 22
507.059226
 32
0.0
 13
638.535814
 23
507.059226
 33
0.0
  0
SOLID
  5
F1
100
AcDbEntity
  8
0
  6
BYBLOCK
 62
     4
100
AcDbTrace
 10
638.035814
 20
496.059226
 30
0.0
 11
639.035814
 21
496.059226
 31
0.0
 12
638.535814
 22
499.059226
 32
0.0
 13
638.535814
 23
499.059226
 33
0.0
  0
MTEXT
  5
F2
100
AcDbEntity
  8
0
  6
BYBLOCK
 62
     2
100
AcDbMText
 10
635.535814
 20
481.273512
 30
0.0
 40
3.0
 41
0.0
 71
     5
 72
     1
  1
\A1;\U+22058.00 H7
 11
0.0
 21
1.0
 31
0.0
  0
POINT
  5
F3
100
AcDbEntity
  8
DEFPOINTS
  6
BYBLOCK
 62
     0
100
AcDbPoint
 10
653.211979
 20
507.059226
 30
0.0
  0
POINT
  5
F4
100
AcDbEntity
  8
DEFPOINTS
  6
BYBLOCK
 62
     0
100
AcDbPoint
 10
653.211979
 20
499.059226
 30
0.0
  0
POINT
  5
F5
100
AcDbEntity
  8
DEFPOINTS
  6
BYBLOCK
 62
     0
100
AcDbPoint
 10
638.535814
 20
499.059226
 30
0.0
  0
ENDBLK
  5
F7
100
AcDbEntity
  8
0
100
AcDbBlockEnd
  0
BLOCK
  5
103
100
AcDbEntity
  8
0
100
AcDbBlockBegin
  2
*D1
 70
     1
 10
0.0
 20
0.0
 30
0.0
  3
*D1
  1

  0
LINE
  5
FA
100
AcDbEntity
  8
0
  6
BYBLOCK
 62
     4
100
AcDbLine
 10
749.211979
 20
412.559226
 30
0.0
 11
787.027096
 21
412.559226
 31
0.0
  0
LINE
  5
FB
100
AcDbEntity
  8
0
  6
BYBLOCK
 62
     4
100
AcDbLine
 10
749.211979
 20
452.559226
 30
0.0
 11
787.027096
 21
452.559226
 31
0.0
  0
LINE
  5
FC
100
AcDbEntity
  8
0
  6
BYBLOCK
 62
     4
100
AcDbLine
 10
784.527096
 20
415.559226
 30
0.0
 11
784.527096
 21
449.559226
 31
0.0
  0
SOLID
  5
FD
100
AcDbEntity
  8
0
  6
BYBLOCK
 62
     4
100
AcDbTrace
 10
784.027096
 20
415.559226
 30
0.0
 11
785.027096
 21
415.559226
 31
0.0
 12
784.527096
 22
412.559226
 32
0.0
 13
784.527096
 23
412.559226
 33
0.0
  0
SOLID
  5
FE
100
AcDbEntity
  8
0
  6
BYBLOCK
 62
     4
100
AcDbTrace
 10
784.027096
 20
449.559226
 30
0.0
 11
785.027096
 21
449.559226
 31
0.0
 12
784.527096
 22
452.559226
 32
0.0
 13
784.527096
 23
452.559226
 33
0.0
  0
MTEXT
  5
FF
100
AcDbEntity
  8
0
  6
BYBLOCK
 62
     2
100
AcDbMText
 10
781.527096
 20
432.559226
 30
0.0
 40
3.0
 41
0.0
 71
     5
 72
     1
  1
\A1;\U+220540.00 H7
 11
0.0
 21
1.0
 31
0.0
  0
POINT
  5
100
100
AcDbEntity
  8
DEFPOINTS
  6
BYBLOCK
 62
     0
100
AcDbPoint
 10
748.211979
 20
412.559226
 30
0.0
  0
POINT
  5
101
100
AcDbEntity
  8
DEFPOINTS
  6
BYBLOCK
 62
     0
100
AcDbPoint
 10
748.211979
 20
452.559226
 30
0.0
  0
POINT
  5
102
100
AcDbEntity
  8
DEFPOINTS
  6
BYBLOCK
 62
     0
100
AcDbPoint
 10
784.527096
 20
452.559226
 30
0.0
  0
ENDBLK
  5
104
100
AcDbEntity
  8
0
100
AcDbBlockEnd
  0
BLOCK
  5
111
100
AcDbEntity
  8
0
100
AcDbBlockBegin
  2
*D2
 70
     1
 10
0.0
 20
0.0
 30
0.0
  3
*D2
  1

  0
LINE
  5
107
100
AcDbEntity
  8
0
  6
BYBLOCK
 62
     4
100
AcDbLine
 10
673.211979
 20
401.559226
 30
0.0
 11
673.211979
 21
359.779548
 31
0.0
  0
LINE
  5
108
100
AcDbEntity
  8
0
  6
BYBLOCK
 62
     4
100
AcDbLine
 10
666.211979
 20
392.559226
 30
0.0
 11
666.211979
 21
359.779548
 31
0.0
  0
LINE
  5
109
100
AcDbEntity
  8
0
  6
BYBLOCK
 62
     4
100
AcDbLine
 10
676.211979
 20
362.279548
 30
0.0
 11
679.211979
 21
362.279548
 31
0.0
  0
LINE
  5
10A
100
AcDbEntity
  8
0
  6
BYBLOCK
 62
     4
100
AcDbLine
 10
663.211979
 20
362.279548
 30
0.0
 11
650.926265
 21
362.279548
 31
0.0
  0
SOLID
  5
10B
100
AcDbEntity
  8
0
  6
BYBLOCK
 62
     4
100
AcDbTrace
 10
676.211979
 20
362.779548
 30
0.0
 11
676.211979
 21
361.779548
 31
0.0
 12
673.211979
 22
362.279548
 32
0.0
 13
673.211979
 23
362.279548
 33
0.0
  0
SOLID
  5
10C
100
AcDbEntity
  8
0
  6
BYBLOCK
 62
     4
100
AcDbTrace
 10
663.211979
 20
362.779548
 30
0.0
 11
663.211979
 21
361.779548
 31
0.0
 12
666.211979
 22
362.279548
 32
0.0
 13
666.211979
 23
362.279548
 33
0.0
  0
MTEXT
  5
10D
100
AcDbEntity
  8
0
  6
BYBLOCK
 62
     2
100
AcDbMText
 10
655.569122
 20
365.279548
 30
0.0
 40
3.0
 41
0.0
 71
     5
 72
     1
  1
\A1;7.0
  0
POINT
  5
10E
100
AcDbEntity
  8
DEFPOINTS
  6
BYBLOCK
 62
     0
100
AcDbPoint
 10
673.211979
 20
402.559226
 30
0.0
  0
POINT
  5
10F
100
AcDbEntity
  8
DEFPOINTS
  6
BYBLOCK
 62
     0
100
AcDbPoint
 10
666.211979
 20
393.559226
 30
0.0
  0
POINT
  5
110
100
AcDbEntity
  8
DEFPOINTS
  6
BYBLOCK
 62
     0
100
AcDbPoint
 10
666.211979
 20
362.279548
 30
0.0
  0
ENDBLK
  5
112
100
AcDbEntity
  8
0
100
AcDbBlockEnd
  0
BLOCK
  5
11F
100
AcDbEntity
  8
0
100
AcDbBlockBegin
  2
*D3
 70
     1
 10
0.0
 20
0.0
 30
0.0
  3
*D3
  1

  0
LINE
  5
115
100
AcDbEntity
  8
0
  6
BYBLOCK
 62
     4
100
AcDbLine
 10
733.211979
 20
399.559226
 30
0.0
 11
733.211979
 21
359.779548
 31
0.0
  0
LINE
  5
116
100
AcDbEntity
  8
0
  6
BYBLOCK
 62
     4
100
AcDbLine
 10
740.211979
 20
381.045835
 30
0.0
 11
740.211979
 21
359.779548
 31
0.0
  0
LINE
  5
117
100
AcDbEntity
  8
0
  6
BYBLOCK
 62
     4
100
AcDbLine
 10
730.211979
 20
362.279548
 30
0.0
 11
727.211979
 21
362.279548
 31
0.0
  0
LINE
  5
118
100
AcDbEntity
  8
0
  6
BYBLOCK
 62
     4
100
AcDbLine
 10
743.211979
 20
362.279548
 30
0.0
 11
755.497693
 21
362.279548
 31
0.0
  0
SOLID
  5
119
100
AcDbEntity
  8
0
  6
BYBLOCK
 62
     4
100
AcDbTrace
 10
730.211979
 20
362.779548
 30
0.0
 11
730.211979
 21
361.779548
 31
0.0
 12
733.211979
 22
362.279548
 32
0.0
 13
733.211979
 23
362.279548
 33
0.0
  0
SOLID
  5
11A
100
AcDbEntity
  8
0
  6
BYBLOCK
 62
     4
100
AcDbTrace
 10
743.211979
 20
362.779548
 30
0.0
 11
743.211979
 21
361.779548
 31
0.0
 12
740.211979
 22
362.279548
 32
0.0
 13
740.211979
 23
362.279548
 33
0.0
  0
MTEXT
  5
11B
100
AcDbEntity
  8
0
  6
BYBLOCK
 62
     2
100
AcDbMText
 10
750.854836
 20
365.279548
 30
0.0
 40
3.0
 41
0.0
 71
     5
 72
     1
  1
\A1;7.0
  0
POINT
  5
11C
100
AcDbEntity
  8
DEFPOINTS
  6
BYBLOCK
 62
     0
100
AcDbPoint
 10
733.211979
 20
400.559226
 30
0.0
  0
POINT
  5
11D
100
AcDbEntity
  8
DEFPOINTS
  6
BYBLOCK
 62
     0
100
AcDbPoint
 10
740.211979
 20
382.045835
 30
0.0
  0
POINT
  5
11E
100
AcDbEntity
  8
DEFPOINTS
  6
BYBLOCK
 62
     0
100
AcDbPoint
 10
740.211979
 20
362.279548
 30
0.0
  0
ENDBLK
  5
120
100
AcDbEntity
  8
0
100
AcDbBlockEnd
  0
BLOCK
  5
12C
100
AcDbEntity
  8
0
100
AcDbBlockBegin
  2
*D4
 70
     1
 10
0.0
 20
0.0
 30
0.0
  3
*D4
  1

  0
LINE
  5
123
100
AcDbEntity
  8
0
  6
BYBLOCK
 62
     4
100
AcDbLine
 10
673.211979
 20
401.559226
 30
0.0
 11
673.211979
 21
359.779548
 31
0.0
  0
LINE
  5
124
100
AcDbEntity
  8
0
  6
BYBLOCK
 62
     4
100
AcDbLine
 10
733.211979
 20
399.559226
 30
0.0
 11
733.211979
 21
359.779548
 31
0.0
  0
LINE
  5
125
100
AcDbEntity
  8
0
  6
BYBLOCK
 62
     4
100
AcDbLine
 10
676.211979
 20
362.279548
 30
0.0
 11
730.211979
 21
362.279548
 31
0.0
  0
SOLID
  5
126
100
AcDbEntity
  8
0
  6
BYBLOCK
 62
     4
100
AcDbTrace
 10
676.211979
 20
362.779548
 30
0.0
 11
676.211979
 21
361.779548
 31
0.0
 12
673.211979
 22
362.279548
 32
0.0
 13
673.211979
 23
362.279548
 33
0.0
  0
SOLID
  5
127
100
AcDbEntity
  8
0
  6
BYBLOCK
 62
     4
100
AcDbTrace
 10
730.211979
 20
362.779548
 30
0.0
 11
730.211979
 21
361.779548
 31
0.0
 12
733.211979
 22
362.279548
 32
0.0
 13
733.211979
 23
362.279548
 33
0.0
  0
MTEXT
  5
128
100
AcDbEntity
  8
0
  6
BYBLOCK
 62
     2
100
AcDbMText
 10
703.211979
 20
365.279548
 30
0.0
 40
3.0
 41
0.0
 71
     5
 72
     1
  1
\A1;60.00
  0
POINT
  5
129
100
AcDbEntity
  8
DEFPOINTS
  6
BYBLOCK
 62
     0
100
AcDbPoint
 10
673.211979
 20
402.559226
 30
0.0
  0
POINT
  5
12A
100
AcDbEntity
  8
DEFPOINTS
  6
BYBLOCK
 62
     0
100
AcDbPoint
 10
733.211979
 20
400.559226
 30
0.0
  0
POINT
  5
12B
100
AcDbEntity
  8
DEFPOINTS
  6
BYBLOCK
 62
     0
100
AcDbPoint
 10
733.211979
 20
362.279548
 30
0.0
  0
ENDBLK
  5
12D
100
AcDbEntity
  8
0
100
AcDbBlockEnd
  0
BLOCK
  5
36B
100
AcDbEntity
  8
0
100
AcDbBlockBegin
  2
*D5
 70
     1
 10
0.0
 20
0.0
 30
0.0
  3
*D5
  1

  0
LINE
  5
362
100
AcDbEntity
  8
0
  6
BYBLOCK
 62
     4
100
AcDbLine
 10
531.765534
 20
400.559226
 30
0.0
 11
575.022489
 21
400.559226
 31
0.0
  0
LINE
  5
363
100
AcDbEntity
  8
0
  6
BYBLOCK
 62
     4
100
AcDbLine
 10
531.765534
 20
464.559226
 30
0.0
 11
575.022489
 21
464.559226
 31
0.0
  0
LINE
  5
364
100
AcDbEntity
  8
0
  6
BYBLOCK
 62
     4
100
AcDbLine
 10
572.522489
 20
403.559226
 30
0.0
 11
572.522489
 21
461.559226
 31
0.0
  0
SOLID
  5
365
100
AcDbEntity
  8
0
  6
BYBLOCK
 62
     4
100
AcDbTrace
 10
572.022489
 20
403.559226
 30
0.0
 11
573.022489
 21
403.559226
 31
0.0
 12
572.522489
 22
400.559226
 32
0.0
 13
572.522489
 23
400.559226
 33
0.0
  0
SOLID
  5
366
100
AcDbEntity
  8
0
  6
BYBLOCK
 62
     4
100
AcDbTrace
 10
572.022489
 20
461.559226
 30
0.0
 11
573.022489
 21
461.559226
 31
0.0
 12
572.522489
 22
464.559226
 32
0.0
 13
572.522489
 23
464.559226
 33
0.0
  0
MTEXT
  5
367
100
AcDbEntity
  8
0
  6
BYBLOCK
 62
     2
100
AcDbMText
 10
569.522489
 20
432.559226
 30
0.0
 40
3.0
 41
0.0
 71
     5
 72
     1
  1
\A1;64.00
 11
0.0
 21
1.0
 31
0.0
  0
POINT
  5
368
100
AcDbEntity
  8
DEFPOINTS
  6
BYBLOCK
 62
     0
100
AcDbPoint
 10
530.765534
 20
400.559226
 30
0.0
  0
POINT
  5
369
100
AcDbEntity
  8
DEFPOINTS
  6
BYBLOCK
 62
     0
100
AcDbPoint
 10
530.765534
 20
464.559226
 30
0.0
  0
POINT
  5
36A
100
AcDbEntity
  8
DEFPOINTS
  6
BYBLOCK
 62
     0
100
AcDbPoint
 10
572.522489
 20
464.559226
 30
0.0
  0
ENDBLK
  5
36C
100
AcDbEntity
  8
0
100
AcDbBlockEnd
  0
BLOCK
  5
378
100
AcDbEntity
  8
0
100
AcDbBlockBegin
  2
*D6
 70
     1
 10
0.0
 20
0.0
 30
0.0
  3
*D6
  1

  0
LINE
  5
36F
100
AcDbEntity
  8
0
  6
BYBLOCK
 62
     4
100
AcDbLine
 10
241.265534
 20
411.559226
 30
0.0
 11
241.265534
 21
337.696619
 31
0.0
  0
LINE
  5
370
100
AcDbEntity
  8
0
  6
BYBLOCK
 62
     4
100
AcDbLine
 10
605.265534
 20
411.559226
 30
0.0
 11
605.265534
 21
337.696619
 31
0.0
  0
LINE
  5
371
100
AcDbEntity
  8
0
  6
BYBLOCK
 62
     4
100
AcDbLine
 10
244.265534
 20
340.196619
 30
0.0
 11
602.265534
 21
340.196619
 31
0.0
  0
SOLID
  5
372
100
AcDbEntity
  8
0
  6
BYBLOCK
 62
     4
100
AcDbTrace
 10
244.265534
 20
340.696619
 30
0.0
 11
244.265534
 21
339.696619
 31
0.0
 12
241.265534
 22
340.196619
 32
0.0
 13
241.265534
 23
340.196619
 33
0.0
  0
SOLID
  5
373
100
AcDbEntity
  8
0
  6
BYBLOCK
 62
     4
100
AcDbTrace
 10
602.265534
 20
340.696619
 30
0.0
 11
602.265534
 21
339.696619
 31
0.0
 12
605.265534
 22
340.196619
 32
0.0
 13
605.265534
 23
340.196619
 33
0.0
  0
MTEXT
  5
374
100
AcDbEntity
  8
0
  6
BYBLOCK
 62
     2
100
AcDbMText
 10
423.265534
 20
343.196619
 30
0.0
 40
3.0
 41
0.0
 71
     5
 72
     1
  1
\A1;L=364.00
  0
POINT
  5
375
100
AcDbEntity
  8
DEFPOINTS
  6
BYBLOCK
 62
     0
100
AcDbPoint
 10
241.265534
 20
412.559226
 30
0.0
  0
POINT
  5
376
100
AcDbEntity
  8
DEFPOINTS
  6
BYBLOCK
 62
     0
100
AcDbPoint
 10
605.265534
 20
412.559226
 30
0.0
  0
POINT
  5
377
100
AcDbEntity
  8
DEFPOINTS
  6
BYBLOCK
 62
     0
100
AcDbPoint
 10
605.265534
 20
340.196619
 30
0.0
  0
ENDBLK
  5
379
100
AcDbEntity
  8
0
100
AcDbBlockEnd
  0
BLOCK
  5
7B
100
AcDbEntity
  8
0
100
AcDbBlockBegin
  2
*D7
 70
     1
 10
0.0
 20
0.0
 30
0.0
  3
*D7
  1

  0
LINE
  5
72
100
AcDbEntity
  8
0
  6
BYBLOCK
 62
     4
100
AcDbLine
 10
273.265534
 20
404.859226
 30
0.0
 11
273.265534
 21
347.643829
 31
0.0
  0
LINE
  5
73
100
AcDbEntity
  8
0
  6
BYBLOCK
 62
     4
100
AcDbLine
 10
423.265534
 20
384.559226
 30
0.0
 11
423.265534
 21
347.643829
 31
0.0
  0
LINE
  5
74
100
AcDbEntity
  8
0
  6
BYBLOCK
 62
     4
100
AcDbLine
 10
276.265534
 20
350.143829
 30
0.0
 11
420.265534
 21
350.143829
 31
0.0
  0
SOLID
  5
75
100
AcDbEntity
  8
0
  6
BYBLOCK
 62
     4
100
AcDbTrace
 10
276.265534
 20
350.643829
 30
0.0
 11
276.265534
 21
349.643829
 31
0.0
 12
273.265534
 22
350.143829
 32
0.0
 13
273.265534
 23
350.143829
 33
0.0
  0
SOLID
  5
76
100
AcDbEntity
  8
0
  6
BYBLOCK
 62
     4
100
AcDbTrace
 10
420.265534
 20
350.643829
 30
0.0
 11
420.265534
 21
349.643829
 31
0.0
 12
423.265534
 22
350.143829
 32
0.0
 13
423.265534
 23
350.143829
 33
0.0
  0
MTEXT
  5
77
100
AcDbEntity
  8
0
  6
BYBLOCK
 62
     2
100
AcDbMText
 10
348.265534
 20
353.143829
 30
0.0
 40
3.0
 41
0.0
 71
     5
 72
     1
  1
\A1;A=150.00
  0
POINT
  5
78
100
AcDbEntity
  8
DEFPOINTS
  6
BYBLOCK
 62
     0
100
AcDbPoint
 10
273.265534
 20
405.859226
 30
0.0
  0
POINT
  5
79
100
AcDbEntity
  8
DEFPOINTS
  6
BYBLOCK
 62
     0
100
AcDbPoint
 10
423.265534
 20
385.559226
 30
0.0
  0
POINT
  5
7A
100
AcDbEntity
  8
DEFPOINTS
  6
BYBLOCK
 62
     0
100
AcDbPoint
 10
423.265534
 20
350.143829
 30
0.0
  0
ENDBLK
  5
7C
100
AcDbEntity
  8
0
100
AcDbBlockEnd
  0
BLOCK
  5
6E
100
AcDbEntity
  8
0
100
AcDbBlockBegin
  2
*D8
 70
     1
 10
0.0
 20
0.0
 30
0.0
  3
*D8
  1

  0
LINE
  5
65
100
AcDbEntity
  8
0
  6
BYBLOCK
 62
     4
100
AcDbLine
 10
573.265534
 20
404.859226
 30
0.0
 11
573.265534
 21
347.643829
 31
0.0
  0
LINE
  5
66
100
AcDbEntity
  8
0
  6
BYBLOCK
 62
     4
100
AcDbLine
 10
426.265534
 20
350.143829
 30
0.0
 11
570.265534
 21
350.143829
 31
0.0
  0
SOLID
  5
67
100
AcDbEntity
  8
0
  6
BYBLOCK
 62
     4
100
AcDbTrace
 10
426.265534
 20
350.643829
 30
0.0
 11
426.265534
 21
349.643829
 31
0.0
 12
423.265534
 22
350.143829
 32
0.0
 13
423.265534
 23
350.143829
 33
0.0
  0
SOLID
  5
68
100
AcDbEntity
  8
0
  6
BYBLOCK
 62
     4
100
AcDbTrace
 10
570.265534
 20
350.643829
 30
0.0
 11
570.265534
 21
349.643829
 31
0.0
 12
573.265534
 22
350.143829
 32
0.0
 13
573.265534
 23
350.143829
 33
0.0
  0
MTEXT
  5
69
100
AcDbEntity
  8
0
  6
BYBLOCK
 62
     2
100
AcDbMText
 10
498.265534
 20
353.143829
 30
0.0
 40
3.0
 41
0.0
 71
     5
 72
     1
  1
\A1;A=150.00
  0
POINT
  5
6A
100
AcDbEntity
  8
DEFPOINTS
  6
BYBLOCK
 62
     0
100
AcDbPoint
 10
423.265534
 20
385.559226
 30
0.0
  0
POINT
  5
6C
100
AcDbEntity
  8
DEFPOINTS
  6
BYBLOCK
 62
     0
100
AcDbPoint
 10
573.265534
 20
405.859226
 30
0.0
  0
POINT
  5
6D
100
AcDbEntity
  8
DEFPOINTS
  6
BYBLOCK
 62
     0
100
AcDbPoint
 10
573.265534
 20
350.143829
 30
0.0
  0
ENDBLK
  5
6F
100
AcDbEntity
  8
0
100
AcDbBlockEnd
  0
ENDSEC
  0
SECTION
  2
ENTITIES
  0
HATCH
  5
20
100
AcDbEntity
  8
HATCH
100
AcDbHatch
 10
0.0
 20
0.0
 30
0.0
210
0.0
220
0.0
230
1.0
  2
_U
 70
     0
 71
     1
 91
       14
 92
        7
 72
     1
 73
     1
 93
       39
 10
605.2655344179457
 20
278.0138856722446
 42
0.0
 10
603.2655344179456
 20
280.0138856722446
 42
0.0
 10
600.2655344179457
 20
280.0138856722446
 42
0.0
 10
600.2655344179457
 20
276.0138856722448
 42
-1.0
 10
592.2655344179457
 20
276.0138856722448
 42
0.0
 10
592.2655344179457
 20
280.0138856722446
 42
0.0
 10
576.2655344179457
 20
280.0138856722446
 42
0.0
 10
576.2655344179457
 20
263.0138856722444
 42
-0.4142135623730951
 10
573.2655344179456
 20
260.0138856722444
 42
0.0
 10
501.2655344179457
 20
260.0138856722444
 42
0.0
 10
501.2655344179457
 20
245.0138856722444
 42
-0.4142135623731006
 10
498.2655344179456
 20
242.0138856722444
 42
0.0
 10
427.2655344179456
 20
242.0138856722444
 42
0.0
 10
427.2655344179456
 20
230.0138856722444
 42
0.0
 10
432.2655344179455
 20
230.0138856722444
 42
0.0
 10
433.2655344179454
 20
230.0138856722444
 42
0.0
 10
433.2655344179455
 20
229.0138856722444
 42
0.0
 10
433.2655344179455
 20
220.5138856722443
 42
0.0
 10
433.7655344179453
 20
220.0138856722447
 42
0.0
 10
446.2655344179457
 20
220.0138856722447
 42
0.0
 10
446.2655344179457
 20
227.3138856722446
 42
0.0
 10
446.2655344179457
 20
229.8138856722445
 42
0.0
 10
446.9655344179456
 20
229.8138856722445
 42
0.0
 10
446.9655344179456
 20
231.3138856722444
 42
0.0
 10
449.2655344179456
 20
232.6417912913806
 42
0.0
 10
451.5655344179457
 20
231.3138856722445
 42
0.0
 10
451.5655344179456
 20
229.8138856722445
 42
0.0
 10
452.2655344179456
 20
229.8138856722444
 42
0.0
 10
452.2655344179456
 20
227.3138856722447
 42
0.0
 10
452.2655344179456
 20
220.0138856722448
 42
0.0
 10
549.2655344179456
 20
220.0138856722446
 42
0.0
 10
549.2655344179455
 20
220.3138856722445
 42
0.0
 10
549.9655344179457
 20
221.0138856722446
 42
0.0
 10
592.2655344179457
 20
221.0138856722446
 42
0.0
 10
592.2655344179457
 20
224.0138856722445
 42
-1.0
 10
600.2655344179457
 20
224.0138856722445
 42
0.0
 10
600.2655344179457
 20
220.0138856722446
 42
0.0
 10
603.2655344179456
 20
220.0138856722445
 42
0.0
 10
605.2655344179457
 20
222.0138856722446
 42
0.0
 97
       36
330
410
330
8D
330
271
330
272
330
270
330
49
330
47
330
45
330
43
330
41
330
4D
330
3E6
330
405
330
402
330
401
330
407
330
3F7
330
3DB
330
2A4
330
28E
330
29A
330
28F
330
298
330
297
330
291
330
290
330
2A5
330
28D
330
3CE
330
3CD
330
3D3
330
267
330
269
330
268
330
40F
330
413
 92
        7
 72
     1
 73
     1
 93
       12
 10
498.2655344179457
 20
266.0138856722444
 42
0.0
 10
570.2655344179456
 20
266.0138856722444
 42
0.0
 10
570.2655344179456
 20
280.0138856722446
 42
0.0
 10
432.7655344179456
 20
280.0138856722446
 42
0.0
 10
432.7655344179458
 20
275.0138856722447
 42
0.0
 10
426.2655344179457
 20
275.0138856722447
 42
0.0
 10
426.2655344179457
 20
263.0138856722444
 42
-0.4142135623730951
 10
423.2655344179456
 20
260.0138856722444
 42
0.0
 10
423.2655344179456
 20
249.0138856722444
 42
-0.1826758136815969
 10
425.9112857290102
 20
248.0138856722445
 42
0.0
 10
495.2655344179456
 20
248.0138856722445
 42
0.0
 10
495.2655344179457
 20
263.0138856722444
 42
-0.4142135623731119
 97
       12
330
46
330
4A
330
8D
330
36
330
37
330
53
330
51
330
416
330
4E
330
4C
330
44
330
3F
 92
        7
 72
     0
 73
     1
 93
        4
 10
423.2655344179456
 20
260.0138856722444
 10
352.2655344179456
 20
260.0138856722443
 10
352.2655344179456
 20
249.0138856722444
 10
423.2655344179456
 20
249.0138856722444
 97
        4
330
5D
330
85
330
8C
330
416
 92
        7
 72
     0
 73
     1
 93
        6
 10
420.2655344179457
 20
275.0138856722447
 10
413.7655344179457
 20
275.0138856722447
 10
413.7655344179457
 20
280.0138856722446
 10
276.2655344179456
 20
280.0138856722446
 10
276.2655344179456
 20
266.0138856722445
 10
420.2655344179458
 20
266.0138856722445
 97
        6
330
37
330
35
330
8D
330
5B
330
5C
330
54
 92
        7
 72
     1
 73
     1
 93
       39
 10
419.2655344179457
 20
241.0138856722444
 42
0.0
 10
348.2655344179456
 20
241.0138856722444
 42
-0.4142135623730951
 10
344.2655344179456
 20
245.0138856722444
 42
0.0
 10
344.2655344179456
 20
260.0138856722444
 42
0.0
 10
273.2655344179456
 20
260.0138856722444
 42
-0.4142135623730951
 10
270.2655344179456
 20
263.0138856722445
 42
0.0
 10
270.2655344179456
 20
280.0138856722446
 42
0.0
 10
254.2655344179457
 20
280.0138856722446
 42
0.0
 10
254.2655344179456
 20
276.0138856722447
 42
-1.0
 10
246.2655344179456
 20
276.0138856722448
 42
0.0
 10
246.2655344179456
 20
280.0138856722446
 42
0.0
 10
243.2655344179456
 20
280.0138856722446
 42
0.0
 10
241.2655344179456
 20
278.0138856722446
 42
0.0
 10
241.2655344179456
 20
222.0138856722446
 42
0.0
 10
243.2655344179456
 20
220.0138856722447
 42
0.0
 10
246.2655344179456
 20
220.0138856722447
 42
0.0
 10
246.2655344179456
 20
224.0138856722445
 42
-1.0
 10
254.2655344179456
 20
224.0138856722445
 42
0.0
 10
254.2655344179456
 20
221.0138856722446
 42
0.0
 10
296.5655344179456
 20
221.0138856722446
 42
0.0
 10
297.2655344179456
 20
220.3138856722446
 42
0.0
 10
297.2655344179456
 20
220.0138856722447
 42
0.0
 10
394.2655344179456
 20
220.0138856722447
 42
0.0
 10
394.2655344179456
 20
227.3138856722446
 42
0.0
 10
394.2655344179456
 20
229.8138856722445
 42
0.0
 10
394.9655344179456
 20
229.8138856722445
 42
0.0
 10
394.9655344179457
 20
231.3138856722445
 42
0.0
 10
397.2655344179456
 20
232.6417912913806
 42
0.0
 10
399.5655344179456
 20
231.3138856722445
 42
0.0
 10
399.5655344179457
 20
229.8138856722445
 42
0.0
 10
400.2655344179457
 20
229.8138856722445
 42
0.0
 10
400.2655344179457
 20
227.3138856722447
 42
0.0
 10
400.2655344179457
 20
220.0138856722447
 42
0.0
 10
412.7655344179459
 20
220.0138856722447
 42
0.0
 10
413.2655344179457
 20
220.5138856722443
 42
0.0
 10
413.2655344179457
 20
229.0138856722445
 42
0.0
 10
413.2655344179458
 20
230.0138856722445
 42
0.0
 10
414.2655344179457
 20
230.0138856722445
 42
0.0
 10
419.2655344179456
 20
230.0138856722445
 42
0.0
 97
       35
330
84
330
87
330
86
330
58
330
57
330
5A
330
8D
330
25E
330
260
330
25F
330
411
330
414
330
412
330
415
330
256
330
257
330
255
330
338
330
32D
330
32E
330
28A
330
275
330
27F
330
276
330
27C
330
27D
330
274
330
273
330
289
330
3F6
330
406
330
3FF
330
400
330
405
330
3E2
 92
       23
 72
     0
 73
     1
 93
        4
 10
264.4066524304883
 20
221.0138856722446
 10
254.2655344179456
 20
221.0138856722446
 10
254.2655344179456
 20
220.3138856722446
 10
265.1066524304885
 20
220.3138856722446
 97
        4
330
338
330
255
330
32C
330
319
 92
        7
 72
     0
 73
     1
 93
        4
 10
265.1066524304886
 20
220.3138856722446
 10
254.2655344179456
 20
220.3138856722445
 10
254.2655344179456
 20
220.0138856722446
 10
265.4066524304886
 20
220.0138856722446
 97
        4
330
32C
330
255
330
415
330
324
 92
       23
 72
     0
 73
     1
 93
        4
 10
273.2655344179456
 20
221.0138856722446
 10
264.4066524304885
 20
221.0138856722446
 10
265.1066524304885
 20
220.3138856722446
 10
273.2655344179456
 20
220.3138856722445
 97
        4
330
338
330
319
330
32C
330
3E
 92
        7
 72
     0
 73
     1
 93
        4
 10
273.2655344179456
 20
220.3138856722445
 10
265.1066524304888
 20
220.3138856722445
 10
265.4066524304887
 20
220.0138856722447
 10
273.2655344179456
 20
220.0138856722446
 97
        4
330
32C
330
324
330
415
330
3E
 92
       23
 72
     0
 73
     1
 93
        4
 10
282.1244164054028
 20
221.0138856722446
 10
273.2655344179456
 20
221.0138856722446
 10
273.2655344179456
 20
220.3138856722446
 10
281.4244164054027
 20
220.3138856722446
 97
        4
330
338
330
3E
330
32C
330
31A
 92
        7
 72
     0
 73
     1
 93
        4
 10
281.4244164054027
 20
220.3138856722446
 10
273.2655344179456
 20
220.3138856722445
 10
273.2655344179456
 20
220.0138856722446
 10
281.1244164054028
 20
220.0138856722447
 97
        4
330
32C
330
3E
330
415
330
326
 92
       22
 72
     0
 73
     1
 93
        4
 10
296.5655344179456
 20
221.0138856722446
 10
282.1244164054028
 20
221.0138856722446
 10
281.4244164054027
 20
220.3138856722446
 10
297.2655344179456
 20
220.3138856722446
 97
        4
330
338
330
31A
330
32C
330
32D
 92
       22
 72
     0
 73
     1
 93
        4
 10
297.2655344179457
 20
220.3138856722446
 10
281.4244164054027
 20
220.3138856722446
 10
281.1244164054027
 20
220.0138856722447
 10
297.2655344179456
 20
220.0138856722447
 97
        4
330
32C
330
326
330
415
330
32E
 92
       24
 93
        4
 72
     1
 10
583.516704
 20
241.254343
 11
598.059561
 21
241.254343
 72
     1
 10
598.059561
 20
241.254343
 11
598.059561
 21
244.254343
 72
     1
 10
598.059561
 20
244.254343
 11
583.516704
 21
244.254343
 72
     1
 10
583.516704
 20
244.254343
 11
583.516704
 21
241.254343
 97
        1
330
306
 75
     0
 76
     0
 52
45.0
 41
6.0
 77
     0
 78
     1
 53
45.0
 43
0.0
 44
0.0
 45
-4.242640687119284
 46
4.242640687119285
 79
     0
 47
0.071897
 98
       13
 10
551.908477
 20
236.619641
 10
475.158768
 20
263.918631
 10
410.180486
 20
256.387875
 10
396.525631
 20
269.096026
 10
389.462774
 20
238.031657
 10
258.983671
 20
220.643108
 10
257.904787
 20
220.139826
 10
268.909401
 20
220.715005
 10
267.255111
 20
220.139826
 10
278.403579
 20
220.571211
 10
277.468546
 20
220.067929
 10
284.804955
 20
220.715005
 10
284.013773
 20
220.139826
  0
HATCH
  5
21
100
AcDbEntity
  8
HATCH
100
AcDbHatch
 10
0.0
 20
0.0
 30
0.0
210
0.0
220
0.0
230
1.0
  2
_U
 70
     0
 71
     0
 91
        8
 92
        7
 72
     0
 73
     1
 93
        4
 10
565.1066524304885
 20
220.3138856722446
 10
549.2655344179456
 20
220.3138856722446
 10
549.2655344179456
 20
220.0138856722446
 10
565.4066524304886
 20
220.0138856722446
 97
        0
 92
        7
 72
     0
 73
     1
 93
        4
 10
564.4066524304884
 20
221.0138856722446
 10
549.9655344179457
 20
221.0138856722446
 10
549.2655344179455
 20
220.3138856722446
 10
565.1066524304885
 20
220.3138856722446
 97
        0
 92
        7
 72
     0
 73
     1
 93
        4
 10
573.2655344179456
 20
221.0138856722446
 10
564.4066524304885
 20
221.0138856722446
 10
565.1066524304886
 20
220.3138856722446
 10
573.2655344179455
 20
220.3138856722446
 97
        0
 92
        7
 72
     0
 73
     1
 93
        4
 10
573.2655344179456
 20
220.3138856722446
 10
565.1066524304885
 20
220.3138856722446
 10
565.4066524304886
 20
220.0138856722446
 10
573.2655344179456
 20
220.0138856722447
 97
        0
 92
        7
 72
     0
 73
     1
 93
        4
 10
582.1244164054029
 20
221.0138856722446
 10
573.2655344179456
 20
221.0138856722446
 10
573.2655344179457
 20
220.3138856722446
 10
581.4244164054026
 20
220.3138856722445
 97
        0
 92
        7
 72
     0
 73
     1
 93
        4
 10
581.4244164054027
 20
220.3138856722446
 10
573.2655344179455
 20
220.3138856722445
 10
573.2655344179454
 20
220.0138856722446
 10
581.1244164054028
 20
220.0138856722446
 97
        0
 92
        7
 72
     0
 73
     1
 93
        4
 10
592.2655344179457
 20
221.0138856722446
 10
582.1244164054029
 20
221.0138856722446
 10
581.4244164054027
 20
220.3138856722446
 10
592.2655344179457
 20
220.3138856722446
 97
        0
 92
        7
 72
     0
 73
     1
 93
        4
 10
592.2655344179457
 20
220.3138856722446
 10
581.4244164054027
 20
220.3138856722446
 10
581.1244164054028
 20
220.0138856722447
 10
592.2655344179457
 20
220.0138856722446
 97
        0
 75
     0
 76
     0
 52
45.0
 41
6.0
 77
     0
 78
     1
 53
45.0
 43
0.0
 44
0.0
 45
-4.242640687119284
 46
4.242640687119285
 79
     0
 47
0.470672
 98
        8
 10
563.793295
 20
220.265942
 10
563.175049
 20
220.659215
 10
565.872849
 20
220.546851
 10
565.929052
 20
220.265942
 10
575.764779
 20
220.603033
 10
575.596167
 20
220.153578
 10
587.904874
 20
220.659215
 10
587.399037
 20
220.153578
  0
HATCH
  5
22
100
AcDbEntity
  8
HATCH
100
AcDbHatch
 10
0.0
 20
0.0
 30
0.0
210
0.0
220
0.0
230
1.0
  2
_U
 70
     0
 71
     1
 91
        2
 92
        7
 72
     0
 73
     1
 93
        4
 10
698.2119788178306
 20
414.5592260810631
 10
695.2119788178308
 20
414.559226081063
 10
695.2119788178306
 20
402.5592260810631
 10
698.2119788178307
 20
402.559226081063
 97
        4
330
1E2
330
1F2
330
1F0
330
1FA
 92
        7
 72
     0
 73
     1
 93
        4
 10
698.2119788178305
 20
450.559226081063
 10
698.2119788178303
 20
496.559226081063
 10
695.2119788178304
 20
496.5592260810631
 10
695.2119788178305
 20
450.5592260810631
 97
        4
330
1EC
330
1F2
330
1E3
330
1FA
 75
     0
 76
     0
 52
135.0
 41
0.8
 77
     0
 78
     1
 53
135.0
 43
25.0
 44
0.0
 45
-0.5656854249492382
 46
-0.565685424949238
 79
     0
 47
0.199222
 98
        2
 10
696.997285
 20
411.947038
 10
696.797985
 20
451.791469
  0
HATCH
  5
23
100
AcDbEntity
  8
HATCH
100
AcDbHatch
 10
0.0
 20
0.0
 30
0.0
210
0.0
220
0.0
230
1.0
  2
_U
 70
     0
 71
     1
 91
        2
 92
        7
 72
     0
 73
     1
 93
       11
 10
549.9655344179457
 20
220.0138856722446
 10
549.2655344179456
 20
219.3138856722447
 10
549.2655344179456
 20
213.7138856722446
 10
549.9655344179457
 20
213.0138856722445
 10
552.7655344179455
 20
213.0138856722445
 10
553.7655344179455
 20
214.0138856722444
 10
565.7655344179453
 20
214.0138856722446
 10
566.765534417945
 20
213.0138856722445
 10
569.7655344179455
 20
213.0138856722445
 10
569.7655344179455
 20
215.6550036847878
 10
565.4066524304885
 20
220.0138856722446
 97
       10
330
28D
330
3CF
330
3D4
330
3D0
330
3D7
330
232
330
234
330
233
330
353
330
355
 92
        7
 72
     0
 73
     1
 93
       11
 10
581.1244164054027
 20
220.0138856722446
 10
576.7655344179457
 20
215.6550036847876
 10
576.7655344179456
 20
213.0138856722445
 10
579.7655344179462
 20
213.0138856722445
 10
580.7655344179461
 20
214.0138856722445
 10
592.7655344179457
 20
214.0138856722445
 10
593.7655344179455
 20
213.0138856722445
 10
596.5655344179456
 20
213.0138856722445
 10
597.2655344179454
 20
213.7138856722443
 10
597.2655344179456
 20
219.3138856722447
 10
596.5655344179457
 20
220.0138856722446
 97
       10
330
3CA
330
28D
330
357
330
352
330
34B
330
236
330
237
330
235
330
3CB
330
3CC
 75
     0
 76
     0
 52
135.0
 41
1.5
 77
     0
 78
     1
 53
135.0
 43
25.0
 44
0.0
 45
-1.060660171779821
 46
-1.060660171779821
 79
     0
 47
0.115552
 98
        2
 10
553.624371
 20
217.373718
 10
582.870576
 20
217.258166
  0
HATCH
  5
24
100
AcDbEntity
  8
HATCH
100
AcDbHatch
 10
0.0
 20
0.0
 30
0.0
210
0.0
220
0.0
230
1.0
  2
_U
 70
     0
 71
     1
 91
        2
 92
        7
 72
     0
 73
     1
 93
        4
 10
405.2655344179457
 20
280.0138856722446
 10
405.2655344179457
 20
283.0138856722447
 10
291.2655344179457
 20
283.0138856722447
 10
291.2655344179457
 20
280.0138856722446
 97
        4
330
409
330
61
330
8D
330
32
 92
        7
 72
     0
 73
     1
 93
        4
 10
255.2655344179456
 20
283.0138856722448
 10
243.2655344179456
 20
283.0138856722447
 10
243.2655344179456
 20
280.0138856722446
 10
255.2655344179456
 20
280.0138856722446
 97
        4
330
409
330
40E
330
8D
330
60
 75
     0
 76
     0
 52
135.0
 41
0.8
 77
     0
 78
     1
 53
135.0
 43
-50.0
 44
0.0
 45
-0.5656854249492382
 46
-0.565685424949238
 79
     0
 47
0.220305
 98
        2
 10
352.526243
 20
280.991722
 10
268.997759
 20
281.652638
  0
CIRCLE
  5
25
100
AcDbEntity
  8
M03
100
AcDbCircle
 10
348.265534
 20
432.559226
 30
0.0
 40
4.0
  0
CIRCLE
  5
28
100
AcDbEntity
  8
M03
100
AcDbCircle
 10
498.265534
 20
432.559226
 30
0.0
 40
3.0
  0
LINE
  5
29
100
AcDbEntity
  8
M03
100
AcDbLine
 10
273.265534
 20
435.559226
 30
0.0
 11
573.265534
 21
435.559226
 31
0.0
  0
LINE
  5
2A
100
AcDbEntity
  8
M03
100
AcDbLine
 10
273.265534
 20
429.559226
 30
0.0
 11
573.265534
 21
429.559226
 31
0.0
  0
CIRCLE
  5
2B
100
AcDbEntity
  8
M03
100
AcDbCircle
 10
423.265534
 20
432.559226
 30
0.0
 40
4.0
  0
HATCH
  5
2C
100
AcDbEntity
  8
HATCH
100
AcDbHatch
 10
0.0
 20
0.0
 30
0.0
210
0.0
220
0.0
230
1.0
  2
_U
 70
     0
 71
     0
 91
        7
 92
        7
 72
     1
 73
     1
 93
       28
 10
756.2119788178302
 20
400.559226081063
 42
0.0
 10
758.2119788178304
 20
402.5592260810632
 42
0.0
 10
758.2119788178304
 20
405.5592260810631
 42
0.0
 10
754.2119788178301
 20
405.5592260810631
 42
-0.4142135623730951
 10
750.2119788178301
 20
409.5592260810631
 42
-0.4142135623730951
 10
754.2119788178301
 20
413.559226081063
 42
0.0
 10
758.2119788178304
 20
413.559226081063
 42
0.0
 10
758.2119788178304
 20
422.0592260810629
 42
0.0
 10
757.7119788178306
 20
422.5592260810631
 42
0.0
 10
749.2119788178304
 20
422.5592260810631
 42
0.0
 10
748.2119788178303
 20
422.5592260810633
 42
0.0
 10
748.2119788178303
 20
423.5592260810632
 42
0.0
 10
748.2119788178303
 20
428.5592260810631
 42
0.0
 10
737.2119788178301
 20
428.5592260810631
 42
0.0
 10
715.2119788178302
 20
428.5592260810631
 42
-0.1826758136816001
 10
712.5662275067656
 20
429.559226081063
 42
0.0
 10
703.2119788178304
 20
429.559226081063
 42
0.0
 10
703.2119788178304
 20
423.7592260810631
 42
0.0
 10
703.2119788178304
 20
423.0592260810631
 42
0.0
 10
702.5119788178304
 20
423.0592260810631
 42
0.0
 10
698.2119788178306
 20
423.0592260810631
 42
0.0
 10
698.2119788178306
 20
413.559226081063
 42
0.0
 10
702.2119788178302
 20
413.559226081063
 42
-0.4142135623730951
 10
706.2119788178302
 20
409.5592260810631
 42
-0.4142135623730951
 10
702.2119788178302
 20
405.5592260810631
 42
0.0
 10
698.2119788178306
 20
405.5592260810631
 42
0.0
 10
698.2119788178306
 20
402.5592260810628
 42
0.0
 10
700.2119788178304
 20
400.559226081063
 42
0.0
 97
        0
 92
        7
 72
     1
 73
     1
 93
        4
 10
719.2119788178302
 20
432.5592260810631
 42
0.0
 10
718.2119788178302
 20
432.5592260810631
 42
-0.4142135623730951
 10
715.2119788178302
 20
429.559226081063
 42
0.0
 10
712.5662275067656
 20
429.559226081063
 42
0.6457513110645926
 97
        0
 92
        7
 72
     1
 73
     1
 93
        4
 10
737.2119788178301
 20
428.5592260810631
 42
-0.4142135623730951
 10
733.2119788178301
 20
432.5592260810631
 42
0.0
 10
719.2119788178302
 20
432.5592260810631
 42
-0.4142135623730951
 10
715.2119788178302
 20
428.5592260810631
 42
0.0
 97
        0
 92
        7
 72
     1
 73
     1
 93
        4
 10
733.2119788178301
 20
432.5592260810632
 42
-0.4142135623730909
 10
737.2119788178301
 20
436.5592260810631
 42
0.0
 10
715.2119788178302
 20
436.5592260810631
 42
-0.4142135623730951
 10
719.2119788178302
 20
432.5592260810631
 42
0.0
 97
        0
 92
        7
 72
     1
 73
     1
 93
        4
 10
718.2119788178302
 20
432.5592260810631
 42
0.0
 10
719.2119788178302
 20
432.5592260810631
 42
0.6457513110645926
 10
712.5662275067656
 20
435.5592260810631
 42
0.0
 10
715.2119788178302
 20
435.5592260810631
 42
-0.4142135623730951
 97
        0
 92
        7
 72
     1
 73
     1
 93
       30
 10
737.2119788178301
 20
436.5592260810631
 42
0.0
 10
748.2119788178302
 20
436.559226081063
 42
0.0
 10
748.2119788178303
 20
441.559226081063
 42
0.0
 10
748.2119788178303
 20
442.5592260810629
 42
0.0
 10
749.2119788178304
 20
442.5592260810629
 42
0.0
 10
757.7119788178304
 20
442.5592260810629
 42
0.0
 10
758.2119788178304
 20
443.0592260810631
 42
0.0
 10
758.2119788178304
 20
455.5592260810632
 42
0.0
 10
750.9119788178302
 20
455.5592260810632
 42
0.0
 10
748.4119788178302
 20
455.5592260810631
 42
0.0
 10
748.4119788178302
 20
456.2592260810633
 42
0.0
 10
746.9119788178304
 20
456.2592260810633
 42
0.0
 10
745.5840731986943
 20
458.5592260810632
 42
0.0
 10
746.9119788178302
 20
460.8592260810632
 42
0.0
 10
748.4119788178302
 20
460.8592260810631
 42
0.0
 10
748.4119788178304
 20
461.5592260810633
 42
0.0
 10
750.91197881783
 20
461.5592260810632
 42
0.0
 10
758.2119788178304
 20
461.5592260810633
 42
0.0
 10
758.2119788178301
 20
506.5592260810631
 42
0.0
 10
756.2119788178303
 20
508.5592260810631
 42
0.0
 10
704.2119788178304
 20
508.5592260810631
 42
0.0
 10
704.2119788178301
 20
496.559226081063
 42
0.0
 10
698.2119788178303
 20
496.559226081063
 42
0.0
 10
698.2119788178306
 20
442.0592260810631
 42
0.0
 10
702.5119788178304
 20
442.059226081063
 42
0.0
 10
703.2119788178304
 20
442.059226081063
 42
0.0
 10
703.2119788178304
 20
441.3592260810631
 42
0.0
 10
703.2119788178301
 20
435.5592260810631
 42
0.0
 10
712.5662275067656
 20
435.5592260810631
 42
-0.1826758136816001
 10
715.2119788178302
 20
436.5592260810631
 42
0.0
 97
        0
 92
       24
 93
        4
 72
     1
 10
713.290472
 20
415.402793
 11
727.83333
 21
415.402793
 72
     1
 10
727.83333
 20
415.402793
 11
727.83333
 21
418.402793
 72
     1
 10
727.83333
 20
418.402793
 11
713.290472
 21
418.402793
 72
     1
 10
713.290472
 20
418.402793
 11
713.290472
 21
415.402793
 97
        0
 75
     0
 76
     0
 52
45.0
 41
6.0
 77
     0
 78
     1
 53
45.0
 43
25.0
 44
0.0
 45
-4.242640687119284
 46
4.242640687119285
 79
     0
 47
0.185234
 98
        6
 10
732.143588
 20
406.946795
 10
713.798181
 20
428.989688
 10
722.692925
 20
429.730626
 10
723.434153
 20
434.361487
 10
717.874938
 20
434.731955
 10
728.066831
 20
444.734612
  0
LINE
  5
2D
100
AcDbEntity
  8
M01
100
AcDbLine
 10
715.211979
 20
429.559226
 30
0.0
 11
703.211979
 21
429.559226
 31
0.0
  0
LINE
  5
2F
100
AcDbEntity
  8
M01
100
AcDbLine
 10
715.211979
 20
435.559226
 30
0.0
 11
703.211979
 21
435.559226
 31
0.0
  0
CIRCLE
  5
30
100
AcDbEntity
  8
M01
100
AcDbCircle
 10
715.211979
 20
432.559226
 30
0.0
 40
3.0
  0
HATCH
  5
31
100
AcDbEntity
  8
HATCH
100
AcDbHatch
 10
0.0
 20
0.0
 30
0.0
210
0.0
220
0.0
230
1.0
  2
_U
 70
     0
 71
     1
 91
        2
 92
        7
 72
     0
 73
     1
 93
        4
 10
441.2655344179456
 20
283.0138856722447
 10
441.2655344179456
 20
280.0138856722447
 10
555.2655344179457
 20
280.0138856722447
 10
555.2655344179457
 20
283.0138856722447
 97
        4
330
409
330
34
330
8D
330
39
 92
        7
 72
     0
 73
     1
 93
        4
 10
603.2655344179454
 20
283.0138856722446
 10
591.2655344179456
 20
283.0138856722447
 10
591.2655344179456
 20
280.0138856722446
 10
603.2655344179456
 20
280.0138856722446
 97
        4
330
409
330
38
330
8D
330
40D
 75
     0
 76
     0
 52
135.0
 41
0.8
 77
     0
 78
     1
 53
135.0
 43
45.0
 44
0.0
 45
-0.5656854249492382
 46
-0.565685424949238
 79
     0
 47
0.264436
 98
        2
 10
501.380134
 20
281.897839
 10
555.875268
 20
281.633403
  0
LINE
  5
32
102
{ACAD_REACTORS
330
24
102
}
100
AcDbEntity
  8
M02
100
AcDbLine
 10
405.265534
 20
283.013886
 30
0.0
 11
405.265534
 21
280.013886
 31
0.0
  0
LINE
  5
34
102
{ACAD_REACTORS
330
31
102
}
100
AcDbEntity
  8
M02
100
AcDbLine
 10
441.265534
 20
283.013886
 30
0.0
 11
441.265534
 21
280.013886
 31
0.0
  0
LINE
  5
35
102
{ACAD_REACTORS
330
20
102
}
100
AcDbEntity
  8
M01
100
AcDbLine
 10
413.765534
 20
280.013886
 30
0.0
 11
413.765534
 21
275.013886
 31
0.0
  0
LINE
  5
36
102
{ACAD_REACTORS
330
20
102
}
100
AcDbEntity
  8
M01
100
AcDbLine
 10
432.765534
 20
280.013886
 30
0.0
 11
432.765534
 21
275.013886
 31
0.0
  0
LINE
  5
37
102
{ACAD_REACTORS
330
20
102
}
100
AcDbEntity
  8
M01
100
AcDbLine
 10
432.765534
 20
275.013886
 30
0.0
 11
413.765534
 21
275.013886
 31
0.0
  0
LINE
  5
38
102
{ACAD_REACTORS
330
31
102
}
100
AcDbEntity
  8
M02
100
AcDbLine
 10
591.265534
 20
280.013886
 30
0.0
 11
591.265534
 21
283.013886
 31
0.0
  0
LINE
  5
39
102
{ACAD_REACTORS
330
31
102
}
100
AcDbEntity
  8
M02
100
AcDbLine
 10
555.265534
 20
280.013886
 30
0.0
 11
555.265534
 21
283.013886
 31
0.0
  0
LINE
  5
3A
100
AcDbEntity
  8
CENTRE
100
AcDbLine
 10
490.265534
 20
263.013886
 30
0.0
 11
581.265534
 21
263.013886
 31
0.0
  0
LINE
  5
3D
100
AcDbEntity
  8
CENTRE
100
AcDbLine
 10
573.265534
 20
227.874513
 30
0.0
 11
573.265534
 21
189.652272
 31
0.0
  0
LINE
  5
3E
102
{ACAD_REACTORS
330
20
102
}
100
AcDbEntity
  8
CENTRE
100
AcDbLine
 10
273.265534
 20
227.874513
 30
0.0
 11
273.265534
 21
189.652272
 31
0.0
  0
ARC
  5
3F
102
{ACAD_REACTORS
330
20
102
}
100
AcDbEntity
  8
M01
100
AcDbCircle
 10
498.265534
 20
263.013886
 30
0.0
 40
3.0
100
AcDbArc
 50
90.0
 51
180.0
  0
LINE
  5
40
100
AcDbEntity
  8
M01
100
AcDbLine
 10
498.265534
 20
263.013886
 30
0.0
 11
501.265534
 21
260.013886
 31
0.0
  0
ARC
  5
41
102
{ACAD_REACTORS
330
20
102
}
100
AcDbEntity
  8
M01
100
AcDbCircle
 10
498.265534
 20
245.013886
 30
0.0
 40
3.0
100
AcDbArc
 50
270.0
 51
0.0
  0
LINE
  5
42
100
AcDbEntity
  8
M01
100
AcDbLine
 10
498.265534
 20
245.013886
 30
0.0
 11
495.265534
 21
248.013886
 31
0.0
  0
LINE
  5
43
102
{ACAD_REACTORS
330
20
102
}
100
AcDbEntity
  8
M01
100
AcDbLine
 10
501.265534
 20
260.013886
 30
0.0
 11
501.265534
 21
245.013886
 31
0.0
  0
LINE
  5
44
102
{ACAD_REACTORS
330
20
102
}
100
AcDbEntity
  8
M01
100
AcDbLine
 10
495.265534
 20
248.013886
 30
0.0
 11
495.265534
 21
263.013886
 31
0.0
  0
LINE
  5
45
102
{ACAD_REACTORS
330
20
102
}
100
AcDbEntity
  8
M01
100
AcDbLine
 10
573.265534
 20
260.013886
 30
0.0
 11
501.265534
 21
260.013886
 31
0.0
  0
LINE
  5
46
102
{ACAD_REACTORS
330
20
102
}
100
AcDbEntity
  8
M01
100
AcDbLine
 10
570.265534
 20
266.013886
 30
0.0
 11
498.265534
 21
266.013886
 31
0.0
  0
ARC
  5
47
102
{ACAD_REACTORS
330
20
102
}
100
AcDbEntity
  8
M01
100
AcDbCircle
 10
573.265534
 20
263.013886
 30
0.0
 40
3.0
100
AcDbArc
 50
270.0
 51
0.0
  0
LINE
  5
48
100
AcDbEntity
  8
M01
100
AcDbLine
 10
573.265534
 20
263.013886
 30
0.0
 11
570.265534
 21
266.013886
 31
0.0
  0
LINE
  5
49
102
{ACAD_REACTORS
330
20
102
}
100
AcDbEntity
  8
M01
100
AcDbLine
 10
576.265534
 20
280.013886
 30
0.0
 11
576.265534
 21
263.013886
 31
0.0
  0
LINE
  5
4A
102
{ACAD_REACTORS
330
20
102
}
100
AcDbEntity
  8
M01
100
AcDbLine
 10
570.265534
 20
280.013886
 30
0.0
 11
570.265534
 21
266.013886
 31
0.0
  0
LINE
  5
4B
100
AcDbEntity
  8
M01
100
AcDbLine
 10
423.265534
 20
245.013886
 30
0.0
 11
427.265534
 21
242.013886
 31
0.0
  0
LINE
  5
4C
102
{ACAD_REACTORS
330
20
102
}
100
AcDbEntity
  8
M01
100
AcDbLine
 10
495.265534
 20
248.013886
 30
0.0
 11
425.911286
 21
248.013886
 31
0.0
  0
LINE
  5
4D
102
{ACAD_REACTORS
330
20
102
}
100
AcDbEntity
  8
M01
100
AcDbLine
 10
498.265534
 20
242.013886
 30
0.0
 11
427.265534
 21
242.013886
 31
0.0
  0
ARC
  5
4E
102
{ACAD_REACTORS
330
20
102
}
100
AcDbEntity
  8
M01
100
AcDbCircle
 10
423.265534
 20
245.013886
 30
0.0
 40
4.0
100
AcDbArc
 50
48.590378
 51
90.0
  0
LINE
  5
4F
100
AcDbEntity
  8
CENTRE
100
AcDbLine
 10
498.265534
 20
271.013886
 30
0.0
 11
498.265534
 21
236.013886
 31
0.0
  0
LINE
  5
50
100
AcDbEntity
  8
CENTRE
100
AcDbLine
 10
573.265534
 20
292.825481
 30
0.0
 11
573.265534
 21
255.013886
 31
0.0
  0
ARC
  5
51
102
{ACAD_REACTORS
330
20
102
}
100
AcDbEntity
  8
M01
100
AcDbCircle
 10
423.265534
 20
263.013886
 30
0.0
 40
3.0
100
AcDbArc
 50
270.0
 51
0.0
  0
LINE
  5
52
100
AcDbEntity
  8
M01
100
AcDbLine
 10
423.265534
 20
263.013886
 30
0.0
 11
420.265534
 21
266.013886
 31
0.0
  0
LINE
  5
53
102
{ACAD_REACTORS
330
20
102
}
100
AcDbEntity
  8
M01
100
AcDbLine
 10
426.265534
 20
275.013886
 30
0.0
 11
426.265534
 21
263.013886
 31
0.0
  0
LINE
  5
54
102
{ACAD_REACTORS
330
20
102
}
100
AcDbEntity
  8
M01
100
AcDbLine
 10
420.265534
 20
275.013886
 30
0.0
 11
420.265534
 21
266.013886
 31
0.0
  0
LINE
  5
55
100
AcDbEntity
  8
M01
100
AcDbLine
 10
348.265534
 20
263.013886
 30
0.0
 11
352.265534
 21
260.013886
 31
0.0
  0
LINE
  5
56
100
AcDbEntity
  8
M01
100
AcDbLine
 10
344.265534
 20
260.013886
 30
0.0
 11
348.265534
 21
263.013886
 31
0.0
  0
ARC
  5
57
102
{ACAD_REACTORS
330
20
102
}
100
AcDbEntity
  8
M01
100
AcDbCircle
 10
273.265534
 20
263.013886
 30
0.0
 40
3.0
100
AcDbArc
 50
180.0
 51
270.0
  0
LINE
  5
58
102
{ACAD_REACTORS
330
20
102
}
100
AcDbEntity
  8
M01
100
AcDbLine
 10
344.265534
 20
260.013886
 30
0.0
 11
273.265534
 21
260.013886
 31
0.0
  0
LINE
  5
59
100
AcDbEntity
  8
M01
100
AcDbLine
 10
273.265534
 20
263.013886
 30
0.0
 11
276.265534
 21
266.013886
 31
0.0
  0
LINE
  5
5A
102
{ACAD_REACTORS
330
20
102
}
100
AcDbEntity
  8
M01
100
AcDbLine
 10
270.265534
 20
280.013886
 30
0.0
 11
270.265534
 21
263.013886
 31
0.0
  0
LINE
  5
5B
102
{ACAD_REACTORS
330
20
102
}
100
AcDbEntity
  8
M01
100
AcDbLine
 10
276.265534
 20
280.013886
 30
0.0
 11
276.265534
 21
266.013886
 31
0.0
  0
LINE
  5
5C
102
{ACAD_REACTORS
330
20
102
}
100
AcDbEntity
  8
M01
100
AcDbLine
 10
420.265534
 20
266.013886
 30
0.0
 11
276.265534
 21
266.013886
 31
0.0
  0
LINE
  5
5D
102
{ACAD_REACTORS
330
20
102
}
100
AcDbEntity
  8
M01
100
AcDbLine
 10
423.265534
 20
260.013886
 30
0.0
 11
352.265534
 21
260.013886
 31
0.0
  0
LINE
  5
5E
100
AcDbEntity
  8
CENTRE
100
AcDbLine
 10
348.265534
 20
271.013886
 30
0.0
 11
348.265534
 21
236.013886
 31
0.0
  0
LINE
  5
5F
100
AcDbEntity
  8
CENTRE
100
AcDbLine
 10
431.265534
 20
263.013886
 30
0.0
 11
265.265534
 21
263.013886
 31
0.0
  0
LINE
  5
60
102
{ACAD_REACTORS
330
24
102
}
100
AcDbEntity
  8
M02
100
AcDbLine
 10
255.265534
 20
280.013886
 30
0.0
 11
255.265534
 21
283.013886
 31
0.0
  0
LINE
  5
61
102
{ACAD_REACTORS
330
24
102
}
100
AcDbEntity
  8
M02
100
AcDbLine
 10
291.265534
 20
280.013886
 30
0.0
 11
291.265534
 21
283.013886
 31
0.0
  0
DIMENSION
  5
62
100
AcDbEntity
  8
DIMS
100
AcDbDimension
  2
*D8
 10
573.265534
 20
350.143829
 30
0.0
 11
498.265534
 21
353.143829
 31
0.0
  1
A=<>
  3
DIM1
100
AcDbAlignedDimension
 13
423.265534
 23
385.559226
 33
0.0
 14
573.265534
 24
405.859226
 34
0.0
100
AcDbRotatedDimension
1001
ACAD
1000
DSTYLE
1002
{
1070
    75
1070
     1
1070
   144
1040
1.0
1070
   287
1070
     4
1002
}
  0
DIMENSION
  5
70
100
AcDbEntity
  8
DIMS
100
AcDbDimension
  2
*D7
 10
423.265534
 20
350.143829
 30
0.0
 11
348.265534
 21
353.143829
 31
0.0
  1
A=<>
  3
DIM1
100
AcDbAlignedDimension
 13
273.265534
 23
405.859226
 33
0.0
 14
423.265534
 24
385.559226
 34
0.0
100
AcDbRotatedDimension
1001
ACAD
1000
DSTYLE
1002
{
1070
   144
1040
1.0
1002
}
  0
LINE
  5
7D
100
AcDbEntity
  8
M03
100
AcDbLine
 10
715.211979
 20
428.559226
 30
0.0
 11
737.211979
 21
428.559226
 31
0.0
  0
LINE
  5
7E
100
AcDbEntity
  8
M03
100
AcDbLine
 10
715.211979
 20
436.559226
 30
0.0
 11
737.211979
 21
436.559226
 31
0.0
  0
LINE
  5
7F
100
AcDbEntity
  8
CENTRE
100
AcDbLine
 10
506.265534
 20
245.013886
 30
0.0
 11
340.265534
 21
245.013886
 31
0.0
  0
HATCH
  5
80
100
AcDbEntity
  8
HATCH
100
AcDbHatch
 10
0.0
 20
0.0
 30
0.0
210
0.0
220
0.0
230
1.0
  2
_U
 70
     0
 71
     1
 91
        2
 92
        7
 72
     0
 73
     1
 93
        4
 10
548.2655344179456
 20
220.0138856722446
 10
458.2655344179459
 20
220.0138856722447
 10
458.2655344179458
 20
217.0138856722446
 10
548.2655344179454
 20
217.0138856722446
 97
        4
330
28D
330
3FC
330
3D8
330
3D2
 92
        7
 72
     0
 73
     1
 93
        4
 10
603.2655344179454
 20
217.0138856722446
 10
603.2655344179456
 20
220.0138856722446
 10
598.2655344179456
 20
220.0138856722446
 10
598.2655344179456
 20
217.0138856722446
 97
        4
330
28D
330
3D1
330
3C6
330
40B
 75
     0
 76
     0
 52
135.0
 41
0.8
 77
     0
 78
     1
 53
135.0
 43
72.5
 44
0.0
 45
-0.5656854249492382
 46
-0.565685424949238
 79
     0
 47
0.142626
 98
        2
 10
554.238518
 20
218.451479
 10
608.030818
 20
218.451479
  0
HATCH
  5
81
100
AcDbEntity
  8
HATCH
100
AcDbHatch
 10
0.0
 20
0.0
 30
0.0
210
0.0
220
0.0
230
1.0
  2
_U
 70
     0
 71
     1
 91
        2
 92
        7
 72
     0
 73
     1
 93
        4
 10
243.2655344179456
 20
217.0138856722446
 10
248.2655344179455
 20
217.0138856722446
 10
248.2655344179456
 20
220.0138856722447
 10
243.2655344179456
 20
220.0138856722447
 97
        4
330
415
330
40C
330
40A
330
337
 92
        7
 72
     0
 73
     1
 93
        4
 10
388.2655344179454
 20
220.0138856722447
 10
298.2655344179456
 20
220.0138856722446
 10
298.2655344179456
 20
217.0138856722446
 10
388.2655344179456
 20
217.0138856722446
 97
        4
330
415
330
336
330
30A
330
3DA
 75
     0
 76
     0
 52
135.0
 41
0.8
 77
     0
 78
     1
 53
135.0
 43
-72.5
 44
0.0
 45
-0.5656854249492382
 46
-0.565685424949238
 79
     0
 47
0.174501
 98
        2
 10
244.279629
 20
218.052505
 10
288.097478
 20
218.92501
  0
HATCH
  5
82
100
AcDbEntity
  8
HATCH
100
AcDbHatch
 10
0.0
 20
0.0
 30
0.0
210
0.0
220
0.0
230
1.0
  2
_U
 70
     0
 71
     1
 91
        2
 92
        7
 72
     1
 73
     1
 93
        2
 10
592.2655344179457
 20
276.0138856722448
 42
1.0
 10
600.2655344179457
 20
276.0138856722448
 42
1.0
 97
        1
330
272
 92
        7
 72
     1
 73
     1
 93
        2
 10
592.2655344179457
 20
224.0138856722445
 42
1.0
 10
600.2655344179457
 20
224.0138856722445
 42
1.0
 97
        1
330
269
 75
     0
 76
     0
 52
45.0
 41
0.8
 77
     0
 78
     1
 53
45.0
 43
62.5
 44
0.0
 45
-0.565685424949238
 46
0.565685424949238
 79
     0
 47
0.270666
 98
        2
 10
595.272507
 20
277.269966
 10
597.438727
 20
225.843466
  0
LINE
  5
83
100
AcDbEntity
  8
M01
100
AcDbLine
 10
352.265534
 20
249.013886
 30
0.0
 11
348.265534
 21
245.013886
 31
0.0
  0
LINE
  5
84
102
{ACAD_REACTORS
330
20
102
}
100
AcDbEntity
  8
M01
100
AcDbLine
 10
419.265534
 20
241.013886
 30
0.0
 11
348.265534
 21
241.013886
 31
0.0
  0
LINE
  5
85
102
{ACAD_REACTORS
330
20
102
}
100
AcDbEntity
  8
M01
100
AcDbLine
 10
352.265534
 20
249.013886
 30
0.0
 11
352.265534
 21
260.013886
 31
0.0
  0
LINE
  5
86
102
{ACAD_REACTORS
330
20
102
}
100
AcDbEntity
  8
M01
100
AcDbLine
 10
344.265534
 20
245.013886
 30
0.0
 11
344.265534
 21
260.013886
 31
0.0
  0
ARC
  5
87
102
{ACAD_REACTORS
330
20
102
}
100
AcDbEntity
  8
M01
100
AcDbCircle
 10
348.265534
 20
245.013886
 30
0.0
 40
4.0
100
AcDbArc
 50
180.0
 51
270.0
  0
LINE
  5
88
100
AcDbEntity
  8
DIMS
 62
     4
100
AcDbLine
 10
715.211979
 20
435.959226
 30
0.0
 11
715.211979
 21
438.259226
 31
0.0
  0
LINE
  5
89
100
AcDbEntity
  8
DIMS
 62
     4
100
AcDbLine
 10
715.211979
 20
429.159226
 30
0.0
 11
715.211979
 21
426.859226
 31
0.0
  0
LINE
  5
8A
100
AcDbEntity
  8
DIMS
 62
     4
100
AcDbLine
 10
715.211979
 20
430.859226
 30
0.0
 11
715.211979
 21
434.259226
 31
0.0
  0
CIRCLE
  5
8B
100
AcDbEntity
  8
M03
100
AcDbCircle
 10
715.211979
 20
432.559226
 30
0.0
 40
4.0
  0
LINE
  5
8C
102
{ACAD_REACTORS
330
20
102
}
100
AcDbEntity
  8
M01
100
AcDbLine
 10
352.265534
 20
249.013886
 30
0.0
 11
423.265534
 21
249.013886
 31
0.0
  0
LINE
  5
8D
102
{ACAD_REACTORS
330
31
330
24
330
20
102
}
100
AcDbEntity
  8
M01
100
AcDbLine
 10
243.265534
 20
280.013886
 30
0.0
 11
603.265534
 21
280.013886
 31
0.0
  0
LINE
  5
8E
100
AcDbEntity
  8
M01
100
AcDbLine
 10
752.199991
 20
566.794894
 30
0.0
 11
754.179699
 21
568.001623
 31
0.0
  0
LINE
  5
8F
100
AcDbEntity
  8
M01
100
AcDbLine
 10
759.933958
 20
578.248121
 30
0.0
 11
759.933958
 21
586.822933
 31
0.0
  0
LINE
  5
90
100
AcDbEntity
  8
M01
100
AcDbLine
 10
755.933958
 20
578.248121
 30
0.0
 11
755.933958
 21
586.822933
 31
0.0
  0
ARC
  5
91
100
AcDbEntity
  8
M01
100
AcDbCircle
 10
747.933958
 20
578.248121
 30
0.0
 40
12.0
100
AcDbArc
 50
301.364349
 51
0.0
  0
ARC
  5
92
100
AcDbEntity
  8
M01
100
AcDbCircle
 10
747.933958
 20
578.248121
 30
0.0
 40
8.0
100
AcDbArc
 50
308.846454
 51
0.0
  0
LINE
  5
93
100
AcDbEntity
  8
M01
100
AcDbLine
 10
738.56863
 20
563.170441
 30
0.0
 11
748.796042
 21
569.404549
 31
0.0
  0
LINE
  5
94
100
AcDbEntity
  8
M01
100
AcDbLine
 10
740.650544
 20
559.754942
 30
0.0
 11
740.974076
 21
559.952151
 31
0.0
  0
LINE
  5
95
100
AcDbEntity
  8
M01
100
AcDbLine
 10
739.211979
 20
552.752534
 30
0.0
 11
739.211979
 21
552.159226
 31
0.0
  0
LINE
  5
96
100
AcDbEntity
  8
M01
100
AcDbLine
 10
735.211979
 20
557.193317
 30
0.0
 11
735.211979
 21
554.467473
 31
0.0
  0
ARC
  5
97
100
AcDbEntity
  8
M01
100
AcDbCircle
 10
742.211979
 20
557.193317
 30
0.0
 40
3.0
100
AcDbArc
 50
121.364349
 51
151.672691
  0
ARC
  5
98
100
AcDbEntity
  8
M01
100
AcDbCircle
 10
742.211979
 20
557.193317
 30
0.0
 40
7.0
100
AcDbArc
 50
121.364349
 51
180.0
  0
ARC
  5
99
100
AcDbEntity
  8
M01
100
AcDbCircle
 10
742.211979
 20
552.159226
 30
0.0
 40
7.0
100
AcDbArc
 50
202.678679
 51
270.0
  0
ARC
  5
9A
100
AcDbEntity
  8
M01
100
AcDbCircle
 10
742.211979
 20
552.159226
 30
0.0
 40
3.0
100
AcDbArc
 50
180.0
 51
270.0
  0
ARC
  5
9B
100
AcDbEntity
  8
M01
100
AcDbCircle
 10
740.951842
 20
570.975701
 30
0.0
 40
12.0
100
AcDbArc
 50
313.586993
 51
0.0
  0
ARC
  5
9C
100
AcDbEntity
  8
M01
100
AcDbCircle
 10
740.951842
 20
570.975701
 30
0.0
 40
8.0
100
AcDbArc
 50
313.586993
 51
0.0
  0
LINE
  5
9D
100
AcDbEntity
  8
M01
100
AcDbLine
 10
742.211979
 20
549.159226
 30
0.0
 11
747.211979
 21
549.159226
 31
0.0
  0
LINE
  5
9E
100
AcDbEntity
  8
M01
100
AcDbLine
 10
743.211979
 20
549.159226
 30
0.0
 11
743.211979
 21
545.159226
 31
0.0
  0
LINE
  5
9F
100
AcDbEntity
  8
M01
100
AcDbLine
 10
747.211979
 20
549.159226
 30
0.0
 11
747.211979
 21
545.159226
 31
0.0
  0
LINE
  5
A0
100
AcDbEntity
  8
M01
100
AcDbLine
 10
699.211979
 20
545.159226
 30
0.0
 11
726.436517
 21
545.159226
 31
0.0
  0
LINE
  5
A1
100
AcDbEntity
  8
M01
100
AcDbLine
 10
726.436517
 20
549.159226
 30
0.0
 11
709.211979
 21
549.159226
 31
0.0
  0
ARC
  5
A2
100
AcDbEntity
  8
M01
100
AcDbCircle
 10
726.436517
 20
557.159226
 30
0.0
 40
12.0
100
AcDbArc
 50
270.0
 51
313.586993
  0
ARC
  5
A3
100
AcDbEntity
  8
M01
100
AcDbCircle
 10
726.436517
 20
557.159226
 30
0.0
 40
8.0
100
AcDbArc
 50
270.0
 51
313.586993
  0
LINE
  5
A4
100
AcDbEntity
  8
M01
100
AcDbLine
 10
713.211979
 20
549.159226
 30
0.0
 11
713.211979
 21
545.159226
 31
0.0
  0
LINE
  5
A5
100
AcDbEntity
  8
M01
100
AcDbLine
 10
709.211979
 20
549.159226
 30
0.0
 11
709.211979
 21
545.159226
 31
0.0
  0
LINE
  5
A6
100
AcDbEntity
  8
M01
100
AcDbLine
 10
749.225303
 20
562.28376
 30
0.0
 11
734.709979
 21
548.467285
 31
0.0
  0
LINE
  5
A7
100
AcDbEntity
  8
M01
100
AcDbLine
 10
746.467483
 20
565.181074
 30
0.0
 11
731.952158
 21
551.364599
 31
0.0
  0
LINE
  5
A8
100
AcDbEntity
  8
M01
100
AcDbLine
 10
752.951842
 20
586.814191
 30
0.0
 11
752.951842
 21
570.975701
 31
0.0
  0
LINE
  5
A9
100
AcDbEntity
  8
M01
100
AcDbLine
 10
748.951842
 20
586.814191
 30
0.0
 11
748.951842
 21
570.975701
 31
0.0
  0
LINE
  5
AA
100
AcDbEntity
  8
M01
100
AcDbLine
 10
748.961979
 20
530.503326
 30
0.0
 11
755.461979
 21
530.503326
 31
0.0
  0
LINE
  5
AB
100
AcDbEntity
  8
M01
100
AcDbLine
 10
748.961979
 20
538.615126
 30
0.0
 11
755.461979
 21
538.615126
 31
0.0
  0
LINE
  5
AC
100
AcDbEntity
  8
M01
100
AcDbLine
 10
748.961979
 20
530.503326
 30
0.0
 11
748.961979
 21
528.559226
 31
0.0
  0
ARC
  5
AD
100
AcDbEntity
  8
M01
100
AcDbCircle
 10
747.711979
 20
532.064576
 30
0.0
 40
2.0
100
AcDbArc
 50
308.682187
 51
0.0
  0
ARC
  5
AE
100
AcDbEntity
  8
M01
100
AcDbCircle
 10
747.711979
 20
537.053876
 30
0.0
 40
2.0
100
AcDbArc
 50
0.0
 51
51.317813
  0
LINE
  5
AF
100
AcDbEntity
  8
M01
100
AcDbLine
 10
748.961979
 20
540.559226
 30
0.0
 11
748.961979
 21
538.615126
 31
0.0
  0
LINE
  5
B0
100
AcDbEntity
  8
M01
100
AcDbLine
 10
749.711979
 20
537.053876
 30
0.0
 11
749.711979
 21
532.064576
 31
0.0
  0
LINE
  5
B1
100
AcDbEntity
  8
M01
100
AcDbLine
 10
755.461979
 20
530.503326
 30
0.0
 11
755.461979
 21
528.559226
 31
0.0
  0
ARC
  5
B2
100
AcDbEntity
  8
M01
100
AcDbCircle
 10
756.711979
 20
532.064576
 30
0.0
 40
2.0
100
AcDbArc
 50
180.0
 51
231.317813
  0
ARC
  5
B3
100
AcDbEntity
  8
M01
100
AcDbCircle
 10
756.711979
 20
537.053876
 30
0.0
 40
2.0
100
AcDbArc
 50
128.682187
 51
180.0
  0
LINE
  5
B4
100
AcDbEntity
  8
M01
100
AcDbLine
 10
755.461979
 20
540.559226
 30
0.0
 11
755.461979
 21
538.615126
 31
0.0
  0
LINE
  5
B5
100
AcDbEntity
  8
M01
100
AcDbLine
 10
754.711979
 20
537.053876
 30
0.0
 11
754.711979
 21
532.064576
 31
0.0
  0
LINE
  5
B6
100
AcDbEntity
  8
DIMS
 62
     4
100
AcDbLine
 10
737.211979
 20
435.959226
 30
0.0
 11
737.211979
 21
438.259226
 31
0.0
  0
LINE
  5
B7
100
AcDbEntity
  8
DIMS
 62
     4
100
AcDbLine
 10
737.211979
 20
429.159226
 30
0.0
 11
737.211979
 21
426.859226
 31
0.0
  0
LINE
  5
B8
100
AcDbEntity
  8
DIMS
 62
     4
100
AcDbLine
 10
737.211979
 20
430.859226
 30
0.0
 11
737.211979
 21
434.259226
 31
0.0
  0
LINE
  5
B9
100
AcDbEntity
  8
DIMS
 62
     4
100
AcDbLine
 10
754.211979
 20
412.959226
 30
0.0
 11
754.211979
 21
415.259226
 31
0.0
  0
LINE
  5
BA
100
AcDbEntity
  8
DIMS
 62
     4
100
AcDbLine
 10
754.211979
 20
406.159226
 30
0.0
 11
754.211979
 21
403.859226
 31
0.0
  0
LINE
  5
BB
100
AcDbEntity
  8
DIMS
 62
     4
100
AcDbLine
 10
757.611979
 20
409.559226
 30
0.0
 11
759.911979
 21
409.559226
 31
0.0
  0
LINE
  5
BC
100
AcDbEntity
  8
DIMS
 62
     4
100
AcDbLine
 10
750.811979
 20
409.559226
 30
0.0
 11
748.511979
 21
409.559226
 31
0.0
  0
LINE
  5
BD
100
AcDbEntity
  8
DIMS
 62
     4
100
AcDbLine
 10
754.211979
 20
407.859226
 30
0.0
 11
754.211979
 21
411.259226
 31
0.0
  0
LINE
  5
BE
100
AcDbEntity
  8
DIMS
 62
     4
100
AcDbLine
 10
752.511979
 20
409.559226
 30
0.0
 11
755.911979
 21
409.559226
 31
0.0
  0
LINE
  5
BF
100
AcDbEntity
  8
DIMS
 62
     4
100
AcDbLine
 10
702.211979
 20
412.959226
 30
0.0
 11
702.211979
 21
415.259226
 31
0.0
  0
LINE
  5
C0
100
AcDbEntity
  8
DIMS
 62
     4
100
AcDbLine
 10
702.211979
 20
406.159226
 30
0.0
 11
702.211979
 21
403.859226
 31
0.0
  0
LINE
  5
C1
100
AcDbEntity
  8
DIMS
 62
     4
100
AcDbLine
 10
705.611979
 20
409.559226
 30
0.0
 11
707.911979
 21
409.559226
 31
0.0
  0
LINE
  5
C2
100
AcDbEntity
  8
DIMS
 62
     4
100
AcDbLine
 10
698.811979
 20
409.559226
 30
0.0
 11
696.511979
 21
409.559226
 31
0.0
  0
LINE
  5
C3
100
AcDbEntity
  8
DIMS
 62
     4
100
AcDbLine
 10
702.211979
 20
407.859226
 30
0.0
 11
702.211979
 21
411.259226
 31
0.0
  0
LINE
  5
C4
100
AcDbEntity
  8
DIMS
 62
     4
100
AcDbLine
 10
700.511979
 20
409.559226
 30
0.0
 11
703.911979
 21
409.559226
 31
0.0
  0
HATCH
  5
C5
100
AcDbEntity
  8
HATCH
100
AcDbHatch
 10
0.0
 20
0.0
 30
0.0
210
0.0
220
0.0
230
1.0
  2
_U
 70
     0
 71
     1
 91
        2
 92
        7
 72
     1
 73
     1
 93
        2
 10
706.2119788178302
 20
409.5592260810631
 42
1.0
 10
698.2119788178302
 20
409.5592260810631
 42
1.0
 97
        1
330
CB
 92
        7
 72
     1
 73
     1
 93
        2
 10
758.2119788178301
 20
409.5592260810631
 42
1.0
 10
750.2119788178301
 20
409.5592260810631
 42
1.0
 97
        1
330
CA
 75
     0
 76
     0
 52
45.0
 41
0.8
 77
     0
 78
     1
 53
45.0
 43
-76.378129
 44
0.0
 45
-0.565685424949238
 46
0.565685424949238
 79
     0
 47
0.095608
 98
        2
 10
702.345327
 20
409.258585
 10
741.369518
 20
410.405882
  0
LINE
  5
C6
100
AcDbEntity
  8
M01
100
AcDbLine
 10
754.211979
 20
405.559226
 30
0.0
 11
758.211979
 21
405.559226
 31
0.0
  0
LINE
  5
C7
100
AcDbEntity
  8
M01
100
AcDbLine
 10
754.211979
 20
413.559226
 30
0.0
 11
758.211979
 21
413.559226
 31
0.0
  0
LINE
  5
C8
100
AcDbEntity
  8
M01
100
AcDbLine
 10
702.211979
 20
405.559226
 30
0.0
 11
698.211979
 21
405.559226
 31
0.0
  0
LINE
  5
C9
100
AcDbEntity
  8
M01
100
AcDbLine
 10
702.211979
 20
413.559226
 30
0.0
 11
698.211979
 21
413.559226
 31
0.0
  0
CIRCLE
  5
CA
102
{ACAD_REACTORS
330
C5
102
}
100
AcDbEntity
  8
M01
100
AcDbCircle
 10
754.211979
 20
409.559226
 30
0.0
 40
4.0
  0
CIRCLE
  5
CB
102
{ACAD_REACTORS
330
C5
102
}
100
AcDbEntity
  8
M01
100
AcDbCircle
 10
702.211979
 20
409.559226
 30
0.0
 40
4.0
  0
HATCH
  5
CC
100
AcDbEntity
  8
HATCH
100
AcDbHatch
 10
0.0
 20
0.0
 30
0.0
210
0.0
220
0.0
230
1.0
  2
_U
 70
     0
 71
     1
 91
        4
 92
        7
 72
     0
 73
     1
 93
        9
 10
764.2119788178303
 20
464.0592260810633
 10
764.2119788178302
 20
465.8592260810634
 10
763.5119788178298
 20
466.5592260810633
 10
758.9119788178303
 20
466.5592260810633
 10
758.2119788178304
 20
465.8592260810634
 10
758.2119788178304
 20
462.2592260810632
 10
760.2119788178302
 20
462.2592260810632
 10
760.2119788178302
 20
463.8092260810633
 10
760.2119788178304
 20
464.0592260810631
 97
        9
330
1C3
330
1C6
330
1C2
330
1F7
330
E3
330
D3
330
E8
330
D6
330
1C5
 92
        7
 72
     1
 73
     1
 93
       16
 10
758.2119788178303
 20
442.5592260810629
 42
0.0
 10
749.2119788178304
 20
442.5592260810629
 42
0.0
 10
748.2119788178303
 20
441.559226081063
 42
0.0
 10
748.2119788178303
 20
436.5592260810632
 42
0.0
 10
766.513193164729
 20
435.600100078959
 42
-0.1092323044357291
 10
769.2119788178302
 20
441.7243774709747
 42
0.0
 10
769.2119788178302
 20
451.8592260810629
 42
0.0
 10
768.5119788178301
 20
452.5592260810632
 42
0.0
 10
767.2119788178301
 20
452.5592260810632
 42
0.0
 10
767.21197881783
 20
452.0592260810631
 42
0.0
 10
764.2119788178302
 20
452.0592260810631
 42
0.0
 10
764.2119788178302
 20
453.0592260810633
 42
0.0
 10
760.2119788178302
 20
453.0592260810633
 42
0.0
 10
760.2119788178302
 20
453.3092260810633
 42
0.0
 10
760.2119788178302
 20
454.8592260810631
 42
0.0
 10
758.2119788178304
 20
454.8592260810632
 42
0.0
 97
       16
330
1B8
330
1BB
330
1B5
330
1B4
330
1C5
330
D7
330
D5
330
D3
330
E2
330
D2
330
1CF
330
1CB
330
1CD
330
1A9
330
1AA
330
1B9
 92
        7
 72
     1
 73
     1
 93
       16
 10
758.2119788178304
 20
402.5592260810631
 42
0.0
 10
758.21197881783
 20
400.559226081063
 42
0.0
 10
758.9119788178302
 20
399.859226081063
 42
0.0
 10
763.5119788178301
 20
399.859226081063
 42
0.0
 10
764.2119788178302
 20
400.5592260810631
 42
0.0
 10
764.2119788178303
 20
413.059226081063
 42
0.0
 10
767.2119788178305
 20
413.0592260810631
 42
0.0
 10
767.2119788178305
 20
412.5592260810631
 42
0.0
 10
768.5119788178305
 20
412.5592260810631
 42
0.0
 10
769.2119788178306
 20
413.2592260810631
 42
0.0
 10
769.2119788178305
 20
423.3940746911512
 42
-0.1092323044357298
 10
766.513193164729
 20
429.5183520831669
 42
0.0
 10
748.2119788178303
 20
428.5592260810632
 42
0.0
 10
748.2119788178303
 20
423.559226081063
 42
0.0
 10
749.2119788178302
 20
422.5592260810631
 42
0.0
 10
758.2119788178304
 20
422.559226081063
 42
0.0
 97
       16
330
1A6
330
1A8
330
1CD
330
1CC
330
1CE
330
1BD
330
140
330
1BF
330
1C1
330
1C0
330
1B2
330
1B3
330
1B1
330
1BA
330
1B7
330
1B9
 92
       24
 93
        4
 72
     1
 10
750.218631
 20
437.880683
 11
764.590059
 21
437.880683
 72
     1
 10
764.590059
 20
437.880683
 11
764.590059
 21
440.880683
 72
     1
 10
764.590059
 20
440.880683
 11
750.218631
 21
440.880683
 72
     1
 10
750.218631
 20
440.880683
 11
750.218631
 21
437.880683
 97
        1
330
19C
 75
     0
 76
     0
 52
135.0
 41
2.5
 77
     0
 78
     1
 53
135.0
 43
-63.378129
 44
0.0
 45
-1.767766952966368
 46
-1.767766952966368
 79
     0
 47
0.115254
 98
        3
 10
761.037986
 20
464.76431
 10
762.882806
 20
442.866133
 10
762.767504
 20
421.77473
  0
LINE
  5
CD
100
AcDbEntity
  8
M04
100
AcDbLine
 10
750.911979
 20
455.559226
 30
0.0
 11
748.411979
 21
455.559226
 31
0.0
  0
LINE
  5
CF
100
AcDbEntity
  8
M04
100
AcDbLine
 10
750.211979
 20
456.259226
 30
0.0
 11
746.911979
 21
456.259226
 31
0.0
  0
LINE
  5
D0
100
AcDbEntity
  8
M04
100
AcDbLine
 10
750.911979
 20
461.559226
 30
0.0
 11
748.411979
 21
461.559226
 31
0.0
  0
LINE
  5
D1
100
AcDbEntity
  8
M04
100
AcDbLine
 10
750.211979
 20
460.859226
 30
0.0
 11
746.911979
 21
460.859226
 31
0.0
  0
LINE
  5
D2
102
{ACAD_REACTORS
330
CC
102
}
100
AcDbEntity
  8
M01
100
AcDbLine
 10
758.211979
 20
455.559226
 30
0.0
 11
758.211979
 21
442.559226
 31
0.0
  0
LINE
  5
D3
102
{ACAD_REACTORS
330
CC
102
}
100
AcDbEntity
  8
M05
100
AcDbLine
 10
760.211979
 20
463.809226
 30
0.0
 11
760.211979
 21
453.309226
 31
0.0
  0
LINE
  5
D5
102
{ACAD_REACTORS
330
CC
102
}
100
AcDbEntity
  8
M04
100
AcDbLine
 10
760.211979
 20
453.309226
 30
0.0
 11
760.211979
 21
453.059226
 31
0.0
  0
LINE
  5
D6
102
{ACAD_REACTORS
330
CC
102
}
100
AcDbEntity
  8
M04
100
AcDbLine
 10
760.211979
 20
464.059226
 30
0.0
 11
764.211979
 21
464.059226
 31
0.0
  0
LINE
  5
D7
102
{ACAD_REACTORS
330
CC
102
}
100
AcDbEntity
  8
M04
100
AcDbLine
 10
760.211979
 20
453.059226
 30
0.0
 11
764.211979
 21
453.059226
 31
0.0
  0
LINE
  5
D8
100
AcDbEntity
  8
M05
100
AcDbLine
 10
759.211979
 20
455.559226
 30
0.0
 11
759.211979
 21
461.559226
 31
0.0
  0
LINE
  5
D9
100
AcDbEntity
  8
M04
100
AcDbLine
 10
746.911979
 20
460.859226
 30
0.0
 11
745.584073
 21
458.559226
 31
0.0
  0
LINE
  5
DA
100
AcDbEntity
  8
M04
100
AcDbLine
 10
746.911979
 20
456.259226
 30
0.0
 11
745.584073
 21
458.559226
 31
0.0
  0
LINE
  5
DB
100
AcDbEntity
  8
M04
100
AcDbLine
 10
746.911979
 20
456.259226
 30
0.0
 11
746.911979
 21
460.859226
 31
0.0
  0
LINE
  5
DC
100
AcDbEntity
  8
M04
100
AcDbLine
 10
748.411979
 20
455.559226
 30
0.0
 11
748.411979
 21
461.559226
 31
0.0
  0
ARC
  5
DD
100
AcDbEntity
  8
M05
100
AcDbCircle
 10
757.685842
 20
458.559226
 30
0.0
 40
5.826136
100
AcDbArc
 50
295.69541
 51
64.30459
  0
LINE
  5
DE
100
AcDbEntity
  8
M05
100
AcDbLine
 10
750.911979
 20
461.559226
 30
0.0
 11
750.211979
 21
460.859226
 31
0.0
  0
LINE
  5
DF
100
AcDbEntity
  8
M05
100
AcDbLine
 10
750.911979
 20
455.559226
 30
0.0
 11
750.211979
 21
456.259226
 31
0.0
  0
LINE
  5
E0
100
AcDbEntity
  8
M05
100
AcDbLine
 10
750.911979
 20
455.559226
 30
0.0
 11
750.911979
 21
461.559226
 31
0.0
  0
LINE
  5
E1
100
AcDbEntity
  8
M05
100
AcDbLine
 10
750.211979
 20
456.259226
 30
0.0
 11
750.211979
 21
460.859226
 31
0.0
  0
LINE
  5
E2
102
{ACAD_REACTORS
330
CC
102
}
100
AcDbEntity
  8
M04
100
AcDbLine
 10
758.211979
 20
454.859226
 30
0.0
 11
760.211979
 21
454.859226
 31
0.0
  0
LINE
  5
E3
102
{ACAD_REACTORS
330
CC
102
}
100
AcDbEntity
  8
M04
100
AcDbLine
 10
758.211979
 20
462.259226
 30
0.0
 11
760.211979
 21
462.259226
 31
0.0
  0
LINE
  5
E4
100
AcDbEntity
  8
M05
100
AcDbLine
 10
750.211979
 20
460.859226
 30
0.0
 11
759.211979
 21
460.859226
 31
0.0
  0
LINE
  5
E5
100
AcDbEntity
  8
M05
100
AcDbLine
 10
750.211979
 20
456.259226
 30
0.0
 11
759.211979
 21
456.259226
 31
0.0
  0
LINE
  5
E6
100
AcDbEntity
  8
M05
100
AcDbLine
 10
750.911979
 20
455.559226
 30
0.0
 11
760.211979
 21
455.559226
 31
0.0
  0
LINE
  5
E7
100
AcDbEntity
  8
M05
100
AcDbLine
 10
750.911979
 20
461.559226
 30
0.0
 11
760.211979
 21
461.559226
 31
0.0
  0
LINE
  5
E8
102
{ACAD_REACTORS
330
CC
102
}
100
AcDbEntity
  8
M04
100
AcDbLine
 10
760.211979
 20
464.059226
 30
0.0
 11
760.211979
 21
463.809226
 31
0.0
  0
LINE
  5
E9
100
AcDbEntity
  8
CENTRE
100
AcDbLine
 10
742.945478
 20
458.559226
 30
0.0
 11
767.858167
 21
458.559226
 31
0.0
  0
DIMENSION
  5
EA
100
AcDbEntity
  8
DIMS
100
AcDbDimension
  2
*D0
 10
663.535814
 20
499.059226
 30
0.0
 11
635.535814
 21
481.273512
 31
0.0
 12
25.0
 22
0.0
 32
0.0
  1
%%c<> H7
  3
DIM1
100
AcDbAlignedDimension
 13
678.211979
 23
507.059226
 33
0.0
 14
678.211979
 24
499.059226
 34
0.0
 50
90.0
100
AcDbRotatedDimension
1001
ACAD
1000
DSTYLE
1002
{
1070
   144
1040
1.0
1002
}
  0
DIMENSION
  5
F8
100
AcDbEntity
  8
DIMS
100
AcDbDimension
  2
*D1
 10
809.527096
 20
452.559226
 30
0.0
 11
781.527096
 21
432.559226
 31
0.0
 12
25.0
 22
0.0
 32
0.0
  1
%%c<> H7
  3
DIM1
100
AcDbAlignedDimension
 13
773.211979
 23
412.559226
 33
0.0
 14
773.211979
 24
452.559226
 34
0.0
 50
90.0
100
AcDbRotatedDimension
1001
ACAD
1000
DSTYLE
1002
{
1070
   144
1040
1.0
1002
}
  0
DIMENSION
  5
105
100
AcDbEntity
  8
DIMS
100
AcDbDimension
  2
*D2
 10
691.211979
 20
362.279548
 30
0.0
 11
655.569122
 21
365.279548
 31
0.0
 12
25.0
 22
0.0
 32
0.0
  1
7.0
  3
DIM1
100
AcDbAlignedDimension
 13
698.211979
 23
402.559226
 33
0.0
 14
691.211979
 24
393.559226
 34
0.0
100
AcDbRotatedDimension
1001
ACAD
1000
DSTYLE
1002
{
1070
   144
1040
1.0
1002
}
  0
DIMENSION
  5
113
100
AcDbEntity
  8
DIMS
100
AcDbDimension
  2
*D3
 10
765.211979
 20
362.279548
 30
0.0
 11
750.854836
 21
365.279548
 31
0.0
 12
25.0
 22
0.0
 32
0.0
  1
7.0
  3
DIM1
100
AcDbAlignedDimension
 13
758.211979
 23
400.559226
 33
0.0
 14
765.211979
 24
382.045835
 34
0.0
100
AcDbRotatedDimension
1001
ACAD
1000
DSTYLE
1002
{
1070
   144
1040
1.0
1002
}
  0
DIMENSION
  5
121
100
AcDbEntity
  8
DIMS
100
AcDbDimension
  2
*D4
 10
758.211979
 20
362.279548
 30
0.0
 11
703.211979
 21
365.279548
 31
0.0
 12
25.0
 22
0.0
 32
0.0
  3
DIM1
100
AcDbAlignedDimension
 13
698.211979
 23
402.559226
 33
0.0
 14
758.211979
 24
400.559226
 34
0.0
100
AcDbRotatedDimension
1001
ACAD
1000
DSTYLE
1002
{
1070
   144
1040
1.0
1002
}
  0
LINE
  5
12E
100
AcDbEntity
  8
M01
100
AcDbLine
 10
747.211979
 20
523.559226
 30
0.0
 11
757.211979
 21
523.559226
 31
0.0
  0
LINE
  5
12F
100
AcDbEntity
  8
M01
100
AcDbLine
 10
700.961979
 20
530.503326
 30
0.0
 11
707.461979
 21
530.503326
 31
0.0
  0
LINE
  5
130
100
AcDbEntity
  8
M01
100
AcDbLine
 10
700.961979
 20
538.615126
 30
0.0
 11
707.461979
 21
538.615126
 31
0.0
  0
LINE
  5
131
100
AcDbEntity
  8
M01
100
AcDbLine
 10
700.961979
 20
530.503326
 30
0.0
 11
700.961979
 21
528.559226
 31
0.0
  0
ARC
  5
132
100
AcDbEntity
  8
M01
100
AcDbCircle
 10
699.711979
 20
532.064576
 30
0.0
 40
2.0
100
AcDbArc
 50
308.682187
 51
0.0
  0
ARC
  5
133
100
AcDbEntity
  8
M01
100
AcDbCircle
 10
699.711979
 20
537.053876
 30
0.0
 40
2.0
100
AcDbArc
 50
0.0
 51
51.317813
  0
LINE
  5
134
100
AcDbEntity
  8
M01
100
AcDbLine
 10
700.961979
 20
540.559226
 30
0.0
 11
700.961979
 21
538.615126
 31
0.0
  0
LINE
  5
135
100
AcDbEntity
  8
M01
100
AcDbLine
 10
701.711979
 20
537.053876
 30
0.0
 11
701.711979
 21
532.064576
 31
0.0
  0
LINE
  5
136
100
AcDbEntity
  8
M01
100
AcDbLine
 10
707.461979
 20
530.503326
 30
0.0
 11
707.461979
 21
528.559226
 31
0.0
  0
ARC
  5
137
100
AcDbEntity
  8
M01
100
AcDbCircle
 10
708.711979
 20
532.064576
 30
0.0
 40
2.0
100
AcDbArc
 50
180.0
 51
231.317813
  0
ARC
  5
138
100
AcDbEntity
  8
M01
100
AcDbCircle
 10
708.711979
 20
537.053876
 30
0.0
 40
2.0
100
AcDbArc
 50
128.682187
 51
180.0
  0
LINE
  5
139
100
AcDbEntity
  8
M01
100
AcDbLine
 10
707.461979
 20
540.559226
 30
0.0
 11
707.461979
 21
538.615126
 31
0.0
  0
LINE
  5
13A
100
AcDbEntity
  8
M01
100
AcDbLine
 10
706.711979
 20
537.053876
 30
0.0
 11
706.711979
 21
532.064576
 31
0.0
  0
LINE
  5
13B
100
AcDbEntity
  8
M01
100
AcDbLine
 10
699.211979
 20
523.559226
 30
0.0
 11
709.211979
 21
523.559226
 31
0.0
  0
LINE
  5
13C
100
AcDbEntity
  8
M01
100
AcDbLine
 10
757.211979
 20
528.559226
 30
0.0
 11
757.211979
 21
507.559226
 31
0.0
  0
LINE
  5
13D
100
AcDbEntity
  8
M01
100
AcDbLine
 10
747.211979
 20
528.559226
 30
0.0
 11
747.211979
 21
508.559226
 31
0.0
  0
LINE
  5
13E
100
AcDbEntity
  8
M01
100
AcDbLine
 10
699.211979
 20
528.559226
 30
0.0
 11
699.211979
 21
507.559226
 31
0.0
  0
LINE
  5
13F
100
AcDbEntity
  8
M01
100
AcDbLine
 10
709.211979
 20
528.559226
 30
0.0
 11
709.211979
 21
508.559226
 31
0.0
  0
LINE
  5
140
102
{ACAD_REACTORS
330
CC
102
}
100
AcDbEntity
  8
M05
100
AcDbLine
 10
758.211979
 20
400.559226
 30
0.0
 11
758.211979
 21
402.559226
 31
0.0
  0
TEXT
  5
141
100
AcDbEntity
  8
TEXT
100
AcDbText
 10
713.790472
 20
415.902793
 30
0.0
 40
2.0
  1
MM010057
 41
0.9
100
AcDbText
  0
HATCH
  5
143
100
AcDbEntity
  8
HATCH
100
AcDbHatch
 10
0.0
 20
0.0
 30
0.0
210
0.0
220
0.0
230
1.0
  2
_U
 70
     0
 71
     1
 91
        1
 92
        7
 72
     0
 73
     1
 93
        4
 10
761.2119788178301
 20
506.5592260810631
 10
758.2119788178301
 20
506.5592260810631
 10
758.2119788178304
 20
467.5592260810633
 10
761.2119788178302
 20
467.5592260810631
 97
        4
330
1EF
330
1F7
330
1C4
330
1F1
 75
     0
 76
     0
 52
135.0
 41
0.8
 77
     0
 78
     1
 53
135.0
 43
-63.378129
 44
0.0
 45
-0.5656854249492382
 46
-0.565685424949238
 79
     0
 47
0.167139
 98
        1
 10
760.107022
 20
494.836786
  0
LINE
  5
144
100
AcDbEntity
  8
M01
100
AcDbLine
 10
749.18089
 20
550.459226
 30
0.0
 11
755.243068
 21
550.459226
 31
0.0
  0
ARC
  5
145
100
AcDbEntity
  8
M01
100
AcDbCircle
 10
755.243068
 20
548.609921
 30
0.0
 40
1.150694
100
AcDbArc
 50
208.592423
 51
331.407577
  0
ARC
  5
146
100
AcDbEntity
  8
M01
100
AcDbCircle
 10
752.211979
 20
551.162004
 30
0.0
 40
3.702778
100
AcDbArc
 50
236.92527
 51
303.07473
  0
ARC
  5
147
100
AcDbEntity
  8
M01
100
AcDbCircle
 10
749.18089
 20
548.609921
 30
0.0
 40
1.150694
100
AcDbArc
 50
208.592423
 51
331.407577
  0
ARC
  5
148
100
AcDbEntity
  8
M01
100
AcDbCircle
 10
755.243068
 20
549.308532
 30
0.0
 40
1.150694
100
AcDbArc
 50
28.592423
 51
151.407577
  0
ARC
  5
149
100
AcDbEntity
  8
M01
100
AcDbCircle
 10
752.211979
 20
546.756448
 30
0.0
 40
3.702778
100
AcDbArc
 50
56.92527
 51
123.07473
  0
LINE
  5
14A
100
AcDbEntity
  8
M01
100
AcDbLine
 10
754.232705
 20
549.859226
 30
0.0
 11
754.232705
 21
548.059226
 31
0.0
  0
LINE
  5
14B
100
AcDbEntity
  8
M01
100
AcDbLine
 10
756.253431
 20
549.859226
 30
0.0
 11
756.253431
 21
548.059226
 31
0.0
  0
ARC
  5
14C
100
AcDbEntity
  8
M01
100
AcDbCircle
 10
749.18089
 20
549.308532
 30
0.0
 40
1.150694
100
AcDbArc
 50
28.592423
 51
151.407577
  0
LINE
  5
14D
100
AcDbEntity
  8
M01
100
AcDbLine
 10
750.191253
 20
549.859226
 30
0.0
 11
750.191253
 21
548.059226
 31
0.0
  0
LINE
  5
14E
100
AcDbEntity
  8
M01
100
AcDbLine
 10
748.170527
 20
549.859226
 30
0.0
 11
748.170527
 21
548.059226
 31
0.0
  0
LINE
  5
14F
100
AcDbEntity
  8
M01
100
AcDbLine
 10
757.211979
 20
545.159226
 30
0.0
 11
757.211979
 21
546.659226
 31
0.0
  0
LINE
  5
150
100
AcDbEntity
  8
M01
100
AcDbLine
 10
747.211979
 20
545.159226
 30
0.0
 11
747.211979
 21
546.659226
 31
0.0
  0
LINE
  5
151
100
AcDbEntity
  8
M01
100
AcDbLine
 10
756.711979
 20
546.659226
 30
0.0
 11
756.711979
 21
547.459226
 31
0.0
  0
LINE
  5
152
100
AcDbEntity
  8
M01
100
AcDbLine
 10
747.711979
 20
546.659226
 30
0.0
 11
747.711979
 21
547.459226
 31
0.0
  0
LINE
  5
153
100
AcDbEntity
  8
M01
100
AcDbLine
 10
747.711979
 20
547.459226
 30
0.0
 11
756.711979
 21
547.459226
 31
0.0
  0
LINE
  5
154
100
AcDbEntity
  8
M01
100
AcDbLine
 10
747.211979
 20
546.659226
 30
0.0
 11
757.211979
 21
546.659226
 31
0.0
  0
LINE
  5
155
100
AcDbEntity
  8
M01
100
AcDbLine
 10
756.711979
 20
544.359226
 30
0.0
 11
756.711979
 21
545.159226
 31
0.0
  0
LINE
  5
156
100
AcDbEntity
  8
M01
100
AcDbLine
 10
747.711979
 20
544.359226
 30
0.0
 11
747.711979
 21
545.159226
 31
0.0
  0
LINE
  5
157
100
AcDbEntity
  8
M01
100
AcDbLine
 10
742.211979
 20
545.159226
 30
0.0
 11
757.211979
 21
545.159226
 31
0.0
  0
ARC
  5
158
100
AcDbEntity
  8
M01
100
AcDbCircle
 10
755.243068
 20
542.509921
 30
0.0
 40
1.150694
100
AcDbArc
 50
208.592423
 51
331.407577
  0
ARC
  5
159
100
AcDbEntity
  8
M01
100
AcDbCircle
 10
752.211979
 20
545.062004
 30
0.0
 40
3.702778
100
AcDbArc
 50
236.92527
 51
303.07473
  0
ARC
  5
15A
100
AcDbEntity
  8
M01
100
AcDbCircle
 10
749.18089
 20
542.509921
 30
0.0
 40
1.150694
100
AcDbArc
 50
208.592423
 51
331.407577
  0
ARC
  5
15B
100
AcDbEntity
  8
M01
100
AcDbCircle
 10
755.243068
 20
543.208532
 30
0.0
 40
1.150694
100
AcDbArc
 50
28.592423
 51
151.407577
  0
ARC
  5
15C
100
AcDbEntity
  8
M01
100
AcDbCircle
 10
752.211979
 20
540.656448
 30
0.0
 40
3.702778
100
AcDbArc
 50
56.92527
 51
123.07473
  0
LINE
  5
15D
100
AcDbEntity
  8
M01
100
AcDbLine
 10
754.232705
 20
543.759226
 30
0.0
 11
754.232705
 21
541.959226
 31
0.0
  0
LINE
  5
15E
100
AcDbEntity
  8
M01
100
AcDbLine
 10
756.253431
 20
543.759226
 30
0.0
 11
756.253431
 21
541.959226
 31
0.0
  0
ARC
  5
15F
100
AcDbEntity
  8
M01
100
AcDbCircle
 10
749.18089
 20
543.208532
 30
0.0
 40
1.150694
100
AcDbArc
 50
28.592423
 51
151.407577
  0
LINE
  5
160
100
AcDbEntity
  8
M01
100
AcDbLine
 10
750.191253
 20
543.759226
 30
0.0
 11
750.191253
 21
541.959226
 31
0.0
  0
LINE
  5
161
100
AcDbEntity
  8
M01
100
AcDbLine
 10
748.170527
 20
543.759226
 30
0.0
 11
748.170527
 21
541.959226
 31
0.0
  0
LINE
  5
162
100
AcDbEntity
  8
M01
100
AcDbLine
 10
747.711979
 20
544.359226
 30
0.0
 11
756.711979
 21
544.359226
 31
0.0
  0
LINE
  5
163
100
AcDbEntity
  8
M01
100
AcDbLine
 10
747.711979
 20
541.359226
 30
0.0
 11
756.711979
 21
541.359226
 31
0.0
  0
LINE
  5
164
100
AcDbEntity
  8
M01
100
AcDbLine
 10
747.711979
 20
540.559226
 30
0.0
 11
756.711979
 21
540.559226
 31
0.0
  0
LINE
  5
165
100
AcDbEntity
  8
M01
100
AcDbLine
 10
753.711979
 20
553.559226
 30
0.0
 11
754.211979
 21
553.059226
 31
0.0
  0
LINE
  5
166
100
AcDbEntity
  8
M01
100
AcDbLine
 10
750.211979
 20
553.059226
 30
0.0
 11
750.711979
 21
553.559226
 31
0.0
  0
LINE
  5
167
100
AcDbEntity
  8
M01
100
AcDbLine
 10
750.211979
 20
553.059226
 30
0.0
 11
754.211979
 21
553.059226
 31
0.0
  0
LINE
  5
168
100
AcDbEntity
  8
M01
100
AcDbLine
 10
753.711979
 20
553.559226
 30
0.0
 11
753.711979
 21
550.459226
 31
0.0
  0
LINE
  5
169
100
AcDbEntity
  8
M01
100
AcDbLine
 10
750.711979
 20
553.559226
 30
0.0
 11
750.711979
 21
550.459226
 31
0.0
  0
LINE
  5
16A
100
AcDbEntity
  8
M01
100
AcDbLine
 10
750.211979
 20
553.059226
 30
0.0
 11
750.211979
 21
550.459226
 31
0.0
  0
LINE
  5
16B
100
AcDbEntity
  8
M01
100
AcDbLine
 10
754.211979
 20
553.059226
 30
0.0
 11
754.211979
 21
550.459226
 31
0.0
  0
LINE
  5
16C
100
AcDbEntity
  8
M01
100
AcDbLine
 10
750.711979
 20
553.559226
 30
0.0
 11
753.711979
 21
553.559226
 31
0.0
  0
LINE
  5
16D
100
AcDbEntity
  8
M01
100
AcDbLine
 10
747.211979
 20
528.559226
 30
0.0
 11
757.211979
 21
528.559226
 31
0.0
  0
LINE
  5
16E
100
AcDbEntity
  8
M01
100
AcDbLine
 10
756.711979
 20
541.359226
 30
0.0
 11
756.711979
 21
540.559226
 31
0.0
  0
LINE
  5
16F
100
AcDbEntity
  8
M01
100
AcDbLine
 10
747.711979
 20
541.359226
 30
0.0
 11
747.711979
 21
540.559226
 31
0.0
  0
LINE
  5
170
100
AcDbEntity
  8
CENTRE
100
AcDbLine
 10
752.211979
 20
559.720115
 30
0.0
 11
752.211979
 21
496.126684
 31
0.0
  0
LINE
  5
171
100
AcDbEntity
  8
M01
100
AcDbLine
 10
707.243068
 20
550.459226
 30
0.0
 11
701.18089
 21
550.459226
 31
0.0
  0
ARC
  5
172
100
AcDbEntity
  8
M01
100
AcDbCircle
 10
701.18089
 20
548.609921
 30
0.0
 40
1.150694
100
AcDbArc
 50
208.592423
 51
331.407577
  0
ARC
  5
173
100
AcDbEntity
  8
M01
100
AcDbCircle
 10
704.211979
 20
551.162004
 30
0.0
 40
3.702778
100
AcDbArc
 50
236.92527
 51
303.07473
  0
ARC
  5
174
100
AcDbEntity
  8
M01
100
AcDbCircle
 10
707.243068
 20
548.609921
 30
0.0
 40
1.150694
100
AcDbArc
 50
208.592423
 51
331.407577
  0
ARC
  5
175
100
AcDbEntity
  8
M01
100
AcDbCircle
 10
701.18089
 20
549.308532
 30
0.0
 40
1.150694
100
AcDbArc
 50
28.592423
 51
151.407577
  0
ARC
  5
176
100
AcDbEntity
  8
M01
100
AcDbCircle
 10
704.211979
 20
546.756448
 30
0.0
 40
3.702778
100
AcDbArc
 50
56.92527
 51
123.07473
  0
LINE
  5
177
100
AcDbEntity
  8
M01
100
AcDbLine
 10
702.191253
 20
549.859226
 30
0.0
 11
702.191253
 21
548.059226
 31
0.0
  0
LINE
  5
178
100
AcDbEntity
  8
M01
100
AcDbLine
 10
700.170527
 20
549.859226
 30
0.0
 11
700.170527
 21
548.059226
 31
0.0
  0
ARC
  5
179
100
AcDbEntity
  8
M01
100
AcDbCircle
 10
707.243068
 20
549.308532
 30
0.0
 40
1.150694
100
AcDbArc
 50
28.592423
 51
151.407577
  0
LINE
  5
17A
100
AcDbEntity
  8
M01
100
AcDbLine
 10
706.232705
 20
549.859226
 30
0.0
 11
706.232705
 21
548.059226
 31
0.0
  0
LINE
  5
17B
100
AcDbEntity
  8
M01
100
AcDbLine
 10
708.253431
 20
549.859226
 30
0.0
 11
708.253431
 21
548.059226
 31
0.0
  0
LINE
  5
17C
100
AcDbEntity
  8
M01
100
AcDbLine
 10
699.211979
 20
545.159226
 30
0.0
 11
699.211979
 21
546.659226
 31
0.0
  0
LINE
  5
17D
100
AcDbEntity
  8
M01
100
AcDbLine
 10
699.711979
 20
546.659226
 30
0.0
 11
699.711979
 21
547.459226
 31
0.0
  0
LINE
  5
17E
100
AcDbEntity
  8
M01
100
AcDbLine
 10
708.711979
 20
546.659226
 30
0.0
 11
708.711979
 21
547.459226
 31
0.0
  0
LINE
  5
17F
100
AcDbEntity
  8
M01
100
AcDbLine
 10
708.711979
 20
547.459226
 30
0.0
 11
699.711979
 21
547.459226
 31
0.0
  0
LINE
  5
180
100
AcDbEntity
  8
M01
100
AcDbLine
 10
709.211979
 20
546.659226
 30
0.0
 11
699.211979
 21
546.659226
 31
0.0
  0
LINE
  5
181
100
AcDbEntity
  8
M01
100
AcDbLine
 10
699.711979
 20
544.359226
 30
0.0
 11
699.711979
 21
545.159226
 31
0.0
  0
LINE
  5
182
100
AcDbEntity
  8
M01
100
AcDbLine
 10
708.711979
 20
544.359226
 30
0.0
 11
708.711979
 21
545.159226
 31
0.0
  0
ARC
  5
183
100
AcDbEntity
  8
M01
100
AcDbCircle
 10
701.18089
 20
542.509921
 30
0.0
 40
1.150694
100
AcDbArc
 50
208.592423
 51
331.407577
  0
ARC
  5
184
100
AcDbEntity
  8
M01
100
AcDbCircle
 10
704.211979
 20
545.062004
 30
0.0
 40
3.702778
100
AcDbArc
 50
236.92527
 51
303.07473
  0
ARC
  5
185
100
AcDbEntity
  8
M01
100
AcDbCircle
 10
707.243068
 20
542.509921
 30
0.0
 40
1.150694
100
AcDbArc
 50
208.592423
 51
331.407577
  0
ARC
  5
186
100
AcDbEntity
  8
M01
100
AcDbCircle
 10
701.18089
 20
543.208532
 30
0.0
 40
1.150694
100
AcDbArc
 50
28.592423
 51
151.407577
  0
ARC
  5
187
100
AcDbEntity
  8
M01
100
AcDbCircle
 10
704.211979
 20
540.656448
 30
0.0
 40
3.702778
100
AcDbArc
 50
56.92527
 51
123.07473
  0
LINE
  5
188
100
AcDbEntity
  8
M01
100
AcDbLine
 10
702.191253
 20
543.759226
 30
0.0
 11
702.191253
 21
541.959226
 31
0.0
  0
LINE
  5
189
100
AcDbEntity
  8
M01
100
AcDbLine
 10
700.170527
 20
543.759226
 30
0.0
 11
700.170527
 21
541.959226
 31
0.0
  0
ARC
  5
18A
100
AcDbEntity
  8
M01
100
AcDbCircle
 10
707.243068
 20
543.208532
 30
0.0
 40
1.150694
100
AcDbArc
 50
28.592423
 51
151.407577
  0
LINE
  5
18B
100
AcDbEntity
  8
M01
100
AcDbLine
 10
706.232705
 20
543.759226
 30
0.0
 11
706.232705
 21
541.959226
 31
0.0
  0
LINE
  5
18C
100
AcDbEntity
  8
M01
100
AcDbLine
 10
708.253431
 20
543.759226
 30
0.0
 11
708.253431
 21
541.959226
 31
0.0
  0
LINE
  5
18D
100
AcDbEntity
  8
M01
100
AcDbLine
 10
708.711979
 20
544.359226
 30
0.0
 11
699.711979
 21
544.359226
 31
0.0
  0
LINE
  5
18E
100
AcDbEntity
  8
M01
100
AcDbLine
 10
708.711979
 20
541.359226
 30
0.0
 11
699.711979
 21
541.359226
 31
0.0
  0
LINE
  5
18F
100
AcDbEntity
  8
M01
100
AcDbLine
 10
708.711979
 20
540.559226
 30
0.0
 11
699.711979
 21
540.559226
 31
0.0
  0
LINE
  5
190
100
AcDbEntity
  8
M01
100
AcDbLine
 10
702.711979
 20
553.559226
 30
0.0
 11
702.211979
 21
553.059226
 31
0.0
  0
LINE
  5
191
100
AcDbEntity
  8
M01
100
AcDbLine
 10
706.211979
 20
553.059226
 30
0.0
 11
705.711979
 21
553.559226
 31
0.0
  0
LINE
  5
192
100
AcDbEntity
  8
M01
100
AcDbLine
 10
706.211979
 20
553.059226
 30
0.0
 11
702.211979
 21
553.059226
 31
0.0
  0
LINE
  5
193
100
AcDbEntity
  8
M01
100
AcDbLine
 10
702.711979
 20
553.559226
 30
0.0
 11
702.711979
 21
550.459226
 31
0.0
  0
LINE
  5
194
100
AcDbEntity
  8
M01
100
AcDbLine
 10
705.711979
 20
553.559226
 30
0.0
 11
705.711979
 21
550.459226
 31
0.0
  0
LINE
  5
195
100
AcDbEntity
  8
M01
100
AcDbLine
 10
706.211979
 20
553.059226
 30
0.0
 11
706.211979
 21
550.459226
 31
0.0
  0
LINE
  5
196
100
AcDbEntity
  8
M01
100
AcDbLine
 10
702.211979
 20
553.059226
 30
0.0
 11
702.211979
 21
550.459226
 31
0.0
  0
LINE
  5
197
100
AcDbEntity
  8
M01
100
AcDbLine
 10
705.711979
 20
553.559226
 30
0.0
 11
702.711979
 21
553.559226
 31
0.0
  0
LINE
  5
198
100
AcDbEntity
  8
M01
100
AcDbLine
 10
709.211979
 20
528.559226
 30
0.0
 11
699.211979
 21
528.559226
 31
0.0
  0
LINE
  5
199
100
AcDbEntity
  8
M01
100
AcDbLine
 10
699.711979
 20
541.359226
 30
0.0
 11
699.711979
 21
540.559226
 31
0.0
  0
LINE
  5
19A
100
AcDbEntity
  8
M01
100
AcDbLine
 10
708.711979
 20
541.359226
 30
0.0
 11
708.711979
 21
540.559226
 31
0.0
  0
LINE
  5
19B
100
AcDbEntity
  8
CENTRE
100
AcDbLine
 10
704.211979
 20
559.720115
 30
0.0
 11
704.211979
 21
496.126684
 31
0.0
  0
TEXT
  5
19C
102
{ACAD_REACTORS
330
CC
102
}
100
AcDbEntity
  8
TEXT
100
AcDbText
 10
750.718631
 20
438.380683
 30
0.0
 40
2.0
  1
MA010000
 41
0.9
100
AcDbText
  0
LINE
  5
19D
100
AcDbEntity
  8
M04
100
AcDbLine
 10
737.211979
 20
568.559226
 30
0.0
 11
747.211979
 21
578.559226
 31
0.0
  0
LINE
  5
19E
100
AcDbEntity
  8
M04
100
AcDbLine
 10
747.211979
 20
589.230704
 30
0.0
 11
747.211979
 21
578.559226
 31
0.0
  0
LINE
  5
19F
100
AcDbEntity
  8
M04
100
AcDbLine
 10
783.211979
 20
402.559226
 30
0.0
 11
783.211979
 21
462.559226
 31
0.0
  0
LINE
  5
1A0
100
AcDbEntity
  8
M04
100
AcDbLine
 10
783.211979
 20
402.559226
 30
0.0
 11
792.211979
 21
402.559226
 31
0.0
  0
LINE
  5
1A1
100
AcDbEntity
  8
M04
100
AcDbLine
 10
773.211979
 20
412.559226
 30
0.0
 11
783.211979
 21
402.559226
 31
0.0
  0
LINE
  5
1A2
100
AcDbEntity
  8
M04
100
AcDbLine
 10
691.211979
 20
568.559226
 30
0.0
 11
765.211979
 21
568.559226
 31
0.0
  0
LINE
  5
1A3
100
AcDbEntity
  8
M04
100
AcDbLine
 10
783.211979
 20
462.559226
 30
0.0
 11
792.211979
 21
462.559226
 31
0.0
  0
LINE
  5
1A4
100
AcDbEntity
  8
M04
100
AcDbLine
 10
773.211979
 20
452.559226
 30
0.0
 11
783.211979
 21
462.559226
 31
0.0
  0
LINE
  5
1A5
100
AcDbEntity
  8
M05
100
AcDbLine
 10
766.513193
 20
429.518352
 30
0.0
 11
766.513193
 21
435.6001
 31
0.0
  0
ARC
  5
1A6
102
{ACAD_REACTORS
330
CC
102
}
100
AcDbEntity
  8
M05
100
AcDbCircle
 10
781.711979
 20
432.559226
 30
0.0
 40
15.5
100
AcDbArc
 50
191.313981
 51
216.249321
  0
LINE
  5
1A7
100
AcDbEntity
  8
M01
100
AcDbLine
 10
737.211979
 20
428.559226
 30
0.0
 11
748.211979
 21
428.559226
 31
0.0
  0
LINE
  5
1A8
102
{ACAD_REACTORS
330
CC
102
}
100
AcDbEntity
  8
M05
100
AcDbLine
 10
748.211979
 20
428.559226
 30
0.0
 11
766.513193
 21
429.518352
 31
0.0
  0
LINE
  5
1A9
102
{ACAD_REACTORS
330
CC
102
}
100
AcDbEntity
  8
M05
100
AcDbLine
 10
748.211979
 20
436.559226
 30
0.0
 11
766.513193
 21
435.6001
 31
0.0
  0
ARC
  5
1AA
102
{ACAD_REACTORS
330
CC
102
}
100
AcDbEntity
  8
M05
100
AcDbCircle
 10
781.711979
 20
432.559226
 30
0.0
 40
15.5
100
AcDbArc
 50
143.750679
 51
168.686019
  0
LINE
  5
1AB
100
AcDbEntity
  8
M01
100
AcDbLine
 10
737.211979
 20
436.559226
 30
0.0
 11
748.211979
 21
436.559226
 31
0.0
  0
LINE
  5
1AC
100
AcDbEntity
  8
M04
100
AcDbLine
 10
767.211979
 20
412.559226
 30
0.0
 11
765.211979
 21
412.559226
 31
0.0
  0
LINE
  5
1AD
100
AcDbEntity
  8
M04
100
AcDbLine
 10
768.511979
 20
412.559226
 30
0.0
 11
773.211979
 21
412.559226
 31
0.0
  0
LINE
  5
1AE
100
AcDbEntity
  8
M04
100
AcDbLine
 10
767.211979
 20
452.559226
 30
0.0
 11
765.211979
 21
452.559226
 31
0.0
  0
LINE
  5
1AF
100
AcDbEntity
  8
M04
100
AcDbLine
 10
768.511979
 20
452.559226
 30
0.0
 11
773.211979
 21
452.559226
 31
0.0
  0
LINE
  5
1B0
100
AcDbEntity
  8
M04
100
AcDbLine
 10
773.211979
 20
452.559226
 30
0.0
 11
773.211979
 21
412.559226
 31
0.0
  0
LINE
  5
1B1
102
{ACAD_REACTORS
330
CC
102
}
100
AcDbEntity
  8
M05
100
AcDbLine
 10
767.211979
 20
413.059226
 30
0.0
 11
767.211979
 21
412.559226
 31
0.0
  0
LINE
  5
1B2
102
{ACAD_REACTORS
330
CC
102
}
100
AcDbEntity
  8
M05
100
AcDbLine
 10
764.211979
 20
413.059226
 30
0.0
 11
764.211979
 21
400.559226
 31
0.0
  0
LINE
  5
1B3
102
{ACAD_REACTORS
330
CC
102
}
100
AcDbEntity
  8
M05
100
AcDbLine
 10
764.211979
 20
413.059226
 30
0.0
 11
767.211979
 21
413.059226
 31
0.0
  0
LINE
  5
1B4
102
{ACAD_REACTORS
330
CC
102
}
100
AcDbEntity
  8
M05
100
AcDbLine
 10
764.211979
 20
452.059226
 30
0.0
 11
767.211979
 21
452.059226
 31
0.0
  0
LINE
  5
1B5
102
{ACAD_REACTORS
330
CC
102
}
100
AcDbEntity
  8
M05
100
AcDbLine
 10
767.211979
 20
452.559226
 30
0.0
 11
767.211979
 21
452.059226
 31
0.0
  0
LINE
  5
1B6
100
AcDbEntity
  8
M04
100
AcDbLine
 10
765.211979
 20
413.059226
 30
0.0
 11
765.211979
 21
382.045835
 31
0.0
  0
LINE
  5
1B7
102
{ACAD_REACTORS
330
CC
102
}
100
AcDbEntity
  8
M05
100
AcDbLine
 10
769.211979
 20
413.259226
 30
0.0
 11
768.511979
 21
412.559226
 31
0.0
  0
LINE
  5
1B8
102
{ACAD_REACTORS
330
CC
102
}
100
AcDbEntity
  8
M05
100
AcDbLine
 10
769.211979
 20
451.859226
 30
0.0
 11
768.511979
 21
452.559226
 31
0.0
  0
LINE
  5
1B9
102
{ACAD_REACTORS
330
CC
102
}
100
AcDbEntity
  8
M05
100
AcDbLine
 10
769.211979
 20
451.859226
 30
0.0
 11
769.211979
 21
413.259226
 31
0.0
  0
LINE
  5
1BA
102
{ACAD_REACTORS
330
CC
102
}
100
AcDbEntity
  8
M05
100
AcDbLine
 10
767.211979
 20
412.559226
 30
0.0
 11
768.511979
 21
412.559226
 31
0.0
  0
LINE
  5
1BB
102
{ACAD_REACTORS
330
CC
102
}
100
AcDbEntity
  8
M05
100
AcDbLine
 10
767.211979
 20
452.559226
 30
0.0
 11
768.511979
 21
452.559226
 31
0.0
  0
LINE
  5
1BC
100
AcDbEntity
  8
M04
100
AcDbLine
 10
757.711979
 20
422.559226
 30
0.0
 11
758.211979
 21
422.059226
 31
0.0
  0
LINE
  5
1BD
102
{ACAD_REACTORS
330
CC
102
}
100
AcDbEntity
  8
M01
100
AcDbLine
 10
758.211979
 20
422.559226
 30
0.0
 11
758.211979
 21
402.559226
 31
0.0
  0
LINE
  5
1BE
100
AcDbEntity
  8
M04
100
AcDbLine
 10
757.711979
 20
442.559226
 30
0.0
 11
758.211979
 21
443.059226
 31
0.0
  0
LINE
  5
1BF
102
{ACAD_REACTORS
330
CC
102
}
100
AcDbEntity
  8
M05
100
AcDbLine
 10
758.911979
 20
399.859226
 30
0.0
 11
758.211979
 21
400.559226
 31
0.0
  0
LINE
  5
1C0
102
{ACAD_REACTORS
330
CC
102
}
100
AcDbEntity
  8
M05
100
AcDbLine
 10
763.511979
 20
399.859226
 30
0.0
 11
764.211979
 21
400.559226
 31
0.0
  0
LINE
  5
1C1
102
{ACAD_REACTORS
330
CC
102
}
100
AcDbEntity
  8
M05
100
AcDbLine
 10
758.911979
 20
399.859226
 30
0.0
 11
763.511979
 21
399.859226
 31
0.0
  0
LINE
  5
1C2
102
{ACAD_REACTORS
330
CC
102
}
100
AcDbEntity
  8
M05
100
AcDbLine
 10
758.911979
 20
466.559226
 30
0.0
 11
758.211979
 21
465.859226
 31
0.0
  0
LINE
  5
1C3
102
{ACAD_REACTORS
330
CC
102
}
100
AcDbEntity
  8
M05
100
AcDbLine
 10
763.511979
 20
466.559226
 30
0.0
 11
764.211979
 21
465.859226
 31
0.0
  0
LINE
  5
1C4
102
{ACAD_REACTORS
330
143
102
}
100
AcDbEntity
  8
M02
100
AcDbLine
 10
758.211979
 20
467.559226
 30
0.0
 11
761.211979
 21
467.559226
 31
0.0
  0
LINE
  5
1C5
102
{ACAD_REACTORS
330
CC
102
}
100
AcDbEntity
  8
M05
100
AcDbLine
 10
764.211979
 20
465.859226
 30
0.0
 11
764.211979
 21
452.059226
 31
0.0
  0
LINE
  5
1C6
102
{ACAD_REACTORS
330
CC
102
}
100
AcDbEntity
  8
M05
100
AcDbLine
 10
758.911979
 20
466.559226
 30
0.0
 11
763.511979
 21
466.559226
 31
0.0
  0
LINE
  5
1C7
100
AcDbEntity
  8
M04
100
AcDbLine
 10
749.211979
 20
422.559226
 30
0.0
 11
748.211979
 21
422.559226
 31
0.0
  0
LINE
  5
1C8
100
AcDbEntity
  8
M04
100
AcDbLine
 10
748.211979
 20
423.559226
 30
0.0
 11
748.211979
 21
422.559226
 31
0.0
  0
LINE
  5
1C9
100
AcDbEntity
  8
M04
100
AcDbLine
 10
749.211979
 20
442.559226
 30
0.0
 11
748.211979
 21
442.559226
 31
0.0
  0
LINE
  5
1CA
100
AcDbEntity
  8
M04
100
AcDbLine
 10
748.211979
 20
441.559226
 30
0.0
 11
748.211979
 21
442.559226
 31
0.0
  0
LINE
  5
1CB
102
{ACAD_REACTORS
330
CC
102
}
100
AcDbEntity
  8
M05
100
AcDbLine
 10
748.211979
 20
441.559226
 30
0.0
 11
749.211979
 21
442.559226
 31
0.0
  0
LINE
  5
1CC
102
{ACAD_REACTORS
330
CC
102
}
100
AcDbEntity
  8
M05
100
AcDbLine
 10
749.211979
 20
422.559226
 30
0.0
 11
748.211979
 21
423.559226
 31
0.0
  0
LINE
  5
1CD
102
{ACAD_REACTORS
330
CC
102
}
100
AcDbEntity
  8
M05
100
AcDbLine
 10
748.211979
 20
441.559226
 30
0.0
 11
748.211979
 21
423.559226
 31
0.0
  0
LINE
  5
1CE
102
{ACAD_REACTORS
330
CC
102
}
100
AcDbEntity
  8
M05
100
AcDbLine
 10
749.211979
 20
422.559226
 30
0.0
 11
758.211979
 21
422.559226
 31
0.0
  0
LINE
  5
1CF
102
{ACAD_REACTORS
330
CC
102
}
100
AcDbEntity
  8
M05
100
AcDbLine
 10
749.211979
 20
442.559226
 30
0.0
 11
758.211979
 21
442.559226
 31
0.0
  0
LINE
  5
1D0
100
AcDbEntity
  8
M04
100
AcDbLine
 10
675.902578
 20
503.059226
 30
0.0
 11
678.211979
 21
507.059226
 31
0.0
  0
LINE
  5
1D1
100
AcDbEntity
  8
M04
100
AcDbLine
 10
678.211979
 20
499.059226
 30
0.0
 11
675.902578
 21
503.059226
 31
0.0
  0
LINE
  5
1D2
100
AcDbEntity
  8
M04
100
AcDbLine
 10
681.211979
 20
499.059226
 30
0.0
 11
678.211979
 21
499.059226
 31
0.0
  0
LINE
  5
1D3
100
AcDbEntity
  8
M04
100
AcDbLine
 10
678.211979
 20
507.059226
 30
0.0
 11
678.211979
 21
499.059226
 31
0.0
  0
LINE
  5
1D4
100
AcDbEntity
  8
M04
100
AcDbLine
 10
681.211979
 20
507.059226
 30
0.0
 11
678.211979
 21
507.059226
 31
0.0
  0
ARC
  5
1D5
100
AcDbEntity
  8
M05
100
AcDbCircle
 10
690.549683
 20
503.059226
 30
0.0
 40
10.837705
100
AcDbArc
 50
161.372238
 51
198.627762
  0
LINE
  5
1D6
100
AcDbEntity
  8
M05
100
AcDbLine
 10
681.211979
 20
499.059226
 30
0.0
 11
680.279725
 21
499.597463
 31
0.0
  0
LINE
  5
1D7
100
AcDbEntity
  8
M05
100
AcDbLine
 10
680.279725
 20
506.520989
 30
0.0
 11
680.279725
 21
499.597463
 31
0.0
  0
LINE
  5
1D8
100
AcDbEntity
  8
M05
100
AcDbLine
 10
681.211979
 20
507.059226
 30
0.0
 11
680.279725
 21
506.520989
 31
0.0
  0
LINE
  5
1D9
100
AcDbEntity
  8
M05
100
AcDbLine
 10
681.211979
 20
507.059226
 30
0.0
 11
681.211979
 21
499.059226
 31
0.0
  0
LINE
  5
1DA
100
AcDbEntity
  8
M04
100
AcDbLine
 10
691.211979
 20
499.059226
 30
0.0
 11
691.211979
 21
393.559226
 31
0.0
  0
LINE
  5
1DB
100
AcDbEntity
  8
M04
100
AcDbLine
 10
690.711979
 20
499.059226
 30
0.0
 11
691.211979
 21
498.559226
 31
0.0
  0
LINE
  5
1DC
100
AcDbEntity
  8
M04
100
AcDbLine
 10
690.711979
 20
507.059226
 30
0.0
 11
691.211979
 21
507.559226
 31
0.0
  0
ARC
  5
1DD
100
AcDbEntity
  8
M05
100
AcDbCircle
 10
690.078645
 20
503.059226
 30
0.0
 40
13.633333
100
AcDbArc
 50
342.938469
 51
17.061531
  0
LINE
  5
1DE
100
AcDbEntity
  8
M05
100
AcDbLine
 10
703.111979
 20
507.059226
 30
0.0
 11
703.111979
 21
499.059226
 31
0.0
  0
LINE
  5
1DF
100
AcDbEntity
  8
M05
100
AcDbLine
 10
681.211979
 20
499.059226
 30
0.0
 11
703.111979
 21
499.059226
 31
0.0
  0
LINE
  5
1E0
100
AcDbEntity
  8
M05
100
AcDbLine
 10
681.211979
 20
507.059226
 30
0.0
 11
703.111979
 21
507.059226
 31
0.0
  0
CIRCLE
  5
1E1
100
AcDbEntity
  8
M01
100
AcDbCircle
 10
737.211979
 20
432.559226
 30
0.0
 40
4.0
  0
LINE
  5
1E2
102
{ACAD_REACTORS
330
22
102
}
100
AcDbEntity
  8
M02
100
AcDbLine
 10
695.211979
 20
414.559226
 30
0.0
 11
698.211979
 21
414.559226
 31
0.0
  0
LINE
  5
1E3
102
{ACAD_REACTORS
330
22
102
}
100
AcDbEntity
  8
M02
100
AcDbLine
 10
695.211979
 20
450.559226
 30
0.0
 11
698.211979
 21
450.559226
 31
0.0
  0
LINE
  5
1E4
100
AcDbEntity
  8
M01
100
AcDbLine
 10
698.211979
 20
423.059226
 30
0.0
 11
703.211979
 21
423.059226
 31
0.0
  0
LINE
  5
1E5
100
AcDbEntity
  8
M01
100
AcDbLine
 10
698.211979
 20
442.059226
 30
0.0
 11
703.211979
 21
442.059226
 31
0.0
  0
LINE
  5
1E6
100
AcDbEntity
  8
CENTRE
100
AcDbLine
 10
675.387056
 20
432.559226
 30
0.0
 11
798.104019
 21
432.559226
 31
0.0
  0
LINE
  5
1E7
100
AcDbEntity
  8
M01
100
AcDbLine
 10
703.211979
 20
442.059226
 30
0.0
 11
703.211979
 21
423.059226
 31
0.0
  0
LINE
  5
1E8
100
AcDbEntity
  8
CENTRE
100
AcDbLine
 10
670.865861
 20
503.059226
 30
0.0
 11
708.955561
 21
503.059226
 31
0.0
  0
LINE
  5
1E9
100
AcDbEntity
  8
M04
100
AcDbLine
 10
765.211979
 20
589.230704
 30
0.0
 11
765.211979
 21
452.059226
 31
0.0
  0
LINE
  5
1EA
100
AcDbEntity
  8
M04
100
AcDbLine
 10
691.211979
 20
393.559226
 30
0.0
 11
765.211979
 21
393.559226
 31
0.0
  0
LINE
  5
1EB
100
AcDbEntity
  8
M04
100
AcDbLine
 10
691.211979
 20
568.559226
 30
0.0
 11
691.211979
 21
507.059226
 31
0.0
  0
LINE
  5
1EC
102
{ACAD_REACTORS
330
22
102
}
100
AcDbEntity
  8
M02
100
AcDbLine
 10
698.211979
 20
496.559226
 30
0.0
 11
695.211979
 21
496.559226
 31
0.0
  0
LINE
  5
1ED
100
AcDbEntity
  8
M01
100
AcDbLine
 10
698.211979
 20
496.559226
 30
0.0
 11
704.211979
 21
496.559226
 31
0.0
  0
LINE
  5
1EE
100
AcDbEntity
  8
M01
100
AcDbLine
 10
704.211979
 20
508.559226
 30
0.0
 11
704.211979
 21
496.559226
 31
0.0
  0
LINE
  5
1EF
102
{ACAD_REACTORS
330
143
102
}
100
AcDbEntity
  8
M02
100
AcDbLine
 10
758.211979
 20
506.559226
 30
0.0
 11
761.211979
 21
506.559226
 31
0.0
  0
LINE
  5
1F0
102
{ACAD_REACTORS
330
22
102
}
100
AcDbEntity
  8
M02
100
AcDbLine
 10
698.211979
 20
402.559226
 30
0.0
 11
695.211979
 21
402.559226
 31
0.0
  0
LINE
  5
1F1
102
{ACAD_REACTORS
330
143
102
}
100
AcDbEntity
  8
M02
100
AcDbLine
 10
761.211979
 20
506.559226
 30
0.0
 11
761.211979
 21
466.559226
 31
0.0
  0
LINE
  5
1F2
102
{ACAD_REACTORS
330
22
102
}
100
AcDbEntity
  8
M02
100
AcDbLine
 10
695.211979
 20
499.059226
 30
0.0
 11
695.211979
 21
402.559226
 31
0.0
  0
LINE
  5
1F3
100
AcDbEntity
  8
M01
100
AcDbLine
 10
758.211979
 20
402.559226
 30
0.0
 11
756.211979
 21
400.559226
 31
0.0
  0
LINE
  5
1F4
100
AcDbEntity
  8
M01
100
AcDbLine
 10
756.211979
 20
508.559226
 30
0.0
 11
758.211979
 21
506.559226
 31
0.0
  0
LINE
  5
1F5
100
AcDbEntity
  8
M01
100
AcDbLine
 10
699.211979
 20
507.559226
 30
0.0
 11
700.211979
 21
508.559226
 31
0.0
  0
LINE
  5
1F6
100
AcDbEntity
  8
M01
100
AcDbLine
 10
700.211979
 20
400.559226
 30
0.0
 11
698.211979
 21
402.559226
 31
0.0
  0
LINE
  5
1F7
102
{ACAD_REACTORS
330
143
330
CC
102
}
100
AcDbEntity
  8
M01
100
AcDbLine
 10
758.211979
 20
506.559226
 30
0.0
 11
758.211979
 21
461.559226
 31
0.0
  0
LINE
  5
1F8
100
AcDbEntity
  8
M01
100
AcDbLine
 10
700.211979
 20
400.559226
 30
0.0
 11
756.211979
 21
400.559226
 31
0.0
  0
LINE
  5
1F9
100
AcDbEntity
  8
M01
100
AcDbLine
 10
700.211979
 20
508.559226
 30
0.0
 11
756.211979
 21
508.559226
 31
0.0
  0
LINE
  5
1FA
102
{ACAD_REACTORS
330
22
102
}
100
AcDbEntity
  8
M01
100
AcDbLine
 10
698.211979
 20
499.059226
 30
0.0
 11
698.211979
 21
402.559226
 31
0.0
  0
CIRCLE
  5
1FB
100
AcDbEntity
  8
M03
100
AcDbCircle
 10
423.265534
 20
432.559226
 30
0.0
 40
20.0
  0
LINE
  5
1FC
100
AcDbEntity
  8
DIMS
 62
     4
100
AcDbLine
 10
569.865534
 20
382.559226
 30
0.0
 11
565.065534
 21
382.559226
 31
0.0
  0
LINE
  5
1FD
100
AcDbEntity
  8
DIMS
 62
     4
100
AcDbLine
 10
576.665534
 20
382.559226
 30
0.0
 11
581.465534
 21
382.559226
 31
0.0
  0
LINE
  5
1FE
100
AcDbEntity
  8
DIMS
 62
     4
100
AcDbLine
 10
574.965534
 20
382.559226
 30
0.0
 11
571.565534
 21
382.559226
 31
0.0
  0
CIRCLE
  5
1FF
100
AcDbEntity
  8
M04
100
AcDbCircle
 10
573.265534
 20
382.559226
 30
0.0
 40
6.5
  0
LINE
  5
200
100
AcDbEntity
  8
DIMS
 62
     4
100
AcDbLine
 10
470.765534
 20
379.159226
 30
0.0
 11
470.765534
 21
374.359226
 31
0.0
  0
LINE
  5
201
100
AcDbEntity
  8
DIMS
 62
     4
100
AcDbLine
 10
470.765534
 20
385.959226
 30
0.0
 11
470.765534
 21
390.759226
 31
0.0
  0
LINE
  5
202
100
AcDbEntity
  8
DIMS
 62
     4
100
AcDbLine
 10
467.365534
 20
382.559226
 30
0.0
 11
462.565534
 21
382.559226
 31
0.0
  0
LINE
  5
203
100
AcDbEntity
  8
DIMS
 62
     4
100
AcDbLine
 10
474.165534
 20
382.559226
 30
0.0
 11
478.965534
 21
382.559226
 31
0.0
  0
LINE
  5
204
100
AcDbEntity
  8
DIMS
 62
     4
100
AcDbLine
 10
470.765534
 20
384.259226
 30
0.0
 11
470.765534
 21
380.859226
 31
0.0
  0
LINE
  5
205
100
AcDbEntity
  8
DIMS
 62
     4
100
AcDbLine
 10
472.465534
 20
382.559226
 30
0.0
 11
469.065534
 21
382.559226
 31
0.0
  0
CIRCLE
  5
206
100
AcDbEntity
  8
M04
100
AcDbCircle
 10
470.765534
 20
382.559226
 30
0.0
 40
6.5
  0
LINE
  5
207
100
AcDbEntity
  8
DIMS
 62
     4
100
AcDbLine
 10
276.665534
 20
382.559226
 30
0.0
 11
281.465534
 21
382.559226
 31
0.0
  0
LINE
  5
208
100
AcDbEntity
  8
DIMS
 62
     4
100
AcDbLine
 10
269.865534
 20
382.559226
 30
0.0
 11
265.065534
 21
382.559226
 31
0.0
  0
LINE
  5
209
100
AcDbEntity
  8
DIMS
 62
     4
100
AcDbLine
 10
271.565534
 20
382.559226
 30
0.0
 11
274.965534
 21
382.559226
 31
0.0
  0
CIRCLE
  5
20A
100
AcDbEntity
  8
M04
100
AcDbCircle
 10
273.265534
 20
382.559226
 30
0.0
 40
6.5
  0
LINE
  5
20B
100
AcDbEntity
  8
DIMS
 62
     4
100
AcDbLine
 10
375.765534
 20
379.159226
 30
0.0
 11
375.765534
 21
374.359226
 31
0.0
  0
LINE
  5
20C
100
AcDbEntity
  8
DIMS
 62
     4
100
AcDbLine
 10
375.765534
 20
385.959226
 30
0.0
 11
375.765534
 21
390.759226
 31
0.0
  0
LINE
  5
20D
100
AcDbEntity
  8
DIMS
 62
     4
100
AcDbLine
 10
379.165534
 20
382.559226
 30
0.0
 11
383.965534
 21
382.559226
 31
0.0
  0
LINE
  5
20E
100
AcDbEntity
  8
DIMS
 62
     4
100
AcDbLine
 10
372.365534
 20
382.559226
 30
0.0
 11
367.565534
 21
382.559226
 31
0.0
  0
LINE
  5
20F
100
AcDbEntity
  8
DIMS
 62
     4
100
AcDbLine
 10
375.765534
 20
384.259226
 30
0.0
 11
375.765534
 21
380.859226
 31
0.0
  0
LINE
  5
210
100
AcDbEntity
  8
DIMS
 62
     4
100
AcDbLine
 10
374.065534
 20
382.559226
 30
0.0
 11
377.465534
 21
382.559226
 31
0.0
  0
CIRCLE
  5
211
100
AcDbEntity
  8
M04
100
AcDbCircle
 10
375.765534
 20
382.559226
 30
0.0
 40
6.5
  0
LINE
  5
212
100
AcDbEntity
  8
DIMS
 62
     4
100
AcDbLine
 10
573.265534
 20
485.959226
 30
0.0
 11
573.265534
 21
490.759226
 31
0.0
  0
LINE
  5
213
100
AcDbEntity
  8
DIMS
 62
     4
100
AcDbLine
 10
573.265534
 20
479.159226
 30
0.0
 11
573.265534
 21
474.359226
 31
0.0
  0
LINE
  5
214
100
AcDbEntity
  8
DIMS
 62
     4
100
AcDbLine
 10
569.865534
 20
482.559226
 30
0.0
 11
565.065534
 21
482.559226
 31
0.0
  0
LINE
  5
215
100
AcDbEntity
  8
DIMS
 62
     4
100
AcDbLine
 10
576.665534
 20
482.559226
 30
0.0
 11
581.465534
 21
482.559226
 31
0.0
  0
LINE
  5
216
100
AcDbEntity
  8
DIMS
 62
     4
100
AcDbLine
 10
573.265534
 20
480.859226
 30
0.0
 11
573.265534
 21
484.259226
 31
0.0
  0
LINE
  5
217
100
AcDbEntity
  8
DIMS
 62
     4
100
AcDbLine
 10
574.965534
 20
482.559226
 30
0.0
 11
571.565534
 21
482.559226
 31
0.0
  0
CIRCLE
  5
218
100
AcDbEntity
  8
M04
100
AcDbCircle
 10
573.265534
 20
482.559226
 30
0.0
 40
6.5
  0
LINE
  5
219
100
AcDbEntity
  8
DIMS
 62
     4
100
AcDbLine
 10
470.765534
 20
485.959226
 30
0.0
 11
470.765534
 21
490.759226
 31
0.0
  0
LINE
  5
21A
100
AcDbEntity
  8
DIMS
 62
     4
100
AcDbLine
 10
470.765534
 20
479.159226
 30
0.0
 11
470.765534
 21
474.359226
 31
0.0
  0
LINE
  5
21B
100
AcDbEntity
  8
DIMS
 62
     4
100
AcDbLine
 10
467.365534
 20
482.559226
 30
0.0
 11
462.565534
 21
482.559226
 31
0.0
  0
LINE
  5
21C
100
AcDbEntity
  8
DIMS
 62
     4
100
AcDbLine
 10
474.165534
 20
482.559226
 30
0.0
 11
478.965534
 21
482.559226
 31
0.0
  0
LINE
  5
21D
100
AcDbEntity
  8
DIMS
 62
     4
100
AcDbLine
 10
470.765534
 20
480.859226
 30
0.0
 11
470.765534
 21
484.259226
 31
0.0
  0
LINE
  5
21E
100
AcDbEntity
  8
DIMS
 62
     4
100
AcDbLine
 10
472.465534
 20
482.559226
 30
0.0
 11
469.065534
 21
482.559226
 31
0.0
  0
CIRCLE
  5
21F
100
AcDbEntity
  8
M04
100
AcDbCircle
 10
470.765534
 20
482.559226
 30
0.0
 40
6.5
  0
LINE
  5
220
100
AcDbEntity
  8
DIMS
 62
     4
100
AcDbLine
 10
273.265534
 20
485.959226
 30
0.0
 11
273.265534
 21
490.759226
 31
0.0
  0
LINE
  5
221
100
AcDbEntity
  8
DIMS
 62
     4
100
AcDbLine
 10
273.265534
 20
479.159226
 30
0.0
 11
273.265534
 21
474.359226
 31
0.0
  0
LINE
  5
222
100
AcDbEntity
  8
DIMS
 62
     4
100
AcDbLine
 10
276.665534
 20
482.559226
 30
0.0
 11
281.465534
 21
482.559226
 31
0.0
  0
LINE
  5
223
100
AcDbEntity
  8
DIMS
 62
     4
100
AcDbLine
 10
269.865534
 20
482.559226
 30
0.0
 11
265.065534
 21
482.559226
 31
0.0
  0
LINE
  5
224
100
AcDbEntity
  8
DIMS
 62
     4
100
AcDbLine
 10
273.265534
 20
480.859226
 30
0.0
 11
273.265534
 21
484.259226
 31
0.0
  0
LINE
  5
225
100
AcDbEntity
  8
DIMS
 62
     4
100
AcDbLine
 10
271.565534
 20
482.559226
 30
0.0
 11
274.965534
 21
482.559226
 31
0.0
  0
CIRCLE
  5
226
100
AcDbEntity
  8
M04
100
AcDbCircle
 10
273.265534
 20
482.559226
 30
0.0
 40
6.5
  0
LINE
  5
227
100
AcDbEntity
  8
M04
100
AcDbLine
 10
249.265534
 20
471.559226
 30
0.0
 11
384.265534
 21
471.559226
 31
0.0
  0
HATCH
  5
228
100
AcDbEntity
  8
HATCH
100
AcDbHatch
 10
0.0
 20
0.0
 30
0.0
210
0.0
220
0.0
230
1.0
  2
_U
 70
     0
 71
     1
 91
        2
 92
        7
 72
     1
 73
     1
 93
        2
 10
246.2655344179456
 20
276.0138856722448
 42
1.0
 10
254.2655344179456
 20
276.0138856722448
 42
1.0
 97
        1
330
260
 92
        7
 72
     1
 73
     1
 93
        2
 10
254.2655344179456
 20
224.0138856722445
 42
1.0
 10
246.2655344179456
 20
224.0138856722445
 42
1.0
 97
        1
330
257
 75
     0
 76
     0
 52
45.0
 41
0.8
 77
     0
 78
     1
 53
45.0
 43
-194.681706
 44
-14.472589
 45
-0.565685424949238
 46
0.565685424949238
 79
     0
 47
0.251927
 98
        2
 10
248.802432
 20
277.784946
 10
251.826805
 20
238.988148
  0
HATCH
  5
229
100
AcDbEntity
  8
M03
100
AcDbHatch
 10
0.0
 20
0.0
 30
0.0
210
0.0
220
0.0
230
1.0
  2
_U
 70
     0
 71
     0
 91
        1
 92
        7
 72
     0
 73
     1
 93
        4
 10
283.9584716247606
 20
404.4592260810629
 10
254.7200122101252
 20
404.4592260810629
 10
254.7200122101252
 20
402.5592260810629
 10
283.9584716247607
 20
402.559226081063
 97
        0
 75
     0
 76
     0
 52
330.0
 41
0.7
 77
     0
 78
     1
 53
330.0
 43
-207.181706
 44
0.0
 45
0.3500000000000003
 46
0.6062177826491069
 79
     0
 47
0.060863
 98
        1
 10
280.2673
 20
403.271795
  0
HATCH
  5
22A
100
AcDbEntity
  8
M03
100
AcDbHatch
 10
0.0
 20
0.0
 30
0.0
210
0.0
220
0.0
230
1.0
  2
_U
 70
     0
 71
     0
 91
        1
 92
        7
 72
     0
 73
     1
 93
        4
 10
283.9584716247607
 20
404.4592260810629
 10
254.7200122101251
 20
404.4592260810629
 10
254.7200122101251
 20
402.5592260810628
 10
283.9584716247608
 20
402.559226081063
 97
        0
 75
     0
 76
     0
 52
30.0
 41
0.7
 77
     0
 78
     1
 53
30.0
 43
-207.181706
 44
0.0
 45
-0.3499999999999999
 46
0.6062177826491072
 79
     0
 47
0.060863
 98
        1
 10
280.084636
 20
403.515247
  0
HATCH
  5
22B
100
AcDbEntity
  8
HATCH
100
AcDbHatch
 10
0.0
 20
0.0
 30
0.0
210
0.0
220
0.0
230
1.0
  2
_U
 70
     0
 71
     1
 91
        2
 92
        7
 72
     0
 73
     1
 93
       11
 10
265.4066524304886
 20
220.0138856722447
 10
249.9655344179457
 20
220.0138856722446
 10
249.2655344179456
 20
219.3138856722447
 10
249.2655344179457
 20
213.7138856722445
 10
249.9655344179457
 20
213.0138856722445
 10
252.7655344179458
 20
213.0138856722445
 10
253.7655344179456
 20
214.0138856722445
 10
265.7655344179452
 20
214.0138856722445
 10
266.7655344179449
 20
213.0138856722445
 10
269.7655344179455
 20
213.0138856722445
 10
269.7655344179455
 20
215.6550036847877
 97
       10
330
415
330
334
330
339
330
335
330
419
330
22F
330
231
330
230
330
322
330
324
 92
        7
 72
     0
 73
     1
 93
       11
 10
281.1244164054028
 20
220.0138856722446
 10
276.7655344179456
 20
215.6550036847875
 10
276.7655344179457
 20
213.0138856722445
 10
279.7655344179464
 20
213.0138856722445
 10
280.765534417946
 20
214.0138856722445
 10
292.7655344179456
 20
214.0138856722444
 10
293.7655344179455
 20
213.0138856722445
 10
296.5655344179456
 20
213.0138856722445
 10
297.2655344179455
 20
213.7138856722444
 10
297.2655344179456
 20
219.3138856722447
 10
296.5655344179456
 20
220.0138856722447
 97
       10
330
32F
330
415
330
326
330
321
330
309
330
22D
330
22E
330
22C
330
330
330
331
 75
     0
 76
     0
 52
135.0
 41
1.5
 77
     0
 78
     1
 53
135.0
 43
-227.181706
 44
-27.472589
 45
-1.060660171779821
 46
-1.060660171779821
 79
     0
 47
0.040219
 98
        2
 10
264.417317
 20
217.493456
 10
282.885605
 20
217.051044
  0
LINE
  5
22C
102
{ACAD_REACTORS
330
22B
102
}
100
AcDbEntity
  8
M05
100
AcDbLine
 10
292.765534
 20
214.013886
 30
0.0
 11
293.765534
 21
213.013886
 31
0.0
  0
LINE
  5
22D
102
{ACAD_REACTORS
330
22B
102
}
100
AcDbEntity
  8
M05
100
AcDbLine
 10
280.765534
 20
214.013886
 30
0.0
 11
279.765534
 21
213.013886
 31
0.0
  0
LINE
  5
22E
102
{ACAD_REACTORS
330
22B
102
}
100
AcDbEntity
  8
M05
100
AcDbLine
 10
292.765534
 20
214.013886
 30
0.0
 11
280.765534
 21
214.013886
 31
0.0
  0
LINE
  5
22F
102
{ACAD_REACTORS
330
22B
102
}
100
AcDbEntity
  8
M05
100
AcDbLine
 10
253.765534
 20
214.013886
 30
0.0
 11
252.765534
 21
213.013886
 31
0.0
  0
LINE
  5
230
102
{ACAD_REACTORS
330
22B
102
}
100
AcDbEntity
  8
M05
100
AcDbLine
 10
265.765534
 20
214.013886
 30
0.0
 11
266.765534
 21
213.013886
 31
0.0
  0
LINE
  5
231
102
{ACAD_REACTORS
330
22B
102
}
100
AcDbEntity
  8
M05
100
AcDbLine
 10
253.765534
 20
214.013886
 30
0.0
 11
265.765534
 21
214.013886
 31
0.0
  0
LINE
  5
232
102
{ACAD_REACTORS
330
23
102
}
100
AcDbEntity
  8
M05
100
AcDbLine
 10
553.765534
 20
214.013886
 30
0.0
 11
552.765534
 21
213.013886
 31
0.0
  0
LINE
  5
233
102
{ACAD_REACTORS
330
23
102
}
100
AcDbEntity
  8
M05
100
AcDbLine
 10
565.765534
 20
214.013886
 30
0.0
 11
566.765534
 21
213.013886
 31
0.0
  0
LINE
  5
234
102
{ACAD_REACTORS
330
23
102
}
100
AcDbEntity
  8
M05
100
AcDbLine
 10
553.765534
 20
214.013886
 30
0.0
 11
565.765534
 21
214.013886
 31
0.0
  0
LINE
  5
235
102
{ACAD_REACTORS
330
23
102
}
100
AcDbEntity
  8
M05
100
AcDbLine
 10
592.765534
 20
214.013886
 30
0.0
 11
593.765534
 21
213.013886
 31
0.0
  0
LINE
  5
236
102
{ACAD_REACTORS
330
23
102
}
100
AcDbEntity
  8
M05
100
AcDbLine
 10
580.765534
 20
214.013886
 30
0.0
 11
579.765534
 21
213.013886
 31
0.0
  0
LINE
  5
237
102
{ACAD_REACTORS
330
23
102
}
100
AcDbEntity
  8
M05
100
AcDbLine
 10
592.765534
 20
214.013886
 30
0.0
 11
580.765534
 21
214.013886
 31
0.0
  0
MTEXT
  5
238
100
AcDbEntity
  8
0
  6
BYBLOCK
 62
     2
100
AcDbMText
 10
468.701285
 20
508.3582
 30
0.0
 40
3.0
 41
0.0
 71
     4
 72
     1
  1
M12 PLATE RETAINING SCREWS SHOULD ALSO BE FITTED.\PMINIMUM 2 PER DROP & ALSO AROUND MANIFOLD POCKET.
  0
SOLID
  5
239
100
AcDbEntity
  8
0
  6
BYBLOCK
 62
     4
100
AcDbTrace
 10
477.804975
 20
488.968819
 30
0.0
 11
476.963
 21
489.508335
 31
0.0
 12
475.765442
 22
486.71265
 32
0.0
 13
475.765442
 23
486.71265
 33
0.0
  0
LINE
  5
23A
100
AcDbEntity
  8
0
  6
BYBLOCK
 62
     4
100
AcDbLine
 10
477.383988
 20
489.238577
 30
0.0
 11
484.866419
 21
501.206208
 31
0.0
  0
LINE
  5
23B
100
AcDbEntity
  8
M01
100
AcDbLine
 10
438.515534
 20
530.503326
 30
0.0
 11
432.015534
 21
530.503326
 31
0.0
  0
LINE
  5
23C
100
AcDbEntity
  8
M01
100
AcDbLine
 10
438.515534
 20
538.615126
 30
0.0
 11
432.015534
 21
538.615126
 31
0.0
  0
LINE
  5
23D
100
AcDbEntity
  8
M01
100
AcDbLine
 10
438.515534
 20
530.503326
 30
0.0
 11
438.515534
 21
528.559226
 31
0.0
  0
ARC
  5
23E
100
AcDbEntity
  8
M01
100
AcDbCircle
 10
439.765534
 20
532.064576
 30
0.0
 40
2.0
100
AcDbArc
 50
180.0
 51
231.317813
  0
ARC
  5
23F
100
AcDbEntity
  8
M01
100
AcDbCircle
 10
439.765534
 20
537.053876
 30
0.0
 40
2.0
100
AcDbArc
 50
128.682187
 51
180.0
  0
LINE
  5
240
100
AcDbEntity
  8
M01
100
AcDbLine
 10
438.515534
 20
540.559226
 30
0.0
 11
438.515534
 21
538.615126
 31
0.0
  0
LINE
  5
241
100
AcDbEntity
  8
M01
100
AcDbLine
 10
437.765534
 20
537.053876
 30
0.0
 11
437.765534
 21
532.064576
 31
0.0
  0
LINE
  5
242
100
AcDbEntity
  8
M01
100
AcDbLine
 10
432.015534
 20
530.503326
 30
0.0
 11
432.015534
 21
528.559226
 31
0.0
  0
ARC
  5
243
100
AcDbEntity
  8
M01
100
AcDbCircle
 10
430.765534
 20
532.064576
 30
0.0
 40
2.0
100
AcDbArc
 50
308.682187
 51
0.0
  0
ARC
  5
244
100
AcDbEntity
  8
M01
100
AcDbCircle
 10
430.765534
 20
537.053876
 30
0.0
 40
2.0
100
AcDbArc
 50
0.0
 51
51.317813
  0
LINE
  5
245
100
AcDbEntity
  8
M01
100
AcDbLine
 10
432.015534
 20
540.559226
 30
0.0
 11
432.015534
 21
538.615126
 31
0.0
  0
LINE
  5
246
100
AcDbEntity
  8
M01
100
AcDbLine
 10
432.765534
 20
537.053876
 30
0.0
 11
432.765534
 21
532.064576
 31
0.0
  0
LINE
  5
247
100
AcDbEntity
  8
DIMS
 62
     4
100
AcDbLine
 10
375.765534
 20
485.959226
 30
0.0
 11
375.765534
 21
490.759226
 31
0.0
  0
LINE
  5
248
100
AcDbEntity
  8
DIMS
 62
     4
100
AcDbLine
 10
375.765534
 20
479.159226
 30
0.0
 11
375.765534
 21
474.359226
 31
0.0
  0
LINE
  5
249
100
AcDbEntity
  8
DIMS
 62
     4
100
AcDbLine
 10
379.165534
 20
482.559226
 30
0.0
 11
383.965534
 21
482.559226
 31
0.0
  0
LINE
  5
24A
100
AcDbEntity
  8
DIMS
 62
     4
100
AcDbLine
 10
372.365534
 20
482.559226
 30
0.0
 11
367.565534
 21
482.559226
 31
0.0
  0
LINE
  5
24B
100
AcDbEntity
  8
DIMS
 62
     4
100
AcDbLine
 10
375.765534
 20
480.859226
 30
0.0
 11
375.765534
 21
484.259226
 31
0.0
  0
LINE
  5
24C
100
AcDbEntity
  8
DIMS
 62
     4
100
AcDbLine
 10
374.065534
 20
482.559226
 30
0.0
 11
377.465534
 21
482.559226
 31
0.0
  0
CIRCLE
  5
24D
100
AcDbEntity
  8
M04
100
AcDbCircle
 10
375.765534
 20
482.559226
 30
0.0
 40
6.5
  0
HATCH
  5
24E
100
AcDbEntity
  8
DIMS
100
AcDbHatch
 10
0.0
 20
0.0
 30
0.0
210
0.0
220
0.0
230
1.0
  2
_U
 70
     0
 71
     1
 91
        5
 92
        7
 72
     0
 73
     1
 93
        9
 10
454.7655344179457
 20
218.0138856722444
 10
454.7655344179457
 20
214.0138856722445
 10
456.5655344179458
 20
214.0138856722445
 10
457.2655344179459
 20
214.7138856722445
 10
457.2655344179459
 20
219.3138856722446
 10
456.5655344179456
 20
220.0138856722447
 10
452.9655344179457
 20
220.0138856722447
 10
452.9655344179456
 20
218.0138856722445
 10
454.5155344179459
 20
218.0138856722445
 97
        9
330
3FA
330
28D
330
2A1
330
292
330
2A6
330
294
330
3FD
330
3FB
330
3FE
 92
        7
 72
     1
 73
     1
 93
       16
 10
442.5655344179456
 20
209.0138856722445
 42
0.0
 10
443.2655344179457
 20
209.7138856722446
 42
0.0
 10
443.2655344179456
 20
211.0138856722446
 42
0.0
 10
442.7655344179457
 20
211.0138856722445
 42
0.0
 10
442.7655344179457
 20
214.0138856722445
 42
0.0
 10
443.7655344179457
 20
214.0138856722445
 42
0.0
 10
443.7655344179457
 20
218.0138856722445
 42
0.0
 10
444.0155344179458
 20
218.0138856722445
 42
0.0
 10
445.5655344179456
 20
218.0138856722445
 42
0.0
 10
445.5655344179457
 20
220.0138856722447
 42
0.0
 10
433.2655344179455
 20
220.0138856722447
 42
0.0
 10
433.2655344179455
 20
229.0138856722444
 42
0.0
 10
432.2655344179455
 20
230.0138856722444
 42
0.0
 10
427.2655344179457
 20
230.0138856722445
 42
0.0
 10
426.3064084158416
 20
211.7126713253457
 42
-0.1092323044357261
 10
432.4306858078571
 20
209.0138856722444
 42
0.0
 97
       16
330
3FD
330
295
330
293
330
292
330
2A0
330
3DB
330
407
330
403
330
405
330
3E4
330
3E5
330
3F3
330
3F2
330
3F5
330
3F0
330
3EF
 92
        7
 72
     1
 73
     1
 93
       16
 10
420.2246604200495
 20
211.7126713253457
 42
0.0
 10
419.2655344179457
 20
230.0138856722445
 42
0.0
 10
414.2655344179456
 20
230.0138856722445
 42
0.0
 10
413.2655344179457
 20
229.0138856722445
 42
0.0
 10
413.2655344179457
 20
220.0138856722447
 42
0.0
 10
400.9655344179456
 20
220.0138856722448
 42
0.0
 10
400.9655344179457
 20
218.0138856722445
 42
0.0
 10
402.5155344179455
 20
218.0138856722445
 42
0.0
 10
402.7655344179455
 20
218.0138856722445
 42
0.0
 10
402.7655344179455
 20
214.0138856722446
 42
0.0
 10
403.7655344179457
 20
214.0138856722446
 42
0.0
 10
403.7655344179456
 20
211.0138856722443
 42
0.0
 10
403.2655344179458
 20
211.0138856722443
 42
0.0
 10
403.2655344179456
 20
209.7138856722442
 42
0.0
 10
403.9655344179458
 20
209.0138856722442
 42
0.0
 10
414.1003830280339
 20
209.0138856722443
 42
-0.1092323044357273
 97
       16
330
405
330
404
330
406
330
415
330
285
330
277
330
278
330
27A
330
3ED
330
3EE
330
3EC
330
3F4
330
3F1
330
3F3
330
3E1
330
3E3
 92
        7
 72
     0
 73
     1
 93
        9
 10
391.7655344179456
 20
218.0138856722444
 10
392.0155344179454
 20
218.0138856722444
 10
393.5655344179456
 20
218.0138856722444
 10
393.5655344179456
 20
220.0138856722447
 10
389.9655344179456
 20
220.0138856722447
 10
389.2655344179454
 20
219.3138856722446
 10
389.2655344179454
 20
214.7138856722446
 10
389.9655344179452
 20
214.0138856722446
 10
391.7655344179456
 20
214.0138856722446
 97
        9
330
415
330
3F8
330
3F9
330
3D9
330
3ED
330
279
330
28B
330
277
330
286
 92
       24
 93
        4
 72
     1
 10
427.839615
 20
215.081373
 11
442.211044
 21
215.081373
 72
     1
 10
442.211044
 20
215.081373
 11
442.211044
 21
218.081373
 72
     1
 10
442.211044
 20
218.081373
 11
427.839615
 21
218.081373
 72
     1
 10
427.839615
 20
218.081373
 11
427.839615
 21
215.081373
 97
        1
330
3D5
 75
     0
 76
     0
 52
135.0
 41
2.5
 77
     0
 78
     1
 53
135.0
 43
-132.181706
 44
-27.472589
 45
-1.767766952966368
 46
-1.767766952966368
 79
     0
 47
0.085632
 98
        4
 10
455.762497
 20
218.37187
 10
438.115052
 20
212.377641
 10
415.327573
 20
213.576487
 10
391.083754
 20
218.37187
  0
LINE
  5
24F
100
AcDbEntity
  8
DIMS
 62
     4
100
AcDbLine
 10
246.865534
 20
224.013886
 30
0.0
 11
244.565534
 21
224.013886
 31
0.0
  0
LINE
  5
250
100
AcDbEntity
  8
DIMS
 62
     4
100
AcDbLine
 10
253.665534
 20
224.013886
 30
0.0
 11
255.965534
 21
224.013886
 31
0.0
  0
LINE
  5
251
100
AcDbEntity
  8
DIMS
 62
     4
100
AcDbLine
 10
250.265534
 20
227.413886
 30
0.0
 11
250.265534
 21
229.713886
 31
0.0
  0
LINE
  5
252
100
AcDbEntity
  8
DIMS
 62
     4
100
AcDbLine
 10
250.265534
 20
220.613886
 30
0.0
 11
250.265534
 21
218.313886
 31
0.0
  0
LINE
  5
253
100
AcDbEntity
  8
DIMS
 62
     4
100
AcDbLine
 10
251.965534
 20
224.013886
 30
0.0
 11
248.565534
 21
224.013886
 31
0.0
  0
LINE
  5
254
100
AcDbEntity
  8
DIMS
 62
     4
100
AcDbLine
 10
250.265534
 20
222.313886
 30
0.0
 11
250.265534
 21
225.713886
 31
0.0
  0
LINE
  5
255
102
{ACAD_REACTORS
330
20
102
}
100
AcDbEntity
  8
M01
100
AcDbLine
 10
254.265534
 20
224.013886
 30
0.0
 11
254.265534
 21
220.013886
 31
0.0
  0
LINE
  5
256
102
{ACAD_REACTORS
330
20
102
}
100
AcDbEntity
  8
M01
100
AcDbLine
 10
246.265534
 20
224.013886
 30
0.0
 11
246.265534
 21
220.013886
 31
0.0
  0
CIRCLE
  5
257
102
{ACAD_REACTORS
330
228
330
20
102
}
100
AcDbEntity
  8
M01
100
AcDbCircle
 10
250.265534
 20
224.013886
 30
0.0
 40
4.0
  0
LINE
  5
258
100
AcDbEntity
  8
DIMS
 62
     4
100
AcDbLine
 10
246.865534
 20
276.013886
 30
0.0
 11
244.565534
 21
276.013886
 31
0.0
  0
LINE
  5
259
100
AcDbEntity
  8
DIMS
 62
     4
100
AcDbLine
 10
253.665534
 20
276.013886
 30
0.0
 11
255.965534
 21
276.013886
 31
0.0
  0
LINE
  5
25A
100
AcDbEntity
  8
DIMS
 62
     4
100
AcDbLine
 10
250.265534
 20
272.613886
 30
0.0
 11
250.265534
 21
270.313886
 31
0.0
  0
LINE
  5
25B
100
AcDbEntity
  8
DIMS
 62
     4
100
AcDbLine
 10
250.265534
 20
279.413886
 30
0.0
 11
250.265534
 21
281.713886
 31
0.0
  0
LINE
  5
25C
100
AcDbEntity
  8
DIMS
 62
     4
100
AcDbLine
 10
251.965534
 20
276.013886
 30
0.0
 11
248.565534
 21
276.013886
 31
0.0
  0
LINE
  5
25D
100
AcDbEntity
  8
DIMS
 62
     4
100
AcDbLine
 10
250.265534
 20
277.713886
 30
0.0
 11
250.265534
 21
274.313886
 31
0.0
  0
LINE
  5
25E
102
{ACAD_REACTORS
330
20
102
}
100
AcDbEntity
  8
M01
100
AcDbLine
 10
254.265534
 20
276.013886
 30
0.0
 11
254.265534
 21
280.013886
 31
0.0
  0
LINE
  5
25F
102
{ACAD_REACTORS
330
20
102
}
100
AcDbEntity
  8
M01
100
AcDbLine
 10
246.265534
 20
276.013886
 30
0.0
 11
246.265534
 21
280.013886
 31
0.0
  0
CIRCLE
  5
260
102
{ACAD_REACTORS
330
228
330
20
102
}
100
AcDbEntity
  8
M01
100
AcDbCircle
 10
250.265534
 20
276.013886
 30
0.0
 40
4.0
  0
LINE
  5
261
100
AcDbEntity
  8
DIMS
 62
     4
100
AcDbLine
 10
599.665534
 20
224.013886
 30
0.0
 11
601.965534
 21
224.013886
 31
0.0
  0
LINE
  5
262
100
AcDbEntity
  8
DIMS
 62
     4
100
AcDbLine
 10
592.865534
 20
224.013886
 30
0.0
 11
590.565534
 21
224.013886
 31
0.0
  0
LINE
  5
263
100
AcDbEntity
  8
DIMS
 62
     4
100
AcDbLine
 10
596.265534
 20
227.413886
 30
0.0
 11
596.265534
 21
229.713886
 31
0.0
  0
LINE
  5
264
100
AcDbEntity
  8
DIMS
 62
     4
100
AcDbLine
 10
596.265534
 20
220.613886
 30
0.0
 11
596.265534
 21
218.313886
 31
0.0
  0
LINE
  5
265
100
AcDbEntity
  8
DIMS
 62
     4
100
AcDbLine
 10
594.565534
 20
224.013886
 30
0.0
 11
597.965534
 21
224.013886
 31
0.0
  0
LINE
  5
266
100
AcDbEntity
  8
DIMS
 62
     4
100
AcDbLine
 10
596.265534
 20
222.313886
 30
0.0
 11
596.265534
 21
225.713886
 31
0.0
  0
LINE
  5
267
102
{ACAD_REACTORS
330
20
102
}
100
AcDbEntity
  8
M01
100
AcDbLine
 10
592.265534
 20
224.013886
 30
0.0
 11
592.265534
 21
220.013886
 31
0.0
  0
LINE
  5
268
102
{ACAD_REACTORS
330
20
102
}
100
AcDbEntity
  8
M01
100
AcDbLine
 10
600.265534
 20
224.013886
 30
0.0
 11
600.265534
 21
220.013886
 31
0.0
  0
CIRCLE
  5
269
102
{ACAD_REACTORS
330
82
330
20
102
}
100
AcDbEntity
  8
M01
100
AcDbCircle
 10
596.265534
 20
224.013886
 30
0.0
 40
4.0
  0
LINE
  5
26A
100
AcDbEntity
  8
DIMS
 62
     4
100
AcDbLine
 10
599.665534
 20
276.013886
 30
0.0
 11
601.965534
 21
276.013886
 31
0.0
  0
LINE
  5
26B
100
AcDbEntity
  8
DIMS
 62
     4
100
AcDbLine
 10
592.865534
 20
276.013886
 30
0.0
 11
590.565534
 21
276.013886
 31
0.0
  0
LINE
  5
26C
100
AcDbEntity
  8
DIMS
 62
     4
100
AcDbLine
 10
596.265534
 20
272.613886
 30
0.0
 11
596.265534
 21
270.313886
 31
0.0
  0
LINE
  5
26D
100
AcDbEntity
  8
DIMS
 62
     4
100
AcDbLine
 10
596.265534
 20
279.413886
 30
0.0
 11
596.265534
 21
281.713886
 31
0.0
  0
LINE
  5
26E
100
AcDbEntity
  8
DIMS
 62
     4
100
AcDbLine
 10
594.565534
 20
276.013886
 30
0.0
 11
597.965534
 21
276.013886
 31
0.0
  0
LINE
  5
26F
100
AcDbEntity
  8
DIMS
 62
     4
100
AcDbLine
 10
596.265534
 20
277.713886
 30
0.0
 11
596.265534
 21
274.313886
 31
0.0
  0
LINE
  5
270
102
{ACAD_REACTORS
330
20
102
}
100
AcDbEntity
  8
M01
100
AcDbLine
 10
592.265534
 20
276.013886
 30
0.0
 11
592.265534
 21
280.013886
 31
0.0
  0
LINE
  5
271
102
{ACAD_REACTORS
330
20
102
}
100
AcDbEntity
  8
M01
100
AcDbLine
 10
600.265534
 20
276.013886
 30
0.0
 11
600.265534
 21
280.013886
 31
0.0
  0
CIRCLE
  5
272
102
{ACAD_REACTORS
330
82
330
20
102
}
100
AcDbEntity
  8
M01
100
AcDbCircle
 10
596.265534
 20
276.013886
 30
0.0
 40
4.0
  0
LINE
  5
273
102
{ACAD_REACTORS
330
20
102
}
100
AcDbEntity
  8
M04
100
AcDbLine
 10
400.265534
 20
227.313886
 30
0.0
 11
400.265534
 21
229.813886
 31
0.0
  0
LINE
  5
274
102
{ACAD_REACTORS
330
20
102
}
100
AcDbEntity
  8
M04
100
AcDbLine
 10
399.565534
 20
228.013886
 30
0.0
 11
399.565534
 21
231.313886
 31
0.0
  0
LINE
  5
275
102
{ACAD_REACTORS
330
20
102
}
100
AcDbEntity
  8
M04
100
AcDbLine
 10
394.265534
 20
227.313886
 30
0.0
 11
394.265534
 21
229.813886
 31
0.0
  0
LINE
  5
276
102
{ACAD_REACTORS
330
20
102
}
100
AcDbEntity
  8
M04
100
AcDbLine
 10
394.965534
 20
228.013886
 30
0.0
 11
394.965534
 21
231.313886
 31
0.0
  0
LINE
  5
277
102
{ACAD_REACTORS
330
24E
102
}
100
AcDbEntity
  8
M05
100
AcDbLine
 10
392.015534
 20
218.013886
 30
0.0
 11
402.515534
 21
218.013886
 31
0.0
  0
LINE
  5
278
102
{ACAD_REACTORS
330
24E
102
}
100
AcDbEntity
  8
M04
100
AcDbLine
 10
402.515534
 20
218.013886
 30
0.0
 11
402.765534
 21
218.013886
 31
0.0
  0
LINE
  5
279
102
{ACAD_REACTORS
330
24E
102
}
100
AcDbEntity
  8
M04
100
AcDbLine
 10
391.765534
 20
218.013886
 30
0.0
 11
391.765534
 21
214.013886
 31
0.0
  0
LINE
  5
27A
102
{ACAD_REACTORS
330
24E
102
}
100
AcDbEntity
  8
M04
100
AcDbLine
 10
402.765534
 20
218.013886
 30
0.0
 11
402.765534
 21
214.013886
 31
0.0
  0
LINE
  5
27B
100
AcDbEntity
  8
M05
100
AcDbLine
 10
400.265534
 20
219.013886
 30
0.0
 11
394.265534
 21
219.013886
 31
0.0
  0
LINE
  5
27C
102
{ACAD_REACTORS
330
20
102
}
100
AcDbEntity
  8
M04
100
AcDbLine
 10
394.965534
 20
231.313886
 30
0.0
 11
397.265534
 21
232.641791
 31
0.0
  0
LINE
  5
27D
102
{ACAD_REACTORS
330
20
102
}
100
AcDbEntity
  8
M04
100
AcDbLine
 10
399.565534
 20
231.313886
 30
0.0
 11
397.265534
 21
232.641791
 31
0.0
  0
LINE
  5
27E
100
AcDbEntity
  8
M04
100
AcDbLine
 10
399.565534
 20
231.313886
 30
0.0
 11
394.965534
 21
231.313886
 31
0.0
  0
LINE
  5
27F
102
{ACAD_REACTORS
330
20
102
}
100
AcDbEntity
  8
M04
100
AcDbLine
 10
400.265534
 20
229.813886
 30
0.0
 11
394.265534
 21
229.813886
 31
0.0
  0
ARC
  5
280
100
AcDbEntity
  8
M05
100
AcDbCircle
 10
397.265534
 20
220.540022
 30
0.0
 40
5.826136
100
AcDbArc
 50
205.69541
 51
334.30459
  0
LINE
  5
281
100
AcDbEntity
  8
M05
100
AcDbLine
 10
394.265534
 20
227.313886
 30
0.0
 11
394.965534
 21
228.013886
 31
0.0
  0
LINE
  5
282
100
AcDbEntity
  8
M05
100
AcDbLine
 10
400.265534
 20
227.313886
 30
0.0
 11
399.565534
 21
228.013886
 31
0.0
  0
LINE
  5
283
100
AcDbEntity
  8
M05
100
AcDbLine
 10
400.265534
 20
227.313886
 30
0.0
 11
394.265534
 21
227.313886
 31
0.0
  0
LINE
  5
284
100
AcDbEntity
  8
M05
100
AcDbLine
 10
399.565534
 20
228.013886
 30
0.0
 11
394.965534
 21
228.013886
 31
0.0
  0
LINE
  5
285
102
{ACAD_REACTORS
330
24E
102
}
100
AcDbEntity
  8
M04
100
AcDbLine
 10
400.965534
 20
220.013886
 30
0.0
 11
400.965534
 21
218.013886
 31
0.0
  0
LINE
  5
286
102
{ACAD_REACTORS
330
24E
102
}
100
AcDbEntity
  8
M04
100
AcDbLine
 10
393.565534
 20
220.013886
 30
0.0
 11
393.565534
 21
218.013886
 31
0.0
  0
LINE
  5
287
100
AcDbEntity
  8
M05
100
AcDbLine
 10
394.965534
 20
228.013886
 30
0.0
 11
394.965534
 21
219.013886
 31
0.0
  0
LINE
  5
288
100
AcDbEntity
  8
M05
100
AcDbLine
 10
399.565534
 20
228.013886
 30
0.0
 11
399.565534
 21
219.013886
 31
0.0
  0
LINE
  5
289
102
{ACAD_REACTORS
330
20
102
}
100
AcDbEntity
  8
M05
100
AcDbLine
 10
400.265534
 20
227.313886
 30
0.0
 11
400.265534
 21
218.013886
 31
0.0
  0
LINE
  5
28A
102
{ACAD_REACTORS
330
20
102
}
100
AcDbEntity
  8
M05
100
AcDbLine
 10
394.265534
 20
227.313886
 30
0.0
 11
394.265534
 21
218.013886
 31
0.0
  0
LINE
  5
28B
102
{ACAD_REACTORS
330
24E
102
}
100
AcDbEntity
  8
M04
100
AcDbLine
 10
391.765534
 20
218.013886
 30
0.0
 11
392.015534
 21
218.013886
 31
0.0
  0
LINE
  5
28C
100
AcDbEntity
  8
CENTRE
100
AcDbLine
 10
397.265534
 20
235.280386
 30
0.0
 11
397.265534
 21
210.367697
 31
0.0
  0
LINE
  5
28D
102
{ACAD_REACTORS
330
24E
330
80
330
23
330
20
102
}
100
AcDbEntity
  8
M01
100
AcDbLine
 10
452.265534
 20
220.013886
 30
0.0
 11
603.265534
 21
220.013886
 31
0.0
  0
LINE
  5
28E
102
{ACAD_REACTORS
330
20
102
}
100
AcDbEntity
  8
M04
100
AcDbLine
 10
446.265534
 20
227.313886
 30
0.0
 11
446.265534
 21
229.813886
 31
0.0
  0
LINE
  5
28F
102
{ACAD_REACTORS
330
20
102
}
100
AcDbEntity
  8
M04
100
AcDbLine
 10
446.965534
 20
228.013886
 30
0.0
 11
446.965534
 21
231.313886
 31
0.0
  0
LINE
  5
290
102
{ACAD_REACTORS
330
20
102
}
100
AcDbEntity
  8
M04
100
AcDbLine
 10
452.265534
 20
227.313886
 30
0.0
 11
452.265534
 21
229.813886
 31
0.0
  0
LINE
  5
291
102
{ACAD_REACTORS
330
20
102
}
100
AcDbEntity
  8
M04
100
AcDbLine
 10
451.565534
 20
228.013886
 30
0.0
 11
451.565534
 21
231.313886
 31
0.0
  0
LINE
  5
292
102
{ACAD_REACTORS
330
24E
102
}
100
AcDbEntity
  8
M05
100
AcDbLine
 10
454.515534
 20
218.013886
 30
0.0
 11
444.015534
 21
218.013886
 31
0.0
  0
LINE
  5
293
102
{ACAD_REACTORS
330
24E
102
}
100
AcDbEntity
  8
M04
100
AcDbLine
 10
444.015534
 20
218.013886
 30
0.0
 11
443.765534
 21
218.013886
 31
0.0
  0
LINE
  5
294
102
{ACAD_REACTORS
330
24E
102
}
100
AcDbEntity
  8
M04
100
AcDbLine
 10
454.765534
 20
218.013886
 30
0.0
 11
454.765534
 21
214.013886
 31
0.0
  0
LINE
  5
295
102
{ACAD_REACTORS
330
24E
102
}
100
AcDbEntity
  8
M04
100
AcDbLine
 10
443.765534
 20
218.013886
 30
0.0
 11
443.765534
 21
214.013886
 31
0.0
  0
LINE
  5
296
100
AcDbEntity
  8
M05
100
AcDbLine
 10
446.265534
 20
219.013886
 30
0.0
 11
452.265534
 21
219.013886
 31
0.0
  0
LINE
  5
297
102
{ACAD_REACTORS
330
20
102
}
100
AcDbEntity
  8
M04
100
AcDbLine
 10
451.565534
 20
231.313886
 30
0.0
 11
449.265534
 21
232.641791
 31
0.0
  0
LINE
  5
298
102
{ACAD_REACTORS
330
20
102
}
100
AcDbEntity
  8
M04
100
AcDbLine
 10
446.965534
 20
231.313886
 30
0.0
 11
449.265534
 21
232.641791
 31
0.0
  0
LINE
  5
299
100
AcDbEntity
  8
M04
100
AcDbLine
 10
446.965534
 20
231.313886
 30
0.0
 11
451.565534
 21
231.313886
 31
0.0
  0
LINE
  5
29A
102
{ACAD_REACTORS
330
20
102
}
100
AcDbEntity
  8
M04
100
AcDbLine
 10
446.265534
 20
229.813886
 30
0.0
 11
452.265534
 21
229.813886
 31
0.0
  0
ARC
  5
29B
100
AcDbEntity
  8
M05
100
AcDbCircle
 10
449.265534
 20
220.540022
 30
0.0
 40
5.826136
100
AcDbArc
 50
205.69541
 51
334.30459
  0
LINE
  5
29C
100
AcDbEntity
  8
M05
100
AcDbLine
 10
452.265534
 20
227.313886
 30
0.0
 11
451.565534
 21
228.013886
 31
0.0
  0
LINE
  5
29D
100
AcDbEntity
  8
M05
100
AcDbLine
 10
446.265534
 20
227.313886
 30
0.0
 11
446.965534
 21
228.013886
 31
0.0
  0
LINE
  5
29E
100
AcDbEntity
  8
M05
100
AcDbLine
 10
446.265534
 20
227.313886
 30
0.0
 11
452.265534
 21
227.313886
 31
0.0
  0
LINE
  5
29F
100
AcDbEntity
  8
M05
100
AcDbLine
 10
446.965534
 20
228.013886
 30
0.0
 11
451.565534
 21
228.013886
 31
0.0
  0
LINE
  5
2A0
102
{ACAD_REACTORS
330
24E
102
}
100
AcDbEntity
  8
M04
100
AcDbLine
 10
445.565534
 20
220.013886
 30
0.0
 11
445.565534
 21
218.013886
 31
0.0
  0
LINE
  5
2A1
102
{ACAD_REACTORS
330
24E
102
}
100
AcDbEntity
  8
M04
100
AcDbLine
 10
452.965534
 20
220.013886
 30
0.0
 11
452.965534
 21
218.013886
 31
0.0
  0
LINE
  5
2A2
100
AcDbEntity
  8
M05
100
AcDbLine
 10
451.565534
 20
228.013886
 30
0.0
 11
451.565534
 21
219.013886
 31
0.0
  0
LINE
  5
2A3
100
AcDbEntity
  8
M05
100
AcDbLine
 10
446.965534
 20
228.013886
 30
0.0
 11
446.965534
 21
219.013886
 31
0.0
  0
LINE
  5
2A4
102
{ACAD_REACTORS
330
20
102
}
100
AcDbEntity
  8
M05
100
AcDbLine
 10
446.265534
 20
227.313886
 30
0.0
 11
446.265534
 21
218.013886
 31
0.0
  0
LINE
  5
2A5
102
{ACAD_REACTORS
330
20
102
}
100
AcDbEntity
  8
M05
100
AcDbLine
 10
452.265534
 20
227.313886
 30
0.0
 11
452.265534
 21
218.013886
 31
0.0
  0
LINE
  5
2A6
102
{ACAD_REACTORS
330
24E
102
}
100
AcDbEntity
  8
M04
100
AcDbLine
 10
454.765534
 20
218.013886
 30
0.0
 11
454.515534
 21
218.013886
 31
0.0
  0
LINE
  5
2A7
100
AcDbEntity
  8
CENTRE
100
AcDbLine
 10
449.265534
 20
235.280386
 30
0.0
 11
449.265534
 21
210.367697
 31
0.0
  0
LINE
  5
2A8
100
AcDbEntity
  8
DIMS
 62
     4
100
AcDbLine
 10
397.265534
 20
435.959226
 30
0.0
 11
397.265534
 21
439.759226
 31
0.0
  0
LINE
  5
2A9
100
AcDbEntity
  8
DIMS
 62
     4
100
AcDbLine
 10
397.265534
 20
429.159226
 30
0.0
 11
397.265534
 21
425.359226
 31
0.0
  0
LINE
  5
2AA
100
AcDbEntity
  8
DIMS
 62
     4
100
AcDbLine
 10
397.265534
 20
430.859226
 30
0.0
 11
397.265534
 21
434.259226
 31
0.0
  0
LINE
  5
2AB
100
AcDbEntity
  8
DIMS
 62
     4
100
AcDbLine
 10
449.265534
 20
435.959226
 30
0.0
 11
449.265534
 21
439.759226
 31
0.0
  0
LINE
  5
2AC
100
AcDbEntity
  8
DIMS
 62
     4
100
AcDbLine
 10
449.265534
 20
429.159226
 30
0.0
 11
449.265534
 21
425.359226
 31
0.0
  0
LINE
  5
2AD
100
AcDbEntity
  8
DIMS
 62
     4
100
AcDbLine
 10
449.265534
 20
430.859226
 30
0.0
 11
449.265534
 21
434.259226
 31
0.0
  0
LINE
  5
2AE
100
AcDbEntity
  8
DIMS
 62
     4
100
AcDbLine
 10
426.665534
 20
458.559226
 30
0.0
 11
430.465534
 21
458.559226
 31
0.0
  0
LINE
  5
2AF
100
AcDbEntity
  8
DIMS
 62
     4
100
AcDbLine
 10
419.865534
 20
458.559226
 30
0.0
 11
416.065534
 21
458.559226
 31
0.0
  0
LINE
  5
2B0
100
AcDbEntity
  8
DIMS
 62
     4
100
AcDbLine
 10
421.565534
 20
458.559226
 30
0.0
 11
424.965534
 21
458.559226
 31
0.0
  0
MTEXT
  5
2B1
102
{ACAD_REACTORS
330
2B2
102
}
100
AcDbEntity
  8
DIMS
 62
     2
100
AcDbMText
 10
293.543967
 20
368.397196
 30
0.0
 40
3.0
 41
0.0
 71
     4
 72
     5
  1
HGX10037
  0
LEADER
  5
2B2
100
AcDbEntity
  8
DIMS
 62
     4
100
AcDbLeader
  3
DIM1$7
 73
     0
 74
     0
 75
     1
 40
3.0
 41
21.857143
 76
     3
 10
287.23111
 20
402.973989
 30
0.0
 10
289.043967
 20
368.397196
 30
0.0
 10
292.043967
 20
368.397196
 30
0.0
 77
   256
340
2B1
1001
ACAD
1000
DSTYLE
1002
{
1070
   288
1070
     1
1070
   144
1040
1.0
1002
}
  0
CIRCLE
  5
2B4
100
AcDbEntity
  8
M03
100
AcDbCircle
 10
449.265534
 20
432.559226
 30
0.0
 40
2.3
  0
ARC
  5
2B5
100
AcDbEntity
  8
M03
100
AcDbCircle
 10
449.265534
 20
432.559226
 30
0.0
 40
3.0
100
AcDbArc
 50
167.784636
 51
96.923103
  0
CIRCLE
  5
2B6
100
AcDbEntity
  8
M03
100
AcDbCircle
 10
449.265534
 20
432.559226
 30
0.0
 40
5.5
  0
CIRCLE
  5
2B7
100
AcDbEntity
  8
M03
100
AcDbCircle
 10
397.265534
 20
432.559226
 30
0.0
 40
2.3
  0
ARC
  5
2B8
100
AcDbEntity
  8
M03
100
AcDbCircle
 10
397.265534
 20
432.559226
 30
0.0
 40
3.0
100
AcDbArc
 50
167.784636
 51
96.923103
  0
CIRCLE
  5
2B9
100
AcDbEntity
  8
M03
100
AcDbCircle
 10
397.265534
 20
432.559226
 30
0.0
 40
5.5
  0
CIRCLE
  5
2BA
100
AcDbEntity
  8
M03
100
AcDbCircle
 10
423.265534
 20
458.559226
 30
0.0
 40
2.3
  0
ARC
  5
2BB
100
AcDbEntity
  8
M03
100
AcDbCircle
 10
423.265534
 20
458.559226
 30
0.0
 40
3.0
100
AcDbArc
 50
167.784636
 51
96.923103
  0
CIRCLE
  5
2BC
100
AcDbEntity
  8
M03
100
AcDbCircle
 10
423.265534
 20
458.559226
 30
0.0
 40
5.5
  0
LINE
  5
2BD
100
AcDbEntity
  8
M03
100
AcDbLine
 10
300.565534
 20
418.059226
 30
0.0
 11
298.265534
 21
419.387132
 31
0.0
  0
LINE
  5
2BE
100
AcDbEntity
  8
M03
100
AcDbLine
 10
295.965534
 20
418.059226
 30
0.0
 11
298.265534
 21
419.387132
 31
0.0
  0
LINE
  5
2BF
100
AcDbEntity
  8
M03
100
AcDbLine
 10
295.965534
 20
418.059226
 30
0.0
 11
300.565534
 21
418.059226
 31
0.0
  0
LINE
  5
2C0
100
AcDbEntity
  8
M03
100
AcDbLine
 10
295.265534
 20
416.559226
 30
0.0
 11
301.265534
 21
416.559226
 31
0.0
  0
LINE
  5
2C1
100
AcDbEntity
  8
M03
100
AcDbLine
 10
283.958472
 20
404.459226
 30
0.0
 11
254.720012
 21
404.459226
 31
0.0
  0
LINE
  5
2C2
100
AcDbEntity
  8
M03
100
AcDbLine
 10
283.958472
 20
402.559226
 30
0.0
 11
254.720012
 21
402.559226
 31
0.0
  0
LINE
  5
2C3
100
AcDbEntity
  8
M03
100
AcDbLine
 10
290.958472
 20
404.759226
 30
0.0
 11
305.265534
 21
404.759226
 31
0.0
  0
LINE
  5
2C4
100
AcDbEntity
  8
M03
100
AcDbLine
 10
289.913707
 20
405.559226
 30
0.0
 11
289.913707
 21
404.759226
 31
0.0
  0
LINE
  5
2C5
100
AcDbEntity
  8
M03
100
AcDbLine
 10
283.958472
 20
404.759226
 30
0.0
 11
283.958472
 21
402.259226
 31
0.0
  0
LINE
  5
2C6
100
AcDbEntity
  8
M03
100
AcDbLine
 10
283.958472
 20
402.259226
 30
0.0
 11
290.958472
 21
402.259226
 31
0.0
  0
LINE
  5
2C7
100
AcDbEntity
  8
M03
100
AcDbLine
 10
290.958472
 20
404.759226
 30
0.0
 11
290.958472
 21
402.259226
 31
0.0
  0
LINE
  5
2C8
100
AcDbEntity
  8
M03
100
AcDbLine
 10
305.265534
 20
405.559226
 30
0.0
 11
305.265534
 21
404.759226
 31
0.0
  0
ARC
  5
2C9
100
AcDbEntity
  8
M03
100
AcDbCircle
 10
298.265534
 20
407.285362
 30
0.0
 40
5.826136
100
AcDbArc
 50
205.69541
 51
334.30459
  0
LINE
  5
2CA
100
AcDbEntity
  8
M03
100
AcDbLine
 10
301.265534
 20
414.059226
 30
0.0
 11
300.565534
 21
414.759226
 31
0.0
  0
LINE
  5
2CB
100
AcDbEntity
  8
M03
100
AcDbLine
 10
295.265534
 20
414.059226
 30
0.0
 11
295.965534
 21
414.759226
 31
0.0
  0
LINE
  5
2CC
100
AcDbEntity
  8
M03
100
AcDbLine
 10
295.265534
 20
414.059226
 30
0.0
 11
301.265534
 21
414.059226
 31
0.0
  0
LINE
  5
2CD
100
AcDbEntity
  8
M03
100
AcDbLine
 10
295.965534
 20
414.759226
 30
0.0
 11
300.565534
 21
414.759226
 31
0.0
  0
LINE
  5
2CE
100
AcDbEntity
  8
M03
100
AcDbLine
 10
301.265534
 20
405.559226
 30
0.0
 11
308.265534
 21
405.559226
 31
0.0
  0
LINE
  5
2CF
100
AcDbEntity
  8
M03
100
AcDbLine
 10
284.565534
 20
405.559226
 30
0.0
 11
284.565534
 21
404.759226
 31
0.0
  0
LINE
  5
2D0
100
AcDbEntity
  8
M03
100
AcDbLine
 10
301.965534
 20
405.559226
 30
0.0
 11
301.965534
 21
404.759226
 31
0.0
  0
LINE
  5
2D1
100
AcDbEntity
  8
M03
100
AcDbLine
 10
300.565534
 20
418.059226
 30
0.0
 11
300.565534
 21
404.759226
 31
0.0
  0
LINE
  5
2D2
100
AcDbEntity
  8
M03
100
AcDbLine
 10
295.965534
 20
418.059226
 30
0.0
 11
295.965534
 21
404.759226
 31
0.0
  0
LINE
  5
2D3
100
AcDbEntity
  8
M03
100
AcDbLine
 10
295.265534
 20
416.559226
 30
0.0
 11
295.265534
 21
404.759226
 31
0.0
  0
LINE
  5
2D4
100
AcDbEntity
  8
M03
100
AcDbLine
 10
301.265534
 20
416.559226
 30
0.0
 11
301.265534
 21
404.759226
 31
0.0
  0
LINE
  5
2D5
100
AcDbEntity
  8
M03
100
AcDbLine
 10
283.958472
 20
404.759226
 30
0.0
 11
289.913707
 21
404.759226
 31
0.0
  0
LINE
  5
2D6
100
AcDbEntity
  8
M03
100
AcDbLine
 10
308.265534
 20
405.559226
 30
0.0
 11
308.265534
 21
400.559226
 31
0.0
  0
LINE
  5
2D7
100
AcDbEntity
  8
M03
100
AcDbLine
 10
248.265534
 20
405.559226
 30
0.0
 11
295.265534
 21
405.559226
 31
0.0
  0
LINE
  5
2D8
100
AcDbEntity
  8
CENTRE
100
AcDbLine
 10
298.265534
 20
423.757899
 30
0.0
 11
298.265534
 21
396.597749
 31
0.0
  0
CIRCLE
  5
2D9
100
AcDbEntity
  8
M03
100
AcDbCircle
 10
273.265534
 20
432.559226
 30
0.0
 40
2.3
  0
ARC
  5
2DA
100
AcDbEntity
  8
M03
100
AcDbCircle
 10
273.265534
 20
432.559226
 30
0.0
 40
3.0
100
AcDbArc
 50
167.784636
 51
96.923103
  0
CIRCLE
  5
2DB
100
AcDbEntity
  8
M03
100
AcDbCircle
 10
573.265534
 20
432.559226
 30
0.0
 40
2.3
  0
ARC
  5
2DC
100
AcDbEntity
  8
M03
100
AcDbCircle
 10
573.265534
 20
432.559226
 30
0.0
 40
3.0
100
AcDbArc
 50
167.784636
 51
96.923103
  0
LINE
  5
2DD
100
AcDbEntity
  8
DIMS
 62
     4
100
AcDbLine
 10
273.265534
 20
435.959226
 30
0.0
 11
273.265534
 21
459.259226
 31
0.0
  0
LINE
  5
2DE
100
AcDbEntity
  8
DIMS
 62
     4
100
AcDbLine
 10
273.265534
 20
429.159226
 30
0.0
 11
273.265534
 21
405.859226
 31
0.0
  0
LINE
  5
2DF
100
AcDbEntity
  8
DIMS
 62
     4
100
AcDbLine
 10
273.265534
 20
430.859226
 30
0.0
 11
273.265534
 21
434.259226
 31
0.0
  0
LINE
  5
2E0
100
AcDbEntity
  8
DIMS
 62
     4
100
AcDbLine
 10
573.265534
 20
435.959226
 30
0.0
 11
573.265534
 21
459.259226
 31
0.0
  0
LINE
  5
2E1
100
AcDbEntity
  8
DIMS
 62
     4
100
AcDbLine
 10
573.265534
 20
429.159226
 30
0.0
 11
573.265534
 21
405.859226
 31
0.0
  0
LINE
  5
2E2
100
AcDbEntity
  8
DIMS
 62
     4
100
AcDbLine
 10
573.265534
 20
430.859226
 30
0.0
 11
573.265534
 21
434.259226
 31
0.0
  0
LINE
  5
2E3
100
AcDbEntity
  8
M03
100
AcDbLine
 10
573.815534
 20
426.584488
 30
0.0
 11
573.815534
 21
438.533965
 31
0.0
  0
LINE
  5
2E4
100
AcDbEntity
  8
M03
100
AcDbLine
 10
572.715534
 20
426.584488
 30
0.0
 11
572.715534
 21
438.533965
 31
0.0
  0
CIRCLE
  5
2E5
100
AcDbEntity
  8
M03
100
AcDbCircle
 10
573.265534
 20
432.559226
 30
0.0
 40
25.0
  0
CIRCLE
  5
2E6
100
AcDbEntity
  8
M03
100
AcDbCircle
 10
573.265534
 20
432.559226
 30
0.0
 40
24.0
  0
CIRCLE
  5
2E7
100
AcDbEntity
  8
M03
100
AcDbCircle
 10
573.265534
 20
432.559226
 30
0.0
 40
7.858882
  0
CIRCLE
  5
2E8
100
AcDbEntity
  8
M03
100
AcDbCircle
 10
573.265534
 20
432.559226
 30
0.0
 40
6.0
  0
LINE
  5
2E9
100
AcDbEntity
  8
M03
100
AcDbLine
 10
272.715534
 20
426.584488
 30
0.0
 11
272.715534
 21
438.533965
 31
0.0
  0
LINE
  5
2EA
100
AcDbEntity
  8
M03
100
AcDbLine
 10
273.815534
 20
426.584488
 30
0.0
 11
273.815534
 21
438.533965
 31
0.0
  0
CIRCLE
  5
2EB
100
AcDbEntity
  8
M03
100
AcDbCircle
 10
273.265534
 20
432.559226
 30
0.0
 40
25.0
  0
CIRCLE
  5
2EC
100
AcDbEntity
  8
M03
100
AcDbCircle
 10
273.265534
 20
432.559226
 30
0.0
 40
24.0
  0
CIRCLE
  5
2ED
100
AcDbEntity
  8
M03
100
AcDbCircle
 10
273.265534
 20
432.559226
 30
0.0
 40
7.858882
  0
CIRCLE
  5
2EE
100
AcDbEntity
  8
M03
100
AcDbCircle
 10
273.265534
 20
432.559226
 30
0.0
 40
6.0
  0
LINE
  5
2EF
100
AcDbEntity
  8
M01
100
AcDbLine
 10
430.765534
 20
540.559226
 30
0.0
 11
439.765534
 21
540.559226
 31
0.0
  0
LINE
  5
2F0
100
AcDbEntity
  8
M01
100
AcDbLine
 10
439.765534
 20
541.359226
 30
0.0
 11
439.765534
 21
540.559226
 31
0.0
  0
LINE
  5
2F1
100
AcDbEntity
  8
M01
100
AcDbLine
 10
430.765534
 20
541.359226
 30
0.0
 11
430.765534
 21
540.559226
 31
0.0
  0
LINE
  5
2F2
100
AcDbEntity
  8
M01
100
AcDbLine
 10
408.015534
 20
530.503326
 30
0.0
 11
414.515534
 21
530.503326
 31
0.0
  0
LINE
  5
2F3
100
AcDbEntity
  8
M01
100
AcDbLine
 10
408.015534
 20
538.615126
 30
0.0
 11
414.515534
 21
538.615126
 31
0.0
  0
LINE
  5
2F4
100
AcDbEntity
  8
M01
100
AcDbLine
 10
408.015534
 20
530.503326
 30
0.0
 11
408.015534
 21
528.559226
 31
0.0
  0
ARC
  5
2F5
100
AcDbEntity
  8
M01
100
AcDbCircle
 10
406.765534
 20
532.064576
 30
0.0
 40
2.0
100
AcDbArc
 50
308.682187
 51
0.0
  0
ARC
  5
2F6
100
AcDbEntity
  8
M01
100
AcDbCircle
 10
406.765534
 20
537.053876
 30
0.0
 40
2.0
100
AcDbArc
 50
0.0
 51
51.317813
  0
LINE
  5
2F7
100
AcDbEntity
  8
M01
100
AcDbLine
 10
408.015534
 20
540.559226
 30
0.0
 11
408.015534
 21
538.615126
 31
0.0
  0
LINE
  5
2F8
100
AcDbEntity
  8
M01
100
AcDbLine
 10
408.765534
 20
537.053876
 30
0.0
 11
408.765534
 21
532.064576
 31
0.0
  0
LINE
  5
2F9
100
AcDbEntity
  8
M01
100
AcDbLine
 10
414.515534
 20
530.503326
 30
0.0
 11
414.515534
 21
528.559226
 31
0.0
  0
ARC
  5
2FA
100
AcDbEntity
  8
M01
100
AcDbCircle
 10
415.765534
 20
532.064576
 30
0.0
 40
2.0
100
AcDbArc
 50
180.0
 51
231.317813
  0
ARC
  5
2FB
100
AcDbEntity
  8
M01
100
AcDbCircle
 10
415.765534
 20
537.053876
 30
0.0
 40
2.0
100
AcDbArc
 50
128.682187
 51
180.0
  0
LINE
  5
2FC
100
AcDbEntity
  8
M01
100
AcDbLine
 10
414.515534
 20
540.559226
 30
0.0
 11
414.515534
 21
538.615126
 31
0.0
  0
LINE
  5
2FD
100
AcDbEntity
  8
M01
100
AcDbLine
 10
413.765534
 20
537.053876
 30
0.0
 11
413.765534
 21
532.064576
 31
0.0
  0
LINE
  5
2FE
100
AcDbEntity
  8
M01
100
AcDbLine
 10
440.265534
 20
523.559226
 30
0.0
 11
430.265534
 21
523.559226
 31
0.0
  0
LINE
  5
2FF
100
AcDbEntity
  8
M01
100
AcDbLine
 10
406.265534
 20
523.559226
 30
0.0
 11
416.265534
 21
523.559226
 31
0.0
  0
LINE
  5
300
100
AcDbEntity
  8
M01
100
AcDbLine
 10
406.265534
 20
528.559226
 30
0.0
 11
406.265534
 21
508.559226
 31
0.0
  0
LINE
  5
301
100
AcDbEntity
  8
M01
100
AcDbLine
 10
416.265534
 20
528.559226
 30
0.0
 11
416.265534
 21
508.559226
 31
0.0
  0
LINE
  5
302
100
AcDbEntity
  8
M01
100
AcDbLine
 10
430.265534
 20
528.559226
 30
0.0
 11
430.265534
 21
508.559226
 31
0.0
  0
LINE
  5
303
100
AcDbEntity
  8
M01
100
AcDbLine
 10
440.265534
 20
528.559226
 30
0.0
 11
440.265534
 21
508.559226
 31
0.0
  0
ARC
  5
304
100
AcDbEntity
  8
M03
100
AcDbCircle
 10
423.265534
 20
432.559226
 30
0.0
 40
34.0
100
AcDbArc
 50
289.749923
 51
250.250077
  0
WIPEOUT
  5
305
100
AcDbEntity
  8
TEXT
 92
      140
310
8C000000010000008400000006000000050000001A81CC352238824044ADFB9323186E400000000000000000286B6D440CB1824044ADFB9323186E400000000000000000296B6D440CB1824040ADFB9323986E4000000000000000001B81CC352238824045ADFB9323986E4000000000000000001A81CC352238824044ADFB
310
9323186E400000000000000000
100
AcDbWipeout
 90
        0
 10
559.930108
 20
206.553462
 30
0.0
 11
38.200882
 21
0.0
 31
0.0
 12
0.0
 22
38.200882
 32
0.0
 13
0.0
 23
0.0
340
0
 70
     7
280
     1
281
    50
282
    50
283
     0
360
0
 71
     2
 91
        5
 14
0.104347
 24
-0.39529
 14
0.5
 24
-0.39529
 14
0.5
 24
-0.5
 14
0.104347
 24
-0.5
 14
0.104347
 24
-0.39529
  0
TEXT
  5
306
102
{ACAD_REACTORS
330
20
102
}
100
AcDbEntity
  8
TEXT
100
AcDbText
 10
584.016704
 20
241.754343
 30
0.0
 40
2.0
  1
MM010057
 41
0.9
100
AcDbText
  0
MTEXT
  5
307
102
{ACAD_REACTORS
330
308
102
}
100
AcDbEntity
  8
HATCH
 62
     2
100
AcDbMText
 10
599.056622
 20
202.172659
 30
0.0
 40
3.0
 41
0.0
 71
     1
 72
     5
  1
MA010004 (x2)
  0
LEADER
  5
308
100
AcDbEntity
  8
HATCH
 62
     4
100
AcDbLeader
  3
DIM1$7
 73
     0
 74
     0
 75
     1
 40
4.571429
 41
34.142857
 76
     3
 10
585.133797
 20
214.644599
 30
0.0
 10
594.556622
 20
200.672659
 30
0.0
 10
597.556622
 20
200.672659
 30
0.0
 77
   256
340
307
213
0.0
223
-1.5
233
0.0
1001
ACAD
1000
DSTYLE
1002
{
1070
   144
1040
1.0
1002
}
  0
LINE
  5
309
102
{ACAD_REACTORS
330
22B
102
}
100
AcDbEntity
  8
M04
100
AcDbLine
 10
276.265534
 20
213.013886
 30
0.0
 11
403.765534
 21
213.013886
 31
0.0
  0
LINE
  5
30A
102
{ACAD_REACTORS
330
81
102
}
100
AcDbEntity
  8
M02
100
AcDbLine
 10
297.265534
 20
217.013886
 30
0.0
 11
389.265534
 21
217.013886
 31
0.0
  0
LINE
  5
30B
100
AcDbEntity
  8
M04
100
AcDbLine
 10
273.265534
 20
195.18598
 30
0.0
 11
275.565534
 21
196.513886
 31
0.0
  0
LINE
  5
30C
100
AcDbEntity
  8
M04
100
AcDbLine
 10
270.965534
 20
196.513886
 30
0.0
 11
273.265534
 21
195.18598
 31
0.0
  0
LINE
  5
30D
100
AcDbEntity
  8
M04
100
AcDbLine
 10
270.965534
 20
196.513886
 30
0.0
 11
275.565534
 21
196.513886
 31
0.0
  0
LINE
  5
30E
100
AcDbEntity
  8
M04
100
AcDbLine
 10
270.265534
 20
201.575004
 30
0.0
 11
270.265534
 21
198.013886
 31
0.0
  0
LINE
  5
30F
100
AcDbEntity
  8
M04
100
AcDbLine
 10
270.965534
 20
200.875004
 30
0.0
 11
270.965534
 21
196.513886
 31
0.0
  0
LINE
  5
310
100
AcDbEntity
  8
M04
100
AcDbLine
 10
276.265534
 20
201.575004
 30
0.0
 11
276.265534
 21
198.013886
 31
0.0
  0
LINE
  5
311
100
AcDbEntity
  8
M04
100
AcDbLine
 10
275.565534
 20
200.875004
 30
0.0
 11
275.565534
 21
196.513886
 31
0.0
  0
LINE
  5
312
100
AcDbEntity
  8
M05
100
AcDbLine
 10
275.565534
 20
200.875004
 30
0.0
 11
276.265534
 21
201.575004
 31
0.0
  0
LINE
  5
313
100
AcDbEntity
  8
M05
100
AcDbLine
 10
270.265534
 20
201.575004
 30
0.0
 11
270.965534
 21
200.875004
 31
0.0
  0
LINE
  5
314
100
AcDbEntity
  8
M05
100
AcDbLine
 10
275.565534
 20
213.655004
 30
0.0
 11
275.565534
 21
200.875004
 31
0.0
  0
LINE
  5
315
100
AcDbEntity
  8
M05
100
AcDbLine
 10
270.965534
 20
213.655004
 30
0.0
 11
270.965534
 21
200.875004
 31
0.0
  0
LINE
  5
316
100
AcDbEntity
  8
M05
100
AcDbLine
 10
270.265534
 20
201.575004
 30
0.0
 11
276.265534
 21
201.575004
 31
0.0
  0
LINE
  5
317
100
AcDbEntity
  8
M04
100
AcDbLine
 10
270.265534
 20
198.013886
 30
0.0
 11
276.265534
 21
198.013886
 31
0.0
  0
LINE
  5
318
100
AcDbEntity
  8
M05
100
AcDbLine
 10
270.965534
 20
200.875004
 30
0.0
 11
275.565534
 21
200.875004
 31
0.0
  0
LINE
  5
319
102
{ACAD_REACTORS
330
20
102
}
100
AcDbEntity
  8
M05
  6
HIDDEN
100
AcDbLine
 10
265.106652
 20
220.313886
 30
0.0
 11
264.406652
 21
221.013886
 31
0.0
  0
LINE
  5
31A
102
{ACAD_REACTORS
330
20
102
}
100
AcDbEntity
  8
M05
  6
HIDDEN
100
AcDbLine
 10
281.424416
 20
220.313886
 30
0.0
 11
282.124416
 21
221.013886
 31
0.0
  0
LINE
  5
31B
100
AcDbEntity
  8
M05
100
AcDbLine
 10
270.265534
 20
213.655004
 30
0.0
 11
276.265534
 21
213.655004
 31
0.0
  0
LINE
  5
31C
100
AcDbEntity
  8
M05
100
AcDbLine
 10
273.815534
 20
218.155004
 30
0.0
 11
279.265534
 21
218.155004
 31
0.0
  0
LINE
  5
31D
100
AcDbEntity
  8
M05
100
AcDbLine
 10
273.815534
 20
218.875004
 30
0.0
 11
279.265534
 21
218.875004
 31
0.0
  0
LINE
  5
31E
100
AcDbEntity
  8
M05
100
AcDbLine
 10
273.815534
 20
218.875004
 30
0.0
 11
273.815534
 21
217.375004
 31
0.0
  0
LINE
  5
31F
100
AcDbEntity
  8
M05
100
AcDbLine
 10
272.715534
 20
218.875004
 30
0.0
 11
272.715534
 21
217.375004
 31
0.0
  0
LINE
  5
320
100
AcDbEntity
  8
M05
100
AcDbLine
 10
272.715534
 20
217.375004
 30
0.0
 11
273.815534
 21
217.375004
 31
0.0
  0
LINE
  5
321
102
{ACAD_REACTORS
330
22B
102
}
100
AcDbEntity
  8
M05
100
AcDbLine
 10
276.765534
 20
215.655004
 30
0.0
 11
276.765534
 21
213.013886
 31
0.0
  0
LINE
  5
322
102
{ACAD_REACTORS
330
22B
102
}
100
AcDbEntity
  8
M05
100
AcDbLine
 10
269.765534
 20
215.655004
 30
0.0
 11
269.765534
 21
213.013886
 31
0.0
  0
LINE
  5
323
100
AcDbEntity
  8
M05
100
AcDbLine
 10
267.265534
 20
218.155004
 30
0.0
 11
272.715534
 21
218.155004
 31
0.0
  0
LINE
  5
324
102
{ACAD_REACTORS
330
22B
330
20
102
}
100
AcDbEntity
  8
M05
100
AcDbLine
 10
270.265534
 20
215.155004
 30
0.0
 11
265.106652
 21
220.313886
 31
0.0
  0
LINE
  5
325
100
AcDbEntity
  8
M05
100
AcDbLine
 10
267.265534
 20
218.875004
 30
0.0
 11
267.265534
 21
218.155004
 31
0.0
  0
LINE
  5
326
102
{ACAD_REACTORS
330
22B
330
20
102
}
100
AcDbEntity
  8
M05
100
AcDbLine
 10
276.265534
 20
215.155004
 30
0.0
 11
281.424416
 21
220.313886
 31
0.0
  0
LINE
  5
327
100
AcDbEntity
  8
M05
100
AcDbLine
 10
270.265534
 20
215.155004
 30
0.0
 11
276.265534
 21
215.155004
 31
0.0
  0
LINE
  5
328
100
AcDbEntity
  8
M05
100
AcDbLine
 10
270.265534
 20
215.155004
 30
0.0
 11
270.265534
 21
201.575004
 31
0.0
  0
LINE
  5
329
100
AcDbEntity
  8
M05
100
AcDbLine
 10
276.265534
 20
215.155004
 30
0.0
 11
276.265534
 21
201.575004
 31
0.0
  0
LINE
  5
32A
100
AcDbEntity
  8
M05
100
AcDbLine
 10
279.265534
 20
218.875004
 30
0.0
 11
279.265534
 21
218.155004
 31
0.0
  0
LINE
  5
32B
100
AcDbEntity
  8
M05
100
AcDbLine
 10
267.265534
 20
218.875004
 30
0.0
 11
272.715534
 21
218.875004
 31
0.0
  0
LINE
  5
32C
102
{ACAD_REACTORS
330
20
102
}
100
AcDbEntity
  8
M05
  6
HIDDEN
100
AcDbLine
 10
249.265534
 20
220.313886
 30
0.0
 11
297.265534
 21
220.313886
 31
0.0
  0
LINE
  5
32D
102
{ACAD_REACTORS
330
20
102
}
100
AcDbEntity
  8
M05
  6
HIDDEN
100
AcDbLine
 10
297.265534
 20
220.313886
 30
0.0
 11
296.565534
 21
221.013886
 31
0.0
  0
LINE
  5
32E
102
{ACAD_REACTORS
330
20
102
}
100
AcDbEntity
  8
M05
  6
HIDDEN
100
AcDbLine
 10
297.265534
 20
219.313886
 30
0.0
 11
297.265534
 21
220.313886
 31
0.0
  0
LINE
  5
32F
102
{ACAD_REACTORS
330
22B
102
}
100
AcDbEntity
  8
M05
100
AcDbLine
 10
297.265534
 20
219.313886
 30
0.0
 11
296.565534
 21
220.013886
 31
0.0
  0
LINE
  5
330
102
{ACAD_REACTORS
330
22B
102
}
100
AcDbEntity
  8
M05
100
AcDbLine
 10
297.265534
 20
213.713886
 30
0.0
 11
296.565534
 21
213.013886
 31
0.0
  0
LINE
  5
331
102
{ACAD_REACTORS
330
22B
102
}
100
AcDbEntity
  8
M05
100
AcDbLine
 10
297.265534
 20
219.313886
 30
0.0
 11
297.265534
 21
213.713886
 31
0.0
  0
LINE
  5
332
100
AcDbEntity
  8
M05
  6
HIDDEN
100
AcDbLine
 10
249.265534
 20
220.313886
 30
0.0
 11
249.965534
 21
221.013886
 31
0.0
  0
LINE
  5
333
100
AcDbEntity
  8
M05
  6
HIDDEN
100
AcDbLine
 10
249.265534
 20
219.313886
 30
0.0
 11
249.265534
 21
220.313886
 31
0.0
  0
LINE
  5
334
102
{ACAD_REACTORS
330
22B
102
}
100
AcDbEntity
  8
M05
100
AcDbLine
 10
249.265534
 20
219.313886
 30
0.0
 11
249.965534
 21
220.013886
 31
0.0
  0
LINE
  5
335
102
{ACAD_REACTORS
330
22B
102
}
100
AcDbEntity
  8
M05
100
AcDbLine
 10
249.265534
 20
213.713886
 30
0.0
 11
249.965534
 21
213.013886
 31
0.0
  0
LINE
  5
336
102
{ACAD_REACTORS
330
81
102
}
100
AcDbEntity
  8
M02
100
AcDbLine
 10
298.265534
 20
220.013886
 30
0.0
 11
298.265534
 21
217.013886
 31
0.0
  0
LINE
  5
337
102
{ACAD_REACTORS
330
81
102
}
100
AcDbEntity
  8
M02
100
AcDbLine
 10
248.265534
 20
220.013886
 30
0.0
 11
248.265534
 21
217.013886
 31
0.0
  0
LINE
  5
338
102
{ACAD_REACTORS
330
20
102
}
100
AcDbEntity
  8
M05
  6
HIDDEN
100
AcDbLine
 10
249.965534
 20
221.013886
 30
0.0
 11
296.565534
 21
221.013886
 31
0.0
  0
LINE
  5
339
102
{ACAD_REACTORS
330
22B
102
}
100
AcDbEntity
  8
M05
100
AcDbLine
 10
249.265534
 20
219.313886
 30
0.0
 11
249.265534
 21
213.713886
 31
0.0
  0
LINE
  5
33A
100
AcDbEntity
  8
CENTRE
100
AcDbLine
 10
273.265534
 20
292.825481
 30
0.0
 11
273.265534
 21
255.013886
 31
0.0
  0
LINE
  5
33B
100
AcDbEntity
  8
M04
100
AcDbLine
 10
573.265534
 20
195.18598
 30
0.0
 11
575.565534
 21
196.513886
 31
0.0
  0
LINE
  5
33C
100
AcDbEntity
  8
M04
100
AcDbLine
 10
570.965534
 20
196.513886
 30
0.0
 11
573.265534
 21
195.18598
 31
0.0
  0
LINE
  5
33D
100
AcDbEntity
  8
M04
100
AcDbLine
 10
570.965534
 20
196.513886
 30
0.0
 11
575.565534
 21
196.513886
 31
0.0
  0
LINE
  5
33E
100
AcDbEntity
  8
M04
100
AcDbLine
 10
570.265534
 20
201.575004
 30
0.0
 11
570.265534
 21
198.013886
 31
0.0
  0
LINE
  5
33F
100
AcDbEntity
  8
M04
100
AcDbLine
 10
570.965534
 20
200.875004
 30
0.0
 11
570.965534
 21
196.513886
 31
0.0
  0
LINE
  5
340
100
AcDbEntity
  8
M04
100
AcDbLine
 10
576.265534
 20
201.575004
 30
0.0
 11
576.265534
 21
198.013886
 31
0.0
  0
LINE
  5
341
100
AcDbEntity
  8
M04
100
AcDbLine
 10
575.565534
 20
200.875004
 30
0.0
 11
575.565534
 21
196.513886
 31
0.0
  0
LINE
  5
342
100
AcDbEntity
  8
M05
100
AcDbLine
 10
575.565534
 20
200.875004
 30
0.0
 11
576.265534
 21
201.575004
 31
0.0
  0
LINE
  5
343
100
AcDbEntity
  8
M05
100
AcDbLine
 10
570.265534
 20
201.575004
 30
0.0
 11
570.965534
 21
200.875004
 31
0.0
  0
LINE
  5
344
100
AcDbEntity
  8
M05
100
AcDbLine
 10
575.565534
 20
213.655004
 30
0.0
 11
575.565534
 21
200.875004
 31
0.0
  0
LINE
  5
345
100
AcDbEntity
  8
M05
100
AcDbLine
 10
570.965534
 20
213.655004
 30
0.0
 11
570.965534
 21
200.875004
 31
0.0
  0
LINE
  5
346
100
AcDbEntity
  8
M05
100
AcDbLine
 10
570.265534
 20
201.575004
 30
0.0
 11
576.265534
 21
201.575004
 31
0.0
  0
LINE
  5
347
100
AcDbEntity
  8
M04
100
AcDbLine
 10
570.265534
 20
198.013886
 30
0.0
 11
576.265534
 21
198.013886
 31
0.0
  0
LINE
  5
348
100
AcDbEntity
  8
M05
100
AcDbLine
 10
570.965534
 20
200.875004
 30
0.0
 11
575.565534
 21
200.875004
 31
0.0
  0
LINE
  5
349
100
AcDbEntity
  8
M05
  6
HIDDEN
100
AcDbLine
 10
565.106652
 20
220.313886
 30
0.0
 11
564.406652
 21
221.013886
 31
0.0
  0
LINE
  5
34A
100
AcDbEntity
  8
M05
  6
HIDDEN
100
AcDbLine
 10
581.424416
 20
220.313886
 30
0.0
 11
582.124416
 21
221.013886
 31
0.0
  0
LINE
  5
34B
102
{ACAD_REACTORS
330
23
102
}
100
AcDbEntity
  8
M04
100
AcDbLine
 10
576.265534
 20
213.013886
 30
0.0
 11
629.816316
 21
213.013886
 31
0.0
  0
LINE
  5
34C
100
AcDbEntity
  8
M05
100
AcDbLine
 10
570.265534
 20
213.655004
 30
0.0
 11
576.265534
 21
213.655004
 31
0.0
  0
LINE
  5
34D
100
AcDbEntity
  8
M05
100
AcDbLine
 10
573.815534
 20
218.155004
 30
0.0
 11
579.265534
 21
218.155004
 31
0.0
  0
LINE
  5
34E
100
AcDbEntity
  8
M05
100
AcDbLine
 10
573.815534
 20
218.875004
 30
0.0
 11
579.265534
 21
218.875004
 31
0.0
  0
LINE
  5
34F
100
AcDbEntity
  8
M05
100
AcDbLine
 10
573.815534
 20
218.875004
 30
0.0
 11
573.815534
 21
217.375004
 31
0.0
  0
LINE
  5
350
100
AcDbEntity
  8
M05
100
AcDbLine
 10
572.715534
 20
218.875004
 30
0.0
 11
572.715534
 21
217.375004
 31
0.0
  0
LINE
  5
351
100
AcDbEntity
  8
M05
100
AcDbLine
 10
572.715534
 20
217.375004
 30
0.0
 11
573.815534
 21
217.375004
 31
0.0
  0
LINE
  5
352
102
{ACAD_REACTORS
330
23
102
}
100
AcDbEntity
  8
M05
100
AcDbLine
 10
576.765534
 20
215.655004
 30
0.0
 11
576.765534
 21
213.013886
 31
0.0
  0
LINE
  5
353
102
{ACAD_REACTORS
330
23
102
}
100
AcDbEntity
  8
M05
100
AcDbLine
 10
569.765534
 20
215.655004
 30
0.0
 11
569.765534
 21
213.013886
 31
0.0
  0
LINE
  5
354
100
AcDbEntity
  8
M05
100
AcDbLine
 10
567.265534
 20
218.155004
 30
0.0
 11
572.715534
 21
218.155004
 31
0.0
  0
LINE
  5
355
102
{ACAD_REACTORS
330
23
102
}
100
AcDbEntity
  8
M05
100
AcDbLine
 10
570.265534
 20
215.155004
 30
0.0
 11
565.106652
 21
220.313886
 31
0.0
  0
LINE
  5
356
100
AcDbEntity
  8
M05
100
AcDbLine
 10
567.265534
 20
218.875004
 30
0.0
 11
567.265534
 21
218.155004
 31
0.0
  0
LINE
  5
357
102
{ACAD_REACTORS
330
23
102
}
100
AcDbEntity
  8
M05
100
AcDbLine
 10
576.265534
 20
215.155004
 30
0.0
 11
581.424416
 21
220.313886
 31
0.0
  0
LINE
  5
358
100
AcDbEntity
  8
M05
100
AcDbLine
 10
570.265534
 20
215.155004
 30
0.0
 11
576.265534
 21
215.155004
 31
0.0
  0
LINE
  5
359
100
AcDbEntity
  8
M05
100
AcDbLine
 10
570.265534
 20
215.155004
 30
0.0
 11
570.265534
 21
201.575004
 31
0.0
  0
LINE
  5
35A
100
AcDbEntity
  8
M05
100
AcDbLine
 10
576.265534
 20
215.155004
 30
0.0
 11
576.265534
 21
201.575004
 31
0.0
  0
LINE
  5
35B
100
AcDbEntity
  8
M05
100
AcDbLine
 10
579.265534
 20
218.875004
 30
0.0
 11
579.265534
 21
218.155004
 31
0.0
  0
LINE
  5
35C
100
AcDbEntity
  8
M05
100
AcDbLine
 10
567.265534
 20
218.875004
 30
0.0
 11
572.715534
 21
218.875004
 31
0.0
  0
LINE
  5
35D
100
AcDbEntity
  8
DIMS
 62
     4
100
AcDbLine
 10
426.665534
 20
503.059226
 30
0.0
 11
428.965534
 21
503.059226
 31
0.0
  0
LINE
  5
35E
100
AcDbEntity
  8
DIMS
 62
     4
100
AcDbLine
 10
419.865534
 20
503.059226
 30
0.0
 11
417.565534
 21
503.059226
 31
0.0
  0
LINE
  5
35F
100
AcDbEntity
  8
DIMS
 62
     4
100
AcDbLine
 10
421.565534
 20
503.059226
 30
0.0
 11
424.965534
 21
503.059226
 31
0.0
  0
DIMENSION
  5
360
100
AcDbEntity
  8
DIMS
100
AcDbDimension
  2
*D5
 10
635.022489
 20
464.559226
 30
0.0
 11
569.522489
 21
432.559226
 31
0.0
 12
62.5
 22
0.0
 32
0.0
  3
DIM1
100
AcDbAlignedDimension
 13
593.265534
 23
400.559226
 33
0.0
 14
593.265534
 24
464.559226
 34
0.0
 50
90.0
100
AcDbRotatedDimension
1001
ACAD
1000
DSTYLE
1002
{
1070
   144
1040
1.0
1002
}
  0
DIMENSION
  5
36D
100
AcDbEntity
  8
DIMS
100
AcDbDimension
  2
*D6
 10
605.265534
 20
340.196619
 30
0.0
 11
423.265534
 21
343.196619
 31
0.0
  1
L=<>
  3
DIM1
100
AcDbAlignedDimension
 13
241.265534
 23
412.559226
 33
0.0
 14
605.265534
 24
412.559226
 34
0.0
100
AcDbRotatedDimension
1001
ACAD
1000
DSTYLE
1002
{
1070
   144
1040
1.0
1002
}
  0
LINE
  5
37A
100
AcDbEntity
  8
M01
100
AcDbLine
 10
438.296623
 20
550.459226
 30
0.0
 11
432.234446
 21
550.459226
 31
0.0
  0
ARC
  5
37B
100
AcDbEntity
  8
M01
100
AcDbCircle
 10
432.234446
 20
548.609921
 30
0.0
 40
1.150694
100
AcDbArc
 50
208.592423
 51
331.407577
  0
ARC
  5
37C
100
AcDbEntity
  8
M01
100
AcDbCircle
 10
435.265534
 20
551.162004
 30
0.0
 40
3.702778
100
AcDbArc
 50
236.92527
 51
303.07473
  0
ARC
  5
37D
100
AcDbEntity
  8
M01
100
AcDbCircle
 10
438.296623
 20
548.609921
 30
0.0
 40
1.150694
100
AcDbArc
 50
208.592423
 51
331.407577
  0
ARC
  5
37E
100
AcDbEntity
  8
M01
100
AcDbCircle
 10
432.234446
 20
549.308532
 30
0.0
 40
1.150694
100
AcDbArc
 50
28.592423
 51
151.407577
  0
ARC
  5
37F
100
AcDbEntity
  8
M01
100
AcDbCircle
 10
435.265534
 20
546.756448
 30
0.0
 40
3.702778
100
AcDbArc
 50
56.92527
 51
123.07473
  0
LINE
  5
380
100
AcDbEntity
  8
M01
100
AcDbLine
 10
433.244808
 20
549.859226
 30
0.0
 11
433.244808
 21
548.059226
 31
0.0
  0
LINE
  5
381
100
AcDbEntity
  8
M01
100
AcDbLine
 10
431.224083
 20
549.859226
 30
0.0
 11
431.224083
 21
548.059226
 31
0.0
  0
ARC
  5
382
100
AcDbEntity
  8
M01
100
AcDbCircle
 10
438.296623
 20
549.308532
 30
0.0
 40
1.150694
100
AcDbArc
 50
28.592423
 51
151.407577
  0
LINE
  5
383
100
AcDbEntity
  8
M01
100
AcDbLine
 10
437.28626
 20
549.859226
 30
0.0
 11
437.28626
 21
548.059226
 31
0.0
  0
LINE
  5
384
100
AcDbEntity
  8
M01
100
AcDbLine
 10
439.306986
 20
549.859226
 30
0.0
 11
439.306986
 21
548.059226
 31
0.0
  0
LINE
  5
385
100
AcDbEntity
  8
M01
100
AcDbLine
 10
430.265534
 20
545.159226
 30
0.0
 11
430.265534
 21
546.659226
 31
0.0
  0
LINE
  5
386
100
AcDbEntity
  8
M01
100
AcDbLine
 10
440.265534
 20
545.159226
 30
0.0
 11
440.265534
 21
546.659226
 31
0.0
  0
LINE
  5
387
100
AcDbEntity
  8
M01
100
AcDbLine
 10
430.765534
 20
546.659226
 30
0.0
 11
430.765534
 21
547.459226
 31
0.0
  0
LINE
  5
388
100
AcDbEntity
  8
M01
100
AcDbLine
 10
439.765534
 20
546.659226
 30
0.0
 11
439.765534
 21
547.459226
 31
0.0
  0
LINE
  5
389
100
AcDbEntity
  8
M01
100
AcDbLine
 10
439.765534
 20
547.459226
 30
0.0
 11
430.765534
 21
547.459226
 31
0.0
  0
LINE
  5
38A
100
AcDbEntity
  8
M01
100
AcDbLine
 10
440.265534
 20
546.659226
 30
0.0
 11
430.265534
 21
546.659226
 31
0.0
  0
LINE
  5
38B
100
AcDbEntity
  8
M01
100
AcDbLine
 10
430.765534
 20
544.359226
 30
0.0
 11
430.765534
 21
545.159226
 31
0.0
  0
LINE
  5
38C
100
AcDbEntity
  8
M01
100
AcDbLine
 10
439.765534
 20
544.359226
 30
0.0
 11
439.765534
 21
545.159226
 31
0.0
  0
LINE
  5
38D
100
AcDbEntity
  8
M01
100
AcDbLine
 10
440.265534
 20
545.159226
 30
0.0
 11
430.265534
 21
545.159226
 31
0.0
  0
ARC
  5
38E
100
AcDbEntity
  8
M01
100
AcDbCircle
 10
432.234446
 20
542.509921
 30
0.0
 40
1.150694
100
AcDbArc
 50
208.592423
 51
331.407577
  0
ARC
  5
38F
100
AcDbEntity
  8
M01
100
AcDbCircle
 10
435.265534
 20
545.062004
 30
0.0
 40
3.702778
100
AcDbArc
 50
236.92527
 51
303.07473
  0
ARC
  5
390
100
AcDbEntity
  8
M01
100
AcDbCircle
 10
438.296623
 20
542.509921
 30
0.0
 40
1.150694
100
AcDbArc
 50
208.592423
 51
331.407577
  0
ARC
  5
391
100
AcDbEntity
  8
M01
100
AcDbCircle
 10
432.234446
 20
543.208532
 30
0.0
 40
1.150694
100
AcDbArc
 50
28.592423
 51
151.407577
  0
ARC
  5
392
100
AcDbEntity
  8
M01
100
AcDbCircle
 10
435.265534
 20
540.656448
 30
0.0
 40
3.702778
100
AcDbArc
 50
56.92527
 51
123.07473
  0
LINE
  5
393
100
AcDbEntity
  8
M01
100
AcDbLine
 10
433.244808
 20
543.759226
 30
0.0
 11
433.244808
 21
541.959226
 31
0.0
  0
LINE
  5
394
100
AcDbEntity
  8
M01
100
AcDbLine
 10
431.224083
 20
543.759226
 30
0.0
 11
431.224083
 21
541.959226
 31
0.0
  0
ARC
  5
395
100
AcDbEntity
  8
M01
100
AcDbCircle
 10
438.296623
 20
543.208532
 30
0.0
 40
1.150694
100
AcDbArc
 50
28.592423
 51
151.407577
  0
LINE
  5
396
100
AcDbEntity
  8
M01
100
AcDbLine
 10
437.28626
 20
543.759226
 30
0.0
 11
437.28626
 21
541.959226
 31
0.0
  0
LINE
  5
397
100
AcDbEntity
  8
M01
100
AcDbLine
 10
439.306986
 20
543.759226
 30
0.0
 11
439.306986
 21
541.959226
 31
0.0
  0
LINE
  5
398
100
AcDbEntity
  8
M01
100
AcDbLine
 10
439.765534
 20
544.359226
 30
0.0
 11
430.765534
 21
544.359226
 31
0.0
  0
LINE
  5
399
100
AcDbEntity
  8
M01
100
AcDbLine
 10
439.765534
 20
541.359226
 30
0.0
 11
430.765534
 21
541.359226
 31
0.0
  0
LINE
  5
39A
100
AcDbEntity
  8
M01
100
AcDbLine
 10
433.765534
 20
553.559226
 30
0.0
 11
433.265534
 21
553.059226
 31
0.0
  0
LINE
  5
39B
100
AcDbEntity
  8
M01
100
AcDbLine
 10
437.265534
 20
553.059226
 30
0.0
 11
436.765534
 21
553.559226
 31
0.0
  0
LINE
  5
39C
100
AcDbEntity
  8
M01
100
AcDbLine
 10
437.265534
 20
553.059226
 30
0.0
 11
433.265534
 21
553.059226
 31
0.0
  0
LINE
  5
39D
100
AcDbEntity
  8
M01
100
AcDbLine
 10
433.765534
 20
553.559226
 30
0.0
 11
433.765534
 21
550.459226
 31
0.0
  0
LINE
  5
39E
100
AcDbEntity
  8
M01
100
AcDbLine
 10
436.765534
 20
553.559226
 30
0.0
 11
436.765534
 21
550.459226
 31
0.0
  0
LINE
  5
39F
100
AcDbEntity
  8
M01
100
AcDbLine
 10
437.265534
 20
553.059226
 30
0.0
 11
437.265534
 21
550.459226
 31
0.0
  0
LINE
  5
3A0
100
AcDbEntity
  8
M01
100
AcDbLine
 10
433.265534
 20
553.059226
 30
0.0
 11
433.265534
 21
550.459226
 31
0.0
  0
LINE
  5
3A1
100
AcDbEntity
  8
M01
100
AcDbLine
 10
436.765534
 20
553.559226
 30
0.0
 11
433.765534
 21
553.559226
 31
0.0
  0
LINE
  5
3A2
100
AcDbEntity
  8
M01
100
AcDbLine
 10
440.265534
 20
528.559226
 30
0.0
 11
430.265534
 21
528.559226
 31
0.0
  0
LINE
  5
3A3
100
AcDbEntity
  8
CENTRE
100
AcDbLine
 10
435.265534
 20
559.720115
 30
0.0
 11
435.265534
 21
496.126684
 31
0.0
  0
LINE
  5
3A4
100
AcDbEntity
  8
M01
100
AcDbLine
 10
408.234446
 20
550.459226
 30
0.0
 11
414.296623
 21
550.459226
 31
0.0
  0
ARC
  5
3A5
100
AcDbEntity
  8
M01
100
AcDbCircle
 10
414.296623
 20
548.609921
 30
0.0
 40
1.150694
100
AcDbArc
 50
208.592423
 51
331.407577
  0
ARC
  5
3A6
100
AcDbEntity
  8
M01
100
AcDbCircle
 10
411.265534
 20
551.162004
 30
0.0
 40
3.702778
100
AcDbArc
 50
236.92527
 51
303.07473
  0
ARC
  5
3A7
100
AcDbEntity
  8
M01
100
AcDbCircle
 10
408.234446
 20
548.609921
 30
0.0
 40
1.150694
100
AcDbArc
 50
208.592423
 51
331.407577
  0
ARC
  5
3A8
100
AcDbEntity
  8
M01
100
AcDbCircle
 10
414.296623
 20
549.308532
 30
0.0
 40
1.150694
100
AcDbArc
 50
28.592423
 51
151.407577
  0
ARC
  5
3A9
100
AcDbEntity
  8
M01
100
AcDbCircle
 10
411.265534
 20
546.756448
 30
0.0
 40
3.702778
100
AcDbArc
 50
56.92527
 51
123.07473
  0
LINE
  5
3AA
100
AcDbEntity
  8
M01
100
AcDbLine
 10
413.28626
 20
549.859226
 30
0.0
 11
413.28626
 21
548.059226
 31
0.0
  0
LINE
  5
3AB
100
AcDbEntity
  8
M01
100
AcDbLine
 10
415.306986
 20
549.859226
 30
0.0
 11
415.306986
 21
548.059226
 31
0.0
  0
ARC
  5
3AC
100
AcDbEntity
  8
M01
100
AcDbCircle
 10
408.234446
 20
549.308532
 30
0.0
 40
1.150694
100
AcDbArc
 50
28.592423
 51
151.407577
  0
LINE
  5
3AD
100
AcDbEntity
  8
M01
100
AcDbLine
 10
409.244808
 20
549.859226
 30
0.0
 11
409.244808
 21
548.059226
 31
0.0
  0
LINE
  5
3AE
100
AcDbEntity
  8
M01
100
AcDbLine
 10
407.224083
 20
549.859226
 30
0.0
 11
407.224083
 21
548.059226
 31
0.0
  0
LINE
  5
3AF
100
AcDbEntity
  8
M01
100
AcDbLine
 10
416.265534
 20
545.159226
 30
0.0
 11
416.265534
 21
546.659226
 31
0.0
  0
LINE
  5
3B0
100
AcDbEntity
  8
M01
100
AcDbLine
 10
406.265534
 20
545.159226
 30
0.0
 11
406.265534
 21
546.659226
 31
0.0
  0
LINE
  5
3B1
100
AcDbEntity
  8
M01
100
AcDbLine
 10
415.765534
 20
546.659226
 30
0.0
 11
415.765534
 21
547.459226
 31
0.0
  0
LINE
  5
3B2
100
AcDbEntity
  8
M01
100
AcDbLine
 10
406.765534
 20
546.659226
 30
0.0
 11
406.765534
 21
547.459226
 31
0.0
  0
LINE
  5
3B3
100
AcDbEntity
  8
M01
100
AcDbLine
 10
406.765534
 20
547.459226
 30
0.0
 11
415.765534
 21
547.459226
 31
0.0
  0
LINE
  5
3B4
100
AcDbEntity
  8
M01
100
AcDbLine
 10
406.265534
 20
546.659226
 30
0.0
 11
416.265534
 21
546.659226
 31
0.0
  0
LINE
  5
3B5
100
AcDbEntity
  8
M01
100
AcDbLine
 10
415.765534
 20
544.359226
 30
0.0
 11
415.765534
 21
545.159226
 31
0.0
  0
LINE
  5
3B6
100
AcDbEntity
  8
M01
100
AcDbLine
 10
406.765534
 20
544.359226
 30
0.0
 11
406.765534
 21
545.159226
 31
0.0
  0
LINE
  5
3B7
100
AcDbEntity
  8
M01
100
AcDbLine
 10
406.265534
 20
545.159226
 30
0.0
 11
416.265534
 21
545.159226
 31
0.0
  0
ARC
  5
3B8
100
AcDbEntity
  8
M01
100
AcDbCircle
 10
414.296623
 20
542.509921
 30
0.0
 40
1.150694
100
AcDbArc
 50
208.592423
 51
331.407577
  0
ARC
  5
3B9
100
AcDbEntity
  8
M01
100
AcDbCircle
 10
411.265534
 20
545.062004
 30
0.0
 40
3.702778
100
AcDbArc
 50
236.92527
 51
303.07473
  0
ARC
  5
3BA
100
AcDbEntity
  8
M01
100
AcDbCircle
 10
408.234446
 20
542.509921
 30
0.0
 40
1.150694
100
AcDbArc
 50
208.592423
 51
331.407577
  0
ARC
  5
3BB
100
AcDbEntity
  8
M01
100
AcDbCircle
 10
414.296623
 20
543.208532
 30
0.0
 40
1.150694
100
AcDbArc
 50
28.592423
 51
151.407577
  0
ARC
  5
3BC
100
AcDbEntity
  8
M01
100
AcDbCircle
 10
411.265534
 20
540.656448
 30
0.0
 40
3.702778
100
AcDbArc
 50
56.92527
 51
123.07473
  0
LINE
  5
3BD
100
AcDbEntity
  8
M01
100
AcDbLine
 10
413.28626
 20
543.759226
 30
0.0
 11
413.28626
 21
541.959226
 31
0.0
  0
LINE
  5
3BE
100
AcDbEntity
  8
M01
100
AcDbLine
 10
415.306986
 20
543.759226
 30
0.0
 11
415.306986
 21
541.959226
 31
0.0
  0
ARC
  5
3BF
100
AcDbEntity
  8
M01
100
AcDbCircle
 10
408.234446
 20
543.208532
 30
0.0
 40
1.150694
100
AcDbArc
 50
28.592423
 51
151.407577
  0
LINE
  5
3C0
100
AcDbEntity
  8
M01
100
AcDbLine
 10
409.244808
 20
543.759226
 30
0.0
 11
409.244808
 21
541.959226
 31
0.0
  0
LINE
  5
3C1
100
AcDbEntity
  8
M01
100
AcDbLine
 10
407.224083
 20
543.759226
 30
0.0
 11
407.224083
 21
541.959226
 31
0.0
  0
LINE
  5
3C2
100
AcDbEntity
  8
M01
100
AcDbLine
 10
406.765534
 20
544.359226
 30
0.0
 11
415.765534
 21
544.359226
 31
0.0
  0
LINE
  5
3C3
100
AcDbEntity
  8
M01
100
AcDbLine
 10
406.765534
 20
541.359226
 30
0.0
 11
415.765534
 21
541.359226
 31
0.0
  0
LINE
  5
3C4
100
AcDbEntity
  8
M01
100
AcDbLine
 10
406.765534
 20
540.559226
 30
0.0
 11
415.765534
 21
540.559226
 31
0.0
  0
LINE
  5
3C5
100
AcDbEntity
  8
M01
100
AcDbLine
 10
419.265534
 20
241.013886
 30
0.0
 11
423.265534
 21
245.013886
 31
0.0
  0
LINE
  5
3C6
102
{ACAD_REACTORS
330
80
102
}
100
AcDbEntity
  8
M02
100
AcDbLine
 10
597.265534
 20
217.013886
 30
0.0
 11
603.265534
 21
217.013886
 31
0.0
  0
LINE
  5
3C7
100
AcDbEntity
  8
M05
  6
HIDDEN
100
AcDbLine
 10
549.265534
 20
220.313886
 30
0.0
 11
597.265534
 21
220.313886
 31
0.0
  0
LINE
  5
3C8
100
AcDbEntity
  8
M05
  6
HIDDEN
100
AcDbLine
 10
597.265534
 20
220.313886
 30
0.0
 11
596.565534
 21
221.013886
 31
0.0
  0
LINE
  5
3C9
100
AcDbEntity
  8
M05
  6
HIDDEN
100
AcDbLine
 10
597.265534
 20
219.313886
 30
0.0
 11
597.265534
 21
220.313886
 31
0.0
  0
LINE
  5
3CA
102
{ACAD_REACTORS
330
23
102
}
100
AcDbEntity
  8
M05
100
AcDbLine
 10
597.265534
 20
219.313886
 30
0.0
 11
596.565534
 21
220.013886
 31
0.0
  0
LINE
  5
3CB
102
{ACAD_REACTORS
330
23
102
}
100
AcDbEntity
  8
M05
100
AcDbLine
 10
597.265534
 20
213.713886
 30
0.0
 11
596.565534
 21
213.013886
 31
0.0
  0
LINE
  5
3CC
102
{ACAD_REACTORS
330
23
102
}
100
AcDbEntity
  8
M05
100
AcDbLine
 10
597.265534
 20
219.313886
 30
0.0
 11
597.265534
 21
213.713886
 31
0.0
  0
LINE
  5
3CD
102
{ACAD_REACTORS
330
20
102
}
100
AcDbEntity
  8
M05
  6
HIDDEN
100
AcDbLine
 10
549.265534
 20
220.313886
 30
0.0
 11
549.965534
 21
221.013886
 31
0.0
  0
LINE
  5
3CE
102
{ACAD_REACTORS
330
20
102
}
100
AcDbEntity
  8
M05
  6
HIDDEN
100
AcDbLine
 10
549.265534
 20
219.313886
 30
0.0
 11
549.265534
 21
220.313886
 31
0.0
  0
LINE
  5
3CF
102
{ACAD_REACTORS
330
23
102
}
100
AcDbEntity
  8
M05
100
AcDbLine
 10
549.265534
 20
219.313886
 30
0.0
 11
549.965534
 21
220.013886
 31
0.0
  0
LINE
  5
3D0
102
{ACAD_REACTORS
330
23
102
}
100
AcDbEntity
  8
M05
100
AcDbLine
 10
549.265534
 20
213.713886
 30
0.0
 11
549.965534
 21
213.013886
 31
0.0
  0
LINE
  5
3D1
102
{ACAD_REACTORS
330
80
102
}
100
AcDbEntity
  8
M02
100
AcDbLine
 10
598.265534
 20
220.013886
 30
0.0
 11
598.265534
 21
217.013886
 31
0.0
  0
LINE
  5
3D2
102
{ACAD_REACTORS
330
80
102
}
100
AcDbEntity
  8
M02
100
AcDbLine
 10
548.265534
 20
220.013886
 30
0.0
 11
548.265534
 21
217.013886
 31
0.0
  0
LINE
  5
3D3
102
{ACAD_REACTORS
330
20
102
}
100
AcDbEntity
  8
M05
  6
HIDDEN
100
AcDbLine
 10
549.965534
 20
221.013886
 30
0.0
 11
596.565534
 21
221.013886
 31
0.0
  0
LINE
  5
3D4
102
{ACAD_REACTORS
330
23
102
}
100
AcDbEntity
  8
M05
100
AcDbLine
 10
549.265534
 20
219.313886
 30
0.0
 11
549.265534
 21
213.713886
 31
0.0
  0
TEXT
  5
3D5
102
{ACAD_REACTORS
330
24E
102
}
100
AcDbEntity
  8
TEXT
100
AcDbText
 10
428.339615
 20
215.581373
 30
0.0
 40
2.0
  1
MA010000
 41
0.9
100
AcDbText
  0
LINE
  5
3D6
100
AcDbEntity
  8
M04
100
AcDbLine
 10
393.265534
 20
195.013886
 30
0.0
 11
393.265534
 21
186.013886
 31
0.0
  0
LINE
  5
3D7
102
{ACAD_REACTORS
330
23
102
}
100
AcDbEntity
  8
M04
100
AcDbLine
 10
442.765534
 20
213.013886
 30
0.0
 11
570.265534
 21
213.013886
 31
0.0
  0
LINE
  5
3D8
102
{ACAD_REACTORS
330
80
102
}
100
AcDbEntity
  8
M02
100
AcDbLine
 10
457.265534
 20
217.013886
 30
0.0
 11
549.265534
 21
217.013886
 31
0.0
  0
LINE
  5
3D9
102
{ACAD_REACTORS
330
24E
102
}
100
AcDbEntity
  8
M05
100
AcDbLine
 10
389.265534
 20
214.713886
 30
0.0
 11
389.965534
 21
214.013886
 31
0.0
  0
LINE
  5
3DA
102
{ACAD_REACTORS
330
81
102
}
100
AcDbEntity
  8
M02
100
AcDbLine
 10
388.265534
 20
220.013886
 30
0.0
 11
388.265534
 21
217.013886
 31
0.0
  0
LINE
  5
3DB
102
{ACAD_REACTORS
330
24E
330
20
102
}
100
AcDbEntity
  8
M01
100
AcDbLine
 10
433.265534
 20
220.013886
 30
0.0
 11
446.265534
 21
220.013886
 31
0.0
  0
LINE
  5
3DC
100
AcDbEntity
  8
M04
100
AcDbLine
 10
393.265534
 20
195.013886
 30
0.0
 11
453.265534
 21
195.013886
 31
0.0
  0
LINE
  5
3DD
100
AcDbEntity
  8
M04
100
AcDbLine
 10
403.265534
 20
205.013886
 30
0.0
 11
393.265534
 21
195.013886
 31
0.0
  0
LINE
  5
3DE
100
AcDbEntity
  8
M04
100
AcDbLine
 10
453.265534
 20
195.013886
 30
0.0
 11
453.265534
 21
186.013886
 31
0.0
  0
LINE
  5
3DF
100
AcDbEntity
  8
M04
100
AcDbLine
 10
443.265534
 20
205.013886
 30
0.0
 11
453.265534
 21
195.013886
 31
0.0
  0
LINE
  5
3E0
100
AcDbEntity
  8
M05
100
AcDbLine
 10
420.22466
 20
211.712671
 30
0.0
 11
426.306408
 21
211.712671
 31
0.0
  0
ARC
  5
3E1
102
{ACAD_REACTORS
330
24E
102
}
100
AcDbEntity
  8
M05
100
AcDbCircle
 10
423.265534
 20
196.513886
 30
0.0
 40
15.5
100
AcDbArc
 50
101.313981
 51
126.249321
  0
LINE
  5
3E2
102
{ACAD_REACTORS
330
20
102
}
100
AcDbEntity
  8
M01
100
AcDbLine
 10
419.265534
 20
241.013886
 30
0.0
 11
419.265534
 21
230.013886
 31
0.0
  0
LINE
  5
3E3
102
{ACAD_REACTORS
330
24E
102
}
100
AcDbEntity
  8
M05
100
AcDbLine
 10
419.265534
 20
230.013886
 30
0.0
 11
420.22466
 21
211.712671
 31
0.0
  0
LINE
  5
3E4
102
{ACAD_REACTORS
330
24E
102
}
100
AcDbEntity
  8
M05
100
AcDbLine
 10
427.265534
 20
230.013886
 30
0.0
 11
426.306408
 21
211.712671
 31
0.0
  0
ARC
  5
3E5
102
{ACAD_REACTORS
330
24E
102
}
100
AcDbEntity
  8
M05
100
AcDbCircle
 10
423.265534
 20
196.513886
 30
0.0
 40
15.5
100
AcDbArc
 50
53.750679
 51
78.686019
  0
LINE
  5
3E6
102
{ACAD_REACTORS
330
20
102
}
100
AcDbEntity
  8
M01
100
AcDbLine
 10
427.265534
 20
242.013886
 30
0.0
 11
427.265534
 21
230.013886
 31
0.0
  0
LINE
  5
3E7
100
AcDbEntity
  8
M04
100
AcDbLine
 10
403.265534
 20
211.013886
 30
0.0
 11
403.265534
 21
213.013886
 31
0.0
  0
LINE
  5
3E8
100
AcDbEntity
  8
M04
100
AcDbLine
 10
403.265534
 20
209.713886
 30
0.0
 11
403.265534
 21
205.013886
 31
0.0
  0
LINE
  5
3E9
100
AcDbEntity
  8
M04
100
AcDbLine
 10
443.265534
 20
211.013886
 30
0.0
 11
443.265534
 21
213.013886
 31
0.0
  0
LINE
  5
3EA
100
AcDbEntity
  8
M04
100
AcDbLine
 10
443.265534
 20
209.713886
 30
0.0
 11
443.265534
 21
205.013886
 31
0.0
  0
LINE
  5
3EB
100
AcDbEntity
  8
M04
100
AcDbLine
 10
443.265534
 20
205.013886
 30
0.0
 11
403.265534
 21
205.013886
 31
0.0
  0
LINE
  5
3EC
102
{ACAD_REACTORS
330
24E
102
}
100
AcDbEntity
  8
M05
100
AcDbLine
 10
403.765534
 20
211.013886
 30
0.0
 11
403.265534
 21
211.013886
 31
0.0
  0
LINE
  5
3ED
102
{ACAD_REACTORS
330
24E
102
}
100
AcDbEntity
  8
M05
100
AcDbLine
 10
403.765534
 20
214.013886
 30
0.0
 11
389.965534
 21
214.013886
 31
0.0
  0
LINE
  5
3EE
102
{ACAD_REACTORS
330
24E
102
}
100
AcDbEntity
  8
M05
100
AcDbLine
 10
403.765534
 20
214.013886
 30
0.0
 11
403.765534
 21
211.013886
 31
0.0
  0
LINE
  5
3EF
102
{ACAD_REACTORS
330
24E
102
}
100
AcDbEntity
  8
M05
100
AcDbLine
 10
442.765534
 20
214.013886
 30
0.0
 11
442.765534
 21
211.013886
 31
0.0
  0
LINE
  5
3F0
102
{ACAD_REACTORS
330
24E
102
}
100
AcDbEntity
  8
M05
100
AcDbLine
 10
443.265534
 20
211.013886
 30
0.0
 11
442.765534
 21
211.013886
 31
0.0
  0
LINE
  5
3F1
102
{ACAD_REACTORS
330
24E
102
}
100
AcDbEntity
  8
M05
100
AcDbLine
 10
403.965534
 20
209.013886
 30
0.0
 11
403.265534
 21
209.713886
 31
0.0
  0
LINE
  5
3F2
102
{ACAD_REACTORS
330
24E
102
}
100
AcDbEntity
  8
M05
100
AcDbLine
 10
442.565534
 20
209.013886
 30
0.0
 11
443.265534
 21
209.713886
 31
0.0
  0
LINE
  5
3F3
102
{ACAD_REACTORS
330
24E
102
}
100
AcDbEntity
  8
M05
100
AcDbLine
 10
442.565534
 20
209.013886
 30
0.0
 11
403.965534
 21
209.013886
 31
0.0
  0
LINE
  5
3F4
102
{ACAD_REACTORS
330
24E
102
}
100
AcDbEntity
  8
M05
100
AcDbLine
 10
403.265534
 20
211.013886
 30
0.0
 11
403.265534
 21
209.713886
 31
0.0
  0
LINE
  5
3F5
102
{ACAD_REACTORS
330
24E
102
}
100
AcDbEntity
  8
M05
100
AcDbLine
 10
443.265534
 20
211.013886
 30
0.0
 11
443.265534
 21
209.713886
 31
0.0
  0
LINE
  5
3F6
102
{ACAD_REACTORS
330
20
102
}
100
AcDbEntity
  8
M04
100
AcDbLine
 10
413.265534
 20
220.513886
 30
0.0
 11
412.765534
 21
220.013886
 31
0.0
  0
LINE
  5
3F7
102
{ACAD_REACTORS
330
20
102
}
100
AcDbEntity
  8
M04
100
AcDbLine
 10
433.265534
 20
220.513886
 30
0.0
 11
433.765534
 21
220.013886
 31
0.0
  0
LINE
  5
3F8
102
{ACAD_REACTORS
330
24E
102
}
100
AcDbEntity
  8
M05
100
AcDbLine
 10
389.265534
 20
219.313886
 30
0.0
 11
389.965534
 21
220.013886
 31
0.0
  0
LINE
  5
3F9
102
{ACAD_REACTORS
330
24E
102
}
100
AcDbEntity
  8
M05
100
AcDbLine
 10
389.265534
 20
219.313886
 30
0.0
 11
389.265534
 21
214.713886
 31
0.0
  0
LINE
  5
3FA
102
{ACAD_REACTORS
330
24E
102
}
100
AcDbEntity
  8
M05
100
AcDbLine
 10
457.265534
 20
219.313886
 30
0.0
 11
456.565534
 21
220.013886
 31
0.0
  0
LINE
  5
3FB
102
{ACAD_REACTORS
330
24E
102
}
100
AcDbEntity
  8
M05
100
AcDbLine
 10
457.265534
 20
214.713886
 30
0.0
 11
456.565534
 21
214.013886
 31
0.0
  0
LINE
  5
3FC
102
{ACAD_REACTORS
330
80
102
}
100
AcDbEntity
  8
M02
100
AcDbLine
 10
458.265534
 20
220.013886
 30
0.0
 11
458.265534
 21
217.013886
 31
0.0
  0
LINE
  5
3FD
102
{ACAD_REACTORS
330
24E
102
}
100
AcDbEntity
  8
M05
100
AcDbLine
 10
456.565534
 20
214.013886
 30
0.0
 11
442.765534
 21
214.013886
 31
0.0
  0
LINE
  5
3FE
102
{ACAD_REACTORS
330
24E
102
}
100
AcDbEntity
  8
M05
100
AcDbLine
 10
457.265534
 20
219.313886
 30
0.0
 11
457.265534
 21
214.713886
 31
0.0
  0
LINE
  5
3FF
102
{ACAD_REACTORS
330
20
102
}
100
AcDbEntity
  8
M04
100
AcDbLine
 10
413.265534
 20
229.013886
 30
0.0
 11
413.265534
 21
230.013886
 31
0.0
  0
LINE
  5
400
102
{ACAD_REACTORS
330
20
102
}
100
AcDbEntity
  8
M04
100
AcDbLine
 10
414.265534
 20
230.013886
 30
0.0
 11
413.265534
 21
230.013886
 31
0.0
  0
LINE
  5
401
102
{ACAD_REACTORS
330
20
102
}
100
AcDbEntity
  8
M04
100
AcDbLine
 10
433.265534
 20
229.013886
 30
0.0
 11
433.265534
 21
230.013886
 31
0.0
  0
LINE
  5
402
102
{ACAD_REACTORS
330
20
102
}
100
AcDbEntity
  8
M04
100
AcDbLine
 10
432.265534
 20
230.013886
 30
0.0
 11
433.265534
 21
230.013886
 31
0.0
  0
LINE
  5
403
102
{ACAD_REACTORS
330
24E
102
}
100
AcDbEntity
  8
M05
100
AcDbLine
 10
432.265534
 20
230.013886
 30
0.0
 11
433.265534
 21
229.013886
 31
0.0
  0
LINE
  5
404
102
{ACAD_REACTORS
330
24E
102
}
100
AcDbEntity
  8
M05
100
AcDbLine
 10
413.265534
 20
229.013886
 30
0.0
 11
414.265534
 21
230.013886
 31
0.0
  0
LINE
  5
405
102
{ACAD_REACTORS
330
24E
330
20
102
}
100
AcDbEntity
  8
M05
100
AcDbLine
 10
432.265534
 20
230.013886
 30
0.0
 11
414.265534
 21
230.013886
 31
0.0
  0
LINE
  5
406
102
{ACAD_REACTORS
330
24E
330
20
102
}
100
AcDbEntity
  8
M05
100
AcDbLine
 10
413.265534
 20
229.013886
 30
0.0
 11
413.265534
 21
220.013886
 31
0.0
  0
LINE
  5
407
102
{ACAD_REACTORS
330
24E
330
20
102
}
100
AcDbEntity
  8
M05
100
AcDbLine
 10
433.265534
 20
229.013886
 30
0.0
 11
433.265534
 21
220.013886
 31
0.0
  0
LINE
  5
408
100
AcDbEntity
  8
M04
100
AcDbLine
 10
234.265534
 20
287.013886
 30
0.0
 11
612.265534
 21
287.013886
 31
0.0
  0
LINE
  5
409
102
{ACAD_REACTORS
330
31
330
24
102
}
100
AcDbEntity
  8
M02
100
AcDbLine
 10
243.265534
 20
283.013886
 30
0.0
 11
603.265534
 21
283.013886
 31
0.0
  0
LINE
  5
40A
102
{ACAD_REACTORS
330
81
102
}
100
AcDbEntity
  8
M02
100
AcDbLine
 10
243.265534
 20
217.013886
 30
0.0
 11
249.265534
 21
217.013886
 31
0.0
  0
LINE
  5
40B
102
{ACAD_REACTORS
330
80
102
}
100
AcDbEntity
  8
M02
100
AcDbLine
 10
603.265534
 20
220.013886
 30
0.0
 11
603.265534
 21
217.013886
 31
0.0
  0
LINE
  5
40C
102
{ACAD_REACTORS
330
81
102
}
100
AcDbEntity
  8
M02
100
AcDbLine
 10
243.265534
 20
220.013886
 30
0.0
 11
243.265534
 21
217.013886
 31
0.0
  0
LINE
  5
40D
102
{ACAD_REACTORS
330
31
102
}
100
AcDbEntity
  8
M02
100
AcDbLine
 10
603.265534
 20
280.013886
 30
0.0
 11
603.265534
 21
283.013886
 31
0.0
  0
LINE
  5
40E
102
{ACAD_REACTORS
330
24
102
}
100
AcDbEntity
  8
M02
100
AcDbLine
 10
243.265534
 20
280.013886
 30
0.0
 11
243.265534
 21
283.013886
 31
0.0
  0
LINE
  5
40F
102
{ACAD_REACTORS
330
20
102
}
100
AcDbEntity
  8
M01
100
AcDbLine
 10
605.265534
 20
222.013886
 30
0.0
 11
603.265534
 21
220.013886
 31
0.0
  0
LINE
  5
410
102
{ACAD_REACTORS
330
20
102
}
100
AcDbEntity
  8
M01
100
AcDbLine
 10
603.265534
 20
280.013886
 30
0.0
 11
605.265534
 21
278.013886
 31
0.0
  0
LINE
  5
411
102
{ACAD_REACTORS
330
20
102
}
100
AcDbEntity
  8
M01
100
AcDbLine
 10
241.265534
 20
278.013886
 30
0.0
 11
243.265534
 21
280.013886
 31
0.0
  0
LINE
  5
412
102
{ACAD_REACTORS
330
20
102
}
100
AcDbEntity
  8
M01
100
AcDbLine
 10
243.265534
 20
220.013886
 30
0.0
 11
241.265534
 21
222.013886
 31
0.0
  0
LINE
  5
413
102
{ACAD_REACTORS
330
20
102
}
100
AcDbEntity
  8
M01
100
AcDbLine
 10
605.265534
 20
278.013886
 30
0.0
 11
605.265534
 21
222.013886
 31
0.0
  0
LINE
  5
414
102
{ACAD_REACTORS
330
20
102
}
100
AcDbEntity
  8
M01
100
AcDbLine
 10
241.265534
 20
278.013886
 30
0.0
 11
241.265534
 21
222.013886
 31
0.0
  0
LINE
  5
415
102
{ACAD_REACTORS
330
24E
330
22B
330
81
330
20
102
}
100
AcDbEntity
  8
M01
100
AcDbLine
 10
243.265534
 20
220.013886
 30
0.0
 11
413.265534
 21
220.013886
 31
0.0
  0
LINE
  5
416
102
{ACAD_REACTORS
330
20
102
}
100
AcDbEntity
  8
CENTRE
100
AcDbLine
 10
423.265534
 20
307.602467
 30
0.0
 11
423.265534
 21
176.693943
 31
0.0
  0
LINE
  5
417
100
AcDbEntity
  8
M04
100
AcDbLine
 10
612.265534
 20
287.013886
 30
0.0
 11
612.265534
 21
213.013886
 31
0.0
  0
LINE
  5
418
100
AcDbEntity
  8
M04
100
AcDbLine
 10
234.265534
 20
287.013886
 30
0.0
 11
234.265534
 21
213.013886
 31
0.0
  0
LINE
  5
419
102
{ACAD_REACTORS
330
22B
102
}
100
AcDbEntity
  8
M04
100
AcDbLine
 10
216.714753
 20
213.013886
 30
0.0
 11
270.265534
 21
213.013886
 31
0.0
  0
LINE
  5
41A
100
AcDbEntity
  8
M04
100
AcDbLine
 10
440.265534
 20
568.559226
 30
0.0
 11
440.265534
 21
589.230704
 31
0.0
  0
LINE
  5
41B
100
AcDbEntity
  8
M04
100
AcDbLine
 10
406.265534
 20
568.559226
 30
0.0
 11
406.265534
 21
589.230704
 31
0.0
  0
ARC
  5
41C
100
AcDbEntity
  8
M04
100
AcDbCircle
 10
440.265534
 20
553.559226
 30
0.0
 40
15.0
100
AcDbArc
 50
360.0
 51
90.0
  0
ARC
  5
41D
100
AcDbEntity
  8
M04
100
AcDbCircle
 10
406.265534
 20
553.559226
 30
0.0
 40
15.0
100
AcDbArc
 50
90.0
 51
180.0
  0
LINE
  5
41E
100
AcDbEntity
  8
M04
100
AcDbLine
 10
406.265534
 20
568.559226
 30
0.0
 11
440.265534
 21
568.559226
 31
0.0
  0
LINE
  5
41F
100
AcDbEntity
  8
M01
100
AcDbLine
 10
412.765534
 20
553.559226
 30
0.0
 11
413.265534
 21
553.059226
 31
0.0
  0
LINE
  5
420
100
AcDbEntity
  8
M01
100
AcDbLine
 10
409.265534
 20
553.059226
 30
0.0
 11
409.765534
 21
553.559226
 31
0.0
  0
LINE
  5
421
100
AcDbEntity
  8
M01
100
AcDbLine
 10
409.265534
 20
553.059226
 30
0.0
 11
413.265534
 21
553.059226
 31
0.0
  0
LINE
  5
422
100
AcDbEntity
  8
M01
100
AcDbLine
 10
412.765534
 20
553.559226
 30
0.0
 11
412.765534
 21
550.459226
 31
0.0
  0
LINE
  5
423
100
AcDbEntity
  8
M01
100
AcDbLine
 10
409.765534
 20
553.559226
 30
0.0
 11
409.765534
 21
550.459226
 31
0.0
  0
LINE
  5
424
100
AcDbEntity
  8
M01
100
AcDbLine
 10
409.265534
 20
553.059226
 30
0.0
 11
409.265534
 21
550.459226
 31
0.0
  0
LINE
  5
425
100
AcDbEntity
  8
M01
100
AcDbLine
 10
413.265534
 20
553.059226
 30
0.0
 11
413.265534
 21
550.459226
 31
0.0
  0
LINE
  5
426
100
AcDbEntity
  8
M01
100
AcDbLine
 10
409.765534
 20
553.559226
 30
0.0
 11
412.765534
 21
553.559226
 31
0.0
  0
LINE
  5
427
100
AcDbEntity
  8
M01
100
AcDbLine
 10
406.265534
 20
528.559226
 30
0.0
 11
416.265534
 21
528.559226
 31
0.0
  0
LINE
  5
428
100
AcDbEntity
  8
M01
100
AcDbLine
 10
415.765534
 20
541.359226
 30
0.0
 11
415.765534
 21
540.559226
 31
0.0
  0
LINE
  5
429
100
AcDbEntity
  8
M01
100
AcDbLine
 10
406.765534
 20
541.359226
 30
0.0
 11
406.765534
 21
540.559226
 31
0.0
  0
LINE
  5
42A
100
AcDbEntity
  8
CENTRE
100
AcDbLine
 10
411.265534
 20
559.720115
 30
0.0
 11
411.265534
 21
496.126684
 31
0.0
  0
LINE
  5
42B
100
AcDbEntity
  8
M04
100
AcDbLine
 10
455.265534
 20
478.559226
 30
0.0
 11
462.265534
 21
471.559226
 31
0.0
  0
LINE
  5
42C
100
AcDbEntity
  8
M04
100
AcDbLine
 10
384.265534
 20
471.559226
 30
0.0
 11
391.265534
 21
478.559226
 31
0.0
  0
ARC
  5
42D
100
AcDbEntity
  8
M04
100
AcDbCircle
 10
249.265534
 20
408.559226
 30
0.0
 40
15.0
100
AcDbArc
 50
180.0
 51
270.0
  0
ARC
  5
42E
100
AcDbEntity
  8
M04
100
AcDbCircle
 10
249.265534
 20
456.559226
 30
0.0
 40
15.0
100
AcDbArc
 50
90.0
 51
180.0
  0
ARC
  5
42F
100
AcDbEntity
  8
M04
100
AcDbCircle
 10
597.265534
 20
456.559226
 30
0.0
 40
15.0
100
AcDbArc
 50
0.0
 51
90.0
  0
ARC
  5
430
100
AcDbEntity
  8
M04
100
AcDbCircle
 10
597.265534
 20
408.559226
 30
0.0
 40
15.0
100
AcDbArc
 50
270.0
 51
0.0
  0
LINE
  5
431
100
AcDbEntity
  8
M04
100
AcDbLine
 10
234.265534
 20
456.559226
 30
0.0
 11
234.265534
 21
408.559226
 31
0.0
  0
LINE
  5
432
100
AcDbEntity
  8
M04
100
AcDbLine
 10
391.265534
 20
553.559226
 30
0.0
 11
391.265534
 21
478.559226
 31
0.0
  0
LINE
  5
433
100
AcDbEntity
  8
M04
100
AcDbLine
 10
455.265534
 20
553.559226
 30
0.0
 11
455.265534
 21
478.559226
 31
0.0
  0
LINE
  5
434
100
AcDbEntity
  8
M04
100
AcDbLine
 10
462.265534
 20
471.559226
 30
0.0
 11
597.265534
 21
471.559226
 31
0.0
  0
LINE
  5
435
100
AcDbEntity
  8
M04
100
AcDbLine
 10
612.265534
 20
456.559226
 30
0.0
 11
612.265534
 21
408.559226
 31
0.0
  0
LINE
  5
436
100
AcDbEntity
  8
M04
100
AcDbLine
 10
249.265534
 20
393.559226
 30
0.0
 11
597.265534
 21
393.559226
 31
0.0
  0
CIRCLE
  5
437
100
AcDbEntity
  8
M01
100
AcDbCircle
 10
423.265534
 20
432.559226
 30
0.0
 40
3.0
  0
LINE
  5
438
100
AcDbEntity
  8
M03
100
AcDbLine
 10
348.265534
 20
428.559226
 30
0.0
 11
423.265534
 21
428.559226
 31
0.0
  0
LINE
  5
439
100
AcDbEntity
  8
M03
100
AcDbLine
 10
348.265534
 20
436.559226
 30
0.0
 11
423.265534
 21
436.559226
 31
0.0
  0
CIRCLE
  5
43A
100
AcDbEntity
  8
M01
100
AcDbCircle
 10
573.265534
 20
432.559226
 30
0.0
 40
3.0
  0
CIRCLE
  5
43B
100
AcDbEntity
  8
M01
100
AcDbCircle
 10
273.265534
 20
432.559226
 30
0.0
 40
3.0
  0
LWPOLYLINE
  5
43C
100
AcDbEntity
  8
M01
100
AcDbPolyline
 90
        2
 70
     0
 43
4.0
 10
423.265534
 20
505.059226
 42
0.414214
 10
421.265534
 20
503.059226
  0
LWPOLYLINE
  5
43D
100
AcDbEntity
  8
M01
100
AcDbPolyline
 90
        2
 70
     0
 43
4.0
 10
423.265534
 20
501.059226
 42
0.414214
 10
425.265534
 20
503.059226
  0
CIRCLE
  5
43E
100
AcDbEntity
  8
M01
100
AcDbCircle
 10
423.265534
 20
503.059226
 30
0.0
 40
4.0
  0
LINE
  5
43F
100
AcDbEntity
  8
M01
100
AcDbLine
 10
427.265534
 20
500.559226
 30
0.0
 11
427.265534
 21
508.559226
 31
0.0
  0
LINE
  5
440
100
AcDbEntity
  8
M01
100
AcDbLine
 10
419.265534
 20
500.559226
 30
0.0
 11
419.265534
 21
508.559226
 31
0.0
  0
ARC
  5
441
100
AcDbEntity
  8
M01
100
AcDbCircle
 10
423.265534
 20
500.559226
 30
0.0
 40
4.0
100
AcDbArc
 50
180.0
 51
0.0
  0
LINE
  5
442
100
AcDbEntity
  8
M01
100
AcDbLine
 10
443.265534
 20
508.559226
 30
0.0
 11
445.265534
 21
506.559226
 31
0.0
  0
LINE
  5
443
100
AcDbEntity
  8
M01
100
AcDbLine
 10
401.265534
 20
506.559226
 30
0.0
 11
403.265534
 21
508.559226
 31
0.0
  0
LINE
  5
444
100
AcDbEntity
  8
M01
100
AcDbLine
 10
403.265534
 20
508.559226
 30
0.0
 11
443.265534
 21
508.559226
 31
0.0
  0
ARC
  5
445
100
AcDbEntity
  8
M01
100
AcDbCircle
 10
457.265534
 20
476.559226
 30
0.0
 40
12.0
100
AcDbArc
 50
180.0
 51
270.0
  0
ARC
  5
446
100
AcDbEntity
  8
M01
100
AcDbCircle
 10
389.265534
 20
476.559226
 30
0.0
 40
12.0
100
AcDbArc
 50
270.0
 51
0.0
  0
LINE
  5
447
100
AcDbEntity
  8
M01
100
AcDbLine
 10
457.265534
 20
464.559226
 30
0.0
 11
593.265534
 21
464.559226
 31
0.0
  0
LINE
  5
448
100
AcDbEntity
  8
M01
100
AcDbLine
 10
445.265534
 20
506.559226
 30
0.0
 11
445.265534
 21
476.559226
 31
0.0
  0
LINE
  5
449
100
AcDbEntity
  8
M01
100
AcDbLine
 10
401.265534
 20
506.559226
 30
0.0
 11
401.265534
 21
476.559226
 31
0.0
  0
LINE
  5
44A
100
AcDbEntity
  8
M01
100
AcDbLine
 10
605.265534
 20
412.559226
 30
0.0
 11
593.265534
 21
400.559226
 31
0.0
  0
LINE
  5
44B
100
AcDbEntity
  8
M01
100
AcDbLine
 10
593.265534
 20
464.559226
 30
0.0
 11
605.265534
 21
452.559226
 31
0.0
  0
LINE
  5
44C
100
AcDbEntity
  8
M01
100
AcDbLine
 10
241.265534
 20
452.559226
 30
0.0
 11
253.265534
 21
464.559226
 31
0.0
  0
LINE
  5
44D
100
AcDbEntity
  8
M01
100
AcDbLine
 10
253.265534
 20
400.559226
 30
0.0
 11
241.265534
 21
412.559226
 31
0.0
  0
LINE
  5
44E
100
AcDbEntity
  8
M01
100
AcDbLine
 10
253.265534
 20
400.559226
 30
0.0
 11
593.265534
 21
400.559226
 31
0.0
  0
LINE
  5
44F
100
AcDbEntity
  8
M01
100
AcDbLine
 10
253.265534
 20
464.559226
 30
0.0
 11
389.265534
 21
464.559226
 31
0.0
  0
LINE
  5
450
100
AcDbEntity
  8
M01
100
AcDbLine
 10
605.265534
 20
452.559226
 30
0.0
 11
605.265534
 21
412.559226
 31
0.0
  0
LINE
  5
451
100
AcDbEntity
  8
M01
100
AcDbLine
 10
241.265534
 20
452.559226
 30
0.0
 11
241.265534
 21
412.559226
 31
0.0
  0
LINE
  5
452
100
AcDbEntity
  8
CENTRE
100
AcDbLine
 10
423.265534
 20
523.559226
 30
0.0
 11
423.265534
 21
385.559226
 31
0.0
  0
LINE
  5
453
100
AcDbEntity
  8
CENTRE
100
AcDbLine
 10
226.265534
 20
432.559226
 30
0.0
 11
620.265534
 21
432.559226
 31
0.0
  0
ENDSEC
  0
SECTION
  2
OBJECTS
  0
DICTIONARY
  5
1C
100
AcDbDictionary
  3
ACAD_GROUP
350
1A
  3
ACAD_MLINESTYLE
350
1B
  0
DICTIONARY
  5
3
100
AcDbDictionary
280
     1
  3
ACAD_SORTENTS
360
4
  0
DICTIONARY
  5
1A
102
{ACAD_REACTORS
330
1C
102
}
100
AcDbDictionary
  0
DICTIONARY
  5
1B
102
{ACAD_REACTORS
330
1C
102
}
100
AcDbDictionary
  3
STANDARD
350
1E
  0
SORTENTSTABLE
  5
4
102
{ACAD_REACTORS
330
3
102
}
100
AcDbSortentsTable
330
2
  0
MLINESTYLE
  5
1E
102
{ACAD_REACTORS
330
1B
102
}
100
AcDbMlineStyle
  2
STANDARD
 70
     0
  3

 62
   256
 51
90.0
 52
90.0
 71
     2
 49
0.5
 62
   256
  6
BYLAYER
 49
-0.5
 62
   256
  6
BYLAYER
  0
ENDSEC
  0
EOF
