  0
SECTION
  2
HEADER
  9
$ACADVER
  1
AC1014
  9
$ACADMAINTVER
 70
     9
  9
$DWGCODEPAGE
  3
ANSI_1252
  9
$INSBASE
 10
0.0
 20
0.0
 30
0.0
  9
$EXTMIN
 10
116.714753
 20
160.959826
 30
-0.001526
  9
$EXTMAX
 10
1164.543643
 20
711.544313
 30
0.0
  9
$LIMMIN
 10
0.0
 20
0.0
  9
$LIMMAX
 10
1189.0
 20
841.0
  9
$ORTHOMODE
 70
     1
  9
$REGENMODE
 70
     1
  9
$FILLMODE
 70
     1
  9
$QTEXTMODE
 70
     0
  9
$MIRRTEXT
 70
     1
  9
$DRAGMODE
 70
     2
  9
$LTSCALE
 40
8.0
  9
$OSMODE
 70
     0
  9
$ATTMODE
 70
     1
  9
$TEXTSIZE
 40
3.0
  9
$TRACEWID
 40
10.0
  9
$TEXTSTYLE
  7
STANDARD
  9
$CLAYER
  8
HATCH
  9
$CELTYPE
  6
BYLAYER
  9
$CECOLOR
 62
   256
  9
$CELTSCALE
 40
1.0
  9
$DELOBJ
 70
     1
  9
$DISPSILH
 70
     0
  9
$DIMSCALE
 40
1.0
  9
$DIMASZ
 40
3.0
  9
$DIMEXO
 40
1.0
  9
$DIMDLI
 40
10.0
  9
$DIMRND
 40
0.01
  9
$DIMDLE
 40
1.25
  9
$DIMEXE
 40
2.5
  9
$DIMTP
 40
0.05
  9
$DIMTM
 40
0.0
  9
$DIMTXT
 40
3.0
  9
$DIMCEN
 40
-1.7
  9
$DIMTSZ
 40
0.0
  9
$DIMTOL
 70
     0
  9
$DIMLIM
 70
     0
  9
$DIMTIH
 70
     0
  9
$DIMTOH
 70
     0
  9
$DIMSE1
 70
     0
  9
$DIMSE2
 70
     0
  9
$DIMTAD
 70
     3
  9
$DIMZIN
 70
     1
  9
$DIMBLK
  1

  9
$DIMASO
 70
     1
  9
$DIMSHO
 70
     0
  9
$DIMPOST
  1

  9
$DIMAPOST
  1

  9
$DIMALT
 70
     0
  9
$DIMALTD
 70
     2
  9
$DIMALTF
 40
0.039
  9
$DIMLFAC
 40
1.0
  9
$DIMTOFL
 70
     0
  9
$DIMTVP
 40
1.5
  9
$DIMTIX
 70
     0
  9
$DIMSOXD
 70
     0
  9
$DIMSAH
 70
     0
  9
$DIMBLK1
  1

  9
$DIMBLK2
  1

  9
$DIMSTYLE
  2
DIM1
  9
$DIMCLRD
 70
     4
  9
$DIMCLRE
 70
     4
  9
$DIMCLRT
 70
     2
  9
$DIMTFAC
 40
0.7
  9
$DIMGAP
 40
1.5
  9
$DIMJUST
 70
     0
  9
$DIMSD1
 70
     0
  9
$DIMSD2
 70
     0
  9
$DIMTOLJ
 70
     1
  9
$DIMTZIN
 70
     1
  9
$DIMALTZ
 70
     1
  9
$DIMALTTZ
 70
     1
  9
$DIMFIT
 70
     0
  9
$DIMUPT
 70
     1
  9
$DIMUNIT
 70
     2
  9
$DIMDEC
 70
     2
  9
$DIMTDEC
 70
     2
  9
$DIMALTU
 70
     2
  9
$DIMALTTD
 70
     2
  9
$DIMTXSTY
  7
STANDARD
  9
$DIMAUNIT
 70
     0
  9
$LUNITS
 70
     2
  9
$LUPREC
 70
     2
  9
$SKETCHINC
 40
1.0
  9
$FILLETRAD
 40
10.0
  9
$AUNITS
 70
     0
  9
$AUPREC
 70
     3
  9
$MENU
  1
ACAD
  9
$ELEVATION
 40
0.0
  9
$PELEVATION
 40
0.0
  9
$THICKNESS
 40
0.0
  9
$LIMCHECK
 70
     0
  9
$BLIPMODE
 70
     1
  9
$CHAMFERA
 40
0.7
  9
$CHAMFERB
 40
0.7
  9
$CHAMFERC
 40
0.0
  9
$CHAMFERD
 40
0.0
  9
$SKPOLY
 70
     1
  9
$TDCREATE
 40
2449993.725698611
  9
$TDUPDATE
 40
2451970.611692453
  9
$TDINDWG
 40
0.9582407755
  9
$TDUSRTIMER
 40
0.9582407755
  9
$USRTIMER
 70
     1
  9
$ANGBASE
 50
0.0
  9
$ANGDIR
 70
     0
  9
$PDMODE
 70
     3
  9
$PDSIZE
 40
0.0
  9
$PLINEWID
 40
0.0
  9
$COORDS
 70
     2
  9
$SPLFRAME
 70
     0
  9
$SPLINETYPE
 70
     6
  9
$SPLINESEGS
 70
     6
  9
$ATTDIA
 70
     1
  9
$ATTREQ
 70
     1
  9
$HANDLING
 70
     1
  9
$HANDSEED
  5
4A5
  9
$SURFTAB1
 70
    12
  9
$SURFTAB2
 70
    12
  9
$SURFTYPE
 70
     6
  9
$SURFU
 70
    12
  9
$SURFV
 70
    12
  9
$UCSNAME
  2

  9
$UCSORG
 10
0.0
 20
0.0
 30
0.0
  9
$UCSXDIR
 10
1.0
 20
0.0
 30
0.0
  9
$UCSYDIR
 10
0.0
 20
1.0
 30
0.0
  9
$PUCSNAME
  2

  9
$PUCSORG
 10
0.0
 20
0.0
 30
0.0
  9
$PUCSXDIR
 10
1.0
 20
0.0
 30
0.0
  9
$PUCSYDIR
 10
0.0
 20
1.0
 30
0.0
  9
$USERI1
 70
     0
  9
$USERI2
 70
     0
  9
$USERI3
 70
     0
  9
$USERI4
 70
     0
  9
$USERI5
 70
     0
  9
$USERR1
 40
0.0
  9
$USERR2
 40
0.0
  9
$USERR3
 40
0.0
  9
$USERR4
 40
0.0
  9
$USERR5
 40
0.0
  9
$WORLDVIEW
 70
     0
  9
$SHADEDGE
 70
     3
  9
$SHADEDIF
 70
    70
  9
$TILEMODE
 70
     1
  9
$MAXACTVP
 70
    16
  9
$PINSBASE
 10
0.0
 20
0.0
 30
0.0
  9
$PLIMCHECK
 70
     0
  9
$PEXTMIN
 10
1.000000E+20
 20
1.000000E+20
 30
1.000000E+20
  9
$PEXTMAX
 10
-1.000000E+20
 20
-1.000000E+20
 30
-1.000000E+20
  9
$PLIMMIN
 10
0.0
 20
0.0
  9
$PLIMMAX
 10
12.0
 20
9.0
  9
$UNITMODE
 70
     0
  9
$VISRETAIN
 70
     0
  9
$PLINEGEN
 70
     0
  9
$PSLTSCALE
 70
     0
  9
$TREEDEPTH
 70
  3020
  9
$PICKSTYLE
 70
     1
  9
$CMLSTYLE
  2
STANDARD
  9
$CMLJUST
 70
     0
  9
$CMLSCALE
 40
1.0
  9
$PROXYGRAPHICS
 70
     1
  9
$MEASUREMENT
 70
     0
  0
ENDSEC
  0
SECTION
  2
CLASSES
  0
CLASS
  1
DICTIONARYVAR
  2
AcDbDictionaryVar
  3
"AutoCAD"
 90
        0
280
     0
281
     0
  0
CLASS
  1
LWPOLYLINE
  2
AcDbPolyline
  3
"AutoCAD"
 90
        0
280
     0
281
     1
  0
CLASS
  1
HATCH
  2
AcDbHatch
  3
"ACAD_SEDONA"
 90
        0
280
     0
281
     1
  0
CLASS
  1
SORTENTSTABLE
  2
AcDbSortentsTable
  3
"AutoCAD"
 90
        0
280
     0
281
     0
  0
CLASS
  1
WIPEOUTVARIABLES
  2
AcDbWipeoutVariables
  3
WIPEOUT
 90
        0
280
     0
281
     0
  0
CLASS
  1
WIPEOUT
  2
AcDbWipeout
  3
WIPEOUT
 90
      127
280
     0
281
     1
  0
ENDSEC
  0
SECTION
  2
TABLES
  0
TABLE
  2
VPORT
  5
14
100
AcDbSymbolTable
 70
     2
  0
VPORT
  5
4A4
100
AcDbSymbolTableRecord
100
AcDbViewportTableRecord
  2
*ACTIVE
 70
     0
 10
0.0
 20
0.0
 11
1.0
 21
1.0
 12
533.919263
 22
385.175374
 13
0.0
 23
0.0
 14
10.0
 24
10.0
 15
0.0
 25
0.0
 16
0.0
 26
0.0
 36
1.0
 17
16.313321
 27
12.779115
 37
0.222949
 40
610.742905
 41
1.494382
 42
50.0
 43
0.0
 44
0.0
 50
0.0
 51
0.0
 71
     0
 72
  2000
 73
     1
 74
     2
 75
     0
 76
     0
 77
     0
 78
     1
  0
ENDTAB
  0
TABLE
  2
LTYPE
  5
F
100
AcDbSymbolTable
 70
     3
  0
LTYPE
  5
10
100
AcDbSymbolTableRecord
100
AcDbLinetypeTableRecord
  2
BYBLOCK
 70
     0
  3

 72
    65
 73
     0
 40
0.0
  0
LTYPE
  5
11
100
AcDbSymbolTableRecord
100
AcDbLinetypeTableRecord
  2
BYLAYER
 70
     0
  3

 72
    65
 73
     0
 40
0.0
  0
LTYPE
  5
7
100
AcDbSymbolTableRecord
100
AcDbLinetypeTableRecord
  2
CONTINUOUS
 70
     0
  3
Solid line
 72
    65
 73
     0
 40
0.0
  0
LTYPE
  5
167
100
AcDbSymbolTableRecord
100
AcDbLinetypeTableRecord
  2
CENTER
 70
     0
  3
Center ____ _ ____ _ ____ _ ____ _ ____ _ ____
 72
    65
 73
     4
 40
2.0
 49
1.25
 74
     0
 49
-0.25
 74
     0
 49
0.25
 74
     0
 49
-0.25
 74
     0
  0
LTYPE
  5
60
100
AcDbSymbolTableRecord
100
AcDbLinetypeTableRecord
  2
HIDDEN
 70
     0
  3
Hidden __ __ __ __ __ __ __ __ __ __ __ __ __ _
 72
    65
 73
     2
 40
0.375
 49
0.25
 74
     0
 49
-0.125
 74
     0
  0
ENDTAB
  0
TABLE
  2
LAYER
  5
C
100
AcDbSymbolTable
 70
    11
  0
LAYER
  5
6
100
AcDbSymbolTableRecord
100
AcDbLayerTableRecord
  2
0
 70
     0
 62
     7
  6
CONTINUOUS
  0
LAYER
  5
166
100
AcDbSymbolTableRecord
100
AcDbLayerTableRecord
  2
CENTRE
 70
     0
 62
     3
  6
CENTER
  0
LAYER
  5
C0
100
AcDbSymbolTableRecord
100
AcDbLayerTableRecord
  2
M01
 70
     0
 62
     1
  6
CONTINUOUS
  0
LAYER
  5
8D
100
AcDbSymbolTableRecord
100
AcDbLayerTableRecord
  2
M02
 70
     0
 62
     2
  6
CONTINUOUS
  0
LAYER
  5
5F
100
AcDbSymbolTableRecord
100
AcDbLayerTableRecord
  2
M03
 70
     0
 62
     2
  6
HIDDEN
  0
LAYER
  5
5C
100
AcDbSymbolTableRecord
100
AcDbLayerTableRecord
  2
M04
 70
     0
 62
     7
  6
CONTINUOUS
  0
LAYER
  5
6A
100
AcDbSymbolTableRecord
100
AcDbLayerTableRecord
  2
M05
 70
     0
 62
     5
  6
CONTINUOUS
  0
LAYER
  5
25
100
AcDbSymbolTableRecord
100
AcDbLayerTableRecord
  2
DIMS
 70
     0
 62
     4
  6
CONTINUOUS
  0
LAYER
  5
8B
100
AcDbSymbolTableRecord
100
AcDbLayerTableRecord
  2
TEXT
 70
     0
 62
     2
  6
CONTINUOUS
  0
LAYER
  5
1D
100
AcDbSymbolTableRecord
100
AcDbLayerTableRecord
  2
HATCH
 70
     0
 62
     4
  6
CONTINUOUS
  0
LAYER
  5
2E
100
AcDbSymbolTableRecord
100
AcDbLayerTableRecord
  2
DEFPOINTS
 70
     0
 62
     7
  6
CONTINUOUS
  0
ENDTAB
  0
TABLE
  2
STYLE
  5
D
100
AcDbSymbolTable
 70
     1
  0
STYLE
  5
E
100
AcDbSymbolTableRecord
100
AcDbTextStyleTableRecord
  2
STANDARD
 70
     0
 40
0.0
 41
1.0
 50
0.0
 71
     0
 42
3.0
  3
SIMPLEX
  4

  0
ENDTAB
  0
TABLE
  2
VIEW
  5
12
100
AcDbSymbolTable
 70
     0
  0
ENDTAB
  0
TABLE
  2
UCS
  5
13
100
AcDbSymbolTable
 70
     0
  0
ENDTAB
  0
TABLE
  2
APPID
  5
16
100
AcDbSymbolTable
 70
     1
  0
APPID
  5
17
100
AcDbSymbolTableRecord
100
AcDbRegAppTableRecord
  2
ACAD
 70
     0
  0
ENDTAB
  0
TABLE
  2
DIMSTYLE
  5
18
100
AcDbSymbolTable
 70
     2
  0
DIMSTYLE
105
1F
102
{ACAD_REACTORS
330
24
330
33
330
40
330
4D
330
1E7
330
20B
330
218
330
226
330
234
330
2CB
330
2D8
330
2E5
330
2F2
102
}
100
AcDbSymbolTableRecord
100
AcDbDimStyleTableRecord
  2
DIM1
 70
     0
  3

  4

  5

  6

  7

 40
1.0
 41
3.0
 42
1.0
 43
10.0
 44
2.5
 45
0.01
 46
1.25
 47
0.05
 48
0.0
140
3.0
141
-1.7
142
0.0
143
0.039
144
0.2
145
1.5
146
0.7
147
1.5
 71
     0
 72
     0
 73
     0
 74
     0
 75
     0
 76
     0
 77
     3
 78
     1
170
     0
171
     2
172
     0
173
     0
174
     0
175
     0
176
     4
177
     4
178
     2
270
     2
271
     2
272
     2
273
     2
274
     2
340
E
275
     0
280
     0
281
     0
282
     0
283
     1
284
     1
285
     1
286
     1
287
     0
288
     0
  0
DIMSTYLE
105
1C1
100
AcDbSymbolTableRecord
100
AcDbDimStyleTableRecord
  2
DIM1$7
 70
     0
  3

  4

  5

  6

  7

 40
1.0
 41
3.0
 42
1.0
 43
10.0
 44
2.5
 45
0.01
 46
1.25
 47
0.0
 48
0.0
140
3.0
141
-1.7
142
0.0
143
0.039
144
1.0
145
0.0
146
1.0
147
1.5
 71
     0
 72
     0
 73
     0
 74
     0
 75
     0
 76
     0
 77
     0
 78
     1
170
     0
171
     2
172
     0
173
     0
174
     0
175
     0
176
     4
177
     4
178
     2
270
     2
271
     2
272
     2
273
     2
274
     2
340
E
275
     0
280
     0
281
     0
282
     0
283
     1
284
     1
285
     1
286
     1
287
     0
288
     0
  0
ENDTAB
  0
TABLE
  2
BLOCK_RECORD
  5
1
100
AcDbSymbolTable
 70
    13
  0
BLOCK_RECORD
  5
2
102
{ACAD_XDICTIONARY
360
3
102
}
100
AcDbSymbolTableRecord
100
AcDbBlockTableRecord
  2
*MODEL_SPACE
  0
BLOCK_RECORD
  5
9
100
AcDbSymbolTableRecord
100
AcDbBlockTableRecord
  2
*PAPER_SPACE
  0
BLOCK_RECORD
  5
26
100
AcDbSymbolTableRecord
100
AcDbBlockTableRecord
  2
*D0
  0
BLOCK_RECORD
  5
34
100
AcDbSymbolTableRecord
100
AcDbBlockTableRecord
  2
*D1
  0
BLOCK_RECORD
  5
41
100
AcDbSymbolTableRecord
100
AcDbBlockTableRecord
  2
*D2
  0
BLOCK_RECORD
  5
4E
100
AcDbSymbolTableRecord
100
AcDbBlockTableRecord
  2
*D3
  0
BLOCK_RECORD
  5
1E8
100
AcDbSymbolTableRecord
100
AcDbBlockTableRecord
  2
*D4
  0
BLOCK_RECORD
  5
20C
100
AcDbSymbolTableRecord
100
AcDbBlockTableRecord
  2
*D5
  0
BLOCK_RECORD
  5
219
100
AcDbSymbolTableRecord
100
AcDbBlockTableRecord
  2
*D6
  0
BLOCK_RECORD
  5
227
100
AcDbSymbolTableRecord
100
AcDbBlockTableRecord
  2
*D7
  0
BLOCK_RECORD
  5
235
100
AcDbSymbolTableRecord
100
AcDbBlockTableRecord
  2
*D8
  0
BLOCK_RECORD
  5
2CC
100
AcDbSymbolTableRecord
100
AcDbBlockTableRecord
  2
*D9
  0
BLOCK_RECORD
  5
2D9
100
AcDbSymbolTableRecord
100
AcDbBlockTableRecord
  2
*D10
  0
BLOCK_RECORD
  5
2E6
100
AcDbSymbolTableRecord
100
AcDbBlockTableRecord
  2
*D11
  0
BLOCK_RECORD
  5
2F3
100
AcDbSymbolTableRecord
100
AcDbBlockTableRecord
  2
*D12
  0
ENDTAB
  0
ENDSEC
  0
SECTION
  2
BLOCKS
  0
BLOCK
  5
5
100
AcDbEntity
  8
0
100
AcDbBlockBegin
  2
*MODEL_SPACE
 70
     0
 10
0.0
 20
0.0
 30
0.0
  3
*MODEL_SPACE
  1

  0
ENDBLK
  5
8
100
AcDbEntity
  8
0
100
AcDbBlockEnd
  0
BLOCK
  5
A
100
AcDbEntity
 67
     1
  8
0
100
AcDbBlockBegin
  2
*PAPER_SPACE
 70
     0
 10
0.0
 20
0.0
 30
0.0
  3
*PAPER_SPACE
  1

  0
ENDBLK
  5
B
100
AcDbEntity
 67
     1
  8
0
100
AcDbBlockEnd
  0
BLOCK
  5
31
100
AcDbEntity
  8
0
100
AcDbBlockBegin
  2
*D0
 70
     1
 10
0.0
 20
0.0
 30
0.0
  3
*D0
  1

  0
LINE
  5
27
100
AcDbEntity
  8
0
  6
BYBLOCK
 62
     4
100
AcDbLine
 10
791.178402
 20
456.784226
 30
0.0
 11
791.178402
 21
472.600271
 31
0.0
  0
LINE
  5
28
100
AcDbEntity
  8
0
  6
BYBLOCK
 62
     4
100
AcDbLine
 10
765.778402
 20
455.784226
 30
0.0
 11
765.778402
 21
472.600271
 31
0.0
  0
LINE
  5
29
100
AcDbEntity
  8
0
  6
BYBLOCK
 62
     4
100
AcDbLine
 10
788.178402
 20
470.100271
 30
0.0
 11
768.778402
 21
470.100271
 31
0.0
  0
SOLID
  5
2A
100
AcDbEntity
  8
0
  6
BYBLOCK
 62
     4
100
AcDbTrace
 10
788.178402
 20
470.600271
 30
0.0
 11
788.178402
 21
469.600271
 31
0.0
 12
791.178402
 22
470.100271
 32
0.0
 13
791.178402
 23
470.100271
 33
0.0
  0
SOLID
  5
2B
100
AcDbEntity
  8
0
  6
BYBLOCK
 62
     4
100
AcDbTrace
 10
768.778402
 20
470.600271
 30
0.0
 11
768.778402
 21
469.600271
 31
0.0
 12
765.778402
 22
470.100271
 32
0.0
 13
765.778402
 23
470.100271
 33
0.0
  0
MTEXT
  5
2C
100
AcDbEntity
  8
0
  6
BYBLOCK
 62
     2
100
AcDbMText
 10
776.476986
 20
473.100271
 30
0.0
 40
3.0
 41
0.0
 71
     5
 72
     1
  1
\A1;25.40
  0
POINT
  5
2D
100
AcDbEntity
  8
DEFPOINTS
  6
BYBLOCK
 62
     0
100
AcDbPoint
 10
791.178402
 20
455.784226
 30
0.0
  0
POINT
  5
2F
100
AcDbEntity
  8
DEFPOINTS
  6
BYBLOCK
 62
     0
100
AcDbPoint
 10
765.778402
 20
454.784226
 30
0.0
  0
POINT
  5
30
100
AcDbEntity
  8
DEFPOINTS
  6
BYBLOCK
 62
     0
100
AcDbPoint
 10
765.778402
 20
470.100271
 30
0.0
  0
ENDBLK
  5
32
100
AcDbEntity
  8
0
100
AcDbBlockEnd
  0
BLOCK
  5
3E
100
AcDbEntity
  8
0
100
AcDbBlockBegin
  2
*D1
 70
     1
 10
0.0
 20
0.0
 30
0.0
  3
*D1
  1

  0
LINE
  5
35
100
AcDbEntity
  8
0
  6
BYBLOCK
 62
     4
100
AcDbLine
 10
770.355752
 20
409.334226
 30
0.0
 11
740.279294
 21
409.334226
 31
0.0
  0
LINE
  5
36
100
AcDbEntity
  8
0
  6
BYBLOCK
 62
     4
100
AcDbLine
 10
770.355752
 20
455.784226
 30
0.0
 11
740.279294
 21
455.784226
 31
0.0
  0
LINE
  5
37
100
AcDbEntity
  8
0
  6
BYBLOCK
 62
     4
100
AcDbLine
 10
742.779294
 20
412.334226
 30
0.0
 11
742.779294
 21
452.784226
 31
0.0
  0
SOLID
  5
38
100
AcDbEntity
  8
0
  6
BYBLOCK
 62
     4
100
AcDbTrace
 10
742.279294
 20
412.334226
 30
0.0
 11
743.279294
 21
412.334226
 31
0.0
 12
742.779294
 22
409.334226
 32
0.0
 13
742.779294
 23
409.334226
 33
0.0
  0
SOLID
  5
39
100
AcDbEntity
  8
0
  6
BYBLOCK
 62
     4
100
AcDbTrace
 10
742.279294
 20
452.784226
 30
0.0
 11
743.279294
 21
452.784226
 31
0.0
 12
742.779294
 22
455.784226
 32
0.0
 13
742.779294
 23
455.784226
 33
0.0
  0
MTEXT
  5
3A
100
AcDbEntity
  8
0
  6
BYBLOCK
 62
     2
100
AcDbMText
 10
739.779294
 20
433.864678
 30
0.0
 40
3.0
 41
0.0
 71
     5
 72
     1
  1
\A1;\U+220546.5
 11
0.0
 21
1.0
 31
0.0
  0
POINT
  5
3B
100
AcDbEntity
  8
DEFPOINTS
  6
BYBLOCK
 62
     0
100
AcDbPoint
 10
771.355752
 20
409.334226
 30
0.0
  0
POINT
  5
3C
100
AcDbEntity
  8
DEFPOINTS
  6
BYBLOCK
 62
     0
100
AcDbPoint
 10
771.355752
 20
455.784226
 30
0.0
  0
POINT
  5
3D
100
AcDbEntity
  8
DEFPOINTS
  6
BYBLOCK
 62
     0
100
AcDbPoint
 10
742.779294
 20
455.784226
 30
0.0
  0
ENDBLK
  5
3F
100
AcDbEntity
  8
0
100
AcDbBlockEnd
  0
BLOCK
  5
4B
100
AcDbEntity
  8
0
100
AcDbBlockBegin
  2
*D2
 70
     1
 10
0.0
 20
0.0
 30
0.0
  3
*D2
  1

  0
LINE
  5
42
100
AcDbEntity
  8
0
  6
BYBLOCK
 62
     4
100
AcDbLine
 10
764.778402
 20
454.784226
 30
0.0
 11
750.320526
 21
454.784226
 31
0.0
  0
LINE
  5
43
100
AcDbEntity
  8
0
  6
BYBLOCK
 62
     4
100
AcDbLine
 10
764.778402
 20
410.334226
 30
0.0
 11
750.320526
 21
410.334226
 31
0.0
  0
LINE
  5
44
100
AcDbEntity
  8
0
  6
BYBLOCK
 62
     4
100
AcDbLine
 10
752.820526
 20
451.784226
 30
0.0
 11
752.820526
 21
413.334226
 31
0.0
  0
SOLID
  5
45
100
AcDbEntity
  8
0
  6
BYBLOCK
 62
     4
100
AcDbTrace
 10
752.320526
 20
451.784226
 30
0.0
 11
753.320526
 21
451.784226
 31
0.0
 12
752.820526
 22
454.784226
 32
0.0
 13
752.820526
 23
454.784226
 33
0.0
  0
SOLID
  5
46
100
AcDbEntity
  8
0
  6
BYBLOCK
 62
     4
100
AcDbTrace
 10
752.320526
 20
413.334226
 30
0.0
 11
753.320526
 21
413.334226
 31
0.0
 12
752.820526
 22
410.334226
 32
0.0
 13
752.820526
 23
410.334226
 33
0.0
  0
MTEXT
  5
47
100
AcDbEntity
  8
0
  6
BYBLOCK
 62
     2
100
AcDbMText
 10
749.820526
 20
433.524437
 30
0.0
 40
3.0
 41
0.0
 71
     5
 72
     1
  1
\A1;\U+220544.45 H7
 11
0.0
 21
1.0
 31
0.0
  0
POINT
  5
48
100
AcDbEntity
  8
DEFPOINTS
  6
BYBLOCK
 62
     0
100
AcDbPoint
 10
765.778402
 20
454.784226
 30
0.0
  0
POINT
  5
49
100
AcDbEntity
  8
DEFPOINTS
  6
BYBLOCK
 62
     0
100
AcDbPoint
 10
765.778402
 20
410.334226
 30
0.0
  0
POINT
  5
4A
100
AcDbEntity
  8
DEFPOINTS
  6
BYBLOCK
 62
     0
100
AcDbPoint
 10
752.820526
 20
410.334226
 30
0.0
  0
ENDBLK
  5
4C
100
AcDbEntity
  8
0
100
AcDbBlockEnd
  0
BLOCK
  5
58
100
AcDbEntity
  8
0
100
AcDbBlockBegin
  2
*D3
 70
     1
 10
0.0
 20
0.0
 30
0.0
  3
*D3
  1

  0
LINE
  5
4F
100
AcDbEntity
  8
0
  6
BYBLOCK
 62
     4
100
AcDbLine
 10
784.178402
 20
392.559226
 30
0.0
 11
784.178402
 21
378.62743
 31
0.0
  0
LINE
  5
50
100
AcDbEntity
  8
0
  6
BYBLOCK
 62
     4
100
AcDbLine
 10
770.778402
 20
409.334226
 30
0.0
 11
770.778402
 21
378.62743
 31
0.0
  0
LINE
  5
51
100
AcDbEntity
  8
0
  6
BYBLOCK
 62
     4
100
AcDbLine
 10
781.178402
 20
381.12743
 30
0.0
 11
773.778402
 21
381.12743
 31
0.0
  0
SOLID
  5
52
100
AcDbEntity
  8
0
  6
BYBLOCK
 62
     4
100
AcDbTrace
 10
781.178402
 20
381.62743
 30
0.0
 11
781.178402
 21
380.62743
 31
0.0
 12
784.178402
 22
381.12743
 32
0.0
 13
784.178402
 23
381.12743
 33
0.0
  0
SOLID
  5
53
100
AcDbEntity
  8
0
  6
BYBLOCK
 62
     4
100
AcDbTrace
 10
773.778402
 20
381.62743
 30
0.0
 11
773.778402
 21
380.62743
 31
0.0
 12
770.778402
 22
381.12743
 32
0.0
 13
770.778402
 23
381.12743
 33
0.0
  0
MTEXT
  5
54
100
AcDbEntity
  8
0
  6
BYBLOCK
 62
     2
100
AcDbMText
 10
777.478402
 20
384.12743
 30
0.0
 40
3.0
 41
0.0
 71
     5
 72
     1
  1
\A1;13.4
  0
POINT
  5
55
100
AcDbEntity
  8
DEFPOINTS
  6
BYBLOCK
 62
     0
100
AcDbPoint
 10
784.178402
 20
393.559226
 30
0.0
  0
POINT
  5
56
100
AcDbEntity
  8
DEFPOINTS
  6
BYBLOCK
 62
     0
100
AcDbPoint
 10
770.778402
 20
410.334226
 30
0.0
  0
POINT
  5
57
100
AcDbEntity
  8
DEFPOINTS
  6
BYBLOCK
 62
     0
100
AcDbPoint
 10
770.778402
 20
381.12743
 30
0.0
  0
ENDBLK
  5
59
100
AcDbEntity
  8
0
100
AcDbBlockEnd
  0
BLOCK
  5
1F3
100
AcDbEntity
  8
0
100
AcDbBlockBegin
  2
*D4
 70
     1
 10
0.0
 20
0.0
 30
0.0
  3
*D4
  1

  0
LINE
  5
1E9
100
AcDbEntity
  8
0
  6
BYBLOCK
 62
     4
100
AcDbLine
 10
770.178402
 20
507.059226
 30
0.0
 11
754.002237
 21
507.059226
 31
0.0
  0
LINE
  5
1EA
100
AcDbEntity
  8
0
  6
BYBLOCK
 62
     4
100
AcDbLine
 10
770.178402
 20
499.059226
 30
0.0
 11
754.002237
 21
499.059226
 31
0.0
  0
LINE
  5
1EB
100
AcDbEntity
  8
0
  6
BYBLOCK
 62
     4
100
AcDbLine
 10
756.502237
 20
510.059226
 30
0.0
 11
756.502237
 21
513.059226
 31
0.0
  0
LINE
  5
1EC
100
AcDbEntity
  8
0
  6
BYBLOCK
 62
     4
100
AcDbLine
 10
756.502237
 20
496.059226
 30
0.0
 11
756.502237
 21
469.487798
 31
0.0
  0
SOLID
  5
1ED
100
AcDbEntity
  8
0
  6
BYBLOCK
 62
     4
100
AcDbTrace
 10
756.002237
 20
510.059226
 30
0.0
 11
757.002237
 21
510.059226
 31
0.0
 12
756.502237
 22
507.059226
 32
0.0
 13
756.502237
 23
507.059226
 33
0.0
  0
SOLID
  5
1EE
100
AcDbEntity
  8
0
  6
BYBLOCK
 62
     4
100
AcDbTrace
 10
756.002237
 20
496.059226
 30
0.0
 11
757.002237
 21
496.059226
 31
0.0
 12
756.502237
 22
499.059226
 32
0.0
 13
756.502237
 23
499.059226
 33
0.0
  0
MTEXT
  5
1EF
100
AcDbEntity
  8
0
  6
BYBLOCK
 62
     2
100
AcDbMText
 10
753.502237
 20
481.273512
 30
0.0
 40
3.0
 41
0.0
 71
     5
 72
     1
  1
\A1;\U+22058.00 H7
 11
0.0
 21
1.0
 31
0.0
  0
POINT
  5
1F0
100
AcDbEntity
  8
DEFPOINTS
  6
BYBLOCK
 62
     0
100
AcDbPoint
 10
771.178402
 20
507.059226
 30
0.0
  0
POINT
  5
1F1
100
AcDbEntity
  8
DEFPOINTS
  6
BYBLOCK
 62
     0
100
AcDbPoint
 10
771.178402
 20
499.059226
 30
0.0
  0
POINT
  5
1F2
100
AcDbEntity
  8
DEFPOINTS
  6
BYBLOCK
 62
     0
100
AcDbPoint
 10
756.502237
 20
499.059226
 30
0.0
  0
ENDBLK
  5
1F4
100
AcDbEntity
  8
0
100
AcDbBlockEnd
  0
BLOCK
  5
216
100
AcDbEntity
  8
0
100
AcDbBlockBegin
  2
*D5
 70
     1
 10
0.0
 20
0.0
 30
0.0
  3
*D5
  1

  0
LINE
  5
20D
100
AcDbEntity
  8
0
  6
BYBLOCK
 62
     4
100
AcDbLine
 10
854.178402
 20
412.559226
 30
0.0
 11
891.993519
 21
412.559226
 31
0.0
  0
LINE
  5
20E
100
AcDbEntity
  8
0
  6
BYBLOCK
 62
     4
100
AcDbLine
 10
854.178402
 20
452.559226
 30
0.0
 11
891.993519
 21
452.559226
 31
0.0
  0
LINE
  5
20F
100
AcDbEntity
  8
0
  6
BYBLOCK
 62
     4
100
AcDbLine
 10
889.493519
 20
415.559226
 30
0.0
 11
889.493519
 21
449.559226
 31
0.0
  0
SOLID
  5
210
100
AcDbEntity
  8
0
  6
BYBLOCK
 62
     4
100
AcDbTrace
 10
888.993519
 20
415.559226
 30
0.0
 11
889.993519
 21
415.559226
 31
0.0
 12
889.493519
 22
412.559226
 32
0.0
 13
889.493519
 23
412.559226
 33
0.0
  0
SOLID
  5
211
100
AcDbEntity
  8
0
  6
BYBLOCK
 62
     4
100
AcDbTrace
 10
888.993519
 20
449.559226
 30
0.0
 11
889.993519
 21
449.559226
 31
0.0
 12
889.493519
 22
452.559226
 32
0.0
 13
889.493519
 23
452.559226
 33
0.0
  0
MTEXT
  5
212
100
AcDbEntity
  8
0
  6
BYBLOCK
 62
     2
100
AcDbMText
 10
886.493519
 20
432.559226
 30
0.0
 40
3.0
 41
0.0
 71
     5
 72
     1
  1
\A1;\U+220540.00 H7
 11
0.0
 21
1.0
 31
0.0
  0
POINT
  5
213
100
AcDbEntity
  8
DEFPOINTS
  6
BYBLOCK
 62
     0
100
AcDbPoint
 10
853.178402
 20
412.559226
 30
0.0
  0
POINT
  5
214
100
AcDbEntity
  8
DEFPOINTS
  6
BYBLOCK
 62
     0
100
AcDbPoint
 10
853.178402
 20
452.559226
 30
0.0
  0
POINT
  5
215
100
AcDbEntity
  8
DEFPOINTS
  6
BYBLOCK
 62
     0
100
AcDbPoint
 10
889.493519
 20
452.559226
 30
0.0
  0
ENDBLK
  5
217
100
AcDbEntity
  8
0
100
AcDbBlockEnd
  0
BLOCK
  5
224
100
AcDbEntity
  8
0
100
AcDbBlockBegin
  2
*D6
 70
     1
 10
0.0
 20
0.0
 30
0.0
  3
*D6
  1

  0
LINE
  5
21A
100
AcDbEntity
  8
0
  6
BYBLOCK
 62
     4
100
AcDbLine
 10
791.178402
 20
401.559226
 30
0.0
 11
791.178402
 21
359.779548
 31
0.0
  0
LINE
  5
21B
100
AcDbEntity
  8
0
  6
BYBLOCK
 62
     4
100
AcDbLine
 10
784.178402
 20
392.559226
 30
0.0
 11
784.178402
 21
359.779548
 31
0.0
  0
LINE
  5
21C
100
AcDbEntity
  8
0
  6
BYBLOCK
 62
     4
100
AcDbLine
 10
794.178402
 20
362.279548
 30
0.0
 11
797.178402
 21
362.279548
 31
0.0
  0
LINE
  5
21D
100
AcDbEntity
  8
0
  6
BYBLOCK
 62
     4
100
AcDbLine
 10
781.178402
 20
362.279548
 30
0.0
 11
768.892688
 21
362.279548
 31
0.0
  0
SOLID
  5
21E
100
AcDbEntity
  8
0
  6
BYBLOCK
 62
     4
100
AcDbTrace
 10
794.178402
 20
362.779548
 30
0.0
 11
794.178402
 21
361.779548
 31
0.0
 12
791.178402
 22
362.279548
 32
0.0
 13
791.178402
 23
362.279548
 33
0.0
  0
SOLID
  5
21F
100
AcDbEntity
  8
0
  6
BYBLOCK
 62
     4
100
AcDbTrace
 10
781.178402
 20
362.779548
 30
0.0
 11
781.178402
 21
361.779548
 31
0.0
 12
784.178402
 22
362.279548
 32
0.0
 13
784.178402
 23
362.279548
 33
0.0
  0
MTEXT
  5
220
100
AcDbEntity
  8
0
  6
BYBLOCK
 62
     2
100
AcDbMText
 10
773.535545
 20
365.279548
 30
0.0
 40
3.0
 41
0.0
 71
     5
 72
     1
  1
\A1;7.0
  0
POINT
  5
221
100
AcDbEntity
  8
DEFPOINTS
  6
BYBLOCK
 62
     0
100
AcDbPoint
 10
791.178402
 20
402.559226
 30
0.0
  0
POINT
  5
222
100
AcDbEntity
  8
DEFPOINTS
  6
BYBLOCK
 62
     0
100
AcDbPoint
 10
784.178402
 20
393.559226
 30
0.0
  0
POINT
  5
223
100
AcDbEntity
  8
DEFPOINTS
  6
BYBLOCK
 62
     0
100
AcDbPoint
 10
784.178402
 20
362.279548
 30
0.0
  0
ENDBLK
  5
225
100
AcDbEntity
  8
0
100
AcDbBlockEnd
  0
BLOCK
  5
232
100
AcDbEntity
  8
0
100
AcDbBlockBegin
  2
*D7
 70
     1
 10
0.0
 20
0.0
 30
0.0
  3
*D7
  1

  0
LINE
  5
228
100
AcDbEntity
  8
0
  6
BYBLOCK
 62
     4
100
AcDbLine
 10
838.178402
 20
400.259226
 30
0.0
 11
838.178402
 21
359.779548
 31
0.0
  0
LINE
  5
229
100
AcDbEntity
  8
0
  6
BYBLOCK
 62
     4
100
AcDbLine
 10
845.178402
 20
381.045835
 30
0.0
 11
845.178402
 21
359.779548
 31
0.0
  0
LINE
  5
22A
100
AcDbEntity
  8
0
  6
BYBLOCK
 62
     4
100
AcDbLine
 10
835.178402
 20
362.279548
 30
0.0
 11
832.178402
 21
362.279548
 31
0.0
  0
LINE
  5
22B
100
AcDbEntity
  8
0
  6
BYBLOCK
 62
     4
100
AcDbLine
 10
848.178402
 20
362.279548
 30
0.0
 11
860.464116
 21
362.279548
 31
0.0
  0
SOLID
  5
22C
100
AcDbEntity
  8
0
  6
BYBLOCK
 62
     4
100
AcDbTrace
 10
835.178402
 20
362.779548
 30
0.0
 11
835.178402
 21
361.779548
 31
0.0
 12
838.178402
 22
362.279548
 32
0.0
 13
838.178402
 23
362.279548
 33
0.0
  0
SOLID
  5
22D
100
AcDbEntity
  8
0
  6
BYBLOCK
 62
     4
100
AcDbTrace
 10
848.178402
 20
362.779548
 30
0.0
 11
848.178402
 21
361.779548
 31
0.0
 12
845.178402
 22
362.279548
 32
0.0
 13
845.178402
 23
362.279548
 33
0.0
  0
MTEXT
  5
22E
100
AcDbEntity
  8
0
  6
BYBLOCK
 62
     2
100
AcDbMText
 10
855.821259
 20
365.279548
 30
0.0
 40
3.0
 41
0.0
 71
     5
 72
     1
  1
\A1;7.0
  0
POINT
  5
22F
100
AcDbEntity
  8
DEFPOINTS
  6
BYBLOCK
 62
     0
100
AcDbPoint
 10
838.178402
 20
401.259226
 30
0.0
  0
POINT
  5
230
100
AcDbEntity
  8
DEFPOINTS
  6
BYBLOCK
 62
     0
100
AcDbPoint
 10
845.178402
 20
382.045835
 30
0.0
  0
POINT
  5
231
100
AcDbEntity
  8
DEFPOINTS
  6
BYBLOCK
 62
     0
100
AcDbPoint
 10
845.178402
 20
362.279548
 30
0.0
  0
ENDBLK
  5
233
100
AcDbEntity
  8
0
100
AcDbBlockEnd
  0
BLOCK
  5
23F
100
AcDbEntity
  8
0
100
AcDbBlockBegin
  2
*D8
 70
     1
 10
0.0
 20
0.0
 30
0.0
  3
*D8
  1

  0
LINE
  5
236
100
AcDbEntity
  8
0
  6
BYBLOCK
 62
     4
100
AcDbLine
 10
791.178402
 20
401.559226
 30
0.0
 11
791.178402
 21
359.779548
 31
0.0
  0
LINE
  5
237
100
AcDbEntity
  8
0
  6
BYBLOCK
 62
     4
100
AcDbLine
 10
838.178402
 20
400.259226
 30
0.0
 11
838.178402
 21
359.779548
 31
0.0
  0
LINE
  5
238
100
AcDbEntity
  8
0
  6
BYBLOCK
 62
     4
100
AcDbLine
 10
794.178402
 20
362.279548
 30
0.0
 11
835.178402
 21
362.279548
 31
0.0
  0
SOLID
  5
239
100
AcDbEntity
  8
0
  6
BYBLOCK
 62
     4
100
AcDbTrace
 10
794.178402
 20
362.779548
 30
0.0
 11
794.178402
 21
361.779548
 31
0.0
 12
791.178402
 22
362.279548
 32
0.0
 13
791.178402
 23
362.279548
 33
0.0
  0
SOLID
  5
23A
100
AcDbEntity
  8
0
  6
BYBLOCK
 62
     4
100
AcDbTrace
 10
835.178402
 20
362.779548
 30
0.0
 11
835.178402
 21
361.779548
 31
0.0
 12
838.178402
 22
362.279548
 32
0.0
 13
838.178402
 23
362.279548
 33
0.0
  0
MTEXT
  5
23B
100
AcDbEntity
  8
0
  6
BYBLOCK
 62
     2
100
AcDbMText
 10
814.678402
 20
365.279548
 30
0.0
 40
3.0
 41
0.0
 71
     5
 72
     1
  1
\A1;47.00
  0
POINT
  5
23C
100
AcDbEntity
  8
DEFPOINTS
  6
BYBLOCK
 62
     0
100
AcDbPoint
 10
791.178402
 20
402.559226
 30
0.0
  0
POINT
  5
23D
100
AcDbEntity
  8
DEFPOINTS
  6
BYBLOCK
 62
     0
100
AcDbPoint
 10
838.178402
 20
401.259226
 30
0.0
  0
POINT
  5
23E
100
AcDbEntity
  8
DEFPOINTS
  6
BYBLOCK
 62
     0
100
AcDbPoint
 10
838.178402
 20
362.279548
 30
0.0
  0
ENDBLK
  5
240
100
AcDbEntity
  8
0
100
AcDbBlockEnd
  0
BLOCK
  5
2D6
100
AcDbEntity
  8
0
100
AcDbBlockBegin
  2
*D9
 70
     1
 10
0.0
 20
0.0
 30
0.0
  3
*D9
  1

  0
LINE
  5
2CD
100
AcDbEntity
  8
0
  6
BYBLOCK
 62
     4
100
AcDbLine
 10
669.265534
 20
400.559226
 30
0.0
 11
712.522489
 21
400.559226
 31
0.0
  0
LINE
  5
2CE
100
AcDbEntity
  8
0
  6
BYBLOCK
 62
     4
100
AcDbLine
 10
669.265534
 20
464.559226
 30
0.0
 11
712.522489
 21
464.559226
 31
0.0
  0
LINE
  5
2CF
100
AcDbEntity
  8
0
  6
BYBLOCK
 62
     4
100
AcDbLine
 10
710.022489
 20
403.559226
 30
0.0
 11
710.022489
 21
461.559226
 31
0.0
  0
SOLID
  5
2D0
100
AcDbEntity
  8
0
  6
BYBLOCK
 62
     4
100
AcDbTrace
 10
709.522489
 20
403.559226
 30
0.0
 11
710.522489
 21
403.559226
 31
0.0
 12
710.022489
 22
400.559226
 32
0.0
 13
710.022489
 23
400.559226
 33
0.0
  0
SOLID
  5
2D1
100
AcDbEntity
  8
0
  6
BYBLOCK
 62
     4
100
AcDbTrace
 10
709.522489
 20
461.559226
 30
0.0
 11
710.522489
 21
461.559226
 31
0.0
 12
710.022489
 22
464.559226
 32
0.0
 13
710.022489
 23
464.559226
 33
0.0
  0
MTEXT
  5
2D2
100
AcDbEntity
  8
0
  6
BYBLOCK
 62
     2
100
AcDbMText
 10
707.022489
 20
432.559226
 30
0.0
 40
3.0
 41
0.0
 71
     5
 72
     1
  1
\A1;W=64.00
 11
0.0
 21
1.0
 31
0.0
  0
POINT
  5
2D3
100
AcDbEntity
  8
DEFPOINTS
  6
BYBLOCK
 62
     0
100
AcDbPoint
 10
668.265534
 20
400.559226
 30
0.0
  0
POINT
  5
2D4
100
AcDbEntity
  8
DEFPOINTS
  6
BYBLOCK
 62
     0
100
AcDbPoint
 10
668.265534
 20
464.559226
 30
0.0
  0
POINT
  5
2D5
100
AcDbEntity
  8
DEFPOINTS
  6
BYBLOCK
 62
     0
100
AcDbPoint
 10
710.022489
 20
464.559226
 30
0.0
  0
ENDBLK
  5
2D7
100
AcDbEntity
  8
0
100
AcDbBlockEnd
  0
BLOCK
  5
2E3
100
AcDbEntity
  8
0
100
AcDbBlockBegin
  2
*D10
 70
     1
 10
0.0
 20
0.0
 30
0.0
  3
*D10
  1

  0
LINE
  5
2DA
100
AcDbEntity
  8
0
  6
BYBLOCK
 62
     4
100
AcDbLine
 10
141.265534
 20
411.559226
 30
0.0
 11
141.265534
 21
337.696619
 31
0.0
  0
LINE
  5
2DB
100
AcDbEntity
  8
0
  6
BYBLOCK
 62
     4
100
AcDbLine
 10
705.265534
 20
411.559226
 30
0.0
 11
705.265534
 21
337.696619
 31
0.0
  0
LINE
  5
2DC
100
AcDbEntity
  8
0
  6
BYBLOCK
 62
     4
100
AcDbLine
 10
144.265534
 20
340.196619
 30
0.0
 11
702.265534
 21
340.196619
 31
0.0
  0
SOLID
  5
2DD
100
AcDbEntity
  8
0
  6
BYBLOCK
 62
     4
100
AcDbTrace
 10
144.265534
 20
340.696619
 30
0.0
 11
144.265534
 21
339.696619
 31
0.0
 12
141.265534
 22
340.196619
 32
0.0
 13
141.265534
 23
340.196619
 33
0.0
  0
SOLID
  5
2DE
100
AcDbEntity
  8
0
  6
BYBLOCK
 62
     4
100
AcDbTrace
 10
702.265534
 20
340.696619
 30
0.0
 11
702.265534
 21
339.696619
 31
0.0
 12
705.265534
 22
340.196619
 32
0.0
 13
705.265534
 23
340.196619
 33
0.0
  0
MTEXT
  5
2DF
100
AcDbEntity
  8
0
  6
BYBLOCK
 62
     2
100
AcDbMText
 10
423.265534
 20
343.196619
 30
0.0
 40
3.0
 41
0.0
 71
     5
 72
     1
  1
\A1;L=564.00
  0
POINT
  5
2E0
100
AcDbEntity
  8
DEFPOINTS
  6
BYBLOCK
 62
     0
100
AcDbPoint
 10
141.265534
 20
412.559226
 30
0.0
  0
POINT
  5
2E1
100
AcDbEntity
  8
DEFPOINTS
  6
BYBLOCK
 62
     0
100
AcDbPoint
 10
705.265534
 20
412.559226
 30
0.0
  0
POINT
  5
2E2
100
AcDbEntity
  8
DEFPOINTS
  6
BYBLOCK
 62
     0
100
AcDbPoint
 10
705.265534
 20
340.196619
 30
0.0
  0
ENDBLK
  5
2E4
100
AcDbEntity
  8
0
100
AcDbBlockEnd
  0
BLOCK
  5
2F0
100
AcDbEntity
  8
0
100
AcDbBlockBegin
  2
*D11
 70
     1
 10
0.0
 20
0.0
 30
0.0
  3
*D11
  1

  0
LINE
  5
2E7
100
AcDbEntity
  8
0
  6
BYBLOCK
 62
     4
100
AcDbLine
 10
173.265534
 20
414.860422
 30
0.0
 11
173.265534
 21
347.472053
 31
0.0
  0
LINE
  5
2E8
100
AcDbEntity
  8
0
  6
BYBLOCK
 62
     4
100
AcDbLine
 10
673.265534
 20
414.846007
 30
0.0
 11
673.265534
 21
347.472053
 31
0.0
  0
LINE
  5
2E9
100
AcDbEntity
  8
0
  6
BYBLOCK
 62
     4
100
AcDbLine
 10
176.265534
 20
349.972053
 30
0.0
 11
670.265534
 21
349.972053
 31
0.0
  0
SOLID
  5
2EA
100
AcDbEntity
  8
0
  6
BYBLOCK
 62
     4
100
AcDbTrace
 10
176.265534
 20
350.472053
 30
0.0
 11
176.265534
 21
349.472053
 31
0.0
 12
173.265534
 22
349.972053
 32
0.0
 13
173.265534
 23
349.972053
 33
0.0
  0
SOLID
  5
2EB
100
AcDbEntity
  8
0
  6
BYBLOCK
 62
     4
100
AcDbTrace
 10
670.265534
 20
350.472053
 30
0.0
 11
670.265534
 21
349.472053
 31
0.0
 12
673.265534
 22
349.972053
 32
0.0
 13
673.265534
 23
349.972053
 33
0.0
  0
MTEXT
  5
2EC
100
AcDbEntity
  8
0
  6
BYBLOCK
 62
     2
100
AcDbMText
 10
423.265534
 20
352.972053
 30
0.0
 40
3.0
 41
0.0
 71
     5
 72
     1
  1
\A1;A=500.00
  0
POINT
  5
2ED
100
AcDbEntity
  8
DEFPOINTS
  6
BYBLOCK
 62
     0
100
AcDbPoint
 10
173.265534
 20
415.860422
 30
0.0
  0
POINT
  5
2EE
100
AcDbEntity
  8
DEFPOINTS
  6
BYBLOCK
 62
     0
100
AcDbPoint
 10
673.265534
 20
415.846007
 30
0.0
  0
POINT
  5
2EF
100
AcDbEntity
  8
DEFPOINTS
  6
BYBLOCK
 62
     0
100
AcDbPoint
 10
673.265534
 20
349.972053
 30
0.0
  0
ENDBLK
  5
2F1
100
AcDbEntity
  8
0
100
AcDbBlockEnd
  0
BLOCK
  5
2FD
100
AcDbEntity
  8
0
100
AcDbBlockBegin
  2
*D12
 70
     1
 10
0.0
 20
0.0
 30
0.0
  3
*D12
  1

  0
LINE
  5
2F4
100
AcDbEntity
  8
0
  6
BYBLOCK
 62
     4
100
AcDbLine
 10
173.265534
 20
414.860422
 30
0.0
 11
173.265534
 21
357.526785
 31
0.0
  0
LINE
  5
2F5
100
AcDbEntity
  8
0
  6
BYBLOCK
 62
     4
100
AcDbLine
 10
423.265534
 20
384.559226
 30
0.0
 11
423.265534
 21
357.526785
 31
0.0
  0
LINE
  5
2F6
100
AcDbEntity
  8
0
  6
BYBLOCK
 62
     4
100
AcDbLine
 10
176.265534
 20
360.026785
 30
0.0
 11
420.265534
 21
360.026785
 31
0.0
  0
SOLID
  5
2F7
100
AcDbEntity
  8
0
  6
BYBLOCK
 62
     4
100
AcDbTrace
 10
176.265534
 20
360.526785
 30
0.0
 11
176.265534
 21
359.526785
 31
0.0
 12
173.265534
 22
360.026785
 32
0.0
 13
173.265534
 23
360.026785
 33
0.0
  0
SOLID
  5
2F8
100
AcDbEntity
  8
0
  6
BYBLOCK
 62
     4
100
AcDbTrace
 10
420.265534
 20
360.526785
 30
0.0
 11
420.265534
 21
359.526785
 31
0.0
 12
423.265534
 22
360.026785
 32
0.0
 13
423.265534
 23
360.026785
 33
0.0
  0
MTEXT
  5
2F9
100
AcDbEntity
  8
0
  6
BYBLOCK
 62
     2
100
AcDbMText
 10
296.762742
 20
363.812499
 30
0.0
 40
3.0
 41
0.0
 71
     5
 72
     1
  1
\A1;A/2=250.00
  0
POINT
  5
2FA
100
AcDbEntity
  8
DEFPOINTS
  6
BYBLOCK
 62
     0
100
AcDbPoint
 10
173.265534
 20
415.860422
 30
0.0
  0
POINT
  5
2FB
100
AcDbEntity
  8
DEFPOINTS
  6
BYBLOCK
 62
     0
100
AcDbPoint
 10
423.265534
 20
385.559226
 30
0.0
  0
POINT
  5
2FC
100
AcDbEntity
  8
DEFPOINTS
  6
BYBLOCK
 62
     0
100
AcDbPoint
 10
423.265534
 20
360.026785
 30
0.0
  0
ENDBLK
  5
2FE
100
AcDbEntity
  8
0
100
AcDbBlockEnd
  0
ENDSEC
  0
SECTION
  2
ENTITIES
  0
HATCH
  5
20
100
AcDbEntity
  8
HATCH
100
AcDbHatch
 10
0.0
 20
0.0
 30
0.0
210
0.0
220
0.0
230
1.0
  2
_U
 70
     0
 71
     1
 91
        4
 92
        7
 72
     0
 73
     1
 93
        4
 10
446.4905344179457
 20
283.0138856722447
 10
446.4905344179457
 20
280.0138856722446
 10
655.2655344179457
 20
280.0138856722446
 10
655.2655344179456
 20
283.0138856722447
 97
        4
330
3F4
330
3F5
330
403
330
EA
 92
        7
 72
     0
 73
     1
 93
        4
 10
658.2655344179454
 20
230.0138856722447
 10
658.2655344179455
 20
233.0138856722446
 10
458.2655344179458
 20
233.0138856722447
 10
458.2655344179458
 20
230.0138856722447
 97
        4
330
168
330
3E7
330
3C3
330
3BB
 92
        7
 72
     0
 73
     1
 93
        4
 10
691.2655344179456
 20
280.0138856722447
 10
703.2655344179456
 20
280.0138856722446
 10
703.2655344179454
 20
283.0138856722446
 10
691.2655344179456
 20
283.0138856722446
 97
        4
330
3F4
330
EB
330
403
330
3FA
 92
        7
 72
     0
 73
     1
 93
        4
 10
703.2655344179455
 20
233.0138856722446
 10
688.2655344179457
 20
233.0138856722446
 10
688.2655344179455
 20
230.0138856722446
 10
703.2655344179453
 20
230.0138856722446
 97
        4
330
3BA
330
3AF
330
3F7
330
168
 75
     0
 76
     0
 52
135.0
 41
0.8
 77
     0
 78
     1
 53
135.0
 43
-6.82677
 44
0.0
 45
-0.5656854249492382
 46
-0.565685424949238
 79
     0
 47
0.339165
 98
        4
 10
537.849119
 20
282.418784
 10
546.331747
 20
231.204842
 10
655.92731
 20
281.401288
 10
656.605918
 20
231.544008
  0
HATCH
  5
21
100
AcDbEntity
  8
HATCH
100
AcDbHatch
 10
0.0
 20
0.0
 30
0.0
210
0.0
220
0.0
230
1.0
  2
_U
 70
     0
 71
     1
 91
        4
 92
        7
 72
     0
 73
     1
 93
        4
 10
143.2655344179456
 20
283.0138856722447
 10
143.2655344179456
 20
280.0138856722447
 10
155.2655344179456
 20
280.0138856722447
 10
155.2655344179456
 20
283.0138856722446
 97
        4
330
3F9
330
3FB
330
403
330
ED
 92
        7
 72
     0
 73
     1
 93
        4
 10
191.2655344179455
 20
283.0138856722446
 10
191.2655344179456
 20
280.0138856722447
 10
400.0405344179457
 20
280.0138856722447
 10
400.0405344179456
 20
283.0138856722446
 97
        4
330
3F9
330
EC
330
403
330
8C
 92
        7
 72
     0
 73
     1
 93
        4
 10
143.2655344179456
 20
233.0138856722446
 10
143.2655344179456
 20
230.0138856722446
 10
158.2655344179455
 20
230.0138856722447
 10
158.2655344179456
 20
233.0138856722446
 97
        4
330
402
330
3F8
330
3F6
330
29F
 92
        7
 72
     0
 73
     1
 93
        4
 10
188.2655344179456
 20
233.0138856722446
 10
188.2655344179456
 20
230.0138856722446
 10
388.2655344179455
 20
230.0138856722446
 10
388.2655344179454
 20
233.0138856722447
 97
        4
330
402
330
29E
330
272
330
3C5
 75
     0
 76
     0
 52
135.0
 41
0.8
 77
     0
 78
     1
 53
135.0
 43
-194.32677
 44
0.0
 45
-0.5656854249492382
 46
-0.565685424949238
 79
     0
 47
0.339165
 98
        4
 10
153.89144
 20
282.418784
 10
201.054853
 20
282.418784
 10
155.587965
 20
231.544008
 10
198.001109
 20
231.544008
  0
HATCH
  5
22
100
AcDbEntity
  8
HATCH
100
AcDbHatch
 10
0.0
 20
0.0
 30
0.0
210
0.0
220
0.0
230
1.0
  2
_U
 70
     0
 71
     1
 91
       21
 92
        7
 72
     1
 73
     1
 93
       39
 10
419.2655344179456
 20
252.5138856722445
 42
0.0
 10
173.2655344179456
 20
252.5138856722445
 42
-0.4142135623730951
 10
169.2655344179456
 20
256.5138856722445
 42
0.0
 10
169.2655344179456
 20
280.0138856722447
 42
0.0
 10
154.2655344179456
 20
280.0138856722446
 42
0.0
 10
154.2655344179456
 20
276.0138856722448
 42
-1.0
 10
146.2655344179456
 20
276.0138856722448
 42
0.0
 10
146.2655344179456
 20
280.0138856722447
 42
0.0
 10
143.2655344179456
 20
280.0138856722447
 42
0.0
 10
141.2655344179456
 20
278.0138856722446
 42
0.0
 10
141.2655344179456
 20
235.0138856722446
 42
0.0
 10
143.2655344179456
 20
233.0138856722446
 42
0.0
 10
146.2655344179456
 20
233.0138856722446
 42
0.0
 10
146.2655344179456
 20
237.0138856722445
 42
-1.0
 10
154.2655344179456
 20
237.0138856722445
 42
0.0
 10
154.2655344179456
 20
233.0138856722446
 42
0.0
 10
159.2655344179456
 20
233.0138856722447
 42
0.0
 10
159.2655344179457
 20
233.3138856722446
 42
0.0
 10
159.9655344179457
 20
234.0138856722446
 42
0.0
 10
186.5655344179456
 20
234.0138856722446
 42
0.0
 10
187.2655344179456
 20
233.3138856722447
 42
0.0
 10
187.2655344179456
 20
233.0138856722446
 42
0.0
 10
394.2655344179456
 20
233.0138856722447
 42
0.0
 10
394.2655344179456
 20
240.3138856722446
 42
0.0
 10
394.2655344179456
 20
242.8138856722445
 42
0.0
 10
394.9655344179456
 20
242.8138856722445
 42
0.0
 10
394.9655344179457
 20
244.3138856722446
 42
0.0
 10
397.2655344179457
 20
245.6417912913806
 42
0.0
 10
399.5655344179457
 20
244.3138856722445
 42
0.0
 10
399.5655344179456
 20
242.8138856722445
 42
0.0
 10
400.2655344179457
 20
242.8138856722445
 42
0.0
 10
400.2655344179457
 20
240.3138856722447
 42
0.0
 10
400.2655344179457
 20
233.0138856722447
 42
0.0
 10
412.7655344179458
 20
233.0138856722447
 42
0.0
 10
413.2655344179457
 20
233.5138856722443
 42
0.0
 10
413.2655344179457
 20
242.0138856722445
 42
0.0
 10
413.2655344179458
 20
243.0138856722445
 42
0.0
 10
414.2655344179457
 20
243.0138856722445
 42
0.0
 10
419.2655344179457
 20
243.0138856722445
 42
0.0
 97
       34
330
403
330
137
330
139
330
138
330
3FE
330
401
330
3FF
330
402
330
12F
330
130
330
12E
330
29B
330
29A
330
2A0
330
295
330
296
330
163
330
14E
330
158
330
14F
330
155
330
156
330
14D
330
14C
330
162
330
3E1
330
3F1
330
3EA
330
3EB
330
3F0
330
3CD
330
3A3
330
3A6
330
3A5
 92
        7
 72
     0
 73
     1
 93
        9
 10
423.2655344179455
 20
260.5138856722445
 10
423.2655344179456
 20
275.0138856722446
 10
414.7655344179457
 20
275.0138856722447
 10
413.7655344179457
 20
275.0138856722447
 10
413.7655344179457
 20
276.0138856722447
 10
413.7655344179457
 20
279.3138856722446
 10
413.0655344179457
 20
280.0138856722446
 10
177.2655344179456
 20
280.0138856722446
 10
177.2655344179456
 20
260.5138856722445
 97
        9
330
B9
330
A6
330
A7
330
B7
330
8F
330
403
330
3A4
330
3AA
330
405
 92
        7
 72
     0
 73
     1
 93
        9
 10
669.2655344179456
 20
260.5138856722445
 10
669.2655344179455
 20
280.0138856722446
 10
433.4655344179457
 20
280.0138856722446
 10
432.7655344179458
 20
279.3138856722445
 10
432.7655344179458
 20
276.0138856722446
 10
432.7655344179458
 20
275.0138856722446
 10
431.7655344179457
 20
275.0138856722446
 10
423.2655344179455
 20
275.0138856722446
 10
423.2655344179455
 20
260.5138856722445
 97
        9
330
403
330
90
330
B8
330
AE
330
AD
330
B9
330
405
330
3AA
330
3AC
 92
        7
 72
     1
 73
     1
 93
       39
 10
446.9655344179456
 20
244.3138856722444
 42
0.0
 10
449.2655344179457
 20
245.6417912913805
 42
0.0
 10
451.5655344179457
 20
244.3138856722444
 42
0.0
 10
451.5655344179458
 20
242.8138856722444
 42
0.0
 10
452.2655344179456
 20
242.8138856722445
 42
0.0
 10
452.2655344179456
 20
240.3138856722447
 42
0.0
 10
452.2655344179456
 20
233.0138856722447
 42
0.0
 10
659.2655344179457
 20
233.0138856722446
 42
0.0
 10
659.2655344179455
 20
233.3138856722444
 42
0.0
 10
659.9655344179457
 20
234.0138856722446
 42
0.0
 10
686.5655344179457
 20
234.0138856722446
 42
0.0
 10
687.2655344179455
 20
233.3138856722445
 42
0.0
 10
687.2655344179456
 20
233.0138856722446
 42
0.0
 10
692.2655344179457
 20
233.0138856722446
 42
0.0
 10
692.2655344179457
 20
237.0138856722445
 42
-1.0
 10
700.2655344179457
 20
237.0138856722445
 42
0.0
 10
700.2655344179457
 20
233.0138856722446
 42
0.0
 10
703.2655344179456
 20
233.0138856722445
 42
0.0
 10
705.2655344179457
 20
235.0138856722445
 42
0.0
 10
705.2655344179457
 20
278.0138856722446
 42
0.0
 10
703.2655344179458
 20
280.0138856722446
 42
0.0
 10
700.2655344179458
 20
280.0138856722447
 42
0.0
 10
700.2655344179457
 20
276.0138856722446
 42
-1.0
 10
692.2655344179457
 20
276.0138856722448
 42
0.0
 10
692.2655344179457
 20
280.0138856722447
 42
0.0
 10
677.2655344179456
 20
280.0138856722447
 42
0.0
 10
677.2655344179456
 20
256.5138856722445
 42
-0.4142135623730951
 10
673.2655344179456
 20
252.5138856722445
 42
0.0
 10
427.2655344179456
 20
252.5138856722445
 42
0.0
 10
427.2655344179456
 20
243.0138856722444
 42
0.0
 10
432.2655344179455
 20
243.0138856722444
 42
0.0
 10
433.2655344179454
 20
243.0138856722444
 42
0.0
 10
433.2655344179455
 20
242.0138856722444
 42
0.0
 10
433.2655344179455
 20
233.5138856722443
 42
0.0
 10
433.7655344179454
 20
233.0138856722447
 42
0.0
 10
446.2655344179457
 20
233.0138856722447
 42
0.0
 10
446.2655344179457
 20
240.3138856722446
 42
0.0
 10
446.2655344179457
 20
242.8138856722445
 42
0.0
 10
446.9655344179456
 20
242.8138856722445
 42
0.0
 97
       35
330
172
330
16C
330
175
330
16B
330
180
330
168
330
3B7
330
3B6
330
3BC
330
3B1
330
3B2
330
140
330
142
330
141
330
3FC
330
400
330
3FD
330
403
330
14A
330
14B
330
149
330
3AD
330
3AE
330
3AB
330
3D1
330
3F0
330
3ED
330
3EC
330
3F2
330
3E2
330
3C6
330
17F
330
169
330
16A
330
173
 92
       22
 72
     0
 73
     1
 93
        4
 10
659.2655344179457
 20
233.0138856722446
 10
659.2655344179457
 20
233.3138856722446
 10
665.1066524304886
 20
233.3138856722446
 10
665.4066524304886
 20
233.0138856722446
 97
        4
330
3B0
330
3B7
330
168
330
2BF
 92
       22
 72
     0
 73
     1
 93
        4
 10
659.2655344179457
 20
233.3138856722445
 10
659.9655344179457
 20
234.0138856722445
 10
664.4066524304884
 20
234.0138856722445
 10
665.1066524304885
 20
233.3138856722446
 97
        4
330
3BC
330
3B6
330
3B0
330
2B3
 92
       23
 72
     0
 73
     1
 93
        4
 10
665.1066524304885
 20
233.3138856722446
 10
673.2655344179456
 20
233.3138856722446
 10
673.2655344179456
 20
234.0138856722445
 10
664.4066524304885
 20
234.0138856722446
 97
        4
330
3BC
330
2B3
330
3B0
330
3BE
 92
       23
 72
     0
 73
     1
 93
        4
 10
665.4066524304883
 20
233.0138856722446
 10
673.2655344179455
 20
233.0138856722446
 10
673.2655344179455
 20
233.3138856722446
 10
665.1066524304885
 20
233.3138856722446
 97
        4
330
3B0
330
2BF
330
168
330
3BE
 92
       23
 72
     0
 73
     1
 93
        4
 10
673.2655344179456
 20
233.0138856722446
 10
681.1244164054028
 20
233.0138856722446
 10
681.4244164054026
 20
233.3138856722446
 10
673.2655344179456
 20
233.3138856722446
 97
        4
330
3B0
330
3BE
330
168
330
2C1
 92
       23
 72
     0
 73
     1
 93
        4
 10
673.2655344179455
 20
233.3138856722446
 10
681.4244164054027
 20
233.3138856722445
 10
682.124416405403
 20
234.0138856722445
 10
673.2655344179456
 20
234.0138856722445
 97
        4
330
3BC
330
3BE
330
3B0
330
2B4
 92
       23
 72
     0
 73
     1
 93
        4
 10
681.4244164054027
 20
233.3138856722446
 10
687.2655344179458
 20
233.3138856722446
 10
686.5655344179456
 20
234.0138856722446
 10
682.1244164054029
 20
234.0138856722446
 97
        4
330
3BC
330
2B4
330
3B0
330
3B1
 92
       23
 72
     0
 73
     1
 93
        4
 10
681.1244164054028
 20
233.0138856722446
 10
687.2655344179455
 20
233.0138856722446
 10
687.2655344179458
 20
233.3138856722446
 10
681.4244164054027
 20
233.3138856722446
 97
        4
330
3B0
330
2C1
330
168
330
3B2
 92
       22
 72
     0
 73
     1
 93
        4
 10
159.2655344179456
 20
233.0138856722447
 10
159.2655344179456
 20
233.3138856722446
 10
165.1066524304887
 20
233.3138856722446
 10
165.4066524304887
 20
233.0138856722447
 97
        4
330
294
330
29B
330
402
330
28C
 92
       22
 72
     0
 73
     1
 93
        4
 10
159.2655344179456
 20
233.3138856722445
 10
159.9655344179457
 20
234.0138856722446
 10
164.4066524304885
 20
234.0138856722445
 10
165.1066524304885
 20
233.3138856722446
 97
        4
330
2A0
330
29A
330
294
330
281
 92
       23
 72
     0
 73
     1
 93
        4
 10
165.1066524304885
 20
233.3138856722446
 10
173.2655344179456
 20
233.3138856722446
 10
173.2655344179456
 20
234.0138856722446
 10
164.4066524304885
 20
234.0138856722446
 97
        4
330
2A0
330
281
330
294
330
2A2
 92
       23
 72
     0
 73
     1
 93
        4
 10
165.4066524304887
 20
233.0138856722447
 10
173.2655344179456
 20
233.0138856722447
 10
173.2655344179456
 20
233.3138856722446
 10
165.1066524304887
 20
233.3138856722446
 97
        4
330
294
330
28C
330
402
330
2A2
 92
       23
 72
     0
 73
     1
 93
        4
 10
173.2655344179456
 20
233.0138856722447
 10
181.1244164054028
 20
233.0138856722447
 10
181.4244164054027
 20
233.3138856722446
 10
173.2655344179456
 20
233.3138856722446
 97
        4
330
294
330
2A2
330
402
330
28E
 92
       23
 72
     0
 73
     1
 93
        4
 10
173.2655344179456
 20
233.3138856722446
 10
181.4244164054027
 20
233.3138856722446
 10
182.1244164054028
 20
234.0138856722446
 10
173.2655344179456
 20
234.0138856722446
 97
        4
330
2A0
330
2A2
330
294
330
282
 92
       22
 72
     0
 73
     1
 93
        4
 10
187.265534417943
 20
233.3138856722446
 10
181.4244164054027
 20
233.3138856722445
 10
182.1244164054029
 20
234.0138856722446
 10
186.5655344179455
 20
234.0138856722446
 97
        4
330
2A0
330
282
330
294
330
295
 92
       23
 72
     0
 73
     1
 93
        4
 10
181.1244164054027
 20
233.0138856722446
 10
187.2655344179456
 20
233.0138856722446
 10
187.2655344179457
 20
233.3138856722446
 10
181.4244164054027
 20
233.3138856722446
 97
        4
330
294
330
28E
330
402
330
296
 92
       24
 93
        4
 72
     1
 10
683.516704
 20
251.141172
 11
698.059561
 21
251.141172
 72
     1
 10
698.059561
 20
251.141172
 11
698.059561
 21
254.141172
 72
     1
 10
698.059561
 20
254.141172
 11
683.516704
 21
254.141172
 72
     1
 10
683.516704
 20
254.141172
 11
683.516704
 21
251.141172
 97
        1
330
26C
 75
     0
 76
     0
 52
45.0
 41
6.0
 77
     0
 78
     1
 53
45.0
 43
-132.181706
 44
0.0
 45
-4.242640687119284
 46
4.242640687119285
 79
     0
 47
0.040491
 98
       20
 10
291.562096
 20
263.221276
 10
332.781681
 20
266.727877
 10
457.609789
 20
268.188962
 10
442.700576
 20
245.396044
 10
525.50639
 20
233.192818
 10
525.50639
 20
233.563333
 10
528.789453
 20
233.669194
 10
529.054215
 20
233.192818
 10
537.84435
 20
233.192818
 10
538.056161
 20
233.457471
 10
547.905348
 20
233.616263
 10
546.210865
 20
233.139886
 10
301.332463
 20
233.134644
 10
301.291954
 20
233.539552
 10
303.924943
 20
233.661025
 10
304.086973
 20
233.134644
 10
312.391019
 20
233.134644
 10
312.593556
 20
233.49906
 10
319.965929
 20
233.539552
 10
319.844405
 20
233.094153
  0
HATCH
  5
23
100
AcDbEntity
  8
HATCH
100
AcDbHatch
 10
0.0
 20
0.0
 30
0.0
210
0.0
220
0.0
230
1.0
  2
_U
 70
     0
 71
     1
 91
        2
 92
        7
 72
     0
 73
     1
 93
        4
 10
813.1784019118018
 20
455.784226081063
 10
816.1784019118019
 20
455.7842260810629
 10
816.1784019118019
 20
496.559226081063
 10
813.1784019118018
 20
496.559226081063
 97
        4
330
47D
330
483
330
45C
330
491
 92
        7
 72
     0
 73
     1
 93
        4
 10
816.1784019118021
 20
409.3342260810631
 10
813.1784019118022
 20
409.3342260810631
 10
813.178401911802
 20
402.5592260810631
 10
816.1784019118021
 20
402.559226081063
 97
        4
330
45B
330
45D
330
481
330
491
 75
     0
 76
     0
 52
135.0
 41
0.8
 77
     0
 78
     1
 53
135.0
 43
17.818294
 44
0.0
 45
-0.5656854249492382
 46
-0.565685424949238
 79
     0
 47
0.242442
 98
        2
 10
814.501071
 20
492.865964
 10
814.743614
 20
406.799137
  0
DIMENSION
  5
24
100
AcDbEntity
  8
DIMS
100
AcDbDimension
  2
*D0
 10
790.778402
 20
470.100271
 30
0.0
 11
801.476986
 21
470.100271
 31
0.0
 12
25.0
 22
0.0
 32
0.0
 70
   128
  3
DIM1
100
AcDbAlignedDimension
 13
816.178402
 23
455.784226
 33
0.0
 14
790.778402
 24
454.784226
 34
0.0
100
AcDbRotatedDimension
1001
ACAD
1000
DSTYLE
1002
{
1070
   288
1070
     1
1070
   144
1040
1.0
1002
}
  0
DIMENSION
  5
33
100
AcDbEntity
  8
DIMS
100
AcDbDimension
  2
*D1
 10
767.779294
 20
455.784226
 30
0.0
 11
767.779294
 21
433.864678
 31
0.0
 12
25.0
 22
0.0
 32
0.0
 70
   128
  1
%%c46.5
  3
DIM1
100
AcDbAlignedDimension
 13
796.355752
 23
409.334226
 33
0.0
 14
796.355752
 24
455.784226
 34
0.0
 50
90.0
100
AcDbRotatedDimension
1001
ACAD
1000
DSTYLE
1002
{
1070
   288
1070
     1
1070
   144
1040
1.0
1002
}
  0
DIMENSION
  5
40
100
AcDbEntity
  8
DIMS
100
AcDbDimension
  2
*D2
 10
777.820526
 20
410.334226
 30
0.0
 11
777.820526
 21
433.524437
 31
0.0
 12
25.0
 22
0.0
 32
0.0
 70
   128
  1
%%c<> H7
  3
DIM1
100
AcDbAlignedDimension
 13
790.778402
 23
454.784226
 33
0.0
 14
790.778402
 24
410.334226
 34
0.0
 50
90.0
100
AcDbRotatedDimension
1001
ACAD
1000
DSTYLE
1002
{
1070
   288
1070
     1
1070
   144
1040
1.0
1002
}
  0
DIMENSION
  5
4D
100
AcDbEntity
  8
DIMS
100
AcDbDimension
  2
*D3
 10
795.778402
 20
381.12743
 30
0.0
 11
802.478402
 21
381.12743
 31
0.0
 12
25.0
 22
0.0
 32
0.0
 70
   128
  1
13.4
  3
DIM1
100
AcDbAlignedDimension
 13
809.178402
 23
393.559226
 33
0.0
 14
795.778402
 24
410.334226
 34
0.0
100
AcDbRotatedDimension
1001
ACAD
1000
DSTYLE
1002
{
1070
   288
1070
     1
1070
   144
1040
1.0
1002
}
  0
POINT
  5
5A
100
AcDbEntity
  8
DEFPOINTS
  6
BYBLOCK
 62
     0
100
AcDbPoint
 10
816.178402
 20
432.559226
 30
0.0
  0
LINE
  5
5B
100
AcDbEntity
  8
M04
100
AcDbLine
 10
816.178402
 20
422.359226
 30
0.0
 11
816.878402
 21
423.059226
 31
0.0
  0
LINE
  5
5D
100
AcDbEntity
  8
M04
100
AcDbLine
 10
816.178402
 20
442.759226
 30
0.0
 11
816.878402
 21
442.059226
 31
0.0
  0
LINE
  5
5E
100
AcDbEntity
  8
M03
100
AcDbLine
 10
808.778402
 20
434.859226
 30
0.0
 11
821.178402
 21
434.859226
 31
0.0
  0
LINE
  5
61
100
AcDbEntity
  8
M03
100
AcDbLine
 10
808.778402
 20
430.259226
 30
0.0
 11
821.178402
 21
430.259226
 31
0.0
  0
LINE
  5
62
100
AcDbEntity
  8
M03
100
AcDbLine
 10
808.778402
 20
429.559226
 30
0.0
 11
821.178402
 21
429.559226
 31
0.0
  0
LINE
  5
63
100
AcDbEntity
  8
M03
100
AcDbLine
 10
808.778402
 20
435.559226
 30
0.0
 11
821.178402
 21
435.559226
 31
0.0
  0
ARC
  5
64
100
AcDbEntity
  8
M03
100
AcDbCircle
 10
803.778402
 20
421.059226
 30
0.0
 40
5.0
100
AcDbArc
 50
270.0
 51
0.0
  0
ARC
  5
65
100
AcDbEntity
  8
M03
100
AcDbCircle
 10
803.778402
 20
444.059226
 30
0.0
 40
5.0
100
AcDbArc
 50
0.0
 51
90.0
  0
LINE
  5
66
100
AcDbEntity
  8
M03
100
AcDbLine
 10
790.778402
 20
416.059226
 30
0.0
 11
803.778402
 21
416.059226
 31
0.0
  0
LINE
  5
67
100
AcDbEntity
  8
M03
100
AcDbLine
 10
790.778402
 20
449.059226
 30
0.0
 11
803.778402
 21
449.059226
 31
0.0
  0
LINE
  5
68
100
AcDbEntity
  8
M03
100
AcDbLine
 10
808.778402
 20
444.059226
 30
0.0
 11
808.778402
 21
421.059226
 31
0.0
  0
LINE
  5
69
100
AcDbEntity
  8
M05
100
AcDbLine
 10
815.478402
 20
410.834226
 30
0.0
 11
815.478402
 21
454.284226
 31
0.0
  0
LINE
  5
6B
100
AcDbEntity
  8
M05
100
AcDbLine
 10
816.178402
 20
453.584226
 30
0.0
 11
815.478402
 21
454.284226
 31
0.0
  0
LINE
  5
6C
100
AcDbEntity
  8
M05
100
AcDbLine
 10
815.478402
 20
410.834226
 30
0.0
 11
816.178402
 21
411.534226
 31
0.0
  0
LINE
  5
6D
100
AcDbEntity
  8
M05
100
AcDbLine
 10
795.778402
 20
410.834226
 30
0.0
 11
815.478402
 21
410.834226
 31
0.0
  0
LINE
  5
6E
100
AcDbEntity
  8
M04
100
AcDbLine
 10
796.355752
 20
409.334226
 30
0.0
 11
796.355752
 21
410.834226
 31
0.0
  0
LINE
  5
6F
100
AcDbEntity
  8
M04
100
AcDbLine
 10
796.355752
 20
409.334226
 30
0.0
 11
809.178402
 21
409.334226
 31
0.0
  0
LINE
  5
70
100
AcDbEntity
  8
M04
100
AcDbLine
 10
795.778402
 20
410.334226
 30
0.0
 11
796.355752
 21
409.334226
 31
0.0
  0
LINE
  5
71
100
AcDbEntity
  8
M04
100
AcDbLine
 10
791.778402
 20
410.334226
 30
0.0
 11
790.778402
 21
410.334226
 31
0.0
  0
LINE
  5
72
100
AcDbEntity
  8
M04
100
AcDbLine
 10
790.778402
 20
411.334226
 30
0.0
 11
790.778402
 21
410.334226
 31
0.0
  0
LINE
  5
73
100
AcDbEntity
  8
M05
100
AcDbLine
 10
790.778402
 20
411.334226
 30
0.0
 11
791.778402
 21
410.334226
 31
0.0
  0
LINE
  5
74
100
AcDbEntity
  8
M05
100
AcDbLine
 10
791.778402
 20
410.334226
 30
0.0
 11
795.778402
 21
410.334226
 31
0.0
  0
LINE
  5
75
100
AcDbEntity
  8
M05
100
AcDbLine
 10
795.778402
 20
454.284226
 30
0.0
 11
815.478402
 21
454.284226
 31
0.0
  0
LINE
  5
76
100
AcDbEntity
  8
M04
100
AcDbLine
 10
821.178402
 20
424.059226
 30
0.0
 11
821.178402
 21
423.059226
 31
0.0
  0
LINE
  5
77
100
AcDbEntity
  8
M04
100
AcDbLine
 10
820.178402
 20
423.059226
 30
0.0
 11
821.178402
 21
423.059226
 31
0.0
  0
LINE
  5
78
100
AcDbEntity
  8
M04
100
AcDbLine
 10
796.355752
 20
455.784226
 30
0.0
 11
796.355752
 21
454.284226
 31
0.0
  0
LINE
  5
79
100
AcDbEntity
  8
M04
100
AcDbLine
 10
796.355752
 20
455.784226
 30
0.0
 11
809.178402
 21
455.784226
 31
0.0
  0
LINE
  5
7A
100
AcDbEntity
  8
M04
100
AcDbLine
 10
795.778402
 20
454.784226
 30
0.0
 11
796.355752
 21
455.784226
 31
0.0
  0
LINE
  5
7B
100
AcDbEntity
  8
M04
100
AcDbLine
 10
791.778402
 20
454.784226
 30
0.0
 11
790.778402
 21
454.784226
 31
0.0
  0
LINE
  5
7C
100
AcDbEntity
  8
M04
100
AcDbLine
 10
790.778402
 20
453.784226
 30
0.0
 11
790.778402
 21
454.784226
 31
0.0
  0
LINE
  5
7D
100
AcDbEntity
  8
M04
100
AcDbLine
 10
821.178402
 20
441.059226
 30
0.0
 11
821.178402
 21
442.059226
 31
0.0
  0
LINE
  5
7E
100
AcDbEntity
  8
M04
100
AcDbLine
 10
820.178402
 20
442.059226
 30
0.0
 11
821.178402
 21
442.059226
 31
0.0
  0
LINE
  5
7F
100
AcDbEntity
  8
M05
100
AcDbLine
 10
820.178402
 20
423.059226
 30
0.0
 11
820.178402
 21
442.059226
 31
0.0
  0
LINE
  5
80
100
AcDbEntity
  8
M05
100
AcDbLine
 10
791.778402
 20
410.334226
 30
0.0
 11
791.778402
 21
454.784226
 31
0.0
  0
LINE
  5
81
100
AcDbEntity
  8
M05
100
AcDbLine
 10
821.178402
 20
424.059226
 30
0.0
 11
820.178402
 21
423.059226
 31
0.0
  0
LINE
  5
82
100
AcDbEntity
  8
M05
100
AcDbLine
 10
820.178402
 20
442.059226
 30
0.0
 11
821.178402
 21
441.059226
 31
0.0
  0
LINE
  5
83
100
AcDbEntity
  8
M05
100
AcDbLine
 10
790.778402
 20
453.784226
 30
0.0
 11
791.778402
 21
454.784226
 31
0.0
  0
LINE
  5
84
100
AcDbEntity
  8
M05
100
AcDbLine
 10
791.778402
 20
454.784226
 30
0.0
 11
795.778402
 21
454.784226
 31
0.0
  0
LINE
  5
85
100
AcDbEntity
  8
M05
100
AcDbLine
 10
795.778402
 20
454.784226
 30
0.0
 11
795.778402
 21
410.334226
 31
0.0
  0
LINE
  5
86
100
AcDbEntity
  8
M05
100
AcDbLine
 10
790.778402
 20
453.784226
 30
0.0
 11
790.778402
 21
411.334226
 31
0.0
  0
LINE
  5
87
100
AcDbEntity
  8
M05
100
AcDbLine
 10
816.178402
 20
423.059226
 30
0.0
 11
820.178402
 21
423.059226
 31
0.0
  0
LINE
  5
88
100
AcDbEntity
  8
M05
100
AcDbLine
 10
816.178402
 20
442.059226
 30
0.0
 11
820.178402
 21
442.059226
 31
0.0
  0
LINE
  5
89
100
AcDbEntity
  8
M05
100
AcDbLine
 10
821.178402
 20
441.059226
 30
0.0
 11
821.178402
 21
424.059226
 31
0.0
  0
TEXT
  5
8A
100
AcDbEntity
  8
TEXT
100
AcDbText
 10
428.976908
 20
282.734612
 30
0.0
 40
2.0
  1
MA010002
 41
0.9
100
AcDbText
  0
LINE
  5
8C
102
{ACAD_REACTORS
330
21
102
}
100
AcDbEntity
  8
M02
100
AcDbLine
 10
400.040534
 20
283.013886
 30
0.0
 11
400.040534
 21
280.013886
 31
0.0
  0
POINT
  5
8E
100
AcDbEntity
  8
DEFPOINTS
  6
BYBLOCK
 62
     0
100
AcDbPoint
 10
423.265534
 20
280.013886
 30
0.0
  0
LINE
  5
8F
102
{ACAD_REACTORS
330
22
102
}
100
AcDbEntity
  8
M04
100
AcDbLine
 10
413.065534
 20
280.013886
 30
0.0
 11
413.765534
 21
279.313886
 31
0.0
  0
LINE
  5
90
102
{ACAD_REACTORS
330
22
102
}
100
AcDbEntity
  8
M04
100
AcDbLine
 10
433.465534
 20
280.013886
 30
0.0
 11
432.765534
 21
279.313886
 31
0.0
  0
LINE
  5
91
100
AcDbEntity
  8
M03
100
AcDbLine
 10
425.565534
 20
287.413886
 30
0.0
 11
425.565534
 21
275.013886
 31
0.0
  0
LINE
  5
92
100
AcDbEntity
  8
M03
100
AcDbLine
 10
420.965534
 20
287.413886
 30
0.0
 11
420.965534
 21
275.013886
 31
0.0
  0
LINE
  5
93
100
AcDbEntity
  8
M03
100
AcDbLine
 10
420.265534
 20
287.413886
 30
0.0
 11
420.265534
 21
275.013886
 31
0.0
  0
LINE
  5
94
100
AcDbEntity
  8
M03
100
AcDbLine
 10
426.265534
 20
287.413886
 30
0.0
 11
426.265534
 21
275.013886
 31
0.0
  0
ARC
  5
95
100
AcDbEntity
  8
M03
100
AcDbCircle
 10
411.765534
 20
292.413886
 30
0.0
 40
5.0
100
AcDbArc
 50
180.0
 51
270.0
  0
ARC
  5
96
100
AcDbEntity
  8
M03
100
AcDbCircle
 10
434.765534
 20
292.413886
 30
0.0
 40
5.0
100
AcDbArc
 50
270.0
 51
0.0
  0
LINE
  5
97
100
AcDbEntity
  8
M03
100
AcDbLine
 10
406.765534
 20
305.413886
 30
0.0
 11
406.765534
 21
292.413886
 31
0.0
  0
LINE
  5
98
100
AcDbEntity
  8
M03
100
AcDbLine
 10
439.765534
 20
305.413886
 30
0.0
 11
439.765534
 21
292.413886
 31
0.0
  0
LINE
  5
99
100
AcDbEntity
  8
M03
100
AcDbLine
 10
434.765534
 20
287.413886
 30
0.0
 11
411.765534
 21
287.413886
 31
0.0
  0
LINE
  5
9A
100
AcDbEntity
  8
M05
100
AcDbLine
 10
401.540534
 20
280.713886
 30
0.0
 11
444.990534
 21
280.713886
 31
0.0
  0
LINE
  5
9B
100
AcDbEntity
  8
M05
100
AcDbLine
 10
444.290534
 20
280.013886
 30
0.0
 11
444.990534
 21
280.713886
 31
0.0
  0
LINE
  5
9C
100
AcDbEntity
  8
M05
100
AcDbLine
 10
401.540534
 20
280.713886
 30
0.0
 11
402.240534
 21
280.013886
 31
0.0
  0
LINE
  5
9D
100
AcDbEntity
  8
M05
100
AcDbLine
 10
401.540534
 20
300.413886
 30
0.0
 11
401.540534
 21
280.713886
 31
0.0
  0
LINE
  5
9E
100
AcDbEntity
  8
M04
100
AcDbLine
 10
400.040534
 20
299.836535
 30
0.0
 11
401.540534
 21
299.836535
 31
0.0
  0
LINE
  5
9F
100
AcDbEntity
  8
M04
100
AcDbLine
 10
400.040534
 20
299.836535
 30
0.0
 11
400.040534
 21
287.013886
 31
0.0
  0
LINE
  5
A0
100
AcDbEntity
  8
M04
100
AcDbLine
 10
401.040534
 20
300.413886
 30
0.0
 11
400.040534
 21
299.836535
 31
0.0
  0
LINE
  5
A1
100
AcDbEntity
  8
M04
100
AcDbLine
 10
401.040534
 20
304.413886
 30
0.0
 11
401.040534
 21
305.413886
 31
0.0
  0
LINE
  5
A2
100
AcDbEntity
  8
M04
100
AcDbLine
 10
402.040534
 20
305.413886
 30
0.0
 11
401.040534
 21
305.413886
 31
0.0
  0
LINE
  5
A3
100
AcDbEntity
  8
M05
100
AcDbLine
 10
402.040534
 20
305.413886
 30
0.0
 11
401.040534
 21
304.413886
 31
0.0
  0
LINE
  5
A4
100
AcDbEntity
  8
M05
100
AcDbLine
 10
401.040534
 20
304.413886
 30
0.0
 11
401.040534
 21
300.413886
 31
0.0
  0
LINE
  5
A5
100
AcDbEntity
  8
M05
100
AcDbLine
 10
444.990534
 20
300.413886
 30
0.0
 11
444.990534
 21
280.713886
 31
0.0
  0
LINE
  5
A6
102
{ACAD_REACTORS
330
22
102
}
100
AcDbEntity
  8
M04
100
AcDbLine
 10
414.765534
 20
275.013886
 30
0.0
 11
413.765534
 21
275.013886
 31
0.0
  0
LINE
  5
A7
102
{ACAD_REACTORS
330
22
102
}
100
AcDbEntity
  8
M04
100
AcDbLine
 10
413.765534
 20
276.013886
 30
0.0
 11
413.765534
 21
275.013886
 31
0.0
  0
LINE
  5
A8
100
AcDbEntity
  8
M04
100
AcDbLine
 10
446.490534
 20
299.836535
 30
0.0
 11
444.990534
 21
299.836535
 31
0.0
  0
LINE
  5
A9
100
AcDbEntity
  8
M04
100
AcDbLine
 10
446.490534
 20
299.836535
 30
0.0
 11
446.490534
 21
287.013886
 31
0.0
  0
LINE
  5
AA
100
AcDbEntity
  8
M04
100
AcDbLine
 10
445.490534
 20
300.413886
 30
0.0
 11
446.490534
 21
299.836535
 31
0.0
  0
LINE
  5
AB
100
AcDbEntity
  8
M04
100
AcDbLine
 10
445.490534
 20
304.413886
 30
0.0
 11
445.490534
 21
305.413886
 31
0.0
  0
LINE
  5
AC
100
AcDbEntity
  8
M04
100
AcDbLine
 10
444.490534
 20
305.413886
 30
0.0
 11
445.490534
 21
305.413886
 31
0.0
  0
LINE
  5
AD
102
{ACAD_REACTORS
330
22
102
}
100
AcDbEntity
  8
M04
100
AcDbLine
 10
431.765534
 20
275.013886
 30
0.0
 11
432.765534
 21
275.013886
 31
0.0
  0
LINE
  5
AE
102
{ACAD_REACTORS
330
22
102
}
100
AcDbEntity
  8
M04
100
AcDbLine
 10
432.765534
 20
276.013886
 30
0.0
 11
432.765534
 21
275.013886
 31
0.0
  0
LINE
  5
AF
100
AcDbEntity
  8
M05
100
AcDbLine
 10
413.765534
 20
276.013886
 30
0.0
 11
432.765534
 21
276.013886
 31
0.0
  0
LINE
  5
B0
100
AcDbEntity
  8
M05
100
AcDbLine
 10
401.040534
 20
304.413886
 30
0.0
 11
445.490534
 21
304.413886
 31
0.0
  0
LINE
  5
B1
100
AcDbEntity
  8
M05
100
AcDbLine
 10
414.765534
 20
275.013886
 30
0.0
 11
413.765534
 21
276.013886
 31
0.0
  0
LINE
  5
B2
100
AcDbEntity
  8
M05
100
AcDbLine
 10
432.765534
 20
276.013886
 30
0.0
 11
431.765534
 21
275.013886
 31
0.0
  0
LINE
  5
B3
100
AcDbEntity
  8
M05
100
AcDbLine
 10
444.490534
 20
305.413886
 30
0.0
 11
445.490534
 21
304.413886
 31
0.0
  0
LINE
  5
B4
100
AcDbEntity
  8
M05
100
AcDbLine
 10
445.490534
 20
304.413886
 30
0.0
 11
445.490534
 21
300.413886
 31
0.0
  0
LINE
  5
B5
100
AcDbEntity
  8
M05
100
AcDbLine
 10
445.490534
 20
300.413886
 30
0.0
 11
401.040534
 21
300.413886
 31
0.0
  0
LINE
  5
B6
100
AcDbEntity
  8
M05
100
AcDbLine
 10
444.490534
 20
305.413886
 30
0.0
 11
402.040534
 21
305.413886
 31
0.0
  0
LINE
  5
B7
102
{ACAD_REACTORS
330
22
102
}
100
AcDbEntity
  8
M05
100
AcDbLine
 10
413.765534
 20
280.013886
 30
0.0
 11
413.765534
 21
276.013886
 31
0.0
  0
LINE
  5
B8
102
{ACAD_REACTORS
330
22
102
}
100
AcDbEntity
  8
M05
100
AcDbLine
 10
432.765534
 20
280.013886
 30
0.0
 11
432.765534
 21
276.013886
 31
0.0
  0
LINE
  5
B9
102
{ACAD_REACTORS
330
22
102
}
100
AcDbEntity
  8
M05
100
AcDbLine
 10
431.765534
 20
275.013886
 30
0.0
 11
414.765534
 21
275.013886
 31
0.0
  0
HATCH
  5
BA
100
AcDbEntity
  8
HATCH
100
AcDbHatch
 10
0.0
 20
0.0
 30
0.0
210
0.0
220
0.0
230
1.0
  2
_U
 70
     0
 71
     1
 91
        2
 92
        7
 72
     1
 73
     1
 93
        2
 10
146.2655344179456
 20
276.0138856722448
 42
1.0
 10
154.2655344179456
 20
276.0138856722448
 42
1.0
 97
        1
330
139
 92
        7
 72
     1
 73
     1
 93
        2
 10
146.2655344179456
 20
237.0138856722445
 42
1.0
 10
154.2655344179456
 20
237.0138856722445
 42
1.0
 97
        1
330
130
 75
     0
 76
     0
 52
45.0
 41
0.8
 77
     0
 78
     1
 53
45.0
 43
-294.681706
 44
-14.472589
 45
-0.565685424949238
 46
0.565685424949238
 79
     0
 47
0.251927
 98
        2
 10
148.802432
 20
277.784946
 10
151.826805
 20
238.988148
  0
HATCH
  5
BB
100
AcDbEntity
  8
HATCH
100
AcDbHatch
 10
0.0
 20
0.0
 30
0.0
210
0.0
220
0.0
230
1.0
  2
_U
 70
     0
 71
     0
 91
        2
 92
        7
 72
     1
 73
     1
 93
        2
 10
692.2655344179457
 20
276.0138856722448
 42
1.0
 10
700.2655344179457
 20
276.0138856722448
 42
1.0
 97
        0
 92
        7
 72
     1
 73
     1
 93
        2
 10
692.2655344179457
 20
237.0138856722445
 42
1.0
 10
700.2655344179457
 20
237.0138856722445
 42
1.0
 97
        0
 75
     0
 76
     0
 52
45.0
 41
0.8
 77
     0
 78
     1
 53
45.0
 43
30.318294
 44
-14.472589
 45
-0.565685424949238
 46
0.565685424949238
 79
     0
 47
0.251927
 98
        2
 10
697.606161
 20
277.533019
 10
698.110223
 20
237.980438
  0
HATCH
  5
BC
100
AcDbEntity
  8
HATCH
100
AcDbHatch
 10
0.0
 20
0.0
 30
0.0
210
0.0
220
0.0
230
1.0
  2
_U
 70
     0
 71
     0
 91
       16
 92
        7
 72
     1
 73
     1
 93
        5
 10
423.2655344179456
 20
452.5592260810632
 42
0.0
 10
423.2655344179456
 20
453.0592260810632
 42
-0.1856631955229143
 10
419.5801956733784
 20
454.4765457926017
 42
0.3157147729334966
 10
401.4034525179984
 20
436.5592260810632
 42
0.0
 10
403.6696164756802
 20
436.5592260810632
 42
-0.3563939586925999
 97
        0
 92
       22
 72
     1
 73
     1
 93
        4
 10
423.2655344179456
 20
452.5592260810632
 42
0.3563939586925999
 10
403.6696164756802
 20
436.5592260810632
 42
0.0
 10
414.6486904481386
 20
436.5592260810632
 42
-0.2919418509678903
 10
423.2655344179456
 20
442.0592260810632
 42
0.0
 97
        0
 92
        6
 72
     1
 73
     1
 93
        3
 10
423.2655344179456
 20
442.0592260810632
 42
0.2919418509678903
 10
414.6486904481386
 20
436.5592260810632
 42
0.0
 10
423.2655344179456
 20
436.5592260810632
 42
0.0
 97
        0
 92
        7
 72
     1
 73
     1
 93
        4
 10
423.2655344179456
 20
436.5592260810632
 42
0.0
 10
414.6486904481386
 20
436.5592260810632
 42
0.1090809576248918
 10
413.7655344179457
 20
432.5592260810632
 42
0.0
 10
419.2655344179456
 20
432.5592260810632
 42
-0.4142135623730992
 97
        0
 92
       22
 72
     1
 73
     1
 93
        3
 10
423.2655344179456
 20
436.5592260810632
 42
0.4142135623730992
 10
419.2655344179456
 20
432.5592260810632
 42
0.0
 10
423.2655344179457
 20
432.5592260810631
 42
0.0
 97
        0
 92
        7
 72
     1
 73
     1
 93
        4
 10
414.6486904481386
 20
436.5592260810632
 42
0.0
 10
403.6696164756802
 20
436.5592260810632
 42
0.0503820444848851
 10
403.2655344179456
 20
432.5592260810632
 42
0.0
 10
413.7655344179457
 20
432.5592260810632
 42
-0.1090809576248918
 97
        0
 92
        7
 72
     1
 73
     1
 93
        5
 10
403.6696164756802
 20
436.5592260810632
 42
0.0
 10
401.4034525179984
 20
436.5592260810632
 42
0.003593667114849
 10
401.3482147064072
 20
436.2445648256303
 42
-0.1856631955229133
 10
402.7655344179456
 20
432.5592260810632
 42
0.0
 10
403.2655344179456
 20
432.5592260810632
 42
-0.0503820444848851
 97
        0
 92
        7
 72
     1
 73
     1
 93
        3
 10
401.3482147064072
 20
436.2445648256303
 42
0.0416713391594355
 10
401.0405344179456
 20
432.5592260810632
 42
0.0
 10
402.7655344179456
 20
432.5592260810632
 42
0.1856631955229133
 97
        0
 92
       22
 72
     1
 73
     1
 93
        3
 10
427.2655344179456
 20
432.5592260810632
 42
0.0
 10
423.2655344179457
 20
432.5592260810632
 42
0.0
 10
423.2655344179457
 20
428.5592260810632
 42
0.4142135623730826
 97
        0
 92
        7
 72
     1
 73
     1
 93
        4
 10
432.7655344179456
 20
432.5592260810632
 42
0.0
 10
427.2655344179456
 20
432.5592260810632
 42
-0.4142135623730909
 10
423.2655344179456
 20
428.5592260810632
 42
0.0
 10
431.8823783877527
 20
428.5592260810632
 42
0.1090809576248888
 97
        0
 92
        6
 72
     1
 73
     1
 93
        3
 10
431.8823783877527
 20
428.5592260810632
 42
0.0
 10
423.2655344179456
 20
428.5592260810632
 42
0.0
 10
423.2655344179456
 20
423.0592260810632
 42
0.2919418509678903
 97
        0
 92
       22
 72
     1
 73
     1
 93
        4
 10
442.861452360211
 20
428.5592260810632
 42
0.0
 10
431.8823783877527
 20
428.5592260810632
 42
-0.2919418509678903
 10
423.2655344179456
 20
423.0592260810632
 42
0.0
 10
423.2655344179456
 20
412.5592260810632
 42
0.3563939586925999
 97
        0
 92
        7
 72
     1
 73
     1
 93
        4
 10
443.2655344179456
 20
432.5592260810632
 42
0.0
 10
432.7655344179456
 20
432.5592260810632
 42
-0.1090809576248888
 10
431.8823783877527
 20
428.5592260810632
 42
0.0
 10
442.861452360211
 20
428.5592260810632
 42
0.0503820444848837
 97
        0
 92
        7
 72
     1
 73
     1
 93
        5
 10
443.7655344179456
 20
432.5592260810632
 42
0.0
 10
443.2655344179456
 20
432.5592260810632
 42
-0.0503820444848837
 10
442.861452360211
 20
428.5592260810632
 42
0.0
 10
445.1276163178929
 20
428.5592260810632
 42
0.003593667114849
 10
445.182854129484
 20
428.8738873364961
 42
-0.185663195522908
 97
        0
 92
        7
 72
     1
 73
     1
 93
        3
 10
445.4905344179457
 20
432.5592260810632
 42
0.0
 10
443.7655344179456
 20
432.5592260810632
 42
0.185663195522908
 10
445.182854129484
 20
428.8738873364961
 42
0.0416713391594342
 97
        0
 92
        7
 72
     1
 73
     1
 93
        4
 10
445.1276163178929
 20
428.5592260810632
 42
0.0
 10
442.861452360211
 20
428.5592260810632
 42
-0.3563939586925999
 10
423.2655344179456
 20
412.5592260810632
 42
0.0
 10
423.2655344179456
 20
410.3342260810632
 42
0.3621506593782504
 97
        0
 75
     0
 76
     0
 52
45.0
 41
2.0
 77
     1
 78
     2
 53
45.0
 43
-132.181706
 44
0.0
 45
-1.414213562373094
 46
1.414213562373095
 79
     0
 53
135.0
 43
-132.181706
 44
0.0
 45
-1.414213562373095
 46
-1.414213562373094
 79
     0
 47
0.113412
 98
       16
 10
410.94938
 20
449.879146
 10
412.651255
 20
446.023152
 10
420.82026
 20
439.672104
 10
417.756882
 20
435.022228
 10
421.954844
 20
434.681993
 10
410.722463
 20
434.568582
 10
402.666917
 20
435.929521
 10
402.099626
 20
433.888112
 10
425.585513
 20
430.485764
 10
429.556555
 20
430.599175
 10
426.266263
 20
426.176123
 10
433.300683
 20
424.47495
 10
437.04481
 20
430.258941
 10
443.625397
 20
429.691883
 10
445.100356
 20
430.939411
 10
443.738856
 20
424.928596
  0
HATCH
  5
BD
100
AcDbEntity
  8
M03
100
AcDbHatch
 10
0.0
 20
0.0
 30
0.0
210
0.0
220
0.0
230
1.0
  2
_U
 70
     0
 71
     0
 91
        1
 92
        7
 72
     0
 73
     1
 93
        4
 10
191.4584716247606
 20
404.4592260810629
 10
162.2200122101252
 20
404.4592260810629
 10
162.2200122101252
 20
402.5592260810629
 10
191.4584716247607
 20
402.559226081063
 97
        0
 75
     0
 76
     0
 52
330.0
 41
0.7
 77
     0
 78
     1
 53
330.0
 43
-299.681706
 44
0.0
 45
0.3500000000000003
 46
0.6062177826491069
 79
     0
 47
0.060863
 98
        1
 10
187.7673
 20
403.271795
  0
HATCH
  5
BE
100
AcDbEntity
  8
M03
100
AcDbHatch
 10
0.0
 20
0.0
 30
0.0
210
0.0
220
0.0
230
1.0
  2
_U
 70
     0
 71
     0
 91
        1
 92
        7
 72
     0
 73
     1
 93
        4
 10
191.4584716247607
 20
404.4592260810629
 10
162.2200122101251
 20
404.4592260810629
 10
162.2200122101251
 20
402.5592260810628
 10
191.4584716247608
 20
402.559226081063
 97
        0
 75
     0
 76
     0
 52
30.0
 41
0.7
 77
     0
 78
     1
 53
30.0
 43
-299.681706
 44
0.0
 45
-0.3499999999999999
 46
0.6062177826491072
 79
     0
 47
0.060863
 98
        1
 10
187.584636
 20
403.515247
  0
LINE
  5
BF
100
AcDbEntity
  8
M01
100
AcDbLine
 10
857.166414
 20
566.794894
 30
0.0
 11
859.146122
 21
568.001623
 31
0.0
  0
LINE
  5
C1
100
AcDbEntity
  8
M01
100
AcDbLine
 10
864.900381
 20
578.248121
 30
0.0
 11
864.900381
 21
586.822933
 31
0.0
  0
LINE
  5
C2
100
AcDbEntity
  8
M01
100
AcDbLine
 10
860.900381
 20
578.248121
 30
0.0
 11
860.900381
 21
586.822933
 31
0.0
  0
ARC
  5
C3
100
AcDbEntity
  8
M01
100
AcDbCircle
 10
852.900381
 20
578.248121
 30
0.0
 40
12.0
100
AcDbArc
 50
301.364349
 51
0.0
  0
ARC
  5
C4
100
AcDbEntity
  8
M01
100
AcDbCircle
 10
852.900381
 20
578.248121
 30
0.0
 40
8.0
100
AcDbArc
 50
308.846454
 51
0.0
  0
LINE
  5
C5
100
AcDbEntity
  8
M01
100
AcDbLine
 10
843.535053
 20
563.170441
 30
0.0
 11
853.762465
 21
569.404549
 31
0.0
  0
LINE
  5
C6
100
AcDbEntity
  8
M01
100
AcDbLine
 10
845.616967
 20
559.754942
 30
0.0
 11
845.940499
 21
559.952151
 31
0.0
  0
LINE
  5
C7
100
AcDbEntity
  8
M01
100
AcDbLine
 10
844.178402
 20
552.752534
 30
0.0
 11
844.178402
 21
552.159226
 31
0.0
  0
LINE
  5
C8
100
AcDbEntity
  8
M01
100
AcDbLine
 10
840.178402
 20
557.193317
 30
0.0
 11
840.178402
 21
554.467473
 31
0.0
  0
ARC
  5
C9
100
AcDbEntity
  8
M01
100
AcDbCircle
 10
847.178402
 20
557.193317
 30
0.0
 40
3.0
100
AcDbArc
 50
121.364349
 51
151.672691
  0
ARC
  5
CA
100
AcDbEntity
  8
M01
100
AcDbCircle
 10
847.178402
 20
557.193317
 30
0.0
 40
7.0
100
AcDbArc
 50
121.364349
 51
180.0
  0
ARC
  5
CB
100
AcDbEntity
  8
M01
100
AcDbCircle
 10
847.178402
 20
552.159226
 30
0.0
 40
7.0
100
AcDbArc
 50
202.678679
 51
270.0
  0
ARC
  5
CC
100
AcDbEntity
  8
M01
100
AcDbCircle
 10
847.178402
 20
552.159226
 30
0.0
 40
3.0
100
AcDbArc
 50
180.0
 51
270.0
  0
ARC
  5
CD
100
AcDbEntity
  8
M01
100
AcDbCircle
 10
845.918265
 20
570.975701
 30
0.0
 40
12.0
100
AcDbArc
 50
313.586993
 51
0.0
  0
ARC
  5
CE
100
AcDbEntity
  8
M01
100
AcDbCircle
 10
845.918265
 20
570.975701
 30
0.0
 40
8.0
100
AcDbArc
 50
313.586993
 51
0.0
  0
LINE
  5
CF
100
AcDbEntity
  8
M01
100
AcDbLine
 10
847.178402
 20
549.159226
 30
0.0
 11
852.178402
 21
549.159226
 31
0.0
  0
LINE
  5
D0
100
AcDbEntity
  8
M01
100
AcDbLine
 10
848.178402
 20
549.159226
 30
0.0
 11
848.178402
 21
545.159226
 31
0.0
  0
LINE
  5
D1
100
AcDbEntity
  8
M01
100
AcDbLine
 10
852.178402
 20
549.159226
 30
0.0
 11
852.178402
 21
545.159226
 31
0.0
  0
LINE
  5
D2
100
AcDbEntity
  8
M01
100
AcDbLine
 10
817.178402
 20
545.159226
 30
0.0
 11
831.40294
 21
545.159226
 31
0.0
  0
LINE
  5
D3
100
AcDbEntity
  8
M01
100
AcDbLine
 10
831.40294
 20
549.159226
 30
0.0
 11
827.178402
 21
549.159226
 31
0.0
  0
ARC
  5
D4
100
AcDbEntity
  8
M01
100
AcDbCircle
 10
831.40294
 20
557.159226
 30
0.0
 40
12.0
100
AcDbArc
 50
270.0
 51
313.586993
  0
ARC
  5
D5
100
AcDbEntity
  8
M01
100
AcDbCircle
 10
831.40294
 20
557.159226
 30
0.0
 40
8.0
100
AcDbArc
 50
270.0
 51
313.586993
  0
LINE
  5
D6
100
AcDbEntity
  8
M01
100
AcDbLine
 10
831.178402
 20
549.159226
 30
0.0
 11
831.178402
 21
545.159226
 31
0.0
  0
LINE
  5
D7
100
AcDbEntity
  8
M01
100
AcDbLine
 10
827.178402
 20
549.159226
 30
0.0
 11
827.178402
 21
545.159226
 31
0.0
  0
LINE
  5
D8
100
AcDbEntity
  8
M01
100
AcDbLine
 10
854.191726
 20
562.28376
 30
0.0
 11
839.676402
 21
548.467285
 31
0.0
  0
LINE
  5
D9
100
AcDbEntity
  8
M01
100
AcDbLine
 10
851.433906
 20
565.181074
 30
0.0
 11
836.918581
 21
551.364599
 31
0.0
  0
LINE
  5
DA
100
AcDbEntity
  8
M01
100
AcDbLine
 10
857.918265
 20
586.814191
 30
0.0
 11
857.918265
 21
570.975701
 31
0.0
  0
LINE
  5
DB
100
AcDbEntity
  8
M01
100
AcDbLine
 10
853.918265
 20
586.814191
 30
0.0
 11
853.918265
 21
570.975701
 31
0.0
  0
HATCH
  5
DC
100
AcDbEntity
  8
HATCH
100
AcDbHatch
 10
0.0
 20
0.0
 30
0.0
210
0.0
220
0.0
230
1.0
  2
_U
 70
     0
 71
     1
 91
        2
 92
        7
 72
     0
 73
     1
 93
       11
 10
165.4066524304886
 20
233.0138856722447
 10
159.9655344179457
 20
233.0138856722447
 10
159.2655344179456
 20
232.3138856722447
 10
159.2655344179457
 20
226.7138856722445
 10
159.9655344179457
 20
226.0138856722446
 10
162.7655344179459
 20
226.0138856722446
 10
163.7655344179456
 20
227.0138856722445
 10
165.7655344179452
 20
227.0138856722446
 10
166.7655344179449
 20
226.0138856722446
 10
169.7655344179455
 20
226.0138856722446
 10
169.7655344179455
 20
228.6550036847878
 97
       10
330
402
330
29C
330
2A1
330
29D
330
408
330
E0
330
E2
330
E1
330
28A
330
28C
 92
        7
 72
     0
 73
     1
 93
       11
 10
181.1244164054027
 20
233.0138856722446
 10
176.7655344179457
 20
228.6550036847875
 10
176.7655344179457
 20
226.0138856722446
 10
179.7655344179465
 20
226.0138856722446
 10
180.7655344179461
 20
227.0138856722446
 10
182.7655344179456
 20
227.0138856722445
 10
183.7655344179455
 20
226.0138856722446
 10
186.5655344179456
 20
226.0138856722446
 10
187.2655344179455
 20
226.7138856722445
 10
187.2655344179457
 20
232.3138856722447
 10
186.5655344179456
 20
233.0138856722447
 97
       10
330
297
330
402
330
28E
330
289
330
271
330
DE
330
DF
330
DD
330
298
330
299
 75
     0
 76
     0
 52
135.0
 41
1.5
 77
     0
 78
     1
 53
135.0
 43
-327.181706
 44
-14.472589
 45
-1.060660171779821
 46
-1.060660171779821
 79
     0
 47
0.040219
 98
        2
 10
164.417317
 20
230.493456
 10
182.885605
 20
230.051044
  0
LINE
  5
DD
102
{ACAD_REACTORS
330
DC
102
}
100
AcDbEntity
  8
M05
100
AcDbLine
 10
182.765534
 20
227.013886
 30
0.0
 11
183.765534
 21
226.013886
 31
0.0
  0
LINE
  5
DE
102
{ACAD_REACTORS
330
DC
102
}
100
AcDbEntity
  8
M05
100
AcDbLine
 10
180.765534
 20
227.013886
 30
0.0
 11
179.765534
 21
226.013886
 31
0.0
  0
LINE
  5
DF
102
{ACAD_REACTORS
330
DC
102
}
100
AcDbEntity
  8
M05
100
AcDbLine
 10
182.765534
 20
227.013886
 30
0.0
 11
180.765534
 21
227.013886
 31
0.0
  0
LINE
  5
E0
102
{ACAD_REACTORS
330
DC
102
}
100
AcDbEntity
  8
M05
100
AcDbLine
 10
163.765534
 20
227.013886
 30
0.0
 11
162.765534
 21
226.013886
 31
0.0
  0
LINE
  5
E1
102
{ACAD_REACTORS
330
DC
102
}
100
AcDbEntity
  8
M05
100
AcDbLine
 10
165.765534
 20
227.013886
 30
0.0
 11
166.765534
 21
226.013886
 31
0.0
  0
LINE
  5
E2
102
{ACAD_REACTORS
330
DC
102
}
100
AcDbEntity
  8
M05
100
AcDbLine
 10
163.765534
 20
227.013886
 30
0.0
 11
165.765534
 21
227.013886
 31
0.0
  0
HATCH
  5
E3
100
AcDbEntity
  8
HATCH
100
AcDbHatch
 10
0.0
 20
0.0
 30
0.0
210
0.0
220
0.0
230
1.0
  2
_U
 70
     0
 71
     0
 91
        2
 92
        7
 72
     0
 73
     1
 93
       11
 10
665.4066524304885
 20
233.0138856722446
 10
659.9655344179457
 20
233.0138856722447
 10
659.2655344179457
 20
232.3138856722446
 10
659.2655344179457
 20
226.7138856722445
 10
659.9655344179454
 20
226.0138856722446
 10
662.7655344179457
 20
226.0138856722446
 10
663.7655344179454
 20
227.0138856722445
 10
665.7655344179452
 20
227.0138856722446
 10
666.7655344179447
 20
226.0138856722446
 10
669.7655344179454
 20
226.0138856722446
 10
669.7655344179454
 20
228.6550036847875
 97
        0
 92
        7
 72
     0
 73
     1
 93
       11
 10
687.2655344179456
 20
232.3138856722446
 10
686.5655344179456
 20
233.0138856722446
 10
681.1244164054025
 20
233.0138856722445
 10
676.7655344179456
 20
228.6550036847875
 10
676.7655344179456
 20
226.0138856722445
 10
679.7655344179463
 20
226.0138856722445
 10
680.7655344179461
 20
227.0138856722446
 10
682.7655344179456
 20
227.0138856722445
 10
683.7655344179454
 20
226.0138856722445
 10
686.5655344179456
 20
226.0138856722445
 10
687.2655344179454
 20
226.7138856722444
 97
        0
 75
     0
 76
     0
 52
135.0
 41
1.5
 77
     0
 78
     1
 53
135.0
 43
62.818294
 44
-14.472589
 45
-1.060660171779821
 46
-1.060660171779821
 79
     0
 47
0.151518
 98
        2
 10
663.741465
 20
229.697923
 10
682.385875
 20
230.303994
  0
LINE
  5
E4
100
AcDbEntity
  8
M05
100
AcDbLine
 10
663.765534
 20
227.013886
 30
0.0
 11
662.765534
 21
226.013886
 31
0.0
  0
LINE
  5
E5
100
AcDbEntity
  8
M05
100
AcDbLine
 10
665.765534
 20
227.013886
 30
0.0
 11
666.765534
 21
226.013886
 31
0.0
  0
LINE
  5
E6
100
AcDbEntity
  8
M05
100
AcDbLine
 10
663.765534
 20
227.013886
 30
0.0
 11
665.765534
 21
227.013886
 31
0.0
  0
LINE
  5
E7
100
AcDbEntity
  8
M05
100
AcDbLine
 10
682.765534
 20
227.013886
 30
0.0
 11
683.765534
 21
226.013886
 31
0.0
  0
LINE
  5
E8
100
AcDbEntity
  8
M05
100
AcDbLine
 10
680.765534
 20
227.013886
 30
0.0
 11
679.765534
 21
226.013886
 31
0.0
  0
LINE
  5
E9
100
AcDbEntity
  8
M05
100
AcDbLine
 10
682.765534
 20
227.013886
 30
0.0
 11
680.765534
 21
227.013886
 31
0.0
  0
LINE
  5
EA
102
{ACAD_REACTORS
330
20
102
}
100
AcDbEntity
  8
M02
100
AcDbLine
 10
655.265534
 20
280.013886
 30
0.0
 11
655.265534
 21
283.013886
 31
0.0
  0
LINE
  5
EB
102
{ACAD_REACTORS
330
20
102
}
100
AcDbEntity
  8
M02
100
AcDbLine
 10
691.265534
 20
280.013886
 30
0.0
 11
691.265534
 21
283.013886
 31
0.0
  0
LINE
  5
EC
102
{ACAD_REACTORS
330
21
102
}
100
AcDbEntity
  8
M02
100
AcDbLine
 10
191.265534
 20
280.013886
 30
0.0
 11
191.265534
 21
283.013886
 31
0.0
  0
LINE
  5
ED
102
{ACAD_REACTORS
330
21
102
}
100
AcDbEntity
  8
M02
100
AcDbLine
 10
155.265534
 20
280.013886
 30
0.0
 11
155.265534
 21
283.013886
 31
0.0
  0
POINT
  5
EE
100
AcDbEntity
  8
DEFPOINTS
  6
BYBLOCK
 62
     0
100
AcDbPoint
 10
673.265534
 20
482.559226
 30
0.0
  0
POINT
  5
EF
100
AcDbEntity
  8
DEFPOINTS
  6
BYBLOCK
 62
     0
100
AcDbPoint
 10
676.675402
 20
488.093014
 30
0.0
  0
MTEXT
  5
F0
100
AcDbEntity
  8
0
  6
BYBLOCK
 62
     2
100
AcDbMText
 10
526.92887
 20
507.810084
 30
0.0
 40
3.0
 41
0.0
 71
     4
 72
     1
  1
M12 PLATE RETAINING SCREWS SHOULD ALSO BE FITTED.\PMINIMUM 2 PER DROP & ALSO AROUND MANIFOLD POCKET.
  0
SOLID
  5
F1
100
AcDbEntity
  8
0
  6
BYBLOCK
 62
     4
100
AcDbTrace
 10
668.707558
 20
490.909367
 30
0.0
 11
667.856206
 21
490.384772
 31
0.0
 12
669.855667
 22
488.093014
 32
0.0
 13
669.855667
 23
488.093014
 33
0.0
  0
LINE
  5
F2
100
AcDbEntity
  8
0
  6
BYBLOCK
 62
     4
100
AcDbLine
 10
668.281882
 20
490.647069
 30
0.0
 11
660.744693
 21
502.580289
 31
0.0
  0
LINE
  5
F3
100
AcDbEntity
  8
M01
100
AcDbLine
 10
853.928402
 20
530.503326
 30
0.0
 11
860.428402
 21
530.503326
 31
0.0
  0
LINE
  5
F4
100
AcDbEntity
  8
M01
100
AcDbLine
 10
853.928402
 20
538.615126
 30
0.0
 11
860.428402
 21
538.615126
 31
0.0
  0
LINE
  5
F5
100
AcDbEntity
  8
M01
100
AcDbLine
 10
853.928402
 20
530.503326
 30
0.0
 11
853.928402
 21
528.559226
 31
0.0
  0
ARC
  5
F6
100
AcDbEntity
  8
M01
100
AcDbCircle
 10
852.678402
 20
532.064576
 30
0.0
 40
2.0
100
AcDbArc
 50
308.682187
 51
0.0
  0
ARC
  5
F7
100
AcDbEntity
  8
M01
100
AcDbCircle
 10
852.678402
 20
537.053876
 30
0.0
 40
2.0
100
AcDbArc
 50
0.0
 51
51.317813
  0
LINE
  5
F8
100
AcDbEntity
  8
M01
100
AcDbLine
 10
853.928402
 20
540.559226
 30
0.0
 11
853.928402
 21
538.615126
 31
0.0
  0
LINE
  5
F9
100
AcDbEntity
  8
M01
100
AcDbLine
 10
854.678402
 20
537.053876
 30
0.0
 11
854.678402
 21
532.064576
 31
0.0
  0
LINE
  5
FA
100
AcDbEntity
  8
M01
100
AcDbLine
 10
860.428402
 20
530.503326
 30
0.0
 11
860.428402
 21
528.559226
 31
0.0
  0
ARC
  5
FB
100
AcDbEntity
  8
M01
100
AcDbCircle
 10
861.678402
 20
532.064576
 30
0.0
 40
2.0
100
AcDbArc
 50
180.0
 51
231.317813
  0
ARC
  5
FC
100
AcDbEntity
  8
M01
100
AcDbCircle
 10
861.678402
 20
537.053876
 30
0.0
 40
2.0
100
AcDbArc
 50
128.682187
 51
180.0
  0
LINE
  5
FD
100
AcDbEntity
  8
M01
100
AcDbLine
 10
860.428402
 20
540.559226
 30
0.0
 11
860.428402
 21
538.615126
 31
0.0
  0
LINE
  5
FE
100
AcDbEntity
  8
M01
100
AcDbLine
 10
859.678402
 20
537.053876
 30
0.0
 11
859.678402
 21
532.064576
 31
0.0
  0
LINE
  5
FF
100
AcDbEntity
  8
M01
100
AcDbLine
 10
438.515534
 20
530.503326
 30
0.0
 11
432.015534
 21
530.503326
 31
0.0
  0
LINE
  5
100
100
AcDbEntity
  8
M01
100
AcDbLine
 10
438.515534
 20
538.615126
 30
0.0
 11
432.015534
 21
538.615126
 31
0.0
  0
LINE
  5
101
100
AcDbEntity
  8
M01
100
AcDbLine
 10
438.515534
 20
530.503326
 30
0.0
 11
438.515534
 21
528.559226
 31
0.0
  0
ARC
  5
102
100
AcDbEntity
  8
M01
100
AcDbCircle
 10
439.765534
 20
532.064576
 30
0.0
 40
2.0
100
AcDbArc
 50
180.0
 51
231.317813
  0
ARC
  5
103
100
AcDbEntity
  8
M01
100
AcDbCircle
 10
439.765534
 20
537.053876
 30
0.0
 40
2.0
100
AcDbArc
 50
128.682187
 51
180.0
  0
LINE
  5
104
100
AcDbEntity
  8
M01
100
AcDbLine
 10
438.515534
 20
540.559226
 30
0.0
 11
438.515534
 21
538.615126
 31
0.0
  0
LINE
  5
105
100
AcDbEntity
  8
M01
100
AcDbLine
 10
437.765534
 20
537.053876
 30
0.0
 11
437.765534
 21
532.064576
 31
0.0
  0
LINE
  5
106
100
AcDbEntity
  8
M01
100
AcDbLine
 10
432.015534
 20
530.503326
 30
0.0
 11
432.015534
 21
528.559226
 31
0.0
  0
ARC
  5
107
100
AcDbEntity
  8
M01
100
AcDbCircle
 10
430.765534
 20
532.064576
 30
0.0
 40
2.0
100
AcDbArc
 50
308.682187
 51
0.0
  0
ARC
  5
108
100
AcDbEntity
  8
M01
100
AcDbCircle
 10
430.765534
 20
537.053876
 30
0.0
 40
2.0
100
AcDbArc
 50
0.0
 51
51.317813
  0
LINE
  5
109
100
AcDbEntity
  8
M01
100
AcDbLine
 10
432.015534
 20
540.559226
 30
0.0
 11
432.015534
 21
538.615126
 31
0.0
  0
LINE
  5
10A
100
AcDbEntity
  8
M01
100
AcDbLine
 10
432.765534
 20
537.053876
 30
0.0
 11
432.765534
 21
532.064576
 31
0.0
  0
LINE
  5
10B
100
AcDbEntity
  8
DIMS
 62
     4
100
AcDbLine
 10
673.265534
 20
485.959226
 30
0.0
 11
673.265534
 21
490.759226
 31
0.0
  0
LINE
  5
10C
100
AcDbEntity
  8
DIMS
 62
     4
100
AcDbLine
 10
673.265534
 20
479.159226
 30
0.0
 11
673.265534
 21
474.359226
 31
0.0
  0
LINE
  5
10D
100
AcDbEntity
  8
DIMS
 62
     4
100
AcDbLine
 10
676.665534
 20
482.559226
 30
0.0
 11
681.465534
 21
482.559226
 31
0.0
  0
LINE
  5
10E
100
AcDbEntity
  8
DIMS
 62
     4
100
AcDbLine
 10
669.865534
 20
482.559226
 30
0.0
 11
665.065534
 21
482.559226
 31
0.0
  0
LINE
  5
10F
100
AcDbEntity
  8
DIMS
 62
     4
100
AcDbLine
 10
673.265534
 20
480.859226
 30
0.0
 11
673.265534
 21
484.259226
 31
0.0
  0
LINE
  5
110
100
AcDbEntity
  8
DIMS
 62
     4
100
AcDbLine
 10
671.565534
 20
482.559226
 30
0.0
 11
674.965534
 21
482.559226
 31
0.0
  0
LINE
  5
111
100
AcDbEntity
  8
DIMS
 62
     4
100
AcDbLine
 10
173.265534
 20
485.959226
 30
0.0
 11
173.265534
 21
490.759226
 31
0.0
  0
LINE
  5
112
100
AcDbEntity
  8
DIMS
 62
     4
100
AcDbLine
 10
173.265534
 20
479.159226
 30
0.0
 11
173.265534
 21
474.359226
 31
0.0
  0
LINE
  5
113
100
AcDbEntity
  8
DIMS
 62
     4
100
AcDbLine
 10
176.665534
 20
482.559226
 30
0.0
 11
181.465534
 21
482.559226
 31
0.0
  0
LINE
  5
114
100
AcDbEntity
  8
DIMS
 62
     4
100
AcDbLine
 10
169.865534
 20
482.559226
 30
0.0
 11
165.065534
 21
482.559226
 31
0.0
  0
LINE
  5
115
100
AcDbEntity
  8
DIMS
 62
     4
100
AcDbLine
 10
173.265534
 20
480.859226
 30
0.0
 11
173.265534
 21
484.259226
 31
0.0
  0
LINE
  5
116
100
AcDbEntity
  8
DIMS
 62
     4
100
AcDbLine
 10
171.565534
 20
482.559226
 30
0.0
 11
174.965534
 21
482.559226
 31
0.0
  0
LINE
  5
117
100
AcDbEntity
  8
DIMS
 62
     4
100
AcDbLine
 10
173.265534
 20
385.959226
 30
0.0
 11
173.265534
 21
390.759226
 31
0.0
  0
LINE
  5
118
100
AcDbEntity
  8
DIMS
 62
     4
100
AcDbLine
 10
173.265534
 20
379.159226
 30
0.0
 11
173.265534
 21
374.359226
 31
0.0
  0
LINE
  5
119
100
AcDbEntity
  8
DIMS
 62
     4
100
AcDbLine
 10
176.665534
 20
382.559226
 30
0.0
 11
181.465534
 21
382.559226
 31
0.0
  0
LINE
  5
11A
100
AcDbEntity
  8
DIMS
 62
     4
100
AcDbLine
 10
169.865534
 20
382.559226
 30
0.0
 11
165.065534
 21
382.559226
 31
0.0
  0
LINE
  5
11B
100
AcDbEntity
  8
DIMS
 62
     4
100
AcDbLine
 10
173.265534
 20
380.859226
 30
0.0
 11
173.265534
 21
384.259226
 31
0.0
  0
LINE
  5
11C
100
AcDbEntity
  8
DIMS
 62
     4
100
AcDbLine
 10
171.565534
 20
382.559226
 30
0.0
 11
174.965534
 21
382.559226
 31
0.0
  0
LINE
  5
11D
100
AcDbEntity
  8
DIMS
 62
     4
100
AcDbLine
 10
673.265534
 20
385.959226
 30
0.0
 11
673.265534
 21
390.759226
 31
0.0
  0
LINE
  5
11E
100
AcDbEntity
  8
DIMS
 62
     4
100
AcDbLine
 10
673.265534
 20
379.159226
 30
0.0
 11
673.265534
 21
374.359226
 31
0.0
  0
LINE
  5
11F
100
AcDbEntity
  8
DIMS
 62
     4
100
AcDbLine
 10
676.665534
 20
382.559226
 30
0.0
 11
681.465534
 21
382.559226
 31
0.0
  0
LINE
  5
120
100
AcDbEntity
  8
DIMS
 62
     4
100
AcDbLine
 10
669.865534
 20
382.559226
 30
0.0
 11
665.065534
 21
382.559226
 31
0.0
  0
LINE
  5
121
100
AcDbEntity
  8
DIMS
 62
     4
100
AcDbLine
 10
673.265534
 20
380.859226
 30
0.0
 11
673.265534
 21
384.259226
 31
0.0
  0
LINE
  5
122
100
AcDbEntity
  8
DIMS
 62
     4
100
AcDbLine
 10
671.565534
 20
382.559226
 30
0.0
 11
674.965534
 21
382.559226
 31
0.0
  0
CIRCLE
  5
123
100
AcDbEntity
  8
M04
100
AcDbCircle
 10
673.265534
 20
382.559226
 30
0.0
 40
6.5
  0
CIRCLE
  5
124
100
AcDbEntity
  8
M04
100
AcDbCircle
 10
673.265534
 20
482.559226
 30
0.0
 40
6.5
  0
CIRCLE
  5
125
100
AcDbEntity
  8
M04
100
AcDbCircle
 10
173.265534
 20
382.559226
 30
0.0
 40
6.5
  0
CIRCLE
  5
126
100
AcDbEntity
  8
M04
100
AcDbCircle
 10
173.265534
 20
482.559226
 30
0.0
 40
6.5
  0
HATCH
  5
127
100
AcDbEntity
  8
DIMS
100
AcDbHatch
 10
0.0
 20
0.0
 30
0.0
210
0.0
220
0.0
230
1.0
  2
_U
 70
     0
 71
     1
 91
        5
 92
        7
 72
     0
 73
     1
 93
        9
 10
454.7655344179457
 20
231.0138856722444
 10
454.7655344179457
 20
227.0138856722446
 10
456.5655344179457
 20
227.0138856722445
 10
457.2655344179459
 20
227.7138856722446
 10
457.2655344179459
 20
232.3138856722445
 10
456.5655344179458
 20
233.0138856722447
 10
452.9655344179457
 20
233.0138856722447
 10
452.9655344179456
 20
231.0138856722445
 10
454.5155344179459
 20
231.0138856722445
 97
        9
330
3E5
330
168
330
17C
330
16D
330
181
330
16F
330
3E8
330
3E6
330
3E9
 92
        7
 72
     1
 73
     1
 93
       16
 10
442.5655344179456
 20
222.0138856722445
 42
0.0
 10
443.2655344179457
 20
222.7138856722446
 42
0.0
 10
443.2655344179456
 20
224.0138856722446
 42
0.0
 10
442.7655344179457
 20
224.0138856722445
 42
0.0
 10
442.7655344179457
 20
227.0138856722446
 42
0.0
 10
443.7655344179457
 20
227.0138856722446
 42
0.0
 10
443.7655344179457
 20
231.0138856722445
 42
0.0
 10
444.0155344179458
 20
231.0138856722445
 42
0.0
 10
445.5655344179456
 20
231.0138856722445
 42
0.0
 10
445.5655344179457
 20
233.0138856722447
 42
0.0
 10
433.2655344179455
 20
233.0138856722447
 42
0.0
 10
433.2655344179455
 20
242.0138856722444
 42
0.0
 10
432.2655344179454
 20
243.0138856722444
 42
0.0
 10
427.2655344179456
 20
243.0138856722445
 42
0.0
 10
426.3064084158416
 20
224.7126713253456
 42
-0.1092323044357261
 10
432.4306858078571
 20
222.0138856722444
 42
0.0
 97
       16
330
3E8
330
170
330
16E
330
16D
330
17B
330
3C6
330
3F2
330
3EE
330
3F0
330
3CF
330
3D0
330
3DE
330
3DD
330
3E0
330
3DB
330
3DA
 92
        7
 72
     1
 73
     1
 93
       16
 10
420.2246604200495
 20
224.7126713253456
 42
0.0
 10
419.2655344179456
 20
243.0138856722445
 42
0.0
 10
414.2655344179456
 20
243.0138856722445
 42
0.0
 10
413.2655344179457
 20
242.0138856722445
 42
0.0
 10
413.2655344179457
 20
233.0138856722447
 42
0.0
 10
400.9655344179456
 20
233.0138856722447
 42
0.0
 10
400.9655344179456
 20
231.0138856722445
 42
0.0
 10
402.5155344179455
 20
231.0138856722445
 42
0.0
 10
402.7655344179455
 20
231.0138856722445
 42
0.0
 10
402.7655344179455
 20
227.0138856722446
 42
0.0
 10
403.7655344179457
 20
227.0138856722446
 42
0.0
 10
403.7655344179456
 20
224.0138856722443
 42
0.0
 10
403.2655344179458
 20
224.0138856722443
 42
0.0
 10
403.2655344179456
 20
222.7138856722441
 42
0.0
 10
403.9655344179457
 20
222.0138856722441
 42
0.0
 10
414.1003830280339
 20
222.0138856722442
 42
-0.1092323044357285
 97
       16
330
3F0
330
3EF
330
3F1
330
402
330
15E
330
150
330
151
330
153
330
3D8
330
3D9
330
3D7
330
3DF
330
3DC
330
3DE
330
3CC
330
3CE
 92
        7
 72
     0
 73
     1
 93
        9
 10
391.7655344179456
 20
231.0138856722444
 10
392.0155344179454
 20
231.0138856722444
 10
393.5655344179456
 20
231.0138856722444
 10
393.5655344179456
 20
233.0138856722447
 10
389.9655344179455
 20
233.0138856722447
 10
389.2655344179454
 20
232.3138856722446
 10
389.2655344179454
 20
227.7138856722446
 10
389.9655344179454
 20
227.0138856722446
 10
391.7655344179456
 20
227.0138856722446
 97
        9
330
402
330
3E3
330
3E4
330
3C4
330
3D8
330
152
330
164
330
150
330
15F
 92
       24
 93
        4
 72
     1
 10
427.839615
 20
228.081373
 11
442.211044
 21
228.081373
 72
     1
 10
442.211044
 20
228.081373
 11
442.211044
 21
231.081373
 72
     1
 10
442.211044
 20
231.081373
 11
427.839615
 21
231.081373
 72
     1
 10
427.839615
 20
231.081373
 11
427.839615
 21
228.081373
 97
        1
330
3BF
 75
     0
 76
     0
 52
135.0
 41
2.5
 77
     0
 78
     1
 53
135.0
 43
-132.181706
 44
-14.472589
 45
-1.767766952966368
 46
-1.767766952966368
 79
     0
 47
0.085632
 98
        4
 10
455.762497
 20
231.37187
 10
438.115052
 20
225.377641
 10
415.327573
 20
226.576487
 10
391.083754
 20
231.37187
  0
LINE
  5
128
100
AcDbEntity
  8
DIMS
 62
     4
100
AcDbLine
 10
146.865534
 20
237.013886
 30
0.0
 11
144.565534
 21
237.013886
 31
0.0
  0
LINE
  5
129
100
AcDbEntity
  8
DIMS
 62
     4
100
AcDbLine
 10
153.665534
 20
237.013886
 30
0.0
 11
155.965534
 21
237.013886
 31
0.0
  0
LINE
  5
12A
100
AcDbEntity
  8
DIMS
 62
     4
100
AcDbLine
 10
150.265534
 20
240.413886
 30
0.0
 11
150.265534
 21
242.713886
 31
0.0
  0
LINE
  5
12B
100
AcDbEntity
  8
DIMS
 62
     4
100
AcDbLine
 10
150.265534
 20
233.613886
 30
0.0
 11
150.265534
 21
231.313886
 31
0.0
  0
LINE
  5
12C
100
AcDbEntity
  8
DIMS
 62
     4
100
AcDbLine
 10
151.965534
 20
237.013886
 30
0.0
 11
148.565534
 21
237.013886
 31
0.0
  0
LINE
  5
12D
100
AcDbEntity
  8
DIMS
 62
     4
100
AcDbLine
 10
150.265534
 20
235.313886
 30
0.0
 11
150.265534
 21
238.713886
 31
0.0
  0
LINE
  5
12E
102
{ACAD_REACTORS
330
22
102
}
100
AcDbEntity
  8
M01
100
AcDbLine
 10
154.265534
 20
237.013886
 30
0.0
 11
154.265534
 21
233.013886
 31
0.0
  0
LINE
  5
12F
102
{ACAD_REACTORS
330
22
102
}
100
AcDbEntity
  8
M01
100
AcDbLine
 10
146.265534
 20
237.013886
 30
0.0
 11
146.265534
 21
233.013886
 31
0.0
  0
CIRCLE
  5
130
102
{ACAD_REACTORS
330
BA
330
22
102
}
100
AcDbEntity
  8
M01
100
AcDbCircle
 10
150.265534
 20
237.013886
 30
0.0
 40
4.0
  0
LINE
  5
131
100
AcDbEntity
  8
DIMS
 62
     4
100
AcDbLine
 10
146.865534
 20
276.013886
 30
0.0
 11
144.565534
 21
276.013886
 31
0.0
  0
LINE
  5
132
100
AcDbEntity
  8
DIMS
 62
     4
100
AcDbLine
 10
153.665534
 20
276.013886
 30
0.0
 11
155.965534
 21
276.013886
 31
0.0
  0
LINE
  5
133
100
AcDbEntity
  8
DIMS
 62
     4
100
AcDbLine
 10
150.265534
 20
272.613886
 30
0.0
 11
150.265534
 21
270.313886
 31
0.0
  0
LINE
  5
134
100
AcDbEntity
  8
DIMS
 62
     4
100
AcDbLine
 10
150.265534
 20
279.413886
 30
0.0
 11
150.265534
 21
281.713886
 31
0.0
  0
LINE
  5
135
100
AcDbEntity
  8
DIMS
 62
     4
100
AcDbLine
 10
151.965534
 20
276.013886
 30
0.0
 11
148.565534
 21
276.013886
 31
0.0
  0
LINE
  5
136
100
AcDbEntity
  8
DIMS
 62
     4
100
AcDbLine
 10
150.265534
 20
277.713886
 30
0.0
 11
150.265534
 21
274.313886
 31
0.0
  0
LINE
  5
137
102
{ACAD_REACTORS
330
22
102
}
100
AcDbEntity
  8
M01
100
AcDbLine
 10
154.265534
 20
276.013886
 30
0.0
 11
154.265534
 21
280.013886
 31
0.0
  0
LINE
  5
138
102
{ACAD_REACTORS
330
22
102
}
100
AcDbEntity
  8
M01
100
AcDbLine
 10
146.265534
 20
276.013886
 30
0.0
 11
146.265534
 21
280.013886
 31
0.0
  0
CIRCLE
  5
139
102
{ACAD_REACTORS
330
BA
330
22
102
}
100
AcDbEntity
  8
M01
100
AcDbCircle
 10
150.265534
 20
276.013886
 30
0.0
 40
4.0
  0
LINE
  5
13A
100
AcDbEntity
  8
DIMS
 62
     4
100
AcDbLine
 10
699.665534
 20
237.013886
 30
0.0
 11
701.965534
 21
237.013886
 31
0.0
  0
LINE
  5
13B
100
AcDbEntity
  8
DIMS
 62
     4
100
AcDbLine
 10
692.865534
 20
237.013886
 30
0.0
 11
690.565534
 21
237.013886
 31
0.0
  0
LINE
  5
13C
100
AcDbEntity
  8
DIMS
 62
     4
100
AcDbLine
 10
696.265534
 20
240.413886
 30
0.0
 11
696.265534
 21
242.713886
 31
0.0
  0
LINE
  5
13D
100
AcDbEntity
  8
DIMS
 62
     4
100
AcDbLine
 10
696.265534
 20
233.613886
 30
0.0
 11
696.265534
 21
231.313886
 31
0.0
  0
LINE
  5
13E
100
AcDbEntity
  8
DIMS
 62
     4
100
AcDbLine
 10
694.565534
 20
237.013886
 30
0.0
 11
697.965534
 21
237.013886
 31
0.0
  0
LINE
  5
13F
100
AcDbEntity
  8
DIMS
 62
     4
100
AcDbLine
 10
696.265534
 20
235.313886
 30
0.0
 11
696.265534
 21
238.713886
 31
0.0
  0
LINE
  5
140
102
{ACAD_REACTORS
330
22
102
}
100
AcDbEntity
  8
M01
100
AcDbLine
 10
692.265534
 20
237.013886
 30
0.0
 11
692.265534
 21
233.013886
 31
0.0
  0
LINE
  5
141
102
{ACAD_REACTORS
330
22
102
}
100
AcDbEntity
  8
M01
100
AcDbLine
 10
700.265534
 20
237.013886
 30
0.0
 11
700.265534
 21
233.013886
 31
0.0
  0
CIRCLE
  5
142
102
{ACAD_REACTORS
330
22
102
}
100
AcDbEntity
  8
M01
100
AcDbCircle
 10
696.265534
 20
237.013886
 30
0.0
 40
4.0
  0
LINE
  5
143
100
AcDbEntity
  8
DIMS
 62
     4
100
AcDbLine
 10
699.665534
 20
276.013886
 30
0.0
 11
701.965534
 21
276.013886
 31
0.0
  0
LINE
  5
144
100
AcDbEntity
  8
DIMS
 62
     4
100
AcDbLine
 10
692.865534
 20
276.013886
 30
0.0
 11
690.565534
 21
276.013886
 31
0.0
  0
LINE
  5
145
100
AcDbEntity
  8
DIMS
 62
     4
100
AcDbLine
 10
696.265534
 20
272.613886
 30
0.0
 11
696.265534
 21
270.313886
 31
0.0
  0
LINE
  5
146
100
AcDbEntity
  8
DIMS
 62
     4
100
AcDbLine
 10
696.265534
 20
279.413886
 30
0.0
 11
696.265534
 21
281.713886
 31
0.0
  0
LINE
  5
147
100
AcDbEntity
  8
DIMS
 62
     4
100
AcDbLine
 10
694.565534
 20
276.013886
 30
0.0
 11
697.965534
 21
276.013886
 31
0.0
  0
LINE
  5
148
100
AcDbEntity
  8
DIMS
 62
     4
100
AcDbLine
 10
696.265534
 20
277.713886
 30
0.0
 11
696.265534
 21
274.313886
 31
0.0
  0
LINE
  5
149
102
{ACAD_REACTORS
330
22
102
}
100
AcDbEntity
  8
M01
100
AcDbLine
 10
692.265534
 20
276.013886
 30
0.0
 11
692.265534
 21
280.013886
 31
0.0
  0
LINE
  5
14A
102
{ACAD_REACTORS
330
22
102
}
100
AcDbEntity
  8
M01
100
AcDbLine
 10
700.265534
 20
276.013886
 30
0.0
 11
700.265534
 21
280.013886
 31
0.0
  0
CIRCLE
  5
14B
102
{ACAD_REACTORS
330
22
102
}
100
AcDbEntity
  8
M01
100
AcDbCircle
 10
696.265534
 20
276.013886
 30
0.0
 40
4.0
  0
LINE
  5
14C
102
{ACAD_REACTORS
330
22
102
}
100
AcDbEntity
  8
M04
100
AcDbLine
 10
400.265534
 20
240.313886
 30
0.0
 11
400.265534
 21
242.813886
 31
0.0
  0
LINE
  5
14D
102
{ACAD_REACTORS
330
22
102
}
100
AcDbEntity
  8
M04
100
AcDbLine
 10
399.565534
 20
241.013886
 30
0.0
 11
399.565534
 21
244.313886
 31
0.0
  0
LINE
  5
14E
102
{ACAD_REACTORS
330
22
102
}
100
AcDbEntity
  8
M04
100
AcDbLine
 10
394.265534
 20
240.313886
 30
0.0
 11
394.265534
 21
242.813886
 31
0.0
  0
LINE
  5
14F
102
{ACAD_REACTORS
330
22
102
}
100
AcDbEntity
  8
M04
100
AcDbLine
 10
394.965534
 20
241.013886
 30
0.0
 11
394.965534
 21
244.313886
 31
0.0
  0
LINE
  5
150
102
{ACAD_REACTORS
330
127
102
}
100
AcDbEntity
  8
M05
100
AcDbLine
 10
392.015534
 20
231.013886
 30
0.0
 11
402.515534
 21
231.013886
 31
0.0
  0
LINE
  5
151
102
{ACAD_REACTORS
330
127
102
}
100
AcDbEntity
  8
M04
100
AcDbLine
 10
402.515534
 20
231.013886
 30
0.0
 11
402.765534
 21
231.013886
 31
0.0
  0
LINE
  5
152
102
{ACAD_REACTORS
330
127
102
}
100
AcDbEntity
  8
M04
100
AcDbLine
 10
391.765534
 20
231.013886
 30
0.0
 11
391.765534
 21
227.013886
 31
0.0
  0
LINE
  5
153
102
{ACAD_REACTORS
330
127
102
}
100
AcDbEntity
  8
M04
100
AcDbLine
 10
402.765534
 20
231.013886
 30
0.0
 11
402.765534
 21
227.013886
 31
0.0
  0
LINE
  5
154
100
AcDbEntity
  8
M05
100
AcDbLine
 10
400.265534
 20
232.013886
 30
0.0
 11
394.265534
 21
232.013886
 31
0.0
  0
LINE
  5
155
102
{ACAD_REACTORS
330
22
102
}
100
AcDbEntity
  8
M04
100
AcDbLine
 10
394.965534
 20
244.313886
 30
0.0
 11
397.265534
 21
245.641791
 31
0.0
  0
LINE
  5
156
102
{ACAD_REACTORS
330
22
102
}
100
AcDbEntity
  8
M04
100
AcDbLine
 10
399.565534
 20
244.313886
 30
0.0
 11
397.265534
 21
245.641791
 31
0.0
  0
LINE
  5
157
100
AcDbEntity
  8
M04
100
AcDbLine
 10
399.565534
 20
244.313886
 30
0.0
 11
394.965534
 21
244.313886
 31
0.0
  0
LINE
  5
158
102
{ACAD_REACTORS
330
22
102
}
100
AcDbEntity
  8
M04
100
AcDbLine
 10
400.265534
 20
242.813886
 30
0.0
 11
394.265534
 21
242.813886
 31
0.0
  0
ARC
  5
159
100
AcDbEntity
  8
M05
100
AcDbCircle
 10
397.265534
 20
233.540022
 30
0.0
 40
5.826136
100
AcDbArc
 50
205.69541
 51
334.30459
  0
LINE
  5
15A
100
AcDbEntity
  8
M05
100
AcDbLine
 10
394.265534
 20
240.313886
 30
0.0
 11
394.965534
 21
241.013886
 31
0.0
  0
LINE
  5
15B
100
AcDbEntity
  8
M05
100
AcDbLine
 10
400.265534
 20
240.313886
 30
0.0
 11
399.565534
 21
241.013886
 31
0.0
  0
LINE
  5
15C
100
AcDbEntity
  8
M05
100
AcDbLine
 10
400.265534
 20
240.313886
 30
0.0
 11
394.265534
 21
240.313886
 31
0.0
  0
LINE
  5
15D
100
AcDbEntity
  8
M05
100
AcDbLine
 10
399.565534
 20
241.013886
 30
0.0
 11
394.965534
 21
241.013886
 31
0.0
  0
LINE
  5
15E
102
{ACAD_REACTORS
330
127
102
}
100
AcDbEntity
  8
M04
100
AcDbLine
 10
400.965534
 20
233.013886
 30
0.0
 11
400.965534
 21
231.013886
 31
0.0
  0
LINE
  5
15F
102
{ACAD_REACTORS
330
127
102
}
100
AcDbEntity
  8
M04
100
AcDbLine
 10
393.565534
 20
233.013886
 30
0.0
 11
393.565534
 21
231.013886
 31
0.0
  0
LINE
  5
160
100
AcDbEntity
  8
M05
100
AcDbLine
 10
394.965534
 20
241.013886
 30
0.0
 11
394.965534
 21
232.013886
 31
0.0
  0
LINE
  5
161
100
AcDbEntity
  8
M05
100
AcDbLine
 10
399.565534
 20
241.013886
 30
0.0
 11
399.565534
 21
232.013886
 31
0.0
  0
LINE
  5
162
102
{ACAD_REACTORS
330
22
102
}
100
AcDbEntity
  8
M05
100
AcDbLine
 10
400.265534
 20
240.313886
 30
0.0
 11
400.265534
 21
231.013886
 31
0.0
  0
LINE
  5
163
102
{ACAD_REACTORS
330
22
102
}
100
AcDbEntity
  8
M05
100
AcDbLine
 10
394.265534
 20
240.313886
 30
0.0
 11
394.265534
 21
231.013886
 31
0.0
  0
LINE
  5
164
102
{ACAD_REACTORS
330
127
102
}
100
AcDbEntity
  8
M04
100
AcDbLine
 10
391.765534
 20
231.013886
 30
0.0
 11
392.015534
 21
231.013886
 31
0.0
  0
LINE
  5
165
100
AcDbEntity
  8
CENTRE
100
AcDbLine
 10
397.265534
 20
248.280386
 30
0.0
 11
397.265534
 21
223.367697
 31
0.0
  0
LINE
  5
168
102
{ACAD_REACTORS
330
127
330
22
330
20
102
}
100
AcDbEntity
  8
M01
100
AcDbLine
 10
452.265534
 20
233.013886
 30
0.0
 11
703.265534
 21
233.013886
 31
0.0
  0
LINE
  5
169
102
{ACAD_REACTORS
330
22
102
}
100
AcDbEntity
  8
M04
100
AcDbLine
 10
446.265534
 20
240.313886
 30
0.0
 11
446.265534
 21
242.813886
 31
0.0
  0
LINE
  5
16A
102
{ACAD_REACTORS
330
22
102
}
100
AcDbEntity
  8
M04
100
AcDbLine
 10
446.965534
 20
241.013886
 30
0.0
 11
446.965534
 21
244.313886
 31
0.0
  0
LINE
  5
16B
102
{ACAD_REACTORS
330
22
102
}
100
AcDbEntity
  8
M04
100
AcDbLine
 10
452.265534
 20
240.313886
 30
0.0
 11
452.265534
 21
242.813886
 31
0.0
  0
LINE
  5
16C
102
{ACAD_REACTORS
330
22
102
}
100
AcDbEntity
  8
M04
100
AcDbLine
 10
451.565534
 20
241.013886
 30
0.0
 11
451.565534
 21
244.313886
 31
0.0
  0
LINE
  5
16D
102
{ACAD_REACTORS
330
127
102
}
100
AcDbEntity
  8
M05
100
AcDbLine
 10
454.515534
 20
231.013886
 30
0.0
 11
444.015534
 21
231.013886
 31
0.0
  0
LINE
  5
16E
102
{ACAD_REACTORS
330
127
102
}
100
AcDbEntity
  8
M04
100
AcDbLine
 10
444.015534
 20
231.013886
 30
0.0
 11
443.765534
 21
231.013886
 31
0.0
  0
LINE
  5
16F
102
{ACAD_REACTORS
330
127
102
}
100
AcDbEntity
  8
M04
100
AcDbLine
 10
454.765534
 20
231.013886
 30
0.0
 11
454.765534
 21
227.013886
 31
0.0
  0
LINE
  5
170
102
{ACAD_REACTORS
330
127
102
}
100
AcDbEntity
  8
M04
100
AcDbLine
 10
443.765534
 20
231.013886
 30
0.0
 11
443.765534
 21
227.013886
 31
0.0
  0
LINE
  5
171
100
AcDbEntity
  8
M05
100
AcDbLine
 10
446.265534
 20
232.013886
 30
0.0
 11
452.265534
 21
232.013886
 31
0.0
  0
LINE
  5
172
102
{ACAD_REACTORS
330
22
102
}
100
AcDbEntity
  8
M04
100
AcDbLine
 10
451.565534
 20
244.313886
 30
0.0
 11
449.265534
 21
245.641791
 31
0.0
  0
LINE
  5
173
102
{ACAD_REACTORS
330
22
102
}
100
AcDbEntity
  8
M04
100
AcDbLine
 10
446.965534
 20
244.313886
 30
0.0
 11
449.265534
 21
245.641791
 31
0.0
  0
LINE
  5
174
100
AcDbEntity
  8
M04
100
AcDbLine
 10
446.965534
 20
244.313886
 30
0.0
 11
451.565534
 21
244.313886
 31
0.0
  0
LINE
  5
175
102
{ACAD_REACTORS
330
22
102
}
100
AcDbEntity
  8
M04
100
AcDbLine
 10
446.265534
 20
242.813886
 30
0.0
 11
452.265534
 21
242.813886
 31
0.0
  0
ARC
  5
176
100
AcDbEntity
  8
M05
100
AcDbCircle
 10
449.265534
 20
233.540022
 30
0.0
 40
5.826136
100
AcDbArc
 50
205.69541
 51
334.30459
  0
LINE
  5
177
100
AcDbEntity
  8
M05
100
AcDbLine
 10
452.265534
 20
240.313886
 30
0.0
 11
451.565534
 21
241.013886
 31
0.0
  0
LINE
  5
178
100
AcDbEntity
  8
M05
100
AcDbLine
 10
446.265534
 20
240.313886
 30
0.0
 11
446.965534
 21
241.013886
 31
0.0
  0
LINE
  5
179
100
AcDbEntity
  8
M05
100
AcDbLine
 10
446.265534
 20
240.313886
 30
0.0
 11
452.265534
 21
240.313886
 31
0.0
  0
LINE
  5
17A
100
AcDbEntity
  8
M05
100
AcDbLine
 10
446.965534
 20
241.013886
 30
0.0
 11
451.565534
 21
241.013886
 31
0.0
  0
LINE
  5
17B
102
{ACAD_REACTORS
330
127
102
}
100
AcDbEntity
  8
M04
100
AcDbLine
 10
445.565534
 20
233.013886
 30
0.0
 11
445.565534
 21
231.013886
 31
0.0
  0
LINE
  5
17C
102
{ACAD_REACTORS
330
127
102
}
100
AcDbEntity
  8
M04
100
AcDbLine
 10
452.965534
 20
233.013886
 30
0.0
 11
452.965534
 21
231.013886
 31
0.0
  0
LINE
  5
17D
100
AcDbEntity
  8
M05
100
AcDbLine
 10
451.565534
 20
241.013886
 30
0.0
 11
451.565534
 21
232.013886
 31
0.0
  0
LINE
  5
17E
100
AcDbEntity
  8
M05
100
AcDbLine
 10
446.965534
 20
241.013886
 30
0.0
 11
446.965534
 21
232.013886
 31
0.0
  0
LINE
  5
17F
102
{ACAD_REACTORS
330
22
102
}
100
AcDbEntity
  8
M05
100
AcDbLine
 10
446.265534
 20
240.313886
 30
0.0
 11
446.265534
 21
231.013886
 31
0.0
  0
LINE
  5
180
102
{ACAD_REACTORS
330
22
102
}
100
AcDbEntity
  8
M05
100
AcDbLine
 10
452.265534
 20
240.313886
 30
0.0
 11
452.265534
 21
231.013886
 31
0.0
  0
LINE
  5
181
102
{ACAD_REACTORS
330
127
102
}
100
AcDbEntity
  8
M04
100
AcDbLine
 10
454.765534
 20
231.013886
 30
0.0
 11
454.515534
 21
231.013886
 31
0.0
  0
LINE
  5
182
100
AcDbEntity
  8
CENTRE
100
AcDbLine
 10
449.265534
 20
248.280386
 30
0.0
 11
449.265534
 21
223.367697
 31
0.0
  0
LINE
  5
183
100
AcDbEntity
  8
DIMS
 62
     4
100
AcDbLine
 10
839.678402
 20
435.959226
 30
0.0
 11
839.678402
 21
438.259226
 31
0.0
  0
LINE
  5
184
100
AcDbEntity
  8
DIMS
 62
     4
100
AcDbLine
 10
839.678402
 20
429.159226
 30
0.0
 11
839.678402
 21
426.859226
 31
0.0
  0
LINE
  5
185
100
AcDbEntity
  8
DIMS
 62
     4
100
AcDbLine
 10
839.678402
 20
430.859226
 30
0.0
 11
839.678402
 21
434.259226
 31
0.0
  0
LINE
  5
186
100
AcDbEntity
  8
DIMS
 62
     4
100
AcDbLine
 10
859.178402
 20
412.959226
 30
0.0
 11
859.178402
 21
415.259226
 31
0.0
  0
LINE
  5
187
100
AcDbEntity
  8
DIMS
 62
     4
100
AcDbLine
 10
859.178402
 20
406.159226
 30
0.0
 11
859.178402
 21
403.859226
 31
0.0
  0
LINE
  5
188
100
AcDbEntity
  8
DIMS
 62
     4
100
AcDbLine
 10
862.578402
 20
409.559226
 30
0.0
 11
864.878402
 21
409.559226
 31
0.0
  0
LINE
  5
189
100
AcDbEntity
  8
DIMS
 62
     4
100
AcDbLine
 10
855.778402
 20
409.559226
 30
0.0
 11
853.478402
 21
409.559226
 31
0.0
  0
LINE
  5
18A
100
AcDbEntity
  8
DIMS
 62
     4
100
AcDbLine
 10
859.178402
 20
407.859226
 30
0.0
 11
859.178402
 21
411.259226
 31
0.0
  0
LINE
  5
18B
100
AcDbEntity
  8
DIMS
 62
     4
100
AcDbLine
 10
857.478402
 20
409.559226
 30
0.0
 11
860.878402
 21
409.559226
 31
0.0
  0
LINE
  5
18C
100
AcDbEntity
  8
DIMS
 62
     4
100
AcDbLine
 10
820.178402
 20
412.959226
 30
0.0
 11
820.178402
 21
415.259226
 31
0.0
  0
LINE
  5
18D
100
AcDbEntity
  8
DIMS
 62
     4
100
AcDbLine
 10
820.178402
 20
406.159226
 30
0.0
 11
820.178402
 21
403.859226
 31
0.0
  0
LINE
  5
18E
100
AcDbEntity
  8
DIMS
 62
     4
100
AcDbLine
 10
823.578402
 20
409.559226
 30
0.0
 11
825.878402
 21
409.559226
 31
0.0
  0
LINE
  5
18F
100
AcDbEntity
  8
DIMS
 62
     4
100
AcDbLine
 10
816.778402
 20
409.559226
 30
0.0
 11
814.478402
 21
409.559226
 31
0.0
  0
LINE
  5
190
100
AcDbEntity
  8
DIMS
 62
     4
100
AcDbLine
 10
820.178402
 20
407.859226
 30
0.0
 11
820.178402
 21
411.259226
 31
0.0
  0
LINE
  5
191
100
AcDbEntity
  8
DIMS
 62
     4
100
AcDbLine
 10
818.478402
 20
409.559226
 30
0.0
 11
821.878402
 21
409.559226
 31
0.0
  0
HATCH
  5
192
100
AcDbEntity
  8
HATCH
100
AcDbHatch
 10
0.0
 20
0.0
 30
0.0
210
0.0
220
0.0
230
1.0
  2
_U
 70
     0
 71
     0
 91
        3
 92
        7
 72
     1
 73
     1
 93
       29
 10
863.178401911802
 20
506.559226081063
 42
0.0
 10
861.1784019118019
 20
508.5592260810631
 42
0.0
 10
822.178401911802
 20
508.5592260810631
 42
0.0
 10
822.178401911802
 20
496.559226081063
 42
0.0
 10
816.1784019118021
 20
496.559226081063
 42
0.0
 10
816.1784019118021
 20
442.059226081063
 42
0.0
 10
820.1784019118019
 20
442.059226081063
 42
0.0
 10
821.178401911802
 20
442.059226081063
 42
0.0
 10
821.178401911802
 20
441.059226081063
 42
0.0
 10
821.1784019118022
 20
432.5592260810631
 42
0.0
 10
835.678401911802
 20
432.5592260810631
 42
-0.4142135623730951
 10
839.6784019118019
 20
436.5592260810631
 42
0.0
 10
853.1784019118019
 20
436.559226081063
 42
0.0
 10
853.1784019118019
 20
441.559226081063
 42
0.0
 10
853.1784019118019
 20
442.5592260810629
 42
0.0
 10
854.178401911802
 20
442.5592260810629
 42
0.0
 10
862.6784019118019
 20
442.5592260810629
 42
0.0
 10
863.178401911802
 20
443.059226081063
 42
0.0
 10
863.178401911802
 20
455.5592260810632
 42
0.0
 10
855.8784019118018
 20
455.5592260810632
 42
0.0
 10
853.3784019118019
 20
455.5592260810631
 42
0.0
 10
853.3784019118019
 20
456.2592260810633
 42
0.0
 10
851.8784019118021
 20
456.2592260810632
 42
0.0
 10
850.5504962926659
 20
458.559226081063
 42
0.0
 10
851.8784019118017
 20
460.8592260810632
 42
0.0
 10
853.3784019118019
 20
460.8592260810633
 42
0.0
 10
853.3784019118019
 20
461.5592260810633
 42
0.0
 10
855.8784019118018
 20
461.5592260810632
 42
0.0
 10
863.178401911802
 20
461.5592260810632
 42
0.0
 97
        0
 92
        7
 72
     1
 73
     1
 93
       27
 10
863.178401911802
 20
405.5592260810631
 42
0.0
 10
859.1784019118019
 20
405.5592260810631
 42
-0.4142135623730951
 10
855.178401911802
 20
409.5592260810631
 42
-0.4142135623730951
 10
859.1784019118019
 20
413.559226081063
 42
0.0
 10
863.178401911802
 20
413.559226081063
 42
0.0
 10
863.178401911802
 20
422.0592260810632
 42
0.0
 10
862.6784019118021
 20
422.5592260810631
 42
0.0
 10
854.178401911802
 20
422.5592260810631
 42
0.0
 10
853.1784019118019
 20
422.5592260810633
 42
0.0
 10
853.1784019118019
 20
423.5592260810632
 42
0.0
 10
853.1784019118019
 20
428.5592260810631
 42
0.0
 10
839.6784019118019
 20
428.5592260810631
 42
-0.4142135623730951
 10
835.678401911802
 20
432.5592260810631
 42
0.0
 10
821.178401911802
 20
432.5592260810632
 42
0.0
 10
821.178401911802
 20
424.0592260810632
 42
0.0
 10
821.178401911802
 20
423.0592260810631
 42
0.0
 10
820.1784019118019
 20
423.0592260810631
 42
0.0
 10
816.1784019118021
 20
423.0592260810631
 42
0.0
 10
816.1784019118021
 20
413.5592260810632
 42
0.0
 10
820.1784019118019
 20
413.559226081063
 42
-0.4142135623730868
 10
824.178401911802
 20
409.5592260810631
 42
-0.4142135623730951
 10
820.1784019118019
 20
405.5592260810631
 42
0.0
 10
816.1784019118019
 20
405.5592260810631
 42
0.0
 10
816.1784019118019
 20
402.5592260810633
 42
0.0
 10
818.1784019118019
 20
400.5592260810631
 42
0.0
 10
861.1784019118019
 20
400.559226081063
 42
0.0
 10
863.178401911802
 20
402.5592260810632
 42
0.0
 97
        0
 92
       24
 93
        4
 72
     1
 10
831.256896
 20
415.402793
 11
845.371181
 21
415.402793
 72
     1
 10
845.371181
 20
415.402793
 11
845.371181
 21
418.402793
 72
     1
 10
845.371181
 20
418.402793
 11
831.256896
 21
418.402793
 72
     1
 10
831.256896
 20
418.402793
 11
831.256896
 21
415.402793
 97
        0
 75
     0
 76
     0
 52
45.0
 41
6.0
 77
     0
 78
     1
 53
45.0
 43
41.588294
 44
0.0
 45
-4.242640687119284
 46
4.242640687119285
 79
     0
 47
0.350126
 98
        2
 10
844.395929
 20
475.451457
 10
838.791594
 20
405.426186
  0
HATCH
  5
193
100
AcDbEntity
  8
HATCH
100
AcDbHatch
 10
0.0
 20
0.0
 30
0.0
210
0.0
220
0.0
230
1.0
  2
_U
 70
     0
 71
     1
 91
        2
 92
        7
 72
     1
 73
     1
 93
        2
 10
824.178401911802
 20
409.5592260810631
 42
1.0
 10
816.1784019118019
 20
409.5592260810631
 42
1.0
 97
        1
330
199
 92
        7
 72
     1
 73
     1
 93
        2
 10
855.178401911802
 20
409.5592260810631
 42
1.0
 10
863.178401911802
 20
409.5592260810631
 42
1.0
 97
        1
330
198
 75
     0
 76
     0
 52
45.0
 41
0.8
 77
     0
 78
     1
 53
45.0
 43
41.588294
 44
0.0
 45
-0.565685424949238
 46
0.565685424949238
 79
     0
 47
0.095608
 98
        2
 10
820.31175
 20
409.258585
 10
859.335941
 20
410.405882
  0
LINE
  5
194
100
AcDbEntity
  8
M01
100
AcDbLine
 10
859.178402
 20
405.559226
 30
0.0
 11
863.178402
 21
405.559226
 31
0.0
  0
LINE
  5
195
100
AcDbEntity
  8
M01
100
AcDbLine
 10
859.178402
 20
413.559226
 30
0.0
 11
863.178402
 21
413.559226
 31
0.0
  0
LINE
  5
196
100
AcDbEntity
  8
M01
100
AcDbLine
 10
820.178402
 20
405.559226
 30
0.0
 11
816.178402
 21
405.559226
 31
0.0
  0
LINE
  5
197
100
AcDbEntity
  8
M01
100
AcDbLine
 10
820.178402
 20
413.559226
 30
0.0
 11
816.178402
 21
413.559226
 31
0.0
  0
CIRCLE
  5
198
102
{ACAD_REACTORS
330
193
102
}
100
AcDbEntity
  8
M01
100
AcDbCircle
 10
859.178402
 20
409.559226
 30
0.0
 40
4.0
  0
CIRCLE
  5
199
102
{ACAD_REACTORS
330
193
102
}
100
AcDbEntity
  8
M01
100
AcDbCircle
 10
820.178402
 20
409.559226
 30
0.0
 40
4.0
  0
LINE
  5
19A
100
AcDbEntity
  8
DIMS
 62
     4
100
AcDbLine
 10
397.265534
 20
435.959226
 30
0.0
 11
397.265534
 21
439.759226
 31
0.0
  0
LINE
  5
19B
100
AcDbEntity
  8
DIMS
 62
     4
100
AcDbLine
 10
397.265534
 20
429.159226
 30
0.0
 11
397.265534
 21
425.359226
 31
0.0
  0
LINE
  5
19C
100
AcDbEntity
  8
DIMS
 62
     4
100
AcDbLine
 10
397.265534
 20
430.859226
 30
0.0
 11
397.265534
 21
434.259226
 31
0.0
  0
LINE
  5
19D
100
AcDbEntity
  8
DIMS
 62
     4
100
AcDbLine
 10
449.265534
 20
435.959226
 30
0.0
 11
449.265534
 21
439.759226
 31
0.0
  0
LINE
  5
19E
100
AcDbEntity
  8
DIMS
 62
     4
100
AcDbLine
 10
449.265534
 20
429.159226
 30
0.0
 11
449.265534
 21
425.359226
 31
0.0
  0
LINE
  5
19F
100
AcDbEntity
  8
DIMS
 62
     4
100
AcDbLine
 10
449.265534
 20
430.859226
 30
0.0
 11
449.265534
 21
434.259226
 31
0.0
  0
LINE
  5
1A0
100
AcDbEntity
  8
DIMS
 62
     4
100
AcDbLine
 10
426.665534
 20
458.559226
 30
0.0
 11
430.465534
 21
458.559226
 31
0.0
  0
LINE
  5
1A1
100
AcDbEntity
  8
DIMS
 62
     4
100
AcDbLine
 10
419.865534
 20
458.559226
 30
0.0
 11
416.065534
 21
458.559226
 31
0.0
  0
LINE
  5
1A2
100
AcDbEntity
  8
DIMS
 62
     4
100
AcDbLine
 10
421.565534
 20
458.559226
 30
0.0
 11
424.965534
 21
458.559226
 31
0.0
  0
HATCH
  5
1A3
100
AcDbEntity
  8
HATCH
100
AcDbHatch
 10
0.0
 20
0.0
 30
0.0
210
0.0
220
0.0
230
1.0
  2
_U
 70
     0
 71
     1
 91
        4
 92
        7
 72
     0
 73
     1
 93
        9
 10
869.1784019118019
 20
464.0592260810633
 10
869.1784019118019
 20
465.8592260810634
 10
868.4784019118016
 20
466.5592260810632
 10
863.8784019118022
 20
466.5592260810632
 10
863.1784019118018
 20
465.8592260810632
 10
863.1784019118018
 20
462.2592260810631
 10
865.1784019118021
 20
462.2592260810632
 10
865.178401911802
 20
463.8092260810633
 10
865.178401911802
 20
464.0592260810631
 97
        9
330
42F
330
432
330
42E
330
48E
330
1B8
330
1A9
330
1BD
330
1AB
330
431
 92
        7
 72
     1
 73
     1
 93
       16
 10
863.1784019118018
 20
442.5592260810629
 42
0.0
 10
854.178401911802
 20
442.5592260810629
 42
0.0
 10
853.1784019118019
 20
441.559226081063
 42
0.0
 10
853.178401911802
 20
436.5592260810631
 42
0.0
 10
871.4796162587008
 20
435.600100078959
 42
-0.1092323044357274
 10
874.1784019118021
 20
441.7243774709747
 42
0.0
 10
874.178401911802
 20
451.8592260810631
 42
0.0
 10
873.4784019118016
 20
452.5592260810632
 42
0.0
 10
872.1784019118015
 20
452.559226081063
 42
0.0
 10
872.178401911802
 20
452.059226081063
 42
0.0
 10
869.1784019118019
 20
452.0592260810631
 42
0.0
 10
869.1784019118019
 20
453.0592260810633
 42
0.0
 10
865.178401911802
 20
453.0592260810633
 42
0.0
 10
865.178401911802
 20
453.3092260810632
 42
0.0
 10
865.178401911802
 20
454.8592260810631
 42
0.0
 10
863.178401911802
 20
454.8592260810632
 42
0.0
 97
       16
330
424
330
427
330
421
330
420
330
431
330
1AC
330
1AA
330
1A9
330
1B7
330
1A8
330
43B
330
437
330
439
330
415
330
416
330
425
 92
        7
 72
     1
 73
     1
 93
       16
 10
863.178401911802
 20
402.5592260810631
 42
0.0
 10
863.178401911802
 20
401.2592260810634
 42
0.0
 10
863.878401911802
 20
400.5592260810631
 42
0.0
 10
868.4784019118019
 20
400.559226081063
 42
0.0
 10
869.1784019118019
 20
401.2592260810632
 42
0.0
 10
869.1784019118021
 20
413.059226081063
 42
0.0
 10
872.1784019118022
 20
413.0592260810631
 42
0.0
 10
872.1784019118022
 20
412.5592260810631
 42
0.0
 10
873.4784019118025
 20
412.5592260810631
 42
0.0
 10
874.1784019118025
 20
413.259226081063
 42
0.0
 10
874.1784019118023
 20
423.3940746911512
 42
-0.1092323044357307
 10
871.4796162587008
 20
429.5183520831669
 42
0.0
 10
853.178401911802
 20
428.5592260810632
 42
0.0
 10
853.1784019118019
 20
423.5592260810632
 42
0.0
 10
854.1784019118018
 20
422.5592260810631
 42
0.0
 10
863.1784019118018
 20
422.5592260810631
 42
0.0
 97
       16
330
412
330
414
330
439
330
438
330
43A
330
429
330
26A
330
42B
330
42D
330
42C
330
41E
330
41F
330
41D
330
426
330
423
330
425
 92
       24
 93
        4
 72
     1
 10
855.185054
 20
437.880683
 11
869.556482
 21
437.880683
 72
     1
 10
869.556482
 20
437.880683
 11
869.556482
 21
440.880683
 72
     1
 10
869.556482
 20
440.880683
 11
855.185054
 21
440.880683
 72
     1
 10
855.185054
 20
440.880683
 11
855.185054
 21
437.880683
 97
        1
330
3C0
 75
     0
 76
     0
 52
135.0
 41
2.5
 77
     0
 78
     1
 53
135.0
 43
41.588294
 44
0.0
 45
-1.767766952966368
 46
-1.767766952966368
 79
     0
 47
0.115254
 98
        3
 10
866.004409
 20
464.76431
 10
867.849229
 20
442.866133
 10
867.733927
 20
421.77473
  0
LINE
  5
1A4
100
AcDbEntity
  8
M04
100
AcDbLine
 10
855.878402
 20
455.559226
 30
0.0
 11
853.378402
 21
455.559226
 31
0.0
  0
LINE
  5
1A5
100
AcDbEntity
  8
M04
100
AcDbLine
 10
855.178402
 20
456.259226
 30
0.0
 11
851.878402
 21
456.259226
 31
0.0
  0
LINE
  5
1A6
100
AcDbEntity
  8
M04
100
AcDbLine
 10
855.878402
 20
461.559226
 30
0.0
 11
853.378402
 21
461.559226
 31
0.0
  0
LINE
  5
1A7
100
AcDbEntity
  8
M04
100
AcDbLine
 10
855.178402
 20
460.859226
 30
0.0
 11
851.878402
 21
460.859226
 31
0.0
  0
LINE
  5
1A8
102
{ACAD_REACTORS
330
1A3
102
}
100
AcDbEntity
  8
M01
100
AcDbLine
 10
863.178402
 20
455.559226
 30
0.0
 11
863.178402
 21
442.559226
 31
0.0
  0
LINE
  5
1A9
102
{ACAD_REACTORS
330
1A3
102
}
100
AcDbEntity
  8
M05
100
AcDbLine
 10
865.178402
 20
463.809226
 30
0.0
 11
865.178402
 21
453.309226
 31
0.0
  0
LINE
  5
1AA
102
{ACAD_REACTORS
330
1A3
102
}
100
AcDbEntity
  8
M04
100
AcDbLine
 10
865.178402
 20
453.309226
 30
0.0
 11
865.178402
 21
453.059226
 31
0.0
  0
LINE
  5
1AB
102
{ACAD_REACTORS
330
1A3
102
}
100
AcDbEntity
  8
M04
100
AcDbLine
 10
865.178402
 20
464.059226
 30
0.0
 11
869.178402
 21
464.059226
 31
0.0
  0
LINE
  5
1AC
102
{ACAD_REACTORS
330
1A3
102
}
100
AcDbEntity
  8
M04
100
AcDbLine
 10
865.178402
 20
453.059226
 30
0.0
 11
869.178402
 21
453.059226
 31
0.0
  0
LINE
  5
1AD
100
AcDbEntity
  8
M05
100
AcDbLine
 10
864.178402
 20
455.559226
 30
0.0
 11
864.178402
 21
461.559226
 31
0.0
  0
LINE
  5
1AE
100
AcDbEntity
  8
M04
100
AcDbLine
 10
851.878402
 20
460.859226
 30
0.0
 11
850.550496
 21
458.559226
 31
0.0
  0
LINE
  5
1AF
100
AcDbEntity
  8
M04
100
AcDbLine
 10
851.878402
 20
456.259226
 30
0.0
 11
850.550496
 21
458.559226
 31
0.0
  0
LINE
  5
1B0
100
AcDbEntity
  8
M04
100
AcDbLine
 10
851.878402
 20
456.259226
 30
0.0
 11
851.878402
 21
460.859226
 31
0.0
  0
LINE
  5
1B1
100
AcDbEntity
  8
M04
100
AcDbLine
 10
853.378402
 20
455.559226
 30
0.0
 11
853.378402
 21
461.559226
 31
0.0
  0
ARC
  5
1B2
100
AcDbEntity
  8
M05
100
AcDbCircle
 10
862.652266
 20
458.559226
 30
0.0
 40
5.826136
100
AcDbArc
 50
295.69541
 51
64.30459
  0
LINE
  5
1B3
100
AcDbEntity
  8
M05
100
AcDbLine
 10
855.878402
 20
461.559226
 30
0.0
 11
855.178402
 21
460.859226
 31
0.0
  0
LINE
  5
1B4
100
AcDbEntity
  8
M05
100
AcDbLine
 10
855.878402
 20
455.559226
 30
0.0
 11
855.178402
 21
456.259226
 31
0.0
  0
LINE
  5
1B5
100
AcDbEntity
  8
M05
100
AcDbLine
 10
855.878402
 20
455.559226
 30
0.0
 11
855.878402
 21
461.559226
 31
0.0
  0
LINE
  5
1B6
100
AcDbEntity
  8
M05
100
AcDbLine
 10
855.178402
 20
456.259226
 30
0.0
 11
855.178402
 21
460.859226
 31
0.0
  0
LINE
  5
1B7
102
{ACAD_REACTORS
330
1A3
102
}
100
AcDbEntity
  8
M04
100
AcDbLine
 10
863.178402
 20
454.859226
 30
0.0
 11
865.178402
 21
454.859226
 31
0.0
  0
LINE
  5
1B8
102
{ACAD_REACTORS
330
1A3
102
}
100
AcDbEntity
  8
M04
100
AcDbLine
 10
863.178402
 20
462.259226
 30
0.0
 11
865.178402
 21
462.259226
 31
0.0
  0
LINE
  5
1B9
100
AcDbEntity
  8
M05
100
AcDbLine
 10
855.178402
 20
460.859226
 30
0.0
 11
864.178402
 21
460.859226
 31
0.0
  0
LINE
  5
1BA
100
AcDbEntity
  8
M05
100
AcDbLine
 10
855.178402
 20
456.259226
 30
0.0
 11
864.178402
 21
456.259226
 31
0.0
  0
LINE
  5
1BB
100
AcDbEntity
  8
M05
100
AcDbLine
 10
855.878402
 20
455.559226
 30
0.0
 11
865.178402
 21
455.559226
 31
0.0
  0
LINE
  5
1BC
100
AcDbEntity
  8
M05
100
AcDbLine
 10
855.878402
 20
461.559226
 30
0.0
 11
865.178402
 21
461.559226
 31
0.0
  0
LINE
  5
1BD
102
{ACAD_REACTORS
330
1A3
102
}
100
AcDbEntity
  8
M04
100
AcDbLine
 10
865.178402
 20
464.059226
 30
0.0
 11
865.178402
 21
463.809226
 31
0.0
  0
LINE
  5
1BE
100
AcDbEntity
  8
CENTRE
100
AcDbLine
 10
847.911901
 20
458.559226
 30
0.0
 11
872.82459
 21
458.559226
 31
0.0
  0
MTEXT
  5
1BF
102
{ACAD_REACTORS
330
1C0
102
}
100
AcDbEntity
  8
DIMS
 62
     2
100
AcDbMText
 10
217.726213
 20
381.120852
 30
0.0
 40
3.0
 41
0.0
 71
     4
 72
     5
  1
HGX10037
  0
LEADER
  5
1C0
100
AcDbEntity
  8
DIMS
 62
     4
100
AcDbLeader
  3
DIM1$7
 73
     0
 74
     0
 75
     1
 40
3.0
 41
21.857143
 76
     3
 10
194.73111
 20
402.973989
 30
0.0
 10
213.226213
 20
381.120852
 30
0.0
 10
216.226213
 20
381.120852
 30
0.0
 77
   256
340
1BF
1001
ACAD
1000
DSTYLE
1002
{
1070
   288
1070
     1
1070
   144
1040
1.0
1002
}
  0
CIRCLE
  5
1C2
100
AcDbEntity
  8
M03
100
AcDbCircle
 10
449.265534
 20
432.559226
 30
0.0
 40
2.3
  0
ARC
  5
1C3
100
AcDbEntity
  8
M03
100
AcDbCircle
 10
449.265534
 20
432.559226
 30
0.0
 40
3.0
100
AcDbArc
 50
167.784636
 51
96.923103
  0
CIRCLE
  5
1C4
100
AcDbEntity
  8
M03
100
AcDbCircle
 10
449.265534
 20
432.559226
 30
0.0
 40
5.5
  0
CIRCLE
  5
1C5
100
AcDbEntity
  8
M03
100
AcDbCircle
 10
397.265534
 20
432.559226
 30
0.0
 40
2.3
  0
ARC
  5
1C6
100
AcDbEntity
  8
M03
100
AcDbCircle
 10
397.265534
 20
432.559226
 30
0.0
 40
3.0
100
AcDbArc
 50
167.784636
 51
96.923103
  0
CIRCLE
  5
1C7
100
AcDbEntity
  8
M03
100
AcDbCircle
 10
397.265534
 20
432.559226
 30
0.0
 40
5.5
  0
CIRCLE
  5
1C8
100
AcDbEntity
  8
M03
100
AcDbCircle
 10
423.265534
 20
458.559226
 30
0.0
 40
2.3
  0
ARC
  5
1C9
100
AcDbEntity
  8
M03
100
AcDbCircle
 10
423.265534
 20
458.559226
 30
0.0
 40
3.0
100
AcDbArc
 50
167.784636
 51
96.923103
  0
CIRCLE
  5
1CA
100
AcDbEntity
  8
M03
100
AcDbCircle
 10
423.265534
 20
458.559226
 30
0.0
 40
5.5
  0
LINE
  5
1CB
100
AcDbEntity
  8
M03
100
AcDbLine
 10
208.065534
 20
418.059226
 30
0.0
 11
205.765534
 21
419.387132
 31
0.0
  0
LINE
  5
1CC
100
AcDbEntity
  8
M03
100
AcDbLine
 10
203.465534
 20
418.059226
 30
0.0
 11
205.765534
 21
419.387132
 31
0.0
  0
LINE
  5
1CD
100
AcDbEntity
  8
M03
100
AcDbLine
 10
203.465534
 20
418.059226
 30
0.0
 11
208.065534
 21
418.059226
 31
0.0
  0
LINE
  5
1CE
100
AcDbEntity
  8
M03
100
AcDbLine
 10
202.765534
 20
416.559226
 30
0.0
 11
208.765534
 21
416.559226
 31
0.0
  0
LINE
  5
1CF
100
AcDbEntity
  8
M03
100
AcDbLine
 10
191.458472
 20
404.459226
 30
0.0
 11
162.220012
 21
404.459226
 31
0.0
  0
LINE
  5
1D0
100
AcDbEntity
  8
M03
100
AcDbLine
 10
191.458472
 20
402.559226
 30
0.0
 11
162.220012
 21
402.559226
 31
0.0
  0
LINE
  5
1D1
100
AcDbEntity
  8
M03
100
AcDbLine
 10
198.458472
 20
404.759226
 30
0.0
 11
212.765534
 21
404.759226
 31
0.0
  0
LINE
  5
1D2
100
AcDbEntity
  8
M03
100
AcDbLine
 10
197.413707
 20
405.559226
 30
0.0
 11
197.413707
 21
404.759226
 31
0.0
  0
LINE
  5
1D3
100
AcDbEntity
  8
M03
100
AcDbLine
 10
191.458472
 20
404.759226
 30
0.0
 11
191.458472
 21
402.259226
 31
0.0
  0
LINE
  5
1D4
100
AcDbEntity
  8
M03
100
AcDbLine
 10
191.458472
 20
402.259226
 30
0.0
 11
198.458472
 21
402.259226
 31
0.0
  0
LINE
  5
1D5
100
AcDbEntity
  8
M03
100
AcDbLine
 10
198.458472
 20
404.759226
 30
0.0
 11
198.458472
 21
402.259226
 31
0.0
  0
LINE
  5
1D6
100
AcDbEntity
  8
M03
100
AcDbLine
 10
212.765534
 20
405.559226
 30
0.0
 11
212.765534
 21
404.759226
 31
0.0
  0
ARC
  5
1D7
100
AcDbEntity
  8
M03
100
AcDbCircle
 10
205.765534
 20
407.285362
 30
0.0
 40
5.826136
100
AcDbArc
 50
205.69541
 51
334.30459
  0
LINE
  5
1D8
100
AcDbEntity
  8
M03
100
AcDbLine
 10
208.765534
 20
414.059226
 30
0.0
 11
208.065534
 21
414.759226
 31
0.0
  0
LINE
  5
1D9
100
AcDbEntity
  8
M03
100
AcDbLine
 10
202.765534
 20
414.059226
 30
0.0
 11
203.465534
 21
414.759226
 31
0.0
  0
LINE
  5
1DA
100
AcDbEntity
  8
M03
100
AcDbLine
 10
202.765534
 20
414.059226
 30
0.0
 11
208.765534
 21
414.059226
 31
0.0
  0
LINE
  5
1DB
100
AcDbEntity
  8
M03
100
AcDbLine
 10
203.465534
 20
414.759226
 30
0.0
 11
208.065534
 21
414.759226
 31
0.0
  0
LINE
  5
1DC
100
AcDbEntity
  8
M03
100
AcDbLine
 10
208.765534
 20
405.559226
 30
0.0
 11
215.765534
 21
405.559226
 31
0.0
  0
LINE
  5
1DD
100
AcDbEntity
  8
M03
100
AcDbLine
 10
192.065534
 20
405.559226
 30
0.0
 11
192.065534
 21
404.759226
 31
0.0
  0
LINE
  5
1DE
100
AcDbEntity
  8
M03
100
AcDbLine
 10
209.465534
 20
405.559226
 30
0.0
 11
209.465534
 21
404.759226
 31
0.0
  0
LINE
  5
1DF
100
AcDbEntity
  8
M03
100
AcDbLine
 10
208.065534
 20
418.059226
 30
0.0
 11
208.065534
 21
404.759226
 31
0.0
  0
LINE
  5
1E0
100
AcDbEntity
  8
M03
100
AcDbLine
 10
203.465534
 20
418.059226
 30
0.0
 11
203.465534
 21
404.759226
 31
0.0
  0
LINE
  5
1E1
100
AcDbEntity
  8
M03
100
AcDbLine
 10
202.765534
 20
416.559226
 30
0.0
 11
202.765534
 21
404.759226
 31
0.0
  0
LINE
  5
1E2
100
AcDbEntity
  8
M03
100
AcDbLine
 10
208.765534
 20
416.559226
 30
0.0
 11
208.765534
 21
404.759226
 31
0.0
  0
LINE
  5
1E3
100
AcDbEntity
  8
M03
100
AcDbLine
 10
191.458472
 20
404.759226
 30
0.0
 11
197.413707
 21
404.759226
 31
0.0
  0
LINE
  5
1E4
100
AcDbEntity
  8
M03
100
AcDbLine
 10
215.765534
 20
405.559226
 30
0.0
 11
215.765534
 21
400.559226
 31
0.0
  0
LINE
  5
1E5
100
AcDbEntity
  8
M03
100
AcDbLine
 10
148.265534
 20
405.559226
 30
0.0
 11
202.765534
 21
405.559226
 31
0.0
  0
LINE
  5
1E6
100
AcDbEntity
  8
CENTRE
100
AcDbLine
 10
205.765534
 20
423.757899
 30
0.0
 11
205.765534
 21
396.597749
 31
0.0
  0
DIMENSION
  5
1E7
100
AcDbEntity
  8
DIMS
100
AcDbDimension
  2
*D4
 10
781.502237
 20
499.059226
 30
0.0
 11
753.502237
 21
481.273512
 31
0.0
 12
25.0
 22
0.0
 32
0.0
  1
%%c<> H7
  3
DIM1
100
AcDbAlignedDimension
 13
796.178402
 23
507.059226
 33
0.0
 14
796.178402
 24
499.059226
 34
0.0
 50
90.0
100
AcDbRotatedDimension
1001
ACAD
1000
DSTYLE
1002
{
1070
   144
1040
1.0
1002
}
  0
CIRCLE
  5
1F5
100
AcDbEntity
  8
M03
100
AcDbCircle
 10
173.265534
 20
432.559226
 30
0.0
 40
2.3
  0
ARC
  5
1F6
100
AcDbEntity
  8
M03
100
AcDbCircle
 10
173.265534
 20
432.559226
 30
0.0
 40
3.0
100
AcDbArc
 50
167.784636
 51
96.923103
  0
CIRCLE
  5
1F7
100
AcDbEntity
  8
M03
100
AcDbCircle
 10
673.265534
 20
432.559226
 30
0.0
 40
2.3
  0
ARC
  5
1F8
100
AcDbEntity
  8
M03
100
AcDbCircle
 10
673.265534
 20
432.559226
 30
0.0
 40
3.0
100
AcDbArc
 50
167.784636
 51
96.923103
  0
LINE
  5
1F9
100
AcDbEntity
  8
DIMS
 62
     4
100
AcDbLine
 10
173.265534
 20
435.959226
 30
0.0
 11
173.265534
 21
449.259226
 31
0.0
  0
LINE
  5
1FA
100
AcDbEntity
  8
DIMS
 62
     4
100
AcDbLine
 10
173.265534
 20
429.159226
 30
0.0
 11
173.265534
 21
415.859226
 31
0.0
  0
LINE
  5
1FB
100
AcDbEntity
  8
DIMS
 62
     4
100
AcDbLine
 10
173.265534
 20
430.859226
 30
0.0
 11
173.265534
 21
434.259226
 31
0.0
  0
LINE
  5
1FC
100
AcDbEntity
  8
DIMS
 62
     4
100
AcDbLine
 10
673.265534
 20
435.959226
 30
0.0
 11
673.265534
 21
449.259226
 31
0.0
  0
LINE
  5
1FD
100
AcDbEntity
  8
DIMS
 62
     4
100
AcDbLine
 10
673.265534
 20
429.159226
 30
0.0
 11
673.265534
 21
415.859226
 31
0.0
  0
LINE
  5
1FE
100
AcDbEntity
  8
DIMS
 62
     4
100
AcDbLine
 10
673.265534
 20
430.859226
 30
0.0
 11
673.265534
 21
434.259226
 31
0.0
  0
LINE
  5
1FF
100
AcDbEntity
  8
M03
100
AcDbLine
 10
673.815534
 20
426.584488
 30
0.0
 11
673.815534
 21
438.533965
 31
0.0
  0
LINE
  5
200
100
AcDbEntity
  8
M03
100
AcDbLine
 10
672.715534
 20
426.584488
 30
0.0
 11
672.715534
 21
438.533965
 31
0.0
  0
CIRCLE
  5
201
100
AcDbEntity
  8
M03
100
AcDbCircle
 10
673.265534
 20
432.559226
 30
0.0
 40
15.0
  0
CIRCLE
  5
202
100
AcDbEntity
  8
M03
100
AcDbCircle
 10
673.265534
 20
432.559226
 30
0.0
 40
14.0
  0
CIRCLE
  5
203
100
AcDbEntity
  8
M03
100
AcDbCircle
 10
673.265534
 20
432.559226
 30
0.0
 40
7.858882
  0
CIRCLE
  5
204
100
AcDbEntity
  8
M03
100
AcDbCircle
 10
673.265534
 20
432.559226
 30
0.0
 40
6.0
  0
LINE
  5
205
100
AcDbEntity
  8
M03
100
AcDbLine
 10
172.715534
 20
426.584488
 30
0.0
 11
172.715534
 21
438.533965
 31
0.0
  0
LINE
  5
206
100
AcDbEntity
  8
M03
100
AcDbLine
 10
173.815534
 20
426.584488
 30
0.0
 11
173.815534
 21
438.533965
 31
0.0
  0
CIRCLE
  5
207
100
AcDbEntity
  8
M03
100
AcDbCircle
 10
173.265534
 20
432.559226
 30
0.0
 40
15.0
  0
CIRCLE
  5
208
100
AcDbEntity
  8
M03
100
AcDbCircle
 10
173.265534
 20
432.559226
 30
0.0
 40
14.0
  0
CIRCLE
  5
209
100
AcDbEntity
  8
M03
100
AcDbCircle
 10
173.265534
 20
432.559226
 30
0.0
 40
7.858882
  0
CIRCLE
  5
20A
100
AcDbEntity
  8
M03
100
AcDbCircle
 10
173.265534
 20
432.559226
 30
0.0
 40
6.0
  0
DIMENSION
  5
20B
100
AcDbEntity
  8
DIMS
100
AcDbDimension
  2
*D5
 10
914.493519
 20
452.559226
 30
0.0
 11
886.493519
 21
432.559226
 31
0.0
 12
25.0
 22
0.0
 32
0.0
  1
%%c<> H7
  3
DIM1
100
AcDbAlignedDimension
 13
878.178402
 23
412.559226
 33
0.0
 14
878.178402
 24
452.559226
 34
0.0
 50
90.0
100
AcDbRotatedDimension
1001
ACAD
1000
DSTYLE
1002
{
1070
   144
1040
1.0
1002
}
  0
DIMENSION
  5
218
100
AcDbEntity
  8
DIMS
100
AcDbDimension
  2
*D6
 10
809.178402
 20
362.279548
 30
0.0
 11
773.535545
 21
365.279548
 31
0.0
 12
25.0
 22
0.0
 32
0.0
  1
7.0
  3
DIM1
100
AcDbAlignedDimension
 13
816.178402
 23
402.559226
 33
0.0
 14
809.178402
 24
393.559226
 34
0.0
100
AcDbRotatedDimension
1001
ACAD
1000
DSTYLE
1002
{
1070
   144
1040
1.0
1002
}
  0
DIMENSION
  5
226
100
AcDbEntity
  8
DIMS
100
AcDbDimension
  2
*D7
 10
870.178402
 20
362.279548
 30
0.0
 11
855.821259
 21
365.279548
 31
0.0
 12
25.0
 22
0.0
 32
0.0
  1
7.0
  3
DIM1
100
AcDbAlignedDimension
 13
863.178402
 23
401.259226
 33
0.0
 14
870.178402
 24
382.045835
 34
0.0
100
AcDbRotatedDimension
1001
ACAD
1000
DSTYLE
1002
{
1070
   144
1040
1.0
1002
}
  0
DIMENSION
  5
234
100
AcDbEntity
  8
DIMS
100
AcDbDimension
  2
*D8
 10
863.178402
 20
362.279548
 30
0.0
 11
814.678402
 21
365.279548
 31
0.0
 12
25.0
 22
0.0
 32
0.0
  3
DIM1
100
AcDbAlignedDimension
 13
816.178402
 23
402.559226
 33
0.0
 14
863.178402
 24
401.259226
 34
0.0
100
AcDbRotatedDimension
1001
ACAD
1000
DSTYLE
1002
{
1070
   144
1040
1.0
1002
}
  0
LINE
  5
241
100
AcDbEntity
  8
M01
100
AcDbLine
 10
852.178402
 20
523.559226
 30
0.0
 11
862.178402
 21
523.559226
 31
0.0
  0
LINE
  5
242
100
AcDbEntity
  8
M01
100
AcDbLine
 10
818.928402
 20
530.503326
 30
0.0
 11
825.428402
 21
530.503326
 31
0.0
  0
LINE
  5
243
100
AcDbEntity
  8
M01
100
AcDbLine
 10
818.928402
 20
538.615126
 30
0.0
 11
825.428402
 21
538.615126
 31
0.0
  0
LINE
  5
244
100
AcDbEntity
  8
M01
100
AcDbLine
 10
818.928402
 20
530.503326
 30
0.0
 11
818.928402
 21
528.559226
 31
0.0
  0
ARC
  5
245
100
AcDbEntity
  8
M01
100
AcDbCircle
 10
817.678402
 20
532.064576
 30
0.0
 40
2.0
100
AcDbArc
 50
308.682187
 51
0.0
  0
ARC
  5
246
100
AcDbEntity
  8
M01
100
AcDbCircle
 10
817.678402
 20
537.053876
 30
0.0
 40
2.0
100
AcDbArc
 50
0.0
 51
51.317813
  0
LINE
  5
247
100
AcDbEntity
  8
M01
100
AcDbLine
 10
818.928402
 20
540.559226
 30
0.0
 11
818.928402
 21
538.615126
 31
0.0
  0
LINE
  5
248
100
AcDbEntity
  8
M01
100
AcDbLine
 10
819.678402
 20
537.053876
 30
0.0
 11
819.678402
 21
532.064576
 31
0.0
  0
LINE
  5
249
100
AcDbEntity
  8
M01
100
AcDbLine
 10
825.428402
 20
530.503326
 30
0.0
 11
825.428402
 21
528.559226
 31
0.0
  0
ARC
  5
24A
100
AcDbEntity
  8
M01
100
AcDbCircle
 10
826.678402
 20
532.064576
 30
0.0
 40
2.0
100
AcDbArc
 50
180.0
 51
231.317813
  0
ARC
  5
24B
100
AcDbEntity
  8
M01
100
AcDbCircle
 10
826.678402
 20
537.053876
 30
0.0
 40
2.0
100
AcDbArc
 50
128.682187
 51
180.0
  0
LINE
  5
24C
100
AcDbEntity
  8
M01
100
AcDbLine
 10
825.428402
 20
540.559226
 30
0.0
 11
825.428402
 21
538.615126
 31
0.0
  0
LINE
  5
24D
100
AcDbEntity
  8
M01
100
AcDbLine
 10
824.678402
 20
537.053876
 30
0.0
 11
824.678402
 21
532.064576
 31
0.0
  0
LINE
  5
24E
100
AcDbEntity
  8
M01
100
AcDbLine
 10
817.178402
 20
523.559226
 30
0.0
 11
827.178402
 21
523.559226
 31
0.0
  0
LINE
  5
24F
100
AcDbEntity
  8
M01
100
AcDbLine
 10
862.178402
 20
528.559226
 30
0.0
 11
862.178402
 21
507.559226
 31
0.0
  0
LINE
  5
250
100
AcDbEntity
  8
M01
100
AcDbLine
 10
852.178402
 20
528.559226
 30
0.0
 11
852.178402
 21
508.559226
 31
0.0
  0
LINE
  5
251
100
AcDbEntity
  8
M01
100
AcDbLine
 10
817.178402
 20
528.559226
 30
0.0
 11
817.178402
 21
507.559226
 31
0.0
  0
LINE
  5
252
100
AcDbEntity
  8
M01
100
AcDbLine
 10
827.178402
 20
528.559226
 30
0.0
 11
827.178402
 21
508.559226
 31
0.0
  0
LINE
  5
253
100
AcDbEntity
  8
M01
100
AcDbLine
 10
430.765534
 20
540.559226
 30
0.0
 11
439.765534
 21
540.559226
 31
0.0
  0
LINE
  5
254
100
AcDbEntity
  8
M01
100
AcDbLine
 10
439.765534
 20
541.359226
 30
0.0
 11
439.765534
 21
540.559226
 31
0.0
  0
LINE
  5
255
100
AcDbEntity
  8
M01
100
AcDbLine
 10
430.765534
 20
541.359226
 30
0.0
 11
430.765534
 21
540.559226
 31
0.0
  0
LINE
  5
256
100
AcDbEntity
  8
M01
100
AcDbLine
 10
408.015534
 20
530.503326
 30
0.0
 11
414.515534
 21
530.503326
 31
0.0
  0
LINE
  5
257
100
AcDbEntity
  8
M01
100
AcDbLine
 10
408.015534
 20
538.615126
 30
0.0
 11
414.515534
 21
538.615126
 31
0.0
  0
LINE
  5
258
100
AcDbEntity
  8
M01
100
AcDbLine
 10
408.015534
 20
530.503326
 30
0.0
 11
408.015534
 21
528.559226
 31
0.0
  0
ARC
  5
259
100
AcDbEntity
  8
M01
100
AcDbCircle
 10
406.765534
 20
532.064576
 30
0.0
 40
2.0
100
AcDbArc
 50
308.682187
 51
0.0
  0
ARC
  5
25A
100
AcDbEntity
  8
M01
100
AcDbCircle
 10
406.765534
 20
537.053876
 30
0.0
 40
2.0
100
AcDbArc
 50
0.0
 51
51.317813
  0
LINE
  5
25B
100
AcDbEntity
  8
M01
100
AcDbLine
 10
408.015534
 20
540.559226
 30
0.0
 11
408.015534
 21
538.615126
 31
0.0
  0
LINE
  5
25C
100
AcDbEntity
  8
M01
100
AcDbLine
 10
408.765534
 20
537.053876
 30
0.0
 11
408.765534
 21
532.064576
 31
0.0
  0
LINE
  5
25D
100
AcDbEntity
  8
M01
100
AcDbLine
 10
414.515534
 20
530.503326
 30
0.0
 11
414.515534
 21
528.559226
 31
0.0
  0
ARC
  5
25E
100
AcDbEntity
  8
M01
100
AcDbCircle
 10
415.765534
 20
532.064576
 30
0.0
 40
2.0
100
AcDbArc
 50
180.0
 51
231.317813
  0
ARC
  5
25F
100
AcDbEntity
  8
M01
100
AcDbCircle
 10
415.765534
 20
537.053876
 30
0.0
 40
2.0
100
AcDbArc
 50
128.682187
 51
180.0
  0
LINE
  5
260
100
AcDbEntity
  8
M01
100
AcDbLine
 10
414.515534
 20
540.559226
 30
0.0
 11
414.515534
 21
538.615126
 31
0.0
  0
LINE
  5
261
100
AcDbEntity
  8
M01
100
AcDbLine
 10
413.765534
 20
537.053876
 30
0.0
 11
413.765534
 21
532.064576
 31
0.0
  0
LINE
  5
262
100
AcDbEntity
  8
M01
100
AcDbLine
 10
440.265534
 20
523.559226
 30
0.0
 11
430.265534
 21
523.559226
 31
0.0
  0
LINE
  5
263
100
AcDbEntity
  8
M01
100
AcDbLine
 10
406.265534
 20
523.559226
 30
0.0
 11
416.265534
 21
523.559226
 31
0.0
  0
LINE
  5
264
100
AcDbEntity
  8
M01
100
AcDbLine
 10
406.265534
 20
528.559226
 30
0.0
 11
406.265534
 21
508.559226
 31
0.0
  0
LINE
  5
265
100
AcDbEntity
  8
M01
100
AcDbLine
 10
416.265534
 20
528.559226
 30
0.0
 11
416.265534
 21
508.559226
 31
0.0
  0
LINE
  5
266
100
AcDbEntity
  8
M01
100
AcDbLine
 10
430.265534
 20
528.559226
 30
0.0
 11
430.265534
 21
508.559226
 31
0.0
  0
LINE
  5
267
100
AcDbEntity
  8
M01
100
AcDbLine
 10
440.265534
 20
528.559226
 30
0.0
 11
440.265534
 21
508.559226
 31
0.0
  0
LINE
  5
268
100
AcDbEntity
  8
CENTRE
100
AcDbLine
 10
165.265534
 20
256.513886
 30
0.0
 11
681.265534
 21
256.513886
 31
0.0
  0
ARC
  5
269
100
AcDbEntity
  8
M03
100
AcDbCircle
 10
423.265534
 20
432.559226
 30
0.0
 40
34.0
100
AcDbArc
 50
289.749923
 51
250.250077
  0
LINE
  5
26A
102
{ACAD_REACTORS
330
1A3
102
}
100
AcDbEntity
  8
M05
100
AcDbLine
 10
863.178402
 20
401.259226
 30
0.0
 11
863.178402
 21
402.559226
 31
0.0
  0
WIPEOUT
  5
26B
100
AcDbEntity
  8
TEXT
 92
      140
310
8C000000010000008400000006000000050000001A81CC3522588540FED34C7A84546F400000000000000000296B6D440CD18540FED34C7A84546F4000000000000000002A6B6D440CD18540FAD34C7A84D46F4000000000000000001C81CC3522588540FED34C7A84D46F4000000000000000001A81CC3522588540FED34C
310
7A84546F400000000000000000
100
AcDbWipeout
 90
        0
 10
649.703144
 20
206.213326
 30
0.0
 11
48.427846
 21
0.0
 31
0.0
 12
0.0
 22
48.427846
 32
0.0
 13
0.0
 23
0.0
340
0
 70
     7
280
     1
281
    50
282
    50
283
     0
360
0
 71
     2
 91
        5
 14
0.187901
 24
-0.417403
 14
0.5
 24
-0.417403
 14
0.5
 24
-0.5
 14
0.187901
 24
-0.5
 14
0.187901
 24
-0.417403
  0
TEXT
  5
26C
102
{ACAD_REACTORS
330
22
102
}
100
AcDbEntity
  8
TEXT
100
AcDbText
 10
684.016704
 20
251.641172
 30
0.0
 40
2.0
  1
MM010047
 41
0.9
100
AcDbText
  0
WIPEOUT
  5
26D
100
AcDbEntity
  8
TEXT
 92
      140
310
8C00000001000000840000000600000005000000C97C3B1F0EF68940936963D771EE79400000000000000000D866DC2DF86E8A40936963D771EE79400000000000000000D966DC2DF86E8A40926963D7712E7A400000000000000000CB7C3B1F0EF68940946963D7712E7A400000000000000000C97C3B1F0EF68940936963
310
D771EE79400000000000000000
100
AcDbWipeout
 90
        0
 10
797.472297
 20
370.503909
 30
0.0
 11
48.398884
 21
0.0
 31
0.0
 12
0.0
 22
48.398884
 32
0.0
 13
0.0
 23
0.0
340
0
 70
     7
280
     1
281
    50
282
    50
283
     0
360
0
 71
     2
 91
        5
 14
0.187714
 24
-0.417353
 14
0.5
 24
-0.417353
 14
0.5
 24
-0.5
 14
0.187714
 24
-0.5
 14
0.187714
 24
-0.417353
  0
TEXT
  5
26E
100
AcDbEntity
  8
TEXT
100
AcDbText
 10
831.756896
 20
415.902793
 30
0.0
 40
2.0
  1
MM010047
 41
0.9
100
AcDbText
  0
MTEXT
  5
26F
102
{ACAD_REACTORS
330
270
102
}
100
AcDbEntity
  8
HATCH
 62
     2
100
AcDbMText
 10
696.905714
 20
215.172659
 30
0.0
 40
3.0
 41
0.0
 71
     1
 72
     5
  1
MA010006 (x2)
  0
LEADER
  5
270
100
AcDbEntity
  8
HATCH
 62
     4
100
AcDbLeader
  3
DIM1$7
 73
     0
 74
     0
 75
     1
 40
4.571429
 41
34.142857
 76
     3
 10
682.982889
 20
227.644599
 30
0.0
 10
692.405714
 20
213.672659
 30
0.0
 10
695.405714
 20
213.672659
 30
0.0
 77
   256
340
26F
213
0.0
223
-1.5
233
0.0
1001
ACAD
1000
DSTYLE
1002
{
1070
   144
1040
1.0
1002
}
  0
LINE
  5
271
102
{ACAD_REACTORS
330
DC
102
}
100
AcDbEntity
  8
M04
100
AcDbLine
 10
176.265534
 20
226.013886
 30
0.0
 11
403.765534
 21
226.013886
 31
0.0
  0
LINE
  5
272
102
{ACAD_REACTORS
330
21
102
}
100
AcDbEntity
  8
M02
100
AcDbLine
 10
187.265534
 20
230.013886
 30
0.0
 11
389.265534
 21
230.013886
 31
0.0
  0
LINE
  5
273
100
AcDbEntity
  8
M04
100
AcDbLine
 10
173.265534
 20
208.18598
 30
0.0
 11
175.565534
 21
209.513886
 31
0.0
  0
LINE
  5
274
100
AcDbEntity
  8
M04
100
AcDbLine
 10
170.965534
 20
209.513886
 30
0.0
 11
173.265534
 21
208.18598
 31
0.0
  0
LINE
  5
275
100
AcDbEntity
  8
M04
100
AcDbLine
 10
170.965534
 20
209.513886
 30
0.0
 11
175.565534
 21
209.513886
 31
0.0
  0
LINE
  5
276
100
AcDbEntity
  8
M04
100
AcDbLine
 10
170.265534
 20
214.575004
 30
0.0
 11
170.265534
 21
211.013886
 31
0.0
  0
LINE
  5
277
100
AcDbEntity
  8
M04
100
AcDbLine
 10
170.965534
 20
213.875004
 30
0.0
 11
170.965534
 21
209.513886
 31
0.0
  0
LINE
  5
278
100
AcDbEntity
  8
M04
100
AcDbLine
 10
176.265534
 20
214.575004
 30
0.0
 11
176.265534
 21
211.013886
 31
0.0
  0
LINE
  5
279
100
AcDbEntity
  8
M04
100
AcDbLine
 10
175.565534
 20
213.875004
 30
0.0
 11
175.565534
 21
209.513886
 31
0.0
  0
LINE
  5
27A
100
AcDbEntity
  8
M05
100
AcDbLine
 10
175.565534
 20
213.875004
 30
0.0
 11
176.265534
 21
214.575004
 31
0.0
  0
LINE
  5
27B
100
AcDbEntity
  8
M05
100
AcDbLine
 10
170.265534
 20
214.575004
 30
0.0
 11
170.965534
 21
213.875004
 31
0.0
  0
LINE
  5
27C
100
AcDbEntity
  8
M05
100
AcDbLine
 10
175.565534
 20
226.655004
 30
0.0
 11
175.565534
 21
213.875004
 31
0.0
  0
LINE
  5
27D
100
AcDbEntity
  8
M05
100
AcDbLine
 10
170.965534
 20
226.655004
 30
0.0
 11
170.965534
 21
213.875004
 31
0.0
  0
LINE
  5
27E
100
AcDbEntity
  8
M05
100
AcDbLine
 10
170.265534
 20
214.575004
 30
0.0
 11
176.265534
 21
214.575004
 31
0.0
  0
LINE
  5
27F
100
AcDbEntity
  8
M04
100
AcDbLine
 10
170.265534
 20
211.013886
 30
0.0
 11
176.265534
 21
211.013886
 31
0.0
  0
LINE
  5
280
100
AcDbEntity
  8
M05
100
AcDbLine
 10
170.965534
 20
213.875004
 30
0.0
 11
175.565534
 21
213.875004
 31
0.0
  0
LINE
  5
281
102
{ACAD_REACTORS
330
22
102
}
100
AcDbEntity
  8
M05
  6
HIDDEN
100
AcDbLine
 10
165.106652
 20
233.313886
 30
0.0
 11
164.406652
 21
234.013886
 31
0.0
  0
LINE
  5
282
102
{ACAD_REACTORS
330
22
102
}
100
AcDbEntity
  8
M05
  6
HIDDEN
100
AcDbLine
 10
181.424416
 20
233.313886
 30
0.0
 11
182.124416
 21
234.013886
 31
0.0
  0
LINE
  5
283
100
AcDbEntity
  8
M05
100
AcDbLine
 10
170.265534
 20
226.655004
 30
0.0
 11
176.265534
 21
226.655004
 31
0.0
  0
LINE
  5
284
100
AcDbEntity
  8
M05
100
AcDbLine
 10
173.815534
 20
231.155004
 30
0.0
 11
179.265534
 21
231.155004
 31
0.0
  0
LINE
  5
285
100
AcDbEntity
  8
M05
100
AcDbLine
 10
173.815534
 20
231.875004
 30
0.0
 11
179.265534
 21
231.875004
 31
0.0
  0
LINE
  5
286
100
AcDbEntity
  8
M05
100
AcDbLine
 10
173.815534
 20
231.875004
 30
0.0
 11
173.815534
 21
230.375004
 31
0.0
  0
LINE
  5
287
100
AcDbEntity
  8
M05
100
AcDbLine
 10
172.715534
 20
231.875004
 30
0.0
 11
172.715534
 21
230.375004
 31
0.0
  0
LINE
  5
288
100
AcDbEntity
  8
M05
100
AcDbLine
 10
172.715534
 20
230.375004
 30
0.0
 11
173.815534
 21
230.375004
 31
0.0
  0
LINE
  5
289
102
{ACAD_REACTORS
330
DC
102
}
100
AcDbEntity
  8
M05
100
AcDbLine
 10
176.765534
 20
228.655004
 30
0.0
 11
176.765534
 21
226.013886
 31
0.0
  0
LINE
  5
28A
102
{ACAD_REACTORS
330
DC
102
}
100
AcDbEntity
  8
M05
100
AcDbLine
 10
169.765534
 20
228.655004
 30
0.0
 11
169.765534
 21
226.013886
 31
0.0
  0
LINE
  5
28B
100
AcDbEntity
  8
M05
100
AcDbLine
 10
167.265534
 20
231.155004
 30
0.0
 11
172.715534
 21
231.155004
 31
0.0
  0
LINE
  5
28C
102
{ACAD_REACTORS
330
DC
330
22
102
}
100
AcDbEntity
  8
M05
100
AcDbLine
 10
170.265534
 20
228.155004
 30
0.0
 11
165.106652
 21
233.313886
 31
0.0
  0
LINE
  5
28D
100
AcDbEntity
  8
M05
100
AcDbLine
 10
167.265534
 20
231.875004
 30
0.0
 11
167.265534
 21
231.155004
 31
0.0
  0
LINE
  5
28E
102
{ACAD_REACTORS
330
DC
330
22
102
}
100
AcDbEntity
  8
M05
100
AcDbLine
 10
176.265534
 20
228.155004
 30
0.0
 11
181.424416
 21
233.313886
 31
0.0
  0
LINE
  5
28F
100
AcDbEntity
  8
M05
100
AcDbLine
 10
170.265534
 20
228.155004
 30
0.0
 11
176.265534
 21
228.155004
 31
0.0
  0
LINE
  5
290
100
AcDbEntity
  8
M05
100
AcDbLine
 10
170.265534
 20
228.155004
 30
0.0
 11
170.265534
 21
214.575004
 31
0.0
  0
LINE
  5
291
100
AcDbEntity
  8
M05
100
AcDbLine
 10
176.265534
 20
228.155004
 30
0.0
 11
176.265534
 21
214.575004
 31
0.0
  0
LINE
  5
292
100
AcDbEntity
  8
M05
100
AcDbLine
 10
179.265534
 20
231.875004
 30
0.0
 11
179.265534
 21
231.155004
 31
0.0
  0
LINE
  5
293
100
AcDbEntity
  8
M05
100
AcDbLine
 10
167.265534
 20
231.875004
 30
0.0
 11
172.715534
 21
231.875004
 31
0.0
  0
LINE
  5
294
102
{ACAD_REACTORS
330
22
102
}
100
AcDbEntity
  8
M05
  6
HIDDEN
100
AcDbLine
 10
159.265534
 20
233.313886
 30
0.0
 11
187.265534
 21
233.313886
 31
0.0
  0
LINE
  5
295
102
{ACAD_REACTORS
330
22
102
}
100
AcDbEntity
  8
M05
  6
HIDDEN
100
AcDbLine
 10
187.265534
 20
233.313886
 30
0.0
 11
186.565534
 21
234.013886
 31
0.0
  0
LINE
  5
296
102
{ACAD_REACTORS
330
22
102
}
100
AcDbEntity
  8
M05
  6
HIDDEN
100
AcDbLine
 10
187.265534
 20
232.313886
 30
0.0
 11
187.265534
 21
233.313886
 31
0.0
  0
LINE
  5
297
102
{ACAD_REACTORS
330
DC
102
}
100
AcDbEntity
  8
M05
100
AcDbLine
 10
187.265534
 20
232.313886
 30
0.0
 11
186.565534
 21
233.013886
 31
0.0
  0
LINE
  5
298
102
{ACAD_REACTORS
330
DC
102
}
100
AcDbEntity
  8
M05
100
AcDbLine
 10
187.265534
 20
226.713886
 30
0.0
 11
186.565534
 21
226.013886
 31
0.0
  0
LINE
  5
299
102
{ACAD_REACTORS
330
DC
102
}
100
AcDbEntity
  8
M05
100
AcDbLine
 10
187.265534
 20
232.313886
 30
0.0
 11
187.265534
 21
226.713886
 31
0.0
  0
LINE
  5
29A
102
{ACAD_REACTORS
330
22
102
}
100
AcDbEntity
  8
M05
  6
HIDDEN
100
AcDbLine
 10
159.265534
 20
233.313886
 30
0.0
 11
159.965534
 21
234.013886
 31
0.0
  0
LINE
  5
29B
102
{ACAD_REACTORS
330
22
102
}
100
AcDbEntity
  8
M05
  6
HIDDEN
100
AcDbLine
 10
159.265534
 20
232.313886
 30
0.0
 11
159.265534
 21
233.313886
 31
0.0
  0
LINE
  5
29C
102
{ACAD_REACTORS
330
DC
102
}
100
AcDbEntity
  8
M05
100
AcDbLine
 10
159.265534
 20
232.313886
 30
0.0
 11
159.965534
 21
233.013886
 31
0.0
  0
LINE
  5
29D
102
{ACAD_REACTORS
330
DC
102
}
100
AcDbEntity
  8
M05
100
AcDbLine
 10
159.265534
 20
226.713886
 30
0.0
 11
159.965534
 21
226.013886
 31
0.0
  0
LINE
  5
29E
102
{ACAD_REACTORS
330
21
102
}
100
AcDbEntity
  8
M02
100
AcDbLine
 10
188.265534
 20
233.013886
 30
0.0
 11
188.265534
 21
230.013886
 31
0.0
  0
LINE
  5
29F
102
{ACAD_REACTORS
330
21
102
}
100
AcDbEntity
  8
M02
100
AcDbLine
 10
158.265534
 20
233.013886
 30
0.0
 11
158.265534
 21
230.013886
 31
0.0
  0
LINE
  5
2A0
102
{ACAD_REACTORS
330
22
102
}
100
AcDbEntity
  8
M05
  6
HIDDEN
100
AcDbLine
 10
159.965534
 20
234.013886
 30
0.0
 11
186.565534
 21
234.013886
 31
0.0
  0
LINE
  5
2A1
102
{ACAD_REACTORS
330
DC
102
}
100
AcDbEntity
  8
M05
100
AcDbLine
 10
159.265534
 20
232.313886
 30
0.0
 11
159.265534
 21
226.713886
 31
0.0
  0
LINE
  5
2A2
102
{ACAD_REACTORS
330
22
102
}
100
AcDbEntity
  8
CENTRE
100
AcDbLine
 10
173.265534
 20
238.522996
 30
0.0
 11
173.265534
 21
205.444658
 31
0.0
  0
LINE
  5
2A3
100
AcDbEntity
  8
CENTRE
100
AcDbLine
 10
673.265534
 20
248.397127
 30
0.0
 11
673.265534
 21
290.362183
 31
0.0
  0
LINE
  5
2A4
100
AcDbEntity
  8
CENTRE
100
AcDbLine
 10
173.265534
 20
248.397127
 30
0.0
 11
173.265534
 21
290.362183
 31
0.0
  0
LINE
  5
2A5
100
AcDbEntity
  8
M04
100
AcDbLine
 10
673.265534
 20
208.18598
 30
0.0
 11
675.565534
 21
209.513886
 31
0.0
  0
LINE
  5
2A6
100
AcDbEntity
  8
M04
100
AcDbLine
 10
670.965534
 20
209.513886
 30
0.0
 11
673.265534
 21
208.18598
 31
0.0
  0
LINE
  5
2A7
100
AcDbEntity
  8
M04
100
AcDbLine
 10
670.965534
 20
209.513886
 30
0.0
 11
675.565534
 21
209.513886
 31
0.0
  0
LINE
  5
2A8
100
AcDbEntity
  8
M04
100
AcDbLine
 10
670.265534
 20
214.575004
 30
0.0
 11
670.265534
 21
211.013886
 31
0.0
  0
LINE
  5
2A9
100
AcDbEntity
  8
M04
100
AcDbLine
 10
670.965534
 20
213.875004
 30
0.0
 11
670.965534
 21
209.513886
 31
0.0
  0
LINE
  5
2AA
100
AcDbEntity
  8
M04
100
AcDbLine
 10
676.265534
 20
214.575004
 30
0.0
 11
676.265534
 21
211.013886
 31
0.0
  0
LINE
  5
2AB
100
AcDbEntity
  8
M04
100
AcDbLine
 10
675.565534
 20
213.875004
 30
0.0
 11
675.565534
 21
209.513886
 31
0.0
  0
LINE
  5
2AC
100
AcDbEntity
  8
M05
100
AcDbLine
 10
675.565534
 20
213.875004
 30
0.0
 11
676.265534
 21
214.575004
 31
0.0
  0
LINE
  5
2AD
100
AcDbEntity
  8
M05
100
AcDbLine
 10
670.265534
 20
214.575004
 30
0.0
 11
670.965534
 21
213.875004
 31
0.0
  0
LINE
  5
2AE
100
AcDbEntity
  8
M05
100
AcDbLine
 10
675.565534
 20
226.655004
 30
0.0
 11
675.565534
 21
213.875004
 31
0.0
  0
LINE
  5
2AF
100
AcDbEntity
  8
M05
100
AcDbLine
 10
670.965534
 20
226.655004
 30
0.0
 11
670.965534
 21
213.875004
 31
0.0
  0
LINE
  5
2B0
100
AcDbEntity
  8
M05
100
AcDbLine
 10
670.265534
 20
214.575004
 30
0.0
 11
676.265534
 21
214.575004
 31
0.0
  0
LINE
  5
2B1
100
AcDbEntity
  8
M04
100
AcDbLine
 10
670.265534
 20
211.013886
 30
0.0
 11
676.265534
 21
211.013886
 31
0.0
  0
LINE
  5
2B2
100
AcDbEntity
  8
M05
100
AcDbLine
 10
670.965534
 20
213.875004
 30
0.0
 11
675.565534
 21
213.875004
 31
0.0
  0
LINE
  5
2B3
102
{ACAD_REACTORS
330
22
102
}
100
AcDbEntity
  8
M05
  6
HIDDEN
100
AcDbLine
 10
665.106652
 20
233.313886
 30
0.0
 11
664.406652
 21
234.013886
 31
0.0
  0
LINE
  5
2B4
102
{ACAD_REACTORS
330
22
102
}
100
AcDbEntity
  8
M05
  6
HIDDEN
100
AcDbLine
 10
681.424416
 20
233.313886
 30
0.0
 11
682.124416
 21
234.013886
 31
0.0
  0
LINE
  5
2B5
100
AcDbEntity
  8
M04
100
AcDbLine
 10
676.265534
 20
226.013886
 30
0.0
 11
729.816316
 21
226.013886
 31
0.0
  0
LINE
  5
2B6
100
AcDbEntity
  8
M05
100
AcDbLine
 10
670.265534
 20
226.655004
 30
0.0
 11
676.265534
 21
226.655004
 31
0.0
  0
LINE
  5
2B7
100
AcDbEntity
  8
M05
100
AcDbLine
 10
673.815534
 20
231.155004
 30
0.0
 11
679.265534
 21
231.155004
 31
0.0
  0
LINE
  5
2B8
100
AcDbEntity
  8
M05
100
AcDbLine
 10
673.815534
 20
231.875004
 30
0.0
 11
679.265534
 21
231.875004
 31
0.0
  0
LINE
  5
2B9
100
AcDbEntity
  8
M05
100
AcDbLine
 10
673.815534
 20
231.875004
 30
0.0
 11
673.815534
 21
230.375004
 31
0.0
  0
LINE
  5
2BA
100
AcDbEntity
  8
M05
100
AcDbLine
 10
672.715534
 20
231.875004
 30
0.0
 11
672.715534
 21
230.375004
 31
0.0
  0
LINE
  5
2BB
100
AcDbEntity
  8
M05
100
AcDbLine
 10
672.715534
 20
230.375004
 30
0.0
 11
673.815534
 21
230.375004
 31
0.0
  0
LINE
  5
2BC
100
AcDbEntity
  8
M05
100
AcDbLine
 10
676.765534
 20
228.655004
 30
0.0
 11
676.765534
 21
226.013886
 31
0.0
  0
LINE
  5
2BD
100
AcDbEntity
  8
M05
100
AcDbLine
 10
669.765534
 20
228.655004
 30
0.0
 11
669.765534
 21
226.013886
 31
0.0
  0
LINE
  5
2BE
100
AcDbEntity
  8
M05
100
AcDbLine
 10
667.265534
 20
231.155004
 30
0.0
 11
672.715534
 21
231.155004
 31
0.0
  0
LINE
  5
2BF
102
{ACAD_REACTORS
330
22
102
}
100
AcDbEntity
  8
M05
100
AcDbLine
 10
670.265534
 20
228.155004
 30
0.0
 11
665.106652
 21
233.313886
 31
0.0
  0
LINE
  5
2C0
100
AcDbEntity
  8
M05
100
AcDbLine
 10
667.265534
 20
231.875004
 30
0.0
 11
667.265534
 21
231.155004
 31
0.0
  0
LINE
  5
2C1
102
{ACAD_REACTORS
330
22
102
}
100
AcDbEntity
  8
M05
100
AcDbLine
 10
676.265534
 20
228.155004
 30
0.0
 11
681.424416
 21
233.313886
 31
0.0
  0
LINE
  5
2C2
100
AcDbEntity
  8
M05
100
AcDbLine
 10
670.265534
 20
228.155004
 30
0.0
 11
676.265534
 21
228.155004
 31
0.0
  0
LINE
  5
2C3
100
AcDbEntity
  8
M05
100
AcDbLine
 10
670.265534
 20
228.155004
 30
0.0
 11
670.265534
 21
214.575004
 31
0.0
  0
LINE
  5
2C4
100
AcDbEntity
  8
M05
100
AcDbLine
 10
676.265534
 20
228.155004
 30
0.0
 11
676.265534
 21
214.575004
 31
0.0
  0
LINE
  5
2C5
100
AcDbEntity
  8
M05
100
AcDbLine
 10
679.265534
 20
231.875004
 30
0.0
 11
679.265534
 21
231.155004
 31
0.0
  0
LINE
  5
2C6
100
AcDbEntity
  8
M05
100
AcDbLine
 10
667.265534
 20
231.875004
 30
0.0
 11
672.715534
 21
231.875004
 31
0.0
  0
HATCH
  5
2C7
100
AcDbEntity
  8
HATCH
100
AcDbHatch
 10
0.0
 20
0.0
 30
0.0
210
0.0
220
0.0
230
1.0
  2
_U
 70
     0
 71
     1
 91
        1
 92
        7
 72
     0
 73
     1
 93
        4
 10
866.1784019118019
 20
506.559226081063
 10
863.178401911802
 20
506.5592260810631
 10
863.178401911802
 20
467.5592260810633
 10
866.1784019118019
 20
467.5592260810632
 97
        4
330
480
330
48E
330
430
330
482
 75
     0
 76
     0
 52
135.0
 41
0.8
 77
     0
 78
     1
 53
135.0
 43
41.588294
 44
0.0
 45
-0.5656854249492382
 46
-0.565685424949238
 79
     0
 47
0.167139
 98
        1
 10
865.073445
 20
494.836786
  0
LINE
  5
2C8
100
AcDbEntity
  8
DIMS
 62
     4
100
AcDbLine
 10
426.665534
 20
503.059226
 30
0.0
 11
428.965534
 21
503.059226
 31
0.0
  0
LINE
  5
2C9
100
AcDbEntity
  8
DIMS
 62
     4
100
AcDbLine
 10
419.865534
 20
503.059226
 30
0.0
 11
417.565534
 21
503.059226
 31
0.0
  0
LINE
  5
2CA
100
AcDbEntity
  8
DIMS
 62
     4
100
AcDbLine
 10
421.565534
 20
503.059226
 30
0.0
 11
424.965534
 21
503.059226
 31
0.0
  0
DIMENSION
  5
2CB
100
AcDbEntity
  8
DIMS
100
AcDbDimension
  2
*D9
 10
735.022489
 20
464.559226
 30
0.0
 11
707.022489
 21
432.559226
 31
0.0
 12
25.0
 22
0.0
 32
0.0
  1
W=<>
  3
DIM1
100
AcDbAlignedDimension
 13
693.265534
 23
400.559226
 33
0.0
 14
693.265534
 24
464.559226
 34
0.0
 50
90.0
100
AcDbRotatedDimension
1001
ACAD
1000
DSTYLE
1002
{
1070
   144
1040
1.0
1002
}
  0
DIMENSION
  5
2D8
100
AcDbEntity
  8
DIMS
100
AcDbDimension
  2
*D10
 10
705.265534
 20
340.196619
 30
0.0
 11
423.265534
 21
343.196619
 31
0.0
  1
L=<>
  3
DIM1
100
AcDbAlignedDimension
 13
141.265534
 23
412.559226
 33
0.0
 14
705.265534
 24
412.559226
 34
0.0
100
AcDbRotatedDimension
1001
ACAD
1000
DSTYLE
1002
{
1070
   144
1040
1.0
1002
}
  0
DIMENSION
  5
2E5
100
AcDbEntity
  8
DIMS
100
AcDbDimension
  2
*D11
 10
673.265534
 20
349.972053
 30
0.0
 11
423.265534
 21
349.972053
 31
0.0
 70
   128
  1
A=<>
  3
DIM1
100
AcDbAlignedDimension
 13
173.265534
 23
415.860422
 33
0.0
 14
673.265534
 24
415.846007
 34
0.0
100
AcDbRotatedDimension
1001
ACAD
1000
DSTYLE
1002
{
1070
   144
1040
1.0
1002
}
  0
DIMENSION
  5
2F2
100
AcDbEntity
  8
DIMS
100
AcDbDimension
  2
*D12
 10
423.265534
 20
360.026785
 30
0.0
 11
296.762742
 21
360.026785
 31
0.0
 70
   128
  1
A/2=<>
  3
DIM1
100
AcDbAlignedDimension
 13
173.265534
 23
415.860422
 33
0.0
 14
423.265534
 24
385.559226
 34
0.0
100
AcDbRotatedDimension
1001
ACAD
1000
DSTYLE
1002
{
1070
   144
1040
1.0
1002
}
  0
LINE
  5
2FF
100
AcDbEntity
  8
M01
100
AcDbLine
 10
854.147313
 20
550.459226
 30
0.0
 11
860.209491
 21
550.459226
 31
0.0
  0
ARC
  5
300
100
AcDbEntity
  8
M01
100
AcDbCircle
 10
860.209491
 20
548.609921
 30
0.0
 40
1.150694
100
AcDbArc
 50
208.592423
 51
331.407577
  0
ARC
  5
301
100
AcDbEntity
  8
M01
100
AcDbCircle
 10
857.178402
 20
551.162004
 30
0.0
 40
3.702778
100
AcDbArc
 50
236.92527
 51
303.07473
  0
ARC
  5
302
100
AcDbEntity
  8
M01
100
AcDbCircle
 10
854.147313
 20
548.609921
 30
0.0
 40
1.150694
100
AcDbArc
 50
208.592423
 51
331.407577
  0
ARC
  5
303
100
AcDbEntity
  8
M01
100
AcDbCircle
 10
860.209491
 20
549.308532
 30
0.0
 40
1.150694
100
AcDbArc
 50
28.592423
 51
151.407577
  0
ARC
  5
304
100
AcDbEntity
  8
M01
100
AcDbCircle
 10
857.178402
 20
546.756448
 30
0.0
 40
3.702778
100
AcDbArc
 50
56.92527
 51
123.07473
  0
LINE
  5
305
100
AcDbEntity
  8
M01
100
AcDbLine
 10
859.199128
 20
549.859226
 30
0.0
 11
859.199128
 21
548.059226
 31
0.0
  0
LINE
  5
306
100
AcDbEntity
  8
M01
100
AcDbLine
 10
861.219854
 20
549.859226
 30
0.0
 11
861.219854
 21
548.059226
 31
0.0
  0
ARC
  5
307
100
AcDbEntity
  8
M01
100
AcDbCircle
 10
854.147313
 20
549.308532
 30
0.0
 40
1.150694
100
AcDbArc
 50
28.592423
 51
151.407577
  0
LINE
  5
308
100
AcDbEntity
  8
M01
100
AcDbLine
 10
855.157676
 20
549.859226
 30
0.0
 11
855.157676
 21
548.059226
 31
0.0
  0
LINE
  5
309
100
AcDbEntity
  8
M01
100
AcDbLine
 10
853.13695
 20
549.859226
 30
0.0
 11
853.13695
 21
548.059226
 31
0.0
  0
LINE
  5
30A
100
AcDbEntity
  8
M01
100
AcDbLine
 10
862.178402
 20
545.159226
 30
0.0
 11
862.178402
 21
546.659226
 31
0.0
  0
LINE
  5
30B
100
AcDbEntity
  8
M01
100
AcDbLine
 10
852.178402
 20
545.159226
 30
0.0
 11
852.178402
 21
546.659226
 31
0.0
  0
LINE
  5
30C
100
AcDbEntity
  8
M01
100
AcDbLine
 10
861.678402
 20
546.659226
 30
0.0
 11
861.678402
 21
547.459226
 31
0.0
  0
LINE
  5
30D
100
AcDbEntity
  8
M01
100
AcDbLine
 10
852.678402
 20
546.659226
 30
0.0
 11
852.678402
 21
547.459226
 31
0.0
  0
LINE
  5
30E
100
AcDbEntity
  8
M01
100
AcDbLine
 10
852.678402
 20
547.459226
 30
0.0
 11
861.678402
 21
547.459226
 31
0.0
  0
LINE
  5
30F
100
AcDbEntity
  8
M01
100
AcDbLine
 10
852.178402
 20
546.659226
 30
0.0
 11
862.178402
 21
546.659226
 31
0.0
  0
LINE
  5
310
100
AcDbEntity
  8
M01
100
AcDbLine
 10
861.678402
 20
544.359226
 30
0.0
 11
861.678402
 21
545.159226
 31
0.0
  0
LINE
  5
311
100
AcDbEntity
  8
M01
100
AcDbLine
 10
852.678402
 20
544.359226
 30
0.0
 11
852.678402
 21
545.159226
 31
0.0
  0
LINE
  5
312
100
AcDbEntity
  8
M01
100
AcDbLine
 10
847.178402
 20
545.159226
 30
0.0
 11
862.178402
 21
545.159226
 31
0.0
  0
ARC
  5
313
100
AcDbEntity
  8
M01
100
AcDbCircle
 10
860.209491
 20
542.509921
 30
0.0
 40
1.150694
100
AcDbArc
 50
208.592423
 51
331.407577
  0
ARC
  5
314
100
AcDbEntity
  8
M01
100
AcDbCircle
 10
857.178402
 20
545.062004
 30
0.0
 40
3.702778
100
AcDbArc
 50
236.92527
 51
303.07473
  0
ARC
  5
315
100
AcDbEntity
  8
M01
100
AcDbCircle
 10
854.147313
 20
542.509921
 30
0.0
 40
1.150694
100
AcDbArc
 50
208.592423
 51
331.407577
  0
ARC
  5
316
100
AcDbEntity
  8
M01
100
AcDbCircle
 10
860.209491
 20
543.208532
 30
0.0
 40
1.150694
100
AcDbArc
 50
28.592423
 51
151.407577
  0
ARC
  5
317
100
AcDbEntity
  8
M01
100
AcDbCircle
 10
857.178402
 20
540.656448
 30
0.0
 40
3.702778
100
AcDbArc
 50
56.92527
 51
123.07473
  0
LINE
  5
318
100
AcDbEntity
  8
M01
100
AcDbLine
 10
859.199128
 20
543.759226
 30
0.0
 11
859.199128
 21
541.959226
 31
0.0
  0
LINE
  5
319
100
AcDbEntity
  8
M01
100
AcDbLine
 10
861.219854
 20
543.759226
 30
0.0
 11
861.219854
 21
541.959226
 31
0.0
  0
ARC
  5
31A
100
AcDbEntity
  8
M01
100
AcDbCircle
 10
854.147313
 20
543.208532
 30
0.0
 40
1.150694
100
AcDbArc
 50
28.592423
 51
151.407577
  0
LINE
  5
31B
100
AcDbEntity
  8
M01
100
AcDbLine
 10
855.157676
 20
543.759226
 30
0.0
 11
855.157676
 21
541.959226
 31
0.0
  0
LINE
  5
31C
100
AcDbEntity
  8
M01
100
AcDbLine
 10
853.13695
 20
543.759226
 30
0.0
 11
853.13695
 21
541.959226
 31
0.0
  0
LINE
  5
31D
100
AcDbEntity
  8
M01
100
AcDbLine
 10
852.678402
 20
544.359226
 30
0.0
 11
861.678402
 21
544.359226
 31
0.0
  0
LINE
  5
31E
100
AcDbEntity
  8
M01
100
AcDbLine
 10
852.678402
 20
541.359226
 30
0.0
 11
861.678402
 21
541.359226
 31
0.0
  0
LINE
  5
31F
100
AcDbEntity
  8
M01
100
AcDbLine
 10
852.678402
 20
540.559226
 30
0.0
 11
861.678402
 21
540.559226
 31
0.0
  0
LINE
  5
320
100
AcDbEntity
  8
M01
100
AcDbLine
 10
858.678402
 20
553.559226
 30
0.0
 11
859.178402
 21
553.059226
 31
0.0
  0
LINE
  5
321
100
AcDbEntity
  8
M01
100
AcDbLine
 10
855.178402
 20
553.059226
 30
0.0
 11
855.678402
 21
553.559226
 31
0.0
  0
LINE
  5
322
100
AcDbEntity
  8
M01
100
AcDbLine
 10
855.178402
 20
553.059226
 30
0.0
 11
859.178402
 21
553.059226
 31
0.0
  0
LINE
  5
323
100
AcDbEntity
  8
M01
100
AcDbLine
 10
858.678402
 20
553.559226
 30
0.0
 11
858.678402
 21
550.459226
 31
0.0
  0
LINE
  5
324
100
AcDbEntity
  8
M01
100
AcDbLine
 10
855.678402
 20
553.559226
 30
0.0
 11
855.678402
 21
550.459226
 31
0.0
  0
LINE
  5
325
100
AcDbEntity
  8
M01
100
AcDbLine
 10
855.178402
 20
553.059226
 30
0.0
 11
855.178402
 21
550.459226
 31
0.0
  0
LINE
  5
326
100
AcDbEntity
  8
M01
100
AcDbLine
 10
859.178402
 20
553.059226
 30
0.0
 11
859.178402
 21
550.459226
 31
0.0
  0
LINE
  5
327
100
AcDbEntity
  8
M01
100
AcDbLine
 10
855.678402
 20
553.559226
 30
0.0
 11
858.678402
 21
553.559226
 31
0.0
  0
LINE
  5
328
100
AcDbEntity
  8
M01
100
AcDbLine
 10
852.178402
 20
528.559226
 30
0.0
 11
862.178402
 21
528.559226
 31
0.0
  0
LINE
  5
329
100
AcDbEntity
  8
M01
100
AcDbLine
 10
861.678402
 20
541.359226
 30
0.0
 11
861.678402
 21
540.559226
 31
0.0
  0
LINE
  5
32A
100
AcDbEntity
  8
M01
100
AcDbLine
 10
852.678402
 20
541.359226
 30
0.0
 11
852.678402
 21
540.559226
 31
0.0
  0
LINE
  5
32B
100
AcDbEntity
  8
CENTRE
100
AcDbLine
 10
857.178402
 20
559.720115
 30
0.0
 11
857.178402
 21
496.126684
 31
0.0
  0
LINE
  5
32C
100
AcDbEntity
  8
M01
100
AcDbLine
 10
825.209491
 20
550.459226
 30
0.0
 11
819.147313
 21
550.459226
 31
0.0
  0
ARC
  5
32D
100
AcDbEntity
  8
M01
100
AcDbCircle
 10
819.147313
 20
548.609921
 30
0.0
 40
1.150694
100
AcDbArc
 50
208.592423
 51
331.407577
  0
ARC
  5
32E
100
AcDbEntity
  8
M01
100
AcDbCircle
 10
822.178402
 20
551.162004
 30
0.0
 40
3.702778
100
AcDbArc
 50
236.92527
 51
303.07473
  0
ARC
  5
32F
100
AcDbEntity
  8
M01
100
AcDbCircle
 10
825.209491
 20
548.609921
 30
0.0
 40
1.150694
100
AcDbArc
 50
208.592423
 51
331.407577
  0
ARC
  5
330
100
AcDbEntity
  8
M01
100
AcDbCircle
 10
819.147313
 20
549.308532
 30
0.0
 40
1.150694
100
AcDbArc
 50
28.592423
 51
151.407577
  0
ARC
  5
331
100
AcDbEntity
  8
M01
100
AcDbCircle
 10
822.178402
 20
546.756448
 30
0.0
 40
3.702778
100
AcDbArc
 50
56.92527
 51
123.07473
  0
LINE
  5
332
100
AcDbEntity
  8
M01
100
AcDbLine
 10
820.157676
 20
549.859226
 30
0.0
 11
820.157676
 21
548.059226
 31
0.0
  0
LINE
  5
333
100
AcDbEntity
  8
M01
100
AcDbLine
 10
818.13695
 20
549.859226
 30
0.0
 11
818.13695
 21
548.059226
 31
0.0
  0
ARC
  5
334
100
AcDbEntity
  8
M01
100
AcDbCircle
 10
825.209491
 20
549.308532
 30
0.0
 40
1.150694
100
AcDbArc
 50
28.592423
 51
151.407577
  0
LINE
  5
335
100
AcDbEntity
  8
M01
100
AcDbLine
 10
824.199128
 20
549.859226
 30
0.0
 11
824.199128
 21
548.059226
 31
0.0
  0
LINE
  5
336
100
AcDbEntity
  8
M01
100
AcDbLine
 10
826.219854
 20
549.859226
 30
0.0
 11
826.219854
 21
548.059226
 31
0.0
  0
LINE
  5
337
100
AcDbEntity
  8
M01
100
AcDbLine
 10
817.178402
 20
545.159226
 30
0.0
 11
817.178402
 21
546.659226
 31
0.0
  0
LINE
  5
338
100
AcDbEntity
  8
M01
100
AcDbLine
 10
817.678402
 20
546.659226
 30
0.0
 11
817.678402
 21
547.459226
 31
0.0
  0
LINE
  5
339
100
AcDbEntity
  8
M01
100
AcDbLine
 10
826.678402
 20
546.659226
 30
0.0
 11
826.678402
 21
547.459226
 31
0.0
  0
LINE
  5
33A
100
AcDbEntity
  8
M01
100
AcDbLine
 10
826.678402
 20
547.459226
 30
0.0
 11
817.678402
 21
547.459226
 31
0.0
  0
LINE
  5
33B
100
AcDbEntity
  8
M01
100
AcDbLine
 10
827.178402
 20
546.659226
 30
0.0
 11
817.178402
 21
546.659226
 31
0.0
  0
LINE
  5
33C
100
AcDbEntity
  8
M01
100
AcDbLine
 10
817.678402
 20
544.359226
 30
0.0
 11
817.678402
 21
545.159226
 31
0.0
  0
LINE
  5
33D
100
AcDbEntity
  8
M01
100
AcDbLine
 10
826.678402
 20
544.359226
 30
0.0
 11
826.678402
 21
545.159226
 31
0.0
  0
ARC
  5
33E
100
AcDbEntity
  8
M01
100
AcDbCircle
 10
819.147313
 20
542.509921
 30
0.0
 40
1.150694
100
AcDbArc
 50
208.592423
 51
331.407577
  0
ARC
  5
33F
100
AcDbEntity
  8
M01
100
AcDbCircle
 10
822.178402
 20
545.062004
 30
0.0
 40
3.702778
100
AcDbArc
 50
236.92527
 51
303.07473
  0
ARC
  5
340
100
AcDbEntity
  8
M01
100
AcDbCircle
 10
825.209491
 20
542.509921
 30
0.0
 40
1.150694
100
AcDbArc
 50
208.592423
 51
331.407577
  0
ARC
  5
341
100
AcDbEntity
  8
M01
100
AcDbCircle
 10
819.147313
 20
543.208532
 30
0.0
 40
1.150694
100
AcDbArc
 50
28.592423
 51
151.407577
  0
ARC
  5
342
100
AcDbEntity
  8
M01
100
AcDbCircle
 10
822.178402
 20
540.656448
 30
0.0
 40
3.702778
100
AcDbArc
 50
56.92527
 51
123.07473
  0
LINE
  5
343
100
AcDbEntity
  8
M01
100
AcDbLine
 10
820.157676
 20
543.759226
 30
0.0
 11
820.157676
 21
541.959226
 31
0.0
  0
LINE
  5
344
100
AcDbEntity
  8
M01
100
AcDbLine
 10
818.13695
 20
543.759226
 30
0.0
 11
818.13695
 21
541.959226
 31
0.0
  0
ARC
  5
345
100
AcDbEntity
  8
M01
100
AcDbCircle
 10
825.209491
 20
543.208532
 30
0.0
 40
1.150694
100
AcDbArc
 50
28.592423
 51
151.407577
  0
LINE
  5
346
100
AcDbEntity
  8
M01
100
AcDbLine
 10
824.199128
 20
543.759226
 30
0.0
 11
824.199128
 21
541.959226
 31
0.0
  0
LINE
  5
347
100
AcDbEntity
  8
M01
100
AcDbLine
 10
826.219854
 20
543.759226
 30
0.0
 11
826.219854
 21
541.959226
 31
0.0
  0
LINE
  5
348
100
AcDbEntity
  8
M01
100
AcDbLine
 10
826.678402
 20
544.359226
 30
0.0
 11
817.678402
 21
544.359226
 31
0.0
  0
LINE
  5
349
100
AcDbEntity
  8
M01
100
AcDbLine
 10
826.678402
 20
541.359226
 30
0.0
 11
817.678402
 21
541.359226
 31
0.0
  0
LINE
  5
34A
100
AcDbEntity
  8
M01
100
AcDbLine
 10
826.678402
 20
540.559226
 30
0.0
 11
817.678402
 21
540.559226
 31
0.0
  0
LINE
  5
34B
100
AcDbEntity
  8
M01
100
AcDbLine
 10
820.678402
 20
553.559226
 30
0.0
 11
820.178402
 21
553.059226
 31
0.0
  0
LINE
  5
34C
100
AcDbEntity
  8
M01
100
AcDbLine
 10
824.178402
 20
553.059226
 30
0.0
 11
823.678402
 21
553.559226
 31
0.0
  0
LINE
  5
34D
100
AcDbEntity
  8
M01
100
AcDbLine
 10
824.178402
 20
553.059226
 30
0.0
 11
820.178402
 21
553.059226
 31
0.0
  0
LINE
  5
34E
100
AcDbEntity
  8
M01
100
AcDbLine
 10
820.678402
 20
553.559226
 30
0.0
 11
820.678402
 21
550.459226
 31
0.0
  0
LINE
  5
34F
100
AcDbEntity
  8
M01
100
AcDbLine
 10
823.678402
 20
553.559226
 30
0.0
 11
823.678402
 21
550.459226
 31
0.0
  0
LINE
  5
350
100
AcDbEntity
  8
M01
100
AcDbLine
 10
824.178402
 20
553.059226
 30
0.0
 11
824.178402
 21
550.459226
 31
0.0
  0
LINE
  5
351
100
AcDbEntity
  8
M01
100
AcDbLine
 10
820.178402
 20
553.059226
 30
0.0
 11
820.178402
 21
550.459226
 31
0.0
  0
LINE
  5
352
100
AcDbEntity
  8
M01
100
AcDbLine
 10
823.678402
 20
553.559226
 30
0.0
 11
820.678402
 21
553.559226
 31
0.0
  0
LINE
  5
353
100
AcDbEntity
  8
M01
100
AcDbLine
 10
827.178402
 20
528.559226
 30
0.0
 11
817.178402
 21
528.559226
 31
0.0
  0
LINE
  5
354
100
AcDbEntity
  8
M01
100
AcDbLine
 10
817.678402
 20
541.359226
 30
0.0
 11
817.678402
 21
540.559226
 31
0.0
  0
LINE
  5
355
100
AcDbEntity
  8
M01
100
AcDbLine
 10
826.678402
 20
541.359226
 30
0.0
 11
826.678402
 21
540.559226
 31
0.0
  0
LINE
  5
356
100
AcDbEntity
  8
CENTRE
100
AcDbLine
 10
822.178402
 20
559.720115
 30
0.0
 11
822.178402
 21
496.126684
 31
0.0
  0
LINE
  5
357
100
AcDbEntity
  8
M01
100
AcDbLine
 10
438.296623
 20
550.459226
 30
0.0
 11
432.234446
 21
550.459226
 31
0.0
  0
ARC
  5
358
100
AcDbEntity
  8
M01
100
AcDbCircle
 10
432.234446
 20
548.609921
 30
0.0
 40
1.150694
100
AcDbArc
 50
208.592423
 51
331.407577
  0
ARC
  5
359
100
AcDbEntity
  8
M01
100
AcDbCircle
 10
435.265534
 20
551.162004
 30
0.0
 40
3.702778
100
AcDbArc
 50
236.92527
 51
303.07473
  0
ARC
  5
35A
100
AcDbEntity
  8
M01
100
AcDbCircle
 10
438.296623
 20
548.609921
 30
0.0
 40
1.150694
100
AcDbArc
 50
208.592423
 51
331.407577
  0
ARC
  5
35B
100
AcDbEntity
  8
M01
100
AcDbCircle
 10
432.234446
 20
549.308532
 30
0.0
 40
1.150694
100
AcDbArc
 50
28.592423
 51
151.407577
  0
ARC
  5
35C
100
AcDbEntity
  8
M01
100
AcDbCircle
 10
435.265534
 20
546.756448
 30
0.0
 40
3.702778
100
AcDbArc
 50
56.92527
 51
123.07473
  0
LINE
  5
35D
100
AcDbEntity
  8
M01
100
AcDbLine
 10
433.244808
 20
549.859226
 30
0.0
 11
433.244808
 21
548.059226
 31
0.0
  0
LINE
  5
35E
100
AcDbEntity
  8
M01
100
AcDbLine
 10
431.224083
 20
549.859226
 30
0.0
 11
431.224083
 21
548.059226
 31
0.0
  0
ARC
  5
35F
100
AcDbEntity
  8
M01
100
AcDbCircle
 10
438.296623
 20
549.308532
 30
0.0
 40
1.150694
100
AcDbArc
 50
28.592423
 51
151.407577
  0
LINE
  5
360
100
AcDbEntity
  8
M01
100
AcDbLine
 10
437.28626
 20
549.859226
 30
0.0
 11
437.28626
 21
548.059226
 31
0.0
  0
LINE
  5
361
100
AcDbEntity
  8
M01
100
AcDbLine
 10
439.306986
 20
549.859226
 30
0.0
 11
439.306986
 21
548.059226
 31
0.0
  0
LINE
  5
362
100
AcDbEntity
  8
M01
100
AcDbLine
 10
430.265534
 20
545.159226
 30
0.0
 11
430.265534
 21
546.659226
 31
0.0
  0
LINE
  5
363
100
AcDbEntity
  8
M01
100
AcDbLine
 10
440.265534
 20
545.159226
 30
0.0
 11
440.265534
 21
546.659226
 31
0.0
  0
LINE
  5
364
100
AcDbEntity
  8
M01
100
AcDbLine
 10
430.765534
 20
546.659226
 30
0.0
 11
430.765534
 21
547.459226
 31
0.0
  0
LINE
  5
365
100
AcDbEntity
  8
M01
100
AcDbLine
 10
439.765534
 20
546.659226
 30
0.0
 11
439.765534
 21
547.459226
 31
0.0
  0
LINE
  5
366
100
AcDbEntity
  8
M01
100
AcDbLine
 10
439.765534
 20
547.459226
 30
0.0
 11
430.765534
 21
547.459226
 31
0.0
  0
LINE
  5
367
100
AcDbEntity
  8
M01
100
AcDbLine
 10
440.265534
 20
546.659226
 30
0.0
 11
430.265534
 21
546.659226
 31
0.0
  0
LINE
  5
368
100
AcDbEntity
  8
M01
100
AcDbLine
 10
430.765534
 20
544.359226
 30
0.0
 11
430.765534
 21
545.159226
 31
0.0
  0
LINE
  5
369
100
AcDbEntity
  8
M01
100
AcDbLine
 10
439.765534
 20
544.359226
 30
0.0
 11
439.765534
 21
545.159226
 31
0.0
  0
LINE
  5
36A
100
AcDbEntity
  8
M01
100
AcDbLine
 10
440.265534
 20
545.159226
 30
0.0
 11
430.265534
 21
545.159226
 31
0.0
  0
ARC
  5
36B
100
AcDbEntity
  8
M01
100
AcDbCircle
 10
432.234446
 20
542.509921
 30
0.0
 40
1.150694
100
AcDbArc
 50
208.592423
 51
331.407577
  0
ARC
  5
36C
100
AcDbEntity
  8
M01
100
AcDbCircle
 10
435.265534
 20
545.062004
 30
0.0
 40
3.702778
100
AcDbArc
 50
236.92527
 51
303.07473
  0
ARC
  5
36D
100
AcDbEntity
  8
M01
100
AcDbCircle
 10
438.296623
 20
542.509921
 30
0.0
 40
1.150694
100
AcDbArc
 50
208.592423
 51
331.407577
  0
ARC
  5
36E
100
AcDbEntity
  8
M01
100
AcDbCircle
 10
432.234446
 20
543.208532
 30
0.0
 40
1.150694
100
AcDbArc
 50
28.592423
 51
151.407577
  0
ARC
  5
36F
100
AcDbEntity
  8
M01
100
AcDbCircle
 10
435.265534
 20
540.656448
 30
0.0
 40
3.702778
100
AcDbArc
 50
56.92527
 51
123.07473
  0
LINE
  5
370
100
AcDbEntity
  8
M01
100
AcDbLine
 10
433.244808
 20
543.759226
 30
0.0
 11
433.244808
 21
541.959226
 31
0.0
  0
LINE
  5
371
100
AcDbEntity
  8
M01
100
AcDbLine
 10
431.224083
 20
543.759226
 30
0.0
 11
431.224083
 21
541.959226
 31
0.0
  0
ARC
  5
372
100
AcDbEntity
  8
M01
100
AcDbCircle
 10
438.296623
 20
543.208532
 30
0.0
 40
1.150694
100
AcDbArc
 50
28.592423
 51
151.407577
  0
LINE
  5
373
100
AcDbEntity
  8
M01
100
AcDbLine
 10
437.28626
 20
543.759226
 30
0.0
 11
437.28626
 21
541.959226
 31
0.0
  0
LINE
  5
374
100
AcDbEntity
  8
M01
100
AcDbLine
 10
439.306986
 20
543.759226
 30
0.0
 11
439.306986
 21
541.959226
 31
0.0
  0
LINE
  5
375
100
AcDbEntity
  8
M01
100
AcDbLine
 10
439.765534
 20
544.359226
 30
0.0
 11
430.765534
 21
544.359226
 31
0.0
  0
LINE
  5
376
100
AcDbEntity
  8
M01
100
AcDbLine
 10
439.765534
 20
541.359226
 30
0.0
 11
430.765534
 21
541.359226
 31
0.0
  0
LINE
  5
377
100
AcDbEntity
  8
M01
100
AcDbLine
 10
433.765534
 20
553.559226
 30
0.0
 11
433.265534
 21
553.059226
 31
0.0
  0
LINE
  5
378
100
AcDbEntity
  8
M01
100
AcDbLine
 10
437.265534
 20
553.059226
 30
0.0
 11
436.765534
 21
553.559226
 31
0.0
  0
LINE
  5
379
100
AcDbEntity
  8
M01
100
AcDbLine
 10
437.265534
 20
553.059226
 30
0.0
 11
433.265534
 21
553.059226
 31
0.0
  0
LINE
  5
37A
100
AcDbEntity
  8
M01
100
AcDbLine
 10
433.765534
 20
553.559226
 30
0.0
 11
433.765534
 21
550.459226
 31
0.0
  0
LINE
  5
37B
100
AcDbEntity
  8
M01
100
AcDbLine
 10
436.765534
 20
553.559226
 30
0.0
 11
436.765534
 21
550.459226
 31
0.0
  0
LINE
  5
37C
100
AcDbEntity
  8
M01
100
AcDbLine
 10
437.265534
 20
553.059226
 30
0.0
 11
437.265534
 21
550.459226
 31
0.0
  0
LINE
  5
37D
100
AcDbEntity
  8
M01
100
AcDbLine
 10
433.265534
 20
553.059226
 30
0.0
 11
433.265534
 21
550.459226
 31
0.0
  0
LINE
  5
37E
100
AcDbEntity
  8
M01
100
AcDbLine
 10
436.765534
 20
553.559226
 30
0.0
 11
433.765534
 21
553.559226
 31
0.0
  0
LINE
  5
37F
100
AcDbEntity
  8
M01
100
AcDbLine
 10
440.265534
 20
528.559226
 30
0.0
 11
430.265534
 21
528.559226
 31
0.0
  0
LINE
  5
380
100
AcDbEntity
  8
CENTRE
100
AcDbLine
 10
435.265534
 20
559.720115
 30
0.0
 11
435.265534
 21
496.126684
 31
0.0
  0
LINE
  5
381
100
AcDbEntity
  8
M01
100
AcDbLine
 10
408.234446
 20
550.459226
 30
0.0
 11
414.296623
 21
550.459226
 31
0.0
  0
ARC
  5
382
100
AcDbEntity
  8
M01
100
AcDbCircle
 10
414.296623
 20
548.609921
 30
0.0
 40
1.150694
100
AcDbArc
 50
208.592423
 51
331.407577
  0
ARC
  5
383
100
AcDbEntity
  8
M01
100
AcDbCircle
 10
411.265534
 20
551.162004
 30
0.0
 40
3.702778
100
AcDbArc
 50
236.92527
 51
303.07473
  0
ARC
  5
384
100
AcDbEntity
  8
M01
100
AcDbCircle
 10
408.234446
 20
548.609921
 30
0.0
 40
1.150694
100
AcDbArc
 50
208.592423
 51
331.407577
  0
ARC
  5
385
100
AcDbEntity
  8
M01
100
AcDbCircle
 10
414.296623
 20
549.308532
 30
0.0
 40
1.150694
100
AcDbArc
 50
28.592423
 51
151.407577
  0
ARC
  5
386
100
AcDbEntity
  8
M01
100
AcDbCircle
 10
411.265534
 20
546.756448
 30
0.0
 40
3.702778
100
AcDbArc
 50
56.92527
 51
123.07473
  0
LINE
  5
387
100
AcDbEntity
  8
M01
100
AcDbLine
 10
413.28626
 20
549.859226
 30
0.0
 11
413.28626
 21
548.059226
 31
0.0
  0
LINE
  5
388
100
AcDbEntity
  8
M01
100
AcDbLine
 10
415.306986
 20
549.859226
 30
0.0
 11
415.306986
 21
548.059226
 31
0.0
  0
ARC
  5
389
100
AcDbEntity
  8
M01
100
AcDbCircle
 10
408.234446
 20
549.308532
 30
0.0
 40
1.150694
100
AcDbArc
 50
28.592423
 51
151.407577
  0
LINE
  5
38A
100
AcDbEntity
  8
M01
100
AcDbLine
 10
409.244808
 20
549.859226
 30
0.0
 11
409.244808
 21
548.059226
 31
0.0
  0
LINE
  5
38B
100
AcDbEntity
  8
M01
100
AcDbLine
 10
407.224083
 20
549.859226
 30
0.0
 11
407.224083
 21
548.059226
 31
0.0
  0
LINE
  5
38C
100
AcDbEntity
  8
M01
100
AcDbLine
 10
416.265534
 20
545.159226
 30
0.0
 11
416.265534
 21
546.659226
 31
0.0
  0
LINE
  5
38D
100
AcDbEntity
  8
M01
100
AcDbLine
 10
406.265534
 20
545.159226
 30
0.0
 11
406.265534
 21
546.659226
 31
0.0
  0
LINE
  5
38E
100
AcDbEntity
  8
M01
100
AcDbLine
 10
415.765534
 20
546.659226
 30
0.0
 11
415.765534
 21
547.459226
 31
0.0
  0
LINE
  5
38F
100
AcDbEntity
  8
M01
100
AcDbLine
 10
406.765534
 20
546.659226
 30
0.0
 11
406.765534
 21
547.459226
 31
0.0
  0
LINE
  5
390
100
AcDbEntity
  8
M01
100
AcDbLine
 10
406.765534
 20
547.459226
 30
0.0
 11
415.765534
 21
547.459226
 31
0.0
  0
LINE
  5
391
100
AcDbEntity
  8
M01
100
AcDbLine
 10
406.265534
 20
546.659226
 30
0.0
 11
416.265534
 21
546.659226
 31
0.0
  0
LINE
  5
392
100
AcDbEntity
  8
M01
100
AcDbLine
 10
415.765534
 20
544.359226
 30
0.0
 11
415.765534
 21
545.159226
 31
0.0
  0
LINE
  5
393
100
AcDbEntity
  8
M01
100
AcDbLine
 10
406.765534
 20
544.359226
 30
0.0
 11
406.765534
 21
545.159226
 31
0.0
  0
LINE
  5
394
100
AcDbEntity
  8
M01
100
AcDbLine
 10
406.265534
 20
545.159226
 30
0.0
 11
416.265534
 21
545.159226
 31
0.0
  0
ARC
  5
395
100
AcDbEntity
  8
M01
100
AcDbCircle
 10
414.296623
 20
542.509921
 30
0.0
 40
1.150694
100
AcDbArc
 50
208.592423
 51
331.407577
  0
ARC
  5
396
100
AcDbEntity
  8
M01
100
AcDbCircle
 10
411.265534
 20
545.062004
 30
0.0
 40
3.702778
100
AcDbArc
 50
236.92527
 51
303.07473
  0
ARC
  5
397
100
AcDbEntity
  8
M01
100
AcDbCircle
 10
408.234446
 20
542.509921
 30
0.0
 40
1.150694
100
AcDbArc
 50
208.592423
 51
331.407577
  0
ARC
  5
398
100
AcDbEntity
  8
M01
100
AcDbCircle
 10
414.296623
 20
543.208532
 30
0.0
 40
1.150694
100
AcDbArc
 50
28.592423
 51
151.407577
  0
ARC
  5
399
100
AcDbEntity
  8
M01
100
AcDbCircle
 10
411.265534
 20
540.656448
 30
0.0
 40
3.702778
100
AcDbArc
 50
56.92527
 51
123.07473
  0
LINE
  5
39A
100
AcDbEntity
  8
M01
100
AcDbLine
 10
413.28626
 20
543.759226
 30
0.0
 11
413.28626
 21
541.959226
 31
0.0
  0
LINE
  5
39B
100
AcDbEntity
  8
M01
100
AcDbLine
 10
415.306986
 20
543.759226
 30
0.0
 11
415.306986
 21
541.959226
 31
0.0
  0
ARC
  5
39C
100
AcDbEntity
  8
M01
100
AcDbCircle
 10
408.234446
 20
543.208532
 30
0.0
 40
1.150694
100
AcDbArc
 50
28.592423
 51
151.407577
  0
LINE
  5
39D
100
AcDbEntity
  8
M01
100
AcDbLine
 10
409.244808
 20
543.759226
 30
0.0
 11
409.244808
 21
541.959226
 31
0.0
  0
LINE
  5
39E
100
AcDbEntity
  8
M01
100
AcDbLine
 10
407.224083
 20
543.759226
 30
0.0
 11
407.224083
 21
541.959226
 31
0.0
  0
LINE
  5
39F
100
AcDbEntity
  8
M01
100
AcDbLine
 10
406.765534
 20
544.359226
 30
0.0
 11
415.765534
 21
544.359226
 31
0.0
  0
LINE
  5
3A0
100
AcDbEntity
  8
M01
100
AcDbLine
 10
406.765534
 20
541.359226
 30
0.0
 11
415.765534
 21
541.359226
 31
0.0
  0
LINE
  5
3A1
100
AcDbEntity
  8
M01
100
AcDbLine
 10
406.765534
 20
540.559226
 30
0.0
 11
415.765534
 21
540.559226
 31
0.0
  0
LINE
  5
3A2
100
AcDbEntity
  8
M01
100
AcDbLine
 10
177.265534
 20
260.513886
 30
0.0
 11
173.265534
 21
256.513886
 31
0.0
  0
LINE
  5
3A3
102
{ACAD_REACTORS
330
22
102
}
100
AcDbEntity
  8
M01
100
AcDbLine
 10
419.265534
 20
252.513886
 30
0.0
 11
173.265534
 21
252.513886
 31
0.0
  0
LINE
  5
3A4
102
{ACAD_REACTORS
330
22
102
}
100
AcDbEntity
  8
M01
100
AcDbLine
 10
177.265534
 20
260.513886
 30
0.0
 11
177.265534
 21
280.013886
 31
0.0
  0
LINE
  5
3A5
102
{ACAD_REACTORS
330
22
102
}
100
AcDbEntity
  8
M01
100
AcDbLine
 10
169.265534
 20
256.513886
 30
0.0
 11
169.265534
 21
280.013886
 31
0.0
  0
ARC
  5
3A6
102
{ACAD_REACTORS
330
22
102
}
100
AcDbEntity
  8
M01
100
AcDbCircle
 10
173.265534
 20
256.513886
 30
0.0
 40
4.0
100
AcDbArc
 50
180.0
 51
270.0
  0
LINE
  5
3A7
100
AcDbEntity
  8
M01
100
AcDbLine
 10
419.265534
 20
252.513886
 30
0.0
 11
423.265534
 21
256.513886
 31
0.0
  0
LINE
  5
3A8
100
AcDbEntity
  8
M01
100
AcDbLine
 10
427.265534
 20
252.513886
 30
0.0
 11
423.265534
 21
256.513886
 31
0.0
  0
LINE
  5
3A9
100
AcDbEntity
  8
M01
100
AcDbLine
 10
669.265534
 20
260.513886
 30
0.0
 11
673.265534
 21
256.513886
 31
0.0
  0
LINE
  5
3AA
102
{ACAD_REACTORS
330
22
102
}
100
AcDbEntity
  8
M01
100
AcDbLine
 10
177.265534
 20
260.513886
 30
0.0
 11
669.265534
 21
260.513886
 31
0.0
  0
LINE
  5
3AB
102
{ACAD_REACTORS
330
22
102
}
100
AcDbEntity
  8
M01
100
AcDbLine
 10
427.265534
 20
252.513886
 30
0.0
 11
673.265534
 21
252.513886
 31
0.0
  0
LINE
  5
3AC
102
{ACAD_REACTORS
330
22
102
}
100
AcDbEntity
  8
M01
100
AcDbLine
 10
669.265534
 20
260.513886
 30
0.0
 11
669.265534
 21
280.013886
 31
0.0
  0
LINE
  5
3AD
102
{ACAD_REACTORS
330
22
102
}
100
AcDbEntity
  8
M01
100
AcDbLine
 10
677.265534
 20
256.513886
 30
0.0
 11
677.265534
 21
280.013886
 31
0.0
  0
ARC
  5
3AE
102
{ACAD_REACTORS
330
22
102
}
100
AcDbEntity
  8
M01
100
AcDbCircle
 10
673.265534
 20
256.513886
 30
0.0
 40
4.0
100
AcDbArc
 50
270.0
 51
0.0
  0
LINE
  5
3AF
102
{ACAD_REACTORS
330
20
102
}
100
AcDbEntity
  8
M02
100
AcDbLine
 10
687.265534
 20
230.013886
 30
0.0
 11
703.265534
 21
230.013886
 31
0.0
  0
LINE
  5
3B0
102
{ACAD_REACTORS
330
22
102
}
100
AcDbEntity
  8
M05
  6
HIDDEN
100
AcDbLine
 10
659.265534
 20
233.313886
 30
0.0
 11
687.265534
 21
233.313886
 31
0.0
  0
LINE
  5
3B1
102
{ACAD_REACTORS
330
22
102
}
100
AcDbEntity
  8
M05
  6
HIDDEN
100
AcDbLine
 10
687.265534
 20
233.313886
 30
0.0
 11
686.565534
 21
234.013886
 31
0.0
  0
LINE
  5
3B2
102
{ACAD_REACTORS
330
22
102
}
100
AcDbEntity
  8
M05
  6
HIDDEN
100
AcDbLine
 10
687.265534
 20
232.313886
 30
0.0
 11
687.265534
 21
233.313886
 31
0.0
  0
LINE
  5
3B3
100
AcDbEntity
  8
M05
100
AcDbLine
 10
687.265534
 20
232.313886
 30
0.0
 11
686.565534
 21
233.013886
 31
0.0
  0
LINE
  5
3B4
100
AcDbEntity
  8
M05
100
AcDbLine
 10
687.265534
 20
226.713886
 30
0.0
 11
686.565534
 21
226.013886
 31
0.0
  0
LINE
  5
3B5
100
AcDbEntity
  8
M05
100
AcDbLine
 10
687.265534
 20
232.313886
 30
0.0
 11
687.265534
 21
226.713886
 31
0.0
  0
LINE
  5
3B6
102
{ACAD_REACTORS
330
22
102
}
100
AcDbEntity
  8
M05
  6
HIDDEN
100
AcDbLine
 10
659.265534
 20
233.313886
 30
0.0
 11
659.965534
 21
234.013886
 31
0.0
  0
LINE
  5
3B7
102
{ACAD_REACTORS
330
22
102
}
100
AcDbEntity
  8
M05
  6
HIDDEN
100
AcDbLine
 10
659.265534
 20
232.313886
 30
0.0
 11
659.265534
 21
233.313886
 31
0.0
  0
LINE
  5
3B8
100
AcDbEntity
  8
M05
100
AcDbLine
 10
659.265534
 20
232.313886
 30
0.0
 11
659.965534
 21
233.013886
 31
0.0
  0
LINE
  5
3B9
100
AcDbEntity
  8
M05
100
AcDbLine
 10
659.265534
 20
226.713886
 30
0.0
 11
659.965534
 21
226.013886
 31
0.0
  0
LINE
  5
3BA
102
{ACAD_REACTORS
330
20
102
}
100
AcDbEntity
  8
M02
100
AcDbLine
 10
688.265534
 20
233.013886
 30
0.0
 11
688.265534
 21
230.013886
 31
0.0
  0
LINE
  5
3BB
102
{ACAD_REACTORS
330
20
102
}
100
AcDbEntity
  8
M02
100
AcDbLine
 10
658.265534
 20
233.013886
 30
0.0
 11
658.265534
 21
230.013886
 31
0.0
  0
LINE
  5
3BC
102
{ACAD_REACTORS
330
22
102
}
100
AcDbEntity
  8
M05
  6
HIDDEN
100
AcDbLine
 10
659.965534
 20
234.013886
 30
0.0
 11
686.565534
 21
234.013886
 31
0.0
  0
LINE
  5
3BD
100
AcDbEntity
  8
M05
100
AcDbLine
 10
659.265534
 20
232.313886
 30
0.0
 11
659.265534
 21
226.713886
 31
0.0
  0
LINE
  5
3BE
102
{ACAD_REACTORS
330
22
102
}
100
AcDbEntity
  8
CENTRE
100
AcDbLine
 10
673.265534
 20
238.522996
 30
0.0
 11
673.265534
 21
205.444658
 31
0.0
  0
TEXT
  5
3BF
102
{ACAD_REACTORS
330
127
102
}
100
AcDbEntity
  8
TEXT
100
AcDbText
 10
428.339615
 20
228.581373
 30
0.0
 40
2.0
  1
MA010000
 41
0.9
100
AcDbText
  0
TEXT
  5
3C0
102
{ACAD_REACTORS
330
1A3
102
}
100
AcDbEntity
  8
TEXT
100
AcDbText
 10
855.685054
 20
438.380683
 30
0.0
 40
2.0
  1
MA010000
 41
0.9
100
AcDbText
  0
LINE
  5
3C1
100
AcDbEntity
  8
M04
100
AcDbLine
 10
393.265534
 20
208.013886
 30
0.0
 11
393.265534
 21
199.013886
 31
0.0
  0
LINE
  5
3C2
100
AcDbEntity
  8
M04
100
AcDbLine
 10
442.765534
 20
226.013886
 30
0.0
 11
670.265534
 21
226.013886
 31
0.0
  0
LINE
  5
3C3
102
{ACAD_REACTORS
330
20
102
}
100
AcDbEntity
  8
M02
100
AcDbLine
 10
457.265534
 20
230.013886
 30
0.0
 11
659.265534
 21
230.013886
 31
0.0
  0
LINE
  5
3C4
102
{ACAD_REACTORS
330
127
102
}
100
AcDbEntity
  8
M05
100
AcDbLine
 10
389.265534
 20
227.713886
 30
0.0
 11
389.965534
 21
227.013886
 31
0.0
  0
LINE
  5
3C5
102
{ACAD_REACTORS
330
21
102
}
100
AcDbEntity
  8
M02
100
AcDbLine
 10
388.265534
 20
233.013886
 30
0.0
 11
388.265534
 21
230.013886
 31
0.0
  0
LINE
  5
3C6
102
{ACAD_REACTORS
330
127
330
22
102
}
100
AcDbEntity
  8
M01
100
AcDbLine
 10
433.265534
 20
233.013886
 30
0.0
 11
446.265534
 21
233.013886
 31
0.0
  0
LINE
  5
3C7
100
AcDbEntity
  8
M04
100
AcDbLine
 10
393.265534
 20
208.013886
 30
0.0
 11
453.265534
 21
208.013886
 31
0.0
  0
LINE
  5
3C8
100
AcDbEntity
  8
M04
100
AcDbLine
 10
403.265534
 20
218.013886
 30
0.0
 11
393.265534
 21
208.013886
 31
0.0
  0
LINE
  5
3C9
100
AcDbEntity
  8
M04
100
AcDbLine
 10
453.265534
 20
208.013886
 30
0.0
 11
453.265534
 21
199.013886
 31
0.0
  0
LINE
  5
3CA
100
AcDbEntity
  8
M04
100
AcDbLine
 10
443.265534
 20
218.013886
 30
0.0
 11
453.265534
 21
208.013886
 31
0.0
  0
LINE
  5
3CB
100
AcDbEntity
  8
M05
100
AcDbLine
 10
420.22466
 20
224.712671
 30
0.0
 11
426.306408
 21
224.712671
 31
0.0
  0
ARC
  5
3CC
102
{ACAD_REACTORS
330
127
102
}
100
AcDbEntity
  8
M05
100
AcDbCircle
 10
423.265534
 20
209.513886
 30
0.0
 40
15.5
100
AcDbArc
 50
101.313981
 51
126.249321
  0
LINE
  5
3CD
102
{ACAD_REACTORS
330
22
102
}
100
AcDbEntity
  8
M01
100
AcDbLine
 10
419.265534
 20
252.513886
 30
0.0
 11
419.265534
 21
243.013886
 31
0.0
  0
LINE
  5
3CE
102
{ACAD_REACTORS
330
127
102
}
100
AcDbEntity
  8
M05
100
AcDbLine
 10
419.265534
 20
243.013886
 30
0.0
 11
420.22466
 21
224.712671
 31
0.0
  0
LINE
  5
3CF
102
{ACAD_REACTORS
330
127
102
}
100
AcDbEntity
  8
M05
100
AcDbLine
 10
427.265534
 20
243.013886
 30
0.0
 11
426.306408
 21
224.712671
 31
0.0
  0
ARC
  5
3D0
102
{ACAD_REACTORS
330
127
102
}
100
AcDbEntity
  8
M05
100
AcDbCircle
 10
423.265534
 20
209.513886
 30
0.0
 40
15.5
100
AcDbArc
 50
53.750679
 51
78.686019
  0
LINE
  5
3D1
102
{ACAD_REACTORS
330
22
102
}
100
AcDbEntity
  8
M01
100
AcDbLine
 10
427.265534
 20
252.513886
 30
0.0
 11
427.265534
 21
243.013886
 31
0.0
  0
LINE
  5
3D2
100
AcDbEntity
  8
M04
100
AcDbLine
 10
403.265534
 20
224.013886
 30
0.0
 11
403.265534
 21
226.013886
 31
0.0
  0
LINE
  5
3D3
100
AcDbEntity
  8
M04
100
AcDbLine
 10
403.265534
 20
222.713886
 30
0.0
 11
403.265534
 21
218.013886
 31
0.0
  0
LINE
  5
3D4
100
AcDbEntity
  8
M04
100
AcDbLine
 10
443.265534
 20
224.013886
 30
0.0
 11
443.265534
 21
226.013886
 31
0.0
  0
LINE
  5
3D5
100
AcDbEntity
  8
M04
100
AcDbLine
 10
443.265534
 20
222.713886
 30
0.0
 11
443.265534
 21
218.013886
 31
0.0
  0
LINE
  5
3D6
100
AcDbEntity
  8
M04
100
AcDbLine
 10
443.265534
 20
218.013886
 30
0.0
 11
403.265534
 21
218.013886
 31
0.0
  0
LINE
  5
3D7
102
{ACAD_REACTORS
330
127
102
}
100
AcDbEntity
  8
M05
100
AcDbLine
 10
403.765534
 20
224.013886
 30
0.0
 11
403.265534
 21
224.013886
 31
0.0
  0
LINE
  5
3D8
102
{ACAD_REACTORS
330
127
102
}
100
AcDbEntity
  8
M05
100
AcDbLine
 10
403.765534
 20
227.013886
 30
0.0
 11
389.965534
 21
227.013886
 31
0.0
  0
LINE
  5
3D9
102
{ACAD_REACTORS
330
127
102
}
100
AcDbEntity
  8
M05
100
AcDbLine
 10
403.765534
 20
227.013886
 30
0.0
 11
403.765534
 21
224.013886
 31
0.0
  0
LINE
  5
3DA
102
{ACAD_REACTORS
330
127
102
}
100
AcDbEntity
  8
M05
100
AcDbLine
 10
442.765534
 20
227.013886
 30
0.0
 11
442.765534
 21
224.013886
 31
0.0
  0
LINE
  5
3DB
102
{ACAD_REACTORS
330
127
102
}
100
AcDbEntity
  8
M05
100
AcDbLine
 10
443.265534
 20
224.013886
 30
0.0
 11
442.765534
 21
224.013886
 31
0.0
  0
LINE
  5
3DC
102
{ACAD_REACTORS
330
127
102
}
100
AcDbEntity
  8
M05
100
AcDbLine
 10
403.965534
 20
222.013886
 30
0.0
 11
403.265534
 21
222.713886
 31
0.0
  0
LINE
  5
3DD
102
{ACAD_REACTORS
330
127
102
}
100
AcDbEntity
  8
M05
100
AcDbLine
 10
442.565534
 20
222.013886
 30
0.0
 11
443.265534
 21
222.713886
 31
0.0
  0
LINE
  5
3DE
102
{ACAD_REACTORS
330
127
102
}
100
AcDbEntity
  8
M05
100
AcDbLine
 10
442.565534
 20
222.013886
 30
0.0
 11
403.965534
 21
222.013886
 31
0.0
  0
LINE
  5
3DF
102
{ACAD_REACTORS
330
127
102
}
100
AcDbEntity
  8
M05
100
AcDbLine
 10
403.265534
 20
224.013886
 30
0.0
 11
403.265534
 21
222.713886
 31
0.0
  0
LINE
  5
3E0
102
{ACAD_REACTORS
330
127
102
}
100
AcDbEntity
  8
M05
100
AcDbLine
 10
443.265534
 20
224.013886
 30
0.0
 11
443.265534
 21
222.713886
 31
0.0
  0
LINE
  5
3E1
102
{ACAD_REACTORS
330
22
102
}
100
AcDbEntity
  8
M04
100
AcDbLine
 10
413.265534
 20
233.513886
 30
0.0
 11
412.765534
 21
233.013886
 31
0.0
  0
LINE
  5
3E2
102
{ACAD_REACTORS
330
22
102
}
100
AcDbEntity
  8
M04
100
AcDbLine
 10
433.265534
 20
233.513886
 30
0.0
 11
433.765534
 21
233.013886
 31
0.0
  0
LINE
  5
3E3
102
{ACAD_REACTORS
330
127
102
}
100
AcDbEntity
  8
M05
100
AcDbLine
 10
389.265534
 20
232.313886
 30
0.0
 11
389.965534
 21
233.013886
 31
0.0
  0
LINE
  5
3E4
102
{ACAD_REACTORS
330
127
102
}
100
AcDbEntity
  8
M05
100
AcDbLine
 10
389.265534
 20
232.313886
 30
0.0
 11
389.265534
 21
227.713886
 31
0.0
  0
LINE
  5
3E5
102
{ACAD_REACTORS
330
127
102
}
100
AcDbEntity
  8
M05
100
AcDbLine
 10
457.265534
 20
232.313886
 30
0.0
 11
456.565534
 21
233.013886
 31
0.0
  0
LINE
  5
3E6
102
{ACAD_REACTORS
330
127
102
}
100
AcDbEntity
  8
M05
100
AcDbLine
 10
457.265534
 20
227.713886
 30
0.0
 11
456.565534
 21
227.013886
 31
0.0
  0
LINE
  5
3E7
102
{ACAD_REACTORS
330
20
102
}
100
AcDbEntity
  8
M02
100
AcDbLine
 10
458.265534
 20
233.013886
 30
0.0
 11
458.265534
 21
230.013886
 31
0.0
  0
LINE
  5
3E8
102
{ACAD_REACTORS
330
127
102
}
100
AcDbEntity
  8
M05
100
AcDbLine
 10
456.565534
 20
227.013886
 30
0.0
 11
442.765534
 21
227.013886
 31
0.0
  0
LINE
  5
3E9
102
{ACAD_REACTORS
330
127
102
}
100
AcDbEntity
  8
M05
100
AcDbLine
 10
457.265534
 20
232.313886
 30
0.0
 11
457.265534
 21
227.713886
 31
0.0
  0
LINE
  5
3EA
102
{ACAD_REACTORS
330
22
102
}
100
AcDbEntity
  8
M04
100
AcDbLine
 10
413.265534
 20
242.013886
 30
0.0
 11
413.265534
 21
243.013886
 31
0.0
  0
LINE
  5
3EB
102
{ACAD_REACTORS
330
22
102
}
100
AcDbEntity
  8
M04
100
AcDbLine
 10
414.265534
 20
243.013886
 30
0.0
 11
413.265534
 21
243.013886
 31
0.0
  0
LINE
  5
3EC
102
{ACAD_REACTORS
330
22
102
}
100
AcDbEntity
  8
M04
100
AcDbLine
 10
433.265534
 20
242.013886
 30
0.0
 11
433.265534
 21
243.013886
 31
0.0
  0
LINE
  5
3ED
102
{ACAD_REACTORS
330
22
102
}
100
AcDbEntity
  8
M04
100
AcDbLine
 10
432.265534
 20
243.013886
 30
0.0
 11
433.265534
 21
243.013886
 31
0.0
  0
LINE
  5
3EE
102
{ACAD_REACTORS
330
127
102
}
100
AcDbEntity
  8
M05
100
AcDbLine
 10
432.265534
 20
243.013886
 30
0.0
 11
433.265534
 21
242.013886
 31
0.0
  0
LINE
  5
3EF
102
{ACAD_REACTORS
330
127
102
}
100
AcDbEntity
  8
M05
100
AcDbLine
 10
413.265534
 20
242.013886
 30
0.0
 11
414.265534
 21
243.013886
 31
0.0
  0
LINE
  5
3F0
102
{ACAD_REACTORS
330
127
330
22
102
}
100
AcDbEntity
  8
M05
100
AcDbLine
 10
432.265534
 20
243.013886
 30
0.0
 11
414.265534
 21
243.013886
 31
0.0
  0
LINE
  5
3F1
102
{ACAD_REACTORS
330
127
330
22
102
}
100
AcDbEntity
  8
M05
100
AcDbLine
 10
413.265534
 20
242.013886
 30
0.0
 11
413.265534
 21
233.013886
 31
0.0
  0
LINE
  5
3F2
102
{ACAD_REACTORS
330
127
330
22
102
}
100
AcDbEntity
  8
M05
100
AcDbLine
 10
433.265534
 20
242.013886
 30
0.0
 11
433.265534
 21
233.013886
 31
0.0
  0
LINE
  5
3F3
100
AcDbEntity
  8
M04
100
AcDbLine
 10
444.990534
 20
287.013886
 30
0.0
 11
712.265534
 21
287.013886
 31
0.0
  0
LINE
  5
3F4
102
{ACAD_REACTORS
330
20
102
}
100
AcDbEntity
  8
M02
100
AcDbLine
 10
444.990534
 20
283.013886
 30
0.0
 11
703.265534
 21
283.013886
 31
0.0
  0
LINE
  5
3F5
102
{ACAD_REACTORS
330
20
102
}
100
AcDbEntity
  8
M02
100
AcDbLine
 10
446.490534
 20
283.013886
 30
0.0
 11
446.490534
 21
280.013886
 31
0.0
  0
LINE
  5
3F6
102
{ACAD_REACTORS
330
21
102
}
100
AcDbEntity
  8
M02
100
AcDbLine
 10
143.265534
 20
230.013886
 30
0.0
 11
159.265534
 21
230.013886
 31
0.0
  0
LINE
  5
3F7
102
{ACAD_REACTORS
330
20
102
}
100
AcDbEntity
  8
M02
100
AcDbLine
 10
703.265534
 20
233.013886
 30
0.0
 11
703.265534
 21
230.013886
 31
0.0
  0
LINE
  5
3F8
102
{ACAD_REACTORS
330
21
102
}
100
AcDbEntity
  8
M02
100
AcDbLine
 10
143.265534
 20
233.013886
 30
0.0
 11
143.265534
 21
230.013886
 31
0.0
  0
LINE
  5
3F9
102
{ACAD_REACTORS
330
21
102
}
100
AcDbEntity
  8
M02
100
AcDbLine
 10
143.265534
 20
283.013886
 30
0.0
 11
401.540534
 21
283.013886
 31
0.0
  0
LINE
  5
3FA
102
{ACAD_REACTORS
330
20
102
}
100
AcDbEntity
  8
M02
100
AcDbLine
 10
703.265534
 20
280.013886
 30
0.0
 11
703.265534
 21
283.013886
 31
0.0
  0
LINE
  5
3FB
102
{ACAD_REACTORS
330
21
102
}
100
AcDbEntity
  8
M02
100
AcDbLine
 10
143.265534
 20
280.013886
 30
0.0
 11
143.265534
 21
283.013886
 31
0.0
  0
LINE
  5
3FC
102
{ACAD_REACTORS
330
22
102
}
100
AcDbEntity
  8
M01
100
AcDbLine
 10
705.265534
 20
235.013886
 30
0.0
 11
703.265534
 21
233.013886
 31
0.0
  0
LINE
  5
3FD
102
{ACAD_REACTORS
330
22
102
}
100
AcDbEntity
  8
M01
100
AcDbLine
 10
703.265534
 20
280.013886
 30
0.0
 11
705.265534
 21
278.013886
 31
0.0
  0
LINE
  5
3FE
102
{ACAD_REACTORS
330
22
102
}
100
AcDbEntity
  8
M01
100
AcDbLine
 10
141.265534
 20
278.013886
 30
0.0
 11
143.265534
 21
280.013886
 31
0.0
  0
LINE
  5
3FF
102
{ACAD_REACTORS
330
22
102
}
100
AcDbEntity
  8
M01
100
AcDbLine
 10
143.265534
 20
233.013886
 30
0.0
 11
141.265534
 21
235.013886
 31
0.0
  0
LINE
  5
400
102
{ACAD_REACTORS
330
22
102
}
100
AcDbEntity
  8
M01
100
AcDbLine
 10
705.265534
 20
278.013886
 30
0.0
 11
705.265534
 21
235.013886
 31
0.0
  0
LINE
  5
401
102
{ACAD_REACTORS
330
22
102
}
100
AcDbEntity
  8
M01
100
AcDbLine
 10
141.265534
 20
278.013886
 30
0.0
 11
141.265534
 21
235.013886
 31
0.0
  0
LINE
  5
402
102
{ACAD_REACTORS
330
127
330
DC
330
22
330
21
102
}
100
AcDbEntity
  8
M01
100
AcDbLine
 10
143.265534
 20
233.013886
 30
0.0
 11
413.265534
 21
233.013886
 31
0.0
  0
LINE
  5
403
102
{ACAD_REACTORS
330
22
330
21
330
20
102
}
100
AcDbEntity
  8
M01
100
AcDbLine
 10
143.265534
 20
280.013886
 30
0.0
 11
703.265534
 21
280.013886
 31
0.0
  0
LINE
  5
404
100
AcDbEntity
  8
M04
100
AcDbLine
 10
134.265534
 20
287.013886
 30
0.0
 11
401.540534
 21
287.013886
 31
0.0
  0
LINE
  5
405
102
{ACAD_REACTORS
330
22
102
}
100
AcDbEntity
  8
CENTRE
100
AcDbLine
 10
423.265534
 20
317.276091
 30
0.0
 11
423.265534
 21
189.693943
 31
0.0
  0
LINE
  5
406
100
AcDbEntity
  8
M04
100
AcDbLine
 10
712.265534
 20
287.013886
 30
0.0
 11
712.265534
 21
226.013886
 31
0.0
  0
LINE
  5
407
100
AcDbEntity
  8
M04
100
AcDbLine
 10
134.265534
 20
287.013886
 30
0.0
 11
134.265534
 21
226.013886
 31
0.0
  0
LINE
  5
408
102
{ACAD_REACTORS
330
DC
102
}
100
AcDbEntity
  8
M04
100
AcDbLine
 10
116.714753
 20
226.013886
 30
0.0
 11
170.265534
 21
226.013886
 31
0.0
  0
LINE
  5
409
100
AcDbEntity
  8
M04
100
AcDbLine
 10
842.178402
 20
568.559226
 30
0.0
 11
852.178402
 21
578.559226
 31
0.0
  0
LINE
  5
40A
100
AcDbEntity
  8
M04
100
AcDbLine
 10
852.178402
 20
589.230704
 30
0.0
 11
852.178402
 21
578.559226
 31
0.0
  0
LINE
  5
40B
100
AcDbEntity
  8
M04
100
AcDbLine
 10
888.178402
 20
402.559226
 30
0.0
 11
888.178402
 21
462.559226
 31
0.0
  0
LINE
  5
40C
100
AcDbEntity
  8
M04
100
AcDbLine
 10
888.178402
 20
402.559226
 30
0.0
 11
897.178402
 21
402.559226
 31
0.0
  0
LINE
  5
40D
100
AcDbEntity
  8
M04
100
AcDbLine
 10
878.178402
 20
412.559226
 30
0.0
 11
888.178402
 21
402.559226
 31
0.0
  0
LINE
  5
40E
100
AcDbEntity
  8
M04
100
AcDbLine
 10
809.178402
 20
568.559226
 30
0.0
 11
870.178402
 21
568.559226
 31
0.0
  0
LINE
  5
40F
100
AcDbEntity
  8
M04
100
AcDbLine
 10
888.178402
 20
462.559226
 30
0.0
 11
897.178402
 21
462.559226
 31
0.0
  0
LINE
  5
410
100
AcDbEntity
  8
M04
100
AcDbLine
 10
878.178402
 20
452.559226
 30
0.0
 11
888.178402
 21
462.559226
 31
0.0
  0
LINE
  5
411
100
AcDbEntity
  8
M05
100
AcDbLine
 10
871.479616
 20
429.518352
 30
0.0
 11
871.479616
 21
435.6001
 31
0.0
  0
ARC
  5
412
102
{ACAD_REACTORS
330
1A3
102
}
100
AcDbEntity
  8
M05
100
AcDbCircle
 10
886.678402
 20
432.559226
 30
0.0
 40
15.5
100
AcDbArc
 50
191.313981
 51
216.249321
  0
LINE
  5
413
100
AcDbEntity
  8
M01
100
AcDbLine
 10
839.678402
 20
428.559226
 30
0.0
 11
853.178402
 21
428.559226
 31
0.0
  0
LINE
  5
414
102
{ACAD_REACTORS
330
1A3
102
}
100
AcDbEntity
  8
M05
100
AcDbLine
 10
853.178402
 20
428.559226
 30
0.0
 11
871.479616
 21
429.518352
 31
0.0
  0
LINE
  5
415
102
{ACAD_REACTORS
330
1A3
102
}
100
AcDbEntity
  8
M05
100
AcDbLine
 10
853.178402
 20
436.559226
 30
0.0
 11
871.479616
 21
435.6001
 31
0.0
  0
ARC
  5
416
102
{ACAD_REACTORS
330
1A3
102
}
100
AcDbEntity
  8
M05
100
AcDbCircle
 10
886.678402
 20
432.559226
 30
0.0
 40
15.5
100
AcDbArc
 50
143.750679
 51
168.686019
  0
LINE
  5
417
100
AcDbEntity
  8
M01
100
AcDbLine
 10
839.678402
 20
436.559226
 30
0.0
 11
853.178402
 21
436.559226
 31
0.0
  0
LINE
  5
418
100
AcDbEntity
  8
M04
100
AcDbLine
 10
872.178402
 20
412.559226
 30
0.0
 11
870.178402
 21
412.559226
 31
0.0
  0
LINE
  5
419
100
AcDbEntity
  8
M04
100
AcDbLine
 10
873.478402
 20
412.559226
 30
0.0
 11
878.178402
 21
412.559226
 31
0.0
  0
LINE
  5
41A
100
AcDbEntity
  8
M04
100
AcDbLine
 10
872.178402
 20
452.559226
 30
0.0
 11
870.178402
 21
452.559226
 31
0.0
  0
LINE
  5
41B
100
AcDbEntity
  8
M04
100
AcDbLine
 10
873.478402
 20
452.559226
 30
0.0
 11
878.178402
 21
452.559226
 31
0.0
  0
LINE
  5
41C
100
AcDbEntity
  8
M04
100
AcDbLine
 10
878.178402
 20
452.559226
 30
0.0
 11
878.178402
 21
412.559226
 31
0.0
  0
LINE
  5
41D
102
{ACAD_REACTORS
330
1A3
102
}
100
AcDbEntity
  8
M05
100
AcDbLine
 10
872.178402
 20
413.059226
 30
0.0
 11
872.178402
 21
412.559226
 31
0.0
  0
LINE
  5
41E
102
{ACAD_REACTORS
330
1A3
102
}
100
AcDbEntity
  8
M05
100
AcDbLine
 10
869.178402
 20
413.059226
 30
0.0
 11
869.178402
 21
401.259226
 31
0.0
  0
LINE
  5
41F
102
{ACAD_REACTORS
330
1A3
102
}
100
AcDbEntity
  8
M05
100
AcDbLine
 10
869.178402
 20
413.059226
 30
0.0
 11
872.178402
 21
413.059226
 31
0.0
  0
LINE
  5
420
102
{ACAD_REACTORS
330
1A3
102
}
100
AcDbEntity
  8
M05
100
AcDbLine
 10
869.178402
 20
452.059226
 30
0.0
 11
872.178402
 21
452.059226
 31
0.0
  0
LINE
  5
421
102
{ACAD_REACTORS
330
1A3
102
}
100
AcDbEntity
  8
M05
100
AcDbLine
 10
872.178402
 20
452.559226
 30
0.0
 11
872.178402
 21
452.059226
 31
0.0
  0
LINE
  5
422
100
AcDbEntity
  8
M04
100
AcDbLine
 10
870.178402
 20
413.059226
 30
0.0
 11
870.178402
 21
382.045835
 31
0.0
  0
LINE
  5
423
102
{ACAD_REACTORS
330
1A3
102
}
100
AcDbEntity
  8
M05
100
AcDbLine
 10
874.178402
 20
413.259226
 30
0.0
 11
873.478402
 21
412.559226
 31
0.0
  0
LINE
  5
424
102
{ACAD_REACTORS
330
1A3
102
}
100
AcDbEntity
  8
M05
100
AcDbLine
 10
874.178402
 20
451.859226
 30
0.0
 11
873.478402
 21
452.559226
 31
0.0
  0
LINE
  5
425
102
{ACAD_REACTORS
330
1A3
102
}
100
AcDbEntity
  8
M05
100
AcDbLine
 10
874.178402
 20
451.859226
 30
0.0
 11
874.178402
 21
413.259226
 31
0.0
  0
LINE
  5
426
102
{ACAD_REACTORS
330
1A3
102
}
100
AcDbEntity
  8
M05
100
AcDbLine
 10
872.178402
 20
412.559226
 30
0.0
 11
873.478402
 21
412.559226
 31
0.0
  0
LINE
  5
427
102
{ACAD_REACTORS
330
1A3
102
}
100
AcDbEntity
  8
M05
100
AcDbLine
 10
872.178402
 20
452.559226
 30
0.0
 11
873.478402
 21
452.559226
 31
0.0
  0
LINE
  5
428
100
AcDbEntity
  8
M04
100
AcDbLine
 10
862.678402
 20
422.559226
 30
0.0
 11
863.178402
 21
422.059226
 31
0.0
  0
LINE
  5
429
102
{ACAD_REACTORS
330
1A3
102
}
100
AcDbEntity
  8
M01
100
AcDbLine
 10
863.178402
 20
422.559226
 30
0.0
 11
863.178402
 21
402.559226
 31
0.0
  0
LINE
  5
42A
100
AcDbEntity
  8
M04
100
AcDbLine
 10
862.678402
 20
442.559226
 30
0.0
 11
863.178402
 21
443.059226
 31
0.0
  0
LINE
  5
42B
102
{ACAD_REACTORS
330
1A3
102
}
100
AcDbEntity
  8
M05
100
AcDbLine
 10
863.878402
 20
400.559226
 30
0.0
 11
863.178402
 21
401.259226
 31
0.0
  0
LINE
  5
42C
102
{ACAD_REACTORS
330
1A3
102
}
100
AcDbEntity
  8
M05
100
AcDbLine
 10
868.478402
 20
400.559226
 30
0.0
 11
869.178402
 21
401.259226
 31
0.0
  0
LINE
  5
42D
102
{ACAD_REACTORS
330
1A3
102
}
100
AcDbEntity
  8
M05
100
AcDbLine
 10
863.878402
 20
400.559226
 30
0.0
 11
868.478402
 21
400.559226
 31
0.0
  0
LINE
  5
42E
102
{ACAD_REACTORS
330
1A3
102
}
100
AcDbEntity
  8
M05
100
AcDbLine
 10
863.878402
 20
466.559226
 30
0.0
 11
863.178402
 21
465.859226
 31
0.0
  0
LINE
  5
42F
102
{ACAD_REACTORS
330
1A3
102
}
100
AcDbEntity
  8
M05
100
AcDbLine
 10
868.478402
 20
466.559226
 30
0.0
 11
869.178402
 21
465.859226
 31
0.0
  0
LINE
  5
430
102
{ACAD_REACTORS
330
2C7
102
}
100
AcDbEntity
  8
M02
100
AcDbLine
 10
863.178402
 20
467.559226
 30
0.0
 11
866.178402
 21
467.559226
 31
0.0
  0
LINE
  5
431
102
{ACAD_REACTORS
330
1A3
102
}
100
AcDbEntity
  8
M05
100
AcDbLine
 10
869.178402
 20
465.859226
 30
0.0
 11
869.178402
 21
452.059226
 31
0.0
  0
LINE
  5
432
102
{ACAD_REACTORS
330
1A3
102
}
100
AcDbEntity
  8
M05
100
AcDbLine
 10
863.878402
 20
466.559226
 30
0.0
 11
868.478402
 21
466.559226
 31
0.0
  0
LINE
  5
433
100
AcDbEntity
  8
M04
100
AcDbLine
 10
854.178402
 20
422.559226
 30
0.0
 11
853.178402
 21
422.559226
 31
0.0
  0
LINE
  5
434
100
AcDbEntity
  8
M04
100
AcDbLine
 10
853.178402
 20
423.559226
 30
0.0
 11
853.178402
 21
422.559226
 31
0.0
  0
LINE
  5
435
100
AcDbEntity
  8
M04
100
AcDbLine
 10
854.178402
 20
442.559226
 30
0.0
 11
853.178402
 21
442.559226
 31
0.0
  0
LINE
  5
436
100
AcDbEntity
  8
M04
100
AcDbLine
 10
853.178402
 20
441.559226
 30
0.0
 11
853.178402
 21
442.559226
 31
0.0
  0
LINE
  5
437
102
{ACAD_REACTORS
330
1A3
102
}
100
AcDbEntity
  8
M05
100
AcDbLine
 10
853.178402
 20
441.559226
 30
0.0
 11
854.178402
 21
442.559226
 31
0.0
  0
LINE
  5
438
102
{ACAD_REACTORS
330
1A3
102
}
100
AcDbEntity
  8
M05
100
AcDbLine
 10
854.178402
 20
422.559226
 30
0.0
 11
853.178402
 21
423.559226
 31
0.0
  0
LINE
  5
439
102
{ACAD_REACTORS
330
1A3
102
}
100
AcDbEntity
  8
M05
100
AcDbLine
 10
853.178402
 20
441.559226
 30
0.0
 11
853.178402
 21
423.559226
 31
0.0
  0
LINE
  5
43A
102
{ACAD_REACTORS
330
1A3
102
}
100
AcDbEntity
  8
M05
100
AcDbLine
 10
854.178402
 20
422.559226
 30
0.0
 11
863.178402
 21
422.559226
 31
0.0
  0
LINE
  5
43B
102
{ACAD_REACTORS
330
1A3
102
}
100
AcDbEntity
  8
M05
100
AcDbLine
 10
854.178402
 20
442.559226
 30
0.0
 11
863.178402
 21
442.559226
 31
0.0
  0
LINE
  5
43C
100
AcDbEntity
  8
M04
100
AcDbLine
 10
440.265534
 20
568.559226
 30
0.0
 11
440.265534
 21
589.230704
 31
0.0
  0
LINE
  5
43D
100
AcDbEntity
  8
M04
100
AcDbLine
 10
406.265534
 20
568.559226
 30
0.0
 11
406.265534
 21
589.230704
 31
0.0
  0
ARC
  5
43E
100
AcDbEntity
  8
M04
100
AcDbCircle
 10
440.265534
 20
553.559226
 30
0.0
 40
15.0
100
AcDbArc
 50
360.0
 51
90.0
  0
ARC
  5
43F
100
AcDbEntity
  8
M04
100
AcDbCircle
 10
406.265534
 20
553.559226
 30
0.0
 40
15.0
100
AcDbArc
 50
90.0
 51
180.0
  0
LINE
  5
440
100
AcDbEntity
  8
M04
100
AcDbLine
 10
406.265534
 20
568.559226
 30
0.0
 11
440.265534
 21
568.559226
 31
0.0
  0
LINE
  5
441
100
AcDbEntity
  8
M01
100
AcDbLine
 10
412.765534
 20
553.559226
 30
0.0
 11
413.265534
 21
553.059226
 31
0.0
  0
LINE
  5
442
100
AcDbEntity
  8
M01
100
AcDbLine
 10
409.265534
 20
553.059226
 30
0.0
 11
409.765534
 21
553.559226
 31
0.0
  0
LINE
  5
443
100
AcDbEntity
  8
M01
100
AcDbLine
 10
409.265534
 20
553.059226
 30
0.0
 11
413.265534
 21
553.059226
 31
0.0
  0
LINE
  5
444
100
AcDbEntity
  8
M01
100
AcDbLine
 10
412.765534
 20
553.559226
 30
0.0
 11
412.765534
 21
550.459226
 31
0.0
  0
LINE
  5
445
100
AcDbEntity
  8
M01
100
AcDbLine
 10
409.765534
 20
553.559226
 30
0.0
 11
409.765534
 21
550.459226
 31
0.0
  0
LINE
  5
446
100
AcDbEntity
  8
M01
100
AcDbLine
 10
409.265534
 20
553.059226
 30
0.0
 11
409.265534
 21
550.459226
 31
0.0
  0
LINE
  5
447
100
AcDbEntity
  8
M01
100
AcDbLine
 10
413.265534
 20
553.059226
 30
0.0
 11
413.265534
 21
550.459226
 31
0.0
  0
LINE
  5
448
100
AcDbEntity
  8
M04
100
AcDbLine
 10
793.869001
 20
503.059226
 30
0.0
 11
796.178402
 21
507.059226
 31
0.0
  0
LINE
  5
449
100
AcDbEntity
  8
M04
100
AcDbLine
 10
796.178402
 20
499.059226
 30
0.0
 11
793.869001
 21
503.059226
 31
0.0
  0
LINE
  5
44A
100
AcDbEntity
  8
M04
100
AcDbLine
 10
799.178402
 20
499.059226
 30
0.0
 11
796.178402
 21
499.059226
 31
0.0
  0
LINE
  5
44B
100
AcDbEntity
  8
M04
100
AcDbLine
 10
796.178402
 20
507.059226
 30
0.0
 11
796.178402
 21
499.059226
 31
0.0
  0
LINE
  5
44C
100
AcDbEntity
  8
M04
100
AcDbLine
 10
799.178402
 20
507.059226
 30
0.0
 11
796.178402
 21
507.059226
 31
0.0
  0
ARC
  5
44D
100
AcDbEntity
  8
M05
100
AcDbCircle
 10
808.516106
 20
503.059226
 30
0.0
 40
10.837705
100
AcDbArc
 50
161.372238
 51
198.627762
  0
LINE
  5
44E
100
AcDbEntity
  8
M05
100
AcDbLine
 10
799.178402
 20
499.059226
 30
0.0
 11
798.246149
 21
499.597463
 31
0.0
  0
LINE
  5
44F
100
AcDbEntity
  8
M05
100
AcDbLine
 10
798.246149
 20
506.520989
 30
0.0
 11
798.246149
 21
499.597463
 31
0.0
  0
LINE
  5
450
100
AcDbEntity
  8
M05
100
AcDbLine
 10
799.178402
 20
507.059226
 30
0.0
 11
798.246149
 21
506.520989
 31
0.0
  0
LINE
  5
451
100
AcDbEntity
  8
M05
100
AcDbLine
 10
799.178402
 20
507.059226
 30
0.0
 11
799.178402
 21
499.059226
 31
0.0
  0
LINE
  5
452
100
AcDbEntity
  8
M04
100
AcDbLine
 10
809.178402
 20
499.059226
 30
0.0
 11
809.178402
 21
454.284226
 31
0.0
  0
LINE
  5
453
100
AcDbEntity
  8
M04
100
AcDbLine
 10
808.678402
 20
499.059226
 30
0.0
 11
809.178402
 21
498.559226
 31
0.0
  0
LINE
  5
454
100
AcDbEntity
  8
M04
100
AcDbLine
 10
808.678402
 20
507.059226
 30
0.0
 11
809.178402
 21
507.559226
 31
0.0
  0
ARC
  5
455
100
AcDbEntity
  8
M05
100
AcDbCircle
 10
808.045069
 20
503.059226
 30
0.0
 40
13.633333
100
AcDbArc
 50
342.938469
 51
17.061531
  0
LINE
  5
456
100
AcDbEntity
  8
M05
100
AcDbLine
 10
821.078402
 20
507.059226
 30
0.0
 11
821.078402
 21
499.059226
 31
0.0
  0
LINE
  5
457
100
AcDbEntity
  8
M05
100
AcDbLine
 10
799.178402
 20
499.059226
 30
0.0
 11
821.078402
 21
499.059226
 31
0.0
  0
LINE
  5
458
100
AcDbEntity
  8
M05
100
AcDbLine
 10
799.178402
 20
507.059226
 30
0.0
 11
821.078402
 21
507.059226
 31
0.0
  0
CIRCLE
  5
459
100
AcDbEntity
  8
M01
100
AcDbCircle
 10
839.678402
 20
432.559226
 30
0.0
 40
4.0
  0
CIRCLE
  5
45A
100
AcDbEntity
  8
M03
100
AcDbCircle
 10
423.265534
 20
432.559226
 30
0.0
 40
20.0
  0
LINE
  5
45B
102
{ACAD_REACTORS
330
23
102
}
100
AcDbEntity
  8
M02
100
AcDbLine
 10
813.178402
 20
409.334226
 30
0.0
 11
816.178402
 21
409.334226
 31
0.0
  0
LINE
  5
45C
102
{ACAD_REACTORS
330
23
102
}
100
AcDbEntity
  8
M02
100
AcDbLine
 10
813.178402
 20
455.784226
 30
0.0
 11
816.178402
 21
455.784226
 31
0.0
  0
LINE
  5
45D
102
{ACAD_REACTORS
330
23
102
}
100
AcDbEntity
  8
M02
100
AcDbLine
 10
813.178402
 20
410.834226
 30
0.0
 11
813.178402
 21
402.559226
 31
0.0
  0
LINE
  5
45E
100
AcDbEntity
  8
M04
100
AcDbLine
 10
809.178402
 20
410.834226
 30
0.0
 11
809.178402
 21
393.559226
 31
0.0
  0
LINE
  5
45F
100
AcDbEntity
  8
M01
100
AcDbLine
 10
409.765534
 20
553.559226
 30
0.0
 11
412.765534
 21
553.559226
 31
0.0
  0
LINE
  5
460
100
AcDbEntity
  8
CENTRE
100
AcDbLine
 10
793.35348
 20
432.559226
 30
0.0
 11
903.070442
 21
432.559226
 31
0.0
  0
CIRCLE
  5
461
100
AcDbEntity
  8
M01
100
AcDbCircle
 10
423.265534
 20
432.559226
 30
0.0
 40
22.225
  0
LINE
  5
462
100
AcDbEntity
  8
M01
100
AcDbLine
 10
406.265534
 20
528.559226
 30
0.0
 11
416.265534
 21
528.559226
 31
0.0
  0
LINE
  5
463
100
AcDbEntity
  8
M01
100
AcDbLine
 10
415.765534
 20
541.359226
 30
0.0
 11
415.765534
 21
540.559226
 31
0.0
  0
LINE
  5
464
100
AcDbEntity
  8
M01
100
AcDbLine
 10
406.765534
 20
541.359226
 30
0.0
 11
406.765534
 21
540.559226
 31
0.0
  0
LINE
  5
465
100
AcDbEntity
  8
CENTRE
100
AcDbLine
 10
411.265534
 20
559.720115
 30
0.0
 11
411.265534
 21
496.126684
 31
0.0
  0
LINE
  5
466
100
AcDbEntity
  8
CENTRE
100
AcDbLine
 10
788.832284
 20
503.059226
 30
0.0
 11
826.921984
 21
503.059226
 31
0.0
  0
LINE
  5
467
100
AcDbEntity
  8
M04
100
AcDbLine
 10
870.178402
 20
589.230704
 30
0.0
 11
870.178402
 21
452.059226
 31
0.0
  0
LINE
  5
468
100
AcDbEntity
  8
M04
100
AcDbLine
 10
455.265534
 20
478.559226
 30
0.0
 11
462.265534
 21
471.559226
 31
0.0
  0
LINE
  5
469
100
AcDbEntity
  8
M04
100
AcDbLine
 10
384.265534
 20
471.559226
 30
0.0
 11
391.265534
 21
478.559226
 31
0.0
  0
ARC
  5
46A
100
AcDbEntity
  8
M04
100
AcDbCircle
 10
149.265534
 20
408.559226
 30
0.0
 40
15.0
100
AcDbArc
 50
180.0
 51
270.0
  0
ARC
  5
46B
100
AcDbEntity
  8
M04
100
AcDbCircle
 10
149.265534
 20
456.559226
 30
0.0
 40
15.0
100
AcDbArc
 50
90.0
 51
180.0
  0
ARC
  5
46C
100
AcDbEntity
  8
M04
100
AcDbCircle
 10
697.265534
 20
456.559226
 30
0.0
 40
15.0
100
AcDbArc
 50
0.0
 51
90.0
  0
ARC
  5
46D
100
AcDbEntity
  8
M04
100
AcDbCircle
 10
697.265534
 20
408.559226
 30
0.0
 40
15.0
100
AcDbArc
 50
270.0
 51
0.0
  0
LINE
  5
46E
100
AcDbEntity
  8
M04
100
AcDbLine
 10
134.265534
 20
456.559226
 30
0.0
 11
134.265534
 21
408.559226
 31
0.0
  0
LINE
  5
46F
100
AcDbEntity
  8
M04
100
AcDbLine
 10
149.265534
 20
471.559226
 30
0.0
 11
384.265534
 21
471.559226
 31
0.0
  0
LINE
  5
470
100
AcDbEntity
  8
M04
100
AcDbLine
 10
391.265534
 20
553.559226
 30
0.0
 11
391.265534
 21
478.559226
 31
0.0
  0
LINE
  5
471
100
AcDbEntity
  8
M04
100
AcDbLine
 10
455.265534
 20
553.559226
 30
0.0
 11
455.265534
 21
478.559226
 31
0.0
  0
LINE
  5
472
100
AcDbEntity
  8
M04
100
AcDbLine
 10
462.265534
 20
471.559226
 30
0.0
 11
697.265534
 21
471.559226
 31
0.0
  0
LINE
  5
473
100
AcDbEntity
  8
M04
100
AcDbLine
 10
712.265534
 20
456.559226
 30
0.0
 11
712.265534
 21
408.559226
 31
0.0
  0
LINE
  5
474
100
AcDbEntity
  8
M04
100
AcDbLine
 10
149.265534
 20
393.559226
 30
0.0
 11
697.265534
 21
393.559226
 31
0.0
  0
LINE
  5
475
100
AcDbEntity
  8
M04
100
AcDbLine
 10
809.178402
 20
393.559226
 30
0.0
 11
870.178402
 21
393.559226
 31
0.0
  0
LINE
  5
476
100
AcDbEntity
  8
M04
100
AcDbLine
 10
809.178402
 20
568.559226
 30
0.0
 11
809.178402
 21
507.059226
 31
0.0
  0
CIRCLE
  5
477
100
AcDbEntity
  8
M03
100
AcDbCircle
 10
423.265534
 20
432.559226
 30
0.0
 40
9.5
  0
CIRCLE
  5
478
100
AcDbEntity
  8
M03
100
AcDbCircle
 10
423.265534
 20
432.559226
 30
0.0
 40
4.0
  0
LINE
  5
479
100
AcDbEntity
  8
M03
100
AcDbLine
 10
173.265534
 20
428.559226
 30
0.0
 11
673.265534
 21
428.559226
 31
0.0
  0
LINE
  5
47A
100
AcDbEntity
  8
M03
100
AcDbLine
 10
173.265534
 20
436.559226
 30
0.0
 11
673.265534
 21
436.559226
 31
0.0
  0
CIRCLE
  5
47B
100
AcDbEntity
  8
M01
100
AcDbCircle
 10
673.265534
 20
432.559226
 30
0.0
 40
4.0
  0
CIRCLE
  5
47C
100
AcDbEntity
  8
M01
100
AcDbCircle
 10
173.265534
 20
432.559226
 30
0.0
 40
4.0
  0
LINE
  5
47D
102
{ACAD_REACTORS
330
23
102
}
100
AcDbEntity
  8
M02
100
AcDbLine
 10
816.178402
 20
496.559226
 30
0.0
 11
813.178402
 21
496.559226
 31
0.0
  0
LINE
  5
47E
100
AcDbEntity
  8
M01
100
AcDbLine
 10
816.178402
 20
496.559226
 30
0.0
 11
822.178402
 21
496.559226
 31
0.0
  0
LINE
  5
47F
100
AcDbEntity
  8
M01
100
AcDbLine
 10
822.178402
 20
508.559226
 30
0.0
 11
822.178402
 21
496.559226
 31
0.0
  0
LINE
  5
480
102
{ACAD_REACTORS
330
2C7
102
}
100
AcDbEntity
  8
M02
100
AcDbLine
 10
863.178402
 20
506.559226
 30
0.0
 11
866.178402
 21
506.559226
 31
0.0
  0
LINE
  5
481
102
{ACAD_REACTORS
330
23
102
}
100
AcDbEntity
  8
M02
100
AcDbLine
 10
816.178402
 20
402.559226
 30
0.0
 11
813.178402
 21
402.559226
 31
0.0
  0
LINE
  5
482
102
{ACAD_REACTORS
330
2C7
102
}
100
AcDbEntity
  8
M02
100
AcDbLine
 10
866.178402
 20
506.559226
 30
0.0
 11
866.178402
 21
466.559226
 31
0.0
  0
LINE
  5
483
102
{ACAD_REACTORS
330
23
102
}
100
AcDbEntity
  8
M02
100
AcDbLine
 10
813.178402
 20
499.059226
 30
0.0
 11
813.178402
 21
454.284226
 31
0.0
  0
LWPOLYLINE
  5
484
100
AcDbEntity
  8
M01
100
AcDbPolyline
 90
        2
 70
     0
 43
4.0
 10
423.265534
 20
505.059226
 42
0.414214
 10
421.265534
 20
503.059226
  0
LWPOLYLINE
  5
485
100
AcDbEntity
  8
M01
100
AcDbPolyline
 90
        2
 70
     0
 43
4.0
 10
423.265534
 20
501.059226
 42
0.414214
 10
425.265534
 20
503.059226
  0
CIRCLE
  5
486
100
AcDbEntity
  8
M01
100
AcDbCircle
 10
423.265534
 20
503.059226
 30
0.0
 40
4.0
  0
LINE
  5
487
100
AcDbEntity
  8
M01
100
AcDbLine
 10
427.265534
 20
500.559226
 30
0.0
 11
427.265534
 21
508.559226
 31
0.0
  0
LINE
  5
488
100
AcDbEntity
  8
M01
100
AcDbLine
 10
419.265534
 20
500.559226
 30
0.0
 11
419.265534
 21
508.559226
 31
0.0
  0
ARC
  5
489
100
AcDbEntity
  8
M01
100
AcDbCircle
 10
423.265534
 20
500.559226
 30
0.0
 40
4.0
100
AcDbArc
 50
180.0
 51
0.0
  0
LINE
  5
48A
100
AcDbEntity
  8
M01
100
AcDbLine
 10
863.178402
 20
402.559226
 30
0.0
 11
861.178402
 21
400.559226
 31
0.0
  0
LINE
  5
48B
100
AcDbEntity
  8
M01
100
AcDbLine
 10
861.178402
 20
508.559226
 30
0.0
 11
863.178402
 21
506.559226
 31
0.0
  0
LINE
  5
48C
100
AcDbEntity
  8
M01
100
AcDbLine
 10
817.178402
 20
507.559226
 30
0.0
 11
818.178402
 21
508.559226
 31
0.0
  0
LINE
  5
48D
100
AcDbEntity
  8
M01
100
AcDbLine
 10
818.178402
 20
400.559226
 30
0.0
 11
816.178402
 21
402.559226
 31
0.0
  0
LINE
  5
48E
102
{ACAD_REACTORS
330
2C7
330
1A3
102
}
100
AcDbEntity
  8
M01
100
AcDbLine
 10
863.178402
 20
506.559226
 30
0.0
 11
863.178402
 21
461.559226
 31
0.0
  0
LINE
  5
48F
100
AcDbEntity
  8
M01
100
AcDbLine
 10
818.178402
 20
400.559226
 30
0.0
 11
861.178402
 21
400.559226
 31
0.0
  0
LINE
  5
490
100
AcDbEntity
  8
M01
100
AcDbLine
 10
818.178402
 20
508.559226
 30
0.0
 11
861.178402
 21
508.559226
 31
0.0
  0
LINE
  5
491
102
{ACAD_REACTORS
330
23
102
}
100
AcDbEntity
  8
M01
100
AcDbLine
 10
816.178402
 20
499.059226
 30
0.0
 11
816.178402
 21
402.559226
 31
0.0
  0
LINE
  5
492
100
AcDbEntity
  8
M01
100
AcDbLine
 10
443.265534
 20
508.559226
 30
0.0
 11
445.265534
 21
506.559226
 31
0.0
  0
LINE
  5
493
100
AcDbEntity
  8
M01
100
AcDbLine
 10
401.265534
 20
506.559226
 30
0.0
 11
403.265534
 21
508.559226
 31
0.0
  0
LINE
  5
494
100
AcDbEntity
  8
M01
100
AcDbLine
 10
403.265534
 20
508.559226
 30
0.0
 11
443.265534
 21
508.559226
 31
0.0
  0
ARC
  5
495
100
AcDbEntity
  8
M01
100
AcDbCircle
 10
457.265534
 20
476.559226
 30
0.0
 40
12.0
100
AcDbArc
 50
180.0
 51
270.0
  0
ARC
  5
496
100
AcDbEntity
  8
M01
100
AcDbCircle
 10
389.265534
 20
476.559226
 30
0.0
 40
12.0
100
AcDbArc
 50
270.0
 51
0.0
  0
LINE
  5
497
100
AcDbEntity
  8
M01
100
AcDbLine
 10
457.265534
 20
464.559226
 30
0.0
 11
693.265534
 21
464.559226
 31
0.0
  0
LINE
  5
498
100
AcDbEntity
  8
M01
100
AcDbLine
 10
445.265534
 20
506.559226
 30
0.0
 11
445.265534
 21
476.559226
 31
0.0
  0
LINE
  5
499
100
AcDbEntity
  8
M01
100
AcDbLine
 10
401.265534
 20
506.559226
 30
0.0
 11
401.265534
 21
476.559226
 31
0.0
  0
LINE
  5
49A
100
AcDbEntity
  8
M01
100
AcDbLine
 10
705.265534
 20
412.559226
 30
0.0
 11
693.265534
 21
400.559226
 31
0.0
  0
LINE
  5
49B
100
AcDbEntity
  8
M01
100
AcDbLine
 10
693.265534
 20
464.559226
 30
0.0
 11
705.265534
 21
452.559226
 31
0.0
  0
LINE
  5
49C
100
AcDbEntity
  8
M01
100
AcDbLine
 10
141.265534
 20
452.559226
 30
0.0
 11
153.265534
 21
464.559226
 31
0.0
  0
LINE
  5
49D
100
AcDbEntity
  8
M01
100
AcDbLine
 10
153.265534
 20
400.559226
 30
0.0
 11
141.265534
 21
412.559226
 31
0.0
  0
LINE
  5
49E
100
AcDbEntity
  8
M01
100
AcDbLine
 10
153.265534
 20
400.559226
 30
0.0
 11
693.265534
 21
400.559226
 31
0.0
  0
LINE
  5
49F
100
AcDbEntity
  8
M01
100
AcDbLine
 10
153.265534
 20
464.559226
 30
0.0
 11
389.265534
 21
464.559226
 31
0.0
  0
LINE
  5
4A0
100
AcDbEntity
  8
M01
100
AcDbLine
 10
705.265534
 20
452.559226
 30
0.0
 11
705.265534
 21
412.559226
 31
0.0
  0
LINE
  5
4A1
100
AcDbEntity
  8
M01
100
AcDbLine
 10
141.265534
 20
452.559226
 30
0.0
 11
141.265534
 21
412.559226
 31
0.0
  0
LINE
  5
4A2
100
AcDbEntity
  8
CENTRE
100
AcDbLine
 10
423.265534
 20
523.559226
 30
0.0
 11
423.265534
 21
385.559226
 31
0.0
  0
LINE
  5
4A3
100
AcDbEntity
  8
CENTRE
100
AcDbLine
 10
126.265534
 20
432.559226
 30
0.0
 11
720.265534
 21
432.559226
 31
0.0
  0
ENDSEC
  0
SECTION
  2
OBJECTS
  0
DICTIONARY
  5
1C
100
AcDbDictionary
  3
ACAD_GROUP
350
1A
  3
ACAD_MLINESTYLE
350
1B
  0
DICTIONARY
  5
3
100
AcDbDictionary
280
     1
  3
ACAD_SORTENTS
360
4
  0
DICTIONARY
  5
1A
102
{ACAD_REACTORS
330
1C
102
}
100
AcDbDictionary
  0
DICTIONARY
  5
1B
102
{ACAD_REACTORS
330
1C
102
}
100
AcDbDictionary
  3
STANDARD
350
1E
  0
SORTENTSTABLE
  5
4
102
{ACAD_REACTORS
330
3
102
}
100
AcDbSortentsTable
330
2
  0
MLINESTYLE
  5
1E
102
{ACAD_REACTORS
330
1B
102
}
100
AcDbMlineStyle
  2
STANDARD
 70
     0
  3

 62
   256
 51
90.0
 52
90.0
 71
     2
 49
0.5
 62
   256
  6
BYLAYER
 49
-0.5
 62
   256
  6
BYLAYER
  0
ENDSEC
  0
EOF
