  0
SECTION
  2
HEADER
  9
$ACADVER
  1
AC1014
  9
$ACADMAINTVER
 70
     9
  9
$DWGCODEPAGE
  3
ANSI_1252
  9
$INSBASE
 10
0.0
 20
0.0
 30
0.0
  9
$EXTMIN
 10
173.770785
 20
160.959826
 30
-0.001526
  9
$EXTMAX
 10
1164.543643
 20
711.544313
 30
0.0
  9
$LIMMIN
 10
0.0
 20
0.0
  9
$LIMMAX
 10
1189.0
 20
841.0
  9
$ORTHOMODE
 70
     1
  9
$REGENMODE
 70
     1
  9
$FILLMODE
 70
     1
  9
$QTEXTMODE
 70
     0
  9
$MIRRTEXT
 70
     1
  9
$DRAGMODE
 70
     2
  9
$LTSCALE
 40
8.0
  9
$OSMODE
 70
     0
  9
$ATTMODE
 70
     1
  9
$TEXTSIZE
 40
3.0
  9
$TRACEWID
 40
10.0
  9
$TEXTSTYLE
  7
STANDARD
  9
$CLAYER
  8
HATCH
  9
$CELTYPE
  6
BYLAYER
  9
$CECOLOR
 62
   256
  9
$CELTSCALE
 40
1.0
  9
$DELOBJ
 70
     1
  9
$DISPSILH
 70
     0
  9
$DIMSCALE
 40
1.0
  9
$DIMASZ
 40
3.0
  9
$DIMEXO
 40
1.0
  9
$DIMDLI
 40
10.0
  9
$DIMRND
 40
0.01
  9
$DIMDLE
 40
1.25
  9
$DIMEXE
 40
2.5
  9
$DIMTP
 40
0.05
  9
$DIMTM
 40
0.0
  9
$DIMTXT
 40
3.0
  9
$DIMCEN
 40
-1.7
  9
$DIMTSZ
 40
0.0
  9
$DIMTOL
 70
     0
  9
$DIMLIM
 70
     0
  9
$DIMTIH
 70
     0
  9
$DIMTOH
 70
     0
  9
$DIMSE1
 70
     0
  9
$DIMSE2
 70
     0
  9
$DIMTAD
 70
     3
  9
$DIMZIN
 70
     1
  9
$DIMBLK
  1

  9
$DIMASO
 70
     1
  9
$DIMSHO
 70
     0
  9
$DIMPOST
  1

  9
$DIMAPOST
  1

  9
$DIMALT
 70
     0
  9
$DIMALTD
 70
     2
  9
$DIMALTF
 40
0.039
  9
$DIMLFAC
 40
1.0
  9
$DIMTOFL
 70
     0
  9
$DIMTVP
 40
1.5
  9
$DIMTIX
 70
     0
  9
$DIMSOXD
 70
     0
  9
$DIMSAH
 70
     0
  9
$DIMBLK1
  1

  9
$DIMBLK2
  1

  9
$DIMSTYLE
  2
DIM1
  9
$DIMCLRD
 70
     4
  9
$DIMCLRE
 70
     4
  9
$DIMCLRT
 70
     2
  9
$DIMTFAC
 40
0.7
  9
$DIMGAP
 40
1.5
  9
$DIMJUST
 70
     0
  9
$DIMSD1
 70
     0
  9
$DIMSD2
 70
     0
  9
$DIMTOLJ
 70
     1
  9
$DIMTZIN
 70
     1
  9
$DIMALTZ
 70
     1
  9
$DIMALTTZ
 70
     1
  9
$DIMFIT
 70
     0
  9
$DIMUPT
 70
     1
  9
$DIMUNIT
 70
     2
  9
$DIMDEC
 70
     2
  9
$DIMTDEC
 70
     2
  9
$DIMALTU
 70
     2
  9
$DIMALTTD
 70
     2
  9
$DIMTXSTY
  7
STANDARD
  9
$DIMAUNIT
 70
     0
  9
$LUNITS
 70
     2
  9
$LUPREC
 70
     2
  9
$SKETCHINC
 40
1.0
  9
$FILLETRAD
 40
10.0
  9
$AUNITS
 70
     0
  9
$AUPREC
 70
     3
  9
$MENU
  1
ACAD
  9
$ELEVATION
 40
0.0
  9
$PELEVATION
 40
0.0
  9
$THICKNESS
 40
0.0
  9
$LIMCHECK
 70
     0
  9
$BLIPMODE
 70
     1
  9
$CHAMFERA
 40
0.7
  9
$CHAMFERB
 40
0.7
  9
$CHAMFERC
 40
0.0
  9
$CHAMFERD
 40
0.0
  9
$SKPOLY
 70
     1
  9
$TDCREATE
 40
2449993.725698611
  9
$TDUPDATE
 40
2451970.611692453
  9
$TDINDWG
 40
0.9582407755
  9
$TDUSRTIMER
 40
0.9582407755
  9
$USRTIMER
 70
     1
  9
$ANGBASE
 50
0.0
  9
$ANGDIR
 70
     0
  9
$PDMODE
 70
     3
  9
$PDSIZE
 40
0.0
  9
$PLINEWID
 40
0.0
  9
$COORDS
 70
     2
  9
$SPLFRAME
 70
     0
  9
$SPLINETYPE
 70
     6
  9
$SPLINESEGS
 70
     6
  9
$ATTDIA
 70
     1
  9
$ATTREQ
 70
     1
  9
$HANDLING
 70
     1
  9
$HANDSEED
  5
4A5
  9
$SURFTAB1
 70
    12
  9
$SURFTAB2
 70
    12
  9
$SURFTYPE
 70
     6
  9
$SURFU
 70
    12
  9
$SURFV
 70
    12
  9
$UCSNAME
  2

  9
$UCSORG
 10
0.0
 20
0.0
 30
0.0
  9
$UCSXDIR
 10
1.0
 20
0.0
 30
0.0
  9
$UCSYDIR
 10
0.0
 20
1.0
 30
0.0
  9
$PUCSNAME
  2

  9
$PUCSORG
 10
0.0
 20
0.0
 30
0.0
  9
$PUCSXDIR
 10
1.0
 20
0.0
 30
0.0
  9
$PUCSYDIR
 10
0.0
 20
1.0
 30
0.0
  9
$USERI1
 70
     0
  9
$USERI2
 70
     0
  9
$USERI3
 70
     0
  9
$USERI4
 70
     0
  9
$USERI5
 70
     0
  9
$USERR1
 40
0.0
  9
$USERR2
 40
0.0
  9
$USERR3
 40
0.0
  9
$USERR4
 40
0.0
  9
$USERR5
 40
0.0
  9
$WORLDVIEW
 70
     0
  9
$SHADEDGE
 70
     3
  9
$SHADEDIF
 70
    70
  9
$TILEMODE
 70
     1
  9
$MAXACTVP
 70
    16
  9
$PINSBASE
 10
0.0
 20
0.0
 30
0.0
  9
$PLIMCHECK
 70
     0
  9
$PEXTMIN
 10
1.000000E+20
 20
1.000000E+20
 30
1.000000E+20
  9
$PEXTMAX
 10
-1.000000E+20
 20
-1.000000E+20
 30
-1.000000E+20
  9
$PLIMMIN
 10
0.0
 20
0.0
  9
$PLIMMAX
 10
12.0
 20
9.0
  9
$UNITMODE
 70
     0
  9
$VISRETAIN
 70
     0
  9
$PLINEGEN
 70
     0
  9
$PSLTSCALE
 70
     0
  9
$TREEDEPTH
 70
  3020
  9
$PICKSTYLE
 70
     1
  9
$CMLSTYLE
  2
STANDARD
  9
$CMLJUST
 70
     0
  9
$CMLSCALE
 40
1.0
  9
$PROXYGRAPHICS
 70
     1
  9
$MEASUREMENT
 70
     0
  0
ENDSEC
  0
SECTION
  2
CLASSES
  0
CLASS
  1
DICTIONARYVAR
  2
AcDbDictionaryVar
  3
"AutoCAD"
 90
        0
280
     0
281
     0
  0
CLASS
  1
LWPOLYLINE
  2
AcDbPolyline
  3
"AutoCAD"
 90
        0
280
     0
281
     1
  0
CLASS
  1
HATCH
  2
AcDbHatch
  3
"ACAD_SEDONA"
 90
        0
280
     0
281
     1
  0
CLASS
  1
SORTENTSTABLE
  2
AcDbSortentsTable
  3
"AutoCAD"
 90
        0
280
     0
281
     0
  0
CLASS
  1
WIPEOUTVARIABLES
  2
AcDbWipeoutVariables
  3
WIPEOUT
 90
        0
280
     0
281
     0
  0
CLASS
  1
WIPEOUT
  2
AcDbWipeout
  3
WIPEOUT
 90
      127
280
     0
281
     1
  0
ENDSEC
  0
SECTION
  2
TABLES
  0
TABLE
  2
VPORT
  5
14
100
AcDbSymbolTable
 70
     2
  0
VPORT
  5
4A4
100
AcDbSymbolTableRecord
100
AcDbViewportTableRecord
  2
*ACTIVE
 70
     0
 10
0.0
 20
0.0
 11
1.0
 21
1.0
 12
579.380039
 22
375.405099
 13
0.0
 23
0.0
 14
10.0
 24
10.0
 15
0.0
 25
0.0
 16
0.0
 26
0.0
 36
1.0
 17
16.313321
 27
12.779115
 37
0.222949
 40
461.133915
 41
1.494382
 42
50.0
 43
0.0
 44
0.0
 50
0.0
 51
0.0
 71
     0
 72
  2000
 73
     1
 74
     2
 75
     0
 76
     0
 77
     0
 78
     1
  0
ENDTAB
  0
TABLE
  2
LTYPE
  5
F
100
AcDbSymbolTable
 70
     3
  0
LTYPE
  5
10
100
AcDbSymbolTableRecord
100
AcDbLinetypeTableRecord
  2
BYBLOCK
 70
     0
  3

 72
    65
 73
     0
 40
0.0
  0
LTYPE
  5
11
100
AcDbSymbolTableRecord
100
AcDbLinetypeTableRecord
  2
BYLAYER
 70
     0
  3

 72
    65
 73
     0
 40
0.0
  0
LTYPE
  5
7
100
AcDbSymbolTableRecord
100
AcDbLinetypeTableRecord
  2
CONTINUOUS
 70
     0
  3
Solid line
 72
    65
 73
     0
 40
0.0
  0
LTYPE
  5
167
100
AcDbSymbolTableRecord
100
AcDbLinetypeTableRecord
  2
CENTER
 70
     0
  3
Center ____ _ ____ _ ____ _ ____ _ ____ _ ____
 72
    65
 73
     4
 40
2.0
 49
1.25
 74
     0
 49
-0.25
 74
     0
 49
0.25
 74
     0
 49
-0.25
 74
     0
  0
LTYPE
  5
60
100
AcDbSymbolTableRecord
100
AcDbLinetypeTableRecord
  2
HIDDEN
 70
     0
  3
Hidden __ __ __ __ __ __ __ __ __ __ __ __ __ _
 72
    65
 73
     2
 40
0.375
 49
0.25
 74
     0
 49
-0.125
 74
     0
  0
ENDTAB
  0
TABLE
  2
LAYER
  5
C
100
AcDbSymbolTable
 70
    11
  0
LAYER
  5
6
100
AcDbSymbolTableRecord
100
AcDbLayerTableRecord
  2
0
 70
     0
 62
     7
  6
CONTINUOUS
  0
LAYER
  5
166
100
AcDbSymbolTableRecord
100
AcDbLayerTableRecord
  2
CENTRE
 70
     0
 62
     3
  6
CENTER
  0
LAYER
  5
C0
100
AcDbSymbolTableRecord
100
AcDbLayerTableRecord
  2
M01
 70
     0
 62
     1
  6
CONTINUOUS
  0
LAYER
  5
8D
100
AcDbSymbolTableRecord
100
AcDbLayerTableRecord
  2
M02
 70
     0
 62
     2
  6
CONTINUOUS
  0
LAYER
  5
5F
100
AcDbSymbolTableRecord
100
AcDbLayerTableRecord
  2
M03
 70
     0
 62
     2
  6
HIDDEN
  0
LAYER
  5
5C
100
AcDbSymbolTableRecord
100
AcDbLayerTableRecord
  2
M04
 70
     0
 62
     7
  6
CONTINUOUS
  0
LAYER
  5
6A
100
AcDbSymbolTableRecord
100
AcDbLayerTableRecord
  2
M05
 70
     0
 62
     5
  6
CONTINUOUS
  0
LAYER
  5
25
100
AcDbSymbolTableRecord
100
AcDbLayerTableRecord
  2
DIMS
 70
     0
 62
     4
  6
CONTINUOUS
  0
LAYER
  5
8B
100
AcDbSymbolTableRecord
100
AcDbLayerTableRecord
  2
TEXT
 70
     0
 62
     2
  6
CONTINUOUS
  0
LAYER
  5
1D
100
AcDbSymbolTableRecord
100
AcDbLayerTableRecord
  2
HATCH
 70
     0
 62
     4
  6
CONTINUOUS
  0
LAYER
  5
2E
100
AcDbSymbolTableRecord
100
AcDbLayerTableRecord
  2
DEFPOINTS
 70
     0
 62
     7
  6
CONTINUOUS
  0
ENDTAB
  0
TABLE
  2
STYLE
  5
D
100
AcDbSymbolTable
 70
     1
  0
STYLE
  5
E
100
AcDbSymbolTableRecord
100
AcDbTextStyleTableRecord
  2
STANDARD
 70
     0
 40
0.0
 41
1.0
 50
0.0
 71
     0
 42
3.0
  3
SIMPLEX
  4

  0
ENDTAB
  0
TABLE
  2
VIEW
  5
12
100
AcDbSymbolTable
 70
     0
  0
ENDTAB
  0
TABLE
  2
UCS
  5
13
100
AcDbSymbolTable
 70
     0
  0
ENDTAB
  0
TABLE
  2
APPID
  5
16
100
AcDbSymbolTable
 70
     1
  0
APPID
  5
17
100
AcDbSymbolTableRecord
100
AcDbRegAppTableRecord
  2
ACAD
 70
     0
  0
ENDTAB
  0
TABLE
  2
DIMSTYLE
  5
18
100
AcDbSymbolTable
 70
     2
  0
DIMSTYLE
105
1F
102
{ACAD_REACTORS
330
24
330
33
330
40
330
4D
330
1E7
330
20B
330
218
330
226
330
234
330
2CB
330
2D8
330
2E5
330
2F2
102
}
100
AcDbSymbolTableRecord
100
AcDbDimStyleTableRecord
  2
DIM1
 70
     0
  3

  4

  5

  6

  7

 40
1.0
 41
3.0
 42
1.0
 43
10.0
 44
2.5
 45
0.01
 46
1.25
 47
0.05
 48
0.0
140
3.0
141
-1.7
142
0.0
143
0.039
144
0.2
145
1.5
146
0.7
147
1.5
 71
     0
 72
     0
 73
     0
 74
     0
 75
     0
 76
     0
 77
     3
 78
     1
170
     0
171
     2
172
     0
173
     0
174
     0
175
     0
176
     4
177
     4
178
     2
270
     2
271
     2
272
     2
273
     2
274
     2
340
E
275
     0
280
     0
281
     0
282
     0
283
     1
284
     1
285
     1
286
     1
287
     0
288
     0
  0
DIMSTYLE
105
1C1
100
AcDbSymbolTableRecord
100
AcDbDimStyleTableRecord
  2
DIM1$7
 70
     0
  3

  4

  5

  6

  7

 40
1.0
 41
3.0
 42
1.0
 43
10.0
 44
2.5
 45
0.01
 46
1.25
 47
0.0
 48
0.0
140
3.0
141
-1.7
142
0.0
143
0.039
144
1.0
145
0.0
146
1.0
147
1.5
 71
     0
 72
     0
 73
     0
 74
     0
 75
     0
 76
     0
 77
     0
 78
     1
170
     0
171
     2
172
     0
173
     0
174
     0
175
     0
176
     4
177
     4
178
     2
270
     2
271
     2
272
     2
273
     2
274
     2
340
E
275
     0
280
     0
281
     0
282
     0
283
     1
284
     1
285
     1
286
     1
287
     0
288
     0
  0
ENDTAB
  0
TABLE
  2
BLOCK_RECORD
  5
1
100
AcDbSymbolTable
 70
    13
  0
BLOCK_RECORD
  5
2
102
{ACAD_XDICTIONARY
360
3
102
}
100
AcDbSymbolTableRecord
100
AcDbBlockTableRecord
  2
*MODEL_SPACE
  0
BLOCK_RECORD
  5
9
100
AcDbSymbolTableRecord
100
AcDbBlockTableRecord
  2
*PAPER_SPACE
  0
BLOCK_RECORD
  5
26
100
AcDbSymbolTableRecord
100
AcDbBlockTableRecord
  2
*D0
  0
BLOCK_RECORD
  5
34
100
AcDbSymbolTableRecord
100
AcDbBlockTableRecord
  2
*D1
  0
BLOCK_RECORD
  5
41
100
AcDbSymbolTableRecord
100
AcDbBlockTableRecord
  2
*D2
  0
BLOCK_RECORD
  5
4E
100
AcDbSymbolTableRecord
100
AcDbBlockTableRecord
  2
*D3
  0
BLOCK_RECORD
  5
1E8
100
AcDbSymbolTableRecord
100
AcDbBlockTableRecord
  2
*D4
  0
BLOCK_RECORD
  5
20C
100
AcDbSymbolTableRecord
100
AcDbBlockTableRecord
  2
*D5
  0
BLOCK_RECORD
  5
219
100
AcDbSymbolTableRecord
100
AcDbBlockTableRecord
  2
*D6
  0
BLOCK_RECORD
  5
227
100
AcDbSymbolTableRecord
100
AcDbBlockTableRecord
  2
*D7
  0
BLOCK_RECORD
  5
235
100
AcDbSymbolTableRecord
100
AcDbBlockTableRecord
  2
*D8
  0
BLOCK_RECORD
  5
2CC
100
AcDbSymbolTableRecord
100
AcDbBlockTableRecord
  2
*D9
  0
BLOCK_RECORD
  5
2D9
100
AcDbSymbolTableRecord
100
AcDbBlockTableRecord
  2
*D10
  0
BLOCK_RECORD
  5
2E6
100
AcDbSymbolTableRecord
100
AcDbBlockTableRecord
  2
*D11
  0
BLOCK_RECORD
  5
2F3
100
AcDbSymbolTableRecord
100
AcDbBlockTableRecord
  2
*D12
  0
ENDTAB
  0
ENDSEC
  0
SECTION
  2
BLOCKS
  0
BLOCK
  5
5
100
AcDbEntity
  8
0
100
AcDbBlockBegin
  2
*MODEL_SPACE
 70
     0
 10
0.0
 20
0.0
 30
0.0
  3
*MODEL_SPACE
  1

  0
ENDBLK
  5
8
100
AcDbEntity
  8
0
100
AcDbBlockEnd
  0
BLOCK
  5
A
100
AcDbEntity
 67
     1
  8
0
100
AcDbBlockBegin
  2
*PAPER_SPACE
 70
     0
 10
0.0
 20
0.0
 30
0.0
  3
*PAPER_SPACE
  1

  0
ENDBLK
  5
B
100
AcDbEntity
 67
     1
  8
0
100
AcDbBlockEnd
  0
BLOCK
  5
31
100
AcDbEntity
  8
0
100
AcDbBlockBegin
  2
*D0
 70
     1
 10
0.0
 20
0.0
 30
0.0
  3
*D0
  1

  0
LINE
  5
27
100
AcDbEntity
  8
0
  6
BYBLOCK
 62
     4
100
AcDbLine
 10
798.005172
 20
456.784226
 30
0.0
 11
798.005172
 21
472.600271
 31
0.0
  0
LINE
  5
28
100
AcDbEntity
  8
0
  6
BYBLOCK
 62
     4
100
AcDbLine
 10
772.605172
 20
455.784226
 30
0.0
 11
772.605172
 21
472.600271
 31
0.0
  0
LINE
  5
29
100
AcDbEntity
  8
0
  6
BYBLOCK
 62
     4
100
AcDbLine
 10
795.005172
 20
470.100271
 30
0.0
 11
775.605172
 21
470.100271
 31
0.0
  0
SOLID
  5
2A
100
AcDbEntity
  8
0
  6
BYBLOCK
 62
     4
100
AcDbTrace
 10
795.005172
 20
470.600271
 30
0.0
 11
795.005172
 21
469.600271
 31
0.0
 12
798.005172
 22
470.100271
 32
0.0
 13
798.005172
 23
470.100271
 33
0.0
  0
SOLID
  5
2B
100
AcDbEntity
  8
0
  6
BYBLOCK
 62
     4
100
AcDbTrace
 10
775.605172
 20
470.600271
 30
0.0
 11
775.605172
 21
469.600271
 31
0.0
 12
772.605172
 22
470.100271
 32
0.0
 13
772.605172
 23
470.100271
 33
0.0
  0
MTEXT
  5
2C
100
AcDbEntity
  8
0
  6
BYBLOCK
 62
     2
100
AcDbMText
 10
783.303756
 20
473.100271
 30
0.0
 40
3.0
 41
0.0
 71
     5
 72
     1
  1
\A1;25.40
  0
POINT
  5
2D
100
AcDbEntity
  8
DEFPOINTS
  6
BYBLOCK
 62
     0
100
AcDbPoint
 10
798.005172
 20
455.784226
 30
0.0
  0
POINT
  5
2F
100
AcDbEntity
  8
DEFPOINTS
  6
BYBLOCK
 62
     0
100
AcDbPoint
 10
772.605172
 20
454.784226
 30
0.0
  0
POINT
  5
30
100
AcDbEntity
  8
DEFPOINTS
  6
BYBLOCK
 62
     0
100
AcDbPoint
 10
772.605172
 20
470.100271
 30
0.0
  0
ENDBLK
  5
32
100
AcDbEntity
  8
0
100
AcDbBlockEnd
  0
BLOCK
  5
3E
100
AcDbEntity
  8
0
100
AcDbBlockBegin
  2
*D1
 70
     1
 10
0.0
 20
0.0
 30
0.0
  3
*D1
  1

  0
LINE
  5
35
100
AcDbEntity
  8
0
  6
BYBLOCK
 62
     4
100
AcDbLine
 10
777.182522
 20
409.334226
 30
0.0
 11
747.106065
 21
409.334226
 31
0.0
  0
LINE
  5
36
100
AcDbEntity
  8
0
  6
BYBLOCK
 62
     4
100
AcDbLine
 10
777.182522
 20
455.784226
 30
0.0
 11
747.106065
 21
455.784226
 31
0.0
  0
LINE
  5
37
100
AcDbEntity
  8
0
  6
BYBLOCK
 62
     4
100
AcDbLine
 10
749.606065
 20
412.334226
 30
0.0
 11
749.606065
 21
452.784226
 31
0.0
  0
SOLID
  5
38
100
AcDbEntity
  8
0
  6
BYBLOCK
 62
     4
100
AcDbTrace
 10
749.106065
 20
412.334226
 30
0.0
 11
750.106065
 21
412.334226
 31
0.0
 12
749.606065
 22
409.334226
 32
0.0
 13
749.606065
 23
409.334226
 33
0.0
  0
SOLID
  5
39
100
AcDbEntity
  8
0
  6
BYBLOCK
 62
     4
100
AcDbTrace
 10
749.106065
 20
452.784226
 30
0.0
 11
750.106065
 21
452.784226
 31
0.0
 12
749.606065
 22
455.784226
 32
0.0
 13
749.606065
 23
455.784226
 33
0.0
  0
MTEXT
  5
3A
100
AcDbEntity
  8
0
  6
BYBLOCK
 62
     2
100
AcDbMText
 10
746.606065
 20
433.864678
 30
0.0
 40
3.0
 41
0.0
 71
     5
 72
     1
  1
\A1;\U+220546.5
 11
0.0
 21
1.0
 31
0.0
  0
POINT
  5
3B
100
AcDbEntity
  8
DEFPOINTS
  6
BYBLOCK
 62
     0
100
AcDbPoint
 10
778.182522
 20
409.334226
 30
0.0
  0
POINT
  5
3C
100
AcDbEntity
  8
DEFPOINTS
  6
BYBLOCK
 62
     0
100
AcDbPoint
 10
778.182522
 20
455.784226
 30
0.0
  0
POINT
  5
3D
100
AcDbEntity
  8
DEFPOINTS
  6
BYBLOCK
 62
     0
100
AcDbPoint
 10
749.606065
 20
455.784226
 30
0.0
  0
ENDBLK
  5
3F
100
AcDbEntity
  8
0
100
AcDbBlockEnd
  0
BLOCK
  5
4B
100
AcDbEntity
  8
0
100
AcDbBlockBegin
  2
*D2
 70
     1
 10
0.0
 20
0.0
 30
0.0
  3
*D2
  1

  0
LINE
  5
42
100
AcDbEntity
  8
0
  6
BYBLOCK
 62
     4
100
AcDbLine
 10
771.605172
 20
454.784226
 30
0.0
 11
757.147296
 21
454.784226
 31
0.0
  0
LINE
  5
43
100
AcDbEntity
  8
0
  6
BYBLOCK
 62
     4
100
AcDbLine
 10
771.605172
 20
410.334226
 30
0.0
 11
757.147296
 21
410.334226
 31
0.0
  0
LINE
  5
44
100
AcDbEntity
  8
0
  6
BYBLOCK
 62
     4
100
AcDbLine
 10
759.647296
 20
451.784226
 30
0.0
 11
759.647296
 21
413.334226
 31
0.0
  0
SOLID
  5
45
100
AcDbEntity
  8
0
  6
BYBLOCK
 62
     4
100
AcDbTrace
 10
759.147296
 20
451.784226
 30
0.0
 11
760.147296
 21
451.784226
 31
0.0
 12
759.647296
 22
454.784226
 32
0.0
 13
759.647296
 23
454.784226
 33
0.0
  0
SOLID
  5
46
100
AcDbEntity
  8
0
  6
BYBLOCK
 62
     4
100
AcDbTrace
 10
759.147296
 20
413.334226
 30
0.0
 11
760.147296
 21
413.334226
 31
0.0
 12
759.647296
 22
410.334226
 32
0.0
 13
759.647296
 23
410.334226
 33
0.0
  0
MTEXT
  5
47
100
AcDbEntity
  8
0
  6
BYBLOCK
 62
     2
100
AcDbMText
 10
756.647296
 20
433.524437
 30
0.0
 40
3.0
 41
0.0
 71
     5
 72
     1
  1
\A1;\U+220544.45 H7
 11
0.0
 21
1.0
 31
0.0
  0
POINT
  5
48
100
AcDbEntity
  8
DEFPOINTS
  6
BYBLOCK
 62
     0
100
AcDbPoint
 10
772.605172
 20
454.784226
 30
0.0
  0
POINT
  5
49
100
AcDbEntity
  8
DEFPOINTS
  6
BYBLOCK
 62
     0
100
AcDbPoint
 10
772.605172
 20
410.334226
 30
0.0
  0
POINT
  5
4A
100
AcDbEntity
  8
DEFPOINTS
  6
BYBLOCK
 62
     0
100
AcDbPoint
 10
759.647296
 20
410.334226
 30
0.0
  0
ENDBLK
  5
4C
100
AcDbEntity
  8
0
100
AcDbBlockEnd
  0
BLOCK
  5
58
100
AcDbEntity
  8
0
100
AcDbBlockBegin
  2
*D3
 70
     1
 10
0.0
 20
0.0
 30
0.0
  3
*D3
  1

  0
LINE
  5
4F
100
AcDbEntity
  8
0
  6
BYBLOCK
 62
     4
100
AcDbLine
 10
791.005172
 20
392.559226
 30
0.0
 11
791.005172
 21
378.62743
 31
0.0
  0
LINE
  5
50
100
AcDbEntity
  8
0
  6
BYBLOCK
 62
     4
100
AcDbLine
 10
777.605172
 20
409.334226
 30
0.0
 11
777.605172
 21
378.62743
 31
0.0
  0
LINE
  5
51
100
AcDbEntity
  8
0
  6
BYBLOCK
 62
     4
100
AcDbLine
 10
788.005172
 20
381.12743
 30
0.0
 11
780.605172
 21
381.12743
 31
0.0
  0
SOLID
  5
52
100
AcDbEntity
  8
0
  6
BYBLOCK
 62
     4
100
AcDbTrace
 10
788.005172
 20
381.62743
 30
0.0
 11
788.005172
 21
380.62743
 31
0.0
 12
791.005172
 22
381.12743
 32
0.0
 13
791.005172
 23
381.12743
 33
0.0
  0
SOLID
  5
53
100
AcDbEntity
  8
0
  6
BYBLOCK
 62
     4
100
AcDbTrace
 10
780.605172
 20
381.62743
 30
0.0
 11
780.605172
 21
380.62743
 31
0.0
 12
777.605172
 22
381.12743
 32
0.0
 13
777.605172
 23
381.12743
 33
0.0
  0
MTEXT
  5
54
100
AcDbEntity
  8
0
  6
BYBLOCK
 62
     2
100
AcDbMText
 10
784.305172
 20
384.12743
 30
0.0
 40
3.0
 41
0.0
 71
     5
 72
     1
  1
\A1;13.4
  0
POINT
  5
55
100
AcDbEntity
  8
DEFPOINTS
  6
BYBLOCK
 62
     0
100
AcDbPoint
 10
791.005172
 20
393.559226
 30
0.0
  0
POINT
  5
56
100
AcDbEntity
  8
DEFPOINTS
  6
BYBLOCK
 62
     0
100
AcDbPoint
 10
777.605172
 20
410.334226
 30
0.0
  0
POINT
  5
57
100
AcDbEntity
  8
DEFPOINTS
  6
BYBLOCK
 62
     0
100
AcDbPoint
 10
777.605172
 20
381.12743
 30
0.0
  0
ENDBLK
  5
59
100
AcDbEntity
  8
0
100
AcDbBlockEnd
  0
BLOCK
  5
1F3
100
AcDbEntity
  8
0
100
AcDbBlockBegin
  2
*D4
 70
     1
 10
0.0
 20
0.0
 30
0.0
  3
*D4
  1

  0
LINE
  5
1E9
100
AcDbEntity
  8
0
  6
BYBLOCK
 62
     4
100
AcDbLine
 10
777.005172
 20
507.059226
 30
0.0
 11
760.829007
 21
507.059226
 31
0.0
  0
LINE
  5
1EA
100
AcDbEntity
  8
0
  6
BYBLOCK
 62
     4
100
AcDbLine
 10
777.005172
 20
499.059226
 30
0.0
 11
760.829007
 21
499.059226
 31
0.0
  0
LINE
  5
1EB
100
AcDbEntity
  8
0
  6
BYBLOCK
 62
     4
100
AcDbLine
 10
763.329007
 20
510.059226
 30
0.0
 11
763.329007
 21
513.059226
 31
0.0
  0
LINE
  5
1EC
100
AcDbEntity
  8
0
  6
BYBLOCK
 62
     4
100
AcDbLine
 10
763.329007
 20
496.059226
 30
0.0
 11
763.329007
 21
469.487798
 31
0.0
  0
SOLID
  5
1ED
100
AcDbEntity
  8
0
  6
BYBLOCK
 62
     4
100
AcDbTrace
 10
762.829007
 20
510.059226
 30
0.0
 11
763.829007
 21
510.059226
 31
0.0
 12
763.329007
 22
507.059226
 32
0.0
 13
763.329007
 23
507.059226
 33
0.0
  0
SOLID
  5
1EE
100
AcDbEntity
  8
0
  6
BYBLOCK
 62
     4
100
AcDbTrace
 10
762.829007
 20
496.059226
 30
0.0
 11
763.829007
 21
496.059226
 31
0.0
 12
763.329007
 22
499.059226
 32
0.0
 13
763.329007
 23
499.059226
 33
0.0
  0
MTEXT
  5
1EF
100
AcDbEntity
  8
0
  6
BYBLOCK
 62
     2
100
AcDbMText
 10
760.329007
 20
481.273512
 30
0.0
 40
3.0
 41
0.0
 71
     5
 72
     1
  1
\A1;\U+22058.00 H7
 11
0.0
 21
1.0
 31
0.0
  0
POINT
  5
1F0
100
AcDbEntity
  8
DEFPOINTS
  6
BYBLOCK
 62
     0
100
AcDbPoint
 10
778.005172
 20
507.059226
 30
0.0
  0
POINT
  5
1F1
100
AcDbEntity
  8
DEFPOINTS
  6
BYBLOCK
 62
     0
100
AcDbPoint
 10
778.005172
 20
499.059226
 30
0.0
  0
POINT
  5
1F2
100
AcDbEntity
  8
DEFPOINTS
  6
BYBLOCK
 62
     0
100
AcDbPoint
 10
763.329007
 20
499.059226
 30
0.0
  0
ENDBLK
  5
1F4
100
AcDbEntity
  8
0
100
AcDbBlockEnd
  0
BLOCK
  5
216
100
AcDbEntity
  8
0
100
AcDbBlockBegin
  2
*D5
 70
     1
 10
0.0
 20
0.0
 30
0.0
  3
*D5
  1

  0
LINE
  5
20D
100
AcDbEntity
  8
0
  6
BYBLOCK
 62
     4
100
AcDbLine
 10
861.005172
 20
412.559226
 30
0.0
 11
898.820289
 21
412.559226
 31
0.0
  0
LINE
  5
20E
100
AcDbEntity
  8
0
  6
BYBLOCK
 62
     4
100
AcDbLine
 10
861.005172
 20
452.559226
 30
0.0
 11
898.820289
 21
452.559226
 31
0.0
  0
LINE
  5
20F
100
AcDbEntity
  8
0
  6
BYBLOCK
 62
     4
100
AcDbLine
 10
896.320289
 20
415.559226
 30
0.0
 11
896.320289
 21
449.559226
 31
0.0
  0
SOLID
  5
210
100
AcDbEntity
  8
0
  6
BYBLOCK
 62
     4
100
AcDbTrace
 10
895.820289
 20
415.559226
 30
0.0
 11
896.820289
 21
415.559226
 31
0.0
 12
896.320289
 22
412.559226
 32
0.0
 13
896.320289
 23
412.559226
 33
0.0
  0
SOLID
  5
211
100
AcDbEntity
  8
0
  6
BYBLOCK
 62
     4
100
AcDbTrace
 10
895.820289
 20
449.559226
 30
0.0
 11
896.820289
 21
449.559226
 31
0.0
 12
896.320289
 22
452.559226
 32
0.0
 13
896.320289
 23
452.559226
 33
0.0
  0
MTEXT
  5
212
100
AcDbEntity
  8
0
  6
BYBLOCK
 62
     2
100
AcDbMText
 10
893.320289
 20
432.559226
 30
0.0
 40
3.0
 41
0.0
 71
     5
 72
     1
  1
\A1;\U+220540.00 H7
 11
0.0
 21
1.0
 31
0.0
  0
POINT
  5
213
100
AcDbEntity
  8
DEFPOINTS
  6
BYBLOCK
 62
     0
100
AcDbPoint
 10
860.005172
 20
412.559226
 30
0.0
  0
POINT
  5
214
100
AcDbEntity
  8
DEFPOINTS
  6
BYBLOCK
 62
     0
100
AcDbPoint
 10
860.005172
 20
452.559226
 30
0.0
  0
POINT
  5
215
100
AcDbEntity
  8
DEFPOINTS
  6
BYBLOCK
 62
     0
100
AcDbPoint
 10
896.320289
 20
452.559226
 30
0.0
  0
ENDBLK
  5
217
100
AcDbEntity
  8
0
100
AcDbBlockEnd
  0
BLOCK
  5
224
100
AcDbEntity
  8
0
100
AcDbBlockBegin
  2
*D6
 70
     1
 10
0.0
 20
0.0
 30
0.0
  3
*D6
  1

  0
LINE
  5
21A
100
AcDbEntity
  8
0
  6
BYBLOCK
 62
     4
100
AcDbLine
 10
798.005172
 20
401.559226
 30
0.0
 11
798.005172
 21
359.779548
 31
0.0
  0
LINE
  5
21B
100
AcDbEntity
  8
0
  6
BYBLOCK
 62
     4
100
AcDbLine
 10
791.005172
 20
392.559226
 30
0.0
 11
791.005172
 21
359.779548
 31
0.0
  0
LINE
  5
21C
100
AcDbEntity
  8
0
  6
BYBLOCK
 62
     4
100
AcDbLine
 10
801.005172
 20
362.279548
 30
0.0
 11
804.005172
 21
362.279548
 31
0.0
  0
LINE
  5
21D
100
AcDbEntity
  8
0
  6
BYBLOCK
 62
     4
100
AcDbLine
 10
788.005172
 20
362.279548
 30
0.0
 11
775.719458
 21
362.279548
 31
0.0
  0
SOLID
  5
21E
100
AcDbEntity
  8
0
  6
BYBLOCK
 62
     4
100
AcDbTrace
 10
801.005172
 20
362.779548
 30
0.0
 11
801.005172
 21
361.779548
 31
0.0
 12
798.005172
 22
362.279548
 32
0.0
 13
798.005172
 23
362.279548
 33
0.0
  0
SOLID
  5
21F
100
AcDbEntity
  8
0
  6
BYBLOCK
 62
     4
100
AcDbTrace
 10
788.005172
 20
362.779548
 30
0.0
 11
788.005172
 21
361.779548
 31
0.0
 12
791.005172
 22
362.279548
 32
0.0
 13
791.005172
 23
362.279548
 33
0.0
  0
MTEXT
  5
220
100
AcDbEntity
  8
0
  6
BYBLOCK
 62
     2
100
AcDbMText
 10
780.362315
 20
365.279548
 30
0.0
 40
3.0
 41
0.0
 71
     5
 72
     1
  1
\A1;7.0
  0
POINT
  5
221
100
AcDbEntity
  8
DEFPOINTS
  6
BYBLOCK
 62
     0
100
AcDbPoint
 10
798.005172
 20
402.559226
 30
0.0
  0
POINT
  5
222
100
AcDbEntity
  8
DEFPOINTS
  6
BYBLOCK
 62
     0
100
AcDbPoint
 10
791.005172
 20
393.559226
 30
0.0
  0
POINT
  5
223
100
AcDbEntity
  8
DEFPOINTS
  6
BYBLOCK
 62
     0
100
AcDbPoint
 10
791.005172
 20
362.279548
 30
0.0
  0
ENDBLK
  5
225
100
AcDbEntity
  8
0
100
AcDbBlockEnd
  0
BLOCK
  5
232
100
AcDbEntity
  8
0
100
AcDbBlockBegin
  2
*D7
 70
     1
 10
0.0
 20
0.0
 30
0.0
  3
*D7
  1

  0
LINE
  5
228
100
AcDbEntity
  8
0
  6
BYBLOCK
 62
     4
100
AcDbLine
 10
845.005172
 20
400.259226
 30
0.0
 11
845.005172
 21
359.779548
 31
0.0
  0
LINE
  5
229
100
AcDbEntity
  8
0
  6
BYBLOCK
 62
     4
100
AcDbLine
 10
852.005172
 20
381.045835
 30
0.0
 11
852.005172
 21
359.779548
 31
0.0
  0
LINE
  5
22A
100
AcDbEntity
  8
0
  6
BYBLOCK
 62
     4
100
AcDbLine
 10
842.005172
 20
362.279548
 30
0.0
 11
839.005172
 21
362.279548
 31
0.0
  0
LINE
  5
22B
100
AcDbEntity
  8
0
  6
BYBLOCK
 62
     4
100
AcDbLine
 10
855.005172
 20
362.279548
 30
0.0
 11
867.290886
 21
362.279548
 31
0.0
  0
SOLID
  5
22C
100
AcDbEntity
  8
0
  6
BYBLOCK
 62
     4
100
AcDbTrace
 10
842.005172
 20
362.779548
 30
0.0
 11
842.005172
 21
361.779548
 31
0.0
 12
845.005172
 22
362.279548
 32
0.0
 13
845.005172
 23
362.279548
 33
0.0
  0
SOLID
  5
22D
100
AcDbEntity
  8
0
  6
BYBLOCK
 62
     4
100
AcDbTrace
 10
855.005172
 20
362.779548
 30
0.0
 11
855.005172
 21
361.779548
 31
0.0
 12
852.005172
 22
362.279548
 32
0.0
 13
852.005172
 23
362.279548
 33
0.0
  0
MTEXT
  5
22E
100
AcDbEntity
  8
0
  6
BYBLOCK
 62
     2
100
AcDbMText
 10
862.648029
 20
365.279548
 30
0.0
 40
3.0
 41
0.0
 71
     5
 72
     1
  1
\A1;7.0
  0
POINT
  5
22F
100
AcDbEntity
  8
DEFPOINTS
  6
BYBLOCK
 62
     0
100
AcDbPoint
 10
845.005172
 20
401.259226
 30
0.0
  0
POINT
  5
230
100
AcDbEntity
  8
DEFPOINTS
  6
BYBLOCK
 62
     0
100
AcDbPoint
 10
852.005172
 20
382.045835
 30
0.0
  0
POINT
  5
231
100
AcDbEntity
  8
DEFPOINTS
  6
BYBLOCK
 62
     0
100
AcDbPoint
 10
852.005172
 20
362.279548
 30
0.0
  0
ENDBLK
  5
233
100
AcDbEntity
  8
0
100
AcDbBlockEnd
  0
BLOCK
  5
23F
100
AcDbEntity
  8
0
100
AcDbBlockBegin
  2
*D8
 70
     1
 10
0.0
 20
0.0
 30
0.0
  3
*D8
  1

  0
LINE
  5
236
100
AcDbEntity
  8
0
  6
BYBLOCK
 62
     4
100
AcDbLine
 10
798.005172
 20
401.559226
 30
0.0
 11
798.005172
 21
359.779548
 31
0.0
  0
LINE
  5
237
100
AcDbEntity
  8
0
  6
BYBLOCK
 62
     4
100
AcDbLine
 10
845.005172
 20
400.259226
 30
0.0
 11
845.005172
 21
359.779548
 31
0.0
  0
LINE
  5
238
100
AcDbEntity
  8
0
  6
BYBLOCK
 62
     4
100
AcDbLine
 10
801.005172
 20
362.279548
 30
0.0
 11
842.005172
 21
362.279548
 31
0.0
  0
SOLID
  5
239
100
AcDbEntity
  8
0
  6
BYBLOCK
 62
     4
100
AcDbTrace
 10
801.005172
 20
362.779548
 30
0.0
 11
801.005172
 21
361.779548
 31
0.0
 12
798.005172
 22
362.279548
 32
0.0
 13
798.005172
 23
362.279548
 33
0.0
  0
SOLID
  5
23A
100
AcDbEntity
  8
0
  6
BYBLOCK
 62
     4
100
AcDbTrace
 10
842.005172
 20
362.779548
 30
0.0
 11
842.005172
 21
361.779548
 31
0.0
 12
845.005172
 22
362.279548
 32
0.0
 13
845.005172
 23
362.279548
 33
0.0
  0
MTEXT
  5
23B
100
AcDbEntity
  8
0
  6
BYBLOCK
 62
     2
100
AcDbMText
 10
821.505172
 20
365.279548
 30
0.0
 40
3.0
 41
0.0
 71
     5
 72
     1
  1
\A1;47.00
  0
POINT
  5
23C
100
AcDbEntity
  8
DEFPOINTS
  6
BYBLOCK
 62
     0
100
AcDbPoint
 10
798.005172
 20
402.559226
 30
0.0
  0
POINT
  5
23D
100
AcDbEntity
  8
DEFPOINTS
  6
BYBLOCK
 62
     0
100
AcDbPoint
 10
845.005172
 20
401.259226
 30
0.0
  0
POINT
  5
23E
100
AcDbEntity
  8
DEFPOINTS
  6
BYBLOCK
 62
     0
100
AcDbPoint
 10
845.005172
 20
362.279548
 30
0.0
  0
ENDBLK
  5
240
100
AcDbEntity
  8
0
100
AcDbBlockEnd
  0
BLOCK
  5
2D6
100
AcDbEntity
  8
0
100
AcDbBlockBegin
  2
*D9
 70
     1
 10
0.0
 20
0.0
 30
0.0
  3
*D9
  1

  0
LINE
  5
2CD
100
AcDbEntity
  8
0
  6
BYBLOCK
 62
     4
100
AcDbLine
 10
676.092305
 20
400.559226
 30
0.0
 11
719.34926
 21
400.559226
 31
0.0
  0
LINE
  5
2CE
100
AcDbEntity
  8
0
  6
BYBLOCK
 62
     4
100
AcDbLine
 10
676.092305
 20
464.559226
 30
0.0
 11
719.34926
 21
464.559226
 31
0.0
  0
LINE
  5
2CF
100
AcDbEntity
  8
0
  6
BYBLOCK
 62
     4
100
AcDbLine
 10
716.84926
 20
403.559226
 30
0.0
 11
716.84926
 21
461.559226
 31
0.0
  0
SOLID
  5
2D0
100
AcDbEntity
  8
0
  6
BYBLOCK
 62
     4
100
AcDbTrace
 10
716.34926
 20
403.559226
 30
0.0
 11
717.34926
 21
403.559226
 31
0.0
 12
716.84926
 22
400.559226
 32
0.0
 13
716.84926
 23
400.559226
 33
0.0
  0
SOLID
  5
2D1
100
AcDbEntity
  8
0
  6
BYBLOCK
 62
     4
100
AcDbTrace
 10
716.34926
 20
461.559226
 30
0.0
 11
717.34926
 21
461.559226
 31
0.0
 12
716.84926
 22
464.559226
 32
0.0
 13
716.84926
 23
464.559226
 33
0.0
  0
MTEXT
  5
2D2
100
AcDbEntity
  8
0
  6
BYBLOCK
 62
     2
100
AcDbMText
 10
713.84926
 20
432.559226
 30
0.0
 40
3.0
 41
0.0
 71
     5
 72
     1
  1
\A1;W=64.00
 11
0.0
 21
1.0
 31
0.0
  0
POINT
  5
2D3
100
AcDbEntity
  8
DEFPOINTS
  6
BYBLOCK
 62
     0
100
AcDbPoint
 10
675.092305
 20
400.559226
 30
0.0
  0
POINT
  5
2D4
100
AcDbEntity
  8
DEFPOINTS
  6
BYBLOCK
 62
     0
100
AcDbPoint
 10
675.092305
 20
464.559226
 30
0.0
  0
POINT
  5
2D5
100
AcDbEntity
  8
DEFPOINTS
  6
BYBLOCK
 62
     0
100
AcDbPoint
 10
716.84926
 20
464.559226
 30
0.0
  0
ENDBLK
  5
2D7
100
AcDbEntity
  8
0
100
AcDbBlockEnd
  0
BLOCK
  5
2E3
100
AcDbEntity
  8
0
100
AcDbBlockBegin
  2
*D10
 70
     1
 10
0.0
 20
0.0
 30
0.0
  3
*D10
  1

  0
LINE
  5
2DA
100
AcDbEntity
  8
0
  6
BYBLOCK
 62
     4
100
AcDbLine
 10
298.092305
 20
411.559226
 30
0.0
 11
298.092305
 21
337.696619
 31
0.0
  0
LINE
  5
2DB
100
AcDbEntity
  8
0
  6
BYBLOCK
 62
     4
100
AcDbLine
 10
712.092305
 20
411.559226
 30
0.0
 11
712.092305
 21
337.696619
 31
0.0
  0
LINE
  5
2DC
100
AcDbEntity
  8
0
  6
BYBLOCK
 62
     4
100
AcDbLine
 10
301.092305
 20
340.196619
 30
0.0
 11
709.092305
 21
340.196619
 31
0.0
  0
SOLID
  5
2DD
100
AcDbEntity
  8
0
  6
BYBLOCK
 62
     4
100
AcDbTrace
 10
301.092305
 20
340.696619
 30
0.0
 11
301.092305
 21
339.696619
 31
0.0
 12
298.092305
 22
340.196619
 32
0.0
 13
298.092305
 23
340.196619
 33
0.0
  0
SOLID
  5
2DE
100
AcDbEntity
  8
0
  6
BYBLOCK
 62
     4
100
AcDbTrace
 10
709.092305
 20
340.696619
 30
0.0
 11
709.092305
 21
339.696619
 31
0.0
 12
712.092305
 22
340.196619
 32
0.0
 13
712.092305
 23
340.196619
 33
0.0
  0
MTEXT
  5
2DF
100
AcDbEntity
  8
0
  6
BYBLOCK
 62
     2
100
AcDbMText
 10
505.092305
 20
343.196619
 30
0.0
 40
3.0
 41
0.0
 71
     5
 72
     1
  1
\A1;L=414.00
  0
POINT
  5
2E0
100
AcDbEntity
  8
DEFPOINTS
  6
BYBLOCK
 62
     0
100
AcDbPoint
 10
298.092305
 20
412.559226
 30
0.0
  0
POINT
  5
2E1
100
AcDbEntity
  8
DEFPOINTS
  6
BYBLOCK
 62
     0
100
AcDbPoint
 10
712.092305
 20
412.559226
 30
0.0
  0
POINT
  5
2E2
100
AcDbEntity
  8
DEFPOINTS
  6
BYBLOCK
 62
     0
100
AcDbPoint
 10
712.092305
 20
340.196619
 30
0.0
  0
ENDBLK
  5
2E4
100
AcDbEntity
  8
0
100
AcDbBlockEnd
  0
BLOCK
  5
2F0
100
AcDbEntity
  8
0
100
AcDbBlockBegin
  2
*D11
 70
     1
 10
0.0
 20
0.0
 30
0.0
  3
*D11
  1

  0
LINE
  5
2E7
100
AcDbEntity
  8
0
  6
BYBLOCK
 62
     4
100
AcDbLine
 10
330.092305
 20
414.860422
 30
0.0
 11
330.092305
 21
347.472053
 31
0.0
  0
LINE
  5
2E8
100
AcDbEntity
  8
0
  6
BYBLOCK
 62
     4
100
AcDbLine
 10
680.092305
 20
414.846007
 30
0.0
 11
680.092305
 21
347.472053
 31
0.0
  0
LINE
  5
2E9
100
AcDbEntity
  8
0
  6
BYBLOCK
 62
     4
100
AcDbLine
 10
333.092305
 20
349.972053
 30
0.0
 11
677.092305
 21
349.972053
 31
0.0
  0
SOLID
  5
2EA
100
AcDbEntity
  8
0
  6
BYBLOCK
 62
     4
100
AcDbTrace
 10
333.092305
 20
350.472053
 30
0.0
 11
333.092305
 21
349.472053
 31
0.0
 12
330.092305
 22
349.972053
 32
0.0
 13
330.092305
 23
349.972053
 33
0.0
  0
SOLID
  5
2EB
100
AcDbEntity
  8
0
  6
BYBLOCK
 62
     4
100
AcDbTrace
 10
677.092305
 20
350.472053
 30
0.0
 11
677.092305
 21
349.472053
 31
0.0
 12
680.092305
 22
349.972053
 32
0.0
 13
680.092305
 23
349.972053
 33
0.0
  0
MTEXT
  5
2EC
100
AcDbEntity
  8
0
  6
BYBLOCK
 62
     2
100
AcDbMText
 10
505.092305
 20
352.972053
 30
0.0
 40
3.0
 41
0.0
 71
     5
 72
     1
  1
\A1;A=350.00
  0
POINT
  5
2ED
100
AcDbEntity
  8
DEFPOINTS
  6
BYBLOCK
 62
     0
100
AcDbPoint
 10
330.092305
 20
415.860422
 30
0.0
  0
POINT
  5
2EE
100
AcDbEntity
  8
DEFPOINTS
  6
BYBLOCK
 62
     0
100
AcDbPoint
 10
680.092305
 20
415.846007
 30
0.0
  0
POINT
  5
2EF
100
AcDbEntity
  8
DEFPOINTS
  6
BYBLOCK
 62
     0
100
AcDbPoint
 10
680.092305
 20
349.972053
 30
0.0
  0
ENDBLK
  5
2F1
100
AcDbEntity
  8
0
100
AcDbBlockEnd
  0
BLOCK
  5
2FD
100
AcDbEntity
  8
0
100
AcDbBlockBegin
  2
*D12
 70
     1
 10
0.0
 20
0.0
 30
0.0
  3
*D12
  1

  0
LINE
  5
2F4
100
AcDbEntity
  8
0
  6
BYBLOCK
 62
     4
100
AcDbLine
 10
330.092305
 20
414.860422
 30
0.0
 11
330.092305
 21
357.526785
 31
0.0
  0
LINE
  5
2F5
100
AcDbEntity
  8
0
  6
BYBLOCK
 62
     4
100
AcDbLine
 10
505.092305
 20
384.559226
 30
0.0
 11
505.092305
 21
357.526785
 31
0.0
  0
LINE
  5
2F6
100
AcDbEntity
  8
0
  6
BYBLOCK
 62
     4
100
AcDbLine
 10
333.092305
 20
360.026785
 30
0.0
 11
502.092305
 21
360.026785
 31
0.0
  0
SOLID
  5
2F7
100
AcDbEntity
  8
0
  6
BYBLOCK
 62
     4
100
AcDbTrace
 10
333.092305
 20
360.526785
 30
0.0
 11
333.092305
 21
359.526785
 31
0.0
 12
330.092305
 22
360.026785
 32
0.0
 13
330.092305
 23
360.026785
 33
0.0
  0
SOLID
  5
2F8
100
AcDbEntity
  8
0
  6
BYBLOCK
 62
     4
100
AcDbTrace
 10
502.092305
 20
360.526785
 30
0.0
 11
502.092305
 21
359.526785
 31
0.0
 12
505.092305
 22
360.026785
 32
0.0
 13
505.092305
 23
360.026785
 33
0.0
  0
MTEXT
  5
2F9
100
AcDbEntity
  8
0
  6
BYBLOCK
 62
     2
100
AcDbMText
 10
405.318409
 20
363.812499
 30
0.0
 40
3.0
 41
0.0
 71
     5
 72
     1
  1
\A1;A/2=175.00
  0
POINT
  5
2FA
100
AcDbEntity
  8
DEFPOINTS
  6
BYBLOCK
 62
     0
100
AcDbPoint
 10
330.092305
 20
415.860422
 30
0.0
  0
POINT
  5
2FB
100
AcDbEntity
  8
DEFPOINTS
  6
BYBLOCK
 62
     0
100
AcDbPoint
 10
505.092305
 20
385.559226
 30
0.0
  0
POINT
  5
2FC
100
AcDbEntity
  8
DEFPOINTS
  6
BYBLOCK
 62
     0
100
AcDbPoint
 10
505.092305
 20
360.026785
 30
0.0
  0
ENDBLK
  5
2FE
100
AcDbEntity
  8
0
100
AcDbBlockEnd
  0
ENDSEC
  0
SECTION
  2
ENTITIES
  0
HATCH
  5
20
100
AcDbEntity
  8
HATCH
100
AcDbHatch
 10
0.0
 20
0.0
 30
0.0
210
0.0
220
0.0
230
1.0
  2
_U
 70
     0
 71
     1
 91
        4
 92
        7
 72
     0
 73
     1
 93
        4
 10
528.3173046939225
 20
283.0138856722447
 10
528.3173046939224
 20
280.0138856722446
 10
662.0923046939223
 20
280.0138856722446
 10
662.0923046939226
 20
283.0138856722446
 97
        4
330
3F4
330
3F5
330
403
330
EA
 92
        7
 72
     0
 73
     1
 93
        4
 10
665.0923046939221
 20
230.0138856722447
 10
665.0923046939222
 20
233.0138856722446
 10
540.0923046939225
 20
233.0138856722447
 10
540.0923046939225
 20
230.0138856722446
 97
        4
330
168
330
3E7
330
3C3
330
3BB
 92
        7
 72
     0
 73
     1
 93
        4
 10
698.0923046939225
 20
280.0138856722447
 10
710.0923046939223
 20
280.0138856722446
 10
710.0923046939223
 20
283.0138856722446
 10
698.0923046939224
 20
283.0138856722446
 97
        4
330
3F4
330
EB
330
403
330
3FA
 92
        7
 72
     0
 73
     1
 93
        4
 10
710.0923046939223
 20
233.0138856722446
 10
695.0923046939224
 20
233.0138856722446
 10
695.0923046939223
 20
230.0138856722446
 10
710.0923046939223
 20
230.0138856722446
 97
        4
330
3BA
330
3AF
330
3F7
330
168
 75
     0
 76
     0
 52
135.0
 41
0.8
 77
     0
 78
     1
 53
135.0
 43
25.0
 44
0.0
 45
-0.5656854249492382
 46
-0.565685424949238
 79
     0
 47
0.339165
 98
        4
 10
569.675889
 20
282.418784
 10
578.158517
 20
231.204842
 10
687.75408
 20
281.401288
 10
688.432688
 20
231.544008
  0
HATCH
  5
21
100
AcDbEntity
  8
HATCH
100
AcDbHatch
 10
0.0
 20
0.0
 30
0.0
210
0.0
220
0.0
230
1.0
  2
_U
 70
     0
 71
     1
 91
        4
 92
        7
 72
     0
 73
     1
 93
        4
 10
300.0923046939224
 20
283.0138856722447
 10
300.0923046939224
 20
280.0138856722446
 10
312.0923046939224
 20
280.0138856722447
 10
312.0923046939224
 20
283.0138856722446
 97
        4
330
3F9
330
3FB
330
403
330
ED
 92
        7
 72
     0
 73
     1
 93
        4
 10
348.0923046939222
 20
283.0138856722446
 10
348.0923046939224
 20
280.0138856722446
 10
481.8673046939223
 20
280.0138856722447
 10
481.8673046939223
 20
283.0138856722445
 97
        4
330
3F9
330
EC
330
403
330
8C
 92
        7
 72
     0
 73
     1
 93
        4
 10
300.0923046939224
 20
233.0138856722446
 10
300.0923046939224
 20
230.0138856722447
 10
315.0923046939222
 20
230.0138856722447
 10
315.0923046939224
 20
233.0138856722447
 97
        4
330
402
330
3F8
330
3F6
330
29F
 92
        7
 72
     0
 73
     1
 93
        4
 10
345.0923046939224
 20
233.0138856722447
 10
345.0923046939224
 20
230.0138856722446
 10
470.0923046939223
 20
230.0138856722446
 10
470.0923046939222
 20
233.0138856722447
 97
        4
330
402
330
29E
330
272
330
3C5
 75
     0
 76
     0
 52
135.0
 41
0.8
 77
     0
 78
     1
 53
135.0
 43
-37.5
 44
0.0
 45
-0.5656854249492382
 46
-0.565685424949238
 79
     0
 47
0.339165
 98
        4
 10
310.71821
 20
282.418784
 10
357.881624
 20
282.418784
 10
312.414735
 20
231.544008
 10
354.827879
 20
231.544008
  0
HATCH
  5
22
100
AcDbEntity
  8
HATCH
100
AcDbHatch
 10
0.0
 20
0.0
 30
0.0
210
0.0
220
0.0
230
1.0
  2
_U
 70
     0
 71
     1
 91
       21
 92
        7
 72
     1
 73
     1
 93
       39
 10
501.0923046939224
 20
252.5138856722445
 42
0.0
 10
330.0923046939224
 20
252.5138856722445
 42
-0.4142135623730951
 10
326.0923046939224
 20
256.5138856722445
 42
0.0
 10
326.0923046939224
 20
280.0138856722446
 42
0.0
 10
311.0923046939224
 20
280.0138856722446
 42
0.0
 10
311.0923046939224
 20
276.0138856722448
 42
-1.0
 10
303.0923046939224
 20
276.0138856722448
 42
0.0
 10
303.0923046939224
 20
280.0138856722446
 42
0.0
 10
300.0923046939224
 20
280.0138856722446
 42
0.0
 10
298.0923046939224
 20
278.0138856722446
 42
0.0
 10
298.0923046939224
 20
235.0138856722446
 42
0.0
 10
300.0923046939223
 20
233.0138856722447
 42
0.0
 10
303.0923046939224
 20
233.0138856722447
 42
0.0
 10
303.0923046939224
 20
237.0138856722445
 42
-1.0
 10
311.0923046939224
 20
237.0138856722445
 42
0.0
 10
311.0923046939223
 20
233.0138856722447
 42
0.0
 10
316.0923046939224
 20
233.0138856722447
 42
0.0
 10
316.0923046939224
 20
233.3138856722446
 42
0.0
 10
316.7923046939225
 20
234.0138856722446
 42
0.0
 10
343.3923046939223
 20
234.0138856722446
 42
0.0
 10
344.0923046939224
 20
233.3138856722445
 42
0.0
 10
344.0923046939224
 20
233.0138856722447
 42
0.0
 10
476.0923046939224
 20
233.0138856722447
 42
0.0
 10
476.0923046939224
 20
240.3138856722446
 42
0.0
 10
476.0923046939224
 20
242.8138856722445
 42
0.0
 10
476.7923046939225
 20
242.8138856722445
 42
0.0
 10
476.7923046939223
 20
244.3138856722444
 42
0.0
 10
479.0923046939223
 20
245.6417912913805
 42
0.0
 10
481.3923046939224
 20
244.3138856722446
 42
0.0
 10
481.3923046939224
 20
242.8138856722445
 42
0.0
 10
482.0923046939224
 20
242.8138856722445
 42
0.0
 10
482.0923046939224
 20
240.3138856722447
 42
0.0
 10
482.0923046939224
 20
233.0138856722447
 42
0.0
 10
494.5923046939225
 20
233.0138856722447
 42
0.0
 10
495.0923046939224
 20
233.5138856722443
 42
0.0
 10
495.0923046939224
 20
242.0138856722445
 42
0.0
 10
495.0923046939226
 20
243.0138856722445
 42
0.0
 10
496.0923046939225
 20
243.0138856722445
 42
0.0
 10
501.0923046939224
 20
243.0138856722445
 42
0.0
 97
       34
330
403
330
137
330
139
330
138
330
3FE
330
401
330
3FF
330
402
330
12F
330
130
330
12E
330
29B
330
29A
330
2A0
330
295
330
296
330
163
330
14E
330
158
330
14F
330
155
330
156
330
14D
330
14C
330
162
330
3E1
330
3F1
330
3EA
330
3EB
330
3F0
330
3CD
330
3A3
330
3A6
330
3A5
 92
        7
 72
     0
 73
     1
 93
        9
 10
505.0923046939224
 20
260.5138856722445
 10
505.0923046939224
 20
275.0138856722446
 10
496.5923046939225
 20
275.0138856722447
 10
495.5923046939225
 20
275.0138856722447
 10
495.5923046939225
 20
276.0138856722447
 10
495.5923046939225
 20
279.3138856722446
 10
494.8923046939224
 20
280.0138856722446
 10
334.0923046939224
 20
280.0138856722446
 10
334.0923046939224
 20
260.5138856722445
 97
        9
330
B9
330
A6
330
A7
330
B7
330
8F
330
403
330
3A4
330
3AA
330
405
 92
        7
 72
     0
 73
     1
 93
        9
 10
676.0923046939225
 20
260.5138856722445
 10
676.0923046939224
 20
280.0138856722446
 10
515.2923046939223
 20
280.0138856722446
 10
514.5923046939225
 20
279.3138856722446
 10
514.5923046939225
 20
276.0138856722446
 10
514.5923046939225
 20
275.0138856722446
 10
513.5923046939224
 20
275.0138856722446
 10
505.0923046939224
 20
275.0138856722446
 10
505.0923046939224
 20
260.5138856722445
 97
        9
330
403
330
90
330
B8
330
AE
330
AD
330
B9
330
405
330
3AA
330
3AC
 92
        7
 72
     1
 73
     1
 93
       39
 10
528.7923046939225
 20
244.3138856722445
 42
0.0
 10
531.0923046939223
 20
245.6417912913805
 42
0.0
 10
533.3923046939223
 20
244.3138856722445
 42
0.0
 10
533.3923046939223
 20
242.8138856722445
 42
0.0
 10
534.0923046939224
 20
242.8138856722444
 42
0.0
 10
534.0923046939224
 20
240.3138856722447
 42
0.0
 10
534.0923046939224
 20
233.0138856722447
 42
0.0
 10
666.0923046939224
 20
233.0138856722446
 42
0.0
 10
666.0923046939224
 20
233.3138856722446
 42
0.0
 10
666.7923046939223
 20
234.0138856722446
 42
0.0
 10
693.3923046939224
 20
234.0138856722445
 42
0.0
 10
694.0923046939222
 20
233.3138856722444
 42
0.0
 10
694.0923046939222
 20
233.0138856722446
 42
0.0
 10
699.0923046939224
 20
233.0138856722446
 42
0.0
 10
699.0923046939224
 20
237.0138856722445
 42
-1.0
 10
707.0923046939224
 20
237.0138856722445
 42
0.0
 10
707.0923046939225
 20
233.0138856722445
 42
0.0
 10
710.0923046939223
 20
233.0138856722446
 42
0.0
 10
712.0923046939224
 20
235.0138856722446
 42
0.0
 10
712.0923046939224
 20
278.0138856722446
 42
0.0
 10
710.0923046939223
 20
280.0138856722446
 42
0.0
 10
707.0923046939225
 20
280.0138856722446
 42
0.0
 10
707.0923046939224
 20
276.0138856722446
 42
-1.0
 10
699.0923046939224
 20
276.0138856722448
 42
0.0
 10
699.0923046939224
 20
280.0138856722446
 42
0.0
 10
684.0923046939225
 20
280.0138856722447
 42
0.0
 10
684.0923046939224
 20
256.5138856722445
 42
-0.4142135623730951
 10
680.0923046939224
 20
252.5138856722445
 42
0.0
 10
509.0923046939225
 20
252.5138856722445
 42
0.0
 10
509.0923046939224
 20
243.0138856722444
 42
0.0
 10
514.0923046939223
 20
243.0138856722444
 42
0.0
 10
515.0923046939221
 20
243.0138856722444
 42
0.0
 10
515.0923046939222
 20
242.0138856722444
 42
0.0
 10
515.0923046939222
 20
233.5138856722444
 42
0.0
 10
515.5923046939221
 20
233.0138856722447
 42
0.0
 10
528.0923046939224
 20
233.0138856722447
 42
0.0
 10
528.0923046939224
 20
240.3138856722446
 42
0.0
 10
528.0923046939224
 20
242.8138856722445
 42
0.0
 10
528.7923046939225
 20
242.8138856722445
 42
0.0
 97
       35
330
172
330
16C
330
175
330
16B
330
180
330
168
330
3B7
330
3B6
330
3BC
330
3B1
330
3B2
330
140
330
142
330
141
330
3FC
330
400
330
3FD
330
403
330
14A
330
14B
330
149
330
3AD
330
3AE
330
3AB
330
3D1
330
3F0
330
3ED
330
3EC
330
3F2
330
3E2
330
3C6
330
17F
330
169
330
16A
330
173
 92
       22
 72
     0
 73
     1
 93
        4
 10
666.0923046939224
 20
233.0138856722446
 10
666.0923046939225
 20
233.3138856722446
 10
671.9334227064655
 20
233.3138856722446
 10
672.2334227064654
 20
233.0138856722446
 97
        4
330
3B0
330
3B7
330
168
330
2BF
 92
       22
 72
     0
 73
     1
 93
        4
 10
666.0923046939224
 20
233.3138856722446
 10
666.7923046939225
 20
234.0138856722446
 10
671.2334227064652
 20
234.0138856722446
 10
671.9334227064653
 20
233.3138856722446
 97
        4
330
3BC
330
3B6
330
3B0
330
2B3
 92
       23
 72
     0
 73
     1
 93
        4
 10
671.9334227064654
 20
233.3138856722446
 10
680.0923046939224
 20
233.3138856722446
 10
680.0923046939225
 20
234.0138856722446
 10
671.2334227064653
 20
234.0138856722446
 97
        4
330
3BC
330
2B3
330
3B0
330
3BE
 92
       23
 72
     0
 73
     1
 93
        4
 10
672.2334227064655
 20
233.0138856722446
 10
680.0923046939224
 20
233.0138856722446
 10
680.0923046939224
 20
233.3138856722446
 10
671.9334227064655
 20
233.3138856722446
 97
        4
330
3B0
330
2BF
330
168
330
3BE
 92
       23
 72
     0
 73
     1
 93
        4
 10
680.0923046939223
 20
233.0138856722446
 10
687.9511866813794
 20
233.0138856722446
 10
688.2511866813795
 20
233.3138856722446
 10
680.0923046939225
 20
233.3138856722446
 97
        4
330
3B0
330
3BE
330
168
330
2C1
 92
       23
 72
     0
 73
     1
 93
        4
 10
680.0923046939224
 20
233.3138856722446
 10
688.2511866813795
 20
233.3138856722446
 10
688.9511866813795
 20
234.0138856722446
 10
680.0923046939225
 20
234.0138856722446
 97
        4
330
3BC
330
3BE
330
3B0
330
2B4
 92
       23
 72
     0
 73
     1
 93
        4
 10
688.2511866813795
 20
233.3138856722446
 10
694.0923046939224
 20
233.3138856722446
 10
693.3923046939224
 20
234.0138856722446
 10
688.9511866813795
 20
234.0138856722446
 97
        4
330
3BC
330
2B4
330
3B0
330
3B1
 92
       23
 72
     0
 73
     1
 93
        4
 10
687.9511866813795
 20
233.0138856722446
 10
694.0923046939224
 20
233.0138856722445
 10
694.0923046939224
 20
233.3138856722446
 10
688.2511866813796
 20
233.3138856722446
 97
        4
330
3B0
330
2C1
330
168
330
3B2
 92
        7
 72
     0
 73
     1
 93
        4
 10
316.0923046939224
 20
233.0138856722446
 10
316.0923046939224
 20
233.3138856722446
 10
321.9334227064654
 20
233.3138856722446
 10
322.2334227064655
 20
233.0138856722447
 97
        4
330
294
330
29B
330
402
330
28C
 92
       22
 72
     0
 73
     1
 93
        4
 10
316.0923046939224
 20
233.3138856722446
 10
316.7923046939225
 20
234.0138856722446
 10
321.2334227064652
 20
234.0138856722446
 10
321.9334227064653
 20
233.3138856722445
 97
        4
330
2A0
330
29A
330
294
330
281
 92
       23
 72
     0
 73
     1
 93
        4
 10
321.9334227064653
 20
233.3138856722445
 10
330.0923046939225
 20
233.3138856722446
 10
330.0923046939225
 20
234.0138856722446
 10
321.2334227064652
 20
234.0138856722446
 97
        4
330
2A0
330
281
330
294
330
2A2
 92
        7
 72
     0
 73
     1
 93
        4
 10
322.2334227064654
 20
233.0138856722446
 10
330.0923046939225
 20
233.0138856722447
 10
330.0923046939225
 20
233.3138856722446
 10
321.9334227064654
 20
233.3138856722445
 97
        4
330
294
330
28C
330
402
330
2A2
 92
        7
 72
     0
 73
     1
 93
        4
 10
330.0923046939224
 20
233.0138856722446
 10
337.9511866813795
 20
233.0138856722446
 10
338.2511866813795
 20
233.3138856722446
 10
330.0923046939225
 20
233.3138856722446
 97
        4
330
294
330
2A2
330
402
330
28E
 92
       23
 72
     0
 73
     1
 93
        4
 10
330.0923046939224
 20
233.3138856722446
 10
338.2511866813795
 20
233.3138856722446
 10
338.9511866813796
 20
234.0138856722446
 10
330.0923046939224
 20
234.0138856722446
 97
        4
330
2A0
330
2A2
330
294
330
282
 92
       22
 72
     0
 73
     1
 93
        4
 10
344.0923046939268
 20
233.3138856722446
 10
338.2511866813795
 20
233.3138856722446
 10
338.9511866813796
 20
234.0138856722446
 10
343.3923046939223
 20
234.0138856722445
 97
        4
330
2A0
330
282
330
294
330
295
 92
       23
 72
     0
 73
     1
 93
        4
 10
337.9511866813795
 20
233.0138856722447
 10
344.0923046939223
 20
233.0138856722447
 10
344.0923046939224
 20
233.3138856722446
 10
338.2511866813794
 20
233.3138856722446
 97
        4
330
294
330
28E
330
402
330
296
 92
       24
 93
        4
 72
     1
 10
690.343474
 20
251.141172
 11
704.886332
 21
251.141172
 72
     1
 10
704.886332
 20
251.141172
 11
704.886332
 21
254.141172
 72
     1
 10
704.886332
 20
254.141172
 11
690.343474
 21
254.141172
 72
     1
 10
690.343474
 20
254.141172
 11
690.343474
 21
251.141172
 97
        1
330
26C
 75
     0
 76
     0
 52
45.0
 41
6.0
 77
     0
 78
     1
 53
45.0
 43
-50.354936
 44
0.0
 45
-4.242640687119284
 46
4.242640687119285
 79
     0
 47
0.040491
 98
       20
 10
373.388866
 20
263.221276
 10
414.608452
 20
266.727877
 10
539.43656
 20
268.188962
 10
524.527346
 20
245.396044
 10
607.33316
 20
233.192818
 10
607.33316
 20
233.563333
 10
610.616223
 20
233.669194
 10
610.880986
 20
233.192818
 10
619.67112
 20
233.192818
 10
619.882932
 20
233.457471
 10
629.732118
 20
233.616263
 10
628.037635
 20
233.139886
 10
383.159233
 20
233.134644
 10
383.118724
 20
233.539552
 10
385.751713
 20
233.661025
 10
385.913743
 20
233.134644
 10
394.21779
 20
233.134644
 10
394.420326
 20
233.49906
 10
401.792699
 20
233.539552
 10
401.671175
 20
233.094153
  0
HATCH
  5
23
100
AcDbEntity
  8
HATCH
100
AcDbHatch
 10
0.0
 20
0.0
 30
0.0
210
0.0
220
0.0
230
1.0
  2
_U
 70
     0
 71
     1
 91
        2
 92
        7
 72
     0
 73
     1
 93
        4
 10
820.0051721877786
 20
455.784226081063
 10
823.0051721877789
 20
455.7842260810629
 10
823.0051721877789
 20
496.559226081063
 10
820.0051721877786
 20
496.5592260810631
 97
        4
330
47D
330
483
330
45C
330
491
 92
        7
 72
     0
 73
     1
 93
        4
 10
823.0051721877787
 20
409.334226081063
 10
820.0051721877789
 20
409.3342260810631
 10
820.0051721877787
 20
402.5592260810632
 10
823.0051721877789
 20
402.5592260810631
 97
        4
330
45B
330
45D
330
481
330
491
 75
     0
 76
     0
 52
135.0
 41
0.8
 77
     0
 78
     1
 53
135.0
 43
24.645064
 44
0.0
 45
-0.5656854249492382
 46
-0.565685424949238
 79
     0
 47
0.242442
 98
        2
 10
821.327841
 20
492.865964
 10
821.570384
 20
406.799137
  0
DIMENSION
  5
24
100
AcDbEntity
  8
DIMS
100
AcDbDimension
  2
*D0
 10
797.605172
 20
470.100271
 30
0.0
 11
808.303756
 21
470.100271
 31
0.0
 12
25.0
 22
0.0
 32
0.0
 70
   128
  3
DIM1
100
AcDbAlignedDimension
 13
823.005172
 23
455.784226
 33
0.0
 14
797.605172
 24
454.784226
 34
0.0
100
AcDbRotatedDimension
1001
ACAD
1000
DSTYLE
1002
{
1070
   288
1070
     1
1070
   144
1040
1.0
1002
}
  0
DIMENSION
  5
33
100
AcDbEntity
  8
DIMS
100
AcDbDimension
  2
*D1
 10
774.606065
 20
455.784226
 30
0.0
 11
774.606065
 21
433.864678
 31
0.0
 12
25.0
 22
0.0
 32
0.0
 70
   128
  1
%%c46.5
  3
DIM1
100
AcDbAlignedDimension
 13
803.182522
 23
409.334226
 33
0.0
 14
803.182522
 24
455.784226
 34
0.0
 50
90.0
100
AcDbRotatedDimension
1001
ACAD
1000
DSTYLE
1002
{
1070
   288
1070
     1
1070
   144
1040
1.0
1002
}
  0
DIMENSION
  5
40
100
AcDbEntity
  8
DIMS
100
AcDbDimension
  2
*D2
 10
784.647296
 20
410.334226
 30
0.0
 11
784.647296
 21
433.524437
 31
0.0
 12
25.0
 22
0.0
 32
0.0
 70
   128
  1
%%c<> H7
  3
DIM1
100
AcDbAlignedDimension
 13
797.605172
 23
454.784226
 33
0.0
 14
797.605172
 24
410.334226
 34
0.0
 50
90.0
100
AcDbRotatedDimension
1001
ACAD
1000
DSTYLE
1002
{
1070
   288
1070
     1
1070
   144
1040
1.0
1002
}
  0
DIMENSION
  5
4D
100
AcDbEntity
  8
DIMS
100
AcDbDimension
  2
*D3
 10
802.605172
 20
381.12743
 30
0.0
 11
809.305172
 21
381.12743
 31
0.0
 12
25.0
 22
0.0
 32
0.0
 70
   128
  1
13.4
  3
DIM1
100
AcDbAlignedDimension
 13
816.005172
 23
393.559226
 33
0.0
 14
802.605172
 24
410.334226
 34
0.0
100
AcDbRotatedDimension
1001
ACAD
1000
DSTYLE
1002
{
1070
   288
1070
     1
1070
   144
1040
1.0
1002
}
  0
POINT
  5
5A
100
AcDbEntity
  8
DEFPOINTS
  6
BYBLOCK
 62
     0
100
AcDbPoint
 10
823.005172
 20
432.559226
 30
0.0
  0
LINE
  5
5B
100
AcDbEntity
  8
M04
100
AcDbLine
 10
823.005172
 20
422.359226
 30
0.0
 11
823.705172
 21
423.059226
 31
0.0
  0
LINE
  5
5D
100
AcDbEntity
  8
M04
100
AcDbLine
 10
823.005172
 20
442.759226
 30
0.0
 11
823.705172
 21
442.059226
 31
0.0
  0
LINE
  5
5E
100
AcDbEntity
  8
M03
100
AcDbLine
 10
815.605172
 20
434.859226
 30
0.0
 11
828.005172
 21
434.859226
 31
0.0
  0
LINE
  5
61
100
AcDbEntity
  8
M03
100
AcDbLine
 10
815.605172
 20
430.259226
 30
0.0
 11
828.005172
 21
430.259226
 31
0.0
  0
LINE
  5
62
100
AcDbEntity
  8
M03
100
AcDbLine
 10
815.605172
 20
429.559226
 30
0.0
 11
828.005172
 21
429.559226
 31
0.0
  0
LINE
  5
63
100
AcDbEntity
  8
M03
100
AcDbLine
 10
815.605172
 20
435.559226
 30
0.0
 11
828.005172
 21
435.559226
 31
0.0
  0
ARC
  5
64
100
AcDbEntity
  8
M03
100
AcDbCircle
 10
810.605172
 20
421.059226
 30
0.0
 40
5.0
100
AcDbArc
 50
270.0
 51
0.0
  0
ARC
  5
65
100
AcDbEntity
  8
M03
100
AcDbCircle
 10
810.605172
 20
444.059226
 30
0.0
 40
5.0
100
AcDbArc
 50
0.0
 51
90.0
  0
LINE
  5
66
100
AcDbEntity
  8
M03
100
AcDbLine
 10
797.605172
 20
416.059226
 30
0.0
 11
810.605172
 21
416.059226
 31
0.0
  0
LINE
  5
67
100
AcDbEntity
  8
M03
100
AcDbLine
 10
797.605172
 20
449.059226
 30
0.0
 11
810.605172
 21
449.059226
 31
0.0
  0
LINE
  5
68
100
AcDbEntity
  8
M03
100
AcDbLine
 10
815.605172
 20
444.059226
 30
0.0
 11
815.605172
 21
421.059226
 31
0.0
  0
LINE
  5
69
100
AcDbEntity
  8
M05
100
AcDbLine
 10
822.305172
 20
410.834226
 30
0.0
 11
822.305172
 21
454.284226
 31
0.0
  0
LINE
  5
6B
100
AcDbEntity
  8
M05
100
AcDbLine
 10
823.005172
 20
453.584226
 30
0.0
 11
822.305172
 21
454.284226
 31
0.0
  0
LINE
  5
6C
100
AcDbEntity
  8
M05
100
AcDbLine
 10
822.305172
 20
410.834226
 30
0.0
 11
823.005172
 21
411.534226
 31
0.0
  0
LINE
  5
6D
100
AcDbEntity
  8
M05
100
AcDbLine
 10
802.605172
 20
410.834226
 30
0.0
 11
822.305172
 21
410.834226
 31
0.0
  0
LINE
  5
6E
100
AcDbEntity
  8
M04
100
AcDbLine
 10
803.182522
 20
409.334226
 30
0.0
 11
803.182522
 21
410.834226
 31
0.0
  0
LINE
  5
6F
100
AcDbEntity
  8
M04
100
AcDbLine
 10
803.182522
 20
409.334226
 30
0.0
 11
816.005172
 21
409.334226
 31
0.0
  0
LINE
  5
70
100
AcDbEntity
  8
M04
100
AcDbLine
 10
802.605172
 20
410.334226
 30
0.0
 11
803.182522
 21
409.334226
 31
0.0
  0
LINE
  5
71
100
AcDbEntity
  8
M04
100
AcDbLine
 10
798.605172
 20
410.334226
 30
0.0
 11
797.605172
 21
410.334226
 31
0.0
  0
LINE
  5
72
100
AcDbEntity
  8
M04
100
AcDbLine
 10
797.605172
 20
411.334226
 30
0.0
 11
797.605172
 21
410.334226
 31
0.0
  0
LINE
  5
73
100
AcDbEntity
  8
M05
100
AcDbLine
 10
797.605172
 20
411.334226
 30
0.0
 11
798.605172
 21
410.334226
 31
0.0
  0
LINE
  5
74
100
AcDbEntity
  8
M05
100
AcDbLine
 10
798.605172
 20
410.334226
 30
0.0
 11
802.605172
 21
410.334226
 31
0.0
  0
LINE
  5
75
100
AcDbEntity
  8
M05
100
AcDbLine
 10
802.605172
 20
454.284226
 30
0.0
 11
822.305172
 21
454.284226
 31
0.0
  0
LINE
  5
76
100
AcDbEntity
  8
M04
100
AcDbLine
 10
828.005172
 20
424.059226
 30
0.0
 11
828.005172
 21
423.059226
 31
0.0
  0
LINE
  5
77
100
AcDbEntity
  8
M04
100
AcDbLine
 10
827.005172
 20
423.059226
 30
0.0
 11
828.005172
 21
423.059226
 31
0.0
  0
LINE
  5
78
100
AcDbEntity
  8
M04
100
AcDbLine
 10
803.182522
 20
455.784226
 30
0.0
 11
803.182522
 21
454.284226
 31
0.0
  0
LINE
  5
79
100
AcDbEntity
  8
M04
100
AcDbLine
 10
803.182522
 20
455.784226
 30
0.0
 11
816.005172
 21
455.784226
 31
0.0
  0
LINE
  5
7A
100
AcDbEntity
  8
M04
100
AcDbLine
 10
802.605172
 20
454.784226
 30
0.0
 11
803.182522
 21
455.784226
 31
0.0
  0
LINE
  5
7B
100
AcDbEntity
  8
M04
100
AcDbLine
 10
798.605172
 20
454.784226
 30
0.0
 11
797.605172
 21
454.784226
 31
0.0
  0
LINE
  5
7C
100
AcDbEntity
  8
M04
100
AcDbLine
 10
797.605172
 20
453.784226
 30
0.0
 11
797.605172
 21
454.784226
 31
0.0
  0
LINE
  5
7D
100
AcDbEntity
  8
M04
100
AcDbLine
 10
828.005172
 20
441.059226
 30
0.0
 11
828.005172
 21
442.059226
 31
0.0
  0
LINE
  5
7E
100
AcDbEntity
  8
M04
100
AcDbLine
 10
827.005172
 20
442.059226
 30
0.0
 11
828.005172
 21
442.059226
 31
0.0
  0
LINE
  5
7F
100
AcDbEntity
  8
M05
100
AcDbLine
 10
827.005172
 20
423.059226
 30
0.0
 11
827.005172
 21
442.059226
 31
0.0
  0
LINE
  5
80
100
AcDbEntity
  8
M05
100
AcDbLine
 10
798.605172
 20
410.334226
 30
0.0
 11
798.605172
 21
454.784226
 31
0.0
  0
LINE
  5
81
100
AcDbEntity
  8
M05
100
AcDbLine
 10
828.005172
 20
424.059226
 30
0.0
 11
827.005172
 21
423.059226
 31
0.0
  0
LINE
  5
82
100
AcDbEntity
  8
M05
100
AcDbLine
 10
827.005172
 20
442.059226
 30
0.0
 11
828.005172
 21
441.059226
 31
0.0
  0
LINE
  5
83
100
AcDbEntity
  8
M05
100
AcDbLine
 10
797.605172
 20
453.784226
 30
0.0
 11
798.605172
 21
454.784226
 31
0.0
  0
LINE
  5
84
100
AcDbEntity
  8
M05
100
AcDbLine
 10
798.605172
 20
454.784226
 30
0.0
 11
802.605172
 21
454.784226
 31
0.0
  0
LINE
  5
85
100
AcDbEntity
  8
M05
100
AcDbLine
 10
802.605172
 20
454.784226
 30
0.0
 11
802.605172
 21
410.334226
 31
0.0
  0
LINE
  5
86
100
AcDbEntity
  8
M05
100
AcDbLine
 10
797.605172
 20
453.784226
 30
0.0
 11
797.605172
 21
411.334226
 31
0.0
  0
LINE
  5
87
100
AcDbEntity
  8
M05
100
AcDbLine
 10
823.005172
 20
423.059226
 30
0.0
 11
827.005172
 21
423.059226
 31
0.0
  0
LINE
  5
88
100
AcDbEntity
  8
M05
100
AcDbLine
 10
823.005172
 20
442.059226
 30
0.0
 11
827.005172
 21
442.059226
 31
0.0
  0
LINE
  5
89
100
AcDbEntity
  8
M05
100
AcDbLine
 10
828.005172
 20
441.059226
 30
0.0
 11
828.005172
 21
424.059226
 31
0.0
  0
TEXT
  5
8A
100
AcDbEntity
  8
TEXT
100
AcDbText
 10
510.803678
 20
282.734612
 30
0.0
 40
2.0
  1
MA010002
 41
0.9
100
AcDbText
  0
LINE
  5
8C
102
{ACAD_REACTORS
330
21
102
}
100
AcDbEntity
  8
M02
100
AcDbLine
 10
481.867305
 20
283.013886
 30
0.0
 11
481.867305
 21
280.013886
 31
0.0
  0
POINT
  5
8E
100
AcDbEntity
  8
DEFPOINTS
  6
BYBLOCK
 62
     0
100
AcDbPoint
 10
505.092305
 20
280.013886
 30
0.0
  0
LINE
  5
8F
102
{ACAD_REACTORS
330
22
102
}
100
AcDbEntity
  8
M04
100
AcDbLine
 10
494.892305
 20
280.013886
 30
0.0
 11
495.592305
 21
279.313886
 31
0.0
  0
LINE
  5
90
102
{ACAD_REACTORS
330
22
102
}
100
AcDbEntity
  8
M04
100
AcDbLine
 10
515.292305
 20
280.013886
 30
0.0
 11
514.592305
 21
279.313886
 31
0.0
  0
LINE
  5
91
100
AcDbEntity
  8
M03
100
AcDbLine
 10
507.392305
 20
287.413886
 30
0.0
 11
507.392305
 21
275.013886
 31
0.0
  0
LINE
  5
92
100
AcDbEntity
  8
M03
100
AcDbLine
 10
502.792305
 20
287.413886
 30
0.0
 11
502.792305
 21
275.013886
 31
0.0
  0
LINE
  5
93
100
AcDbEntity
  8
M03
100
AcDbLine
 10
502.092305
 20
287.413886
 30
0.0
 11
502.092305
 21
275.013886
 31
0.0
  0
LINE
  5
94
100
AcDbEntity
  8
M03
100
AcDbLine
 10
508.092305
 20
287.413886
 30
0.0
 11
508.092305
 21
275.013886
 31
0.0
  0
ARC
  5
95
100
AcDbEntity
  8
M03
100
AcDbCircle
 10
493.592305
 20
292.413886
 30
0.0
 40
5.0
100
AcDbArc
 50
180.0
 51
270.0
  0
ARC
  5
96
100
AcDbEntity
  8
M03
100
AcDbCircle
 10
516.592305
 20
292.413886
 30
0.0
 40
5.0
100
AcDbArc
 50
270.0
 51
0.0
  0
LINE
  5
97
100
AcDbEntity
  8
M03
100
AcDbLine
 10
488.592305
 20
305.413886
 30
0.0
 11
488.592305
 21
292.413886
 31
0.0
  0
LINE
  5
98
100
AcDbEntity
  8
M03
100
AcDbLine
 10
521.592305
 20
305.413886
 30
0.0
 11
521.592305
 21
292.413886
 31
0.0
  0
LINE
  5
99
100
AcDbEntity
  8
M03
100
AcDbLine
 10
516.592305
 20
287.413886
 30
0.0
 11
493.592305
 21
287.413886
 31
0.0
  0
LINE
  5
9A
100
AcDbEntity
  8
M05
100
AcDbLine
 10
483.367305
 20
280.713886
 30
0.0
 11
526.817305
 21
280.713886
 31
0.0
  0
LINE
  5
9B
100
AcDbEntity
  8
M05
100
AcDbLine
 10
526.117305
 20
280.013886
 30
0.0
 11
526.817305
 21
280.713886
 31
0.0
  0
LINE
  5
9C
100
AcDbEntity
  8
M05
100
AcDbLine
 10
483.367305
 20
280.713886
 30
0.0
 11
484.067305
 21
280.013886
 31
0.0
  0
LINE
  5
9D
100
AcDbEntity
  8
M05
100
AcDbLine
 10
483.367305
 20
300.413886
 30
0.0
 11
483.367305
 21
280.713886
 31
0.0
  0
LINE
  5
9E
100
AcDbEntity
  8
M04
100
AcDbLine
 10
481.867305
 20
299.836535
 30
0.0
 11
483.367305
 21
299.836535
 31
0.0
  0
LINE
  5
9F
100
AcDbEntity
  8
M04
100
AcDbLine
 10
481.867305
 20
299.836535
 30
0.0
 11
481.867305
 21
287.013886
 31
0.0
  0
LINE
  5
A0
100
AcDbEntity
  8
M04
100
AcDbLine
 10
482.867305
 20
300.413886
 30
0.0
 11
481.867305
 21
299.836535
 31
0.0
  0
LINE
  5
A1
100
AcDbEntity
  8
M04
100
AcDbLine
 10
482.867305
 20
304.413886
 30
0.0
 11
482.867305
 21
305.413886
 31
0.0
  0
LINE
  5
A2
100
AcDbEntity
  8
M04
100
AcDbLine
 10
483.867305
 20
305.413886
 30
0.0
 11
482.867305
 21
305.413886
 31
0.0
  0
LINE
  5
A3
100
AcDbEntity
  8
M05
100
AcDbLine
 10
483.867305
 20
305.413886
 30
0.0
 11
482.867305
 21
304.413886
 31
0.0
  0
LINE
  5
A4
100
AcDbEntity
  8
M05
100
AcDbLine
 10
482.867305
 20
304.413886
 30
0.0
 11
482.867305
 21
300.413886
 31
0.0
  0
LINE
  5
A5
100
AcDbEntity
  8
M05
100
AcDbLine
 10
526.817305
 20
300.413886
 30
0.0
 11
526.817305
 21
280.713886
 31
0.0
  0
LINE
  5
A6
102
{ACAD_REACTORS
330
22
102
}
100
AcDbEntity
  8
M04
100
AcDbLine
 10
496.592305
 20
275.013886
 30
0.0
 11
495.592305
 21
275.013886
 31
0.0
  0
LINE
  5
A7
102
{ACAD_REACTORS
330
22
102
}
100
AcDbEntity
  8
M04
100
AcDbLine
 10
495.592305
 20
276.013886
 30
0.0
 11
495.592305
 21
275.013886
 31
0.0
  0
LINE
  5
A8
100
AcDbEntity
  8
M04
100
AcDbLine
 10
528.317305
 20
299.836535
 30
0.0
 11
526.817305
 21
299.836535
 31
0.0
  0
LINE
  5
A9
100
AcDbEntity
  8
M04
100
AcDbLine
 10
528.317305
 20
299.836535
 30
0.0
 11
528.317305
 21
287.013886
 31
0.0
  0
LINE
  5
AA
100
AcDbEntity
  8
M04
100
AcDbLine
 10
527.317305
 20
300.413886
 30
0.0
 11
528.317305
 21
299.836535
 31
0.0
  0
LINE
  5
AB
100
AcDbEntity
  8
M04
100
AcDbLine
 10
527.317305
 20
304.413886
 30
0.0
 11
527.317305
 21
305.413886
 31
0.0
  0
LINE
  5
AC
100
AcDbEntity
  8
M04
100
AcDbLine
 10
526.317305
 20
305.413886
 30
0.0
 11
527.317305
 21
305.413886
 31
0.0
  0
LINE
  5
AD
102
{ACAD_REACTORS
330
22
102
}
100
AcDbEntity
  8
M04
100
AcDbLine
 10
513.592305
 20
275.013886
 30
0.0
 11
514.592305
 21
275.013886
 31
0.0
  0
LINE
  5
AE
102
{ACAD_REACTORS
330
22
102
}
100
AcDbEntity
  8
M04
100
AcDbLine
 10
514.592305
 20
276.013886
 30
0.0
 11
514.592305
 21
275.013886
 31
0.0
  0
LINE
  5
AF
100
AcDbEntity
  8
M05
100
AcDbLine
 10
495.592305
 20
276.013886
 30
0.0
 11
514.592305
 21
276.013886
 31
0.0
  0
LINE
  5
B0
100
AcDbEntity
  8
M05
100
AcDbLine
 10
482.867305
 20
304.413886
 30
0.0
 11
527.317305
 21
304.413886
 31
0.0
  0
LINE
  5
B1
100
AcDbEntity
  8
M05
100
AcDbLine
 10
496.592305
 20
275.013886
 30
0.0
 11
495.592305
 21
276.013886
 31
0.0
  0
LINE
  5
B2
100
AcDbEntity
  8
M05
100
AcDbLine
 10
514.592305
 20
276.013886
 30
0.0
 11
513.592305
 21
275.013886
 31
0.0
  0
LINE
  5
B3
100
AcDbEntity
  8
M05
100
AcDbLine
 10
526.317305
 20
305.413886
 30
0.0
 11
527.317305
 21
304.413886
 31
0.0
  0
LINE
  5
B4
100
AcDbEntity
  8
M05
100
AcDbLine
 10
527.317305
 20
304.413886
 30
0.0
 11
527.317305
 21
300.413886
 31
0.0
  0
LINE
  5
B5
100
AcDbEntity
  8
M05
100
AcDbLine
 10
527.317305
 20
300.413886
 30
0.0
 11
482.867305
 21
300.413886
 31
0.0
  0
LINE
  5
B6
100
AcDbEntity
  8
M05
100
AcDbLine
 10
526.317305
 20
305.413886
 30
0.0
 11
483.867305
 21
305.413886
 31
0.0
  0
LINE
  5
B7
102
{ACAD_REACTORS
330
22
102
}
100
AcDbEntity
  8
M05
100
AcDbLine
 10
495.592305
 20
280.013886
 30
0.0
 11
495.592305
 21
276.013886
 31
0.0
  0
LINE
  5
B8
102
{ACAD_REACTORS
330
22
102
}
100
AcDbEntity
  8
M05
100
AcDbLine
 10
514.592305
 20
280.013886
 30
0.0
 11
514.592305
 21
276.013886
 31
0.0
  0
LINE
  5
B9
102
{ACAD_REACTORS
330
22
102
}
100
AcDbEntity
  8
M05
100
AcDbLine
 10
513.592305
 20
275.013886
 30
0.0
 11
496.592305
 21
275.013886
 31
0.0
  0
HATCH
  5
BA
100
AcDbEntity
  8
HATCH
100
AcDbHatch
 10
0.0
 20
0.0
 30
0.0
210
0.0
220
0.0
230
1.0
  2
_U
 70
     0
 71
     1
 91
        2
 92
        7
 72
     1
 73
     1
 93
        2
 10
303.0923046939224
 20
276.0138856722448
 42
1.0
 10
311.0923046939224
 20
276.0138856722448
 42
1.0
 97
        1
330
139
 92
        7
 72
     1
 73
     1
 93
        2
 10
303.0923046939224
 20
237.0138856722445
 42
1.0
 10
311.0923046939224
 20
237.0138856722445
 42
1.0
 97
        1
330
130
 75
     0
 76
     0
 52
45.0
 41
0.8
 77
     0
 78
     1
 53
45.0
 43
-137.854936
 44
-14.472589
 45
-0.565685424949238
 46
0.565685424949238
 79
     0
 47
0.251927
 98
        2
 10
305.629202
 20
277.784946
 10
308.653576
 20
238.988148
  0
HATCH
  5
BB
100
AcDbEntity
  8
HATCH
100
AcDbHatch
 10
0.0
 20
0.0
 30
0.0
210
0.0
220
0.0
230
1.0
  2
_U
 70
     0
 71
     0
 91
        2
 92
        7
 72
     1
 73
     1
 93
        2
 10
699.0923046939224
 20
276.0138856722448
 42
1.0
 10
707.0923046939224
 20
276.0138856722448
 42
1.0
 97
        0
 92
        7
 72
     1
 73
     1
 93
        2
 10
699.0923046939224
 20
237.0138856722445
 42
1.0
 10
707.0923046939224
 20
237.0138856722445
 42
1.0
 97
        0
 75
     0
 76
     0
 52
45.0
 41
0.8
 77
     0
 78
     1
 53
45.0
 43
37.145064
 44
-14.472589
 45
-0.565685424949238
 46
0.565685424949238
 79
     0
 47
0.251927
 98
        2
 10
704.432932
 20
277.533019
 10
704.936993
 20
237.980438
  0
HATCH
  5
BC
100
AcDbEntity
  8
HATCH
100
AcDbHatch
 10
0.0
 20
0.0
 30
0.0
210
0.0
220
0.0
230
1.0
  2
_U
 70
     0
 71
     0
 91
       16
 92
        7
 72
     1
 73
     1
 93
        5
 10
505.0923046939224
 20
452.5592260810632
 42
0.0
 10
505.0923046939224
 20
453.0592260810632
 42
-0.1856631955229143
 10
501.4069659493552
 20
454.4765457926017
 42
0.3157147729334966
 10
483.2302227939751
 20
436.5592260810632
 42
0.0
 10
485.496386751657
 20
436.5592260810632
 42
-0.3563939586925999
 97
        0
 92
       22
 72
     1
 73
     1
 93
        4
 10
505.0923046939224
 20
452.5592260810632
 42
0.3563939586925999
 10
485.496386751657
 20
436.5592260810632
 42
0.0
 10
496.4754607241153
 20
436.5592260810632
 42
-0.2919418509678903
 10
505.0923046939224
 20
442.0592260810632
 42
0.0
 97
        0
 92
        6
 72
     1
 73
     1
 93
        3
 10
505.0923046939224
 20
442.0592260810632
 42
0.2919418509678903
 10
496.4754607241153
 20
436.5592260810632
 42
0.0
 10
505.0923046939224
 20
436.5592260810632
 42
0.0
 97
        0
 92
        7
 72
     1
 73
     1
 93
        4
 10
505.0923046939224
 20
436.5592260810632
 42
0.0
 10
496.4754607241153
 20
436.5592260810632
 42
0.1090809576248918
 10
495.5923046939224
 20
432.5592260810632
 42
0.0
 10
501.0923046939224
 20
432.5592260810632
 42
-0.4142135623730992
 97
        0
 92
       22
 72
     1
 73
     1
 93
        3
 10
505.0923046939224
 20
436.5592260810632
 42
0.4142135623730992
 10
501.0923046939224
 20
432.5592260810632
 42
0.0
 10
505.0923046939225
 20
432.5592260810631
 42
0.0
 97
        0
 92
        7
 72
     1
 73
     1
 93
        4
 10
496.4754607241153
 20
436.5592260810632
 42
0.0
 10
485.496386751657
 20
436.5592260810632
 42
0.0503820444848851
 10
485.0923046939223
 20
432.5592260810632
 42
0.0
 10
495.5923046939224
 20
432.5592260810632
 42
-0.1090809576248918
 97
        0
 92
        7
 72
     1
 73
     1
 93
        5
 10
485.496386751657
 20
436.5592260810632
 42
0.0
 10
483.2302227939751
 20
436.5592260810632
 42
0.003593667114849
 10
483.174984982384
 20
436.2445648256303
 42
-0.1856631955229133
 10
484.5923046939224
 20
432.5592260810632
 42
0.0
 10
485.0923046939223
 20
432.5592260810632
 42
-0.0503820444848851
 97
        0
 92
        7
 72
     1
 73
     1
 93
        3
 10
483.174984982384
 20
436.2445648256303
 42
0.0416713391594355
 10
482.8673046939224
 20
432.5592260810632
 42
0.0
 10
484.5923046939224
 20
432.5592260810632
 42
0.1856631955229133
 97
        0
 92
       22
 72
     1
 73
     1
 93
        3
 10
509.0923046939224
 20
432.5592260810632
 42
0.0
 10
505.0923046939225
 20
432.5592260810632
 42
0.0
 10
505.0923046939225
 20
428.5592260810632
 42
0.4142135623730826
 97
        0
 92
        7
 72
     1
 73
     1
 93
        4
 10
514.5923046939223
 20
432.5592260810632
 42
0.0
 10
509.0923046939224
 20
432.5592260810632
 42
-0.4142135623730909
 10
505.0923046939224
 20
428.5592260810632
 42
0.0
 10
513.7091486637294
 20
428.5592260810632
 42
0.1090809576248888
 97
        0
 92
        6
 72
     1
 73
     1
 93
        3
 10
513.7091486637294
 20
428.5592260810632
 42
0.0
 10
505.0923046939224
 20
428.5592260810632
 42
0.0
 10
505.0923046939224
 20
423.0592260810632
 42
0.2919418509678903
 97
        0
 92
       22
 72
     1
 73
     1
 93
        4
 10
524.6882226361877
 20
428.5592260810632
 42
0.0
 10
513.7091486637294
 20
428.5592260810632
 42
-0.2919418509678903
 10
505.0923046939224
 20
423.0592260810632
 42
0.0
 10
505.0923046939224
 20
412.5592260810632
 42
0.3563939586925999
 97
        0
 92
        7
 72
     1
 73
     1
 93
        4
 10
525.0923046939224
 20
432.5592260810632
 42
0.0
 10
514.5923046939223
 20
432.5592260810632
 42
-0.1090809576248888
 10
513.7091486637294
 20
428.5592260810632
 42
0.0
 10
524.6882226361877
 20
428.5592260810632
 42
0.0503820444848837
 97
        0
 92
        7
 72
     1
 73
     1
 93
        5
 10
525.5923046939224
 20
432.5592260810632
 42
0.0
 10
525.0923046939224
 20
432.5592260810632
 42
-0.0503820444848837
 10
524.6882226361877
 20
428.5592260810632
 42
0.0
 10
526.9543865938697
 20
428.5592260810632
 42
0.003593667114849
 10
527.0096244054608
 20
428.8738873364961
 42
-0.185663195522908
 97
        0
 92
        7
 72
     1
 73
     1
 93
        3
 10
527.3173046939224
 20
432.5592260810632
 42
0.0
 10
525.5923046939224
 20
432.5592260810632
 42
0.185663195522908
 10
527.0096244054608
 20
428.8738873364961
 42
0.0416713391594342
 97
        0
 92
        7
 72
     1
 73
     1
 93
        4
 10
526.9543865938697
 20
428.5592260810632
 42
0.0
 10
524.6882226361877
 20
428.5592260810632
 42
-0.3563939586925999
 10
505.0923046939224
 20
412.5592260810632
 42
0.0
 10
505.0923046939224
 20
410.3342260810632
 42
0.3621506593782504
 97
        0
 75
     0
 76
     0
 52
45.0
 41
2.0
 77
     1
 78
     2
 53
45.0
 43
-50.354936
 44
0.0
 45
-1.414213562373094
 46
1.414213562373095
 79
     0
 53
135.0
 43
-50.354936
 44
0.0
 45
-1.414213562373095
 46
-1.414213562373094
 79
     0
 47
0.113412
 98
       16
 10
492.77615
 20
449.879146
 10
494.478026
 20
446.023152
 10
502.64703
 20
439.672104
 10
499.583653
 20
435.022228
 10
503.781614
 20
434.681993
 10
492.549233
 20
434.568582
 10
484.493687
 20
435.929521
 10
483.926396
 20
433.888112
 10
507.412283
 20
430.485764
 10
511.383326
 20
430.599175
 10
508.093033
 20
426.176123
 10
515.127453
 20
424.47495
 10
518.87158
 20
430.258941
 10
525.452167
 20
429.691883
 10
526.927126
 20
430.939411
 10
525.565626
 20
424.928596
  0
HATCH
  5
BD
100
AcDbEntity
  8
M03
100
AcDbHatch
 10
0.0
 20
0.0
 30
0.0
210
0.0
220
0.0
230
1.0
  2
_U
 70
     0
 71
     0
 91
        1
 92
        7
 72
     0
 73
     1
 93
        4
 10
348.2852419007373
 20
404.4592260810629
 10
319.046782486102
 20
404.4592260810629
 10
319.0467824861019
 20
402.5592260810629
 10
348.2852419007375
 20
402.559226081063
 97
        0
 75
     0
 76
     0
 52
330.0
 41
0.7
 77
     0
 78
     1
 53
330.0
 43
-142.854936
 44
0.0
 45
0.3500000000000003
 46
0.6062177826491069
 79
     0
 47
0.060863
 98
        1
 10
344.59407
 20
403.271795
  0
HATCH
  5
BE
100
AcDbEntity
  8
M03
100
AcDbHatch
 10
0.0
 20
0.0
 30
0.0
210
0.0
220
0.0
230
1.0
  2
_U
 70
     0
 71
     0
 91
        1
 92
        7
 72
     0
 73
     1
 93
        4
 10
348.2852419007375
 20
404.4592260810629
 10
319.0467824861018
 20
404.4592260810629
 10
319.0467824861018
 20
402.5592260810628
 10
348.2852419007375
 20
402.559226081063
 97
        0
 75
     0
 76
     0
 52
30.0
 41
0.7
 77
     0
 78
     1
 53
30.0
 43
-142.854936
 44
0.0
 45
-0.3499999999999999
 46
0.6062177826491072
 79
     0
 47
0.060863
 98
        1
 10
344.411406
 20
403.515247
  0
LINE
  5
BF
100
AcDbEntity
  8
M01
100
AcDbLine
 10
863.993184
 20
566.794894
 30
0.0
 11
865.972892
 21
568.001623
 31
0.0
  0
LINE
  5
C1
100
AcDbEntity
  8
M01
100
AcDbLine
 10
871.727151
 20
578.248121
 30
0.0
 11
871.727151
 21
586.822933
 31
0.0
  0
LINE
  5
C2
100
AcDbEntity
  8
M01
100
AcDbLine
 10
867.727151
 20
578.248121
 30
0.0
 11
867.727151
 21
586.822933
 31
0.0
  0
ARC
  5
C3
100
AcDbEntity
  8
M01
100
AcDbCircle
 10
859.727151
 20
578.248121
 30
0.0
 40
12.0
100
AcDbArc
 50
301.364349
 51
0.0
  0
ARC
  5
C4
100
AcDbEntity
  8
M01
100
AcDbCircle
 10
859.727151
 20
578.248121
 30
0.0
 40
8.0
100
AcDbArc
 50
308.846454
 51
0.0
  0
LINE
  5
C5
100
AcDbEntity
  8
M01
100
AcDbLine
 10
850.361823
 20
563.170441
 30
0.0
 11
860.589235
 21
569.404549
 31
0.0
  0
LINE
  5
C6
100
AcDbEntity
  8
M01
100
AcDbLine
 10
852.443737
 20
559.754942
 30
0.0
 11
852.767269
 21
559.952151
 31
0.0
  0
LINE
  5
C7
100
AcDbEntity
  8
M01
100
AcDbLine
 10
851.005172
 20
552.752534
 30
0.0
 11
851.005172
 21
552.159226
 31
0.0
  0
LINE
  5
C8
100
AcDbEntity
  8
M01
100
AcDbLine
 10
847.005172
 20
557.193317
 30
0.0
 11
847.005172
 21
554.467473
 31
0.0
  0
ARC
  5
C9
100
AcDbEntity
  8
M01
100
AcDbCircle
 10
854.005172
 20
557.193317
 30
0.0
 40
3.0
100
AcDbArc
 50
121.364349
 51
151.672691
  0
ARC
  5
CA
100
AcDbEntity
  8
M01
100
AcDbCircle
 10
854.005172
 20
557.193317
 30
0.0
 40
7.0
100
AcDbArc
 50
121.364349
 51
180.0
  0
ARC
  5
CB
100
AcDbEntity
  8
M01
100
AcDbCircle
 10
854.005172
 20
552.159226
 30
0.0
 40
7.0
100
AcDbArc
 50
202.678679
 51
270.0
  0
ARC
  5
CC
100
AcDbEntity
  8
M01
100
AcDbCircle
 10
854.005172
 20
552.159226
 30
0.0
 40
3.0
100
AcDbArc
 50
180.0
 51
270.0
  0
ARC
  5
CD
100
AcDbEntity
  8
M01
100
AcDbCircle
 10
852.745035
 20
570.975701
 30
0.0
 40
12.0
100
AcDbArc
 50
313.586993
 51
0.0
  0
ARC
  5
CE
100
AcDbEntity
  8
M01
100
AcDbCircle
 10
852.745035
 20
570.975701
 30
0.0
 40
8.0
100
AcDbArc
 50
313.586993
 51
0.0
  0
LINE
  5
CF
100
AcDbEntity
  8
M01
100
AcDbLine
 10
854.005172
 20
549.159226
 30
0.0
 11
859.005172
 21
549.159226
 31
0.0
  0
LINE
  5
D0
100
AcDbEntity
  8
M01
100
AcDbLine
 10
855.005172
 20
549.159226
 30
0.0
 11
855.005172
 21
545.159226
 31
0.0
  0
LINE
  5
D1
100
AcDbEntity
  8
M01
100
AcDbLine
 10
859.005172
 20
549.159226
 30
0.0
 11
859.005172
 21
545.159226
 31
0.0
  0
LINE
  5
D2
100
AcDbEntity
  8
M01
100
AcDbLine
 10
824.005172
 20
545.159226
 30
0.0
 11
838.229711
 21
545.159226
 31
0.0
  0
LINE
  5
D3
100
AcDbEntity
  8
M01
100
AcDbLine
 10
838.229711
 20
549.159226
 30
0.0
 11
834.005172
 21
549.159226
 31
0.0
  0
ARC
  5
D4
100
AcDbEntity
  8
M01
100
AcDbCircle
 10
838.229711
 20
557.159226
 30
0.0
 40
12.0
100
AcDbArc
 50
270.0
 51
313.586993
  0
ARC
  5
D5
100
AcDbEntity
  8
M01
100
AcDbCircle
 10
838.229711
 20
557.159226
 30
0.0
 40
8.0
100
AcDbArc
 50
270.0
 51
313.586993
  0
LINE
  5
D6
100
AcDbEntity
  8
M01
100
AcDbLine
 10
838.005172
 20
549.159226
 30
0.0
 11
838.005172
 21
545.159226
 31
0.0
  0
LINE
  5
D7
100
AcDbEntity
  8
M01
100
AcDbLine
 10
834.005172
 20
549.159226
 30
0.0
 11
834.005172
 21
545.159226
 31
0.0
  0
LINE
  5
D8
100
AcDbEntity
  8
M01
100
AcDbLine
 10
861.018497
 20
562.28376
 30
0.0
 11
846.503172
 21
548.467285
 31
0.0
  0
LINE
  5
D9
100
AcDbEntity
  8
M01
100
AcDbLine
 10
858.260676
 20
565.181074
 30
0.0
 11
843.745352
 21
551.364599
 31
0.0
  0
LINE
  5
DA
100
AcDbEntity
  8
M01
100
AcDbLine
 10
864.745035
 20
586.814191
 30
0.0
 11
864.745035
 21
570.975701
 31
0.0
  0
LINE
  5
DB
100
AcDbEntity
  8
M01
100
AcDbLine
 10
860.745035
 20
586.814191
 30
0.0
 11
860.745035
 21
570.975701
 31
0.0
  0
HATCH
  5
DC
100
AcDbEntity
  8
HATCH
100
AcDbHatch
 10
0.0
 20
0.0
 30
0.0
210
0.0
220
0.0
230
1.0
  2
_U
 70
     0
 71
     1
 91
        2
 92
        7
 72
     0
 73
     1
 93
       11
 10
322.2334227064653
 20
233.0138856722447
 10
316.7923046939224
 20
233.0138856722447
 10
316.0923046939223
 20
232.3138856722447
 10
316.0923046939225
 20
226.7138856722444
 10
316.7923046939224
 20
226.0138856722446
 10
319.5923046939227
 20
226.0138856722446
 10
320.5923046939224
 20
227.0138856722445
 10
322.5923046939219
 20
227.0138856722446
 10
323.5923046939217
 20
226.0138856722446
 10
326.5923046939223
 20
226.0138856722446
 10
326.5923046939223
 20
228.6550036847876
 97
       10
330
402
330
29C
330
2A1
330
29D
330
408
330
E0
330
E2
330
E1
330
28A
330
28C
 92
        7
 72
     0
 73
     1
 93
       11
 10
337.9511866813795
 20
233.0138856722447
 10
333.5923046939224
 20
228.6550036847875
 10
333.5923046939224
 20
226.0138856722445
 10
336.5923046939231
 20
226.0138856722446
 10
337.5923046939228
 20
227.0138856722446
 10
339.5923046939224
 20
227.0138856722445
 10
340.5923046939223
 20
226.0138856722445
 10
343.3923046939223
 20
226.0138856722446
 10
344.0923046939222
 20
226.7138856722445
 10
344.0923046939224
 20
232.3138856722446
 10
343.3923046939224
 20
233.0138856722447
 97
       10
330
297
330
402
330
28E
330
289
330
271
330
DE
330
DF
330
DD
330
298
330
299
 75
     0
 76
     0
 52
135.0
 41
1.5
 77
     0
 78
     1
 53
135.0
 43
-170.354936
 44
-14.472589
 45
-1.060660171779821
 46
-1.060660171779821
 79
     0
 47
0.040219
 98
        2
 10
321.244088
 20
230.493456
 10
339.712376
 20
230.051044
  0
LINE
  5
DD
102
{ACAD_REACTORS
330
DC
102
}
100
AcDbEntity
  8
M05
100
AcDbLine
 10
339.592305
 20
227.013886
 30
0.0
 11
340.592305
 21
226.013886
 31
0.0
  0
LINE
  5
DE
102
{ACAD_REACTORS
330
DC
102
}
100
AcDbEntity
  8
M05
100
AcDbLine
 10
337.592305
 20
227.013886
 30
0.0
 11
336.592305
 21
226.013886
 31
0.0
  0
LINE
  5
DF
102
{ACAD_REACTORS
330
DC
102
}
100
AcDbEntity
  8
M05
100
AcDbLine
 10
339.592305
 20
227.013886
 30
0.0
 11
337.592305
 21
227.013886
 31
0.0
  0
LINE
  5
E0
102
{ACAD_REACTORS
330
DC
102
}
100
AcDbEntity
  8
M05
100
AcDbLine
 10
320.592305
 20
227.013886
 30
0.0
 11
319.592305
 21
226.013886
 31
0.0
  0
LINE
  5
E1
102
{ACAD_REACTORS
330
DC
102
}
100
AcDbEntity
  8
M05
100
AcDbLine
 10
322.592305
 20
227.013886
 30
0.0
 11
323.592305
 21
226.013886
 31
0.0
  0
LINE
  5
E2
102
{ACAD_REACTORS
330
DC
102
}
100
AcDbEntity
  8
M05
100
AcDbLine
 10
320.592305
 20
227.013886
 30
0.0
 11
322.592305
 21
227.013886
 31
0.0
  0
HATCH
  5
E3
100
AcDbEntity
  8
HATCH
100
AcDbHatch
 10
0.0
 20
0.0
 30
0.0
210
0.0
220
0.0
230
1.0
  2
_U
 70
     0
 71
     0
 91
        2
 92
        7
 72
     0
 73
     1
 93
       11
 10
672.2334227064652
 20
233.0138856722446
 10
666.7923046939225
 20
233.0138856722447
 10
666.0923046939224
 20
232.3138856722446
 10
666.0923046939224
 20
226.7138856722445
 10
666.7923046939223
 20
226.0138856722446
 10
669.5923046939225
 20
226.0138856722446
 10
670.5923046939223
 20
227.0138856722445
 10
672.5923046939221
 20
227.0138856722446
 10
673.5923046939216
 20
226.0138856722446
 10
676.5923046939223
 20
226.0138856722446
 10
676.5923046939223
 20
228.6550036847875
 97
        0
 92
        7
 72
     0
 73
     1
 93
       11
 10
694.0923046939224
 20
232.3138856722446
 10
693.3923046939224
 20
233.0138856722446
 10
687.9511866813793
 20
233.0138856722445
 10
683.5923046939224
 20
228.6550036847875
 10
683.5923046939224
 20
226.0138856722445
 10
686.592304693923
 20
226.0138856722445
 10
687.5923046939228
 20
227.0138856722446
 10
689.5923046939223
 20
227.0138856722445
 10
690.5923046939221
 20
226.0138856722445
 10
693.3923046939224
 20
226.0138856722445
 10
694.0923046939222
 20
226.7138856722444
 97
        0
 75
     0
 76
     0
 52
135.0
 41
1.5
 77
     0
 78
     1
 53
135.0
 43
69.645064
 44
-14.472589
 45
-1.060660171779821
 46
-1.060660171779821
 79
     0
 47
0.151518
 98
        2
 10
670.568235
 20
229.697923
 10
689.212646
 20
230.303994
  0
LINE
  5
E4
100
AcDbEntity
  8
M05
100
AcDbLine
 10
670.592305
 20
227.013886
 30
0.0
 11
669.592305
 21
226.013886
 31
0.0
  0
LINE
  5
E5
100
AcDbEntity
  8
M05
100
AcDbLine
 10
672.592305
 20
227.013886
 30
0.0
 11
673.592305
 21
226.013886
 31
0.0
  0
LINE
  5
E6
100
AcDbEntity
  8
M05
100
AcDbLine
 10
670.592305
 20
227.013886
 30
0.0
 11
672.592305
 21
227.013886
 31
0.0
  0
LINE
  5
E7
100
AcDbEntity
  8
M05
100
AcDbLine
 10
689.592305
 20
227.013886
 30
0.0
 11
690.592305
 21
226.013886
 31
0.0
  0
LINE
  5
E8
100
AcDbEntity
  8
M05
100
AcDbLine
 10
687.592305
 20
227.013886
 30
0.0
 11
686.592305
 21
226.013886
 31
0.0
  0
LINE
  5
E9
100
AcDbEntity
  8
M05
100
AcDbLine
 10
689.592305
 20
227.013886
 30
0.0
 11
687.592305
 21
227.013886
 31
0.0
  0
LINE
  5
EA
102
{ACAD_REACTORS
330
20
102
}
100
AcDbEntity
  8
M02
100
AcDbLine
 10
662.092305
 20
280.013886
 30
0.0
 11
662.092305
 21
283.013886
 31
0.0
  0
LINE
  5
EB
102
{ACAD_REACTORS
330
20
102
}
100
AcDbEntity
  8
M02
100
AcDbLine
 10
698.092305
 20
280.013886
 30
0.0
 11
698.092305
 21
283.013886
 31
0.0
  0
LINE
  5
EC
102
{ACAD_REACTORS
330
21
102
}
100
AcDbEntity
  8
M02
100
AcDbLine
 10
348.092305
 20
280.013886
 30
0.0
 11
348.092305
 21
283.013886
 31
0.0
  0
LINE
  5
ED
102
{ACAD_REACTORS
330
21
102
}
100
AcDbEntity
  8
M02
100
AcDbLine
 10
312.092305
 20
280.013886
 30
0.0
 11
312.092305
 21
283.013886
 31
0.0
  0
POINT
  5
EE
100
AcDbEntity
  8
DEFPOINTS
  6
BYBLOCK
 62
     0
100
AcDbPoint
 10
680.092305
 20
482.559226
 30
0.0
  0
POINT
  5
EF
100
AcDbEntity
  8
DEFPOINTS
  6
BYBLOCK
 62
     0
100
AcDbPoint
 10
683.502172
 20
488.093014
 30
0.0
  0
MTEXT
  5
F0
100
AcDbEntity
  8
0
  6
BYBLOCK
 62
     2
100
AcDbMText
 10
546.634508
 20
507.810084
 30
0.0
 40
3.0
 41
0.0
 71
     4
 72
     1
  1
M12 PLATE RETAINING SCREWS SHOULD ALSO BE FITTED.\PMINIMUM 2 PER DROP & ALSO AROUND MANIFOLD POCKET.
  0
SOLID
  5
F1
100
AcDbEntity
  8
0
  6
BYBLOCK
 62
     4
100
AcDbTrace
 10
675.534328
 20
490.909367
 30
0.0
 11
674.682976
 21
490.384772
 31
0.0
 12
676.682437
 22
488.093014
 32
0.0
 13
676.682437
 23
488.093014
 33
0.0
  0
LINE
  5
F2
100
AcDbEntity
  8
0
  6
BYBLOCK
 62
     4
100
AcDbLine
 10
675.108652
 20
490.647069
 30
0.0
 11
667.571463
 21
502.580289
 31
0.0
  0
LINE
  5
F3
100
AcDbEntity
  8
M01
100
AcDbLine
 10
860.755172
 20
530.503326
 30
0.0
 11
867.255172
 21
530.503326
 31
0.0
  0
LINE
  5
F4
100
AcDbEntity
  8
M01
100
AcDbLine
 10
860.755172
 20
538.615126
 30
0.0
 11
867.255172
 21
538.615126
 31
0.0
  0
LINE
  5
F5
100
AcDbEntity
  8
M01
100
AcDbLine
 10
860.755172
 20
530.503326
 30
0.0
 11
860.755172
 21
528.559226
 31
0.0
  0
ARC
  5
F6
100
AcDbEntity
  8
M01
100
AcDbCircle
 10
859.505172
 20
532.064576
 30
0.0
 40
2.0
100
AcDbArc
 50
308.682187
 51
0.0
  0
ARC
  5
F7
100
AcDbEntity
  8
M01
100
AcDbCircle
 10
859.505172
 20
537.053876
 30
0.0
 40
2.0
100
AcDbArc
 50
0.0
 51
51.317813
  0
LINE
  5
F8
100
AcDbEntity
  8
M01
100
AcDbLine
 10
860.755172
 20
540.559226
 30
0.0
 11
860.755172
 21
538.615126
 31
0.0
  0
LINE
  5
F9
100
AcDbEntity
  8
M01
100
AcDbLine
 10
861.505172
 20
537.053876
 30
0.0
 11
861.505172
 21
532.064576
 31
0.0
  0
LINE
  5
FA
100
AcDbEntity
  8
M01
100
AcDbLine
 10
867.255172
 20
530.503326
 30
0.0
 11
867.255172
 21
528.559226
 31
0.0
  0
ARC
  5
FB
100
AcDbEntity
  8
M01
100
AcDbCircle
 10
868.505172
 20
532.064576
 30
0.0
 40
2.0
100
AcDbArc
 50
180.0
 51
231.317813
  0
ARC
  5
FC
100
AcDbEntity
  8
M01
100
AcDbCircle
 10
868.505172
 20
537.053876
 30
0.0
 40
2.0
100
AcDbArc
 50
128.682187
 51
180.0
  0
LINE
  5
FD
100
AcDbEntity
  8
M01
100
AcDbLine
 10
867.255172
 20
540.559226
 30
0.0
 11
867.255172
 21
538.615126
 31
0.0
  0
LINE
  5
FE
100
AcDbEntity
  8
M01
100
AcDbLine
 10
866.505172
 20
537.053876
 30
0.0
 11
866.505172
 21
532.064576
 31
0.0
  0
LINE
  5
FF
100
AcDbEntity
  8
M01
100
AcDbLine
 10
520.342305
 20
530.503326
 30
0.0
 11
513.842305
 21
530.503326
 31
0.0
  0
LINE
  5
100
100
AcDbEntity
  8
M01
100
AcDbLine
 10
520.342305
 20
538.615126
 30
0.0
 11
513.842305
 21
538.615126
 31
0.0
  0
LINE
  5
101
100
AcDbEntity
  8
M01
100
AcDbLine
 10
520.342305
 20
530.503326
 30
0.0
 11
520.342305
 21
528.559226
 31
0.0
  0
ARC
  5
102
100
AcDbEntity
  8
M01
100
AcDbCircle
 10
521.592305
 20
532.064576
 30
0.0
 40
2.0
100
AcDbArc
 50
180.0
 51
231.317813
  0
ARC
  5
103
100
AcDbEntity
  8
M01
100
AcDbCircle
 10
521.592305
 20
537.053876
 30
0.0
 40
2.0
100
AcDbArc
 50
128.682187
 51
180.0
  0
LINE
  5
104
100
AcDbEntity
  8
M01
100
AcDbLine
 10
520.342305
 20
540.559226
 30
0.0
 11
520.342305
 21
538.615126
 31
0.0
  0
LINE
  5
105
100
AcDbEntity
  8
M01
100
AcDbLine
 10
519.592305
 20
537.053876
 30
0.0
 11
519.592305
 21
532.064576
 31
0.0
  0
LINE
  5
106
100
AcDbEntity
  8
M01
100
AcDbLine
 10
513.842305
 20
530.503326
 30
0.0
 11
513.842305
 21
528.559226
 31
0.0
  0
ARC
  5
107
100
AcDbEntity
  8
M01
100
AcDbCircle
 10
512.592305
 20
532.064576
 30
0.0
 40
2.0
100
AcDbArc
 50
308.682187
 51
0.0
  0
ARC
  5
108
100
AcDbEntity
  8
M01
100
AcDbCircle
 10
512.592305
 20
537.053876
 30
0.0
 40
2.0
100
AcDbArc
 50
0.0
 51
51.317813
  0
LINE
  5
109
100
AcDbEntity
  8
M01
100
AcDbLine
 10
513.842305
 20
540.559226
 30
0.0
 11
513.842305
 21
538.615126
 31
0.0
  0
LINE
  5
10A
100
AcDbEntity
  8
M01
100
AcDbLine
 10
514.592305
 20
537.053876
 30
0.0
 11
514.592305
 21
532.064576
 31
0.0
  0
LINE
  5
10B
100
AcDbEntity
  8
DIMS
 62
     4
100
AcDbLine
 10
680.092305
 20
485.959226
 30
0.0
 11
680.092305
 21
490.759226
 31
0.0
  0
LINE
  5
10C
100
AcDbEntity
  8
DIMS
 62
     4
100
AcDbLine
 10
680.092305
 20
479.159226
 30
0.0
 11
680.092305
 21
474.359226
 31
0.0
  0
LINE
  5
10D
100
AcDbEntity
  8
DIMS
 62
     4
100
AcDbLine
 10
683.492305
 20
482.559226
 30
0.0
 11
688.292305
 21
482.559226
 31
0.0
  0
LINE
  5
10E
100
AcDbEntity
  8
DIMS
 62
     4
100
AcDbLine
 10
676.692305
 20
482.559226
 30
0.0
 11
671.892305
 21
482.559226
 31
0.0
  0
LINE
  5
10F
100
AcDbEntity
  8
DIMS
 62
     4
100
AcDbLine
 10
680.092305
 20
480.859226
 30
0.0
 11
680.092305
 21
484.259226
 31
0.0
  0
LINE
  5
110
100
AcDbEntity
  8
DIMS
 62
     4
100
AcDbLine
 10
678.392305
 20
482.559226
 30
0.0
 11
681.792305
 21
482.559226
 31
0.0
  0
LINE
  5
111
100
AcDbEntity
  8
DIMS
 62
     4
100
AcDbLine
 10
330.092305
 20
485.959226
 30
0.0
 11
330.092305
 21
490.759226
 31
0.0
  0
LINE
  5
112
100
AcDbEntity
  8
DIMS
 62
     4
100
AcDbLine
 10
330.092305
 20
479.159226
 30
0.0
 11
330.092305
 21
474.359226
 31
0.0
  0
LINE
  5
113
100
AcDbEntity
  8
DIMS
 62
     4
100
AcDbLine
 10
333.492305
 20
482.559226
 30
0.0
 11
338.292305
 21
482.559226
 31
0.0
  0
LINE
  5
114
100
AcDbEntity
  8
DIMS
 62
     4
100
AcDbLine
 10
326.692305
 20
482.559226
 30
0.0
 11
321.892305
 21
482.559226
 31
0.0
  0
LINE
  5
115
100
AcDbEntity
  8
DIMS
 62
     4
100
AcDbLine
 10
330.092305
 20
480.859226
 30
0.0
 11
330.092305
 21
484.259226
 31
0.0
  0
LINE
  5
116
100
AcDbEntity
  8
DIMS
 62
     4
100
AcDbLine
 10
328.392305
 20
482.559226
 30
0.0
 11
331.792305
 21
482.559226
 31
0.0
  0
LINE
  5
117
100
AcDbEntity
  8
DIMS
 62
     4
100
AcDbLine
 10
330.092305
 20
385.959226
 30
0.0
 11
330.092305
 21
390.759226
 31
0.0
  0
LINE
  5
118
100
AcDbEntity
  8
DIMS
 62
     4
100
AcDbLine
 10
330.092305
 20
379.159226
 30
0.0
 11
330.092305
 21
374.359226
 31
0.0
  0
LINE
  5
119
100
AcDbEntity
  8
DIMS
 62
     4
100
AcDbLine
 10
333.492305
 20
382.559226
 30
0.0
 11
338.292305
 21
382.559226
 31
0.0
  0
LINE
  5
11A
100
AcDbEntity
  8
DIMS
 62
     4
100
AcDbLine
 10
326.692305
 20
382.559226
 30
0.0
 11
321.892305
 21
382.559226
 31
0.0
  0
LINE
  5
11B
100
AcDbEntity
  8
DIMS
 62
     4
100
AcDbLine
 10
330.092305
 20
380.859226
 30
0.0
 11
330.092305
 21
384.259226
 31
0.0
  0
LINE
  5
11C
100
AcDbEntity
  8
DIMS
 62
     4
100
AcDbLine
 10
328.392305
 20
382.559226
 30
0.0
 11
331.792305
 21
382.559226
 31
0.0
  0
LINE
  5
11D
100
AcDbEntity
  8
DIMS
 62
     4
100
AcDbLine
 10
680.092305
 20
385.959226
 30
0.0
 11
680.092305
 21
390.759226
 31
0.0
  0
LINE
  5
11E
100
AcDbEntity
  8
DIMS
 62
     4
100
AcDbLine
 10
680.092305
 20
379.159226
 30
0.0
 11
680.092305
 21
374.359226
 31
0.0
  0
LINE
  5
11F
100
AcDbEntity
  8
DIMS
 62
     4
100
AcDbLine
 10
683.492305
 20
382.559226
 30
0.0
 11
688.292305
 21
382.559226
 31
0.0
  0
LINE
  5
120
100
AcDbEntity
  8
DIMS
 62
     4
100
AcDbLine
 10
676.692305
 20
382.559226
 30
0.0
 11
671.892305
 21
382.559226
 31
0.0
  0
LINE
  5
121
100
AcDbEntity
  8
DIMS
 62
     4
100
AcDbLine
 10
680.092305
 20
380.859226
 30
0.0
 11
680.092305
 21
384.259226
 31
0.0
  0
LINE
  5
122
100
AcDbEntity
  8
DIMS
 62
     4
100
AcDbLine
 10
678.392305
 20
382.559226
 30
0.0
 11
681.792305
 21
382.559226
 31
0.0
  0
CIRCLE
  5
123
100
AcDbEntity
  8
M04
100
AcDbCircle
 10
680.092305
 20
382.559226
 30
0.0
 40
6.5
  0
CIRCLE
  5
124
100
AcDbEntity
  8
M04
100
AcDbCircle
 10
680.092305
 20
482.559226
 30
0.0
 40
6.5
  0
CIRCLE
  5
125
100
AcDbEntity
  8
M04
100
AcDbCircle
 10
330.092305
 20
382.559226
 30
0.0
 40
6.5
  0
CIRCLE
  5
126
100
AcDbEntity
  8
M04
100
AcDbCircle
 10
330.092305
 20
482.559226
 30
0.0
 40
6.5
  0
HATCH
  5
127
100
AcDbEntity
  8
DIMS
100
AcDbHatch
 10
0.0
 20
0.0
 30
0.0
210
0.0
220
0.0
230
1.0
  2
_U
 70
     0
 71
     1
 91
        5
 92
        7
 72
     0
 73
     1
 93
        9
 10
536.5923046939224
 20
231.0138856722444
 10
536.5923046939224
 20
227.0138856722445
 10
538.3923046939226
 20
227.0138856722445
 10
539.0923046939226
 20
227.7138856722445
 10
539.0923046939226
 20
232.3138856722445
 10
538.3923046939225
 20
233.0138856722447
 10
534.7923046939224
 20
233.0138856722447
 10
534.7923046939224
 20
231.0138856722445
 10
536.3423046939226
 20
231.0138856722445
 97
        9
330
3E5
330
168
330
17C
330
16D
330
181
330
16F
330
3E8
330
3E6
330
3E9
 92
        7
 72
     1
 73
     1
 93
       16
 10
524.3923046939223
 20
222.0138856722445
 42
0.0
 10
525.0923046939224
 20
222.7138856722445
 42
0.0
 10
525.0923046939224
 20
224.0138856722446
 42
0.0
 10
524.5923046939224
 20
224.0138856722445
 42
0.0
 10
524.5923046939224
 20
227.0138856722446
 42
0.0
 10
525.5923046939225
 20
227.0138856722446
 42
0.0
 10
525.5923046939225
 20
231.0138856722445
 42
0.0
 10
525.8423046939225
 20
231.0138856722445
 42
0.0
 10
527.3923046939223
 20
231.0138856722445
 42
0.0
 10
527.3923046939224
 20
233.0138856722447
 42
0.0
 10
515.0923046939221
 20
233.0138856722447
 42
0.0
 10
515.0923046939224
 20
242.0138856722443
 42
0.0
 10
514.0923046939223
 20
243.0138856722444
 42
0.0
 10
509.0923046939223
 20
243.0138856722444
 42
0.0
 10
508.1331786918183
 20
224.7126713253456
 42
-0.1092323044357253
 10
514.2574560838339
 20
222.0138856722444
 42
0.0
 97
       16
330
3E8
330
170
330
16E
330
16D
330
17B
330
3C6
330
3F2
330
3EE
330
3F0
330
3CF
330
3D0
330
3DE
330
3DD
330
3E0
330
3DB
330
3DA
 92
        7
 72
     1
 73
     1
 93
       16
 10
502.0514306960262
 20
224.7126713253456
 42
0.0
 10
501.0923046939224
 20
243.0138856722445
 42
0.0
 10
496.0923046939224
 20
243.0138856722445
 42
0.0
 10
495.0923046939224
 20
242.0138856722445
 42
0.0
 10
495.0923046939224
 20
233.0138856722447
 42
0.0
 10
482.7923046939224
 20
233.0138856722447
 42
0.0
 10
482.7923046939225
 20
231.0138856722445
 42
0.0
 10
484.3423046939222
 20
231.0138856722445
 42
0.0
 10
484.5923046939223
 20
231.0138856722445
 42
0.0
 10
484.5923046939223
 20
227.0138856722446
 42
0.0
 10
485.5923046939223
 20
227.0138856722446
 42
0.0
 10
485.5923046939224
 20
224.0138856722443
 42
0.0
 10
485.0923046939223
 20
224.0138856722443
 42
0.0
 10
485.0923046939224
 20
222.7138856722441
 42
0.0
 10
485.7923046939224
 20
222.0138856722442
 42
0.0
 10
495.9271533040107
 20
222.0138856722443
 42
-0.1092323044357274
 97
       16
330
3F0
330
3EF
330
3F1
330
402
330
15E
330
150
330
151
330
153
330
3D8
330
3D9
330
3D7
330
3DF
330
3DC
330
3DE
330
3CC
330
3CE
 92
        7
 72
     0
 73
     1
 93
        9
 10
473.5923046939222
 20
231.0138856722444
 10
473.8423046939222
 20
231.0138856722444
 10
475.3923046939223
 20
231.0138856722445
 10
475.3923046939224
 20
233.0138856722447
 10
471.7923046939222
 20
233.0138856722447
 10
471.0923046939221
 20
232.3138856722446
 10
471.0923046939221
 20
227.7138856722445
 10
471.792304693922
 20
227.0138856722446
 10
473.5923046939224
 20
227.0138856722446
 97
        9
330
402
330
3E3
330
3E4
330
3C4
330
3D8
330
152
330
164
330
150
330
15F
 92
       24
 93
        4
 72
     1
 10
509.666385
 20
228.081373
 11
524.037814
 21
228.081373
 72
     1
 10
524.037814
 20
228.081373
 11
524.037814
 21
231.081373
 72
     1
 10
524.037814
 20
231.081373
 11
509.666385
 21
231.081373
 72
     1
 10
509.666385
 20
231.081373
 11
509.666385
 21
228.081373
 97
        1
330
3BF
 75
     0
 76
     0
 52
135.0
 41
2.5
 77
     0
 78
     1
 53
135.0
 43
-50.354936
 44
-14.472589
 45
-1.767766952966368
 46
-1.767766952966368
 79
     0
 47
0.085632
 98
        4
 10
537.589267
 20
231.37187
 10
519.941822
 20
225.377641
 10
497.154343
 20
226.576487
 10
472.910525
 20
231.37187
  0
LINE
  5
128
100
AcDbEntity
  8
DIMS
 62
     4
100
AcDbLine
 10
303.692305
 20
237.013886
 30
0.0
 11
301.392305
 21
237.013886
 31
0.0
  0
LINE
  5
129
100
AcDbEntity
  8
DIMS
 62
     4
100
AcDbLine
 10
310.492305
 20
237.013886
 30
0.0
 11
312.792305
 21
237.013886
 31
0.0
  0
LINE
  5
12A
100
AcDbEntity
  8
DIMS
 62
     4
100
AcDbLine
 10
307.092305
 20
240.413886
 30
0.0
 11
307.092305
 21
242.713886
 31
0.0
  0
LINE
  5
12B
100
AcDbEntity
  8
DIMS
 62
     4
100
AcDbLine
 10
307.092305
 20
233.613886
 30
0.0
 11
307.092305
 21
231.313886
 31
0.0
  0
LINE
  5
12C
100
AcDbEntity
  8
DIMS
 62
     4
100
AcDbLine
 10
308.792305
 20
237.013886
 30
0.0
 11
305.392305
 21
237.013886
 31
0.0
  0
LINE
  5
12D
100
AcDbEntity
  8
DIMS
 62
     4
100
AcDbLine
 10
307.092305
 20
235.313886
 30
0.0
 11
307.092305
 21
238.713886
 31
0.0
  0
LINE
  5
12E
102
{ACAD_REACTORS
330
22
102
}
100
AcDbEntity
  8
M01
100
AcDbLine
 10
311.092305
 20
237.013886
 30
0.0
 11
311.092305
 21
233.013886
 31
0.0
  0
LINE
  5
12F
102
{ACAD_REACTORS
330
22
102
}
100
AcDbEntity
  8
M01
100
AcDbLine
 10
303.092305
 20
237.013886
 30
0.0
 11
303.092305
 21
233.013886
 31
0.0
  0
CIRCLE
  5
130
102
{ACAD_REACTORS
330
BA
330
22
102
}
100
AcDbEntity
  8
M01
100
AcDbCircle
 10
307.092305
 20
237.013886
 30
0.0
 40
4.0
  0
LINE
  5
131
100
AcDbEntity
  8
DIMS
 62
     4
100
AcDbLine
 10
303.692305
 20
276.013886
 30
0.0
 11
301.392305
 21
276.013886
 31
0.0
  0
LINE
  5
132
100
AcDbEntity
  8
DIMS
 62
     4
100
AcDbLine
 10
310.492305
 20
276.013886
 30
0.0
 11
312.792305
 21
276.013886
 31
0.0
  0
LINE
  5
133
100
AcDbEntity
  8
DIMS
 62
     4
100
AcDbLine
 10
307.092305
 20
272.613886
 30
0.0
 11
307.092305
 21
270.313886
 31
0.0
  0
LINE
  5
134
100
AcDbEntity
  8
DIMS
 62
     4
100
AcDbLine
 10
307.092305
 20
279.413886
 30
0.0
 11
307.092305
 21
281.713886
 31
0.0
  0
LINE
  5
135
100
AcDbEntity
  8
DIMS
 62
     4
100
AcDbLine
 10
308.792305
 20
276.013886
 30
0.0
 11
305.392305
 21
276.013886
 31
0.0
  0
LINE
  5
136
100
AcDbEntity
  8
DIMS
 62
     4
100
AcDbLine
 10
307.092305
 20
277.713886
 30
0.0
 11
307.092305
 21
274.313886
 31
0.0
  0
LINE
  5
137
102
{ACAD_REACTORS
330
22
102
}
100
AcDbEntity
  8
M01
100
AcDbLine
 10
311.092305
 20
276.013886
 30
0.0
 11
311.092305
 21
280.013886
 31
0.0
  0
LINE
  5
138
102
{ACAD_REACTORS
330
22
102
}
100
AcDbEntity
  8
M01
100
AcDbLine
 10
303.092305
 20
276.013886
 30
0.0
 11
303.092305
 21
280.013886
 31
0.0
  0
CIRCLE
  5
139
102
{ACAD_REACTORS
330
BA
330
22
102
}
100
AcDbEntity
  8
M01
100
AcDbCircle
 10
307.092305
 20
276.013886
 30
0.0
 40
4.0
  0
LINE
  5
13A
100
AcDbEntity
  8
DIMS
 62
     4
100
AcDbLine
 10
706.492305
 20
237.013886
 30
0.0
 11
708.792305
 21
237.013886
 31
0.0
  0
LINE
  5
13B
100
AcDbEntity
  8
DIMS
 62
     4
100
AcDbLine
 10
699.692305
 20
237.013886
 30
0.0
 11
697.392305
 21
237.013886
 31
0.0
  0
LINE
  5
13C
100
AcDbEntity
  8
DIMS
 62
     4
100
AcDbLine
 10
703.092305
 20
240.413886
 30
0.0
 11
703.092305
 21
242.713886
 31
0.0
  0
LINE
  5
13D
100
AcDbEntity
  8
DIMS
 62
     4
100
AcDbLine
 10
703.092305
 20
233.613886
 30
0.0
 11
703.092305
 21
231.313886
 31
0.0
  0
LINE
  5
13E
100
AcDbEntity
  8
DIMS
 62
     4
100
AcDbLine
 10
701.392305
 20
237.013886
 30
0.0
 11
704.792305
 21
237.013886
 31
0.0
  0
LINE
  5
13F
100
AcDbEntity
  8
DIMS
 62
     4
100
AcDbLine
 10
703.092305
 20
235.313886
 30
0.0
 11
703.092305
 21
238.713886
 31
0.0
  0
LINE
  5
140
102
{ACAD_REACTORS
330
22
102
}
100
AcDbEntity
  8
M01
100
AcDbLine
 10
699.092305
 20
237.013886
 30
0.0
 11
699.092305
 21
233.013886
 31
0.0
  0
LINE
  5
141
102
{ACAD_REACTORS
330
22
102
}
100
AcDbEntity
  8
M01
100
AcDbLine
 10
707.092305
 20
237.013886
 30
0.0
 11
707.092305
 21
233.013886
 31
0.0
  0
CIRCLE
  5
142
102
{ACAD_REACTORS
330
22
102
}
100
AcDbEntity
  8
M01
100
AcDbCircle
 10
703.092305
 20
237.013886
 30
0.0
 40
4.0
  0
LINE
  5
143
100
AcDbEntity
  8
DIMS
 62
     4
100
AcDbLine
 10
706.492305
 20
276.013886
 30
0.0
 11
708.792305
 21
276.013886
 31
0.0
  0
LINE
  5
144
100
AcDbEntity
  8
DIMS
 62
     4
100
AcDbLine
 10
699.692305
 20
276.013886
 30
0.0
 11
697.392305
 21
276.013886
 31
0.0
  0
LINE
  5
145
100
AcDbEntity
  8
DIMS
 62
     4
100
AcDbLine
 10
703.092305
 20
272.613886
 30
0.0
 11
703.092305
 21
270.313886
 31
0.0
  0
LINE
  5
146
100
AcDbEntity
  8
DIMS
 62
     4
100
AcDbLine
 10
703.092305
 20
279.413886
 30
0.0
 11
703.092305
 21
281.713886
 31
0.0
  0
LINE
  5
147
100
AcDbEntity
  8
DIMS
 62
     4
100
AcDbLine
 10
701.392305
 20
276.013886
 30
0.0
 11
704.792305
 21
276.013886
 31
0.0
  0
LINE
  5
148
100
AcDbEntity
  8
DIMS
 62
     4
100
AcDbLine
 10
703.092305
 20
277.713886
 30
0.0
 11
703.092305
 21
274.313886
 31
0.0
  0
LINE
  5
149
102
{ACAD_REACTORS
330
22
102
}
100
AcDbEntity
  8
M01
100
AcDbLine
 10
699.092305
 20
276.013886
 30
0.0
 11
699.092305
 21
280.013886
 31
0.0
  0
LINE
  5
14A
102
{ACAD_REACTORS
330
22
102
}
100
AcDbEntity
  8
M01
100
AcDbLine
 10
707.092305
 20
276.013886
 30
0.0
 11
707.092305
 21
280.013886
 31
0.0
  0
CIRCLE
  5
14B
102
{ACAD_REACTORS
330
22
102
}
100
AcDbEntity
  8
M01
100
AcDbCircle
 10
703.092305
 20
276.013886
 30
0.0
 40
4.0
  0
LINE
  5
14C
102
{ACAD_REACTORS
330
22
102
}
100
AcDbEntity
  8
M04
100
AcDbLine
 10
482.092305
 20
240.313886
 30
0.0
 11
482.092305
 21
242.813886
 31
0.0
  0
LINE
  5
14D
102
{ACAD_REACTORS
330
22
102
}
100
AcDbEntity
  8
M04
100
AcDbLine
 10
481.392305
 20
241.013886
 30
0.0
 11
481.392305
 21
244.313886
 31
0.0
  0
LINE
  5
14E
102
{ACAD_REACTORS
330
22
102
}
100
AcDbEntity
  8
M04
100
AcDbLine
 10
476.092305
 20
240.313886
 30
0.0
 11
476.092305
 21
242.813886
 31
0.0
  0
LINE
  5
14F
102
{ACAD_REACTORS
330
22
102
}
100
AcDbEntity
  8
M04
100
AcDbLine
 10
476.792305
 20
241.013886
 30
0.0
 11
476.792305
 21
244.313886
 31
0.0
  0
LINE
  5
150
102
{ACAD_REACTORS
330
127
102
}
100
AcDbEntity
  8
M05
100
AcDbLine
 10
473.842305
 20
231.013886
 30
0.0
 11
484.342305
 21
231.013886
 31
0.0
  0
LINE
  5
151
102
{ACAD_REACTORS
330
127
102
}
100
AcDbEntity
  8
M04
100
AcDbLine
 10
484.342305
 20
231.013886
 30
0.0
 11
484.592305
 21
231.013886
 31
0.0
  0
LINE
  5
152
102
{ACAD_REACTORS
330
127
102
}
100
AcDbEntity
  8
M04
100
AcDbLine
 10
473.592305
 20
231.013886
 30
0.0
 11
473.592305
 21
227.013886
 31
0.0
  0
LINE
  5
153
102
{ACAD_REACTORS
330
127
102
}
100
AcDbEntity
  8
M04
100
AcDbLine
 10
484.592305
 20
231.013886
 30
0.0
 11
484.592305
 21
227.013886
 31
0.0
  0
LINE
  5
154
100
AcDbEntity
  8
M05
100
AcDbLine
 10
482.092305
 20
232.013886
 30
0.0
 11
476.092305
 21
232.013886
 31
0.0
  0
LINE
  5
155
102
{ACAD_REACTORS
330
22
102
}
100
AcDbEntity
  8
M04
100
AcDbLine
 10
476.792305
 20
244.313886
 30
0.0
 11
479.092305
 21
245.641791
 31
0.0
  0
LINE
  5
156
102
{ACAD_REACTORS
330
22
102
}
100
AcDbEntity
  8
M04
100
AcDbLine
 10
481.392305
 20
244.313886
 30
0.0
 11
479.092305
 21
245.641791
 31
0.0
  0
LINE
  5
157
100
AcDbEntity
  8
M04
100
AcDbLine
 10
481.392305
 20
244.313886
 30
0.0
 11
476.792305
 21
244.313886
 31
0.0
  0
LINE
  5
158
102
{ACAD_REACTORS
330
22
102
}
100
AcDbEntity
  8
M04
100
AcDbLine
 10
482.092305
 20
242.813886
 30
0.0
 11
476.092305
 21
242.813886
 31
0.0
  0
ARC
  5
159
100
AcDbEntity
  8
M05
100
AcDbCircle
 10
479.092305
 20
233.540022
 30
0.0
 40
5.826136
100
AcDbArc
 50
205.69541
 51
334.30459
  0
LINE
  5
15A
100
AcDbEntity
  8
M05
100
AcDbLine
 10
476.092305
 20
240.313886
 30
0.0
 11
476.792305
 21
241.013886
 31
0.0
  0
LINE
  5
15B
100
AcDbEntity
  8
M05
100
AcDbLine
 10
482.092305
 20
240.313886
 30
0.0
 11
481.392305
 21
241.013886
 31
0.0
  0
LINE
  5
15C
100
AcDbEntity
  8
M05
100
AcDbLine
 10
482.092305
 20
240.313886
 30
0.0
 11
476.092305
 21
240.313886
 31
0.0
  0
LINE
  5
15D
100
AcDbEntity
  8
M05
100
AcDbLine
 10
481.392305
 20
241.013886
 30
0.0
 11
476.792305
 21
241.013886
 31
0.0
  0
LINE
  5
15E
102
{ACAD_REACTORS
330
127
102
}
100
AcDbEntity
  8
M04
100
AcDbLine
 10
482.792305
 20
233.013886
 30
0.0
 11
482.792305
 21
231.013886
 31
0.0
  0
LINE
  5
15F
102
{ACAD_REACTORS
330
127
102
}
100
AcDbEntity
  8
M04
100
AcDbLine
 10
475.392305
 20
233.013886
 30
0.0
 11
475.392305
 21
231.013886
 31
0.0
  0
LINE
  5
160
100
AcDbEntity
  8
M05
100
AcDbLine
 10
476.792305
 20
241.013886
 30
0.0
 11
476.792305
 21
232.013886
 31
0.0
  0
LINE
  5
161
100
AcDbEntity
  8
M05
100
AcDbLine
 10
481.392305
 20
241.013886
 30
0.0
 11
481.392305
 21
232.013886
 31
0.0
  0
LINE
  5
162
102
{ACAD_REACTORS
330
22
102
}
100
AcDbEntity
  8
M05
100
AcDbLine
 10
482.092305
 20
240.313886
 30
0.0
 11
482.092305
 21
231.013886
 31
0.0
  0
LINE
  5
163
102
{ACAD_REACTORS
330
22
102
}
100
AcDbEntity
  8
M05
100
AcDbLine
 10
476.092305
 20
240.313886
 30
0.0
 11
476.092305
 21
231.013886
 31
0.0
  0
LINE
  5
164
102
{ACAD_REACTORS
330
127
102
}
100
AcDbEntity
  8
M04
100
AcDbLine
 10
473.592305
 20
231.013886
 30
0.0
 11
473.842305
 21
231.013886
 31
0.0
  0
LINE
  5
165
100
AcDbEntity
  8
CENTRE
100
AcDbLine
 10
479.092305
 20
248.280386
 30
0.0
 11
479.092305
 21
223.367697
 31
0.0
  0
LINE
  5
168
102
{ACAD_REACTORS
330
127
330
22
330
20
102
}
100
AcDbEntity
  8
M01
100
AcDbLine
 10
534.092305
 20
233.013886
 30
0.0
 11
710.092305
 21
233.013886
 31
0.0
  0
LINE
  5
169
102
{ACAD_REACTORS
330
22
102
}
100
AcDbEntity
  8
M04
100
AcDbLine
 10
528.092305
 20
240.313886
 30
0.0
 11
528.092305
 21
242.813886
 31
0.0
  0
LINE
  5
16A
102
{ACAD_REACTORS
330
22
102
}
100
AcDbEntity
  8
M04
100
AcDbLine
 10
528.792305
 20
241.013886
 30
0.0
 11
528.792305
 21
244.313886
 31
0.0
  0
LINE
  5
16B
102
{ACAD_REACTORS
330
22
102
}
100
AcDbEntity
  8
M04
100
AcDbLine
 10
534.092305
 20
240.313886
 30
0.0
 11
534.092305
 21
242.813886
 31
0.0
  0
LINE
  5
16C
102
{ACAD_REACTORS
330
22
102
}
100
AcDbEntity
  8
M04
100
AcDbLine
 10
533.392305
 20
241.013886
 30
0.0
 11
533.392305
 21
244.313886
 31
0.0
  0
LINE
  5
16D
102
{ACAD_REACTORS
330
127
102
}
100
AcDbEntity
  8
M05
100
AcDbLine
 10
536.342305
 20
231.013886
 30
0.0
 11
525.842305
 21
231.013886
 31
0.0
  0
LINE
  5
16E
102
{ACAD_REACTORS
330
127
102
}
100
AcDbEntity
  8
M04
100
AcDbLine
 10
525.842305
 20
231.013886
 30
0.0
 11
525.592305
 21
231.013886
 31
0.0
  0
LINE
  5
16F
102
{ACAD_REACTORS
330
127
102
}
100
AcDbEntity
  8
M04
100
AcDbLine
 10
536.592305
 20
231.013886
 30
0.0
 11
536.592305
 21
227.013886
 31
0.0
  0
LINE
  5
170
102
{ACAD_REACTORS
330
127
102
}
100
AcDbEntity
  8
M04
100
AcDbLine
 10
525.592305
 20
231.013886
 30
0.0
 11
525.592305
 21
227.013886
 31
0.0
  0
LINE
  5
171
100
AcDbEntity
  8
M05
100
AcDbLine
 10
528.092305
 20
232.013886
 30
0.0
 11
534.092305
 21
232.013886
 31
0.0
  0
LINE
  5
172
102
{ACAD_REACTORS
330
22
102
}
100
AcDbEntity
  8
M04
100
AcDbLine
 10
533.392305
 20
244.313886
 30
0.0
 11
531.092305
 21
245.641791
 31
0.0
  0
LINE
  5
173
102
{ACAD_REACTORS
330
22
102
}
100
AcDbEntity
  8
M04
100
AcDbLine
 10
528.792305
 20
244.313886
 30
0.0
 11
531.092305
 21
245.641791
 31
0.0
  0
LINE
  5
174
100
AcDbEntity
  8
M04
100
AcDbLine
 10
528.792305
 20
244.313886
 30
0.0
 11
533.392305
 21
244.313886
 31
0.0
  0
LINE
  5
175
102
{ACAD_REACTORS
330
22
102
}
100
AcDbEntity
  8
M04
100
AcDbLine
 10
528.092305
 20
242.813886
 30
0.0
 11
534.092305
 21
242.813886
 31
0.0
  0
ARC
  5
176
100
AcDbEntity
  8
M05
100
AcDbCircle
 10
531.092305
 20
233.540022
 30
0.0
 40
5.826136
100
AcDbArc
 50
205.69541
 51
334.30459
  0
LINE
  5
177
100
AcDbEntity
  8
M05
100
AcDbLine
 10
534.092305
 20
240.313886
 30
0.0
 11
533.392305
 21
241.013886
 31
0.0
  0
LINE
  5
178
100
AcDbEntity
  8
M05
100
AcDbLine
 10
528.092305
 20
240.313886
 30
0.0
 11
528.792305
 21
241.013886
 31
0.0
  0
LINE
  5
179
100
AcDbEntity
  8
M05
100
AcDbLine
 10
528.092305
 20
240.313886
 30
0.0
 11
534.092305
 21
240.313886
 31
0.0
  0
LINE
  5
17A
100
AcDbEntity
  8
M05
100
AcDbLine
 10
528.792305
 20
241.013886
 30
0.0
 11
533.392305
 21
241.013886
 31
0.0
  0
LINE
  5
17B
102
{ACAD_REACTORS
330
127
102
}
100
AcDbEntity
  8
M04
100
AcDbLine
 10
527.392305
 20
233.013886
 30
0.0
 11
527.392305
 21
231.013886
 31
0.0
  0
LINE
  5
17C
102
{ACAD_REACTORS
330
127
102
}
100
AcDbEntity
  8
M04
100
AcDbLine
 10
534.792305
 20
233.013886
 30
0.0
 11
534.792305
 21
231.013886
 31
0.0
  0
LINE
  5
17D
100
AcDbEntity
  8
M05
100
AcDbLine
 10
533.392305
 20
241.013886
 30
0.0
 11
533.392305
 21
232.013886
 31
0.0
  0
LINE
  5
17E
100
AcDbEntity
  8
M05
100
AcDbLine
 10
528.792305
 20
241.013886
 30
0.0
 11
528.792305
 21
232.013886
 31
0.0
  0
LINE
  5
17F
102
{ACAD_REACTORS
330
22
102
}
100
AcDbEntity
  8
M05
100
AcDbLine
 10
528.092305
 20
240.313886
 30
0.0
 11
528.092305
 21
231.013886
 31
0.0
  0
LINE
  5
180
102
{ACAD_REACTORS
330
22
102
}
100
AcDbEntity
  8
M05
100
AcDbLine
 10
534.092305
 20
240.313886
 30
0.0
 11
534.092305
 21
231.013886
 31
0.0
  0
LINE
  5
181
102
{ACAD_REACTORS
330
127
102
}
100
AcDbEntity
  8
M04
100
AcDbLine
 10
536.592305
 20
231.013886
 30
0.0
 11
536.342305
 21
231.013886
 31
0.0
  0
LINE
  5
182
100
AcDbEntity
  8
CENTRE
100
AcDbLine
 10
531.092305
 20
248.280386
 30
0.0
 11
531.092305
 21
223.367697
 31
0.0
  0
LINE
  5
183
100
AcDbEntity
  8
DIMS
 62
     4
100
AcDbLine
 10
846.505172
 20
435.959226
 30
0.0
 11
846.505172
 21
438.259226
 31
0.0
  0
LINE
  5
184
100
AcDbEntity
  8
DIMS
 62
     4
100
AcDbLine
 10
846.505172
 20
429.159226
 30
0.0
 11
846.505172
 21
426.859226
 31
0.0
  0
LINE
  5
185
100
AcDbEntity
  8
DIMS
 62
     4
100
AcDbLine
 10
846.505172
 20
430.859226
 30
0.0
 11
846.505172
 21
434.259226
 31
0.0
  0
LINE
  5
186
100
AcDbEntity
  8
DIMS
 62
     4
100
AcDbLine
 10
866.005172
 20
412.959226
 30
0.0
 11
866.005172
 21
415.259226
 31
0.0
  0
LINE
  5
187
100
AcDbEntity
  8
DIMS
 62
     4
100
AcDbLine
 10
866.005172
 20
406.159226
 30
0.0
 11
866.005172
 21
403.859226
 31
0.0
  0
LINE
  5
188
100
AcDbEntity
  8
DIMS
 62
     4
100
AcDbLine
 10
869.405172
 20
409.559226
 30
0.0
 11
871.705172
 21
409.559226
 31
0.0
  0
LINE
  5
189
100
AcDbEntity
  8
DIMS
 62
     4
100
AcDbLine
 10
862.605172
 20
409.559226
 30
0.0
 11
860.305172
 21
409.559226
 31
0.0
  0
LINE
  5
18A
100
AcDbEntity
  8
DIMS
 62
     4
100
AcDbLine
 10
866.005172
 20
407.859226
 30
0.0
 11
866.005172
 21
411.259226
 31
0.0
  0
LINE
  5
18B
100
AcDbEntity
  8
DIMS
 62
     4
100
AcDbLine
 10
864.305172
 20
409.559226
 30
0.0
 11
867.705172
 21
409.559226
 31
0.0
  0
LINE
  5
18C
100
AcDbEntity
  8
DIMS
 62
     4
100
AcDbLine
 10
827.005172
 20
412.959226
 30
0.0
 11
827.005172
 21
415.259226
 31
0.0
  0
LINE
  5
18D
100
AcDbEntity
  8
DIMS
 62
     4
100
AcDbLine
 10
827.005172
 20
406.159226
 30
0.0
 11
827.005172
 21
403.859226
 31
0.0
  0
LINE
  5
18E
100
AcDbEntity
  8
DIMS
 62
     4
100
AcDbLine
 10
830.405172
 20
409.559226
 30
0.0
 11
832.705172
 21
409.559226
 31
0.0
  0
LINE
  5
18F
100
AcDbEntity
  8
DIMS
 62
     4
100
AcDbLine
 10
823.605172
 20
409.559226
 30
0.0
 11
821.305172
 21
409.559226
 31
0.0
  0
LINE
  5
190
100
AcDbEntity
  8
DIMS
 62
     4
100
AcDbLine
 10
827.005172
 20
407.859226
 30
0.0
 11
827.005172
 21
411.259226
 31
0.0
  0
LINE
  5
191
100
AcDbEntity
  8
DIMS
 62
     4
100
AcDbLine
 10
825.305172
 20
409.559226
 30
0.0
 11
828.705172
 21
409.559226
 31
0.0
  0
HATCH
  5
192
100
AcDbEntity
  8
HATCH
100
AcDbHatch
 10
0.0
 20
0.0
 30
0.0
210
0.0
220
0.0
230
1.0
  2
_U
 70
     0
 71
     0
 91
        3
 92
        7
 72
     1
 73
     1
 93
       29
 10
870.0051721877787
 20
506.559226081063
 42
0.0
 10
868.0051721877788
 20
508.5592260810631
 42
0.0
 10
829.0051721877787
 20
508.5592260810631
 42
0.0
 10
829.0051721877787
 20
496.559226081063
 42
0.0
 10
823.0051721877789
 20
496.559226081063
 42
0.0
 10
823.0051721877789
 20
442.059226081063
 42
0.0
 10
827.0051721877788
 20
442.059226081063
 42
0.0
 10
828.0051721877788
 20
442.059226081063
 42
0.0
 10
828.0051721877788
 20
441.059226081063
 42
0.0
 10
828.0051721877789
 20
432.5592260810631
 42
0.0
 10
842.5051721877787
 20
432.5592260810631
 42
-0.4142135623730951
 10
846.5051721877786
 20
436.5592260810631
 42
0.0
 10
860.0051721877788
 20
436.559226081063
 42
0.0
 10
860.0051721877788
 20
441.559226081063
 42
0.0
 10
860.0051721877788
 20
442.5592260810629
 42
0.0
 10
861.0051721877788
 20
442.5592260810629
 42
0.0
 10
869.5051721877788
 20
442.5592260810629
 42
0.0
 10
870.0051721877787
 20
443.059226081063
 42
0.0
 10
870.0051721877787
 20
455.5592260810632
 42
0.0
 10
862.7051721877787
 20
455.5592260810632
 42
0.0
 10
860.2051721877787
 20
455.5592260810631
 42
0.0
 10
860.2051721877787
 20
456.2592260810633
 42
0.0
 10
858.7051721877788
 20
456.2592260810632
 42
0.0
 10
857.3772665686426
 20
458.559226081063
 42
0.0
 10
858.7051721877786
 20
460.8592260810632
 42
0.0
 10
860.2051721877787
 20
460.8592260810633
 42
0.0
 10
860.2051721877788
 20
461.5592260810633
 42
0.0
 10
862.7051721877785
 20
461.5592260810632
 42
0.0
 10
870.0051721877787
 20
461.5592260810632
 42
0.0
 97
        0
 92
        7
 72
     1
 73
     1
 93
       27
 10
870.0051721877787
 20
405.5592260810631
 42
0.0
 10
866.0051721877787
 20
405.5592260810631
 42
-0.4142135623730951
 10
862.0051721877787
 20
409.5592260810631
 42
-0.4142135623730951
 10
866.0051721877787
 20
413.559226081063
 42
0.0
 10
870.0051721877787
 20
413.559226081063
 42
0.0
 10
870.0051721877787
 20
422.0592260810632
 42
0.0
 10
869.5051721877788
 20
422.5592260810631
 42
0.0
 10
861.0051721877788
 20
422.5592260810631
 42
0.0
 10
860.0051721877788
 20
422.5592260810633
 42
0.0
 10
860.0051721877788
 20
423.5592260810632
 42
0.0
 10
860.0051721877788
 20
428.5592260810631
 42
0.0
 10
846.5051721877786
 20
428.5592260810631
 42
-0.4142135623730951
 10
842.5051721877787
 20
432.5592260810631
 42
0.0
 10
828.0051721877788
 20
432.5592260810632
 42
0.0
 10
828.0051721877788
 20
424.0592260810632
 42
0.0
 10
828.0051721877788
 20
423.0592260810631
 42
0.0
 10
827.0051721877788
 20
423.0592260810631
 42
0.0
 10
823.0051721877789
 20
423.0592260810631
 42
0.0
 10
823.0051721877789
 20
413.5592260810632
 42
0.0
 10
827.0051721877788
 20
413.559226081063
 42
-0.4142135623730868
 10
831.0051721877787
 20
409.5592260810631
 42
-0.4142135623730951
 10
827.0051721877788
 20
405.5592260810631
 42
0.0
 10
823.0051721877789
 20
405.5592260810631
 42
0.0
 10
823.0051721877789
 20
402.5592260810633
 42
0.0
 10
825.0051721877788
 20
400.5592260810631
 42
0.0
 10
868.0051721877788
 20
400.559226081063
 42
0.0
 10
870.0051721877787
 20
402.5592260810632
 42
0.0
 97
        0
 92
       24
 93
        4
 72
     1
 10
838.083666
 20
415.402793
 11
852.197951
 21
415.402793
 72
     1
 10
852.197951
 20
415.402793
 11
852.197951
 21
418.402793
 72
     1
 10
852.197951
 20
418.402793
 11
838.083666
 21
418.402793
 72
     1
 10
838.083666
 20
418.402793
 11
838.083666
 21
415.402793
 97
        0
 75
     0
 76
     0
 52
45.0
 41
6.0
 77
     0
 78
     1
 53
45.0
 43
48.415065
 44
0.0
 45
-4.242640687119284
 46
4.242640687119285
 79
     0
 47
0.350126
 98
        2
 10
851.2227
 20
475.451457
 10
845.618364
 20
405.426186
  0
HATCH
  5
193
100
AcDbEntity
  8
HATCH
100
AcDbHatch
 10
0.0
 20
0.0
 30
0.0
210
0.0
220
0.0
230
1.0
  2
_U
 70
     0
 71
     1
 91
        2
 92
        7
 72
     1
 73
     1
 93
        2
 10
831.0051721877787
 20
409.5592260810631
 42
1.0
 10
823.0051721877787
 20
409.5592260810631
 42
1.0
 97
        1
330
199
 92
        7
 72
     1
 73
     1
 93
        2
 10
862.0051721877787
 20
409.5592260810631
 42
1.0
 10
870.0051721877787
 20
409.5592260810631
 42
1.0
 97
        1
330
198
 75
     0
 76
     0
 52
45.0
 41
0.8
 77
     0
 78
     1
 53
45.0
 43
48.415065
 44
0.0
 45
-0.565685424949238
 46
0.565685424949238
 79
     0
 47
0.095608
 98
        2
 10
827.138521
 20
409.258585
 10
866.162711
 20
410.405882
  0
LINE
  5
194
100
AcDbEntity
  8
M01
100
AcDbLine
 10
866.005172
 20
405.559226
 30
0.0
 11
870.005172
 21
405.559226
 31
0.0
  0
LINE
  5
195
100
AcDbEntity
  8
M01
100
AcDbLine
 10
866.005172
 20
413.559226
 30
0.0
 11
870.005172
 21
413.559226
 31
0.0
  0
LINE
  5
196
100
AcDbEntity
  8
M01
100
AcDbLine
 10
827.005172
 20
405.559226
 30
0.0
 11
823.005172
 21
405.559226
 31
0.0
  0
LINE
  5
197
100
AcDbEntity
  8
M01
100
AcDbLine
 10
827.005172
 20
413.559226
 30
0.0
 11
823.005172
 21
413.559226
 31
0.0
  0
CIRCLE
  5
198
102
{ACAD_REACTORS
330
193
102
}
100
AcDbEntity
  8
M01
100
AcDbCircle
 10
866.005172
 20
409.559226
 30
0.0
 40
4.0
  0
CIRCLE
  5
199
102
{ACAD_REACTORS
330
193
102
}
100
AcDbEntity
  8
M01
100
AcDbCircle
 10
827.005172
 20
409.559226
 30
0.0
 40
4.0
  0
LINE
  5
19A
100
AcDbEntity
  8
DIMS
 62
     4
100
AcDbLine
 10
479.092305
 20
435.959226
 30
0.0
 11
479.092305
 21
439.759226
 31
0.0
  0
LINE
  5
19B
100
AcDbEntity
  8
DIMS
 62
     4
100
AcDbLine
 10
479.092305
 20
429.159226
 30
0.0
 11
479.092305
 21
425.359226
 31
0.0
  0
LINE
  5
19C
100
AcDbEntity
  8
DIMS
 62
     4
100
AcDbLine
 10
479.092305
 20
430.859226
 30
0.0
 11
479.092305
 21
434.259226
 31
0.0
  0
LINE
  5
19D
100
AcDbEntity
  8
DIMS
 62
     4
100
AcDbLine
 10
531.092305
 20
435.959226
 30
0.0
 11
531.092305
 21
439.759226
 31
0.0
  0
LINE
  5
19E
100
AcDbEntity
  8
DIMS
 62
     4
100
AcDbLine
 10
531.092305
 20
429.159226
 30
0.0
 11
531.092305
 21
425.359226
 31
0.0
  0
LINE
  5
19F
100
AcDbEntity
  8
DIMS
 62
     4
100
AcDbLine
 10
531.092305
 20
430.859226
 30
0.0
 11
531.092305
 21
434.259226
 31
0.0
  0
LINE
  5
1A0
100
AcDbEntity
  8
DIMS
 62
     4
100
AcDbLine
 10
508.492305
 20
458.559226
 30
0.0
 11
512.292305
 21
458.559226
 31
0.0
  0
LINE
  5
1A1
100
AcDbEntity
  8
DIMS
 62
     4
100
AcDbLine
 10
501.692305
 20
458.559226
 30
0.0
 11
497.892305
 21
458.559226
 31
0.0
  0
LINE
  5
1A2
100
AcDbEntity
  8
DIMS
 62
     4
100
AcDbLine
 10
503.392305
 20
458.559226
 30
0.0
 11
506.792305
 21
458.559226
 31
0.0
  0
HATCH
  5
1A3
100
AcDbEntity
  8
HATCH
100
AcDbHatch
 10
0.0
 20
0.0
 30
0.0
210
0.0
220
0.0
230
1.0
  2
_U
 70
     0
 71
     1
 91
        4
 92
        7
 72
     0
 73
     1
 93
        9
 10
876.0051721877788
 20
464.0592260810633
 10
876.0051721877786
 20
465.8592260810632
 10
875.3051721877785
 20
466.5592260810632
 10
870.7051721877787
 20
466.5592260810632
 10
870.0051721877787
 20
465.8592260810634
 10
870.0051721877787
 20
462.2592260810632
 10
872.0051721877787
 20
462.2592260810632
 10
872.0051721877787
 20
463.8092260810633
 10
872.0051721877789
 20
464.0592260810631
 97
        9
330
42F
330
432
330
42E
330
48E
330
1B8
330
1A9
330
1BD
330
1AB
330
431
 92
        7
 72
     1
 73
     1
 93
       16
 10
870.0051721877787
 20
442.5592260810629
 42
0.0
 10
861.0051721877788
 20
442.5592260810629
 42
0.0
 10
860.0051721877788
 20
441.5592260810629
 42
0.0
 10
860.0051721877788
 20
436.5592260810631
 42
0.0
 10
878.3063865346775
 20
435.600100078959
 42
-0.1092323044357274
 10
881.0051721877789
 20
441.7243774709747
 42
0.0
 10
881.0051721877789
 20
451.8592260810629
 42
0.0
 10
880.3051721877784
 20
452.559226081063
 42
0.0
 10
879.0051721877786
 20
452.5592260810629
 42
0.0
 10
879.0051721877787
 20
452.059226081063
 42
0.0
 10
876.0051721877786
 20
452.0592260810631
 42
0.0
 10
876.0051721877786
 20
453.0592260810633
 42
0.0
 10
872.0051721877787
 20
453.0592260810633
 42
0.0
 10
872.0051721877787
 20
453.3092260810632
 42
0.0
 10
872.0051721877787
 20
454.8592260810631
 42
0.0
 10
870.0051721877789
 20
454.8592260810632
 42
0.0
 97
       16
330
424
330
427
330
421
330
420
330
431
330
1AC
330
1AA
330
1A9
330
1B7
330
1A8
330
43B
330
437
330
439
330
415
330
416
330
425
 92
        7
 72
     1
 73
     1
 93
       16
 10
870.0051721877787
 20
402.5592260810631
 42
0.0
 10
870.0051721877787
 20
401.2592260810631
 42
0.0
 10
870.7051721877787
 20
400.5592260810631
 42
0.0
 10
875.3051721877785
 20
400.5592260810631
 42
0.0
 10
876.005172187779
 20
401.2592260810631
 42
0.0
 10
876.0051721877786
 20
413.059226081063
 42
0.0
 10
879.0051721877791
 20
413.0592260810631
 42
0.0
 10
879.0051721877789
 20
412.5592260810631
 42
0.0
 10
880.3051721877791
 20
412.5592260810631
 42
0.0
 10
881.005172187779
 20
413.2592260810629
 42
0.0
 10
881.0051721877789
 20
423.3940746911513
 42
-0.1092323044357282
 10
878.3063865346775
 20
429.5183520831669
 42
0.0
 10
860.0051721877788
 20
428.5592260810632
 42
0.0
 10
860.0051721877788
 20
423.5592260810632
 42
0.0
 10
861.0051721877786
 20
422.5592260810631
 42
0.0
 10
870.0051721877789
 20
422.5592260810631
 42
0.0
 97
       16
330
412
330
414
330
439
330
438
330
43A
330
429
330
26A
330
42B
330
42D
330
42C
330
41E
330
41F
330
41D
330
426
330
423
330
425
 92
       24
 93
        4
 72
     1
 10
862.011824
 20
437.880683
 11
876.383253
 21
437.880683
 72
     1
 10
876.383253
 20
437.880683
 11
876.383253
 21
440.880683
 72
     1
 10
876.383253
 20
440.880683
 11
862.011824
 21
440.880683
 72
     1
 10
862.011824
 20
440.880683
 11
862.011824
 21
437.880683
 97
        1
330
3C0
 75
     0
 76
     0
 52
135.0
 41
2.5
 77
     0
 78
     1
 53
135.0
 43
48.415065
 44
0.0
 45
-1.767766952966368
 46
-1.767766952966368
 79
     0
 47
0.115254
 98
        3
 10
872.83118
 20
464.76431
 10
874.675999
 20
442.866133
 10
874.560697
 20
421.77473
  0
LINE
  5
1A4
100
AcDbEntity
  8
M04
100
AcDbLine
 10
862.705172
 20
455.559226
 30
0.0
 11
860.205172
 21
455.559226
 31
0.0
  0
LINE
  5
1A5
100
AcDbEntity
  8
M04
100
AcDbLine
 10
862.005172
 20
456.259226
 30
0.0
 11
858.705172
 21
456.259226
 31
0.0
  0
LINE
  5
1A6
100
AcDbEntity
  8
M04
100
AcDbLine
 10
862.705172
 20
461.559226
 30
0.0
 11
860.205172
 21
461.559226
 31
0.0
  0
LINE
  5
1A7
100
AcDbEntity
  8
M04
100
AcDbLine
 10
862.005172
 20
460.859226
 30
0.0
 11
858.705172
 21
460.859226
 31
0.0
  0
LINE
  5
1A8
102
{ACAD_REACTORS
330
1A3
102
}
100
AcDbEntity
  8
M01
100
AcDbLine
 10
870.005172
 20
455.559226
 30
0.0
 11
870.005172
 21
442.559226
 31
0.0
  0
LINE
  5
1A9
102
{ACAD_REACTORS
330
1A3
102
}
100
AcDbEntity
  8
M05
100
AcDbLine
 10
872.005172
 20
463.809226
 30
0.0
 11
872.005172
 21
453.309226
 31
0.0
  0
LINE
  5
1AA
102
{ACAD_REACTORS
330
1A3
102
}
100
AcDbEntity
  8
M04
100
AcDbLine
 10
872.005172
 20
453.309226
 30
0.0
 11
872.005172
 21
453.059226
 31
0.0
  0
LINE
  5
1AB
102
{ACAD_REACTORS
330
1A3
102
}
100
AcDbEntity
  8
M04
100
AcDbLine
 10
872.005172
 20
464.059226
 30
0.0
 11
876.005172
 21
464.059226
 31
0.0
  0
LINE
  5
1AC
102
{ACAD_REACTORS
330
1A3
102
}
100
AcDbEntity
  8
M04
100
AcDbLine
 10
872.005172
 20
453.059226
 30
0.0
 11
876.005172
 21
453.059226
 31
0.0
  0
LINE
  5
1AD
100
AcDbEntity
  8
M05
100
AcDbLine
 10
871.005172
 20
455.559226
 30
0.0
 11
871.005172
 21
461.559226
 31
0.0
  0
LINE
  5
1AE
100
AcDbEntity
  8
M04
100
AcDbLine
 10
858.705172
 20
460.859226
 30
0.0
 11
857.377267
 21
458.559226
 31
0.0
  0
LINE
  5
1AF
100
AcDbEntity
  8
M04
100
AcDbLine
 10
858.705172
 20
456.259226
 30
0.0
 11
857.377267
 21
458.559226
 31
0.0
  0
LINE
  5
1B0
100
AcDbEntity
  8
M04
100
AcDbLine
 10
858.705172
 20
456.259226
 30
0.0
 11
858.705172
 21
460.859226
 31
0.0
  0
LINE
  5
1B1
100
AcDbEntity
  8
M04
100
AcDbLine
 10
860.205172
 20
455.559226
 30
0.0
 11
860.205172
 21
461.559226
 31
0.0
  0
ARC
  5
1B2
100
AcDbEntity
  8
M05
100
AcDbCircle
 10
869.479036
 20
458.559226
 30
0.0
 40
5.826136
100
AcDbArc
 50
295.69541
 51
64.30459
  0
LINE
  5
1B3
100
AcDbEntity
  8
M05
100
AcDbLine
 10
862.705172
 20
461.559226
 30
0.0
 11
862.005172
 21
460.859226
 31
0.0
  0
LINE
  5
1B4
100
AcDbEntity
  8
M05
100
AcDbLine
 10
862.705172
 20
455.559226
 30
0.0
 11
862.005172
 21
456.259226
 31
0.0
  0
LINE
  5
1B5
100
AcDbEntity
  8
M05
100
AcDbLine
 10
862.705172
 20
455.559226
 30
0.0
 11
862.705172
 21
461.559226
 31
0.0
  0
LINE
  5
1B6
100
AcDbEntity
  8
M05
100
AcDbLine
 10
862.005172
 20
456.259226
 30
0.0
 11
862.005172
 21
460.859226
 31
0.0
  0
LINE
  5
1B7
102
{ACAD_REACTORS
330
1A3
102
}
100
AcDbEntity
  8
M04
100
AcDbLine
 10
870.005172
 20
454.859226
 30
0.0
 11
872.005172
 21
454.859226
 31
0.0
  0
LINE
  5
1B8
102
{ACAD_REACTORS
330
1A3
102
}
100
AcDbEntity
  8
M04
100
AcDbLine
 10
870.005172
 20
462.259226
 30
0.0
 11
872.005172
 21
462.259226
 31
0.0
  0
LINE
  5
1B9
100
AcDbEntity
  8
M05
100
AcDbLine
 10
862.005172
 20
460.859226
 30
0.0
 11
871.005172
 21
460.859226
 31
0.0
  0
LINE
  5
1BA
100
AcDbEntity
  8
M05
100
AcDbLine
 10
862.005172
 20
456.259226
 30
0.0
 11
871.005172
 21
456.259226
 31
0.0
  0
LINE
  5
1BB
100
AcDbEntity
  8
M05
100
AcDbLine
 10
862.705172
 20
455.559226
 30
0.0
 11
872.005172
 21
455.559226
 31
0.0
  0
LINE
  5
1BC
100
AcDbEntity
  8
M05
100
AcDbLine
 10
862.705172
 20
461.559226
 30
0.0
 11
872.005172
 21
461.559226
 31
0.0
  0
LINE
  5
1BD
102
{ACAD_REACTORS
330
1A3
102
}
100
AcDbEntity
  8
M04
100
AcDbLine
 10
872.005172
 20
464.059226
 30
0.0
 11
872.005172
 21
463.809226
 31
0.0
  0
LINE
  5
1BE
100
AcDbEntity
  8
CENTRE
100
AcDbLine
 10
854.738672
 20
458.559226
 30
0.0
 11
879.65136
 21
458.559226
 31
0.0
  0
MTEXT
  5
1BF
102
{ACAD_REACTORS
330
1C0
102
}
100
AcDbEntity
  8
DIMS
 62
     2
100
AcDbMText
 10
374.552984
 20
381.120852
 30
0.0
 40
3.0
 41
0.0
 71
     4
 72
     5
  1
HGX10037
  0
LEADER
  5
1C0
100
AcDbEntity
  8
DIMS
 62
     4
100
AcDbLeader
  3
DIM1$7
 73
     0
 74
     0
 75
     1
 40
3.0
 41
21.857143
 76
     3
 10
351.55788
 20
402.973989
 30
0.0
 10
370.052984
 20
381.120852
 30
0.0
 10
373.052984
 20
381.120852
 30
0.0
 77
   256
340
1BF
1001
ACAD
1000
DSTYLE
1002
{
1070
   288
1070
     1
1070
   144
1040
1.0
1002
}
  0
CIRCLE
  5
1C2
100
AcDbEntity
  8
M03
100
AcDbCircle
 10
531.092305
 20
432.559226
 30
0.0
 40
2.3
  0
ARC
  5
1C3
100
AcDbEntity
  8
M03
100
AcDbCircle
 10
531.092305
 20
432.559226
 30
0.0
 40
3.0
100
AcDbArc
 50
167.784636
 51
96.923103
  0
CIRCLE
  5
1C4
100
AcDbEntity
  8
M03
100
AcDbCircle
 10
531.092305
 20
432.559226
 30
0.0
 40
5.5
  0
CIRCLE
  5
1C5
100
AcDbEntity
  8
M03
100
AcDbCircle
 10
479.092305
 20
432.559226
 30
0.0
 40
2.3
  0
ARC
  5
1C6
100
AcDbEntity
  8
M03
100
AcDbCircle
 10
479.092305
 20
432.559226
 30
0.0
 40
3.0
100
AcDbArc
 50
167.784636
 51
96.923103
  0
CIRCLE
  5
1C7
100
AcDbEntity
  8
M03
100
AcDbCircle
 10
479.092305
 20
432.559226
 30
0.0
 40
5.5
  0
CIRCLE
  5
1C8
100
AcDbEntity
  8
M03
100
AcDbCircle
 10
505.092305
 20
458.559226
 30
0.0
 40
2.3
  0
ARC
  5
1C9
100
AcDbEntity
  8
M03
100
AcDbCircle
 10
505.092305
 20
458.559226
 30
0.0
 40
3.0
100
AcDbArc
 50
167.784636
 51
96.923103
  0
CIRCLE
  5
1CA
100
AcDbEntity
  8
M03
100
AcDbCircle
 10
505.092305
 20
458.559226
 30
0.0
 40
5.5
  0
LINE
  5
1CB
100
AcDbEntity
  8
M03
100
AcDbLine
 10
364.892305
 20
418.059226
 30
0.0
 11
362.592305
 21
419.387132
 31
0.0
  0
LINE
  5
1CC
100
AcDbEntity
  8
M03
100
AcDbLine
 10
360.292305
 20
418.059226
 30
0.0
 11
362.592305
 21
419.387132
 31
0.0
  0
LINE
  5
1CD
100
AcDbEntity
  8
M03
100
AcDbLine
 10
360.292305
 20
418.059226
 30
0.0
 11
364.892305
 21
418.059226
 31
0.0
  0
LINE
  5
1CE
100
AcDbEntity
  8
M03
100
AcDbLine
 10
359.592305
 20
416.559226
 30
0.0
 11
365.592305
 21
416.559226
 31
0.0
  0
LINE
  5
1CF
100
AcDbEntity
  8
M03
100
AcDbLine
 10
348.285242
 20
404.459226
 30
0.0
 11
319.046782
 21
404.459226
 31
0.0
  0
LINE
  5
1D0
100
AcDbEntity
  8
M03
100
AcDbLine
 10
348.285242
 20
402.559226
 30
0.0
 11
319.046782
 21
402.559226
 31
0.0
  0
LINE
  5
1D1
100
AcDbEntity
  8
M03
100
AcDbLine
 10
355.285242
 20
404.759226
 30
0.0
 11
369.592305
 21
404.759226
 31
0.0
  0
LINE
  5
1D2
100
AcDbEntity
  8
M03
100
AcDbLine
 10
354.240478
 20
405.559226
 30
0.0
 11
354.240478
 21
404.759226
 31
0.0
  0
LINE
  5
1D3
100
AcDbEntity
  8
M03
100
AcDbLine
 10
348.285242
 20
404.759226
 30
0.0
 11
348.285242
 21
402.259226
 31
0.0
  0
LINE
  5
1D4
100
AcDbEntity
  8
M03
100
AcDbLine
 10
348.285242
 20
402.259226
 30
0.0
 11
355.285242
 21
402.259226
 31
0.0
  0
LINE
  5
1D5
100
AcDbEntity
  8
M03
100
AcDbLine
 10
355.285242
 20
404.759226
 30
0.0
 11
355.285242
 21
402.259226
 31
0.0
  0
LINE
  5
1D6
100
AcDbEntity
  8
M03
100
AcDbLine
 10
369.592305
 20
405.559226
 30
0.0
 11
369.592305
 21
404.759226
 31
0.0
  0
ARC
  5
1D7
100
AcDbEntity
  8
M03
100
AcDbCircle
 10
362.592305
 20
407.285362
 30
0.0
 40
5.826136
100
AcDbArc
 50
205.69541
 51
334.30459
  0
LINE
  5
1D8
100
AcDbEntity
  8
M03
100
AcDbLine
 10
365.592305
 20
414.059226
 30
0.0
 11
364.892305
 21
414.759226
 31
0.0
  0
LINE
  5
1D9
100
AcDbEntity
  8
M03
100
AcDbLine
 10
359.592305
 20
414.059226
 30
0.0
 11
360.292305
 21
414.759226
 31
0.0
  0
LINE
  5
1DA
100
AcDbEntity
  8
M03
100
AcDbLine
 10
359.592305
 20
414.059226
 30
0.0
 11
365.592305
 21
414.059226
 31
0.0
  0
LINE
  5
1DB
100
AcDbEntity
  8
M03
100
AcDbLine
 10
360.292305
 20
414.759226
 30
0.0
 11
364.892305
 21
414.759226
 31
0.0
  0
LINE
  5
1DC
100
AcDbEntity
  8
M03
100
AcDbLine
 10
365.592305
 20
405.559226
 30
0.0
 11
372.592305
 21
405.559226
 31
0.0
  0
LINE
  5
1DD
100
AcDbEntity
  8
M03
100
AcDbLine
 10
348.892305
 20
405.559226
 30
0.0
 11
348.892305
 21
404.759226
 31
0.0
  0
LINE
  5
1DE
100
AcDbEntity
  8
M03
100
AcDbLine
 10
366.292305
 20
405.559226
 30
0.0
 11
366.292305
 21
404.759226
 31
0.0
  0
LINE
  5
1DF
100
AcDbEntity
  8
M03
100
AcDbLine
 10
364.892305
 20
418.059226
 30
0.0
 11
364.892305
 21
404.759226
 31
0.0
  0
LINE
  5
1E0
100
AcDbEntity
  8
M03
100
AcDbLine
 10
360.292305
 20
418.059226
 30
0.0
 11
360.292305
 21
404.759226
 31
0.0
  0
LINE
  5
1E1
100
AcDbEntity
  8
M03
100
AcDbLine
 10
359.592305
 20
416.559226
 30
0.0
 11
359.592305
 21
404.759226
 31
0.0
  0
LINE
  5
1E2
100
AcDbEntity
  8
M03
100
AcDbLine
 10
365.592305
 20
416.559226
 30
0.0
 11
365.592305
 21
404.759226
 31
0.0
  0
LINE
  5
1E3
100
AcDbEntity
  8
M03
100
AcDbLine
 10
348.285242
 20
404.759226
 30
0.0
 11
354.240478
 21
404.759226
 31
0.0
  0
LINE
  5
1E4
100
AcDbEntity
  8
M03
100
AcDbLine
 10
372.592305
 20
405.559226
 30
0.0
 11
372.592305
 21
400.559226
 31
0.0
  0
LINE
  5
1E5
100
AcDbEntity
  8
M03
100
AcDbLine
 10
305.092305
 20
405.559226
 30
0.0
 11
359.592305
 21
405.559226
 31
0.0
  0
LINE
  5
1E6
100
AcDbEntity
  8
CENTRE
100
AcDbLine
 10
362.592305
 20
423.757899
 30
0.0
 11
362.592305
 21
396.597749
 31
0.0
  0
DIMENSION
  5
1E7
100
AcDbEntity
  8
DIMS
100
AcDbDimension
  2
*D4
 10
788.329007
 20
499.059226
 30
0.0
 11
760.329007
 21
481.273512
 31
0.0
 12
25.0
 22
0.0
 32
0.0
  1
%%c<> H7
  3
DIM1
100
AcDbAlignedDimension
 13
803.005172
 23
507.059226
 33
0.0
 14
803.005172
 24
499.059226
 34
0.0
 50
90.0
100
AcDbRotatedDimension
1001
ACAD
1000
DSTYLE
1002
{
1070
   144
1040
1.0
1002
}
  0
CIRCLE
  5
1F5
100
AcDbEntity
  8
M03
100
AcDbCircle
 10
330.092305
 20
432.559226
 30
0.0
 40
2.3
  0
ARC
  5
1F6
100
AcDbEntity
  8
M03
100
AcDbCircle
 10
330.092305
 20
432.559226
 30
0.0
 40
3.0
100
AcDbArc
 50
167.784636
 51
96.923103
  0
CIRCLE
  5
1F7
100
AcDbEntity
  8
M03
100
AcDbCircle
 10
680.092305
 20
432.559226
 30
0.0
 40
2.3
  0
ARC
  5
1F8
100
AcDbEntity
  8
M03
100
AcDbCircle
 10
680.092305
 20
432.559226
 30
0.0
 40
3.0
100
AcDbArc
 50
167.784636
 51
96.923103
  0
LINE
  5
1F9
100
AcDbEntity
  8
DIMS
 62
     4
100
AcDbLine
 10
330.092305
 20
435.959226
 30
0.0
 11
330.092305
 21
449.259226
 31
0.0
  0
LINE
  5
1FA
100
AcDbEntity
  8
DIMS
 62
     4
100
AcDbLine
 10
330.092305
 20
429.159226
 30
0.0
 11
330.092305
 21
415.859226
 31
0.0
  0
LINE
  5
1FB
100
AcDbEntity
  8
DIMS
 62
     4
100
AcDbLine
 10
330.092305
 20
430.859226
 30
0.0
 11
330.092305
 21
434.259226
 31
0.0
  0
LINE
  5
1FC
100
AcDbEntity
  8
DIMS
 62
     4
100
AcDbLine
 10
680.092305
 20
435.959226
 30
0.0
 11
680.092305
 21
449.259226
 31
0.0
  0
LINE
  5
1FD
100
AcDbEntity
  8
DIMS
 62
     4
100
AcDbLine
 10
680.092305
 20
429.159226
 30
0.0
 11
680.092305
 21
415.859226
 31
0.0
  0
LINE
  5
1FE
100
AcDbEntity
  8
DIMS
 62
     4
100
AcDbLine
 10
680.092305
 20
430.859226
 30
0.0
 11
680.092305
 21
434.259226
 31
0.0
  0
LINE
  5
1FF
100
AcDbEntity
  8
M03
100
AcDbLine
 10
680.642305
 20
426.584488
 30
0.0
 11
680.642305
 21
438.533965
 31
0.0
  0
LINE
  5
200
100
AcDbEntity
  8
M03
100
AcDbLine
 10
679.542305
 20
426.584488
 30
0.0
 11
679.542305
 21
438.533965
 31
0.0
  0
CIRCLE
  5
201
100
AcDbEntity
  8
M03
100
AcDbCircle
 10
680.092305
 20
432.559226
 30
0.0
 40
15.0
  0
CIRCLE
  5
202
100
AcDbEntity
  8
M03
100
AcDbCircle
 10
680.092305
 20
432.559226
 30
0.0
 40
14.0
  0
CIRCLE
  5
203
100
AcDbEntity
  8
M03
100
AcDbCircle
 10
680.092305
 20
432.559226
 30
0.0
 40
7.858882
  0
CIRCLE
  5
204
100
AcDbEntity
  8
M03
100
AcDbCircle
 10
680.092305
 20
432.559226
 30
0.0
 40
6.0
  0
LINE
  5
205
100
AcDbEntity
  8
M03
100
AcDbLine
 10
329.542305
 20
426.584488
 30
0.0
 11
329.542305
 21
438.533965
 31
0.0
  0
LINE
  5
206
100
AcDbEntity
  8
M03
100
AcDbLine
 10
330.642305
 20
426.584488
 30
0.0
 11
330.642305
 21
438.533965
 31
0.0
  0
CIRCLE
  5
207
100
AcDbEntity
  8
M03
100
AcDbCircle
 10
330.092305
 20
432.559226
 30
0.0
 40
15.0
  0
CIRCLE
  5
208
100
AcDbEntity
  8
M03
100
AcDbCircle
 10
330.092305
 20
432.559226
 30
0.0
 40
14.0
  0
CIRCLE
  5
209
100
AcDbEntity
  8
M03
100
AcDbCircle
 10
330.092305
 20
432.559226
 30
0.0
 40
7.858882
  0
CIRCLE
  5
20A
100
AcDbEntity
  8
M03
100
AcDbCircle
 10
330.092305
 20
432.559226
 30
0.0
 40
6.0
  0
DIMENSION
  5
20B
100
AcDbEntity
  8
DIMS
100
AcDbDimension
  2
*D5
 10
921.320289
 20
452.559226
 30
0.0
 11
893.320289
 21
432.559226
 31
0.0
 12
25.0
 22
0.0
 32
0.0
  1
%%c<> H7
  3
DIM1
100
AcDbAlignedDimension
 13
885.005172
 23
412.559226
 33
0.0
 14
885.005172
 24
452.559226
 34
0.0
 50
90.0
100
AcDbRotatedDimension
1001
ACAD
1000
DSTYLE
1002
{
1070
   144
1040
1.0
1002
}
  0
DIMENSION
  5
218
100
AcDbEntity
  8
DIMS
100
AcDbDimension
  2
*D6
 10
816.005172
 20
362.279548
 30
0.0
 11
780.362315
 21
365.279548
 31
0.0
 12
25.0
 22
0.0
 32
0.0
  1
7.0
  3
DIM1
100
AcDbAlignedDimension
 13
823.005172
 23
402.559226
 33
0.0
 14
816.005172
 24
393.559226
 34
0.0
100
AcDbRotatedDimension
1001
ACAD
1000
DSTYLE
1002
{
1070
   144
1040
1.0
1002
}
  0
DIMENSION
  5
226
100
AcDbEntity
  8
DIMS
100
AcDbDimension
  2
*D7
 10
877.005172
 20
362.279548
 30
0.0
 11
862.648029
 21
365.279548
 31
0.0
 12
25.0
 22
0.0
 32
0.0
  1
7.0
  3
DIM1
100
AcDbAlignedDimension
 13
870.005172
 23
401.259226
 33
0.0
 14
877.005172
 24
382.045835
 34
0.0
100
AcDbRotatedDimension
1001
ACAD
1000
DSTYLE
1002
{
1070
   144
1040
1.0
1002
}
  0
DIMENSION
  5
234
100
AcDbEntity
  8
DIMS
100
AcDbDimension
  2
*D8
 10
870.005172
 20
362.279548
 30
0.0
 11
821.505172
 21
365.279548
 31
0.0
 12
25.0
 22
0.0
 32
0.0
  3
DIM1
100
AcDbAlignedDimension
 13
823.005172
 23
402.559226
 33
0.0
 14
870.005172
 24
401.259226
 34
0.0
100
AcDbRotatedDimension
1001
ACAD
1000
DSTYLE
1002
{
1070
   144
1040
1.0
1002
}
  0
LINE
  5
241
100
AcDbEntity
  8
M01
100
AcDbLine
 10
859.005172
 20
523.559226
 30
0.0
 11
869.005172
 21
523.559226
 31
0.0
  0
LINE
  5
242
100
AcDbEntity
  8
M01
100
AcDbLine
 10
825.755172
 20
530.503326
 30
0.0
 11
832.255172
 21
530.503326
 31
0.0
  0
LINE
  5
243
100
AcDbEntity
  8
M01
100
AcDbLine
 10
825.755172
 20
538.615126
 30
0.0
 11
832.255172
 21
538.615126
 31
0.0
  0
LINE
  5
244
100
AcDbEntity
  8
M01
100
AcDbLine
 10
825.755172
 20
530.503326
 30
0.0
 11
825.755172
 21
528.559226
 31
0.0
  0
ARC
  5
245
100
AcDbEntity
  8
M01
100
AcDbCircle
 10
824.505172
 20
532.064576
 30
0.0
 40
2.0
100
AcDbArc
 50
308.682187
 51
0.0
  0
ARC
  5
246
100
AcDbEntity
  8
M01
100
AcDbCircle
 10
824.505172
 20
537.053876
 30
0.0
 40
2.0
100
AcDbArc
 50
0.0
 51
51.317813
  0
LINE
  5
247
100
AcDbEntity
  8
M01
100
AcDbLine
 10
825.755172
 20
540.559226
 30
0.0
 11
825.755172
 21
538.615126
 31
0.0
  0
LINE
  5
248
100
AcDbEntity
  8
M01
100
AcDbLine
 10
826.505172
 20
537.053876
 30
0.0
 11
826.505172
 21
532.064576
 31
0.0
  0
LINE
  5
249
100
AcDbEntity
  8
M01
100
AcDbLine
 10
832.255172
 20
530.503326
 30
0.0
 11
832.255172
 21
528.559226
 31
0.0
  0
ARC
  5
24A
100
AcDbEntity
  8
M01
100
AcDbCircle
 10
833.505172
 20
532.064576
 30
0.0
 40
2.0
100
AcDbArc
 50
180.0
 51
231.317813
  0
ARC
  5
24B
100
AcDbEntity
  8
M01
100
AcDbCircle
 10
833.505172
 20
537.053876
 30
0.0
 40
2.0
100
AcDbArc
 50
128.682187
 51
180.0
  0
LINE
  5
24C
100
AcDbEntity
  8
M01
100
AcDbLine
 10
832.255172
 20
540.559226
 30
0.0
 11
832.255172
 21
538.615126
 31
0.0
  0
LINE
  5
24D
100
AcDbEntity
  8
M01
100
AcDbLine
 10
831.505172
 20
537.053876
 30
0.0
 11
831.505172
 21
532.064576
 31
0.0
  0
LINE
  5
24E
100
AcDbEntity
  8
M01
100
AcDbLine
 10
824.005172
 20
523.559226
 30
0.0
 11
834.005172
 21
523.559226
 31
0.0
  0
LINE
  5
24F
100
AcDbEntity
  8
M01
100
AcDbLine
 10
869.005172
 20
528.559226
 30
0.0
 11
869.005172
 21
507.559226
 31
0.0
  0
LINE
  5
250
100
AcDbEntity
  8
M01
100
AcDbLine
 10
859.005172
 20
528.559226
 30
0.0
 11
859.005172
 21
508.559226
 31
0.0
  0
LINE
  5
251
100
AcDbEntity
  8
M01
100
AcDbLine
 10
824.005172
 20
528.559226
 30
0.0
 11
824.005172
 21
507.559226
 31
0.0
  0
LINE
  5
252
100
AcDbEntity
  8
M01
100
AcDbLine
 10
834.005172
 20
528.559226
 30
0.0
 11
834.005172
 21
508.559226
 31
0.0
  0
LINE
  5
253
100
AcDbEntity
  8
M01
100
AcDbLine
 10
512.592305
 20
540.559226
 30
0.0
 11
521.592305
 21
540.559226
 31
0.0
  0
LINE
  5
254
100
AcDbEntity
  8
M01
100
AcDbLine
 10
521.592305
 20
541.359226
 30
0.0
 11
521.592305
 21
540.559226
 31
0.0
  0
LINE
  5
255
100
AcDbEntity
  8
M01
100
AcDbLine
 10
512.592305
 20
541.359226
 30
0.0
 11
512.592305
 21
540.559226
 31
0.0
  0
LINE
  5
256
100
AcDbEntity
  8
M01
100
AcDbLine
 10
489.842305
 20
530.503326
 30
0.0
 11
496.342305
 21
530.503326
 31
0.0
  0
LINE
  5
257
100
AcDbEntity
  8
M01
100
AcDbLine
 10
489.842305
 20
538.615126
 30
0.0
 11
496.342305
 21
538.615126
 31
0.0
  0
LINE
  5
258
100
AcDbEntity
  8
M01
100
AcDbLine
 10
489.842305
 20
530.503326
 30
0.0
 11
489.842305
 21
528.559226
 31
0.0
  0
ARC
  5
259
100
AcDbEntity
  8
M01
100
AcDbCircle
 10
488.592305
 20
532.064576
 30
0.0
 40
2.0
100
AcDbArc
 50
308.682187
 51
0.0
  0
ARC
  5
25A
100
AcDbEntity
  8
M01
100
AcDbCircle
 10
488.592305
 20
537.053876
 30
0.0
 40
2.0
100
AcDbArc
 50
0.0
 51
51.317813
  0
LINE
  5
25B
100
AcDbEntity
  8
M01
100
AcDbLine
 10
489.842305
 20
540.559226
 30
0.0
 11
489.842305
 21
538.615126
 31
0.0
  0
LINE
  5
25C
100
AcDbEntity
  8
M01
100
AcDbLine
 10
490.592305
 20
537.053876
 30
0.0
 11
490.592305
 21
532.064576
 31
0.0
  0
LINE
  5
25D
100
AcDbEntity
  8
M01
100
AcDbLine
 10
496.342305
 20
530.503326
 30
0.0
 11
496.342305
 21
528.559226
 31
0.0
  0
ARC
  5
25E
100
AcDbEntity
  8
M01
100
AcDbCircle
 10
497.592305
 20
532.064576
 30
0.0
 40
2.0
100
AcDbArc
 50
180.0
 51
231.317813
  0
ARC
  5
25F
100
AcDbEntity
  8
M01
100
AcDbCircle
 10
497.592305
 20
537.053876
 30
0.0
 40
2.0
100
AcDbArc
 50
128.682187
 51
180.0
  0
LINE
  5
260
100
AcDbEntity
  8
M01
100
AcDbLine
 10
496.342305
 20
540.559226
 30
0.0
 11
496.342305
 21
538.615126
 31
0.0
  0
LINE
  5
261
100
AcDbEntity
  8
M01
100
AcDbLine
 10
495.592305
 20
537.053876
 30
0.0
 11
495.592305
 21
532.064576
 31
0.0
  0
LINE
  5
262
100
AcDbEntity
  8
M01
100
AcDbLine
 10
522.092305
 20
523.559226
 30
0.0
 11
512.092305
 21
523.559226
 31
0.0
  0
LINE
  5
263
100
AcDbEntity
  8
M01
100
AcDbLine
 10
488.092305
 20
523.559226
 30
0.0
 11
498.092305
 21
523.559226
 31
0.0
  0
LINE
  5
264
100
AcDbEntity
  8
M01
100
AcDbLine
 10
488.092305
 20
528.559226
 30
0.0
 11
488.092305
 21
508.559226
 31
0.0
  0
LINE
  5
265
100
AcDbEntity
  8
M01
100
AcDbLine
 10
498.092305
 20
528.559226
 30
0.0
 11
498.092305
 21
508.559226
 31
0.0
  0
LINE
  5
266
100
AcDbEntity
  8
M01
100
AcDbLine
 10
512.092305
 20
528.559226
 30
0.0
 11
512.092305
 21
508.559226
 31
0.0
  0
LINE
  5
267
100
AcDbEntity
  8
M01
100
AcDbLine
 10
522.092305
 20
528.559226
 30
0.0
 11
522.092305
 21
508.559226
 31
0.0
  0
LINE
  5
268
100
AcDbEntity
  8
CENTRE
100
AcDbLine
 10
322.092305
 20
256.513886
 30
0.0
 11
688.092305
 21
256.513886
 31
0.0
  0
ARC
  5
269
100
AcDbEntity
  8
M03
100
AcDbCircle
 10
505.092305
 20
432.559226
 30
0.0
 40
34.0
100
AcDbArc
 50
289.749923
 51
250.250077
  0
LINE
  5
26A
102
{ACAD_REACTORS
330
1A3
102
}
100
AcDbEntity
  8
M05
100
AcDbLine
 10
870.005172
 20
401.259226
 30
0.0
 11
870.005172
 21
402.559226
 31
0.0
  0
WIPEOUT
  5
26B
100
AcDbEntity
  8
TEXT
 92
      140
310
8C000000010000008400000006000000050000001B86886FBF8E8540FFD34C7A84546F4000000000000000002A70297EA9078640FFD34C7A84546F4000000000000000002B70297EA9078640FCD34C7A84D46F4000000000000000001D86886FBF8E8540FFD34C7A84D46F4000000000000000001B86886FBF8E8540FFD34C
310
7A84546F400000000000000000
100
AcDbWipeout
 90
        0
 10
667.534992
 20
217.218404
 30
0.0
 11
37.422768
 21
0.0
 31
0.0
 12
0.0
 22
37.422768
 32
0.0
 13
0.0
 23
0.0
340
0
 70
     7
280
     1
281
    50
282
    50
283
     0
360
0
 71
     2
 91
        5
 14
0.096121
 24
-0.393113
 14
0.5
 24
-0.393113
 14
0.5
 24
-0.5
 14
0.096121
 24
-0.5
 14
0.096121
 24
-0.393113
  0
TEXT
  5
26C
102
{ACAD_REACTORS
330
22
102
}
100
AcDbEntity
  8
TEXT
100
AcDbText
 10
690.843474
 20
251.641172
 30
0.0
 40
2.0
  1
MM010035
 41
0.9
100
AcDbText
  0
WIPEOUT
  5
26D
100
AcDbEntity
  8
TEXT
 92
      140
310
8C00000001000000840000000600000005000000C981F758AB2C8A40926963D771EE79400000000000000000D86B986795A58A40926963D771EE79400000000000000000D96B986795A58A40916963D7712E7A400000000000000000CB81F758AB2C8A40926963D7712E7A400000000000000000C981F758AB2C8A40926963
310
D771EE79400000000000000000
100
AcDbWipeout
 90
        0
 10
815.50688
 20
381.711722
 30
0.0
 11
37.191071
 21
0.0
 31
0.0
 12
0.0
 22
37.191071
 32
0.0
 13
0.0
 23
0.0
340
0
 70
     7
280
     1
281
    50
282
    50
283
     0
360
0
 71
     2
 91
        5
 14
0.093604
 24
-0.392447
 14
0.5
 24
-0.392447
 14
0.5
 24
-0.5
 14
0.093604
 24
-0.5
 14
0.093604
 24
-0.392447
  0
TEXT
  5
26E
100
AcDbEntity
  8
TEXT
100
AcDbText
 10
838.583666
 20
415.902793
 30
0.0
 40
2.0
  1
MM010035
 41
0.9
100
AcDbText
  0
MTEXT
  5
26F
102
{ACAD_REACTORS
330
270
102
}
100
AcDbEntity
  8
HATCH
 62
     2
100
AcDbMText
 10
703.732484
 20
215.172659
 30
0.0
 40
3.0
 41
0.0
 71
     1
 72
     5
  1
MA010006 (x2)
  0
LEADER
  5
270
100
AcDbEntity
  8
HATCH
 62
     4
100
AcDbLeader
  3
DIM1$7
 73
     0
 74
     0
 75
     1
 40
4.571429
 41
34.142857
 76
     3
 10
689.809659
 20
227.644599
 30
0.0
 10
699.232484
 20
213.672659
 30
0.0
 10
702.232484
 20
213.672659
 30
0.0
 77
   256
340
26F
213
0.0
223
-1.5
233
0.0
1001
ACAD
1000
DSTYLE
1002
{
1070
   144
1040
1.0
1002
}
  0
LINE
  5
271
102
{ACAD_REACTORS
330
DC
102
}
100
AcDbEntity
  8
M04
100
AcDbLine
 10
333.092305
 20
226.013886
 30
0.0
 11
485.592305
 21
226.013886
 31
0.0
  0
LINE
  5
272
102
{ACAD_REACTORS
330
21
102
}
100
AcDbEntity
  8
M02
100
AcDbLine
 10
344.092305
 20
230.013886
 30
0.0
 11
471.092305
 21
230.013886
 31
0.0
  0
LINE
  5
273
100
AcDbEntity
  8
M04
100
AcDbLine
 10
330.092305
 20
208.18598
 30
0.0
 11
332.392305
 21
209.513886
 31
0.0
  0
LINE
  5
274
100
AcDbEntity
  8
M04
100
AcDbLine
 10
327.792305
 20
209.513886
 30
0.0
 11
330.092305
 21
208.18598
 31
0.0
  0
LINE
  5
275
100
AcDbEntity
  8
M04
100
AcDbLine
 10
327.792305
 20
209.513886
 30
0.0
 11
332.392305
 21
209.513886
 31
0.0
  0
LINE
  5
276
100
AcDbEntity
  8
M04
100
AcDbLine
 10
327.092305
 20
214.575004
 30
0.0
 11
327.092305
 21
211.013886
 31
0.0
  0
LINE
  5
277
100
AcDbEntity
  8
M04
100
AcDbLine
 10
327.792305
 20
213.875004
 30
0.0
 11
327.792305
 21
209.513886
 31
0.0
  0
LINE
  5
278
100
AcDbEntity
  8
M04
100
AcDbLine
 10
333.092305
 20
214.575004
 30
0.0
 11
333.092305
 21
211.013886
 31
0.0
  0
LINE
  5
279
100
AcDbEntity
  8
M04
100
AcDbLine
 10
332.392305
 20
213.875004
 30
0.0
 11
332.392305
 21
209.513886
 31
0.0
  0
LINE
  5
27A
100
AcDbEntity
  8
M05
100
AcDbLine
 10
332.392305
 20
213.875004
 30
0.0
 11
333.092305
 21
214.575004
 31
0.0
  0
LINE
  5
27B
100
AcDbEntity
  8
M05
100
AcDbLine
 10
327.092305
 20
214.575004
 30
0.0
 11
327.792305
 21
213.875004
 31
0.0
  0
LINE
  5
27C
100
AcDbEntity
  8
M05
100
AcDbLine
 10
332.392305
 20
226.655004
 30
0.0
 11
332.392305
 21
213.875004
 31
0.0
  0
LINE
  5
27D
100
AcDbEntity
  8
M05
100
AcDbLine
 10
327.792305
 20
226.655004
 30
0.0
 11
327.792305
 21
213.875004
 31
0.0
  0
LINE
  5
27E
100
AcDbEntity
  8
M05
100
AcDbLine
 10
327.092305
 20
214.575004
 30
0.0
 11
333.092305
 21
214.575004
 31
0.0
  0
LINE
  5
27F
100
AcDbEntity
  8
M04
100
AcDbLine
 10
327.092305
 20
211.013886
 30
0.0
 11
333.092305
 21
211.013886
 31
0.0
  0
LINE
  5
280
100
AcDbEntity
  8
M05
100
AcDbLine
 10
327.792305
 20
213.875004
 30
0.0
 11
332.392305
 21
213.875004
 31
0.0
  0
LINE
  5
281
102
{ACAD_REACTORS
330
22
102
}
100
AcDbEntity
  8
M05
  6
HIDDEN
100
AcDbLine
 10
321.933423
 20
233.313886
 30
0.0
 11
321.233423
 21
234.013886
 31
0.0
  0
LINE
  5
282
102
{ACAD_REACTORS
330
22
102
}
100
AcDbEntity
  8
M05
  6
HIDDEN
100
AcDbLine
 10
338.251187
 20
233.313886
 30
0.0
 11
338.951187
 21
234.013886
 31
0.0
  0
LINE
  5
283
100
AcDbEntity
  8
M05
100
AcDbLine
 10
327.092305
 20
226.655004
 30
0.0
 11
333.092305
 21
226.655004
 31
0.0
  0
LINE
  5
284
100
AcDbEntity
  8
M05
100
AcDbLine
 10
330.642305
 20
231.155004
 30
0.0
 11
336.092305
 21
231.155004
 31
0.0
  0
LINE
  5
285
100
AcDbEntity
  8
M05
100
AcDbLine
 10
330.642305
 20
231.875004
 30
0.0
 11
336.092305
 21
231.875004
 31
0.0
  0
LINE
  5
286
100
AcDbEntity
  8
M05
100
AcDbLine
 10
330.642305
 20
231.875004
 30
0.0
 11
330.642305
 21
230.375004
 31
0.0
  0
LINE
  5
287
100
AcDbEntity
  8
M05
100
AcDbLine
 10
329.542305
 20
231.875004
 30
0.0
 11
329.542305
 21
230.375004
 31
0.0
  0
LINE
  5
288
100
AcDbEntity
  8
M05
100
AcDbLine
 10
329.542305
 20
230.375004
 30
0.0
 11
330.642305
 21
230.375004
 31
0.0
  0
LINE
  5
289
102
{ACAD_REACTORS
330
DC
102
}
100
AcDbEntity
  8
M05
100
AcDbLine
 10
333.592305
 20
228.655004
 30
0.0
 11
333.592305
 21
226.013886
 31
0.0
  0
LINE
  5
28A
102
{ACAD_REACTORS
330
DC
102
}
100
AcDbEntity
  8
M05
100
AcDbLine
 10
326.592305
 20
228.655004
 30
0.0
 11
326.592305
 21
226.013886
 31
0.0
  0
LINE
  5
28B
100
AcDbEntity
  8
M05
100
AcDbLine
 10
324.092305
 20
231.155004
 30
0.0
 11
329.542305
 21
231.155004
 31
0.0
  0
LINE
  5
28C
102
{ACAD_REACTORS
330
DC
330
22
102
}
100
AcDbEntity
  8
M05
100
AcDbLine
 10
327.092305
 20
228.155004
 30
0.0
 11
321.933423
 21
233.313886
 31
0.0
  0
LINE
  5
28D
100
AcDbEntity
  8
M05
100
AcDbLine
 10
324.092305
 20
231.875004
 30
0.0
 11
324.092305
 21
231.155004
 31
0.0
  0
LINE
  5
28E
102
{ACAD_REACTORS
330
DC
330
22
102
}
100
AcDbEntity
  8
M05
100
AcDbLine
 10
333.092305
 20
228.155004
 30
0.0
 11
338.251187
 21
233.313886
 31
0.0
  0
LINE
  5
28F
100
AcDbEntity
  8
M05
100
AcDbLine
 10
327.092305
 20
228.155004
 30
0.0
 11
333.092305
 21
228.155004
 31
0.0
  0
LINE
  5
290
100
AcDbEntity
  8
M05
100
AcDbLine
 10
327.092305
 20
228.155004
 30
0.0
 11
327.092305
 21
214.575004
 31
0.0
  0
LINE
  5
291
100
AcDbEntity
  8
M05
100
AcDbLine
 10
333.092305
 20
228.155004
 30
0.0
 11
333.092305
 21
214.575004
 31
0.0
  0
LINE
  5
292
100
AcDbEntity
  8
M05
100
AcDbLine
 10
336.092305
 20
231.875004
 30
0.0
 11
336.092305
 21
231.155004
 31
0.0
  0
LINE
  5
293
100
AcDbEntity
  8
M05
100
AcDbLine
 10
324.092305
 20
231.875004
 30
0.0
 11
329.542305
 21
231.875004
 31
0.0
  0
LINE
  5
294
102
{ACAD_REACTORS
330
22
102
}
100
AcDbEntity
  8
M05
  6
HIDDEN
100
AcDbLine
 10
316.092305
 20
233.313886
 30
0.0
 11
344.092305
 21
233.313886
 31
0.0
  0
LINE
  5
295
102
{ACAD_REACTORS
330
22
102
}
100
AcDbEntity
  8
M05
  6
HIDDEN
100
AcDbLine
 10
344.092305
 20
233.313886
 30
0.0
 11
343.392305
 21
234.013886
 31
0.0
  0
LINE
  5
296
102
{ACAD_REACTORS
330
22
102
}
100
AcDbEntity
  8
M05
  6
HIDDEN
100
AcDbLine
 10
344.092305
 20
232.313886
 30
0.0
 11
344.092305
 21
233.313886
 31
0.0
  0
LINE
  5
297
102
{ACAD_REACTORS
330
DC
102
}
100
AcDbEntity
  8
M05
100
AcDbLine
 10
344.092305
 20
232.313886
 30
0.0
 11
343.392305
 21
233.013886
 31
0.0
  0
LINE
  5
298
102
{ACAD_REACTORS
330
DC
102
}
100
AcDbEntity
  8
M05
100
AcDbLine
 10
344.092305
 20
226.713886
 30
0.0
 11
343.392305
 21
226.013886
 31
0.0
  0
LINE
  5
299
102
{ACAD_REACTORS
330
DC
102
}
100
AcDbEntity
  8
M05
100
AcDbLine
 10
344.092305
 20
232.313886
 30
0.0
 11
344.092305
 21
226.713886
 31
0.0
  0
LINE
  5
29A
102
{ACAD_REACTORS
330
22
102
}
100
AcDbEntity
  8
M05
  6
HIDDEN
100
AcDbLine
 10
316.092305
 20
233.313886
 30
0.0
 11
316.792305
 21
234.013886
 31
0.0
  0
LINE
  5
29B
102
{ACAD_REACTORS
330
22
102
}
100
AcDbEntity
  8
M05
  6
HIDDEN
100
AcDbLine
 10
316.092305
 20
232.313886
 30
0.0
 11
316.092305
 21
233.313886
 31
0.0
  0
LINE
  5
29C
102
{ACAD_REACTORS
330
DC
102
}
100
AcDbEntity
  8
M05
100
AcDbLine
 10
316.092305
 20
232.313886
 30
0.0
 11
316.792305
 21
233.013886
 31
0.0
  0
LINE
  5
29D
102
{ACAD_REACTORS
330
DC
102
}
100
AcDbEntity
  8
M05
100
AcDbLine
 10
316.092305
 20
226.713886
 30
0.0
 11
316.792305
 21
226.013886
 31
0.0
  0
LINE
  5
29E
102
{ACAD_REACTORS
330
21
102
}
100
AcDbEntity
  8
M02
100
AcDbLine
 10
345.092305
 20
233.013886
 30
0.0
 11
345.092305
 21
230.013886
 31
0.0
  0
LINE
  5
29F
102
{ACAD_REACTORS
330
21
102
}
100
AcDbEntity
  8
M02
100
AcDbLine
 10
315.092305
 20
233.013886
 30
0.0
 11
315.092305
 21
230.013886
 31
0.0
  0
LINE
  5
2A0
102
{ACAD_REACTORS
330
22
102
}
100
AcDbEntity
  8
M05
  6
HIDDEN
100
AcDbLine
 10
316.792305
 20
234.013886
 30
0.0
 11
343.392305
 21
234.013886
 31
0.0
  0
LINE
  5
2A1
102
{ACAD_REACTORS
330
DC
102
}
100
AcDbEntity
  8
M05
100
AcDbLine
 10
316.092305
 20
232.313886
 30
0.0
 11
316.092305
 21
226.713886
 31
0.0
  0
LINE
  5
2A2
102
{ACAD_REACTORS
330
22
102
}
100
AcDbEntity
  8
CENTRE
100
AcDbLine
 10
330.092305
 20
238.522996
 30
0.0
 11
330.092305
 21
205.444658
 31
0.0
  0
LINE
  5
2A3
100
AcDbEntity
  8
CENTRE
100
AcDbLine
 10
680.092305
 20
248.397127
 30
0.0
 11
680.092305
 21
290.362183
 31
0.0
  0
LINE
  5
2A4
100
AcDbEntity
  8
CENTRE
100
AcDbLine
 10
330.092305
 20
248.397127
 30
0.0
 11
330.092305
 21
290.362183
 31
0.0
  0
LINE
  5
2A5
100
AcDbEntity
  8
M04
100
AcDbLine
 10
680.092305
 20
208.18598
 30
0.0
 11
682.392305
 21
209.513886
 31
0.0
  0
LINE
  5
2A6
100
AcDbEntity
  8
M04
100
AcDbLine
 10
677.792305
 20
209.513886
 30
0.0
 11
680.092305
 21
208.18598
 31
0.0
  0
LINE
  5
2A7
100
AcDbEntity
  8
M04
100
AcDbLine
 10
677.792305
 20
209.513886
 30
0.0
 11
682.392305
 21
209.513886
 31
0.0
  0
LINE
  5
2A8
100
AcDbEntity
  8
M04
100
AcDbLine
 10
677.092305
 20
214.575004
 30
0.0
 11
677.092305
 21
211.013886
 31
0.0
  0
LINE
  5
2A9
100
AcDbEntity
  8
M04
100
AcDbLine
 10
677.792305
 20
213.875004
 30
0.0
 11
677.792305
 21
209.513886
 31
0.0
  0
LINE
  5
2AA
100
AcDbEntity
  8
M04
100
AcDbLine
 10
683.092305
 20
214.575004
 30
0.0
 11
683.092305
 21
211.013886
 31
0.0
  0
LINE
  5
2AB
100
AcDbEntity
  8
M04
100
AcDbLine
 10
682.392305
 20
213.875004
 30
0.0
 11
682.392305
 21
209.513886
 31
0.0
  0
LINE
  5
2AC
100
AcDbEntity
  8
M05
100
AcDbLine
 10
682.392305
 20
213.875004
 30
0.0
 11
683.092305
 21
214.575004
 31
0.0
  0
LINE
  5
2AD
100
AcDbEntity
  8
M05
100
AcDbLine
 10
677.092305
 20
214.575004
 30
0.0
 11
677.792305
 21
213.875004
 31
0.0
  0
LINE
  5
2AE
100
AcDbEntity
  8
M05
100
AcDbLine
 10
682.392305
 20
226.655004
 30
0.0
 11
682.392305
 21
213.875004
 31
0.0
  0
LINE
  5
2AF
100
AcDbEntity
  8
M05
100
AcDbLine
 10
677.792305
 20
226.655004
 30
0.0
 11
677.792305
 21
213.875004
 31
0.0
  0
LINE
  5
2B0
100
AcDbEntity
  8
M05
100
AcDbLine
 10
677.092305
 20
214.575004
 30
0.0
 11
683.092305
 21
214.575004
 31
0.0
  0
LINE
  5
2B1
100
AcDbEntity
  8
M04
100
AcDbLine
 10
677.092305
 20
211.013886
 30
0.0
 11
683.092305
 21
211.013886
 31
0.0
  0
LINE
  5
2B2
100
AcDbEntity
  8
M05
100
AcDbLine
 10
677.792305
 20
213.875004
 30
0.0
 11
682.392305
 21
213.875004
 31
0.0
  0
LINE
  5
2B3
102
{ACAD_REACTORS
330
22
102
}
100
AcDbEntity
  8
M05
  6
HIDDEN
100
AcDbLine
 10
671.933423
 20
233.313886
 30
0.0
 11
671.233423
 21
234.013886
 31
0.0
  0
LINE
  5
2B4
102
{ACAD_REACTORS
330
22
102
}
100
AcDbEntity
  8
M05
  6
HIDDEN
100
AcDbLine
 10
688.251187
 20
233.313886
 30
0.0
 11
688.951187
 21
234.013886
 31
0.0
  0
LINE
  5
2B5
100
AcDbEntity
  8
M04
100
AcDbLine
 10
683.092305
 20
226.013886
 30
0.0
 11
736.643086
 21
226.013886
 31
0.0
  0
LINE
  5
2B6
100
AcDbEntity
  8
M05
100
AcDbLine
 10
677.092305
 20
226.655004
 30
0.0
 11
683.092305
 21
226.655004
 31
0.0
  0
LINE
  5
2B7
100
AcDbEntity
  8
M05
100
AcDbLine
 10
680.642305
 20
231.155004
 30
0.0
 11
686.092305
 21
231.155004
 31
0.0
  0
LINE
  5
2B8
100
AcDbEntity
  8
M05
100
AcDbLine
 10
680.642305
 20
231.875004
 30
0.0
 11
686.092305
 21
231.875004
 31
0.0
  0
LINE
  5
2B9
100
AcDbEntity
  8
M05
100
AcDbLine
 10
680.642305
 20
231.875004
 30
0.0
 11
680.642305
 21
230.375004
 31
0.0
  0
LINE
  5
2BA
100
AcDbEntity
  8
M05
100
AcDbLine
 10
679.542305
 20
231.875004
 30
0.0
 11
679.542305
 21
230.375004
 31
0.0
  0
LINE
  5
2BB
100
AcDbEntity
  8
M05
100
AcDbLine
 10
679.542305
 20
230.375004
 30
0.0
 11
680.642305
 21
230.375004
 31
0.0
  0
LINE
  5
2BC
100
AcDbEntity
  8
M05
100
AcDbLine
 10
683.592305
 20
228.655004
 30
0.0
 11
683.592305
 21
226.013886
 31
0.0
  0
LINE
  5
2BD
100
AcDbEntity
  8
M05
100
AcDbLine
 10
676.592305
 20
228.655004
 30
0.0
 11
676.592305
 21
226.013886
 31
0.0
  0
LINE
  5
2BE
100
AcDbEntity
  8
M05
100
AcDbLine
 10
674.092305
 20
231.155004
 30
0.0
 11
679.542305
 21
231.155004
 31
0.0
  0
LINE
  5
2BF
102
{ACAD_REACTORS
330
22
102
}
100
AcDbEntity
  8
M05
100
AcDbLine
 10
677.092305
 20
228.155004
 30
0.0
 11
671.933423
 21
233.313886
 31
0.0
  0
LINE
  5
2C0
100
AcDbEntity
  8
M05
100
AcDbLine
 10
674.092305
 20
231.875004
 30
0.0
 11
674.092305
 21
231.155004
 31
0.0
  0
LINE
  5
2C1
102
{ACAD_REACTORS
330
22
102
}
100
AcDbEntity
  8
M05
100
AcDbLine
 10
683.092305
 20
228.155004
 30
0.0
 11
688.251187
 21
233.313886
 31
0.0
  0
LINE
  5
2C2
100
AcDbEntity
  8
M05
100
AcDbLine
 10
677.092305
 20
228.155004
 30
0.0
 11
683.092305
 21
228.155004
 31
0.0
  0
LINE
  5
2C3
100
AcDbEntity
  8
M05
100
AcDbLine
 10
677.092305
 20
228.155004
 30
0.0
 11
677.092305
 21
214.575004
 31
0.0
  0
LINE
  5
2C4
100
AcDbEntity
  8
M05
100
AcDbLine
 10
683.092305
 20
228.155004
 30
0.0
 11
683.092305
 21
214.575004
 31
0.0
  0
LINE
  5
2C5
100
AcDbEntity
  8
M05
100
AcDbLine
 10
686.092305
 20
231.875004
 30
0.0
 11
686.092305
 21
231.155004
 31
0.0
  0
LINE
  5
2C6
100
AcDbEntity
  8
M05
100
AcDbLine
 10
674.092305
 20
231.875004
 30
0.0
 11
679.542305
 21
231.875004
 31
0.0
  0
HATCH
  5
2C7
100
AcDbEntity
  8
HATCH
100
AcDbHatch
 10
0.0
 20
0.0
 30
0.0
210
0.0
220
0.0
230
1.0
  2
_U
 70
     0
 71
     1
 91
        1
 92
        7
 72
     0
 73
     1
 93
        4
 10
873.0051721877789
 20
506.5592260810631
 10
870.0051721877786
 20
506.5592260810631
 10
870.0051721877789
 20
467.5592260810632
 10
873.0051721877787
 20
467.5592260810632
 97
        4
330
480
330
48E
330
430
330
482
 75
     0
 76
     0
 52
135.0
 41
0.8
 77
     0
 78
     1
 53
135.0
 43
48.415065
 44
0.0
 45
-0.5656854249492382
 46
-0.565685424949238
 79
     0
 47
0.167139
 98
        1
 10
871.900215
 20
494.836786
  0
LINE
  5
2C8
100
AcDbEntity
  8
DIMS
 62
     4
100
AcDbLine
 10
508.492305
 20
503.059226
 30
0.0
 11
510.792305
 21
503.059226
 31
0.0
  0
LINE
  5
2C9
100
AcDbEntity
  8
DIMS
 62
     4
100
AcDbLine
 10
501.692305
 20
503.059226
 30
0.0
 11
499.392305
 21
503.059226
 31
0.0
  0
LINE
  5
2CA
100
AcDbEntity
  8
DIMS
 62
     4
100
AcDbLine
 10
503.392305
 20
503.059226
 30
0.0
 11
506.792305
 21
503.059226
 31
0.0
  0
DIMENSION
  5
2CB
100
AcDbEntity
  8
DIMS
100
AcDbDimension
  2
*D9
 10
741.84926
 20
464.559226
 30
0.0
 11
713.84926
 21
432.559226
 31
0.0
 12
25.0
 22
0.0
 32
0.0
  1
W=<>
  3
DIM1
100
AcDbAlignedDimension
 13
700.092305
 23
400.559226
 33
0.0
 14
700.092305
 24
464.559226
 34
0.0
 50
90.0
100
AcDbRotatedDimension
1001
ACAD
1000
DSTYLE
1002
{
1070
   144
1040
1.0
1002
}
  0
DIMENSION
  5
2D8
100
AcDbEntity
  8
DIMS
100
AcDbDimension
  2
*D10
 10
712.092305
 20
340.196619
 30
0.0
 11
505.092305
 21
343.196619
 31
0.0
  1
L=<>
  3
DIM1
100
AcDbAlignedDimension
 13
298.092305
 23
412.559226
 33
0.0
 14
712.092305
 24
412.559226
 34
0.0
100
AcDbRotatedDimension
1001
ACAD
1000
DSTYLE
1002
{
1070
   144
1040
1.0
1002
}
  0
DIMENSION
  5
2E5
100
AcDbEntity
  8
DIMS
100
AcDbDimension
  2
*D11
 10
680.092305
 20
349.972053
 30
0.0
 11
505.092305
 21
349.972053
 31
0.0
 70
   128
  1
A=<>
  3
DIM1
100
AcDbAlignedDimension
 13
330.092305
 23
415.860422
 33
0.0
 14
680.092305
 24
415.846007
 34
0.0
100
AcDbRotatedDimension
1001
ACAD
1000
DSTYLE
1002
{
1070
   144
1040
1.0
1002
}
  0
DIMENSION
  5
2F2
100
AcDbEntity
  8
DIMS
100
AcDbDimension
  2
*D12
 10
505.092305
 20
360.026785
 30
0.0
 11
405.318409
 21
360.026785
 31
0.0
 70
   128
  1
A/2=<>
  3
DIM1
100
AcDbAlignedDimension
 13
330.092305
 23
415.860422
 33
0.0
 14
505.092305
 24
385.559226
 34
0.0
100
AcDbRotatedDimension
1001
ACAD
1000
DSTYLE
1002
{
1070
   144
1040
1.0
1002
}
  0
LINE
  5
2FF
100
AcDbEntity
  8
M01
100
AcDbLine
 10
860.974083
 20
550.459226
 30
0.0
 11
867.036261
 21
550.459226
 31
0.0
  0
ARC
  5
300
100
AcDbEntity
  8
M01
100
AcDbCircle
 10
867.036261
 20
548.609921
 30
0.0
 40
1.150694
100
AcDbArc
 50
208.592423
 51
331.407577
  0
ARC
  5
301
100
AcDbEntity
  8
M01
100
AcDbCircle
 10
864.005172
 20
551.162004
 30
0.0
 40
3.702778
100
AcDbArc
 50
236.92527
 51
303.07473
  0
ARC
  5
302
100
AcDbEntity
  8
M01
100
AcDbCircle
 10
860.974083
 20
548.609921
 30
0.0
 40
1.150694
100
AcDbArc
 50
208.592423
 51
331.407577
  0
ARC
  5
303
100
AcDbEntity
  8
M01
100
AcDbCircle
 10
867.036261
 20
549.308532
 30
0.0
 40
1.150694
100
AcDbArc
 50
28.592423
 51
151.407577
  0
ARC
  5
304
100
AcDbEntity
  8
M01
100
AcDbCircle
 10
864.005172
 20
546.756448
 30
0.0
 40
3.702778
100
AcDbArc
 50
56.92527
 51
123.07473
  0
LINE
  5
305
100
AcDbEntity
  8
M01
100
AcDbLine
 10
866.025898
 20
549.859226
 30
0.0
 11
866.025898
 21
548.059226
 31
0.0
  0
LINE
  5
306
100
AcDbEntity
  8
M01
100
AcDbLine
 10
868.046624
 20
549.859226
 30
0.0
 11
868.046624
 21
548.059226
 31
0.0
  0
ARC
  5
307
100
AcDbEntity
  8
M01
100
AcDbCircle
 10
860.974083
 20
549.308532
 30
0.0
 40
1.150694
100
AcDbArc
 50
28.592423
 51
151.407577
  0
LINE
  5
308
100
AcDbEntity
  8
M01
100
AcDbLine
 10
861.984446
 20
549.859226
 30
0.0
 11
861.984446
 21
548.059226
 31
0.0
  0
LINE
  5
309
100
AcDbEntity
  8
M01
100
AcDbLine
 10
859.96372
 20
549.859226
 30
0.0
 11
859.96372
 21
548.059226
 31
0.0
  0
LINE
  5
30A
100
AcDbEntity
  8
M01
100
AcDbLine
 10
869.005172
 20
545.159226
 30
0.0
 11
869.005172
 21
546.659226
 31
0.0
  0
LINE
  5
30B
100
AcDbEntity
  8
M01
100
AcDbLine
 10
859.005172
 20
545.159226
 30
0.0
 11
859.005172
 21
546.659226
 31
0.0
  0
LINE
  5
30C
100
AcDbEntity
  8
M01
100
AcDbLine
 10
868.505172
 20
546.659226
 30
0.0
 11
868.505172
 21
547.459226
 31
0.0
  0
LINE
  5
30D
100
AcDbEntity
  8
M01
100
AcDbLine
 10
859.505172
 20
546.659226
 30
0.0
 11
859.505172
 21
547.459226
 31
0.0
  0
LINE
  5
30E
100
AcDbEntity
  8
M01
100
AcDbLine
 10
859.505172
 20
547.459226
 30
0.0
 11
868.505172
 21
547.459226
 31
0.0
  0
LINE
  5
30F
100
AcDbEntity
  8
M01
100
AcDbLine
 10
859.005172
 20
546.659226
 30
0.0
 11
869.005172
 21
546.659226
 31
0.0
  0
LINE
  5
310
100
AcDbEntity
  8
M01
100
AcDbLine
 10
868.505172
 20
544.359226
 30
0.0
 11
868.505172
 21
545.159226
 31
0.0
  0
LINE
  5
311
100
AcDbEntity
  8
M01
100
AcDbLine
 10
859.505172
 20
544.359226
 30
0.0
 11
859.505172
 21
545.159226
 31
0.0
  0
LINE
  5
312
100
AcDbEntity
  8
M01
100
AcDbLine
 10
854.005172
 20
545.159226
 30
0.0
 11
869.005172
 21
545.159226
 31
0.0
  0
ARC
  5
313
100
AcDbEntity
  8
M01
100
AcDbCircle
 10
867.036261
 20
542.509921
 30
0.0
 40
1.150694
100
AcDbArc
 50
208.592423
 51
331.407577
  0
ARC
  5
314
100
AcDbEntity
  8
M01
100
AcDbCircle
 10
864.005172
 20
545.062004
 30
0.0
 40
3.702778
100
AcDbArc
 50
236.92527
 51
303.07473
  0
ARC
  5
315
100
AcDbEntity
  8
M01
100
AcDbCircle
 10
860.974083
 20
542.509921
 30
0.0
 40
1.150694
100
AcDbArc
 50
208.592423
 51
331.407577
  0
ARC
  5
316
100
AcDbEntity
  8
M01
100
AcDbCircle
 10
867.036261
 20
543.208532
 30
0.0
 40
1.150694
100
AcDbArc
 50
28.592423
 51
151.407577
  0
ARC
  5
317
100
AcDbEntity
  8
M01
100
AcDbCircle
 10
864.005172
 20
540.656448
 30
0.0
 40
3.702778
100
AcDbArc
 50
56.92527
 51
123.07473
  0
LINE
  5
318
100
AcDbEntity
  8
M01
100
AcDbLine
 10
866.025898
 20
543.759226
 30
0.0
 11
866.025898
 21
541.959226
 31
0.0
  0
LINE
  5
319
100
AcDbEntity
  8
M01
100
AcDbLine
 10
868.046624
 20
543.759226
 30
0.0
 11
868.046624
 21
541.959226
 31
0.0
  0
ARC
  5
31A
100
AcDbEntity
  8
M01
100
AcDbCircle
 10
860.974083
 20
543.208532
 30
0.0
 40
1.150694
100
AcDbArc
 50
28.592423
 51
151.407577
  0
LINE
  5
31B
100
AcDbEntity
  8
M01
100
AcDbLine
 10
861.984446
 20
543.759226
 30
0.0
 11
861.984446
 21
541.959226
 31
0.0
  0
LINE
  5
31C
100
AcDbEntity
  8
M01
100
AcDbLine
 10
859.96372
 20
543.759226
 30
0.0
 11
859.96372
 21
541.959226
 31
0.0
  0
LINE
  5
31D
100
AcDbEntity
  8
M01
100
AcDbLine
 10
859.505172
 20
544.359226
 30
0.0
 11
868.505172
 21
544.359226
 31
0.0
  0
LINE
  5
31E
100
AcDbEntity
  8
M01
100
AcDbLine
 10
859.505172
 20
541.359226
 30
0.0
 11
868.505172
 21
541.359226
 31
0.0
  0
LINE
  5
31F
100
AcDbEntity
  8
M01
100
AcDbLine
 10
859.505172
 20
540.559226
 30
0.0
 11
868.505172
 21
540.559226
 31
0.0
  0
LINE
  5
320
100
AcDbEntity
  8
M01
100
AcDbLine
 10
865.505172
 20
553.559226
 30
0.0
 11
866.005172
 21
553.059226
 31
0.0
  0
LINE
  5
321
100
AcDbEntity
  8
M01
100
AcDbLine
 10
862.005172
 20
553.059226
 30
0.0
 11
862.505172
 21
553.559226
 31
0.0
  0
LINE
  5
322
100
AcDbEntity
  8
M01
100
AcDbLine
 10
862.005172
 20
553.059226
 30
0.0
 11
866.005172
 21
553.059226
 31
0.0
  0
LINE
  5
323
100
AcDbEntity
  8
M01
100
AcDbLine
 10
865.505172
 20
553.559226
 30
0.0
 11
865.505172
 21
550.459226
 31
0.0
  0
LINE
  5
324
100
AcDbEntity
  8
M01
100
AcDbLine
 10
862.505172
 20
553.559226
 30
0.0
 11
862.505172
 21
550.459226
 31
0.0
  0
LINE
  5
325
100
AcDbEntity
  8
M01
100
AcDbLine
 10
862.005172
 20
553.059226
 30
0.0
 11
862.005172
 21
550.459226
 31
0.0
  0
LINE
  5
326
100
AcDbEntity
  8
M01
100
AcDbLine
 10
866.005172
 20
553.059226
 30
0.0
 11
866.005172
 21
550.459226
 31
0.0
  0
LINE
  5
327
100
AcDbEntity
  8
M01
100
AcDbLine
 10
862.505172
 20
553.559226
 30
0.0
 11
865.505172
 21
553.559226
 31
0.0
  0
LINE
  5
328
100
AcDbEntity
  8
M01
100
AcDbLine
 10
859.005172
 20
528.559226
 30
0.0
 11
869.005172
 21
528.559226
 31
0.0
  0
LINE
  5
329
100
AcDbEntity
  8
M01
100
AcDbLine
 10
868.505172
 20
541.359226
 30
0.0
 11
868.505172
 21
540.559226
 31
0.0
  0
LINE
  5
32A
100
AcDbEntity
  8
M01
100
AcDbLine
 10
859.505172
 20
541.359226
 30
0.0
 11
859.505172
 21
540.559226
 31
0.0
  0
LINE
  5
32B
100
AcDbEntity
  8
CENTRE
100
AcDbLine
 10
864.005172
 20
559.720115
 30
0.0
 11
864.005172
 21
496.126684
 31
0.0
  0
LINE
  5
32C
100
AcDbEntity
  8
M01
100
AcDbLine
 10
832.036261
 20
550.459226
 30
0.0
 11
825.974083
 21
550.459226
 31
0.0
  0
ARC
  5
32D
100
AcDbEntity
  8
M01
100
AcDbCircle
 10
825.974083
 20
548.609921
 30
0.0
 40
1.150694
100
AcDbArc
 50
208.592423
 51
331.407577
  0
ARC
  5
32E
100
AcDbEntity
  8
M01
100
AcDbCircle
 10
829.005172
 20
551.162004
 30
0.0
 40
3.702778
100
AcDbArc
 50
236.92527
 51
303.07473
  0
ARC
  5
32F
100
AcDbEntity
  8
M01
100
AcDbCircle
 10
832.036261
 20
548.609921
 30
0.0
 40
1.150694
100
AcDbArc
 50
208.592423
 51
331.407577
  0
ARC
  5
330
100
AcDbEntity
  8
M01
100
AcDbCircle
 10
825.974083
 20
549.308532
 30
0.0
 40
1.150694
100
AcDbArc
 50
28.592423
 51
151.407577
  0
ARC
  5
331
100
AcDbEntity
  8
M01
100
AcDbCircle
 10
829.005172
 20
546.756448
 30
0.0
 40
3.702778
100
AcDbArc
 50
56.92527
 51
123.07473
  0
LINE
  5
332
100
AcDbEntity
  8
M01
100
AcDbLine
 10
826.984446
 20
549.859226
 30
0.0
 11
826.984446
 21
548.059226
 31
0.0
  0
LINE
  5
333
100
AcDbEntity
  8
M01
100
AcDbLine
 10
824.96372
 20
549.859226
 30
0.0
 11
824.96372
 21
548.059226
 31
0.0
  0
ARC
  5
334
100
AcDbEntity
  8
M01
100
AcDbCircle
 10
832.036261
 20
549.308532
 30
0.0
 40
1.150694
100
AcDbArc
 50
28.592423
 51
151.407577
  0
LINE
  5
335
100
AcDbEntity
  8
M01
100
AcDbLine
 10
831.025898
 20
549.859226
 30
0.0
 11
831.025898
 21
548.059226
 31
0.0
  0
LINE
  5
336
100
AcDbEntity
  8
M01
100
AcDbLine
 10
833.046624
 20
549.859226
 30
0.0
 11
833.046624
 21
548.059226
 31
0.0
  0
LINE
  5
337
100
AcDbEntity
  8
M01
100
AcDbLine
 10
824.005172
 20
545.159226
 30
0.0
 11
824.005172
 21
546.659226
 31
0.0
  0
LINE
  5
338
100
AcDbEntity
  8
M01
100
AcDbLine
 10
824.505172
 20
546.659226
 30
0.0
 11
824.505172
 21
547.459226
 31
0.0
  0
LINE
  5
339
100
AcDbEntity
  8
M01
100
AcDbLine
 10
833.505172
 20
546.659226
 30
0.0
 11
833.505172
 21
547.459226
 31
0.0
  0
LINE
  5
33A
100
AcDbEntity
  8
M01
100
AcDbLine
 10
833.505172
 20
547.459226
 30
0.0
 11
824.505172
 21
547.459226
 31
0.0
  0
LINE
  5
33B
100
AcDbEntity
  8
M01
100
AcDbLine
 10
834.005172
 20
546.659226
 30
0.0
 11
824.005172
 21
546.659226
 31
0.0
  0
LINE
  5
33C
100
AcDbEntity
  8
M01
100
AcDbLine
 10
824.505172
 20
544.359226
 30
0.0
 11
824.505172
 21
545.159226
 31
0.0
  0
LINE
  5
33D
100
AcDbEntity
  8
M01
100
AcDbLine
 10
833.505172
 20
544.359226
 30
0.0
 11
833.505172
 21
545.159226
 31
0.0
  0
ARC
  5
33E
100
AcDbEntity
  8
M01
100
AcDbCircle
 10
825.974083
 20
542.509921
 30
0.0
 40
1.150694
100
AcDbArc
 50
208.592423
 51
331.407577
  0
ARC
  5
33F
100
AcDbEntity
  8
M01
100
AcDbCircle
 10
829.005172
 20
545.062004
 30
0.0
 40
3.702778
100
AcDbArc
 50
236.92527
 51
303.07473
  0
ARC
  5
340
100
AcDbEntity
  8
M01
100
AcDbCircle
 10
832.036261
 20
542.509921
 30
0.0
 40
1.150694
100
AcDbArc
 50
208.592423
 51
331.407577
  0
ARC
  5
341
100
AcDbEntity
  8
M01
100
AcDbCircle
 10
825.974083
 20
543.208532
 30
0.0
 40
1.150694
100
AcDbArc
 50
28.592423
 51
151.407577
  0
ARC
  5
342
100
AcDbEntity
  8
M01
100
AcDbCircle
 10
829.005172
 20
540.656448
 30
0.0
 40
3.702778
100
AcDbArc
 50
56.92527
 51
123.07473
  0
LINE
  5
343
100
AcDbEntity
  8
M01
100
AcDbLine
 10
826.984446
 20
543.759226
 30
0.0
 11
826.984446
 21
541.959226
 31
0.0
  0
LINE
  5
344
100
AcDbEntity
  8
M01
100
AcDbLine
 10
824.96372
 20
543.759226
 30
0.0
 11
824.96372
 21
541.959226
 31
0.0
  0
ARC
  5
345
100
AcDbEntity
  8
M01
100
AcDbCircle
 10
832.036261
 20
543.208532
 30
0.0
 40
1.150694
100
AcDbArc
 50
28.592423
 51
151.407577
  0
LINE
  5
346
100
AcDbEntity
  8
M01
100
AcDbLine
 10
831.025898
 20
543.759226
 30
0.0
 11
831.025898
 21
541.959226
 31
0.0
  0
LINE
  5
347
100
AcDbEntity
  8
M01
100
AcDbLine
 10
833.046624
 20
543.759226
 30
0.0
 11
833.046624
 21
541.959226
 31
0.0
  0
LINE
  5
348
100
AcDbEntity
  8
M01
100
AcDbLine
 10
833.505172
 20
544.359226
 30
0.0
 11
824.505172
 21
544.359226
 31
0.0
  0
LINE
  5
349
100
AcDbEntity
  8
M01
100
AcDbLine
 10
833.505172
 20
541.359226
 30
0.0
 11
824.505172
 21
541.359226
 31
0.0
  0
LINE
  5
34A
100
AcDbEntity
  8
M01
100
AcDbLine
 10
833.505172
 20
540.559226
 30
0.0
 11
824.505172
 21
540.559226
 31
0.0
  0
LINE
  5
34B
100
AcDbEntity
  8
M01
100
AcDbLine
 10
827.505172
 20
553.559226
 30
0.0
 11
827.005172
 21
553.059226
 31
0.0
  0
LINE
  5
34C
100
AcDbEntity
  8
M01
100
AcDbLine
 10
831.005172
 20
553.059226
 30
0.0
 11
830.505172
 21
553.559226
 31
0.0
  0
LINE
  5
34D
100
AcDbEntity
  8
M01
100
AcDbLine
 10
831.005172
 20
553.059226
 30
0.0
 11
827.005172
 21
553.059226
 31
0.0
  0
LINE
  5
34E
100
AcDbEntity
  8
M01
100
AcDbLine
 10
827.505172
 20
553.559226
 30
0.0
 11
827.505172
 21
550.459226
 31
0.0
  0
LINE
  5
34F
100
AcDbEntity
  8
M01
100
AcDbLine
 10
830.505172
 20
553.559226
 30
0.0
 11
830.505172
 21
550.459226
 31
0.0
  0
LINE
  5
350
100
AcDbEntity
  8
M01
100
AcDbLine
 10
831.005172
 20
553.059226
 30
0.0
 11
831.005172
 21
550.459226
 31
0.0
  0
LINE
  5
351
100
AcDbEntity
  8
M01
100
AcDbLine
 10
827.005172
 20
553.059226
 30
0.0
 11
827.005172
 21
550.459226
 31
0.0
  0
LINE
  5
352
100
AcDbEntity
  8
M01
100
AcDbLine
 10
830.505172
 20
553.559226
 30
0.0
 11
827.505172
 21
553.559226
 31
0.0
  0
LINE
  5
353
100
AcDbEntity
  8
M01
100
AcDbLine
 10
834.005172
 20
528.559226
 30
0.0
 11
824.005172
 21
528.559226
 31
0.0
  0
LINE
  5
354
100
AcDbEntity
  8
M01
100
AcDbLine
 10
824.505172
 20
541.359226
 30
0.0
 11
824.505172
 21
540.559226
 31
0.0
  0
LINE
  5
355
100
AcDbEntity
  8
M01
100
AcDbLine
 10
833.505172
 20
541.359226
 30
0.0
 11
833.505172
 21
540.559226
 31
0.0
  0
LINE
  5
356
100
AcDbEntity
  8
CENTRE
100
AcDbLine
 10
829.005172
 20
559.720115
 30
0.0
 11
829.005172
 21
496.126684
 31
0.0
  0
LINE
  5
357
100
AcDbEntity
  8
M01
100
AcDbLine
 10
520.123394
 20
550.459226
 30
0.0
 11
514.061216
 21
550.459226
 31
0.0
  0
ARC
  5
358
100
AcDbEntity
  8
M01
100
AcDbCircle
 10
514.061216
 20
548.609921
 30
0.0
 40
1.150694
100
AcDbArc
 50
208.592423
 51
331.407577
  0
ARC
  5
359
100
AcDbEntity
  8
M01
100
AcDbCircle
 10
517.092305
 20
551.162004
 30
0.0
 40
3.702778
100
AcDbArc
 50
236.92527
 51
303.07473
  0
ARC
  5
35A
100
AcDbEntity
  8
M01
100
AcDbCircle
 10
520.123394
 20
548.609921
 30
0.0
 40
1.150694
100
AcDbArc
 50
208.592423
 51
331.407577
  0
ARC
  5
35B
100
AcDbEntity
  8
M01
100
AcDbCircle
 10
514.061216
 20
549.308532
 30
0.0
 40
1.150694
100
AcDbArc
 50
28.592423
 51
151.407577
  0
ARC
  5
35C
100
AcDbEntity
  8
M01
100
AcDbCircle
 10
517.092305
 20
546.756448
 30
0.0
 40
3.702778
100
AcDbArc
 50
56.92527
 51
123.07473
  0
LINE
  5
35D
100
AcDbEntity
  8
M01
100
AcDbLine
 10
515.071579
 20
549.859226
 30
0.0
 11
515.071579
 21
548.059226
 31
0.0
  0
LINE
  5
35E
100
AcDbEntity
  8
M01
100
AcDbLine
 10
513.050853
 20
549.859226
 30
0.0
 11
513.050853
 21
548.059226
 31
0.0
  0
ARC
  5
35F
100
AcDbEntity
  8
M01
100
AcDbCircle
 10
520.123394
 20
549.308532
 30
0.0
 40
1.150694
100
AcDbArc
 50
28.592423
 51
151.407577
  0
LINE
  5
360
100
AcDbEntity
  8
M01
100
AcDbLine
 10
519.113031
 20
549.859226
 30
0.0
 11
519.113031
 21
548.059226
 31
0.0
  0
LINE
  5
361
100
AcDbEntity
  8
M01
100
AcDbLine
 10
521.133757
 20
549.859226
 30
0.0
 11
521.133757
 21
548.059226
 31
0.0
  0
LINE
  5
362
100
AcDbEntity
  8
M01
100
AcDbLine
 10
512.092305
 20
545.159226
 30
0.0
 11
512.092305
 21
546.659226
 31
0.0
  0
LINE
  5
363
100
AcDbEntity
  8
M01
100
AcDbLine
 10
522.092305
 20
545.159226
 30
0.0
 11
522.092305
 21
546.659226
 31
0.0
  0
LINE
  5
364
100
AcDbEntity
  8
M01
100
AcDbLine
 10
512.592305
 20
546.659226
 30
0.0
 11
512.592305
 21
547.459226
 31
0.0
  0
LINE
  5
365
100
AcDbEntity
  8
M01
100
AcDbLine
 10
521.592305
 20
546.659226
 30
0.0
 11
521.592305
 21
547.459226
 31
0.0
  0
LINE
  5
366
100
AcDbEntity
  8
M01
100
AcDbLine
 10
521.592305
 20
547.459226
 30
0.0
 11
512.592305
 21
547.459226
 31
0.0
  0
LINE
  5
367
100
AcDbEntity
  8
M01
100
AcDbLine
 10
522.092305
 20
546.659226
 30
0.0
 11
512.092305
 21
546.659226
 31
0.0
  0
LINE
  5
368
100
AcDbEntity
  8
M01
100
AcDbLine
 10
512.592305
 20
544.359226
 30
0.0
 11
512.592305
 21
545.159226
 31
0.0
  0
LINE
  5
369
100
AcDbEntity
  8
M01
100
AcDbLine
 10
521.592305
 20
544.359226
 30
0.0
 11
521.592305
 21
545.159226
 31
0.0
  0
LINE
  5
36A
100
AcDbEntity
  8
M01
100
AcDbLine
 10
522.092305
 20
545.159226
 30
0.0
 11
512.092305
 21
545.159226
 31
0.0
  0
ARC
  5
36B
100
AcDbEntity
  8
M01
100
AcDbCircle
 10
514.061216
 20
542.509921
 30
0.0
 40
1.150694
100
AcDbArc
 50
208.592423
 51
331.407577
  0
ARC
  5
36C
100
AcDbEntity
  8
M01
100
AcDbCircle
 10
517.092305
 20
545.062004
 30
0.0
 40
3.702778
100
AcDbArc
 50
236.92527
 51
303.07473
  0
ARC
  5
36D
100
AcDbEntity
  8
M01
100
AcDbCircle
 10
520.123394
 20
542.509921
 30
0.0
 40
1.150694
100
AcDbArc
 50
208.592423
 51
331.407577
  0
ARC
  5
36E
100
AcDbEntity
  8
M01
100
AcDbCircle
 10
514.061216
 20
543.208532
 30
0.0
 40
1.150694
100
AcDbArc
 50
28.592423
 51
151.407577
  0
ARC
  5
36F
100
AcDbEntity
  8
M01
100
AcDbCircle
 10
517.092305
 20
540.656448
 30
0.0
 40
3.702778
100
AcDbArc
 50
56.92527
 51
123.07473
  0
LINE
  5
370
100
AcDbEntity
  8
M01
100
AcDbLine
 10
515.071579
 20
543.759226
 30
0.0
 11
515.071579
 21
541.959226
 31
0.0
  0
LINE
  5
371
100
AcDbEntity
  8
M01
100
AcDbLine
 10
513.050853
 20
543.759226
 30
0.0
 11
513.050853
 21
541.959226
 31
0.0
  0
ARC
  5
372
100
AcDbEntity
  8
M01
100
AcDbCircle
 10
520.123394
 20
543.208532
 30
0.0
 40
1.150694
100
AcDbArc
 50
28.592423
 51
151.407577
  0
LINE
  5
373
100
AcDbEntity
  8
M01
100
AcDbLine
 10
519.113031
 20
543.759226
 30
0.0
 11
519.113031
 21
541.959226
 31
0.0
  0
LINE
  5
374
100
AcDbEntity
  8
M01
100
AcDbLine
 10
521.133757
 20
543.759226
 30
0.0
 11
521.133757
 21
541.959226
 31
0.0
  0
LINE
  5
375
100
AcDbEntity
  8
M01
100
AcDbLine
 10
521.592305
 20
544.359226
 30
0.0
 11
512.592305
 21
544.359226
 31
0.0
  0
LINE
  5
376
100
AcDbEntity
  8
M01
100
AcDbLine
 10
521.592305
 20
541.359226
 30
0.0
 11
512.592305
 21
541.359226
 31
0.0
  0
LINE
  5
377
100
AcDbEntity
  8
M01
100
AcDbLine
 10
515.592305
 20
553.559226
 30
0.0
 11
515.092305
 21
553.059226
 31
0.0
  0
LINE
  5
378
100
AcDbEntity
  8
M01
100
AcDbLine
 10
519.092305
 20
553.059226
 30
0.0
 11
518.592305
 21
553.559226
 31
0.0
  0
LINE
  5
379
100
AcDbEntity
  8
M01
100
AcDbLine
 10
519.092305
 20
553.059226
 30
0.0
 11
515.092305
 21
553.059226
 31
0.0
  0
LINE
  5
37A
100
AcDbEntity
  8
M01
100
AcDbLine
 10
515.592305
 20
553.559226
 30
0.0
 11
515.592305
 21
550.459226
 31
0.0
  0
LINE
  5
37B
100
AcDbEntity
  8
M01
100
AcDbLine
 10
518.592305
 20
553.559226
 30
0.0
 11
518.592305
 21
550.459226
 31
0.0
  0
LINE
  5
37C
100
AcDbEntity
  8
M01
100
AcDbLine
 10
519.092305
 20
553.059226
 30
0.0
 11
519.092305
 21
550.459226
 31
0.0
  0
LINE
  5
37D
100
AcDbEntity
  8
M01
100
AcDbLine
 10
515.092305
 20
553.059226
 30
0.0
 11
515.092305
 21
550.459226
 31
0.0
  0
LINE
  5
37E
100
AcDbEntity
  8
M01
100
AcDbLine
 10
518.592305
 20
553.559226
 30
0.0
 11
515.592305
 21
553.559226
 31
0.0
  0
LINE
  5
37F
100
AcDbEntity
  8
M01
100
AcDbLine
 10
522.092305
 20
528.559226
 30
0.0
 11
512.092305
 21
528.559226
 31
0.0
  0
LINE
  5
380
100
AcDbEntity
  8
CENTRE
100
AcDbLine
 10
517.092305
 20
559.720115
 30
0.0
 11
517.092305
 21
496.126684
 31
0.0
  0
LINE
  5
381
100
AcDbEntity
  8
M01
100
AcDbLine
 10
490.061216
 20
550.459226
 30
0.0
 11
496.123394
 21
550.459226
 31
0.0
  0
ARC
  5
382
100
AcDbEntity
  8
M01
100
AcDbCircle
 10
496.123394
 20
548.609921
 30
0.0
 40
1.150694
100
AcDbArc
 50
208.592423
 51
331.407577
  0
ARC
  5
383
100
AcDbEntity
  8
M01
100
AcDbCircle
 10
493.092305
 20
551.162004
 30
0.0
 40
3.702778
100
AcDbArc
 50
236.92527
 51
303.07473
  0
ARC
  5
384
100
AcDbEntity
  8
M01
100
AcDbCircle
 10
490.061216
 20
548.609921
 30
0.0
 40
1.150694
100
AcDbArc
 50
208.592423
 51
331.407577
  0
ARC
  5
385
100
AcDbEntity
  8
M01
100
AcDbCircle
 10
496.123394
 20
549.308532
 30
0.0
 40
1.150694
100
AcDbArc
 50
28.592423
 51
151.407577
  0
ARC
  5
386
100
AcDbEntity
  8
M01
100
AcDbCircle
 10
493.092305
 20
546.756448
 30
0.0
 40
3.702778
100
AcDbArc
 50
56.92527
 51
123.07473
  0
LINE
  5
387
100
AcDbEntity
  8
M01
100
AcDbLine
 10
495.113031
 20
549.859226
 30
0.0
 11
495.113031
 21
548.059226
 31
0.0
  0
LINE
  5
388
100
AcDbEntity
  8
M01
100
AcDbLine
 10
497.133757
 20
549.859226
 30
0.0
 11
497.133757
 21
548.059226
 31
0.0
  0
ARC
  5
389
100
AcDbEntity
  8
M01
100
AcDbCircle
 10
490.061216
 20
549.308532
 30
0.0
 40
1.150694
100
AcDbArc
 50
28.592423
 51
151.407577
  0
LINE
  5
38A
100
AcDbEntity
  8
M01
100
AcDbLine
 10
491.071579
 20
549.859226
 30
0.0
 11
491.071579
 21
548.059226
 31
0.0
  0
LINE
  5
38B
100
AcDbEntity
  8
M01
100
AcDbLine
 10
489.050853
 20
549.859226
 30
0.0
 11
489.050853
 21
548.059226
 31
0.0
  0
LINE
  5
38C
100
AcDbEntity
  8
M01
100
AcDbLine
 10
498.092305
 20
545.159226
 30
0.0
 11
498.092305
 21
546.659226
 31
0.0
  0
LINE
  5
38D
100
AcDbEntity
  8
M01
100
AcDbLine
 10
488.092305
 20
545.159226
 30
0.0
 11
488.092305
 21
546.659226
 31
0.0
  0
LINE
  5
38E
100
AcDbEntity
  8
M01
100
AcDbLine
 10
497.592305
 20
546.659226
 30
0.0
 11
497.592305
 21
547.459226
 31
0.0
  0
LINE
  5
38F
100
AcDbEntity
  8
M01
100
AcDbLine
 10
488.592305
 20
546.659226
 30
0.0
 11
488.592305
 21
547.459226
 31
0.0
  0
LINE
  5
390
100
AcDbEntity
  8
M01
100
AcDbLine
 10
488.592305
 20
547.459226
 30
0.0
 11
497.592305
 21
547.459226
 31
0.0
  0
LINE
  5
391
100
AcDbEntity
  8
M01
100
AcDbLine
 10
488.092305
 20
546.659226
 30
0.0
 11
498.092305
 21
546.659226
 31
0.0
  0
LINE
  5
392
100
AcDbEntity
  8
M01
100
AcDbLine
 10
497.592305
 20
544.359226
 30
0.0
 11
497.592305
 21
545.159226
 31
0.0
  0
LINE
  5
393
100
AcDbEntity
  8
M01
100
AcDbLine
 10
488.592305
 20
544.359226
 30
0.0
 11
488.592305
 21
545.159226
 31
0.0
  0
LINE
  5
394
100
AcDbEntity
  8
M01
100
AcDbLine
 10
488.092305
 20
545.159226
 30
0.0
 11
498.092305
 21
545.159226
 31
0.0
  0
ARC
  5
395
100
AcDbEntity
  8
M01
100
AcDbCircle
 10
496.123394
 20
542.509921
 30
0.0
 40
1.150694
100
AcDbArc
 50
208.592423
 51
331.407577
  0
ARC
  5
396
100
AcDbEntity
  8
M01
100
AcDbCircle
 10
493.092305
 20
545.062004
 30
0.0
 40
3.702778
100
AcDbArc
 50
236.92527
 51
303.07473
  0
ARC
  5
397
100
AcDbEntity
  8
M01
100
AcDbCircle
 10
490.061216
 20
542.509921
 30
0.0
 40
1.150694
100
AcDbArc
 50
208.592423
 51
331.407577
  0
ARC
  5
398
100
AcDbEntity
  8
M01
100
AcDbCircle
 10
496.123394
 20
543.208532
 30
0.0
 40
1.150694
100
AcDbArc
 50
28.592423
 51
151.407577
  0
ARC
  5
399
100
AcDbEntity
  8
M01
100
AcDbCircle
 10
493.092305
 20
540.656448
 30
0.0
 40
3.702778
100
AcDbArc
 50
56.92527
 51
123.07473
  0
LINE
  5
39A
100
AcDbEntity
  8
M01
100
AcDbLine
 10
495.113031
 20
543.759226
 30
0.0
 11
495.113031
 21
541.959226
 31
0.0
  0
LINE
  5
39B
100
AcDbEntity
  8
M01
100
AcDbLine
 10
497.133757
 20
543.759226
 30
0.0
 11
497.133757
 21
541.959226
 31
0.0
  0
ARC
  5
39C
100
AcDbEntity
  8
M01
100
AcDbCircle
 10
490.061216
 20
543.208532
 30
0.0
 40
1.150694
100
AcDbArc
 50
28.592423
 51
151.407577
  0
LINE
  5
39D
100
AcDbEntity
  8
M01
100
AcDbLine
 10
491.071579
 20
543.759226
 30
0.0
 11
491.071579
 21
541.959226
 31
0.0
  0
LINE
  5
39E
100
AcDbEntity
  8
M01
100
AcDbLine
 10
489.050853
 20
543.759226
 30
0.0
 11
489.050853
 21
541.959226
 31
0.0
  0
LINE
  5
39F
100
AcDbEntity
  8
M01
100
AcDbLine
 10
488.592305
 20
544.359226
 30
0.0
 11
497.592305
 21
544.359226
 31
0.0
  0
LINE
  5
3A0
100
AcDbEntity
  8
M01
100
AcDbLine
 10
488.592305
 20
541.359226
 30
0.0
 11
497.592305
 21
541.359226
 31
0.0
  0
LINE
  5
3A1
100
AcDbEntity
  8
M01
100
AcDbLine
 10
488.592305
 20
540.559226
 30
0.0
 11
497.592305
 21
540.559226
 31
0.0
  0
LINE
  5
3A2
100
AcDbEntity
  8
M01
100
AcDbLine
 10
334.092305
 20
260.513886
 30
0.0
 11
330.092305
 21
256.513886
 31
0.0
  0
LINE
  5
3A3
102
{ACAD_REACTORS
330
22
102
}
100
AcDbEntity
  8
M01
100
AcDbLine
 10
501.092305
 20
252.513886
 30
0.0
 11
330.092305
 21
252.513886
 31
0.0
  0
LINE
  5
3A4
102
{ACAD_REACTORS
330
22
102
}
100
AcDbEntity
  8
M01
100
AcDbLine
 10
334.092305
 20
260.513886
 30
0.0
 11
334.092305
 21
280.013886
 31
0.0
  0
LINE
  5
3A5
102
{ACAD_REACTORS
330
22
102
}
100
AcDbEntity
  8
M01
100
AcDbLine
 10
326.092305
 20
256.513886
 30
0.0
 11
326.092305
 21
280.013886
 31
0.0
  0
ARC
  5
3A6
102
{ACAD_REACTORS
330
22
102
}
100
AcDbEntity
  8
M01
100
AcDbCircle
 10
330.092305
 20
256.513886
 30
0.0
 40
4.0
100
AcDbArc
 50
180.0
 51
270.0
  0
LINE
  5
3A7
100
AcDbEntity
  8
M01
100
AcDbLine
 10
501.092305
 20
252.513886
 30
0.0
 11
505.092305
 21
256.513886
 31
0.0
  0
LINE
  5
3A8
100
AcDbEntity
  8
M01
100
AcDbLine
 10
509.092305
 20
252.513886
 30
0.0
 11
505.092305
 21
256.513886
 31
0.0
  0
LINE
  5
3A9
100
AcDbEntity
  8
M01
100
AcDbLine
 10
676.092305
 20
260.513886
 30
0.0
 11
680.092305
 21
256.513886
 31
0.0
  0
LINE
  5
3AA
102
{ACAD_REACTORS
330
22
102
}
100
AcDbEntity
  8
M01
100
AcDbLine
 10
334.092305
 20
260.513886
 30
0.0
 11
676.092305
 21
260.513886
 31
0.0
  0
LINE
  5
3AB
102
{ACAD_REACTORS
330
22
102
}
100
AcDbEntity
  8
M01
100
AcDbLine
 10
509.092305
 20
252.513886
 30
0.0
 11
680.092305
 21
252.513886
 31
0.0
  0
LINE
  5
3AC
102
{ACAD_REACTORS
330
22
102
}
100
AcDbEntity
  8
M01
100
AcDbLine
 10
676.092305
 20
260.513886
 30
0.0
 11
676.092305
 21
280.013886
 31
0.0
  0
LINE
  5
3AD
102
{ACAD_REACTORS
330
22
102
}
100
AcDbEntity
  8
M01
100
AcDbLine
 10
684.092305
 20
256.513886
 30
0.0
 11
684.092305
 21
280.013886
 31
0.0
  0
ARC
  5
3AE
102
{ACAD_REACTORS
330
22
102
}
100
AcDbEntity
  8
M01
100
AcDbCircle
 10
680.092305
 20
256.513886
 30
0.0
 40
4.0
100
AcDbArc
 50
270.0
 51
0.0
  0
LINE
  5
3AF
102
{ACAD_REACTORS
330
20
102
}
100
AcDbEntity
  8
M02
100
AcDbLine
 10
694.092305
 20
230.013886
 30
0.0
 11
710.092305
 21
230.013886
 31
0.0
  0
LINE
  5
3B0
102
{ACAD_REACTORS
330
22
102
}
100
AcDbEntity
  8
M05
  6
HIDDEN
100
AcDbLine
 10
666.092305
 20
233.313886
 30
0.0
 11
694.092305
 21
233.313886
 31
0.0
  0
LINE
  5
3B1
102
{ACAD_REACTORS
330
22
102
}
100
AcDbEntity
  8
M05
  6
HIDDEN
100
AcDbLine
 10
694.092305
 20
233.313886
 30
0.0
 11
693.392305
 21
234.013886
 31
0.0
  0
LINE
  5
3B2
102
{ACAD_REACTORS
330
22
102
}
100
AcDbEntity
  8
M05
  6
HIDDEN
100
AcDbLine
 10
694.092305
 20
232.313886
 30
0.0
 11
694.092305
 21
233.313886
 31
0.0
  0
LINE
  5
3B3
100
AcDbEntity
  8
M05
100
AcDbLine
 10
694.092305
 20
232.313886
 30
0.0
 11
693.392305
 21
233.013886
 31
0.0
  0
LINE
  5
3B4
100
AcDbEntity
  8
M05
100
AcDbLine
 10
694.092305
 20
226.713886
 30
0.0
 11
693.392305
 21
226.013886
 31
0.0
  0
LINE
  5
3B5
100
AcDbEntity
  8
M05
100
AcDbLine
 10
694.092305
 20
232.313886
 30
0.0
 11
694.092305
 21
226.713886
 31
0.0
  0
LINE
  5
3B6
102
{ACAD_REACTORS
330
22
102
}
100
AcDbEntity
  8
M05
  6
HIDDEN
100
AcDbLine
 10
666.092305
 20
233.313886
 30
0.0
 11
666.792305
 21
234.013886
 31
0.0
  0
LINE
  5
3B7
102
{ACAD_REACTORS
330
22
102
}
100
AcDbEntity
  8
M05
  6
HIDDEN
100
AcDbLine
 10
666.092305
 20
232.313886
 30
0.0
 11
666.092305
 21
233.313886
 31
0.0
  0
LINE
  5
3B8
100
AcDbEntity
  8
M05
100
AcDbLine
 10
666.092305
 20
232.313886
 30
0.0
 11
666.792305
 21
233.013886
 31
0.0
  0
LINE
  5
3B9
100
AcDbEntity
  8
M05
100
AcDbLine
 10
666.092305
 20
226.713886
 30
0.0
 11
666.792305
 21
226.013886
 31
0.0
  0
LINE
  5
3BA
102
{ACAD_REACTORS
330
20
102
}
100
AcDbEntity
  8
M02
100
AcDbLine
 10
695.092305
 20
233.013886
 30
0.0
 11
695.092305
 21
230.013886
 31
0.0
  0
LINE
  5
3BB
102
{ACAD_REACTORS
330
20
102
}
100
AcDbEntity
  8
M02
100
AcDbLine
 10
665.092305
 20
233.013886
 30
0.0
 11
665.092305
 21
230.013886
 31
0.0
  0
LINE
  5
3BC
102
{ACAD_REACTORS
330
22
102
}
100
AcDbEntity
  8
M05
  6
HIDDEN
100
AcDbLine
 10
666.792305
 20
234.013886
 30
0.0
 11
693.392305
 21
234.013886
 31
0.0
  0
LINE
  5
3BD
100
AcDbEntity
  8
M05
100
AcDbLine
 10
666.092305
 20
232.313886
 30
0.0
 11
666.092305
 21
226.713886
 31
0.0
  0
LINE
  5
3BE
102
{ACAD_REACTORS
330
22
102
}
100
AcDbEntity
  8
CENTRE
100
AcDbLine
 10
680.092305
 20
238.522996
 30
0.0
 11
680.092305
 21
205.444658
 31
0.0
  0
TEXT
  5
3BF
102
{ACAD_REACTORS
330
127
102
}
100
AcDbEntity
  8
TEXT
100
AcDbText
 10
510.166385
 20
228.581373
 30
0.0
 40
2.0
  1
MA010000
 41
0.9
100
AcDbText
  0
TEXT
  5
3C0
102
{ACAD_REACTORS
330
1A3
102
}
100
AcDbEntity
  8
TEXT
100
AcDbText
 10
862.511824
 20
438.380683
 30
0.0
 40
2.0
  1
MA010000
 41
0.9
100
AcDbText
  0
LINE
  5
3C1
100
AcDbEntity
  8
M04
100
AcDbLine
 10
475.092305
 20
208.013886
 30
0.0
 11
475.092305
 21
199.013886
 31
0.0
  0
LINE
  5
3C2
100
AcDbEntity
  8
M04
100
AcDbLine
 10
524.592305
 20
226.013886
 30
0.0
 11
677.092305
 21
226.013886
 31
0.0
  0
LINE
  5
3C3
102
{ACAD_REACTORS
330
20
102
}
100
AcDbEntity
  8
M02
100
AcDbLine
 10
539.092305
 20
230.013886
 30
0.0
 11
666.092305
 21
230.013886
 31
0.0
  0
LINE
  5
3C4
102
{ACAD_REACTORS
330
127
102
}
100
AcDbEntity
  8
M05
100
AcDbLine
 10
471.092305
 20
227.713886
 30
0.0
 11
471.792305
 21
227.013886
 31
0.0
  0
LINE
  5
3C5
102
{ACAD_REACTORS
330
21
102
}
100
AcDbEntity
  8
M02
100
AcDbLine
 10
470.092305
 20
233.013886
 30
0.0
 11
470.092305
 21
230.013886
 31
0.0
  0
LINE
  5
3C6
102
{ACAD_REACTORS
330
127
330
22
102
}
100
AcDbEntity
  8
M01
100
AcDbLine
 10
515.092305
 20
233.013886
 30
0.0
 11
528.092305
 21
233.013886
 31
0.0
  0
LINE
  5
3C7
100
AcDbEntity
  8
M04
100
AcDbLine
 10
475.092305
 20
208.013886
 30
0.0
 11
535.092305
 21
208.013886
 31
0.0
  0
LINE
  5
3C8
100
AcDbEntity
  8
M04
100
AcDbLine
 10
485.092305
 20
218.013886
 30
0.0
 11
475.092305
 21
208.013886
 31
0.0
  0
LINE
  5
3C9
100
AcDbEntity
  8
M04
100
AcDbLine
 10
535.092305
 20
208.013886
 30
0.0
 11
535.092305
 21
199.013886
 31
0.0
  0
LINE
  5
3CA
100
AcDbEntity
  8
M04
100
AcDbLine
 10
525.092305
 20
218.013886
 30
0.0
 11
535.092305
 21
208.013886
 31
0.0
  0
LINE
  5
3CB
100
AcDbEntity
  8
M05
100
AcDbLine
 10
502.051431
 20
224.712671
 30
0.0
 11
508.133179
 21
224.712671
 31
0.0
  0
ARC
  5
3CC
102
{ACAD_REACTORS
330
127
102
}
100
AcDbEntity
  8
M05
100
AcDbCircle
 10
505.092305
 20
209.513886
 30
0.0
 40
15.5
100
AcDbArc
 50
101.313981
 51
126.249321
  0
LINE
  5
3CD
102
{ACAD_REACTORS
330
22
102
}
100
AcDbEntity
  8
M01
100
AcDbLine
 10
501.092305
 20
252.513886
 30
0.0
 11
501.092305
 21
243.013886
 31
0.0
  0
LINE
  5
3CE
102
{ACAD_REACTORS
330
127
102
}
100
AcDbEntity
  8
M05
100
AcDbLine
 10
501.092305
 20
243.013886
 30
0.0
 11
502.051431
 21
224.712671
 31
0.0
  0
LINE
  5
3CF
102
{ACAD_REACTORS
330
127
102
}
100
AcDbEntity
  8
M05
100
AcDbLine
 10
509.092305
 20
243.013886
 30
0.0
 11
508.133179
 21
224.712671
 31
0.0
  0
ARC
  5
3D0
102
{ACAD_REACTORS
330
127
102
}
100
AcDbEntity
  8
M05
100
AcDbCircle
 10
505.092305
 20
209.513886
 30
0.0
 40
15.5
100
AcDbArc
 50
53.750679
 51
78.686019
  0
LINE
  5
3D1
102
{ACAD_REACTORS
330
22
102
}
100
AcDbEntity
  8
M01
100
AcDbLine
 10
509.092305
 20
252.513886
 30
0.0
 11
509.092305
 21
243.013886
 31
0.0
  0
LINE
  5
3D2
100
AcDbEntity
  8
M04
100
AcDbLine
 10
485.092305
 20
224.013886
 30
0.0
 11
485.092305
 21
226.013886
 31
0.0
  0
LINE
  5
3D3
100
AcDbEntity
  8
M04
100
AcDbLine
 10
485.092305
 20
222.713886
 30
0.0
 11
485.092305
 21
218.013886
 31
0.0
  0
LINE
  5
3D4
100
AcDbEntity
  8
M04
100
AcDbLine
 10
525.092305
 20
224.013886
 30
0.0
 11
525.092305
 21
226.013886
 31
0.0
  0
LINE
  5
3D5
100
AcDbEntity
  8
M04
100
AcDbLine
 10
525.092305
 20
222.713886
 30
0.0
 11
525.092305
 21
218.013886
 31
0.0
  0
LINE
  5
3D6
100
AcDbEntity
  8
M04
100
AcDbLine
 10
525.092305
 20
218.013886
 30
0.0
 11
485.092305
 21
218.013886
 31
0.0
  0
LINE
  5
3D7
102
{ACAD_REACTORS
330
127
102
}
100
AcDbEntity
  8
M05
100
AcDbLine
 10
485.592305
 20
224.013886
 30
0.0
 11
485.092305
 21
224.013886
 31
0.0
  0
LINE
  5
3D8
102
{ACAD_REACTORS
330
127
102
}
100
AcDbEntity
  8
M05
100
AcDbLine
 10
485.592305
 20
227.013886
 30
0.0
 11
471.792305
 21
227.013886
 31
0.0
  0
LINE
  5
3D9
102
{ACAD_REACTORS
330
127
102
}
100
AcDbEntity
  8
M05
100
AcDbLine
 10
485.592305
 20
227.013886
 30
0.0
 11
485.592305
 21
224.013886
 31
0.0
  0
LINE
  5
3DA
102
{ACAD_REACTORS
330
127
102
}
100
AcDbEntity
  8
M05
100
AcDbLine
 10
524.592305
 20
227.013886
 30
0.0
 11
524.592305
 21
224.013886
 31
0.0
  0
LINE
  5
3DB
102
{ACAD_REACTORS
330
127
102
}
100
AcDbEntity
  8
M05
100
AcDbLine
 10
525.092305
 20
224.013886
 30
0.0
 11
524.592305
 21
224.013886
 31
0.0
  0
LINE
  5
3DC
102
{ACAD_REACTORS
330
127
102
}
100
AcDbEntity
  8
M05
100
AcDbLine
 10
485.792305
 20
222.013886
 30
0.0
 11
485.092305
 21
222.713886
 31
0.0
  0
LINE
  5
3DD
102
{ACAD_REACTORS
330
127
102
}
100
AcDbEntity
  8
M05
100
AcDbLine
 10
524.392305
 20
222.013886
 30
0.0
 11
525.092305
 21
222.713886
 31
0.0
  0
LINE
  5
3DE
102
{ACAD_REACTORS
330
127
102
}
100
AcDbEntity
  8
M05
100
AcDbLine
 10
524.392305
 20
222.013886
 30
0.0
 11
485.792305
 21
222.013886
 31
0.0
  0
LINE
  5
3DF
102
{ACAD_REACTORS
330
127
102
}
100
AcDbEntity
  8
M05
100
AcDbLine
 10
485.092305
 20
224.013886
 30
0.0
 11
485.092305
 21
222.713886
 31
0.0
  0
LINE
  5
3E0
102
{ACAD_REACTORS
330
127
102
}
100
AcDbEntity
  8
M05
100
AcDbLine
 10
525.092305
 20
224.013886
 30
0.0
 11
525.092305
 21
222.713886
 31
0.0
  0
LINE
  5
3E1
102
{ACAD_REACTORS
330
22
102
}
100
AcDbEntity
  8
M04
100
AcDbLine
 10
495.092305
 20
233.513886
 30
0.0
 11
494.592305
 21
233.013886
 31
0.0
  0
LINE
  5
3E2
102
{ACAD_REACTORS
330
22
102
}
100
AcDbEntity
  8
M04
100
AcDbLine
 10
515.092305
 20
233.513886
 30
0.0
 11
515.592305
 21
233.013886
 31
0.0
  0
LINE
  5
3E3
102
{ACAD_REACTORS
330
127
102
}
100
AcDbEntity
  8
M05
100
AcDbLine
 10
471.092305
 20
232.313886
 30
0.0
 11
471.792305
 21
233.013886
 31
0.0
  0
LINE
  5
3E4
102
{ACAD_REACTORS
330
127
102
}
100
AcDbEntity
  8
M05
100
AcDbLine
 10
471.092305
 20
232.313886
 30
0.0
 11
471.092305
 21
227.713886
 31
0.0
  0
LINE
  5
3E5
102
{ACAD_REACTORS
330
127
102
}
100
AcDbEntity
  8
M05
100
AcDbLine
 10
539.092305
 20
232.313886
 30
0.0
 11
538.392305
 21
233.013886
 31
0.0
  0
LINE
  5
3E6
102
{ACAD_REACTORS
330
127
102
}
100
AcDbEntity
  8
M05
100
AcDbLine
 10
539.092305
 20
227.713886
 30
0.0
 11
538.392305
 21
227.013886
 31
0.0
  0
LINE
  5
3E7
102
{ACAD_REACTORS
330
20
102
}
100
AcDbEntity
  8
M02
100
AcDbLine
 10
540.092305
 20
233.013886
 30
0.0
 11
540.092305
 21
230.013886
 31
0.0
  0
LINE
  5
3E8
102
{ACAD_REACTORS
330
127
102
}
100
AcDbEntity
  8
M05
100
AcDbLine
 10
538.392305
 20
227.013886
 30
0.0
 11
524.592305
 21
227.013886
 31
0.0
  0
LINE
  5
3E9
102
{ACAD_REACTORS
330
127
102
}
100
AcDbEntity
  8
M05
100
AcDbLine
 10
539.092305
 20
232.313886
 30
0.0
 11
539.092305
 21
227.713886
 31
0.0
  0
LINE
  5
3EA
102
{ACAD_REACTORS
330
22
102
}
100
AcDbEntity
  8
M04
100
AcDbLine
 10
495.092305
 20
242.013886
 30
0.0
 11
495.092305
 21
243.013886
 31
0.0
  0
LINE
  5
3EB
102
{ACAD_REACTORS
330
22
102
}
100
AcDbEntity
  8
M04
100
AcDbLine
 10
496.092305
 20
243.013886
 30
0.0
 11
495.092305
 21
243.013886
 31
0.0
  0
LINE
  5
3EC
102
{ACAD_REACTORS
330
22
102
}
100
AcDbEntity
  8
M04
100
AcDbLine
 10
515.092305
 20
242.013886
 30
0.0
 11
515.092305
 21
243.013886
 31
0.0
  0
LINE
  5
3ED
102
{ACAD_REACTORS
330
22
102
}
100
AcDbEntity
  8
M04
100
AcDbLine
 10
514.092305
 20
243.013886
 30
0.0
 11
515.092305
 21
243.013886
 31
0.0
  0
LINE
  5
3EE
102
{ACAD_REACTORS
330
127
102
}
100
AcDbEntity
  8
M05
100
AcDbLine
 10
514.092305
 20
243.013886
 30
0.0
 11
515.092305
 21
242.013886
 31
0.0
  0
LINE
  5
3EF
102
{ACAD_REACTORS
330
127
102
}
100
AcDbEntity
  8
M05
100
AcDbLine
 10
495.092305
 20
242.013886
 30
0.0
 11
496.092305
 21
243.013886
 31
0.0
  0
LINE
  5
3F0
102
{ACAD_REACTORS
330
127
330
22
102
}
100
AcDbEntity
  8
M05
100
AcDbLine
 10
514.092305
 20
243.013886
 30
0.0
 11
496.092305
 21
243.013886
 31
0.0
  0
LINE
  5
3F1
102
{ACAD_REACTORS
330
127
330
22
102
}
100
AcDbEntity
  8
M05
100
AcDbLine
 10
495.092305
 20
242.013886
 30
0.0
 11
495.092305
 21
233.013886
 31
0.0
  0
LINE
  5
3F2
102
{ACAD_REACTORS
330
127
330
22
102
}
100
AcDbEntity
  8
M05
100
AcDbLine
 10
515.092305
 20
242.013886
 30
0.0
 11
515.092305
 21
233.013886
 31
0.0
  0
LINE
  5
3F3
100
AcDbEntity
  8
M04
100
AcDbLine
 10
526.817305
 20
287.013886
 30
0.0
 11
719.092305
 21
287.013886
 31
0.0
  0
LINE
  5
3F4
102
{ACAD_REACTORS
330
20
102
}
100
AcDbEntity
  8
M02
100
AcDbLine
 10
526.817305
 20
283.013886
 30
0.0
 11
710.092305
 21
283.013886
 31
0.0
  0
LINE
  5
3F5
102
{ACAD_REACTORS
330
20
102
}
100
AcDbEntity
  8
M02
100
AcDbLine
 10
528.317305
 20
283.013886
 30
0.0
 11
528.317305
 21
280.013886
 31
0.0
  0
LINE
  5
3F6
102
{ACAD_REACTORS
330
21
102
}
100
AcDbEntity
  8
M02
100
AcDbLine
 10
300.092305
 20
230.013886
 30
0.0
 11
316.092305
 21
230.013886
 31
0.0
  0
LINE
  5
3F7
102
{ACAD_REACTORS
330
20
102
}
100
AcDbEntity
  8
M02
100
AcDbLine
 10
710.092305
 20
233.013886
 30
0.0
 11
710.092305
 21
230.013886
 31
0.0
  0
LINE
  5
3F8
102
{ACAD_REACTORS
330
21
102
}
100
AcDbEntity
  8
M02
100
AcDbLine
 10
300.092305
 20
233.013886
 30
0.0
 11
300.092305
 21
230.013886
 31
0.0
  0
LINE
  5
3F9
102
{ACAD_REACTORS
330
21
102
}
100
AcDbEntity
  8
M02
100
AcDbLine
 10
300.092305
 20
283.013886
 30
0.0
 11
483.367305
 21
283.013886
 31
0.0
  0
LINE
  5
3FA
102
{ACAD_REACTORS
330
20
102
}
100
AcDbEntity
  8
M02
100
AcDbLine
 10
710.092305
 20
280.013886
 30
0.0
 11
710.092305
 21
283.013886
 31
0.0
  0
LINE
  5
3FB
102
{ACAD_REACTORS
330
21
102
}
100
AcDbEntity
  8
M02
100
AcDbLine
 10
300.092305
 20
280.013886
 30
0.0
 11
300.092305
 21
283.013886
 31
0.0
  0
LINE
  5
3FC
102
{ACAD_REACTORS
330
22
102
}
100
AcDbEntity
  8
M01
100
AcDbLine
 10
712.092305
 20
235.013886
 30
0.0
 11
710.092305
 21
233.013886
 31
0.0
  0
LINE
  5
3FD
102
{ACAD_REACTORS
330
22
102
}
100
AcDbEntity
  8
M01
100
AcDbLine
 10
710.092305
 20
280.013886
 30
0.0
 11
712.092305
 21
278.013886
 31
0.0
  0
LINE
  5
3FE
102
{ACAD_REACTORS
330
22
102
}
100
AcDbEntity
  8
M01
100
AcDbLine
 10
298.092305
 20
278.013886
 30
0.0
 11
300.092305
 21
280.013886
 31
0.0
  0
LINE
  5
3FF
102
{ACAD_REACTORS
330
22
102
}
100
AcDbEntity
  8
M01
100
AcDbLine
 10
300.092305
 20
233.013886
 30
0.0
 11
298.092305
 21
235.013886
 31
0.0
  0
LINE
  5
400
102
{ACAD_REACTORS
330
22
102
}
100
AcDbEntity
  8
M01
100
AcDbLine
 10
712.092305
 20
278.013886
 30
0.0
 11
712.092305
 21
235.013886
 31
0.0
  0
LINE
  5
401
102
{ACAD_REACTORS
330
22
102
}
100
AcDbEntity
  8
M01
100
AcDbLine
 10
298.092305
 20
278.013886
 30
0.0
 11
298.092305
 21
235.013886
 31
0.0
  0
LINE
  5
402
102
{ACAD_REACTORS
330
127
330
DC
330
22
330
21
102
}
100
AcDbEntity
  8
M01
100
AcDbLine
 10
300.092305
 20
233.013886
 30
0.0
 11
495.092305
 21
233.013886
 31
0.0
  0
LINE
  5
403
102
{ACAD_REACTORS
330
22
330
21
330
20
102
}
100
AcDbEntity
  8
M01
100
AcDbLine
 10
300.092305
 20
280.013886
 30
0.0
 11
710.092305
 21
280.013886
 31
0.0
  0
LINE
  5
404
100
AcDbEntity
  8
M04
100
AcDbLine
 10
291.092305
 20
287.013886
 30
0.0
 11
483.367305
 21
287.013886
 31
0.0
  0
LINE
  5
405
102
{ACAD_REACTORS
330
22
102
}
100
AcDbEntity
  8
CENTRE
100
AcDbLine
 10
505.092305
 20
317.276091
 30
0.0
 11
505.092305
 21
189.693943
 31
0.0
  0
LINE
  5
406
100
AcDbEntity
  8
M04
100
AcDbLine
 10
719.092305
 20
287.013886
 30
0.0
 11
719.092305
 21
226.013886
 31
0.0
  0
LINE
  5
407
100
AcDbEntity
  8
M04
100
AcDbLine
 10
291.092305
 20
287.013886
 30
0.0
 11
291.092305
 21
226.013886
 31
0.0
  0
LINE
  5
408
102
{ACAD_REACTORS
330
DC
102
}
100
AcDbEntity
  8
M04
100
AcDbLine
 10
273.541523
 20
226.013886
 30
0.0
 11
327.092305
 21
226.013886
 31
0.0
  0
LINE
  5
409
100
AcDbEntity
  8
M04
100
AcDbLine
 10
849.005172
 20
568.559226
 30
0.0
 11
859.005172
 21
578.559226
 31
0.0
  0
LINE
  5
40A
100
AcDbEntity
  8
M04
100
AcDbLine
 10
859.005172
 20
589.230704
 30
0.0
 11
859.005172
 21
578.559226
 31
0.0
  0
LINE
  5
40B
100
AcDbEntity
  8
M04
100
AcDbLine
 10
895.005172
 20
402.559226
 30
0.0
 11
895.005172
 21
462.559226
 31
0.0
  0
LINE
  5
40C
100
AcDbEntity
  8
M04
100
AcDbLine
 10
895.005172
 20
402.559226
 30
0.0
 11
904.005172
 21
402.559226
 31
0.0
  0
LINE
  5
40D
100
AcDbEntity
  8
M04
100
AcDbLine
 10
885.005172
 20
412.559226
 30
0.0
 11
895.005172
 21
402.559226
 31
0.0
  0
LINE
  5
40E
100
AcDbEntity
  8
M04
100
AcDbLine
 10
816.005172
 20
568.559226
 30
0.0
 11
877.005172
 21
568.559226
 31
0.0
  0
LINE
  5
40F
100
AcDbEntity
  8
M04
100
AcDbLine
 10
895.005172
 20
462.559226
 30
0.0
 11
904.005172
 21
462.559226
 31
0.0
  0
LINE
  5
410
100
AcDbEntity
  8
M04
100
AcDbLine
 10
885.005172
 20
452.559226
 30
0.0
 11
895.005172
 21
462.559226
 31
0.0
  0
LINE
  5
411
100
AcDbEntity
  8
M05
100
AcDbLine
 10
878.306387
 20
429.518352
 30
0.0
 11
878.306387
 21
435.6001
 31
0.0
  0
ARC
  5
412
102
{ACAD_REACTORS
330
1A3
102
}
100
AcDbEntity
  8
M05
100
AcDbCircle
 10
893.505172
 20
432.559226
 30
0.0
 40
15.5
100
AcDbArc
 50
191.313981
 51
216.249321
  0
LINE
  5
413
100
AcDbEntity
  8
M01
100
AcDbLine
 10
846.505172
 20
428.559226
 30
0.0
 11
860.005172
 21
428.559226
 31
0.0
  0
LINE
  5
414
102
{ACAD_REACTORS
330
1A3
102
}
100
AcDbEntity
  8
M05
100
AcDbLine
 10
860.005172
 20
428.559226
 30
0.0
 11
878.306387
 21
429.518352
 31
0.0
  0
LINE
  5
415
102
{ACAD_REACTORS
330
1A3
102
}
100
AcDbEntity
  8
M05
100
AcDbLine
 10
860.005172
 20
436.559226
 30
0.0
 11
878.306387
 21
435.6001
 31
0.0
  0
ARC
  5
416
102
{ACAD_REACTORS
330
1A3
102
}
100
AcDbEntity
  8
M05
100
AcDbCircle
 10
893.505172
 20
432.559226
 30
0.0
 40
15.5
100
AcDbArc
 50
143.750679
 51
168.686019
  0
LINE
  5
417
100
AcDbEntity
  8
M01
100
AcDbLine
 10
846.505172
 20
436.559226
 30
0.0
 11
860.005172
 21
436.559226
 31
0.0
  0
LINE
  5
418
100
AcDbEntity
  8
M04
100
AcDbLine
 10
879.005172
 20
412.559226
 30
0.0
 11
877.005172
 21
412.559226
 31
0.0
  0
LINE
  5
419
100
AcDbEntity
  8
M04
100
AcDbLine
 10
880.305172
 20
412.559226
 30
0.0
 11
885.005172
 21
412.559226
 31
0.0
  0
LINE
  5
41A
100
AcDbEntity
  8
M04
100
AcDbLine
 10
879.005172
 20
452.559226
 30
0.0
 11
877.005172
 21
452.559226
 31
0.0
  0
LINE
  5
41B
100
AcDbEntity
  8
M04
100
AcDbLine
 10
880.305172
 20
452.559226
 30
0.0
 11
885.005172
 21
452.559226
 31
0.0
  0
LINE
  5
41C
100
AcDbEntity
  8
M04
100
AcDbLine
 10
885.005172
 20
452.559226
 30
0.0
 11
885.005172
 21
412.559226
 31
0.0
  0
LINE
  5
41D
102
{ACAD_REACTORS
330
1A3
102
}
100
AcDbEntity
  8
M05
100
AcDbLine
 10
879.005172
 20
413.059226
 30
0.0
 11
879.005172
 21
412.559226
 31
0.0
  0
LINE
  5
41E
102
{ACAD_REACTORS
330
1A3
102
}
100
AcDbEntity
  8
M05
100
AcDbLine
 10
876.005172
 20
413.059226
 30
0.0
 11
876.005172
 21
401.259226
 31
0.0
  0
LINE
  5
41F
102
{ACAD_REACTORS
330
1A3
102
}
100
AcDbEntity
  8
M05
100
AcDbLine
 10
876.005172
 20
413.059226
 30
0.0
 11
879.005172
 21
413.059226
 31
0.0
  0
LINE
  5
420
102
{ACAD_REACTORS
330
1A3
102
}
100
AcDbEntity
  8
M05
100
AcDbLine
 10
876.005172
 20
452.059226
 30
0.0
 11
879.005172
 21
452.059226
 31
0.0
  0
LINE
  5
421
102
{ACAD_REACTORS
330
1A3
102
}
100
AcDbEntity
  8
M05
100
AcDbLine
 10
879.005172
 20
452.559226
 30
0.0
 11
879.005172
 21
452.059226
 31
0.0
  0
LINE
  5
422
100
AcDbEntity
  8
M04
100
AcDbLine
 10
877.005172
 20
413.059226
 30
0.0
 11
877.005172
 21
382.045835
 31
0.0
  0
LINE
  5
423
102
{ACAD_REACTORS
330
1A3
102
}
100
AcDbEntity
  8
M05
100
AcDbLine
 10
881.005172
 20
413.259226
 30
0.0
 11
880.305172
 21
412.559226
 31
0.0
  0
LINE
  5
424
102
{ACAD_REACTORS
330
1A3
102
}
100
AcDbEntity
  8
M05
100
AcDbLine
 10
881.005172
 20
451.859226
 30
0.0
 11
880.305172
 21
452.559226
 31
0.0
  0
LINE
  5
425
102
{ACAD_REACTORS
330
1A3
102
}
100
AcDbEntity
  8
M05
100
AcDbLine
 10
881.005172
 20
451.859226
 30
0.0
 11
881.005172
 21
413.259226
 31
0.0
  0
LINE
  5
426
102
{ACAD_REACTORS
330
1A3
102
}
100
AcDbEntity
  8
M05
100
AcDbLine
 10
879.005172
 20
412.559226
 30
0.0
 11
880.305172
 21
412.559226
 31
0.0
  0
LINE
  5
427
102
{ACAD_REACTORS
330
1A3
102
}
100
AcDbEntity
  8
M05
100
AcDbLine
 10
879.005172
 20
452.559226
 30
0.0
 11
880.305172
 21
452.559226
 31
0.0
  0
LINE
  5
428
100
AcDbEntity
  8
M04
100
AcDbLine
 10
869.505172
 20
422.559226
 30
0.0
 11
870.005172
 21
422.059226
 31
0.0
  0
LINE
  5
429
102
{ACAD_REACTORS
330
1A3
102
}
100
AcDbEntity
  8
M01
100
AcDbLine
 10
870.005172
 20
422.559226
 30
0.0
 11
870.005172
 21
402.559226
 31
0.0
  0
LINE
  5
42A
100
AcDbEntity
  8
M04
100
AcDbLine
 10
869.505172
 20
442.559226
 30
0.0
 11
870.005172
 21
443.059226
 31
0.0
  0
LINE
  5
42B
102
{ACAD_REACTORS
330
1A3
102
}
100
AcDbEntity
  8
M05
100
AcDbLine
 10
870.705172
 20
400.559226
 30
0.0
 11
870.005172
 21
401.259226
 31
0.0
  0
LINE
  5
42C
102
{ACAD_REACTORS
330
1A3
102
}
100
AcDbEntity
  8
M05
100
AcDbLine
 10
875.305172
 20
400.559226
 30
0.0
 11
876.005172
 21
401.259226
 31
0.0
  0
LINE
  5
42D
102
{ACAD_REACTORS
330
1A3
102
}
100
AcDbEntity
  8
M05
100
AcDbLine
 10
870.705172
 20
400.559226
 30
0.0
 11
875.305172
 21
400.559226
 31
0.0
  0
LINE
  5
42E
102
{ACAD_REACTORS
330
1A3
102
}
100
AcDbEntity
  8
M05
100
AcDbLine
 10
870.705172
 20
466.559226
 30
0.0
 11
870.005172
 21
465.859226
 31
0.0
  0
LINE
  5
42F
102
{ACAD_REACTORS
330
1A3
102
}
100
AcDbEntity
  8
M05
100
AcDbLine
 10
875.305172
 20
466.559226
 30
0.0
 11
876.005172
 21
465.859226
 31
0.0
  0
LINE
  5
430
102
{ACAD_REACTORS
330
2C7
102
}
100
AcDbEntity
  8
M02
100
AcDbLine
 10
870.005172
 20
467.559226
 30
0.0
 11
873.005172
 21
467.559226
 31
0.0
  0
LINE
  5
431
102
{ACAD_REACTORS
330
1A3
102
}
100
AcDbEntity
  8
M05
100
AcDbLine
 10
876.005172
 20
465.859226
 30
0.0
 11
876.005172
 21
452.059226
 31
0.0
  0
LINE
  5
432
102
{ACAD_REACTORS
330
1A3
102
}
100
AcDbEntity
  8
M05
100
AcDbLine
 10
870.705172
 20
466.559226
 30
0.0
 11
875.305172
 21
466.559226
 31
0.0
  0
LINE
  5
433
100
AcDbEntity
  8
M04
100
AcDbLine
 10
861.005172
 20
422.559226
 30
0.0
 11
860.005172
 21
422.559226
 31
0.0
  0
LINE
  5
434
100
AcDbEntity
  8
M04
100
AcDbLine
 10
860.005172
 20
423.559226
 30
0.0
 11
860.005172
 21
422.559226
 31
0.0
  0
LINE
  5
435
100
AcDbEntity
  8
M04
100
AcDbLine
 10
861.005172
 20
442.559226
 30
0.0
 11
860.005172
 21
442.559226
 31
0.0
  0
LINE
  5
436
100
AcDbEntity
  8
M04
100
AcDbLine
 10
860.005172
 20
441.559226
 30
0.0
 11
860.005172
 21
442.559226
 31
0.0
  0
LINE
  5
437
102
{ACAD_REACTORS
330
1A3
102
}
100
AcDbEntity
  8
M05
100
AcDbLine
 10
860.005172
 20
441.559226
 30
0.0
 11
861.005172
 21
442.559226
 31
0.0
  0
LINE
  5
438
102
{ACAD_REACTORS
330
1A3
102
}
100
AcDbEntity
  8
M05
100
AcDbLine
 10
861.005172
 20
422.559226
 30
0.0
 11
860.005172
 21
423.559226
 31
0.0
  0
LINE
  5
439
102
{ACAD_REACTORS
330
1A3
102
}
100
AcDbEntity
  8
M05
100
AcDbLine
 10
860.005172
 20
441.559226
 30
0.0
 11
860.005172
 21
423.559226
 31
0.0
  0
LINE
  5
43A
102
{ACAD_REACTORS
330
1A3
102
}
100
AcDbEntity
  8
M05
100
AcDbLine
 10
861.005172
 20
422.559226
 30
0.0
 11
870.005172
 21
422.559226
 31
0.0
  0
LINE
  5
43B
102
{ACAD_REACTORS
330
1A3
102
}
100
AcDbEntity
  8
M05
100
AcDbLine
 10
861.005172
 20
442.559226
 30
0.0
 11
870.005172
 21
442.559226
 31
0.0
  0
LINE
  5
43C
100
AcDbEntity
  8
M04
100
AcDbLine
 10
522.092305
 20
568.559226
 30
0.0
 11
522.092305
 21
589.230704
 31
0.0
  0
LINE
  5
43D
100
AcDbEntity
  8
M04
100
AcDbLine
 10
488.092305
 20
568.559226
 30
0.0
 11
488.092305
 21
589.230704
 31
0.0
  0
ARC
  5
43E
100
AcDbEntity
  8
M04
100
AcDbCircle
 10
522.092305
 20
553.559226
 30
0.0
 40
15.0
100
AcDbArc
 50
360.0
 51
90.0
  0
ARC
  5
43F
100
AcDbEntity
  8
M04
100
AcDbCircle
 10
488.092305
 20
553.559226
 30
0.0
 40
15.0
100
AcDbArc
 50
90.0
 51
180.0
  0
LINE
  5
440
100
AcDbEntity
  8
M04
100
AcDbLine
 10
488.092305
 20
568.559226
 30
0.0
 11
522.092305
 21
568.559226
 31
0.0
  0
LINE
  5
441
100
AcDbEntity
  8
M01
100
AcDbLine
 10
494.592305
 20
553.559226
 30
0.0
 11
495.092305
 21
553.059226
 31
0.0
  0
LINE
  5
442
100
AcDbEntity
  8
M01
100
AcDbLine
 10
491.092305
 20
553.059226
 30
0.0
 11
491.592305
 21
553.559226
 31
0.0
  0
LINE
  5
443
100
AcDbEntity
  8
M01
100
AcDbLine
 10
491.092305
 20
553.059226
 30
0.0
 11
495.092305
 21
553.059226
 31
0.0
  0
LINE
  5
444
100
AcDbEntity
  8
M01
100
AcDbLine
 10
494.592305
 20
553.559226
 30
0.0
 11
494.592305
 21
550.459226
 31
0.0
  0
LINE
  5
445
100
AcDbEntity
  8
M01
100
AcDbLine
 10
491.592305
 20
553.559226
 30
0.0
 11
491.592305
 21
550.459226
 31
0.0
  0
LINE
  5
446
100
AcDbEntity
  8
M01
100
AcDbLine
 10
491.092305
 20
553.059226
 30
0.0
 11
491.092305
 21
550.459226
 31
0.0
  0
LINE
  5
447
100
AcDbEntity
  8
M01
100
AcDbLine
 10
495.092305
 20
553.059226
 30
0.0
 11
495.092305
 21
550.459226
 31
0.0
  0
LINE
  5
448
100
AcDbEntity
  8
M04
100
AcDbLine
 10
800.695771
 20
503.059226
 30
0.0
 11
803.005172
 21
507.059226
 31
0.0
  0
LINE
  5
449
100
AcDbEntity
  8
M04
100
AcDbLine
 10
803.005172
 20
499.059226
 30
0.0
 11
800.695771
 21
503.059226
 31
0.0
  0
LINE
  5
44A
100
AcDbEntity
  8
M04
100
AcDbLine
 10
806.005172
 20
499.059226
 30
0.0
 11
803.005172
 21
499.059226
 31
0.0
  0
LINE
  5
44B
100
AcDbEntity
  8
M04
100
AcDbLine
 10
803.005172
 20
507.059226
 30
0.0
 11
803.005172
 21
499.059226
 31
0.0
  0
LINE
  5
44C
100
AcDbEntity
  8
M04
100
AcDbLine
 10
806.005172
 20
507.059226
 30
0.0
 11
803.005172
 21
507.059226
 31
0.0
  0
ARC
  5
44D
100
AcDbEntity
  8
M05
100
AcDbCircle
 10
815.342877
 20
503.059226
 30
0.0
 40
10.837705
100
AcDbArc
 50
161.372238
 51
198.627762
  0
LINE
  5
44E
100
AcDbEntity
  8
M05
100
AcDbLine
 10
806.005172
 20
499.059226
 30
0.0
 11
805.072919
 21
499.597463
 31
0.0
  0
LINE
  5
44F
100
AcDbEntity
  8
M05
100
AcDbLine
 10
805.072919
 20
506.520989
 30
0.0
 11
805.072919
 21
499.597463
 31
0.0
  0
LINE
  5
450
100
AcDbEntity
  8
M05
100
AcDbLine
 10
806.005172
 20
507.059226
 30
0.0
 11
805.072919
 21
506.520989
 31
0.0
  0
LINE
  5
451
100
AcDbEntity
  8
M05
100
AcDbLine
 10
806.005172
 20
507.059226
 30
0.0
 11
806.005172
 21
499.059226
 31
0.0
  0
LINE
  5
452
100
AcDbEntity
  8
M04
100
AcDbLine
 10
816.005172
 20
499.059226
 30
0.0
 11
816.005172
 21
454.284226
 31
0.0
  0
LINE
  5
453
100
AcDbEntity
  8
M04
100
AcDbLine
 10
815.505172
 20
499.059226
 30
0.0
 11
816.005172
 21
498.559226
 31
0.0
  0
LINE
  5
454
100
AcDbEntity
  8
M04
100
AcDbLine
 10
815.505172
 20
507.059226
 30
0.0
 11
816.005172
 21
507.559226
 31
0.0
  0
ARC
  5
455
100
AcDbEntity
  8
M05
100
AcDbCircle
 10
814.871839
 20
503.059226
 30
0.0
 40
13.633333
100
AcDbArc
 50
342.938469
 51
17.061531
  0
LINE
  5
456
100
AcDbEntity
  8
M05
100
AcDbLine
 10
827.905172
 20
507.059226
 30
0.0
 11
827.905172
 21
499.059226
 31
0.0
  0
LINE
  5
457
100
AcDbEntity
  8
M05
100
AcDbLine
 10
806.005172
 20
499.059226
 30
0.0
 11
827.905172
 21
499.059226
 31
0.0
  0
LINE
  5
458
100
AcDbEntity
  8
M05
100
AcDbLine
 10
806.005172
 20
507.059226
 30
0.0
 11
827.905172
 21
507.059226
 31
0.0
  0
CIRCLE
  5
459
100
AcDbEntity
  8
M01
100
AcDbCircle
 10
846.505172
 20
432.559226
 30
0.0
 40
4.0
  0
CIRCLE
  5
45A
100
AcDbEntity
  8
M03
100
AcDbCircle
 10
505.092305
 20
432.559226
 30
0.0
 40
20.0
  0
LINE
  5
45B
102
{ACAD_REACTORS
330
23
102
}
100
AcDbEntity
  8
M02
100
AcDbLine
 10
820.005172
 20
409.334226
 30
0.0
 11
823.005172
 21
409.334226
 31
0.0
  0
LINE
  5
45C
102
{ACAD_REACTORS
330
23
102
}
100
AcDbEntity
  8
M02
100
AcDbLine
 10
820.005172
 20
455.784226
 30
0.0
 11
823.005172
 21
455.784226
 31
0.0
  0
LINE
  5
45D
102
{ACAD_REACTORS
330
23
102
}
100
AcDbEntity
  8
M02
100
AcDbLine
 10
820.005172
 20
410.834226
 30
0.0
 11
820.005172
 21
402.559226
 31
0.0
  0
LINE
  5
45E
100
AcDbEntity
  8
M04
100
AcDbLine
 10
816.005172
 20
410.834226
 30
0.0
 11
816.005172
 21
393.559226
 31
0.0
  0
LINE
  5
45F
100
AcDbEntity
  8
M01
100
AcDbLine
 10
491.592305
 20
553.559226
 30
0.0
 11
494.592305
 21
553.559226
 31
0.0
  0
LINE
  5
460
100
AcDbEntity
  8
CENTRE
100
AcDbLine
 10
800.18025
 20
432.559226
 30
0.0
 11
909.897212
 21
432.559226
 31
0.0
  0
CIRCLE
  5
461
100
AcDbEntity
  8
M01
100
AcDbCircle
 10
505.092305
 20
432.559226
 30
0.0
 40
22.225
  0
LINE
  5
462
100
AcDbEntity
  8
M01
100
AcDbLine
 10
488.092305
 20
528.559226
 30
0.0
 11
498.092305
 21
528.559226
 31
0.0
  0
LINE
  5
463
100
AcDbEntity
  8
M01
100
AcDbLine
 10
497.592305
 20
541.359226
 30
0.0
 11
497.592305
 21
540.559226
 31
0.0
  0
LINE
  5
464
100
AcDbEntity
  8
M01
100
AcDbLine
 10
488.592305
 20
541.359226
 30
0.0
 11
488.592305
 21
540.559226
 31
0.0
  0
LINE
  5
465
100
AcDbEntity
  8
CENTRE
100
AcDbLine
 10
493.092305
 20
559.720115
 30
0.0
 11
493.092305
 21
496.126684
 31
0.0
  0
LINE
  5
466
100
AcDbEntity
  8
CENTRE
100
AcDbLine
 10
795.659054
 20
503.059226
 30
0.0
 11
833.748754
 21
503.059226
 31
0.0
  0
LINE
  5
467
100
AcDbEntity
  8
M04
100
AcDbLine
 10
877.005172
 20
589.230704
 30
0.0
 11
877.005172
 21
452.059226
 31
0.0
  0
LINE
  5
468
100
AcDbEntity
  8
M04
100
AcDbLine
 10
537.092305
 20
478.559226
 30
0.0
 11
544.092305
 21
471.559226
 31
0.0
  0
LINE
  5
469
100
AcDbEntity
  8
M04
100
AcDbLine
 10
466.092305
 20
471.559226
 30
0.0
 11
473.092305
 21
478.559226
 31
0.0
  0
ARC
  5
46A
100
AcDbEntity
  8
M04
100
AcDbCircle
 10
306.092305
 20
408.559226
 30
0.0
 40
15.0
100
AcDbArc
 50
180.0
 51
270.0
  0
ARC
  5
46B
100
AcDbEntity
  8
M04
100
AcDbCircle
 10
306.092305
 20
456.559226
 30
0.0
 40
15.0
100
AcDbArc
 50
90.0
 51
180.0
  0
ARC
  5
46C
100
AcDbEntity
  8
M04
100
AcDbCircle
 10
704.092305
 20
456.559226
 30
0.0
 40
15.0
100
AcDbArc
 50
0.0
 51
90.0
  0
ARC
  5
46D
100
AcDbEntity
  8
M04
100
AcDbCircle
 10
704.092305
 20
408.559226
 30
0.0
 40
15.0
100
AcDbArc
 50
270.0
 51
0.0
  0
LINE
  5
46E
100
AcDbEntity
  8
M04
100
AcDbLine
 10
291.092305
 20
456.559226
 30
0.0
 11
291.092305
 21
408.559226
 31
0.0
  0
LINE
  5
46F
100
AcDbEntity
  8
M04
100
AcDbLine
 10
306.092305
 20
471.559226
 30
0.0
 11
466.092305
 21
471.559226
 31
0.0
  0
LINE
  5
470
100
AcDbEntity
  8
M04
100
AcDbLine
 10
473.092305
 20
553.559226
 30
0.0
 11
473.092305
 21
478.559226
 31
0.0
  0
LINE
  5
471
100
AcDbEntity
  8
M04
100
AcDbLine
 10
537.092305
 20
553.559226
 30
0.0
 11
537.092305
 21
478.559226
 31
0.0
  0
LINE
  5
472
100
AcDbEntity
  8
M04
100
AcDbLine
 10
544.092305
 20
471.559226
 30
0.0
 11
704.092305
 21
471.559226
 31
0.0
  0
LINE
  5
473
100
AcDbEntity
  8
M04
100
AcDbLine
 10
719.092305
 20
456.559226
 30
0.0
 11
719.092305
 21
408.559226
 31
0.0
  0
LINE
  5
474
100
AcDbEntity
  8
M04
100
AcDbLine
 10
306.092305
 20
393.559226
 30
0.0
 11
704.092305
 21
393.559226
 31
0.0
  0
LINE
  5
475
100
AcDbEntity
  8
M04
100
AcDbLine
 10
816.005172
 20
393.559226
 30
0.0
 11
877.005172
 21
393.559226
 31
0.0
  0
LINE
  5
476
100
AcDbEntity
  8
M04
100
AcDbLine
 10
816.005172
 20
568.559226
 30
0.0
 11
816.005172
 21
507.059226
 31
0.0
  0
CIRCLE
  5
477
100
AcDbEntity
  8
M03
100
AcDbCircle
 10
505.092305
 20
432.559226
 30
0.0
 40
9.5
  0
CIRCLE
  5
478
100
AcDbEntity
  8
M03
100
AcDbCircle
 10
505.092305
 20
432.559226
 30
0.0
 40
4.0
  0
LINE
  5
479
100
AcDbEntity
  8
M03
100
AcDbLine
 10
330.092305
 20
428.559226
 30
0.0
 11
680.092305
 21
428.559226
 31
0.0
  0
LINE
  5
47A
100
AcDbEntity
  8
M03
100
AcDbLine
 10
330.092305
 20
436.559226
 30
0.0
 11
680.092305
 21
436.559226
 31
0.0
  0
CIRCLE
  5
47B
100
AcDbEntity
  8
M01
100
AcDbCircle
 10
680.092305
 20
432.559226
 30
0.0
 40
4.0
  0
CIRCLE
  5
47C
100
AcDbEntity
  8
M01
100
AcDbCircle
 10
330.092305
 20
432.559226
 30
0.0
 40
4.0
  0
LINE
  5
47D
102
{ACAD_REACTORS
330
23
102
}
100
AcDbEntity
  8
M02
100
AcDbLine
 10
823.005172
 20
496.559226
 30
0.0
 11
820.005172
 21
496.559226
 31
0.0
  0
LINE
  5
47E
100
AcDbEntity
  8
M01
100
AcDbLine
 10
823.005172
 20
496.559226
 30
0.0
 11
829.005172
 21
496.559226
 31
0.0
  0
LINE
  5
47F
100
AcDbEntity
  8
M01
100
AcDbLine
 10
829.005172
 20
508.559226
 30
0.0
 11
829.005172
 21
496.559226
 31
0.0
  0
LINE
  5
480
102
{ACAD_REACTORS
330
2C7
102
}
100
AcDbEntity
  8
M02
100
AcDbLine
 10
870.005172
 20
506.559226
 30
0.0
 11
873.005172
 21
506.559226
 31
0.0
  0
LINE
  5
481
102
{ACAD_REACTORS
330
23
102
}
100
AcDbEntity
  8
M02
100
AcDbLine
 10
823.005172
 20
402.559226
 30
0.0
 11
820.005172
 21
402.559226
 31
0.0
  0
LINE
  5
482
102
{ACAD_REACTORS
330
2C7
102
}
100
AcDbEntity
  8
M02
100
AcDbLine
 10
873.005172
 20
506.559226
 30
0.0
 11
873.005172
 21
466.559226
 31
0.0
  0
LINE
  5
483
102
{ACAD_REACTORS
330
23
102
}
100
AcDbEntity
  8
M02
100
AcDbLine
 10
820.005172
 20
499.059226
 30
0.0
 11
820.005172
 21
454.284226
 31
0.0
  0
LWPOLYLINE
  5
484
100
AcDbEntity
  8
M01
100
AcDbPolyline
 90
        2
 70
     0
 43
4.0
 10
505.092305
 20
505.059226
 42
0.414214
 10
503.092305
 20
503.059226
  0
LWPOLYLINE
  5
485
100
AcDbEntity
  8
M01
100
AcDbPolyline
 90
        2
 70
     0
 43
4.0
 10
505.092305
 20
501.059226
 42
0.414214
 10
507.092305
 20
503.059226
  0
CIRCLE
  5
486
100
AcDbEntity
  8
M01
100
AcDbCircle
 10
505.092305
 20
503.059226
 30
0.0
 40
4.0
  0
LINE
  5
487
100
AcDbEntity
  8
M01
100
AcDbLine
 10
509.092305
 20
500.559226
 30
0.0
 11
509.092305
 21
508.559226
 31
0.0
  0
LINE
  5
488
100
AcDbEntity
  8
M01
100
AcDbLine
 10
501.092305
 20
500.559226
 30
0.0
 11
501.092305
 21
508.559226
 31
0.0
  0
ARC
  5
489
100
AcDbEntity
  8
M01
100
AcDbCircle
 10
505.092305
 20
500.559226
 30
0.0
 40
4.0
100
AcDbArc
 50
180.0
 51
0.0
  0
LINE
  5
48A
100
AcDbEntity
  8
M01
100
AcDbLine
 10
870.005172
 20
402.559226
 30
0.0
 11
868.005172
 21
400.559226
 31
0.0
  0
LINE
  5
48B
100
AcDbEntity
  8
M01
100
AcDbLine
 10
868.005172
 20
508.559226
 30
0.0
 11
870.005172
 21
506.559226
 31
0.0
  0
LINE
  5
48C
100
AcDbEntity
  8
M01
100
AcDbLine
 10
824.005172
 20
507.559226
 30
0.0
 11
825.005172
 21
508.559226
 31
0.0
  0
LINE
  5
48D
100
AcDbEntity
  8
M01
100
AcDbLine
 10
825.005172
 20
400.559226
 30
0.0
 11
823.005172
 21
402.559226
 31
0.0
  0
LINE
  5
48E
102
{ACAD_REACTORS
330
2C7
330
1A3
102
}
100
AcDbEntity
  8
M01
100
AcDbLine
 10
870.005172
 20
506.559226
 30
0.0
 11
870.005172
 21
461.559226
 31
0.0
  0
LINE
  5
48F
100
AcDbEntity
  8
M01
100
AcDbLine
 10
825.005172
 20
400.559226
 30
0.0
 11
868.005172
 21
400.559226
 31
0.0
  0
LINE
  5
490
100
AcDbEntity
  8
M01
100
AcDbLine
 10
825.005172
 20
508.559226
 30
0.0
 11
868.005172
 21
508.559226
 31
0.0
  0
LINE
  5
491
102
{ACAD_REACTORS
330
23
102
}
100
AcDbEntity
  8
M01
100
AcDbLine
 10
823.005172
 20
499.059226
 30
0.0
 11
823.005172
 21
402.559226
 31
0.0
  0
LINE
  5
492
100
AcDbEntity
  8
M01
100
AcDbLine
 10
525.092305
 20
508.559226
 30
0.0
 11
527.092305
 21
506.559226
 31
0.0
  0
LINE
  5
493
100
AcDbEntity
  8
M01
100
AcDbLine
 10
483.092305
 20
506.559226
 30
0.0
 11
485.092305
 21
508.559226
 31
0.0
  0
LINE
  5
494
100
AcDbEntity
  8
M01
100
AcDbLine
 10
485.092305
 20
508.559226
 30
0.0
 11
525.092305
 21
508.559226
 31
0.0
  0
ARC
  5
495
100
AcDbEntity
  8
M01
100
AcDbCircle
 10
539.092305
 20
476.559226
 30
0.0
 40
12.0
100
AcDbArc
 50
180.0
 51
270.0
  0
ARC
  5
496
100
AcDbEntity
  8
M01
100
AcDbCircle
 10
471.092305
 20
476.559226
 30
0.0
 40
12.0
100
AcDbArc
 50
270.0
 51
0.0
  0
LINE
  5
497
100
AcDbEntity
  8
M01
100
AcDbLine
 10
539.092305
 20
464.559226
 30
0.0
 11
700.092305
 21
464.559226
 31
0.0
  0
LINE
  5
498
100
AcDbEntity
  8
M01
100
AcDbLine
 10
527.092305
 20
506.559226
 30
0.0
 11
527.092305
 21
476.559226
 31
0.0
  0
LINE
  5
499
100
AcDbEntity
  8
M01
100
AcDbLine
 10
483.092305
 20
506.559226
 30
0.0
 11
483.092305
 21
476.559226
 31
0.0
  0
LINE
  5
49A
100
AcDbEntity
  8
M01
100
AcDbLine
 10
712.092305
 20
412.559226
 30
0.0
 11
700.092305
 21
400.559226
 31
0.0
  0
LINE
  5
49B
100
AcDbEntity
  8
M01
100
AcDbLine
 10
700.092305
 20
464.559226
 30
0.0
 11
712.092305
 21
452.559226
 31
0.0
  0
LINE
  5
49C
100
AcDbEntity
  8
M01
100
AcDbLine
 10
298.092305
 20
452.559226
 30
0.0
 11
310.092305
 21
464.559226
 31
0.0
  0
LINE
  5
49D
100
AcDbEntity
  8
M01
100
AcDbLine
 10
310.092305
 20
400.559226
 30
0.0
 11
298.092305
 21
412.559226
 31
0.0
  0
LINE
  5
49E
100
AcDbEntity
  8
M01
100
AcDbLine
 10
310.092305
 20
400.559226
 30
0.0
 11
700.092305
 21
400.559226
 31
0.0
  0
LINE
  5
49F
100
AcDbEntity
  8
M01
100
AcDbLine
 10
310.092305
 20
464.559226
 30
0.0
 11
471.092305
 21
464.559226
 31
0.0
  0
LINE
  5
4A0
100
AcDbEntity
  8
M01
100
AcDbLine
 10
712.092305
 20
452.559226
 30
0.0
 11
712.092305
 21
412.559226
 31
0.0
  0
LINE
  5
4A1
100
AcDbEntity
  8
M01
100
AcDbLine
 10
298.092305
 20
452.559226
 30
0.0
 11
298.092305
 21
412.559226
 31
0.0
  0
LINE
  5
4A2
100
AcDbEntity
  8
CENTRE
100
AcDbLine
 10
505.092305
 20
523.559226
 30
0.0
 11
505.092305
 21
385.559226
 31
0.0
  0
LINE
  5
4A3
100
AcDbEntity
  8
CENTRE
100
AcDbLine
 10
283.092305
 20
432.559226
 30
0.0
 11
727.092305
 21
432.559226
 31
0.0
  0
ENDSEC
  0
SECTION
  2
OBJECTS
  0
DICTIONARY
  5
1C
100
AcDbDictionary
  3
ACAD_GROUP
350
1A
  3
ACAD_MLINESTYLE
350
1B
  0
DICTIONARY
  5
3
100
AcDbDictionary
280
     1
  3
ACAD_SORTENTS
360
4
  0
DICTIONARY
  5
1A
102
{ACAD_REACTORS
330
1C
102
}
100
AcDbDictionary
  0
DICTIONARY
  5
1B
102
{ACAD_REACTORS
330
1C
102
}
100
AcDbDictionary
  3
STANDARD
350
1E
  0
SORTENTSTABLE
  5
4
102
{ACAD_REACTORS
330
3
102
}
100
AcDbSortentsTable
330
2
  0
MLINESTYLE
  5
1E
102
{ACAD_REACTORS
330
1B
102
}
100
AcDbMlineStyle
  2
STANDARD
 70
     0
  3

 62
   256
 51
90.0
 52
90.0
 71
     2
 49
0.5
 62
   256
  6
BYLAYER
 49
-0.5
 62
   256
  6
BYLAYER
  0
ENDSEC
  0
EOF
