  0
SECTION
  2
HEADER
  9
$ACADVER
  1
AC1014
  9
$ACADMAINTVER
 70
     9
  9
$DWGCODEPAGE
  3
ANSI_1252
  9
$INSBASE
 10
0.0
 20
0.0
 30
0.0
  9
$EXTMIN
 10
173.770785
 20
160.959826
 30
-0.001526
  9
$EXTMAX
 10
1164.543643
 20
711.544313
 30
0.0
  9
$LIMMIN
 10
0.0
 20
0.0
  9
$LIMMAX
 10
1189.0
 20
841.0
  9
$ORTHOMODE
 70
     1
  9
$REGENMODE
 70
     1
  9
$FILLMODE
 70
     1
  9
$QTEXTMODE
 70
     0
  9
$MIRRTEXT
 70
     1
  9
$DRAGMODE
 70
     2
  9
$LTSCALE
 40
8.0
  9
$OSMODE
 70
     0
  9
$ATTMODE
 70
     1
  9
$TEXTSIZE
 40
3.0
  9
$TRACEWID
 40
10.0
  9
$TEXTSTYLE
  7
STANDARD
  9
$CLAYER
  8
HATCH
  9
$CELTYPE
  6
BYLAYER
  9
$CECOLOR
 62
   256
  9
$CELTSCALE
 40
1.0
  9
$DELOBJ
 70
     1
  9
$DISPSILH
 70
     0
  9
$DIMSCALE
 40
1.0
  9
$DIMASZ
 40
3.0
  9
$DIMEXO
 40
1.0
  9
$DIMDLI
 40
10.0
  9
$DIMRND
 40
0.01
  9
$DIMDLE
 40
1.25
  9
$DIMEXE
 40
2.5
  9
$DIMTP
 40
0.05
  9
$DIMTM
 40
0.0
  9
$DIMTXT
 40
3.0
  9
$DIMCEN
 40
-1.7
  9
$DIMTSZ
 40
0.0
  9
$DIMTOL
 70
     0
  9
$DIMLIM
 70
     0
  9
$DIMTIH
 70
     0
  9
$DIMTOH
 70
     0
  9
$DIMSE1
 70
     0
  9
$DIMSE2
 70
     0
  9
$DIMTAD
 70
     3
  9
$DIMZIN
 70
     1
  9
$DIMBLK
  1

  9
$DIMASO
 70
     1
  9
$DIMSHO
 70
     0
  9
$DIMPOST
  1

  9
$DIMAPOST
  1

  9
$DIMALT
 70
     0
  9
$DIMALTD
 70
     2
  9
$DIMALTF
 40
0.039
  9
$DIMLFAC
 40
1.0
  9
$DIMTOFL
 70
     0
  9
$DIMTVP
 40
1.5
  9
$DIMTIX
 70
     0
  9
$DIMSOXD
 70
     0
  9
$DIMSAH
 70
     0
  9
$DIMBLK1
  1

  9
$DIMBLK2
  1

  9
$DIMSTYLE
  2
DIM1
  9
$DIMCLRD
 70
     4
  9
$DIMCLRE
 70
     4
  9
$DIMCLRT
 70
     2
  9
$DIMTFAC
 40
0.7
  9
$DIMGAP
 40
1.5
  9
$DIMJUST
 70
     0
  9
$DIMSD1
 70
     0
  9
$DIMSD2
 70
     0
  9
$DIMTOLJ
 70
     1
  9
$DIMTZIN
 70
     1
  9
$DIMALTZ
 70
     1
  9
$DIMALTTZ
 70
     1
  9
$DIMFIT
 70
     0
  9
$DIMUPT
 70
     1
  9
$DIMUNIT
 70
     2
  9
$DIMDEC
 70
     2
  9
$DIMTDEC
 70
     2
  9
$DIMALTU
 70
     2
  9
$DIMALTTD
 70
     2
  9
$DIMTXSTY
  7
STANDARD
  9
$DIMAUNIT
 70
     0
  9
$LUNITS
 70
     2
  9
$LUPREC
 70
     2
  9
$SKETCHINC
 40
1.0
  9
$FILLETRAD
 40
10.0
  9
$AUNITS
 70
     0
  9
$AUPREC
 70
     3
  9
$MENU
  1
ACAD
  9
$ELEVATION
 40
0.0
  9
$PELEVATION
 40
0.0
  9
$THICKNESS
 40
0.0
  9
$LIMCHECK
 70
     0
  9
$BLIPMODE
 70
     1
  9
$CHAMFERA
 40
0.7
  9
$CHAMFERB
 40
0.7
  9
$CHAMFERC
 40
0.0
  9
$CHAMFERD
 40
0.0
  9
$SKPOLY
 70
     1
  9
$TDCREATE
 40
2449993.725698611
  9
$TDUPDATE
 40
2451970.619476330
  9
$TDINDWG
 40
0.9650014236
  9
$TDUSRTIMER
 40
0.9650014236
  9
$USRTIMER
 70
     1
  9
$ANGBASE
 50
0.0
  9
$ANGDIR
 70
     0
  9
$PDMODE
 70
     3
  9
$PDSIZE
 40
0.0
  9
$PLINEWID
 40
0.0
  9
$COORDS
 70
     2
  9
$SPLFRAME
 70
     0
  9
$SPLINETYPE
 70
     6
  9
$SPLINESEGS
 70
     6
  9
$ATTDIA
 70
     1
  9
$ATTREQ
 70
     1
  9
$HANDLING
 70
     1
  9
$HANDSEED
  5
4A2
  9
$SURFTAB1
 70
    12
  9
$SURFTAB2
 70
    12
  9
$SURFTYPE
 70
     6
  9
$SURFU
 70
    12
  9
$SURFV
 70
    12
  9
$UCSNAME
  2

  9
$UCSORG
 10
0.0
 20
0.0
 30
0.0
  9
$UCSXDIR
 10
1.0
 20
0.0
 30
0.0
  9
$UCSYDIR
 10
0.0
 20
1.0
 30
0.0
  9
$PUCSNAME
  2

  9
$PUCSORG
 10
0.0
 20
0.0
 30
0.0
  9
$PUCSXDIR
 10
1.0
 20
0.0
 30
0.0
  9
$PUCSYDIR
 10
0.0
 20
1.0
 30
0.0
  9
$USERI1
 70
     0
  9
$USERI2
 70
     0
  9
$USERI3
 70
     0
  9
$USERI4
 70
     0
  9
$USERI5
 70
     0
  9
$USERR1
 40
0.0
  9
$USERR2
 40
0.0
  9
$USERR3
 40
0.0
  9
$USERR4
 40
0.0
  9
$USERR5
 40
0.0
  9
$WORLDVIEW
 70
     0
  9
$SHADEDGE
 70
     3
  9
$SHADEDIF
 70
    70
  9
$TILEMODE
 70
     1
  9
$MAXACTVP
 70
    16
  9
$PINSBASE
 10
0.0
 20
0.0
 30
0.0
  9
$PLIMCHECK
 70
     0
  9
$PEXTMIN
 10
1.000000E+20
 20
1.000000E+20
 30
1.000000E+20
  9
$PEXTMAX
 10
-1.000000E+20
 20
-1.000000E+20
 30
-1.000000E+20
  9
$PLIMMIN
 10
0.0
 20
0.0
  9
$PLIMMAX
 10
12.0
 20
9.0
  9
$UNITMODE
 70
     0
  9
$VISRETAIN
 70
     0
  9
$PLINEGEN
 70
     0
  9
$PSLTSCALE
 70
     0
  9
$TREEDEPTH
 70
  3020
  9
$PICKSTYLE
 70
     1
  9
$CMLSTYLE
  2
STANDARD
  9
$CMLJUST
 70
     0
  9
$CMLSCALE
 40
1.0
  9
$PROXYGRAPHICS
 70
     1
  9
$MEASUREMENT
 70
     0
  0
ENDSEC
  0
SECTION
  2
CLASSES
  0
CLASS
  1
DICTIONARYVAR
  2
AcDbDictionaryVar
  3
"AutoCAD"
 90
        0
280
     0
281
     0
  0
CLASS
  1
LWPOLYLINE
  2
AcDbPolyline
  3
"AutoCAD"
 90
        0
280
     0
281
     1
  0
CLASS
  1
HATCH
  2
AcDbHatch
  3
"ACAD_SEDONA"
 90
        0
280
     0
281
     1
  0
CLASS
  1
SORTENTSTABLE
  2
AcDbSortentsTable
  3
"AutoCAD"
 90
        0
280
     0
281
     0
  0
CLASS
  1
WIPEOUTVARIABLES
  2
AcDbWipeoutVariables
  3
WIPEOUT
 90
        0
280
     0
281
     0
  0
CLASS
  1
WIPEOUT
  2
AcDbWipeout
  3
WIPEOUT
 90
      127
280
     0
281
     1
  0
ENDSEC
  0
SECTION
  2
TABLES
  0
TABLE
  2
VPORT
  5
14
100
AcDbSymbolTable
 70
     2
  0
VPORT
  5
4A1
100
AcDbSymbolTableRecord
100
AcDbViewportTableRecord
  2
*ACTIVE
 70
     0
 10
0.0
 20
0.0
 11
1.0
 21
1.0
 12
612.074319
 22
407.720885
 13
0.0
 23
0.0
 14
10.0
 24
10.0
 15
0.0
 25
0.0
 16
0.0
 26
0.0
 36
1.0
 17
16.313321
 27
12.779115
 37
0.222949
 40
841.0
 41
1.494382
 42
50.0
 43
0.0
 44
0.0
 50
0.0
 51
0.0
 71
     0
 72
  2000
 73
     1
 74
     2
 75
     0
 76
     0
 77
     0
 78
     1
  0
ENDTAB
  0
TABLE
  2
LTYPE
  5
F
100
AcDbSymbolTable
 70
     3
  0
LTYPE
  5
10
100
AcDbSymbolTableRecord
100
AcDbLinetypeTableRecord
  2
BYBLOCK
 70
     0
  3

 72
    65
 73
     0
 40
0.0
  0
LTYPE
  5
11
100
AcDbSymbolTableRecord
100
AcDbLinetypeTableRecord
  2
BYLAYER
 70
     0
  3

 72
    65
 73
     0
 40
0.0
  0
LTYPE
  5
7
100
AcDbSymbolTableRecord
100
AcDbLinetypeTableRecord
  2
CONTINUOUS
 70
     0
  3
Solid line
 72
    65
 73
     0
 40
0.0
  0
LTYPE
  5
168
100
AcDbSymbolTableRecord
100
AcDbLinetypeTableRecord
  2
CENTER
 70
     0
  3
Center ____ _ ____ _ ____ _ ____ _ ____ _ ____
 72
    65
 73
     4
 40
2.0
 49
1.25
 74
     0
 49
-0.25
 74
     0
 49
0.25
 74
     0
 49
-0.25
 74
     0
  0
LTYPE
  5
61
100
AcDbSymbolTableRecord
100
AcDbLinetypeTableRecord
  2
HIDDEN
 70
     0
  3
Hidden __ __ __ __ __ __ __ __ __ __ __ __ __ _
 72
    65
 73
     2
 40
0.375
 49
0.25
 74
     0
 49
-0.125
 74
     0
  0
ENDTAB
  0
TABLE
  2
LAYER
  5
C
100
AcDbSymbolTable
 70
    11
  0
LAYER
  5
6
100
AcDbSymbolTableRecord
100
AcDbLayerTableRecord
  2
0
 70
     0
 62
     7
  6
CONTINUOUS
  0
LAYER
  5
167
100
AcDbSymbolTableRecord
100
AcDbLayerTableRecord
  2
CENTRE
 70
     0
 62
     3
  6
CENTER
  0
LAYER
  5
C1
100
AcDbSymbolTableRecord
100
AcDbLayerTableRecord
  2
M01
 70
     0
 62
     1
  6
CONTINUOUS
  0
LAYER
  5
8E
100
AcDbSymbolTableRecord
100
AcDbLayerTableRecord
  2
M02
 70
     0
 62
     2
  6
CONTINUOUS
  0
LAYER
  5
60
100
AcDbSymbolTableRecord
100
AcDbLayerTableRecord
  2
M03
 70
     0
 62
     2
  6
HIDDEN
  0
LAYER
  5
5D
100
AcDbSymbolTableRecord
100
AcDbLayerTableRecord
  2
M04
 70
     0
 62
     7
  6
CONTINUOUS
  0
LAYER
  5
6B
100
AcDbSymbolTableRecord
100
AcDbLayerTableRecord
  2
M05
 70
     0
 62
     5
  6
CONTINUOUS
  0
LAYER
  5
26
100
AcDbSymbolTableRecord
100
AcDbLayerTableRecord
  2
DIMS
 70
     0
 62
     4
  6
CONTINUOUS
  0
LAYER
  5
8C
100
AcDbSymbolTableRecord
100
AcDbLayerTableRecord
  2
TEXT
 70
     0
 62
     2
  6
CONTINUOUS
  0
LAYER
  5
1D
100
AcDbSymbolTableRecord
100
AcDbLayerTableRecord
  2
HATCH
 70
     0
 62
     4
  6
CONTINUOUS
  0
LAYER
  5
2F
100
AcDbSymbolTableRecord
100
AcDbLayerTableRecord
  2
DEFPOINTS
 70
     0
 62
     7
  6
CONTINUOUS
  0
ENDTAB
  0
TABLE
  2
STYLE
  5
D
100
AcDbSymbolTable
 70
     1
  0
STYLE
  5
E
100
AcDbSymbolTableRecord
100
AcDbTextStyleTableRecord
  2
STANDARD
 70
     0
 40
0.0
 41
1.0
 50
0.0
 71
     0
 42
3.0
  3
SIMPLEX
  4

  0
ENDTAB
  0
TABLE
  2
VIEW
  5
12
100
AcDbSymbolTable
 70
     0
  0
ENDTAB
  0
TABLE
  2
UCS
  5
13
100
AcDbSymbolTable
 70
     0
  0
ENDTAB
  0
TABLE
  2
APPID
  5
16
100
AcDbSymbolTable
 70
     1
  0
APPID
  5
17
100
AcDbSymbolTableRecord
100
AcDbRegAppTableRecord
  2
ACAD
 70
     0
  0
ENDTAB
  0
TABLE
  2
DIMSTYLE
  5
18
100
AcDbSymbolTable
 70
     2
  0
DIMSTYLE
105
1F
102
{ACAD_REACTORS
330
25
330
34
330
41
330
4E
330
1E7
330
20B
330
218
330
226
330
234
330
2CB
330
2D8
330
2E5
330
2F2
102
}
100
AcDbSymbolTableRecord
100
AcDbDimStyleTableRecord
  2
DIM1
 70
     0
  3

  4

  5

  6

  7

 40
1.0
 41
3.0
 42
1.0
 43
10.0
 44
2.5
 45
0.01
 46
1.25
 47
0.05
 48
0.0
140
3.0
141
-1.7
142
0.0
143
0.039
144
0.2
145
1.5
146
0.7
147
1.5
 71
     0
 72
     0
 73
     0
 74
     0
 75
     0
 76
     0
 77
     3
 78
     1
170
     0
171
     2
172
     0
173
     0
174
     0
175
     0
176
     4
177
     4
178
     2
270
     2
271
     2
272
     2
273
     2
274
     2
340
E
275
     0
280
     0
281
     0
282
     0
283
     1
284
     1
285
     1
286
     1
287
     0
288
     0
  0
DIMSTYLE
105
1C1
100
AcDbSymbolTableRecord
100
AcDbDimStyleTableRecord
  2
DIM1$7
 70
     0
  3

  4

  5

  6

  7

 40
1.0
 41
3.0
 42
1.0
 43
10.0
 44
2.5
 45
0.01
 46
1.25
 47
0.0
 48
0.0
140
3.0
141
-1.7
142
0.0
143
0.039
144
1.0
145
0.0
146
1.0
147
1.5
 71
     0
 72
     0
 73
     0
 74
     0
 75
     0
 76
     0
 77
     0
 78
     1
170
     0
171
     2
172
     0
173
     0
174
     0
175
     0
176
     4
177
     4
178
     2
270
     2
271
     2
272
     2
273
     2
274
     2
340
E
275
     0
280
     0
281
     0
282
     0
283
     1
284
     1
285
     1
286
     1
287
     0
288
     0
  0
ENDTAB
  0
TABLE
  2
BLOCK_RECORD
  5
1
100
AcDbSymbolTable
 70
    13
  0
BLOCK_RECORD
  5
2
102
{ACAD_XDICTIONARY
360
3
102
}
100
AcDbSymbolTableRecord
100
AcDbBlockTableRecord
  2
*MODEL_SPACE
  0
BLOCK_RECORD
  5
9
100
AcDbSymbolTableRecord
100
AcDbBlockTableRecord
  2
*PAPER_SPACE
  0
BLOCK_RECORD
  5
27
100
AcDbSymbolTableRecord
100
AcDbBlockTableRecord
  2
*D0
  0
BLOCK_RECORD
  5
35
100
AcDbSymbolTableRecord
100
AcDbBlockTableRecord
  2
*D1
  0
BLOCK_RECORD
  5
42
100
AcDbSymbolTableRecord
100
AcDbBlockTableRecord
  2
*D2
  0
BLOCK_RECORD
  5
4F
100
AcDbSymbolTableRecord
100
AcDbBlockTableRecord
  2
*D3
  0
BLOCK_RECORD
  5
1E8
100
AcDbSymbolTableRecord
100
AcDbBlockTableRecord
  2
*D4
  0
BLOCK_RECORD
  5
20C
100
AcDbSymbolTableRecord
100
AcDbBlockTableRecord
  2
*D5
  0
BLOCK_RECORD
  5
219
100
AcDbSymbolTableRecord
100
AcDbBlockTableRecord
  2
*D6
  0
BLOCK_RECORD
  5
227
100
AcDbSymbolTableRecord
100
AcDbBlockTableRecord
  2
*D7
  0
BLOCK_RECORD
  5
235
100
AcDbSymbolTableRecord
100
AcDbBlockTableRecord
  2
*D8
  0
BLOCK_RECORD
  5
2CC
100
AcDbSymbolTableRecord
100
AcDbBlockTableRecord
  2
*D9
  0
BLOCK_RECORD
  5
2D9
100
AcDbSymbolTableRecord
100
AcDbBlockTableRecord
  2
*D10
  0
BLOCK_RECORD
  5
2E6
100
AcDbSymbolTableRecord
100
AcDbBlockTableRecord
  2
*D11
  0
BLOCK_RECORD
  5
2F3
100
AcDbSymbolTableRecord
100
AcDbBlockTableRecord
  2
*D12
  0
ENDTAB
  0
ENDSEC
  0
SECTION
  2
BLOCKS
  0
BLOCK
  5
5
100
AcDbEntity
  8
0
100
AcDbBlockBegin
  2
*MODEL_SPACE
 70
     0
 10
0.0
 20
0.0
 30
0.0
  3
*MODEL_SPACE
  1

  0
ENDBLK
  5
8
100
AcDbEntity
  8
0
100
AcDbBlockEnd
  0
BLOCK
  5
A
100
AcDbEntity
 67
     1
  8
0
100
AcDbBlockBegin
  2
*PAPER_SPACE
 70
     0
 10
0.0
 20
0.0
 30
0.0
  3
*PAPER_SPACE
  1

  0
ENDBLK
  5
B
100
AcDbEntity
 67
     1
  8
0
100
AcDbBlockEnd
  0
BLOCK
  5
32
100
AcDbEntity
  8
0
100
AcDbBlockBegin
  2
*D0
 70
     1
 10
0.0
 20
0.0
 30
0.0
  3
*D0
  1

  0
LINE
  5
28
100
AcDbEntity
  8
0
  6
BYBLOCK
 62
     4
100
AcDbLine
 10
823.360108
 20
456.784226
 30
0.0
 11
823.360108
 21
472.600271
 31
0.0
  0
LINE
  5
29
100
AcDbEntity
  8
0
  6
BYBLOCK
 62
     4
100
AcDbLine
 10
797.960108
 20
455.784226
 30
0.0
 11
797.960108
 21
472.600271
 31
0.0
  0
LINE
  5
2A
100
AcDbEntity
  8
0
  6
BYBLOCK
 62
     4
100
AcDbLine
 10
820.360108
 20
470.100271
 30
0.0
 11
800.960108
 21
470.100271
 31
0.0
  0
SOLID
  5
2B
100
AcDbEntity
  8
0
  6
BYBLOCK
 62
     4
100
AcDbTrace
 10
820.360108
 20
470.600271
 30
0.0
 11
820.360108
 21
469.600271
 31
0.0
 12
823.360108
 22
470.100271
 32
0.0
 13
823.360108
 23
470.100271
 33
0.0
  0
SOLID
  5
2C
100
AcDbEntity
  8
0
  6
BYBLOCK
 62
     4
100
AcDbTrace
 10
800.960108
 20
470.600271
 30
0.0
 11
800.960108
 21
469.600271
 31
0.0
 12
797.960108
 22
470.100271
 32
0.0
 13
797.960108
 23
470.100271
 33
0.0
  0
MTEXT
  5
2D
100
AcDbEntity
  8
0
  6
BYBLOCK
 62
     2
100
AcDbMText
 10
808.658692
 20
473.100271
 30
0.0
 40
3.0
 41
0.0
 71
     5
 72
     1
  1
\A1;25.40
  0
POINT
  5
2E
100
AcDbEntity
  8
DEFPOINTS
  6
BYBLOCK
 62
     0
100
AcDbPoint
 10
823.360108
 20
455.784226
 30
0.0
  0
POINT
  5
30
100
AcDbEntity
  8
DEFPOINTS
  6
BYBLOCK
 62
     0
100
AcDbPoint
 10
797.960108
 20
454.784226
 30
0.0
  0
POINT
  5
31
100
AcDbEntity
  8
DEFPOINTS
  6
BYBLOCK
 62
     0
100
AcDbPoint
 10
797.960108
 20
470.100271
 30
0.0
  0
ENDBLK
  5
33
100
AcDbEntity
  8
0
100
AcDbBlockEnd
  0
BLOCK
  5
3F
100
AcDbEntity
  8
0
100
AcDbBlockBegin
  2
*D1
 70
     1
 10
0.0
 20
0.0
 30
0.0
  3
*D1
  1

  0
LINE
  5
36
100
AcDbEntity
  8
0
  6
BYBLOCK
 62
     4
100
AcDbLine
 10
802.537458
 20
409.334226
 30
0.0
 11
772.461001
 21
409.334226
 31
0.0
  0
LINE
  5
37
100
AcDbEntity
  8
0
  6
BYBLOCK
 62
     4
100
AcDbLine
 10
802.537458
 20
455.784226
 30
0.0
 11
772.461001
 21
455.784226
 31
0.0
  0
LINE
  5
38
100
AcDbEntity
  8
0
  6
BYBLOCK
 62
     4
100
AcDbLine
 10
774.961001
 20
412.334226
 30
0.0
 11
774.961001
 21
452.784226
 31
0.0
  0
SOLID
  5
39
100
AcDbEntity
  8
0
  6
BYBLOCK
 62
     4
100
AcDbTrace
 10
774.461001
 20
412.334226
 30
0.0
 11
775.461001
 21
412.334226
 31
0.0
 12
774.961001
 22
409.334226
 32
0.0
 13
774.961001
 23
409.334226
 33
0.0
  0
SOLID
  5
3A
100
AcDbEntity
  8
0
  6
BYBLOCK
 62
     4
100
AcDbTrace
 10
774.461001
 20
452.784226
 30
0.0
 11
775.461001
 21
452.784226
 31
0.0
 12
774.961001
 22
455.784226
 32
0.0
 13
774.961001
 23
455.784226
 33
0.0
  0
MTEXT
  5
3B
100
AcDbEntity
  8
0
  6
BYBLOCK
 62
     2
100
AcDbMText
 10
771.961001
 20
433.864678
 30
0.0
 40
3.0
 41
0.0
 71
     5
 72
     1
  1
\A1;\U+220546.5
 11
0.0
 21
1.0
 31
0.0
  0
POINT
  5
3C
100
AcDbEntity
  8
DEFPOINTS
  6
BYBLOCK
 62
     0
100
AcDbPoint
 10
803.537458
 20
409.334226
 30
0.0
  0
POINT
  5
3D
100
AcDbEntity
  8
DEFPOINTS
  6
BYBLOCK
 62
     0
100
AcDbPoint
 10
803.537458
 20
455.784226
 30
0.0
  0
POINT
  5
3E
100
AcDbEntity
  8
DEFPOINTS
  6
BYBLOCK
 62
     0
100
AcDbPoint
 10
774.961001
 20
455.784226
 30
0.0
  0
ENDBLK
  5
40
100
AcDbEntity
  8
0
100
AcDbBlockEnd
  0
BLOCK
  5
4C
100
AcDbEntity
  8
0
100
AcDbBlockBegin
  2
*D2
 70
     1
 10
0.0
 20
0.0
 30
0.0
  3
*D2
  1

  0
LINE
  5
43
100
AcDbEntity
  8
0
  6
BYBLOCK
 62
     4
100
AcDbLine
 10
796.960108
 20
454.784226
 30
0.0
 11
782.502232
 21
454.784226
 31
0.0
  0
LINE
  5
44
100
AcDbEntity
  8
0
  6
BYBLOCK
 62
     4
100
AcDbLine
 10
796.960108
 20
410.334226
 30
0.0
 11
782.502232
 21
410.334226
 31
0.0
  0
LINE
  5
45
100
AcDbEntity
  8
0
  6
BYBLOCK
 62
     4
100
AcDbLine
 10
785.002232
 20
451.784226
 30
0.0
 11
785.002232
 21
413.334226
 31
0.0
  0
SOLID
  5
46
100
AcDbEntity
  8
0
  6
BYBLOCK
 62
     4
100
AcDbTrace
 10
784.502232
 20
451.784226
 30
0.0
 11
785.502232
 21
451.784226
 31
0.0
 12
785.002232
 22
454.784226
 32
0.0
 13
785.002232
 23
454.784226
 33
0.0
  0
SOLID
  5
47
100
AcDbEntity
  8
0
  6
BYBLOCK
 62
     4
100
AcDbTrace
 10
784.502232
 20
413.334226
 30
0.0
 11
785.502232
 21
413.334226
 31
0.0
 12
785.002232
 22
410.334226
 32
0.0
 13
785.002232
 23
410.334226
 33
0.0
  0
MTEXT
  5
48
100
AcDbEntity
  8
0
  6
BYBLOCK
 62
     2
100
AcDbMText
 10
782.002232
 20
433.524437
 30
0.0
 40
3.0
 41
0.0
 71
     5
 72
     1
  1
\A1;\U+220544.45 H7
 11
0.0
 21
1.0
 31
0.0
  0
POINT
  5
49
100
AcDbEntity
  8
DEFPOINTS
  6
BYBLOCK
 62
     0
100
AcDbPoint
 10
797.960108
 20
454.784226
 30
0.0
  0
POINT
  5
4A
100
AcDbEntity
  8
DEFPOINTS
  6
BYBLOCK
 62
     0
100
AcDbPoint
 10
797.960108
 20
410.334226
 30
0.0
  0
POINT
  5
4B
100
AcDbEntity
  8
DEFPOINTS
  6
BYBLOCK
 62
     0
100
AcDbPoint
 10
785.002232
 20
410.334226
 30
0.0
  0
ENDBLK
  5
4D
100
AcDbEntity
  8
0
100
AcDbBlockEnd
  0
BLOCK
  5
59
100
AcDbEntity
  8
0
100
AcDbBlockBegin
  2
*D3
 70
     1
 10
0.0
 20
0.0
 30
0.0
  3
*D3
  1

  0
LINE
  5
50
100
AcDbEntity
  8
0
  6
BYBLOCK
 62
     4
100
AcDbLine
 10
828.860108
 20
399.559226
 30
0.0
 11
828.860108
 21
378.62743
 31
0.0
  0
LINE
  5
51
100
AcDbEntity
  8
0
  6
BYBLOCK
 62
     4
100
AcDbLine
 10
815.460108
 20
409.334226
 30
0.0
 11
815.460108
 21
378.62743
 31
0.0
  0
LINE
  5
52
100
AcDbEntity
  8
0
  6
BYBLOCK
 62
     4
100
AcDbLine
 10
825.860108
 20
381.12743
 30
0.0
 11
818.460108
 21
381.12743
 31
0.0
  0
SOLID
  5
53
100
AcDbEntity
  8
0
  6
BYBLOCK
 62
     4
100
AcDbTrace
 10
825.860108
 20
381.62743
 30
0.0
 11
825.860108
 21
380.62743
 31
0.0
 12
828.860108
 22
381.12743
 32
0.0
 13
828.860108
 23
381.12743
 33
0.0
  0
SOLID
  5
54
100
AcDbEntity
  8
0
  6
BYBLOCK
 62
     4
100
AcDbTrace
 10
818.460108
 20
381.62743
 30
0.0
 11
818.460108
 21
380.62743
 31
0.0
 12
815.460108
 22
381.12743
 32
0.0
 13
815.460108
 23
381.12743
 33
0.0
  0
MTEXT
  5
55
100
AcDbEntity
  8
0
  6
BYBLOCK
 62
     2
100
AcDbMText
 10
822.160108
 20
384.12743
 30
0.0
 40
3.0
 41
0.0
 71
     5
 72
     1
  1
\A1;13.4
  0
POINT
  5
56
100
AcDbEntity
  8
DEFPOINTS
  6
BYBLOCK
 62
     0
100
AcDbPoint
 10
828.860108
 20
400.559226
 30
0.0
  0
POINT
  5
57
100
AcDbEntity
  8
DEFPOINTS
  6
BYBLOCK
 62
     0
100
AcDbPoint
 10
815.460108
 20
410.334226
 30
0.0
  0
POINT
  5
58
100
AcDbEntity
  8
DEFPOINTS
  6
BYBLOCK
 62
     0
100
AcDbPoint
 10
815.460108
 20
381.12743
 30
0.0
  0
ENDBLK
  5
5A
100
AcDbEntity
  8
0
100
AcDbBlockEnd
  0
BLOCK
  5
1F3
100
AcDbEntity
  8
0
100
AcDbBlockBegin
  2
*D4
 70
     1
 10
0.0
 20
0.0
 30
0.0
  3
*D4
  1

  0
LINE
  5
1E9
100
AcDbEntity
  8
0
  6
BYBLOCK
 62
     4
100
AcDbLine
 10
802.360108
 20
507.059226
 30
0.0
 11
786.183943
 21
507.059226
 31
0.0
  0
LINE
  5
1EA
100
AcDbEntity
  8
0
  6
BYBLOCK
 62
     4
100
AcDbLine
 10
802.360108
 20
499.059226
 30
0.0
 11
786.183943
 21
499.059226
 31
0.0
  0
LINE
  5
1EB
100
AcDbEntity
  8
0
  6
BYBLOCK
 62
     4
100
AcDbLine
 10
788.683943
 20
510.059226
 30
0.0
 11
788.683943
 21
513.059226
 31
0.0
  0
LINE
  5
1EC
100
AcDbEntity
  8
0
  6
BYBLOCK
 62
     4
100
AcDbLine
 10
788.683943
 20
496.059226
 30
0.0
 11
788.683943
 21
469.487798
 31
0.0
  0
SOLID
  5
1ED
100
AcDbEntity
  8
0
  6
BYBLOCK
 62
     4
100
AcDbTrace
 10
788.183943
 20
510.059226
 30
0.0
 11
789.183943
 21
510.059226
 31
0.0
 12
788.683943
 22
507.059226
 32
0.0
 13
788.683943
 23
507.059226
 33
0.0
  0
SOLID
  5
1EE
100
AcDbEntity
  8
0
  6
BYBLOCK
 62
     4
100
AcDbTrace
 10
788.183943
 20
496.059226
 30
0.0
 11
789.183943
 21
496.059226
 31
0.0
 12
788.683943
 22
499.059226
 32
0.0
 13
788.683943
 23
499.059226
 33
0.0
  0
MTEXT
  5
1EF
100
AcDbEntity
  8
0
  6
BYBLOCK
 62
     2
100
AcDbMText
 10
785.683943
 20
481.273512
 30
0.0
 40
3.0
 41
0.0
 71
     5
 72
     1
  1
\A1;\U+22058.00 H7
 11
0.0
 21
1.0
 31
0.0
  0
POINT
  5
1F0
100
AcDbEntity
  8
DEFPOINTS
  6
BYBLOCK
 62
     0
100
AcDbPoint
 10
803.360108
 20
507.059226
 30
0.0
  0
POINT
  5
1F1
100
AcDbEntity
  8
DEFPOINTS
  6
BYBLOCK
 62
     0
100
AcDbPoint
 10
803.360108
 20
499.059226
 30
0.0
  0
POINT
  5
1F2
100
AcDbEntity
  8
DEFPOINTS
  6
BYBLOCK
 62
     0
100
AcDbPoint
 10
788.683943
 20
499.059226
 30
0.0
  0
ENDBLK
  5
1F4
100
AcDbEntity
  8
0
100
AcDbBlockEnd
  0
BLOCK
  5
216
100
AcDbEntity
  8
0
100
AcDbBlockBegin
  2
*D5
 70
     1
 10
0.0
 20
0.0
 30
0.0
  3
*D5
  1

  0
LINE
  5
20D
100
AcDbEntity
  8
0
  6
BYBLOCK
 62
     4
100
AcDbLine
 10
886.360108
 20
412.559226
 30
0.0
 11
924.175225
 21
412.559226
 31
0.0
  0
LINE
  5
20E
100
AcDbEntity
  8
0
  6
BYBLOCK
 62
     4
100
AcDbLine
 10
886.360108
 20
452.559226
 30
0.0
 11
924.175225
 21
452.559226
 31
0.0
  0
LINE
  5
20F
100
AcDbEntity
  8
0
  6
BYBLOCK
 62
     4
100
AcDbLine
 10
921.675225
 20
415.559226
 30
0.0
 11
921.675225
 21
449.559226
 31
0.0
  0
SOLID
  5
210
100
AcDbEntity
  8
0
  6
BYBLOCK
 62
     4
100
AcDbTrace
 10
921.175225
 20
415.559226
 30
0.0
 11
922.175225
 21
415.559226
 31
0.0
 12
921.675225
 22
412.559226
 32
0.0
 13
921.675225
 23
412.559226
 33
0.0
  0
SOLID
  5
211
100
AcDbEntity
  8
0
  6
BYBLOCK
 62
     4
100
AcDbTrace
 10
921.175225
 20
449.559226
 30
0.0
 11
922.175225
 21
449.559226
 31
0.0
 12
921.675225
 22
452.559226
 32
0.0
 13
921.675225
 23
452.559226
 33
0.0
  0
MTEXT
  5
212
100
AcDbEntity
  8
0
  6
BYBLOCK
 62
     2
100
AcDbMText
 10
918.675225
 20
432.559226
 30
0.0
 40
3.0
 41
0.0
 71
     5
 72
     1
  1
\A1;\U+220540.00 H7
 11
0.0
 21
1.0
 31
0.0
  0
POINT
  5
213
100
AcDbEntity
  8
DEFPOINTS
  6
BYBLOCK
 62
     0
100
AcDbPoint
 10
885.360108
 20
412.559226
 30
0.0
  0
POINT
  5
214
100
AcDbEntity
  8
DEFPOINTS
  6
BYBLOCK
 62
     0
100
AcDbPoint
 10
885.360108
 20
452.559226
 30
0.0
  0
POINT
  5
215
100
AcDbEntity
  8
DEFPOINTS
  6
BYBLOCK
 62
     0
100
AcDbPoint
 10
921.675225
 20
452.559226
 30
0.0
  0
ENDBLK
  5
217
100
AcDbEntity
  8
0
100
AcDbBlockEnd
  0
BLOCK
  5
224
100
AcDbEntity
  8
0
100
AcDbBlockBegin
  2
*D6
 70
     1
 10
0.0
 20
0.0
 30
0.0
  3
*D6
  1

  0
LINE
  5
21A
100
AcDbEntity
  8
0
  6
BYBLOCK
 62
     4
100
AcDbLine
 10
835.860108
 20
408.559226
 30
0.0
 11
835.860108
 21
359.779548
 31
0.0
  0
LINE
  5
21B
100
AcDbEntity
  8
0
  6
BYBLOCK
 62
     4
100
AcDbLine
 10
828.860108
 20
399.559226
 30
0.0
 11
828.860108
 21
359.779548
 31
0.0
  0
LINE
  5
21C
100
AcDbEntity
  8
0
  6
BYBLOCK
 62
     4
100
AcDbLine
 10
838.860108
 20
362.279548
 30
0.0
 11
841.860108
 21
362.279548
 31
0.0
  0
LINE
  5
21D
100
AcDbEntity
  8
0
  6
BYBLOCK
 62
     4
100
AcDbLine
 10
825.860108
 20
362.279548
 30
0.0
 11
813.574394
 21
362.279548
 31
0.0
  0
SOLID
  5
21E
100
AcDbEntity
  8
0
  6
BYBLOCK
 62
     4
100
AcDbTrace
 10
838.860108
 20
362.779548
 30
0.0
 11
838.860108
 21
361.779548
 31
0.0
 12
835.860108
 22
362.279548
 32
0.0
 13
835.860108
 23
362.279548
 33
0.0
  0
SOLID
  5
21F
100
AcDbEntity
  8
0
  6
BYBLOCK
 62
     4
100
AcDbTrace
 10
825.860108
 20
362.779548
 30
0.0
 11
825.860108
 21
361.779548
 31
0.0
 12
828.860108
 22
362.279548
 32
0.0
 13
828.860108
 23
362.279548
 33
0.0
  0
MTEXT
  5
220
100
AcDbEntity
  8
0
  6
BYBLOCK
 62
     2
100
AcDbMText
 10
818.217251
 20
365.279548
 30
0.0
 40
3.0
 41
0.0
 71
     5
 72
     1
  1
\A1;7.0
  0
POINT
  5
221
100
AcDbEntity
  8
DEFPOINTS
  6
BYBLOCK
 62
     0
100
AcDbPoint
 10
835.860108
 20
409.559226
 30
0.0
  0
POINT
  5
222
100
AcDbEntity
  8
DEFPOINTS
  6
BYBLOCK
 62
     0
100
AcDbPoint
 10
828.860108
 20
400.559226
 30
0.0
  0
POINT
  5
223
100
AcDbEntity
  8
DEFPOINTS
  6
BYBLOCK
 62
     0
100
AcDbPoint
 10
828.860108
 20
362.279548
 30
0.0
  0
ENDBLK
  5
225
100
AcDbEntity
  8
0
100
AcDbBlockEnd
  0
BLOCK
  5
232
100
AcDbEntity
  8
0
100
AcDbBlockBegin
  2
*D7
 70
     1
 10
0.0
 20
0.0
 30
0.0
  3
*D7
  1

  0
LINE
  5
228
100
AcDbEntity
  8
0
  6
BYBLOCK
 62
     4
100
AcDbLine
 10
882.860108
 20
407.259226
 30
0.0
 11
882.860108
 21
359.779548
 31
0.0
  0
LINE
  5
229
100
AcDbEntity
  8
0
  6
BYBLOCK
 62
     4
100
AcDbLine
 10
889.860108
 20
381.045835
 30
0.0
 11
889.860108
 21
359.779548
 31
0.0
  0
LINE
  5
22A
100
AcDbEntity
  8
0
  6
BYBLOCK
 62
     4
100
AcDbLine
 10
879.860108
 20
362.279548
 30
0.0
 11
876.860108
 21
362.279548
 31
0.0
  0
LINE
  5
22B
100
AcDbEntity
  8
0
  6
BYBLOCK
 62
     4
100
AcDbLine
 10
892.860108
 20
362.279548
 30
0.0
 11
905.145822
 21
362.279548
 31
0.0
  0
SOLID
  5
22C
100
AcDbEntity
  8
0
  6
BYBLOCK
 62
     4
100
AcDbTrace
 10
879.860108
 20
362.779548
 30
0.0
 11
879.860108
 21
361.779548
 31
0.0
 12
882.860108
 22
362.279548
 32
0.0
 13
882.860108
 23
362.279548
 33
0.0
  0
SOLID
  5
22D
100
AcDbEntity
  8
0
  6
BYBLOCK
 62
     4
100
AcDbTrace
 10
892.860108
 20
362.779548
 30
0.0
 11
892.860108
 21
361.779548
 31
0.0
 12
889.860108
 22
362.279548
 32
0.0
 13
889.860108
 23
362.279548
 33
0.0
  0
MTEXT
  5
22E
100
AcDbEntity
  8
0
  6
BYBLOCK
 62
     2
100
AcDbMText
 10
900.502965
 20
365.279548
 30
0.0
 40
3.0
 41
0.0
 71
     5
 72
     1
  1
\A1;7.0
  0
POINT
  5
22F
100
AcDbEntity
  8
DEFPOINTS
  6
BYBLOCK
 62
     0
100
AcDbPoint
 10
882.860108
 20
408.259226
 30
0.0
  0
POINT
  5
230
100
AcDbEntity
  8
DEFPOINTS
  6
BYBLOCK
 62
     0
100
AcDbPoint
 10
889.860108
 20
382.045835
 30
0.0
  0
POINT
  5
231
100
AcDbEntity
  8
DEFPOINTS
  6
BYBLOCK
 62
     0
100
AcDbPoint
 10
889.860108
 20
362.279548
 30
0.0
  0
ENDBLK
  5
233
100
AcDbEntity
  8
0
100
AcDbBlockEnd
  0
BLOCK
  5
23F
100
AcDbEntity
  8
0
100
AcDbBlockBegin
  2
*D8
 70
     1
 10
0.0
 20
0.0
 30
0.0
  3
*D8
  1

  0
LINE
  5
236
100
AcDbEntity
  8
0
  6
BYBLOCK
 62
     4
100
AcDbLine
 10
835.860108
 20
408.559226
 30
0.0
 11
835.860108
 21
359.779548
 31
0.0
  0
LINE
  5
237
100
AcDbEntity
  8
0
  6
BYBLOCK
 62
     4
100
AcDbLine
 10
882.860108
 20
407.259226
 30
0.0
 11
882.860108
 21
359.779548
 31
0.0
  0
LINE
  5
238
100
AcDbEntity
  8
0
  6
BYBLOCK
 62
     4
100
AcDbLine
 10
838.860108
 20
362.279548
 30
0.0
 11
879.860108
 21
362.279548
 31
0.0
  0
SOLID
  5
239
100
AcDbEntity
  8
0
  6
BYBLOCK
 62
     4
100
AcDbTrace
 10
838.860108
 20
362.779548
 30
0.0
 11
838.860108
 21
361.779548
 31
0.0
 12
835.860108
 22
362.279548
 32
0.0
 13
835.860108
 23
362.279548
 33
0.0
  0
SOLID
  5
23A
100
AcDbEntity
  8
0
  6
BYBLOCK
 62
     4
100
AcDbTrace
 10
879.860108
 20
362.779548
 30
0.0
 11
879.860108
 21
361.779548
 31
0.0
 12
882.860108
 22
362.279548
 32
0.0
 13
882.860108
 23
362.279548
 33
0.0
  0
MTEXT
  5
23B
100
AcDbEntity
  8
0
  6
BYBLOCK
 62
     2
100
AcDbMText
 10
859.360108
 20
365.279548
 30
0.0
 40
3.0
 41
0.0
 71
     5
 72
     1
  1
\A1;47.00
  0
POINT
  5
23C
100
AcDbEntity
  8
DEFPOINTS
  6
BYBLOCK
 62
     0
100
AcDbPoint
 10
835.860108
 20
409.559226
 30
0.0
  0
POINT
  5
23D
100
AcDbEntity
  8
DEFPOINTS
  6
BYBLOCK
 62
     0
100
AcDbPoint
 10
882.860108
 20
408.259226
 30
0.0
  0
POINT
  5
23E
100
AcDbEntity
  8
DEFPOINTS
  6
BYBLOCK
 62
     0
100
AcDbPoint
 10
882.860108
 20
362.279548
 30
0.0
  0
ENDBLK
  5
240
100
AcDbEntity
  8
0
100
AcDbBlockEnd
  0
BLOCK
  5
2D6
100
AcDbEntity
  8
0
100
AcDbBlockBegin
  2
*D9
 70
     1
 10
0.0
 20
0.0
 30
0.0
  3
*D9
  1

  0
LINE
  5
2CD
100
AcDbEntity
  8
0
  6
BYBLOCK
 62
     4
100
AcDbLine
 10
713.947241
 20
407.559226
 30
0.0
 11
757.204196
 21
407.559226
 31
0.0
  0
LINE
  5
2CE
100
AcDbEntity
  8
0
  6
BYBLOCK
 62
     4
100
AcDbLine
 10
713.947241
 20
457.559226
 30
0.0
 11
757.204196
 21
457.559226
 31
0.0
  0
LINE
  5
2CF
100
AcDbEntity
  8
0
  6
BYBLOCK
 62
     4
100
AcDbLine
 10
754.704196
 20
410.559226
 30
0.0
 11
754.704196
 21
454.559226
 31
0.0
  0
SOLID
  5
2D0
100
AcDbEntity
  8
0
  6
BYBLOCK
 62
     4
100
AcDbTrace
 10
754.204196
 20
410.559226
 30
0.0
 11
755.204196
 21
410.559226
 31
0.0
 12
754.704196
 22
407.559226
 32
0.0
 13
754.704196
 23
407.559226
 33
0.0
  0
SOLID
  5
2D1
100
AcDbEntity
  8
0
  6
BYBLOCK
 62
     4
100
AcDbTrace
 10
754.204196
 20
454.559226
 30
0.0
 11
755.204196
 21
454.559226
 31
0.0
 12
754.704196
 22
457.559226
 32
0.0
 13
754.704196
 23
457.559226
 33
0.0
  0
MTEXT
  5
2D2
100
AcDbEntity
  8
0
  6
BYBLOCK
 62
     2
100
AcDbMText
 10
751.704196
 20
432.559226
 30
0.0
 40
3.0
 41
0.0
 71
     5
 72
     1
  1
\A1;W=50.00
 11
0.0
 21
1.0
 31
0.0
  0
POINT
  5
2D3
100
AcDbEntity
  8
DEFPOINTS
  6
BYBLOCK
 62
     0
100
AcDbPoint
 10
712.947241
 20
407.559226
 30
0.0
  0
POINT
  5
2D4
100
AcDbEntity
  8
DEFPOINTS
  6
BYBLOCK
 62
     0
100
AcDbPoint
 10
712.947241
 20
457.559226
 30
0.0
  0
POINT
  5
2D5
100
AcDbEntity
  8
DEFPOINTS
  6
BYBLOCK
 62
     0
100
AcDbPoint
 10
754.704196
 20
457.559226
 30
0.0
  0
ENDBLK
  5
2D7
100
AcDbEntity
  8
0
100
AcDbBlockEnd
  0
BLOCK
  5
2E3
100
AcDbEntity
  8
0
100
AcDbBlockBegin
  2
*D10
 70
     1
 10
0.0
 20
0.0
 30
0.0
  3
*D10
  1

  0
LINE
  5
2DA
100
AcDbEntity
  8
0
  6
BYBLOCK
 62
     4
100
AcDbLine
 10
385.947241
 20
411.559226
 30
0.0
 11
385.947241
 21
337.696619
 31
0.0
  0
LINE
  5
2DB
100
AcDbEntity
  8
0
  6
BYBLOCK
 62
     4
100
AcDbLine
 10
724.947241
 20
411.559226
 30
0.0
 11
724.947241
 21
337.696619
 31
0.0
  0
LINE
  5
2DC
100
AcDbEntity
  8
0
  6
BYBLOCK
 62
     4
100
AcDbLine
 10
388.947241
 20
340.196619
 30
0.0
 11
721.947241
 21
340.196619
 31
0.0
  0
SOLID
  5
2DD
100
AcDbEntity
  8
0
  6
BYBLOCK
 62
     4
100
AcDbTrace
 10
388.947241
 20
340.696619
 30
0.0
 11
388.947241
 21
339.696619
 31
0.0
 12
385.947241
 22
340.196619
 32
0.0
 13
385.947241
 23
340.196619
 33
0.0
  0
SOLID
  5
2DE
100
AcDbEntity
  8
0
  6
BYBLOCK
 62
     4
100
AcDbTrace
 10
721.947241
 20
340.696619
 30
0.0
 11
721.947241
 21
339.696619
 31
0.0
 12
724.947241
 22
340.196619
 32
0.0
 13
724.947241
 23
340.196619
 33
0.0
  0
MTEXT
  5
2DF
100
AcDbEntity
  8
0
  6
BYBLOCK
 62
     2
100
AcDbMText
 10
555.447241
 20
343.196619
 30
0.0
 40
3.0
 41
0.0
 71
     5
 72
     1
  1
\A1;L=339.00
  0
POINT
  5
2E0
100
AcDbEntity
  8
DEFPOINTS
  6
BYBLOCK
 62
     0
100
AcDbPoint
 10
385.947241
 20
412.559226
 30
0.0
  0
POINT
  5
2E1
100
AcDbEntity
  8
DEFPOINTS
  6
BYBLOCK
 62
     0
100
AcDbPoint
 10
724.947241
 20
412.559226
 30
0.0
  0
POINT
  5
2E2
100
AcDbEntity
  8
DEFPOINTS
  6
BYBLOCK
 62
     0
100
AcDbPoint
 10
724.947241
 20
340.196619
 30
0.0
  0
ENDBLK
  5
2E4
100
AcDbEntity
  8
0
100
AcDbBlockEnd
  0
BLOCK
  5
2F0
100
AcDbEntity
  8
0
100
AcDbBlockBegin
  2
*D11
 70
     1
 10
0.0
 20
0.0
 30
0.0
  3
*D11
  1

  0
LINE
  5
2E7
100
AcDbEntity
  8
0
  6
BYBLOCK
 62
     4
100
AcDbLine
 10
417.947241
 20
414.860422
 30
0.0
 11
417.947241
 21
354.472053
 31
0.0
  0
LINE
  5
2E8
100
AcDbEntity
  8
0
  6
BYBLOCK
 62
     4
100
AcDbLine
 10
692.947241
 20
414.846007
 30
0.0
 11
692.947241
 21
354.472053
 31
0.0
  0
LINE
  5
2E9
100
AcDbEntity
  8
0
  6
BYBLOCK
 62
     4
100
AcDbLine
 10
420.947241
 20
356.972053
 30
0.0
 11
689.947241
 21
356.972053
 31
0.0
  0
SOLID
  5
2EA
100
AcDbEntity
  8
0
  6
BYBLOCK
 62
     4
100
AcDbTrace
 10
420.947241
 20
357.472053
 30
0.0
 11
420.947241
 21
356.472053
 31
0.0
 12
417.947241
 22
356.972053
 32
0.0
 13
417.947241
 23
356.972053
 33
0.0
  0
SOLID
  5
2EB
100
AcDbEntity
  8
0
  6
BYBLOCK
 62
     4
100
AcDbTrace
 10
689.947241
 20
357.472053
 30
0.0
 11
689.947241
 21
356.472053
 31
0.0
 12
692.947241
 22
356.972053
 32
0.0
 13
692.947241
 23
356.972053
 33
0.0
  0
MTEXT
  5
2EC
100
AcDbEntity
  8
0
  6
BYBLOCK
 62
     2
100
AcDbMText
 10
555.447241
 20
359.972053
 30
0.0
 40
3.0
 41
0.0
 71
     5
 72
     1
  1
\A1;A=275.00
  0
POINT
  5
2ED
100
AcDbEntity
  8
DEFPOINTS
  6
BYBLOCK
 62
     0
100
AcDbPoint
 10
417.947241
 20
415.860422
 30
0.0
  0
POINT
  5
2EE
100
AcDbEntity
  8
DEFPOINTS
  6
BYBLOCK
 62
     0
100
AcDbPoint
 10
692.947241
 20
415.846007
 30
0.0
  0
POINT
  5
2EF
100
AcDbEntity
  8
DEFPOINTS
  6
BYBLOCK
 62
     0
100
AcDbPoint
 10
692.947241
 20
356.972053
 30
0.0
  0
ENDBLK
  5
2F1
100
AcDbEntity
  8
0
100
AcDbBlockEnd
  0
BLOCK
  5
2FD
100
AcDbEntity
  8
0
100
AcDbBlockBegin
  2
*D12
 70
     1
 10
0.0
 20
0.0
 30
0.0
  3
*D12
  1

  0
LINE
  5
2F4
100
AcDbEntity
  8
0
  6
BYBLOCK
 62
     4
100
AcDbLine
 10
417.947241
 20
414.860422
 30
0.0
 11
417.947241
 21
364.526785
 31
0.0
  0
LINE
  5
2F5
100
AcDbEntity
  8
0
  6
BYBLOCK
 62
     4
100
AcDbLine
 10
555.447241
 20
391.559226
 30
0.0
 11
555.447241
 21
364.526785
 31
0.0
  0
LINE
  5
2F6
100
AcDbEntity
  8
0
  6
BYBLOCK
 62
     4
100
AcDbLine
 10
420.947241
 20
367.026785
 30
0.0
 11
552.447241
 21
367.026785
 31
0.0
  0
SOLID
  5
2F7
100
AcDbEntity
  8
0
  6
BYBLOCK
 62
     4
100
AcDbTrace
 10
420.947241
 20
367.526785
 30
0.0
 11
420.947241
 21
366.526785
 31
0.0
 12
417.947241
 22
367.026785
 32
0.0
 13
417.947241
 23
367.026785
 33
0.0
  0
SOLID
  5
2F8
100
AcDbEntity
  8
0
  6
BYBLOCK
 62
     4
100
AcDbTrace
 10
552.447241
 20
367.526785
 30
0.0
 11
552.447241
 21
366.526785
 31
0.0
 12
555.447241
 22
367.026785
 32
0.0
 13
555.447241
 23
367.026785
 33
0.0
  0
MTEXT
  5
2F9
100
AcDbEntity
  8
0
  6
BYBLOCK
 62
     2
100
AcDbMText
 10
494.679792
 20
370.812499
 30
0.0
 40
3.0
 41
0.0
 71
     5
 72
     1
  1
\A1;A/2=137.50
  0
POINT
  5
2FA
100
AcDbEntity
  8
DEFPOINTS
  6
BYBLOCK
 62
     0
100
AcDbPoint
 10
417.947241
 20
415.860422
 30
0.0
  0
POINT
  5
2FB
100
AcDbEntity
  8
DEFPOINTS
  6
BYBLOCK
 62
     0
100
AcDbPoint
 10
555.447241
 20
392.559226
 30
0.0
  0
POINT
  5
2FC
100
AcDbEntity
  8
DEFPOINTS
  6
BYBLOCK
 62
     0
100
AcDbPoint
 10
555.447241
 20
367.026785
 30
0.0
  0
ENDBLK
  5
2FE
100
AcDbEntity
  8
0
100
AcDbBlockEnd
  0
ENDSEC
  0
SECTION
  2
ENTITIES
  0
HATCH
  5
20
100
AcDbEntity
  8
HATCH
100
AcDbHatch
 10
0.0
 20
0.0
 30
0.0
210
0.0
220
0.0
230
1.0
  2
_U
 70
     0
 71
     1
 91
        3
 92
        7
 72
     1
 73
     1
 93
       30
 10
757.9352139304887
 20
496.559226081063
 42
0.0
 10
751.9352139304886
 20
496.559226081063
 42
0.0
 10
751.9352139304886
 20
442.7592260810633
 42
0.0
 10
752.6352139304888
 20
442.059226081063
 42
0.0
 10
755.9352139304888
 20
442.059226081063
 42
0.0
 10
756.9352139304887
 20
442.059226081063
 42
0.0
 10
756.9352139304887
 20
441.0592260810631
 42
0.0
 10
756.9352139304887
 20
432.5592260810631
 42
0.0
 10
771.4352139304885
 20
432.5592260810631
 42
-0.4142135623730951
 10
775.4352139304885
 20
436.5592260810631
 42
0.0
 10
788.9352139304886
 20
436.559226081063
 42
0.0
 10
788.9352139304886
 20
441.559226081063
 42
0.0
 10
788.9352139304886
 20
442.5592260810629
 42
0.0
 10
789.9352139304887
 20
442.5592260810629
 42
0.0
 10
798.4352139304887
 20
442.5592260810629
 42
0.0
 10
798.9352139304885
 20
443.059226081063
 42
0.0
 10
798.9352139304885
 20
455.5592260810632
 42
0.0
 10
791.6352139304884
 20
455.5592260810632
 42
0.0
 10
789.1352139304886
 20
455.5592260810631
 42
0.0
 10
789.1352139304885
 20
456.2592260810633
 42
0.0
 10
787.6352139304885
 20
456.2592260810633
 42
0.0
 10
786.3073083113524
 20
458.5592260810631
 42
0.0
 10
787.6352139304887
 20
460.8592260810632
 42
0.0
 10
789.1352139304886
 20
460.8592260810632
 42
0.0
 10
789.1352139304887
 20
461.5592260810633
 42
0.0
 10
791.6352139304883
 20
461.5592260810632
 42
0.0
 10
798.9352139304886
 20
461.5592260810632
 42
0.0
 10
798.9352139304885
 20
506.559226081063
 42
0.0
 10
796.9352139304882
 20
508.5592260810631
 42
0.0
 10
757.9352139304886
 20
508.5592260810631
 42
0.0
 97
       29
330
488
330
48D
330
356
330
47C
330
48E
330
5E
330
89
330
7F
330
7E
330
8A
330
45E
330
459
330
417
330
439
330
436
330
435
330
43B
330
42A
330
1A8
330
1BB
330
1A4
330
1B1
330
1A5
330
1AF
330
1AE
330
1A7
330
1A6
330
1BC
330
48B
 92
        7
 72
     1
 73
     1
 93
       28
 10
771.4352139304885
 20
432.5592260810631
 42
0.0
 10
756.9352139304887
 20
432.5592260810631
 42
0.0
 10
756.9352139304887
 20
424.0592260810631
 42
0.0
 10
756.9352139304887
 20
423.0592260810631
 42
0.0
 10
755.9352139304888
 20
423.0592260810631
 42
0.0
 10
752.6352139304888
 20
423.0592260810631
 42
0.0
 10
751.9352139304888
 20
422.3592260810632
 42
0.0
 10
751.9352139304888
 20
419.0592260810631
 42
0.0
 10
755.9352139304886
 20
419.0592260810631
 42
-0.4142135623730868
 10
759.9352139304885
 20
415.0592260810631
 42
-0.4142135623730951
 10
755.9352139304885
 20
411.0592260810631
 42
0.0
 10
751.9352139304888
 20
411.0592260810631
 42
0.0
 10
751.9352139304888
 20
409.5592260810631
 42
0.0
 10
753.9352139304887
 20
407.5592260810632
 42
0.0
 10
796.9352139304885
 20
407.5592260810632
 42
0.0
 10
798.9352139304885
 20
409.5592260810631
 42
0.0
 10
798.9352139304885
 20
411.0592260810631
 42
0.0
 10
794.9352139304886
 20
411.0592260810631
 42
-0.4142135623730951
 10
790.9352139304886
 20
415.0592260810631
 42
-0.4142135623730951
 10
794.9352139304886
 20
419.0592260810631
 42
0.0
 10
798.9352139304885
 20
419.0592260810631
 42
0.0
 10
798.9352139304886
 20
422.0592260810633
 42
0.0
 10
798.4352139304887
 20
422.559226081063
 42
0.0
 10
789.9352139304887
 20
422.5592260810631
 42
0.0
 10
788.9352139304886
 20
422.5592260810633
 42
0.0
 10
788.9352139304886
 20
423.5592260810632
 42
0.0
 10
788.9352139304886
 20
428.5592260810631
 42
0.0
 10
775.4352139304885
 20
428.5592260810631
 42
-0.4142135623730951
 97
       24
330
413
330
459
330
45E
330
8A
330
77
330
78
330
88
330
5C
330
48E
330
197
330
199
330
196
330
48A
330
48C
330
487
330
429
330
194
330
198
330
195
330
428
330
43A
330
433
330
434
330
439
 92
       24
 93
        4
 72
     1
 10
767.013708
 20
415.402793
 11
781.556565
 21
415.402793
 72
     1
 10
781.556565
 20
415.402793
 11
781.556565
 21
418.402793
 72
     1
 10
781.556565
 20
418.402793
 11
767.013708
 21
418.402793
 72
     1
 10
767.013708
 20
418.402793
 11
767.013708
 21
415.402793
 97
        1
330
26E
 75
     0
 76
     0
 52
45.0
 41
6.0
 77
     0
 78
     1
 53
45.0
 43
-83.924894
 44
0.0
 45
-4.242640687119284
 46
4.242640687119285
 79
     0
 47
0.176225
 98
        2
 10
770.226658
 20
491.077946
 10
767.758495
 20
424.641286
  0
HATCH
  5
21
100
AcDbEntity
  8
HATCH
100
AcDbHatch
 10
0.0
 20
0.0
 30
0.0
210
0.0
220
0.0
230
1.0
  2
_U
 70
     0
 71
     1
 91
        4
 92
        7
 72
     0
 73
     1
 93
        4
 10
319.0223464366321
 20
230.0138856722446
 10
319.0223464366322
 20
233.0138856722446
 10
304.0223464366322
 20
233.0138856722446
 10
304.0223464366322
 20
230.0138856722447
 97
        4
330
402
330
3F8
330
3F6
330
29F
 92
        7
 72
     0
 73
     1
 93
        4
 10
349.0223464366322
 20
233.0138856722446
 10
349.0223464366322
 20
230.0138856722446
 10
436.5223464366321
 20
230.0138856722446
 10
436.522346436632
 20
233.0138856722447
 97
        4
330
402
330
29E
330
272
330
3C5
 92
        7
 72
     0
 73
     1
 93
        4
 10
506.5223464366324
 20
233.0138856722447
 10
506.5223464366323
 20
230.0138856722446
 10
594.0223464366322
 20
230.0138856722447
 10
594.0223464366322
 20
233.0138856722446
 97
        4
330
169
330
3E7
330
3C3
330
3BB
 92
        7
 72
     0
 73
     1
 93
        4
 10
624.0223464366322
 20
233.0138856722446
 10
624.0223464366322
 20
230.0138856722446
 10
639.0223464366321
 20
230.0138856722446
 10
639.0223464366321
 20
233.0138856722446
 97
        4
330
3BA
330
3AF
330
3F7
330
169
 75
     0
 76
     0
 52
135.0
 41
0.8
 77
     0
 78
     1
 53
135.0
 43
-83.924894
 44
0.0
 45
-0.5656854249492382
 46
-0.565685424949238
 79
     0
 47
0.35392
 98
        4
 10
313.879764
 20
231.302255
 10
358.846168
 20
231.656176
 10
566.328946
 20
232.010096
 10
628.290526
 20
231.656176
  0
HATCH
  5
22
100
AcDbEntity
  8
HATCH
100
AcDbHatch
 10
0.0
 20
0.0
 30
0.0
210
0.0
220
0.0
230
1.0
  2
_U
 70
     0
 71
     1
 91
        4
 92
        7
 72
     0
 73
     1
 93
        4
 10
304.0223464366322
 20
283.0138856722446
 10
304.0223464366321
 20
280.0138856722446
 10
316.0223464366322
 20
280.0138856722446
 10
316.0223464366321
 20
283.0138856722446
 97
        4
330
3F9
330
3FB
330
403
330
EE
 92
        7
 72
     0
 73
     1
 93
        4
 10
448.2973464366322
 20
280.0138856722446
 10
448.2973464366321
 20
283.0138856722446
 10
352.0223464366321
 20
283.0138856722446
 10
352.0223464366322
 20
280.0138856722447
 97
        4
330
3F9
330
ED
330
403
330
8D
 92
        7
 72
     0
 73
     1
 93
        4
 10
494.7473464366322
 20
283.0138856722447
 10
494.7473464366323
 20
280.0138856722446
 10
591.0223464366322
 20
280.0138856722446
 10
591.0223464366323
 20
283.0138856722447
 97
        4
330
3F4
330
3F5
330
403
330
EB
 92
        7
 72
     0
 73
     1
 93
        4
 10
627.0223464366322
 20
283.0138856722446
 10
627.0223464366321
 20
280.0138856722447
 10
639.0223464366322
 20
280.0138856722446
 10
639.022346436632
 20
283.0138856722447
 97
        4
330
3F4
330
EC
330
403
330
3FA
 75
     0
 76
     0
 52
135.0
 41
0.8
 77
     0
 78
     1
 53
135.0
 43
-83.924894
 44
0.0
 45
-0.5656854249492382
 46
-0.565685424949238
 79
     0
 47
0.35392
 98
        4
 10
314.23383
 20
281.558912
 10
356.721772
 20
281.204992
 10
504.367366
 20
281.558912
 10
636.434049
 20
281.912832
  0
HATCH
  5
23
100
AcDbEntity
  8
HATCH
100
AcDbHatch
 10
0.0
 20
0.0
 30
0.0
210
0.0
220
0.0
230
1.0
  2
_U
 70
     0
 71
     1
 91
        1
 92
        7
 72
     0
 73
     1
 93
        4
 10
748.9352139304885
 20
455.7842260810631
 10
751.9352139304888
 20
455.7842260810629
 10
751.9352139304886
 20
496.559226081063
 10
748.9352139304883
 20
496.5592260810631
 97
        4
330
47B
330
480
330
45B
330
48E
 75
     0
 76
     0
 52
135.0
 41
0.8
 77
     0
 78
     1
 53
135.0
 43
-83.924894
 44
0.0
 45
-0.5656854249492382
 46
-0.565685424949238
 79
     0
 47
0.219508
 98
        1
 10
749.924349
 20
482.547827
  0
HATCH
  5
24
100
AcDbEntity
  8
HATCH
100
AcDbHatch
 10
0.0
 20
0.0
 30
0.0
210
0.0
220
0.0
230
1.0
  2
_U
 70
     0
 71
     1
 91
       21
 92
        7
 72
     1
 73
     1
 93
       39
 10
330.0223464366322
 20
256.5138856722445
 42
0.0
 10
330.0223464366322
 20
280.0138856722446
 42
0.0
 10
315.0223464366321
 20
280.0138856722446
 42
0.0
 10
315.0223464366322
 20
276.0138856722448
 42
-1.0
 10
307.0223464366322
 20
276.0138856722448
 42
0.0
 10
307.0223464366321
 20
280.0138856722446
 42
0.0
 10
304.0223464366322
 20
280.0138856722446
 42
0.0
 10
302.0223464366322
 20
278.0138856722446
 42
0.0
 10
302.0223464366322
 20
235.0138856722446
 42
0.0
 10
304.0223464366321
 20
233.0138856722446
 42
0.0
 10
307.0223464366322
 20
233.0138856722447
 42
0.0
 10
307.0223464366322
 20
237.0138856722445
 42
-1.0
 10
315.0223464366322
 20
237.0138856722445
 42
0.0
 10
315.0223464366322
 20
233.0138856722447
 42
0.0
 10
320.0223464366322
 20
233.0138856722446
 42
0.0
 10
320.0223464366322
 20
233.3138856722445
 42
0.0
 10
320.7223464366323
 20
234.0138856722446
 42
0.0
 10
347.3223464366322
 20
234.0138856722446
 42
0.0
 10
348.0223464366321
 20
233.3138856722445
 42
0.0
 10
348.0223464366321
 20
233.0138856722447
 42
0.0
 10
442.5223464366322
 20
233.0138856722447
 42
0.0
 10
442.5223464366322
 20
240.3138856722446
 42
0.0
 10
442.5223464366322
 20
242.8138856722444
 42
0.0
 10
443.2223464366322
 20
242.8138856722445
 42
0.0
 10
443.2223464366322
 20
244.3138856722444
 42
0.0
 10
445.5223464366323
 20
245.6417912913807
 42
0.0
 10
447.8223464366322
 20
244.3138856722444
 42
0.0
 10
447.8223464366322
 20
242.8138856722444
 42
0.0
 10
448.5223464366321
 20
242.8138856722444
 42
0.0
 10
448.5223464366322
 20
240.3138856722447
 42
0.0
 10
448.5223464366322
 20
233.0138856722447
 42
0.0
 10
461.0223464366324
 20
233.0138856722447
 42
0.0
 10
461.5223464366322
 20
233.5138856722443
 42
0.0
 10
461.5223464366322
 20
242.0138856722445
 42
0.0
 10
461.5223464366324
 20
243.0138856722445
 42
0.0
 10
462.5223464366323
 20
243.0138856722445
 42
0.0
 10
467.5223464366322
 20
243.0138856722445
 42
0.0
 10
467.5223464366322
 20
252.5138856722445
 42
0.0
 10
334.0223464366322
 20
252.5138856722445
 42
-0.4142135623730951
 97
       34
330
403
330
138
330
13A
330
139
330
3FE
330
401
330
3FF
330
402
330
130
330
131
330
12F
330
29B
330
29A
330
2A0
330
295
330
296
330
164
330
14F
330
159
330
150
330
156
330
157
330
14E
330
14D
330
163
330
3E1
330
3F1
330
3EA
330
3EB
330
3F0
330
3CD
330
3A3
330
3A6
330
3A5
 92
        7
 72
     0
 73
     1
 93
        9
 10
471.5223464366322
 20
260.5138856722445
 10
471.5223464366322
 20
275.0138856722446
 10
463.0223464366323
 20
275.0138856722447
 10
462.0223464366323
 20
275.0138856722447
 10
462.0223464366323
 20
276.0138856722447
 10
462.0223464366323
 20
279.3138856722446
 10
461.3223464366323
 20
280.0138856722446
 10
338.0223464366322
 20
280.0138856722446
 10
338.0223464366323
 20
260.5138856722446
 97
        9
330
BA
330
A7
330
A8
330
B8
330
90
330
403
330
3A4
330
3AA
330
405
 92
        7
 72
     0
 73
     1
 93
        9
 10
605.0223464366322
 20
260.5138856722445
 10
605.0223464366323
 20
280.0138856722447
 10
481.7223464366323
 20
280.0138856722447
 10
481.0223464366323
 20
279.3138856722445
 10
481.0223464366323
 20
276.0138856722446
 10
481.0223464366323
 20
275.0138856722446
 10
480.0223464366323
 20
275.0138856722446
 10
471.5223464366322
 20
275.0138856722446
 10
471.5223464366322
 20
260.5138856722445
 97
        9
330
403
330
91
330
B9
330
AF
330
AE
330
BA
330
405
330
3AA
330
3AC
 92
        7
 72
     1
 73
     1
 93
       39
 10
495.2223464366322
 20
244.3138856722444
 42
0.0
 10
497.5223464366322
 20
245.6417912913806
 42
0.0
 10
499.8223464366321
 20
244.3138856722445
 42
0.0
 10
499.8223464366321
 20
242.8138856722445
 42
0.0
 10
500.5223464366322
 20
242.8138856722444
 42
0.0
 10
500.5223464366322
 20
240.3138856722447
 42
0.0
 10
500.5223464366322
 20
233.0138856722447
 42
0.0
 10
595.0223464366322
 20
233.0138856722446
 42
0.0
 10
595.0223464366321
 20
233.3138856722445
 42
0.0
 10
595.7223464366323
 20
234.0138856722445
 42
0.0
 10
622.322346436632
 20
234.0138856722446
 42
0.0
 10
623.0223464366321
 20
233.3138856722446
 42
0.0
 10
623.022346436632
 20
233.0138856722446
 42
0.0
 10
628.0223464366323
 20
233.0138856722446
 42
0.0
 10
628.0223464366322
 20
237.0138856722444
 42
-1.0
 10
636.0223464366322
 20
237.0138856722445
 42
0.0
 10
636.0223464366322
 20
233.0138856722446
 42
0.0
 10
639.0223464366322
 20
233.0138856722445
 42
0.0
 10
641.0223464366322
 20
235.0138856722445
 42
0.0
 10
641.0223464366322
 20
278.0138856722446
 42
0.0
 10
639.0223464366322
 20
280.0138856722446
 42
0.0
 10
636.0223464366322
 20
280.0138856722446
 42
0.0
 10
636.0223464366322
 20
276.0138856722448
 42
-1.0
 10
628.0223464366322
 20
276.0138856722448
 42
0.0
 10
628.0223464366321
 20
280.0138856722446
 42
0.0
 10
613.0223464366322
 20
280.0138856722446
 42
0.0
 10
613.0223464366322
 20
256.5138856722445
 42
-0.4142135623730951
 10
609.0223464366322
 20
252.5138856722445
 42
0.0
 10
475.5223464366322
 20
252.5138856722445
 42
0.0
 10
475.5223464366323
 20
243.0138856722444
 42
0.0
 10
480.5223464366321
 20
243.0138856722444
 42
0.0
 10
481.522346436632
 20
243.0138856722444
 42
0.0
 10
481.522346436632
 20
242.0138856722444
 42
0.0
 10
481.522346436632
 20
233.5138856722443
 42
0.0
 10
482.0223464366319
 20
233.0138856722447
 42
0.0
 10
494.5223464366322
 20
233.0138856722447
 42
0.0
 10
494.5223464366322
 20
240.3138856722446
 42
0.0
 10
494.5223464366322
 20
242.8138856722444
 42
0.0
 10
495.2223464366323
 20
242.8138856722444
 42
0.0
 97
       35
330
173
330
16D
330
176
330
16C
330
181
330
169
330
3B7
330
3B6
330
3BC
330
3B1
330
3B2
330
141
330
143
330
142
330
3FC
330
400
330
3FD
330
403
330
14B
330
14C
330
14A
330
3AD
330
3AE
330
3AB
330
3D1
330
3F0
330
3ED
330
3EC
330
3F2
330
3E2
330
3C6
330
180
330
16A
330
16B
330
174
 92
       22
 72
     0
 73
     1
 93
        4
 10
595.0223464366321
 20
233.0138856722446
 10
595.0223464366322
 20
233.3138856722446
 10
600.8634644491753
 20
233.3138856722446
 10
601.1634644491753
 20
233.0138856722446
 97
        4
330
3B0
330
3B7
330
169
330
2BF
 92
       22
 72
     0
 73
     1
 93
        4
 10
595.0223464366322
 20
233.3138856722446
 10
595.7223464366323
 20
234.0138856722446
 10
600.1634644491749
 20
234.0138856722446
 10
600.8634644491752
 20
233.3138856722445
 97
        4
330
3BC
330
3B6
330
3B0
330
2B3
 92
       23
 72
     0
 73
     1
 93
        4
 10
600.8634644491751
 20
233.3138856722446
 10
609.0223464366322
 20
233.3138856722446
 10
609.0223464366322
 20
234.0138856722446
 10
600.163464449175
 20
234.0138856722446
 97
        4
330
3BC
330
2B3
330
3B0
330
3BE
 92
       23
 72
     0
 73
     1
 93
        4
 10
601.163464449175
 20
233.0138856722447
 10
609.0223464366321
 20
233.0138856722446
 10
609.0223464366321
 20
233.3138856722446
 10
600.8634644491752
 20
233.3138856722446
 97
        4
330
3B0
330
2BF
330
169
330
3BE
 92
       23
 72
     0
 73
     1
 93
        4
 10
609.0223464366322
 20
233.0138856722446
 10
616.8812284240893
 20
233.0138856722447
 10
617.1812284240892
 20
233.3138856722446
 10
609.0223464366324
 20
233.3138856722446
 97
        4
330
3B0
330
3BE
330
169
330
2C1
 92
       23
 72
     0
 73
     1
 93
        4
 10
609.0223464366322
 20
233.3138856722446
 10
617.1812284240894
 20
233.3138856722446
 10
617.8812284240893
 20
234.0138856722446
 10
609.0223464366322
 20
234.0138856722446
 97
        4
330
3BC
330
3BE
330
3B0
330
2B4
 92
       23
 72
     0
 73
     1
 93
        4
 10
617.1812284240894
 20
233.3138856722446
 10
623.0223464366321
 20
233.3138856722446
 10
622.322346436632
 20
234.0138856722446
 10
617.8812284240895
 20
234.0138856722446
 97
        4
330
3BC
330
2B4
330
3B0
330
3B1
 92
       23
 72
     0
 73
     1
 93
        4
 10
616.8812284240893
 20
233.0138856722446
 10
623.0223464366322
 20
233.0138856722446
 10
623.0223464366321
 20
233.3138856722446
 10
617.1812284240893
 20
233.3138856722446
 97
        4
330
3B0
330
2C1
330
169
330
3B2
 92
       22
 72
     0
 73
     1
 93
        4
 10
320.0223464366322
 20
233.0138856722447
 10
320.0223464366322
 20
233.3138856722446
 10
325.8634644491753
 20
233.3138856722446
 10
326.1634644491752
 20
233.0138856722446
 97
        4
330
294
330
29B
330
402
330
28C
 92
       22
 72
     0
 73
     1
 93
        4
 10
320.0223464366322
 20
233.3138856722446
 10
320.7223464366322
 20
234.0138856722446
 10
325.163464449175
 20
234.0138856722446
 10
325.8634644491751
 20
233.3138856722446
 97
        4
330
2A0
330
29A
330
294
330
281
 92
       23
 72
     0
 73
     1
 93
        4
 10
325.8634644491751
 20
233.3138856722446
 10
334.0223464366322
 20
233.3138856722446
 10
334.0223464366323
 20
234.0138856722446
 10
325.163464449175
 20
234.0138856722446
 97
        4
330
2A0
330
281
330
294
330
2A2
 92
        7
 72
     0
 73
     1
 93
        4
 10
326.1634644491752
 20
233.0138856722446
 10
334.0223464366323
 20
233.0138856722446
 10
334.0223464366323
 20
233.3138856722446
 10
325.8634644491753
 20
233.3138856722446
 97
        4
330
294
330
28C
330
402
330
2A2
 92
       23
 72
     0
 73
     1
 93
        4
 10
334.0223464366323
 20
233.0138856722447
 10
341.8812284240893
 20
233.0138856722447
 10
342.1812284240893
 20
233.3138856722446
 10
334.0223464366322
 20
233.3138856722446
 97
        4
330
294
330
2A2
330
402
330
28E
 92
       23
 72
     0
 73
     1
 93
        4
 10
334.0223464366322
 20
233.3138856722446
 10
342.1812284240893
 20
233.3138856722446
 10
342.8812284240894
 20
234.0138856722446
 10
334.0223464366322
 20
234.0138856722446
 97
        4
330
2A0
330
2A2
330
294
330
282
 92
       22
 72
     0
 73
     1
 93
        4
 10
348.0223464366296
 20
233.3138856722446
 10
342.1812284240893
 20
233.3138856722445
 10
342.8812284240894
 20
234.0138856722446
 10
347.3223464366322
 20
234.0138856722445
 97
        4
330
2A0
330
282
330
294
330
295
 92
       23
 72
     0
 73
     1
 93
        4
 10
341.8812284240894
 20
233.0138856722447
 10
348.0223464366322
 20
233.0138856722447
 10
348.0223464366322
 20
233.3138856722446
 10
342.1812284240893
 20
233.3138856722446
 97
        4
330
294
330
28E
330
402
330
296
 92
       24
 93
        4
 72
     1
 10
619.273516
 20
251.141172
 11
633.816373
 21
251.141172
 72
     1
 10
633.816373
 20
251.141172
 11
633.816373
 21
254.141172
 72
     1
 10
633.816373
 20
254.141172
 11
619.273516
 21
254.141172
 72
     1
 10
619.273516
 20
254.141172
 11
619.273516
 21
251.141172
 97
        1
330
26C
 75
     0
 76
     0
 52
45.0
 41
6.0
 77
     0
 78
     1
 53
45.0
 43
-83.924894
 44
0.0
 45
-4.242640687119284
 46
4.242640687119285
 79
     0
 47
0.040491
 98
       20
 10
339.818908
 20
263.221276
 10
381.038493
 20
266.727877
 10
505.866601
 20
268.188962
 10
490.957388
 20
245.396044
 10
573.763202
 20
233.192818
 10
573.763202
 20
233.563333
 10
577.046265
 20
233.669194
 10
577.311028
 20
233.192818
 10
586.101162
 20
233.192818
 10
586.312973
 20
233.457471
 10
596.16216
 20
233.616263
 10
594.467677
 20
233.139886
 10
349.589275
 20
233.134644
 10
349.548766
 20
233.539552
 10
352.181755
 20
233.661025
 10
352.343785
 20
233.134644
 10
360.647831
 20
233.134644
 10
360.850368
 20
233.49906
 10
368.222741
 20
233.539552
 10
368.101217
 20
233.094153
  0
DIMENSION
  5
25
100
AcDbEntity
  8
DIMS
100
AcDbDimension
  2
*D0
 10
726.535214
 20
470.100271
 30
0.0
 11
737.233798
 21
470.100271
 31
0.0
 12
-71.424894
 22
0.0
 32
0.0
 70
   128
  3
DIM1
100
AcDbAlignedDimension
 13
751.935214
 23
455.784226
 33
0.0
 14
726.535214
 24
454.784226
 34
0.0
100
AcDbRotatedDimension
1001
ACAD
1000
DSTYLE
1002
{
1070
   288
1070
     1
1070
   144
1040
1.0
1002
}
  0
DIMENSION
  5
34
100
AcDbEntity
  8
DIMS
100
AcDbDimension
  2
*D1
 10
703.536106
 20
455.784226
 30
0.0
 11
703.536106
 21
433.864678
 31
0.0
 12
-71.424894
 22
0.0
 32
0.0
 70
   128
  1
%%c46.5
  3
DIM1
100
AcDbAlignedDimension
 13
732.112564
 23
409.334226
 33
0.0
 14
732.112564
 24
455.784226
 34
0.0
 50
90.0
100
AcDbRotatedDimension
1001
ACAD
1000
DSTYLE
1002
{
1070
   288
1070
     1
1070
   144
1040
1.0
1002
}
  0
DIMENSION
  5
41
100
AcDbEntity
  8
DIMS
100
AcDbDimension
  2
*D2
 10
713.577338
 20
410.334226
 30
0.0
 11
713.577338
 21
433.524437
 31
0.0
 12
-71.424894
 22
0.0
 32
0.0
 70
   128
  1
%%c<> H7
  3
DIM1
100
AcDbAlignedDimension
 13
726.535214
 23
454.784226
 33
0.0
 14
726.535214
 24
410.334226
 34
0.0
 50
90.0
100
AcDbRotatedDimension
1001
ACAD
1000
DSTYLE
1002
{
1070
   288
1070
     1
1070
   144
1040
1.0
1002
}
  0
DIMENSION
  5
4E
100
AcDbEntity
  8
DIMS
100
AcDbDimension
  2
*D3
 10
731.535214
 20
381.12743
 30
0.0
 11
738.235214
 21
381.12743
 31
0.0
 12
-83.924894
 22
0.0
 32
0.0
 70
   128
  1
13.4
  3
DIM1
100
AcDbAlignedDimension
 13
744.935214
 23
400.559226
 33
0.0
 14
731.535214
 24
410.334226
 34
0.0
100
AcDbRotatedDimension
1001
ACAD
1000
DSTYLE
1002
{
1070
   288
1070
     1
1070
   144
1040
1.0
1002
}
  0
POINT
  5
5B
100
AcDbEntity
  8
DEFPOINTS
  6
BYBLOCK
 62
     0
100
AcDbPoint
 10
751.935214
 20
432.559226
 30
0.0
  0
LINE
  5
5C
102
{ACAD_REACTORS
330
20
102
}
100
AcDbEntity
  8
M04
100
AcDbLine
 10
751.935214
 20
422.359226
 30
0.0
 11
752.635214
 21
423.059226
 31
0.0
  0
LINE
  5
5E
102
{ACAD_REACTORS
330
20
102
}
100
AcDbEntity
  8
M04
100
AcDbLine
 10
751.935214
 20
442.759226
 30
0.0
 11
752.635214
 21
442.059226
 31
0.0
  0
LINE
  5
5F
100
AcDbEntity
  8
M03
100
AcDbLine
 10
744.535214
 20
434.859226
 30
0.0
 11
756.935214
 21
434.859226
 31
0.0
  0
LINE
  5
62
100
AcDbEntity
  8
M03
100
AcDbLine
 10
744.535214
 20
430.259226
 30
0.0
 11
756.935214
 21
430.259226
 31
0.0
  0
LINE
  5
63
100
AcDbEntity
  8
M03
100
AcDbLine
 10
744.535214
 20
429.559226
 30
0.0
 11
756.935214
 21
429.559226
 31
0.0
  0
LINE
  5
64
100
AcDbEntity
  8
M03
100
AcDbLine
 10
744.535214
 20
435.559226
 30
0.0
 11
756.935214
 21
435.559226
 31
0.0
  0
ARC
  5
65
100
AcDbEntity
  8
M03
100
AcDbCircle
 10
739.535214
 20
421.059226
 30
0.0
 40
5.0
100
AcDbArc
 50
270.0
 51
0.0
  0
ARC
  5
66
100
AcDbEntity
  8
M03
100
AcDbCircle
 10
739.535214
 20
444.059226
 30
0.0
 40
5.0
100
AcDbArc
 50
0.0
 51
90.0
  0
LINE
  5
67
100
AcDbEntity
  8
M03
100
AcDbLine
 10
726.535214
 20
416.059226
 30
0.0
 11
739.535214
 21
416.059226
 31
0.0
  0
LINE
  5
68
100
AcDbEntity
  8
M03
100
AcDbLine
 10
726.535214
 20
449.059226
 30
0.0
 11
739.535214
 21
449.059226
 31
0.0
  0
LINE
  5
69
100
AcDbEntity
  8
M03
100
AcDbLine
 10
744.535214
 20
444.059226
 30
0.0
 11
744.535214
 21
421.059226
 31
0.0
  0
LINE
  5
6A
100
AcDbEntity
  8
M05
100
AcDbLine
 10
751.235214
 20
410.834226
 30
0.0
 11
751.235214
 21
454.284226
 31
0.0
  0
LINE
  5
6C
100
AcDbEntity
  8
M05
100
AcDbLine
 10
751.935214
 20
453.584226
 30
0.0
 11
751.235214
 21
454.284226
 31
0.0
  0
LINE
  5
6D
100
AcDbEntity
  8
M05
100
AcDbLine
 10
751.235214
 20
410.834226
 30
0.0
 11
751.935214
 21
411.534226
 31
0.0
  0
LINE
  5
6E
100
AcDbEntity
  8
M05
100
AcDbLine
 10
731.535214
 20
410.834226
 30
0.0
 11
751.235214
 21
410.834226
 31
0.0
  0
LINE
  5
6F
100
AcDbEntity
  8
M04
100
AcDbLine
 10
732.112564
 20
409.334226
 30
0.0
 11
732.112564
 21
410.834226
 31
0.0
  0
LINE
  5
70
100
AcDbEntity
  8
M04
100
AcDbLine
 10
732.112564
 20
409.334226
 30
0.0
 11
744.935214
 21
409.334226
 31
0.0
  0
LINE
  5
71
100
AcDbEntity
  8
M04
100
AcDbLine
 10
731.535214
 20
410.334226
 30
0.0
 11
732.112564
 21
409.334226
 31
0.0
  0
LINE
  5
72
100
AcDbEntity
  8
M04
100
AcDbLine
 10
727.535214
 20
410.334226
 30
0.0
 11
726.535214
 21
410.334226
 31
0.0
  0
LINE
  5
73
100
AcDbEntity
  8
M04
100
AcDbLine
 10
726.535214
 20
411.334226
 30
0.0
 11
726.535214
 21
410.334226
 31
0.0
  0
LINE
  5
74
100
AcDbEntity
  8
M05
100
AcDbLine
 10
726.535214
 20
411.334226
 30
0.0
 11
727.535214
 21
410.334226
 31
0.0
  0
LINE
  5
75
100
AcDbEntity
  8
M05
100
AcDbLine
 10
727.535214
 20
410.334226
 30
0.0
 11
731.535214
 21
410.334226
 31
0.0
  0
LINE
  5
76
100
AcDbEntity
  8
M05
100
AcDbLine
 10
731.535214
 20
454.284226
 30
0.0
 11
751.235214
 21
454.284226
 31
0.0
  0
LINE
  5
77
102
{ACAD_REACTORS
330
20
102
}
100
AcDbEntity
  8
M04
100
AcDbLine
 10
756.935214
 20
424.059226
 30
0.0
 11
756.935214
 21
423.059226
 31
0.0
  0
LINE
  5
78
102
{ACAD_REACTORS
330
20
102
}
100
AcDbEntity
  8
M04
100
AcDbLine
 10
755.935214
 20
423.059226
 30
0.0
 11
756.935214
 21
423.059226
 31
0.0
  0
LINE
  5
79
100
AcDbEntity
  8
M04
100
AcDbLine
 10
732.112564
 20
455.784226
 30
0.0
 11
732.112564
 21
454.284226
 31
0.0
  0
LINE
  5
7A
100
AcDbEntity
  8
M04
100
AcDbLine
 10
732.112564
 20
455.784226
 30
0.0
 11
744.935214
 21
455.784226
 31
0.0
  0
LINE
  5
7B
100
AcDbEntity
  8
M04
100
AcDbLine
 10
731.535214
 20
454.784226
 30
0.0
 11
732.112564
 21
455.784226
 31
0.0
  0
LINE
  5
7C
100
AcDbEntity
  8
M04
100
AcDbLine
 10
727.535214
 20
454.784226
 30
0.0
 11
726.535214
 21
454.784226
 31
0.0
  0
LINE
  5
7D
100
AcDbEntity
  8
M04
100
AcDbLine
 10
726.535214
 20
453.784226
 30
0.0
 11
726.535214
 21
454.784226
 31
0.0
  0
LINE
  5
7E
102
{ACAD_REACTORS
330
20
102
}
100
AcDbEntity
  8
M04
100
AcDbLine
 10
756.935214
 20
441.059226
 30
0.0
 11
756.935214
 21
442.059226
 31
0.0
  0
LINE
  5
7F
102
{ACAD_REACTORS
330
20
102
}
100
AcDbEntity
  8
M04
100
AcDbLine
 10
755.935214
 20
442.059226
 30
0.0
 11
756.935214
 21
442.059226
 31
0.0
  0
LINE
  5
80
100
AcDbEntity
  8
M05
100
AcDbLine
 10
755.935214
 20
423.059226
 30
0.0
 11
755.935214
 21
442.059226
 31
0.0
  0
LINE
  5
81
100
AcDbEntity
  8
M05
100
AcDbLine
 10
727.535214
 20
410.334226
 30
0.0
 11
727.535214
 21
454.784226
 31
0.0
  0
LINE
  5
82
100
AcDbEntity
  8
M05
100
AcDbLine
 10
756.935214
 20
424.059226
 30
0.0
 11
755.935214
 21
423.059226
 31
0.0
  0
LINE
  5
83
100
AcDbEntity
  8
M05
100
AcDbLine
 10
755.935214
 20
442.059226
 30
0.0
 11
756.935214
 21
441.059226
 31
0.0
  0
LINE
  5
84
100
AcDbEntity
  8
M05
100
AcDbLine
 10
726.535214
 20
453.784226
 30
0.0
 11
727.535214
 21
454.784226
 31
0.0
  0
LINE
  5
85
100
AcDbEntity
  8
M05
100
AcDbLine
 10
727.535214
 20
454.784226
 30
0.0
 11
731.535214
 21
454.784226
 31
0.0
  0
LINE
  5
86
100
AcDbEntity
  8
M05
100
AcDbLine
 10
731.535214
 20
454.784226
 30
0.0
 11
731.535214
 21
410.334226
 31
0.0
  0
LINE
  5
87
100
AcDbEntity
  8
M05
100
AcDbLine
 10
726.535214
 20
453.784226
 30
0.0
 11
726.535214
 21
411.334226
 31
0.0
  0
LINE
  5
88
102
{ACAD_REACTORS
330
20
102
}
100
AcDbEntity
  8
M05
100
AcDbLine
 10
751.935214
 20
423.059226
 30
0.0
 11
755.935214
 21
423.059226
 31
0.0
  0
LINE
  5
89
102
{ACAD_REACTORS
330
20
102
}
100
AcDbEntity
  8
M05
100
AcDbLine
 10
751.935214
 20
442.059226
 30
0.0
 11
755.935214
 21
442.059226
 31
0.0
  0
LINE
  5
8A
102
{ACAD_REACTORS
330
20
102
}
100
AcDbEntity
  8
M05
100
AcDbLine
 10
756.935214
 20
441.059226
 30
0.0
 11
756.935214
 21
424.059226
 31
0.0
  0
TEXT
  5
8B
100
AcDbEntity
  8
TEXT
100
AcDbText
 10
477.23372
 20
282.734612
 30
0.0
 40
2.0
  1
MA010002
 41
0.9
100
AcDbText
  0
LINE
  5
8D
102
{ACAD_REACTORS
330
22
102
}
100
AcDbEntity
  8
M02
100
AcDbLine
 10
448.297346
 20
283.013886
 30
0.0
 11
448.297346
 21
280.013886
 31
0.0
  0
POINT
  5
8F
100
AcDbEntity
  8
DEFPOINTS
  6
BYBLOCK
 62
     0
100
AcDbPoint
 10
471.522346
 20
280.013886
 30
0.0
  0
LINE
  5
90
102
{ACAD_REACTORS
330
24
102
}
100
AcDbEntity
  8
M04
100
AcDbLine
 10
461.322346
 20
280.013886
 30
0.0
 11
462.022346
 21
279.313886
 31
0.0
  0
LINE
  5
91
102
{ACAD_REACTORS
330
24
102
}
100
AcDbEntity
  8
M04
100
AcDbLine
 10
481.722346
 20
280.013886
 30
0.0
 11
481.022346
 21
279.313886
 31
0.0
  0
LINE
  5
92
100
AcDbEntity
  8
M03
100
AcDbLine
 10
473.822346
 20
287.413886
 30
0.0
 11
473.822346
 21
275.013886
 31
0.0
  0
LINE
  5
93
100
AcDbEntity
  8
M03
100
AcDbLine
 10
469.222346
 20
287.413886
 30
0.0
 11
469.222346
 21
275.013886
 31
0.0
  0
LINE
  5
94
100
AcDbEntity
  8
M03
100
AcDbLine
 10
468.522346
 20
287.413886
 30
0.0
 11
468.522346
 21
275.013886
 31
0.0
  0
LINE
  5
95
100
AcDbEntity
  8
M03
100
AcDbLine
 10
474.522346
 20
287.413886
 30
0.0
 11
474.522346
 21
275.013886
 31
0.0
  0
ARC
  5
96
100
AcDbEntity
  8
M03
100
AcDbCircle
 10
460.022346
 20
292.413886
 30
0.0
 40
5.0
100
AcDbArc
 50
180.0
 51
270.0
  0
ARC
  5
97
100
AcDbEntity
  8
M03
100
AcDbCircle
 10
483.022346
 20
292.413886
 30
0.0
 40
5.0
100
AcDbArc
 50
270.0
 51
0.0
  0
LINE
  5
98
100
AcDbEntity
  8
M03
100
AcDbLine
 10
455.022346
 20
305.413886
 30
0.0
 11
455.022346
 21
292.413886
 31
0.0
  0
LINE
  5
99
100
AcDbEntity
  8
M03
100
AcDbLine
 10
488.022346
 20
305.413886
 30
0.0
 11
488.022346
 21
292.413886
 31
0.0
  0
LINE
  5
9A
100
AcDbEntity
  8
M03
100
AcDbLine
 10
483.022346
 20
287.413886
 30
0.0
 11
460.022346
 21
287.413886
 31
0.0
  0
LINE
  5
9B
100
AcDbEntity
  8
M05
100
AcDbLine
 10
449.797346
 20
280.713886
 30
0.0
 11
493.247346
 21
280.713886
 31
0.0
  0
LINE
  5
9C
100
AcDbEntity
  8
M05
100
AcDbLine
 10
492.547346
 20
280.013886
 30
0.0
 11
493.247346
 21
280.713886
 31
0.0
  0
LINE
  5
9D
100
AcDbEntity
  8
M05
100
AcDbLine
 10
449.797346
 20
280.713886
 30
0.0
 11
450.497346
 21
280.013886
 31
0.0
  0
LINE
  5
9E
100
AcDbEntity
  8
M05
100
AcDbLine
 10
449.797346
 20
300.413886
 30
0.0
 11
449.797346
 21
280.713886
 31
0.0
  0
LINE
  5
9F
100
AcDbEntity
  8
M04
100
AcDbLine
 10
448.297346
 20
299.836535
 30
0.0
 11
449.797346
 21
299.836535
 31
0.0
  0
LINE
  5
A0
100
AcDbEntity
  8
M04
100
AcDbLine
 10
448.297346
 20
299.836535
 30
0.0
 11
448.297346
 21
287.013886
 31
0.0
  0
LINE
  5
A1
100
AcDbEntity
  8
M04
100
AcDbLine
 10
449.297346
 20
300.413886
 30
0.0
 11
448.297346
 21
299.836535
 31
0.0
  0
LINE
  5
A2
100
AcDbEntity
  8
M04
100
AcDbLine
 10
449.297346
 20
304.413886
 30
0.0
 11
449.297346
 21
305.413886
 31
0.0
  0
LINE
  5
A3
100
AcDbEntity
  8
M04
100
AcDbLine
 10
450.297346
 20
305.413886
 30
0.0
 11
449.297346
 21
305.413886
 31
0.0
  0
LINE
  5
A4
100
AcDbEntity
  8
M05
100
AcDbLine
 10
450.297346
 20
305.413886
 30
0.0
 11
449.297346
 21
304.413886
 31
0.0
  0
LINE
  5
A5
100
AcDbEntity
  8
M05
100
AcDbLine
 10
449.297346
 20
304.413886
 30
0.0
 11
449.297346
 21
300.413886
 31
0.0
  0
LINE
  5
A6
100
AcDbEntity
  8
M05
100
AcDbLine
 10
493.247346
 20
300.413886
 30
0.0
 11
493.247346
 21
280.713886
 31
0.0
  0
LINE
  5
A7
102
{ACAD_REACTORS
330
24
102
}
100
AcDbEntity
  8
M04
100
AcDbLine
 10
463.022346
 20
275.013886
 30
0.0
 11
462.022346
 21
275.013886
 31
0.0
  0
LINE
  5
A8
102
{ACAD_REACTORS
330
24
102
}
100
AcDbEntity
  8
M04
100
AcDbLine
 10
462.022346
 20
276.013886
 30
0.0
 11
462.022346
 21
275.013886
 31
0.0
  0
LINE
  5
A9
100
AcDbEntity
  8
M04
100
AcDbLine
 10
494.747346
 20
299.836535
 30
0.0
 11
493.247346
 21
299.836535
 31
0.0
  0
LINE
  5
AA
100
AcDbEntity
  8
M04
100
AcDbLine
 10
494.747346
 20
299.836535
 30
0.0
 11
494.747346
 21
287.013886
 31
0.0
  0
LINE
  5
AB
100
AcDbEntity
  8
M04
100
AcDbLine
 10
493.747346
 20
300.413886
 30
0.0
 11
494.747346
 21
299.836535
 31
0.0
  0
LINE
  5
AC
100
AcDbEntity
  8
M04
100
AcDbLine
 10
493.747346
 20
304.413886
 30
0.0
 11
493.747346
 21
305.413886
 31
0.0
  0
LINE
  5
AD
100
AcDbEntity
  8
M04
100
AcDbLine
 10
492.747346
 20
305.413886
 30
0.0
 11
493.747346
 21
305.413886
 31
0.0
  0
LINE
  5
AE
102
{ACAD_REACTORS
330
24
102
}
100
AcDbEntity
  8
M04
100
AcDbLine
 10
480.022346
 20
275.013886
 30
0.0
 11
481.022346
 21
275.013886
 31
0.0
  0
LINE
  5
AF
102
{ACAD_REACTORS
330
24
102
}
100
AcDbEntity
  8
M04
100
AcDbLine
 10
481.022346
 20
276.013886
 30
0.0
 11
481.022346
 21
275.013886
 31
0.0
  0
LINE
  5
B0
100
AcDbEntity
  8
M05
100
AcDbLine
 10
462.022346
 20
276.013886
 30
0.0
 11
481.022346
 21
276.013886
 31
0.0
  0
LINE
  5
B1
100
AcDbEntity
  8
M05
100
AcDbLine
 10
449.297346
 20
304.413886
 30
0.0
 11
493.747346
 21
304.413886
 31
0.0
  0
LINE
  5
B2
100
AcDbEntity
  8
M05
100
AcDbLine
 10
463.022346
 20
275.013886
 30
0.0
 11
462.022346
 21
276.013886
 31
0.0
  0
LINE
  5
B3
100
AcDbEntity
  8
M05
100
AcDbLine
 10
481.022346
 20
276.013886
 30
0.0
 11
480.022346
 21
275.013886
 31
0.0
  0
LINE
  5
B4
100
AcDbEntity
  8
M05
100
AcDbLine
 10
492.747346
 20
305.413886
 30
0.0
 11
493.747346
 21
304.413886
 31
0.0
  0
LINE
  5
B5
100
AcDbEntity
  8
M05
100
AcDbLine
 10
493.747346
 20
304.413886
 30
0.0
 11
493.747346
 21
300.413886
 31
0.0
  0
LINE
  5
B6
100
AcDbEntity
  8
M05
100
AcDbLine
 10
493.747346
 20
300.413886
 30
0.0
 11
449.297346
 21
300.413886
 31
0.0
  0
LINE
  5
B7
100
AcDbEntity
  8
M05
100
AcDbLine
 10
492.747346
 20
305.413886
 30
0.0
 11
450.297346
 21
305.413886
 31
0.0
  0
LINE
  5
B8
102
{ACAD_REACTORS
330
24
102
}
100
AcDbEntity
  8
M05
100
AcDbLine
 10
462.022346
 20
280.013886
 30
0.0
 11
462.022346
 21
276.013886
 31
0.0
  0
LINE
  5
B9
102
{ACAD_REACTORS
330
24
102
}
100
AcDbEntity
  8
M05
100
AcDbLine
 10
481.022346
 20
280.013886
 30
0.0
 11
481.022346
 21
276.013886
 31
0.0
  0
LINE
  5
BA
102
{ACAD_REACTORS
330
24
102
}
100
AcDbEntity
  8
M05
100
AcDbLine
 10
480.022346
 20
275.013886
 30
0.0
 11
463.022346
 21
275.013886
 31
0.0
  0
HATCH
  5
BB
100
AcDbEntity
  8
HATCH
100
AcDbHatch
 10
0.0
 20
0.0
 30
0.0
210
0.0
220
0.0
230
1.0
  2
_U
 70
     0
 71
     1
 91
        2
 92
        7
 72
     1
 73
     1
 93
        2
 10
307.0223464366322
 20
276.0138856722448
 42
1.0
 10
315.0223464366322
 20
276.0138856722448
 42
1.0
 97
        1
330
13A
 92
        7
 72
     1
 73
     1
 93
        2
 10
307.0223464366322
 20
237.0138856722445
 42
1.0
 10
315.0223464366322
 20
237.0138856722445
 42
1.0
 97
        1
330
131
 75
     0
 76
     0
 52
45.0
 41
0.8
 77
     0
 78
     1
 53
45.0
 43
-133.924894
 44
-14.472589
 45
-0.565685424949238
 46
0.565685424949238
 79
     0
 47
0.251927
 98
        2
 10
309.559244
 20
277.784946
 10
312.583617
 20
238.988148
  0
HATCH
  5
BC
100
AcDbEntity
  8
HATCH
100
AcDbHatch
 10
0.0
 20
0.0
 30
0.0
210
0.0
220
0.0
230
1.0
  2
_U
 70
     0
 71
     0
 91
        2
 92
        7
 72
     1
 73
     1
 93
        2
 10
628.0223464366322
 20
276.0138856722448
 42
1.0
 10
636.0223464366322
 20
276.0138856722448
 42
1.0
 97
        0
 92
        7
 72
     1
 73
     1
 93
        2
 10
628.0223464366322
 20
237.0138856722445
 42
1.0
 10
636.0223464366322
 20
237.0138856722445
 42
1.0
 97
        0
 75
     0
 76
     0
 52
45.0
 41
0.8
 77
     0
 78
     1
 53
45.0
 43
-33.924894
 44
-14.472589
 45
-0.565685424949238
 46
0.565685424949238
 79
     0
 47
0.251927
 98
        2
 10
633.362973
 20
277.533019
 10
633.867035
 20
237.980438
  0
HATCH
  5
BD
100
AcDbEntity
  8
HATCH
100
AcDbHatch
 10
0.0
 20
0.0
 30
0.0
210
0.0
220
0.0
230
1.0
  2
_U
 70
     0
 71
     0
 91
       16
 92
        7
 72
     1
 73
     1
 93
        5
 10
471.5223464366322
 20
452.5592260810632
 42
0.0
 10
471.5223464366322
 20
453.0592260810632
 42
-0.1856631955229143
 10
467.837007692065
 20
454.4765457926017
 42
0.3157147729334966
 10
449.6602645366849
 20
436.5592260810632
 42
0.0
 10
451.9264284943668
 20
436.5592260810632
 42
-0.3563939586925999
 97
        0
 92
       22
 72
     1
 73
     1
 93
        4
 10
471.5223464366322
 20
452.5592260810632
 42
0.3563939586925999
 10
451.9264284943668
 20
436.5592260810632
 42
0.0
 10
462.9055024668251
 20
436.5592260810632
 42
-0.2919418509678903
 10
471.5223464366322
 20
442.0592260810632
 42
0.0
 97
        0
 92
        6
 72
     1
 73
     1
 93
        3
 10
471.5223464366322
 20
442.0592260810632
 42
0.2919418509678903
 10
462.9055024668251
 20
436.5592260810632
 42
0.0
 10
471.5223464366322
 20
436.5592260810632
 42
0.0
 97
        0
 92
        7
 72
     1
 73
     1
 93
        4
 10
471.5223464366322
 20
436.5592260810632
 42
0.0
 10
462.9055024668251
 20
436.5592260810632
 42
0.1090809576248918
 10
462.0223464366322
 20
432.5592260810632
 42
0.0
 10
467.5223464366322
 20
432.5592260810632
 42
-0.4142135623730992
 97
        0
 92
       22
 72
     1
 73
     1
 93
        3
 10
471.5223464366322
 20
436.5592260810632
 42
0.4142135623730992
 10
467.5223464366322
 20
432.5592260810632
 42
0.0
 10
471.5223464366324
 20
432.5592260810631
 42
0.0
 97
        0
 92
        7
 72
     1
 73
     1
 93
        4
 10
462.9055024668251
 20
436.5592260810632
 42
0.0
 10
451.9264284943668
 20
436.5592260810632
 42
0.0503820444848851
 10
451.5223464366322
 20
432.5592260810632
 42
0.0
 10
462.0223464366322
 20
432.5592260810632
 42
-0.1090809576248918
 97
        0
 92
        7
 72
     1
 73
     1
 93
        5
 10
451.9264284943668
 20
436.5592260810632
 42
0.0
 10
449.6602645366849
 20
436.5592260810632
 42
0.003593667114849
 10
449.6050267250938
 20
436.2445648256303
 42
-0.1856631955229133
 10
451.0223464366322
 20
432.5592260810632
 42
0.0
 10
451.5223464366322
 20
432.5592260810632
 42
-0.0503820444848851
 97
        0
 92
        7
 72
     1
 73
     1
 93
        3
 10
449.6050267250938
 20
436.2445648256303
 42
0.0416713391594355
 10
449.2973464366322
 20
432.5592260810632
 42
0.0
 10
451.0223464366322
 20
432.5592260810632
 42
0.1856631955229133
 97
        0
 92
       22
 72
     1
 73
     1
 93
        3
 10
475.5223464366322
 20
432.5592260810632
 42
0.0
 10
471.5223464366324
 20
432.5592260810632
 42
0.0
 10
471.5223464366324
 20
428.5592260810632
 42
0.4142135623730826
 97
        0
 92
        7
 72
     1
 73
     1
 93
        4
 10
481.0223464366322
 20
432.5592260810632
 42
0.0
 10
475.5223464366322
 20
432.5592260810632
 42
-0.4142135623730909
 10
471.5223464366322
 20
428.5592260810632
 42
0.0
 10
480.1391904064392
 20
428.5592260810632
 42
0.1090809576248888
 97
        0
 92
        6
 72
     1
 73
     1
 93
        3
 10
480.1391904064392
 20
428.5592260810632
 42
0.0
 10
471.5223464366322
 20
428.5592260810632
 42
0.0
 10
471.5223464366322
 20
423.0592260810632
 42
0.2919418509678903
 97
        0
 92
       22
 72
     1
 73
     1
 93
        4
 10
491.1182643788976
 20
428.5592260810632
 42
0.0
 10
480.1391904064392
 20
428.5592260810632
 42
-0.2919418509678903
 10
471.5223464366322
 20
423.0592260810632
 42
0.0
 10
471.5223464366322
 20
412.5592260810632
 42
0.3563939586925999
 97
        0
 92
        7
 72
     1
 73
     1
 93
        4
 10
491.5223464366322
 20
432.5592260810632
 42
0.0
 10
481.0223464366322
 20
432.5592260810632
 42
-0.1090809576248888
 10
480.1391904064392
 20
428.5592260810632
 42
0.0
 10
491.1182643788976
 20
428.5592260810632
 42
0.0503820444848837
 97
        0
 92
        7
 72
     1
 73
     1
 93
        5
 10
492.0223464366322
 20
432.5592260810632
 42
0.0
 10
491.5223464366322
 20
432.5592260810632
 42
-0.0503820444848837
 10
491.1182643788976
 20
428.5592260810632
 42
0.0
 10
493.3844283365795
 20
428.5592260810632
 42
0.003593667114849
 10
493.4396661481706
 20
428.8738873364961
 42
-0.185663195522908
 97
        0
 92
        7
 72
     1
 73
     1
 93
        3
 10
493.7473464366322
 20
432.5592260810632
 42
0.0
 10
492.0223464366322
 20
432.5592260810632
 42
0.185663195522908
 10
493.4396661481706
 20
428.8738873364961
 42
0.0416713391594342
 97
        0
 92
        7
 72
     1
 73
     1
 93
        4
 10
493.3844283365795
 20
428.5592260810632
 42
0.0
 10
491.1182643788976
 20
428.5592260810632
 42
-0.3563939586925999
 10
471.5223464366322
 20
412.5592260810632
 42
0.0
 10
471.5223464366322
 20
410.3342260810632
 42
0.3621506593782504
 97
        0
 75
     0
 76
     0
 52
45.0
 41
2.0
 77
     1
 78
     2
 53
45.0
 43
-83.924894
 44
0.0
 45
-1.414213562373094
 46
1.414213562373095
 79
     0
 53
135.0
 43
-83.924894
 44
0.0
 45
-1.414213562373095
 46
-1.414213562373094
 79
     0
 47
0.113412
 98
       16
 10
459.206192
 20
449.879146
 10
460.908067
 20
446.023152
 10
469.077072
 20
439.672104
 10
466.013694
 20
435.022228
 10
470.211656
 20
434.681993
 10
458.979275
 20
434.568582
 10
450.923729
 20
435.929521
 10
450.356438
 20
433.888112
 10
473.842325
 20
430.485764
 10
477.813367
 20
430.599175
 10
474.523075
 20
426.176123
 10
481.557495
 20
424.47495
 10
485.301622
 20
430.258941
 10
491.882209
 20
429.691883
 10
493.357168
 20
430.939411
 10
491.995668
 20
424.928596
  0
HATCH
  5
BE
100
AcDbEntity
  8
M03
100
AcDbHatch
 10
0.0
 20
0.0
 30
0.0
210
0.0
220
0.0
230
1.0
  2
_U
 70
     0
 71
     0
 91
        1
 92
        7
 72
     0
 73
     1
 93
        4
 10
352.2152836434472
 20
411.4592260810629
 10
322.9768242288118
 20
411.459226081063
 10
322.9768242288117
 20
409.5592260810629
 10
352.2152836434473
 20
409.5592260810629
 97
        0
 75
     0
 76
     0
 52
330.0
 41
0.7
 77
     0
 78
     1
 53
330.0
 43
-138.924894
 44
7.0
 45
0.3500000000000003
 46
0.6062177826491069
 79
     0
 47
0.060863
 98
        1
 10
348.524112
 20
410.271795
  0
HATCH
  5
BF
100
AcDbEntity
  8
M03
100
AcDbHatch
 10
0.0
 20
0.0
 30
0.0
210
0.0
220
0.0
230
1.0
  2
_U
 70
     0
 71
     0
 91
        1
 92
        7
 72
     0
 73
     1
 93
        4
 10
352.2152836434473
 20
411.4592260810629
 10
322.9768242288117
 20
411.4592260810629
 10
322.9768242288117
 20
409.5592260810628
 10
352.2152836434473
 20
409.5592260810629
 97
        0
 75
     0
 76
     0
 52
30.0
 41
0.7
 77
     0
 78
     1
 53
30.0
 43
-138.924894
 44
7.0
 45
-0.3499999999999999
 46
0.6062177826491072
 79
     0
 47
0.060863
 98
        1
 10
348.341448
 20
410.515247
  0
LINE
  5
C0
100
AcDbEntity
  8
M01
100
AcDbLine
 10
792.923226
 20
566.794894
 30
0.0
 11
794.902934
 21
568.001623
 31
0.0
  0
LINE
  5
C2
100
AcDbEntity
  8
M01
100
AcDbLine
 10
800.657193
 20
578.248121
 30
0.0
 11
800.657193
 21
586.822933
 31
0.0
  0
LINE
  5
C3
100
AcDbEntity
  8
M01
100
AcDbLine
 10
796.657193
 20
578.248121
 30
0.0
 11
796.657193
 21
586.822933
 31
0.0
  0
ARC
  5
C4
100
AcDbEntity
  8
M01
100
AcDbCircle
 10
788.657193
 20
578.248121
 30
0.0
 40
12.0
100
AcDbArc
 50
301.364349
 51
0.0
  0
ARC
  5
C5
100
AcDbEntity
  8
M01
100
AcDbCircle
 10
788.657193
 20
578.248121
 30
0.0
 40
8.0
100
AcDbArc
 50
308.846454
 51
0.0
  0
LINE
  5
C6
100
AcDbEntity
  8
M01
100
AcDbLine
 10
779.291865
 20
563.170441
 30
0.0
 11
789.519277
 21
569.404549
 31
0.0
  0
LINE
  5
C7
100
AcDbEntity
  8
M01
100
AcDbLine
 10
781.373779
 20
559.754942
 30
0.0
 11
781.697311
 21
559.952151
 31
0.0
  0
LINE
  5
C8
100
AcDbEntity
  8
M01
100
AcDbLine
 10
779.935214
 20
552.752534
 30
0.0
 11
779.935214
 21
552.159226
 31
0.0
  0
LINE
  5
C9
100
AcDbEntity
  8
M01
100
AcDbLine
 10
775.935214
 20
557.193317
 30
0.0
 11
775.935214
 21
554.467473
 31
0.0
  0
ARC
  5
CA
100
AcDbEntity
  8
M01
100
AcDbCircle
 10
782.935214
 20
557.193317
 30
0.0
 40
3.0
100
AcDbArc
 50
121.364349
 51
151.672691
  0
ARC
  5
CB
100
AcDbEntity
  8
M01
100
AcDbCircle
 10
782.935214
 20
557.193317
 30
0.0
 40
7.0
100
AcDbArc
 50
121.364349
 51
180.0
  0
ARC
  5
CC
100
AcDbEntity
  8
M01
100
AcDbCircle
 10
782.935214
 20
552.159226
 30
0.0
 40
7.0
100
AcDbArc
 50
202.678679
 51
270.0
  0
ARC
  5
CD
100
AcDbEntity
  8
M01
100
AcDbCircle
 10
782.935214
 20
552.159226
 30
0.0
 40
3.0
100
AcDbArc
 50
180.0
 51
270.0
  0
ARC
  5
CE
100
AcDbEntity
  8
M01
100
AcDbCircle
 10
781.675077
 20
570.975701
 30
0.0
 40
12.0
100
AcDbArc
 50
313.586993
 51
0.0
  0
ARC
  5
CF
100
AcDbEntity
  8
M01
100
AcDbCircle
 10
781.675077
 20
570.975701
 30
0.0
 40
8.0
100
AcDbArc
 50
313.586993
 51
0.0
  0
LINE
  5
D0
100
AcDbEntity
  8
M01
100
AcDbLine
 10
782.935214
 20
549.159226
 30
0.0
 11
787.935214
 21
549.159226
 31
0.0
  0
LINE
  5
D1
100
AcDbEntity
  8
M01
100
AcDbLine
 10
783.935214
 20
549.159226
 30
0.0
 11
783.935214
 21
545.159226
 31
0.0
  0
LINE
  5
D2
100
AcDbEntity
  8
M01
100
AcDbLine
 10
787.935214
 20
549.159226
 30
0.0
 11
787.935214
 21
545.159226
 31
0.0
  0
LINE
  5
D3
100
AcDbEntity
  8
M01
100
AcDbLine
 10
752.935214
 20
545.159226
 30
0.0
 11
767.159752
 21
545.159226
 31
0.0
  0
LINE
  5
D4
100
AcDbEntity
  8
M01
100
AcDbLine
 10
767.159752
 20
549.159226
 30
0.0
 11
762.935214
 21
549.159226
 31
0.0
  0
ARC
  5
D5
100
AcDbEntity
  8
M01
100
AcDbCircle
 10
767.159752
 20
557.159226
 30
0.0
 40
12.0
100
AcDbArc
 50
270.0
 51
313.586993
  0
ARC
  5
D6
100
AcDbEntity
  8
M01
100
AcDbCircle
 10
767.159752
 20
557.159226
 30
0.0
 40
8.0
100
AcDbArc
 50
270.0
 51
313.586993
  0
LINE
  5
D7
100
AcDbEntity
  8
M01
100
AcDbLine
 10
766.935214
 20
549.159226
 30
0.0
 11
766.935214
 21
545.159226
 31
0.0
  0
LINE
  5
D8
100
AcDbEntity
  8
M01
100
AcDbLine
 10
762.935214
 20
549.159226
 30
0.0
 11
762.935214
 21
545.159226
 31
0.0
  0
LINE
  5
D9
100
AcDbEntity
  8
M01
100
AcDbLine
 10
789.948538
 20
562.28376
 30
0.0
 11
775.433214
 21
548.467285
 31
0.0
  0
LINE
  5
DA
100
AcDbEntity
  8
M01
100
AcDbLine
 10
787.190718
 20
565.181074
 30
0.0
 11
772.675393
 21
551.364599
 31
0.0
  0
LINE
  5
DB
100
AcDbEntity
  8
M01
100
AcDbLine
 10
793.675077
 20
586.814191
 30
0.0
 11
793.675077
 21
570.975701
 31
0.0
  0
LINE
  5
DC
100
AcDbEntity
  8
M01
100
AcDbLine
 10
789.675077
 20
586.814191
 30
0.0
 11
789.675077
 21
570.975701
 31
0.0
  0
HATCH
  5
DD
100
AcDbEntity
  8
HATCH
100
AcDbHatch
 10
0.0
 20
0.0
 30
0.0
210
0.0
220
0.0
230
1.0
  2
_U
 70
     0
 71
     1
 91
        2
 92
        7
 72
     0
 73
     1
 93
       11
 10
326.1634644491751
 20
233.0138856722447
 10
320.7223464366322
 20
233.0138856722447
 10
320.0223464366322
 20
232.3138856722447
 10
320.0223464366323
 20
226.7138856722444
 10
320.7223464366322
 20
226.0138856722446
 10
323.5223464366325
 20
226.0138856722446
 10
324.5223464366322
 20
227.0138856722445
 10
326.5223464366317
 20
227.0138856722446
 10
327.5223464366316
 20
226.0138856722446
 10
330.5223464366321
 20
226.0138856722446
 10
330.522346436632
 20
228.6550036847877
 97
       10
330
402
330
29C
330
2A1
330
29D
330
408
330
E1
330
E3
330
E2
330
28A
330
28C
 92
        7
 72
     0
 73
     1
 93
       11
 10
341.8812284240894
 20
233.0138856722447
 10
337.5223464366321
 20
228.6550036847875
 10
337.5223464366322
 20
226.0138856722446
 10
340.5223464366331
 20
226.0138856722446
 10
341.5223464366326
 20
227.0138856722446
 10
343.5223464366322
 20
227.0138856722445
 10
344.5223464366322
 20
226.0138856722446
 10
347.3223464366321
 20
226.0138856722446
 10
348.0223464366321
 20
226.7138856722445
 10
348.0223464366322
 20
232.3138856722447
 10
347.3223464366321
 20
233.0138856722446
 97
       10
330
297
330
402
330
28E
330
289
330
271
330
DF
330
E0
330
DE
330
298
330
299
 75
     0
 76
     0
 52
135.0
 41
1.5
 77
     0
 78
     1
 53
135.0
 43
-166.424894
 44
-14.472589
 45
-1.060660171779821
 46
-1.060660171779821
 79
     0
 47
0.040219
 98
        2
 10
325.174129
 20
230.493456
 10
343.642417
 20
230.051044
  0
LINE
  5
DE
102
{ACAD_REACTORS
330
DD
102
}
100
AcDbEntity
  8
M05
100
AcDbLine
 10
343.522346
 20
227.013886
 30
0.0
 11
344.522346
 21
226.013886
 31
0.0
  0
LINE
  5
DF
102
{ACAD_REACTORS
330
DD
102
}
100
AcDbEntity
  8
M05
100
AcDbLine
 10
341.522346
 20
227.013886
 30
0.0
 11
340.522346
 21
226.013886
 31
0.0
  0
LINE
  5
E0
102
{ACAD_REACTORS
330
DD
102
}
100
AcDbEntity
  8
M05
100
AcDbLine
 10
343.522346
 20
227.013886
 30
0.0
 11
341.522346
 21
227.013886
 31
0.0
  0
LINE
  5
E1
102
{ACAD_REACTORS
330
DD
102
}
100
AcDbEntity
  8
M05
100
AcDbLine
 10
324.522346
 20
227.013886
 30
0.0
 11
323.522346
 21
226.013886
 31
0.0
  0
LINE
  5
E2
102
{ACAD_REACTORS
330
DD
102
}
100
AcDbEntity
  8
M05
100
AcDbLine
 10
326.522346
 20
227.013886
 30
0.0
 11
327.522346
 21
226.013886
 31
0.0
  0
LINE
  5
E3
102
{ACAD_REACTORS
330
DD
102
}
100
AcDbEntity
  8
M05
100
AcDbLine
 10
324.522346
 20
227.013886
 30
0.0
 11
326.522346
 21
227.013886
 31
0.0
  0
HATCH
  5
E4
100
AcDbEntity
  8
HATCH
100
AcDbHatch
 10
0.0
 20
0.0
 30
0.0
210
0.0
220
0.0
230
1.0
  2
_U
 70
     0
 71
     0
 91
        2
 92
        7
 72
     0
 73
     1
 93
       11
 10
601.163464449175
 20
233.0138856722446
 10
595.7223464366323
 20
233.0138856722447
 10
595.0223464366322
 20
232.3138856722446
 10
595.0223464366322
 20
226.7138856722445
 10
595.7223464366321
 20
226.0138856722446
 10
598.5223464366323
 20
226.0138856722446
 10
599.5223464366321
 20
227.0138856722445
 10
601.5223464366319
 20
227.0138856722446
 10
602.5223464366314
 20
226.0138856722446
 10
605.5223464366321
 20
226.0138856722446
 10
605.5223464366321
 20
228.6550036847875
 97
        0
 92
        7
 72
     0
 73
     1
 93
       11
 10
623.0223464366322
 20
232.3138856722446
 10
622.3223464366322
 20
233.0138856722446
 10
616.8812284240892
 20
233.0138856722445
 10
612.5223464366322
 20
228.6550036847875
 10
612.5223464366322
 20
226.0138856722445
 10
615.5223464366329
 20
226.0138856722445
 10
616.5223464366326
 20
227.0138856722446
 10
618.5223464366322
 20
227.0138856722445
 10
619.5223464366319
 20
226.0138856722445
 10
622.3223464366322
 20
226.0138856722445
 10
623.022346436632
 20
226.7138856722444
 97
        0
 75
     0
 76
     0
 52
135.0
 41
1.5
 77
     0
 78
     1
 53
135.0
 43
-1.424894
 44
-14.472589
 45
-1.060660171779821
 46
-1.060660171779821
 79
     0
 47
0.151518
 98
        2
 10
599.498277
 20
229.697923
 10
618.142687
 20
230.303994
  0
LINE
  5
E5
100
AcDbEntity
  8
M05
100
AcDbLine
 10
599.522346
 20
227.013886
 30
0.0
 11
598.522346
 21
226.013886
 31
0.0
  0
LINE
  5
E6
100
AcDbEntity
  8
M05
100
AcDbLine
 10
601.522346
 20
227.013886
 30
0.0
 11
602.522346
 21
226.013886
 31
0.0
  0
LINE
  5
E7
100
AcDbEntity
  8
M05
100
AcDbLine
 10
599.522346
 20
227.013886
 30
0.0
 11
601.522346
 21
227.013886
 31
0.0
  0
LINE
  5
E8
100
AcDbEntity
  8
M05
100
AcDbLine
 10
618.522346
 20
227.013886
 30
0.0
 11
619.522346
 21
226.013886
 31
0.0
  0
LINE
  5
E9
100
AcDbEntity
  8
M05
100
AcDbLine
 10
616.522346
 20
227.013886
 30
0.0
 11
615.522346
 21
226.013886
 31
0.0
  0
LINE
  5
EA
100
AcDbEntity
  8
M05
100
AcDbLine
 10
618.522346
 20
227.013886
 30
0.0
 11
616.522346
 21
227.013886
 31
0.0
  0
LINE
  5
EB
102
{ACAD_REACTORS
330
22
102
}
100
AcDbEntity
  8
M02
100
AcDbLine
 10
591.022346
 20
280.013886
 30
0.0
 11
591.022346
 21
283.013886
 31
0.0
  0
LINE
  5
EC
102
{ACAD_REACTORS
330
22
102
}
100
AcDbEntity
  8
M02
100
AcDbLine
 10
627.022346
 20
280.013886
 30
0.0
 11
627.022346
 21
283.013886
 31
0.0
  0
LINE
  5
ED
102
{ACAD_REACTORS
330
22
102
}
100
AcDbEntity
  8
M02
100
AcDbLine
 10
352.022346
 20
280.013886
 30
0.0
 11
352.022346
 21
283.013886
 31
0.0
  0
LINE
  5
EE
102
{ACAD_REACTORS
330
22
102
}
100
AcDbEntity
  8
M02
100
AcDbLine
 10
316.022346
 20
280.013886
 30
0.0
 11
316.022346
 21
283.013886
 31
0.0
  0
POINT
  5
EF
100
AcDbEntity
  8
DEFPOINTS
  6
BYBLOCK
 62
     0
100
AcDbPoint
 10
609.022346
 20
475.559226
 30
0.0
  0
POINT
  5
F0
100
AcDbEntity
  8
DEFPOINTS
  6
BYBLOCK
 62
     0
100
AcDbPoint
 10
612.432214
 20
481.093014
 30
0.0
  0
MTEXT
  5
F1
100
AcDbEntity
  8
0
  6
BYBLOCK
 62
     2
100
AcDbMText
 10
513.064549
 20
500.810084
 30
0.0
 40
3.0
 41
0.0
 71
     4
 72
     1
  1
M12 PLATE RETAINING SCREWS SHOULD ALSO BE FITTED.\PMINIMUM 2 PER DROP & ALSO AROUND MANIFOLD POCKET.
  0
SOLID
  5
F2
100
AcDbEntity
  8
0
  6
BYBLOCK
 62
     4
100
AcDbTrace
 10
604.46437
 20
483.909367
 30
0.0
 11
603.613018
 21
483.384772
 31
0.0
 12
605.612479
 22
481.093014
 32
0.0
 13
605.612479
 23
481.093014
 33
0.0
  0
LINE
  5
F3
100
AcDbEntity
  8
0
  6
BYBLOCK
 62
     4
100
AcDbLine
 10
604.038694
 20
483.647069
 30
0.0
 11
596.501505
 21
495.580289
 31
0.0
  0
LINE
  5
F4
100
AcDbEntity
  8
M01
100
AcDbLine
 10
789.685214
 20
530.503326
 30
0.0
 11
796.185214
 21
530.503326
 31
0.0
  0
LINE
  5
F5
100
AcDbEntity
  8
M01
100
AcDbLine
 10
789.685214
 20
538.615126
 30
0.0
 11
796.185214
 21
538.615126
 31
0.0
  0
LINE
  5
F6
100
AcDbEntity
  8
M01
100
AcDbLine
 10
789.685214
 20
530.503326
 30
0.0
 11
789.685214
 21
528.559226
 31
0.0
  0
ARC
  5
F7
100
AcDbEntity
  8
M01
100
AcDbCircle
 10
788.435214
 20
532.064576
 30
0.0
 40
2.0
100
AcDbArc
 50
308.682187
 51
0.0
  0
ARC
  5
F8
100
AcDbEntity
  8
M01
100
AcDbCircle
 10
788.435214
 20
537.053876
 30
0.0
 40
2.0
100
AcDbArc
 50
0.0
 51
51.317813
  0
LINE
  5
F9
100
AcDbEntity
  8
M01
100
AcDbLine
 10
789.685214
 20
540.559226
 30
0.0
 11
789.685214
 21
538.615126
 31
0.0
  0
LINE
  5
FA
100
AcDbEntity
  8
M01
100
AcDbLine
 10
790.435214
 20
537.053876
 30
0.0
 11
790.435214
 21
532.064576
 31
0.0
  0
LINE
  5
FB
100
AcDbEntity
  8
M01
100
AcDbLine
 10
796.185214
 20
530.503326
 30
0.0
 11
796.185214
 21
528.559226
 31
0.0
  0
ARC
  5
FC
100
AcDbEntity
  8
M01
100
AcDbCircle
 10
797.435214
 20
532.064576
 30
0.0
 40
2.0
100
AcDbArc
 50
180.0
 51
231.317813
  0
ARC
  5
FD
100
AcDbEntity
  8
M01
100
AcDbCircle
 10
797.435214
 20
537.053876
 30
0.0
 40
2.0
100
AcDbArc
 50
128.682187
 51
180.0
  0
LINE
  5
FE
100
AcDbEntity
  8
M01
100
AcDbLine
 10
796.185214
 20
540.559226
 30
0.0
 11
796.185214
 21
538.615126
 31
0.0
  0
LINE
  5
FF
100
AcDbEntity
  8
M01
100
AcDbLine
 10
795.435214
 20
537.053876
 30
0.0
 11
795.435214
 21
532.064576
 31
0.0
  0
LINE
  5
100
100
AcDbEntity
  8
M01
100
AcDbLine
 10
486.772346
 20
530.503326
 30
0.0
 11
480.272346
 21
530.503326
 31
0.0
  0
LINE
  5
101
100
AcDbEntity
  8
M01
100
AcDbLine
 10
486.772346
 20
538.615126
 30
0.0
 11
480.272346
 21
538.615126
 31
0.0
  0
LINE
  5
102
100
AcDbEntity
  8
M01
100
AcDbLine
 10
486.772346
 20
530.503326
 30
0.0
 11
486.772346
 21
528.559226
 31
0.0
  0
ARC
  5
103
100
AcDbEntity
  8
M01
100
AcDbCircle
 10
488.022346
 20
532.064576
 30
0.0
 40
2.0
100
AcDbArc
 50
180.0
 51
231.317813
  0
ARC
  5
104
100
AcDbEntity
  8
M01
100
AcDbCircle
 10
488.022346
 20
537.053876
 30
0.0
 40
2.0
100
AcDbArc
 50
128.682187
 51
180.0
  0
LINE
  5
105
100
AcDbEntity
  8
M01
100
AcDbLine
 10
486.772346
 20
540.559226
 30
0.0
 11
486.772346
 21
538.615126
 31
0.0
  0
LINE
  5
106
100
AcDbEntity
  8
M01
100
AcDbLine
 10
486.022346
 20
537.053876
 30
0.0
 11
486.022346
 21
532.064576
 31
0.0
  0
LINE
  5
107
100
AcDbEntity
  8
M01
100
AcDbLine
 10
480.272346
 20
530.503326
 30
0.0
 11
480.272346
 21
528.559226
 31
0.0
  0
ARC
  5
108
100
AcDbEntity
  8
M01
100
AcDbCircle
 10
479.022346
 20
532.064576
 30
0.0
 40
2.0
100
AcDbArc
 50
308.682187
 51
0.0
  0
ARC
  5
109
100
AcDbEntity
  8
M01
100
AcDbCircle
 10
479.022346
 20
537.053876
 30
0.0
 40
2.0
100
AcDbArc
 50
0.0
 51
51.317813
  0
LINE
  5
10A
100
AcDbEntity
  8
M01
100
AcDbLine
 10
480.272346
 20
540.559226
 30
0.0
 11
480.272346
 21
538.615126
 31
0.0
  0
LINE
  5
10B
100
AcDbEntity
  8
M01
100
AcDbLine
 10
481.022346
 20
537.053876
 30
0.0
 11
481.022346
 21
532.064576
 31
0.0
  0
LINE
  5
10C
100
AcDbEntity
  8
DIMS
 62
     4
100
AcDbLine
 10
609.022346
 20
478.959226
 30
0.0
 11
609.022346
 21
483.759226
 31
0.0
  0
LINE
  5
10D
100
AcDbEntity
  8
DIMS
 62
     4
100
AcDbLine
 10
609.022346
 20
472.159226
 30
0.0
 11
609.022346
 21
467.359226
 31
0.0
  0
LINE
  5
10E
100
AcDbEntity
  8
DIMS
 62
     4
100
AcDbLine
 10
612.422346
 20
475.559226
 30
0.0
 11
617.222346
 21
475.559226
 31
0.0
  0
LINE
  5
10F
100
AcDbEntity
  8
DIMS
 62
     4
100
AcDbLine
 10
605.622346
 20
475.559226
 30
0.0
 11
600.822346
 21
475.559226
 31
0.0
  0
LINE
  5
110
100
AcDbEntity
  8
DIMS
 62
     4
100
AcDbLine
 10
609.022346
 20
473.859226
 30
0.0
 11
609.022346
 21
477.259226
 31
0.0
  0
LINE
  5
111
100
AcDbEntity
  8
DIMS
 62
     4
100
AcDbLine
 10
607.322346
 20
475.559226
 30
0.0
 11
610.722346
 21
475.559226
 31
0.0
  0
LINE
  5
112
100
AcDbEntity
  8
DIMS
 62
     4
100
AcDbLine
 10
334.022346
 20
478.959226
 30
0.0
 11
334.022346
 21
483.759226
 31
0.0
  0
LINE
  5
113
100
AcDbEntity
  8
DIMS
 62
     4
100
AcDbLine
 10
334.022346
 20
472.159226
 30
0.0
 11
334.022346
 21
467.359226
 31
0.0
  0
LINE
  5
114
100
AcDbEntity
  8
DIMS
 62
     4
100
AcDbLine
 10
337.422346
 20
475.559226
 30
0.0
 11
342.222346
 21
475.559226
 31
0.0
  0
LINE
  5
115
100
AcDbEntity
  8
DIMS
 62
     4
100
AcDbLine
 10
330.622346
 20
475.559226
 30
0.0
 11
325.822346
 21
475.559226
 31
0.0
  0
LINE
  5
116
100
AcDbEntity
  8
DIMS
 62
     4
100
AcDbLine
 10
334.022346
 20
473.859226
 30
0.0
 11
334.022346
 21
477.259226
 31
0.0
  0
LINE
  5
117
100
AcDbEntity
  8
DIMS
 62
     4
100
AcDbLine
 10
332.322346
 20
475.559226
 30
0.0
 11
335.722346
 21
475.559226
 31
0.0
  0
LINE
  5
118
100
AcDbEntity
  8
DIMS
 62
     4
100
AcDbLine
 10
334.022346
 20
392.959226
 30
0.0
 11
334.022346
 21
397.759226
 31
0.0
  0
LINE
  5
119
100
AcDbEntity
  8
DIMS
 62
     4
100
AcDbLine
 10
334.022346
 20
386.159226
 30
0.0
 11
334.022346
 21
381.359226
 31
0.0
  0
LINE
  5
11A
100
AcDbEntity
  8
DIMS
 62
     4
100
AcDbLine
 10
337.422346
 20
389.559226
 30
0.0
 11
342.222346
 21
389.559226
 31
0.0
  0
LINE
  5
11B
100
AcDbEntity
  8
DIMS
 62
     4
100
AcDbLine
 10
330.622346
 20
389.559226
 30
0.0
 11
325.822346
 21
389.559226
 31
0.0
  0
LINE
  5
11C
100
AcDbEntity
  8
DIMS
 62
     4
100
AcDbLine
 10
334.022346
 20
387.859226
 30
0.0
 11
334.022346
 21
391.259226
 31
0.0
  0
LINE
  5
11D
100
AcDbEntity
  8
DIMS
 62
     4
100
AcDbLine
 10
332.322346
 20
389.559226
 30
0.0
 11
335.722346
 21
389.559226
 31
0.0
  0
LINE
  5
11E
100
AcDbEntity
  8
DIMS
 62
     4
100
AcDbLine
 10
609.022346
 20
392.959226
 30
0.0
 11
609.022346
 21
397.759226
 31
0.0
  0
LINE
  5
11F
100
AcDbEntity
  8
DIMS
 62
     4
100
AcDbLine
 10
609.022346
 20
386.159226
 30
0.0
 11
609.022346
 21
381.359226
 31
0.0
  0
LINE
  5
120
100
AcDbEntity
  8
DIMS
 62
     4
100
AcDbLine
 10
612.422346
 20
389.559226
 30
0.0
 11
617.222346
 21
389.559226
 31
0.0
  0
LINE
  5
121
100
AcDbEntity
  8
DIMS
 62
     4
100
AcDbLine
 10
605.622346
 20
389.559226
 30
0.0
 11
600.822346
 21
389.559226
 31
0.0
  0
LINE
  5
122
100
AcDbEntity
  8
DIMS
 62
     4
100
AcDbLine
 10
609.022346
 20
387.859226
 30
0.0
 11
609.022346
 21
391.259226
 31
0.0
  0
LINE
  5
123
100
AcDbEntity
  8
DIMS
 62
     4
100
AcDbLine
 10
607.322346
 20
389.559226
 30
0.0
 11
610.722346
 21
389.559226
 31
0.0
  0
CIRCLE
  5
124
100
AcDbEntity
  8
M04
100
AcDbCircle
 10
609.022346
 20
389.559226
 30
0.0
 40
6.5
  0
CIRCLE
  5
125
100
AcDbEntity
  8
M04
100
AcDbCircle
 10
609.022346
 20
475.559226
 30
0.0
 40
6.5
  0
CIRCLE
  5
126
100
AcDbEntity
  8
M04
100
AcDbCircle
 10
334.022346
 20
389.559226
 30
0.0
 40
6.5
  0
CIRCLE
  5
127
100
AcDbEntity
  8
M04
100
AcDbCircle
 10
334.022346
 20
475.559226
 30
0.0
 40
6.5
  0
HATCH
  5
128
100
AcDbEntity
  8
DIMS
100
AcDbHatch
 10
0.0
 20
0.0
 30
0.0
210
0.0
220
0.0
230
1.0
  2
_U
 70
     0
 71
     1
 91
        5
 92
        7
 72
     0
 73
     1
 93
        9
 10
503.0223464366321
 20
231.0138856722444
 10
503.0223464366322
 20
227.0138856722445
 10
504.8223464366325
 20
227.0138856722445
 10
505.5223464366325
 20
227.7138856722447
 10
505.5223464366323
 20
232.3138856722446
 10
504.8223464366323
 20
233.0138856722447
 10
501.2223464366322
 20
233.0138856722447
 10
501.2223464366322
 20
231.0138856722445
 10
502.7723464366324
 20
231.0138856722445
 97
        9
330
3E5
330
169
330
17D
330
16E
330
182
330
170
330
3E8
330
3E6
330
3E9
 92
        7
 72
     1
 73
     1
 93
       16
 10
490.8223464366321
 20
222.0138856722445
 42
0.0
 10
491.5223464366322
 20
222.7138856722445
 42
0.0
 10
491.5223464366322
 20
224.0138856722446
 42
0.0
 10
491.0223464366321
 20
224.0138856722445
 42
0.0
 10
491.0223464366322
 20
227.0138856722446
 42
0.0
 10
492.0223464366323
 20
227.0138856722446
 42
0.0
 10
492.0223464366323
 20
231.0138856722445
 42
0.0
 10
492.2723464366323
 20
231.0138856722445
 42
0.0
 10
493.8223464366322
 20
231.0138856722445
 42
0.0
 10
493.8223464366322
 20
233.0138856722447
 42
0.0
 10
481.522346436632
 20
233.0138856722447
 42
0.0
 10
481.522346436632
 20
242.0138856722445
 42
0.0
 10
480.5223464366322
 20
243.0138856722444
 42
0.0
 10
475.5223464366322
 20
243.0138856722444
 42
0.0
 10
474.5632204345281
 20
224.7126713253456
 42
-0.1092323044357261
 10
480.6874978265437
 20
222.0138856722444
 42
0.0
 97
       16
330
3E8
330
171
330
16F
330
16E
330
17C
330
3C6
330
3F2
330
3EE
330
3F0
330
3CF
330
3D0
330
3DE
330
3DD
330
3E0
330
3DB
330
3DA
 92
        7
 72
     1
 73
     1
 93
       16
 10
468.4814724387361
 20
224.7126713253456
 42
0.0
 10
467.5223464366322
 20
243.0138856722445
 42
0.0
 10
462.5223464366322
 20
243.0138856722445
 42
0.0
 10
461.5223464366322
 20
242.0138856722445
 42
0.0
 10
461.5223464366322
 20
233.0138856722447
 42
0.0
 10
449.2223464366321
 20
233.0138856722447
 42
0.0
 10
449.2223464366322
 20
231.0138856722445
 42
0.0
 10
450.772346436632
 20
231.0138856722445
 42
0.0
 10
451.0223464366321
 20
231.0138856722445
 42
0.0
 10
451.0223464366321
 20
227.0138856722446
 42
0.0
 10
452.0223464366322
 20
227.0138856722446
 42
0.0
 10
452.0223464366322
 20
224.0138856722443
 42
0.0
 10
451.5223464366322
 20
224.0138856722443
 42
0.0
 10
451.5223464366322
 20
222.7138856722441
 42
0.0
 10
452.2223464366324
 20
222.0138856722442
 42
0.0
 10
462.3571950467205
 20
222.0138856722443
 42
-0.1092323044357274
 97
       16
330
3F0
330
3EF
330
3F1
330
402
330
15F
330
151
330
152
330
154
330
3D8
330
3D9
330
3D7
330
3DF
330
3DC
330
3DE
330
3CC
330
3CE
 92
        7
 72
     0
 73
     1
 93
        9
 10
440.0223464366322
 20
231.0138856722444
 10
440.272346436632
 20
231.0138856722444
 10
441.8223464366321
 20
231.0138856722445
 10
441.8223464366321
 20
233.0138856722447
 10
438.2223464366321
 20
233.0138856722447
 10
437.5223464366319
 20
232.3138856722445
 10
437.522346436632
 20
227.7138856722447
 10
438.2223464366319
 20
227.0138856722446
 10
440.0223464366322
 20
227.0138856722446
 97
        9
330
402
330
3E3
330
3E4
330
3C4
330
3D8
330
153
330
165
330
151
330
160
 92
       24
 93
        4
 72
     1
 10
476.096427
 20
228.081373
 11
490.467856
 21
228.081373
 72
     1
 10
490.467856
 20
228.081373
 11
490.467856
 21
231.081373
 72
     1
 10
490.467856
 20
231.081373
 11
476.096427
 21
231.081373
 72
     1
 10
476.096427
 20
231.081373
 11
476.096427
 21
228.081373
 97
        1
330
3BF
 75
     0
 76
     0
 52
135.0
 41
2.5
 77
     0
 78
     1
 53
135.0
 43
-83.924894
 44
-14.472589
 45
-1.767766952966368
 46
-1.767766952966368
 79
     0
 47
0.085632
 98
        4
 10
504.019309
 20
231.37187
 10
486.371864
 20
225.377641
 10
463.584385
 20
226.576487
 10
439.340566
 20
231.37187
  0
LINE
  5
129
100
AcDbEntity
  8
DIMS
 62
     4
100
AcDbLine
 10
307.622346
 20
237.013886
 30
0.0
 11
305.322346
 21
237.013886
 31
0.0
  0
LINE
  5
12A
100
AcDbEntity
  8
DIMS
 62
     4
100
AcDbLine
 10
314.422346
 20
237.013886
 30
0.0
 11
316.722346
 21
237.013886
 31
0.0
  0
LINE
  5
12B
100
AcDbEntity
  8
DIMS
 62
     4
100
AcDbLine
 10
311.022346
 20
240.413886
 30
0.0
 11
311.022346
 21
242.713886
 31
0.0
  0
LINE
  5
12C
100
AcDbEntity
  8
DIMS
 62
     4
100
AcDbLine
 10
311.022346
 20
233.613886
 30
0.0
 11
311.022346
 21
231.313886
 31
0.0
  0
LINE
  5
12D
100
AcDbEntity
  8
DIMS
 62
     4
100
AcDbLine
 10
312.722346
 20
237.013886
 30
0.0
 11
309.322346
 21
237.013886
 31
0.0
  0
LINE
  5
12E
100
AcDbEntity
  8
DIMS
 62
     4
100
AcDbLine
 10
311.022346
 20
235.313886
 30
0.0
 11
311.022346
 21
238.713886
 31
0.0
  0
LINE
  5
12F
102
{ACAD_REACTORS
330
24
102
}
100
AcDbEntity
  8
M01
100
AcDbLine
 10
315.022346
 20
237.013886
 30
0.0
 11
315.022346
 21
233.013886
 31
0.0
  0
LINE
  5
130
102
{ACAD_REACTORS
330
24
102
}
100
AcDbEntity
  8
M01
100
AcDbLine
 10
307.022346
 20
237.013886
 30
0.0
 11
307.022346
 21
233.013886
 31
0.0
  0
CIRCLE
  5
131
102
{ACAD_REACTORS
330
BB
330
24
102
}
100
AcDbEntity
  8
M01
100
AcDbCircle
 10
311.022346
 20
237.013886
 30
0.0
 40
4.0
  0
LINE
  5
132
100
AcDbEntity
  8
DIMS
 62
     4
100
AcDbLine
 10
307.622346
 20
276.013886
 30
0.0
 11
305.322346
 21
276.013886
 31
0.0
  0
LINE
  5
133
100
AcDbEntity
  8
DIMS
 62
     4
100
AcDbLine
 10
314.422346
 20
276.013886
 30
0.0
 11
316.722346
 21
276.013886
 31
0.0
  0
LINE
  5
134
100
AcDbEntity
  8
DIMS
 62
     4
100
AcDbLine
 10
311.022346
 20
272.613886
 30
0.0
 11
311.022346
 21
270.313886
 31
0.0
  0
LINE
  5
135
100
AcDbEntity
  8
DIMS
 62
     4
100
AcDbLine
 10
311.022346
 20
279.413886
 30
0.0
 11
311.022346
 21
281.713886
 31
0.0
  0
LINE
  5
136
100
AcDbEntity
  8
DIMS
 62
     4
100
AcDbLine
 10
312.722346
 20
276.013886
 30
0.0
 11
309.322346
 21
276.013886
 31
0.0
  0
LINE
  5
137
100
AcDbEntity
  8
DIMS
 62
     4
100
AcDbLine
 10
311.022346
 20
277.713886
 30
0.0
 11
311.022346
 21
274.313886
 31
0.0
  0
LINE
  5
138
102
{ACAD_REACTORS
330
24
102
}
100
AcDbEntity
  8
M01
100
AcDbLine
 10
315.022346
 20
276.013886
 30
0.0
 11
315.022346
 21
280.013886
 31
0.0
  0
LINE
  5
139
102
{ACAD_REACTORS
330
24
102
}
100
AcDbEntity
  8
M01
100
AcDbLine
 10
307.022346
 20
276.013886
 30
0.0
 11
307.022346
 21
280.013886
 31
0.0
  0
CIRCLE
  5
13A
102
{ACAD_REACTORS
330
BB
330
24
102
}
100
AcDbEntity
  8
M01
100
AcDbCircle
 10
311.022346
 20
276.013886
 30
0.0
 40
4.0
  0
LINE
  5
13B
100
AcDbEntity
  8
DIMS
 62
     4
100
AcDbLine
 10
635.422346
 20
237.013886
 30
0.0
 11
637.722346
 21
237.013886
 31
0.0
  0
LINE
  5
13C
100
AcDbEntity
  8
DIMS
 62
     4
100
AcDbLine
 10
628.622346
 20
237.013886
 30
0.0
 11
626.322346
 21
237.013886
 31
0.0
  0
LINE
  5
13D
100
AcDbEntity
  8
DIMS
 62
     4
100
AcDbLine
 10
632.022346
 20
240.413886
 30
0.0
 11
632.022346
 21
242.713886
 31
0.0
  0
LINE
  5
13E
100
AcDbEntity
  8
DIMS
 62
     4
100
AcDbLine
 10
632.022346
 20
233.613886
 30
0.0
 11
632.022346
 21
231.313886
 31
0.0
  0
LINE
  5
13F
100
AcDbEntity
  8
DIMS
 62
     4
100
AcDbLine
 10
630.322346
 20
237.013886
 30
0.0
 11
633.722346
 21
237.013886
 31
0.0
  0
LINE
  5
140
100
AcDbEntity
  8
DIMS
 62
     4
100
AcDbLine
 10
632.022346
 20
235.313886
 30
0.0
 11
632.022346
 21
238.713886
 31
0.0
  0
LINE
  5
141
102
{ACAD_REACTORS
330
24
102
}
100
AcDbEntity
  8
M01
100
AcDbLine
 10
628.022346
 20
237.013886
 30
0.0
 11
628.022346
 21
233.013886
 31
0.0
  0
LINE
  5
142
102
{ACAD_REACTORS
330
24
102
}
100
AcDbEntity
  8
M01
100
AcDbLine
 10
636.022346
 20
237.013886
 30
0.0
 11
636.022346
 21
233.013886
 31
0.0
  0
CIRCLE
  5
143
102
{ACAD_REACTORS
330
24
102
}
100
AcDbEntity
  8
M01
100
AcDbCircle
 10
632.022346
 20
237.013886
 30
0.0
 40
4.0
  0
LINE
  5
144
100
AcDbEntity
  8
DIMS
 62
     4
100
AcDbLine
 10
635.422346
 20
276.013886
 30
0.0
 11
637.722346
 21
276.013886
 31
0.0
  0
LINE
  5
145
100
AcDbEntity
  8
DIMS
 62
     4
100
AcDbLine
 10
628.622346
 20
276.013886
 30
0.0
 11
626.322346
 21
276.013886
 31
0.0
  0
LINE
  5
146
100
AcDbEntity
  8
DIMS
 62
     4
100
AcDbLine
 10
632.022346
 20
272.613886
 30
0.0
 11
632.022346
 21
270.313886
 31
0.0
  0
LINE
  5
147
100
AcDbEntity
  8
DIMS
 62
     4
100
AcDbLine
 10
632.022346
 20
279.413886
 30
0.0
 11
632.022346
 21
281.713886
 31
0.0
  0
LINE
  5
148
100
AcDbEntity
  8
DIMS
 62
     4
100
AcDbLine
 10
630.322346
 20
276.013886
 30
0.0
 11
633.722346
 21
276.013886
 31
0.0
  0
LINE
  5
149
100
AcDbEntity
  8
DIMS
 62
     4
100
AcDbLine
 10
632.022346
 20
277.713886
 30
0.0
 11
632.022346
 21
274.313886
 31
0.0
  0
LINE
  5
14A
102
{ACAD_REACTORS
330
24
102
}
100
AcDbEntity
  8
M01
100
AcDbLine
 10
628.022346
 20
276.013886
 30
0.0
 11
628.022346
 21
280.013886
 31
0.0
  0
LINE
  5
14B
102
{ACAD_REACTORS
330
24
102
}
100
AcDbEntity
  8
M01
100
AcDbLine
 10
636.022346
 20
276.013886
 30
0.0
 11
636.022346
 21
280.013886
 31
0.0
  0
CIRCLE
  5
14C
102
{ACAD_REACTORS
330
24
102
}
100
AcDbEntity
  8
M01
100
AcDbCircle
 10
632.022346
 20
276.013886
 30
0.0
 40
4.0
  0
LINE
  5
14D
102
{ACAD_REACTORS
330
24
102
}
100
AcDbEntity
  8
M04
100
AcDbLine
 10
448.522346
 20
240.313886
 30
0.0
 11
448.522346
 21
242.813886
 31
0.0
  0
LINE
  5
14E
102
{ACAD_REACTORS
330
24
102
}
100
AcDbEntity
  8
M04
100
AcDbLine
 10
447.822346
 20
241.013886
 30
0.0
 11
447.822346
 21
244.313886
 31
0.0
  0
LINE
  5
14F
102
{ACAD_REACTORS
330
24
102
}
100
AcDbEntity
  8
M04
100
AcDbLine
 10
442.522346
 20
240.313886
 30
0.0
 11
442.522346
 21
242.813886
 31
0.0
  0
LINE
  5
150
102
{ACAD_REACTORS
330
24
102
}
100
AcDbEntity
  8
M04
100
AcDbLine
 10
443.222346
 20
241.013886
 30
0.0
 11
443.222346
 21
244.313886
 31
0.0
  0
LINE
  5
151
102
{ACAD_REACTORS
330
128
102
}
100
AcDbEntity
  8
M05
100
AcDbLine
 10
440.272346
 20
231.013886
 30
0.0
 11
450.772346
 21
231.013886
 31
0.0
  0
LINE
  5
152
102
{ACAD_REACTORS
330
128
102
}
100
AcDbEntity
  8
M04
100
AcDbLine
 10
450.772346
 20
231.013886
 30
0.0
 11
451.022346
 21
231.013886
 31
0.0
  0
LINE
  5
153
102
{ACAD_REACTORS
330
128
102
}
100
AcDbEntity
  8
M04
100
AcDbLine
 10
440.022346
 20
231.013886
 30
0.0
 11
440.022346
 21
227.013886
 31
0.0
  0
LINE
  5
154
102
{ACAD_REACTORS
330
128
102
}
100
AcDbEntity
  8
M04
100
AcDbLine
 10
451.022346
 20
231.013886
 30
0.0
 11
451.022346
 21
227.013886
 31
0.0
  0
LINE
  5
155
100
AcDbEntity
  8
M05
100
AcDbLine
 10
448.522346
 20
232.013886
 30
0.0
 11
442.522346
 21
232.013886
 31
0.0
  0
LINE
  5
156
102
{ACAD_REACTORS
330
24
102
}
100
AcDbEntity
  8
M04
100
AcDbLine
 10
443.222346
 20
244.313886
 30
0.0
 11
445.522346
 21
245.641791
 31
0.0
  0
LINE
  5
157
102
{ACAD_REACTORS
330
24
102
}
100
AcDbEntity
  8
M04
100
AcDbLine
 10
447.822346
 20
244.313886
 30
0.0
 11
445.522346
 21
245.641791
 31
0.0
  0
LINE
  5
158
100
AcDbEntity
  8
M04
100
AcDbLine
 10
447.822346
 20
244.313886
 30
0.0
 11
443.222346
 21
244.313886
 31
0.0
  0
LINE
  5
159
102
{ACAD_REACTORS
330
24
102
}
100
AcDbEntity
  8
M04
100
AcDbLine
 10
448.522346
 20
242.813886
 30
0.0
 11
442.522346
 21
242.813886
 31
0.0
  0
ARC
  5
15A
100
AcDbEntity
  8
M05
100
AcDbCircle
 10
445.522346
 20
233.540022
 30
0.0
 40
5.826136
100
AcDbArc
 50
205.69541
 51
334.30459
  0
LINE
  5
15B
100
AcDbEntity
  8
M05
100
AcDbLine
 10
442.522346
 20
240.313886
 30
0.0
 11
443.222346
 21
241.013886
 31
0.0
  0
LINE
  5
15C
100
AcDbEntity
  8
M05
100
AcDbLine
 10
448.522346
 20
240.313886
 30
0.0
 11
447.822346
 21
241.013886
 31
0.0
  0
LINE
  5
15D
100
AcDbEntity
  8
M05
100
AcDbLine
 10
448.522346
 20
240.313886
 30
0.0
 11
442.522346
 21
240.313886
 31
0.0
  0
LINE
  5
15E
100
AcDbEntity
  8
M05
100
AcDbLine
 10
447.822346
 20
241.013886
 30
0.0
 11
443.222346
 21
241.013886
 31
0.0
  0
LINE
  5
15F
102
{ACAD_REACTORS
330
128
102
}
100
AcDbEntity
  8
M04
100
AcDbLine
 10
449.222346
 20
233.013886
 30
0.0
 11
449.222346
 21
231.013886
 31
0.0
  0
LINE
  5
160
102
{ACAD_REACTORS
330
128
102
}
100
AcDbEntity
  8
M04
100
AcDbLine
 10
441.822346
 20
233.013886
 30
0.0
 11
441.822346
 21
231.013886
 31
0.0
  0
LINE
  5
161
100
AcDbEntity
  8
M05
100
AcDbLine
 10
443.222346
 20
241.013886
 30
0.0
 11
443.222346
 21
232.013886
 31
0.0
  0
LINE
  5
162
100
AcDbEntity
  8
M05
100
AcDbLine
 10
447.822346
 20
241.013886
 30
0.0
 11
447.822346
 21
232.013886
 31
0.0
  0
LINE
  5
163
102
{ACAD_REACTORS
330
24
102
}
100
AcDbEntity
  8
M05
100
AcDbLine
 10
448.522346
 20
240.313886
 30
0.0
 11
448.522346
 21
231.013886
 31
0.0
  0
LINE
  5
164
102
{ACAD_REACTORS
330
24
102
}
100
AcDbEntity
  8
M05
100
AcDbLine
 10
442.522346
 20
240.313886
 30
0.0
 11
442.522346
 21
231.013886
 31
0.0
  0
LINE
  5
165
102
{ACAD_REACTORS
330
128
102
}
100
AcDbEntity
  8
M04
100
AcDbLine
 10
440.022346
 20
231.013886
 30
0.0
 11
440.272346
 21
231.013886
 31
0.0
  0
LINE
  5
166
100
AcDbEntity
  8
CENTRE
100
AcDbLine
 10
445.522346
 20
248.280386
 30
0.0
 11
445.522346
 21
223.367697
 31
0.0
  0
LINE
  5
169
102
{ACAD_REACTORS
330
128
330
24
330
21
102
}
100
AcDbEntity
  8
M01
100
AcDbLine
 10
500.522346
 20
233.013886
 30
0.0
 11
639.022346
 21
233.013886
 31
0.0
  0
LINE
  5
16A
102
{ACAD_REACTORS
330
24
102
}
100
AcDbEntity
  8
M04
100
AcDbLine
 10
494.522346
 20
240.313886
 30
0.0
 11
494.522346
 21
242.813886
 31
0.0
  0
LINE
  5
16B
102
{ACAD_REACTORS
330
24
102
}
100
AcDbEntity
  8
M04
100
AcDbLine
 10
495.222346
 20
241.013886
 30
0.0
 11
495.222346
 21
244.313886
 31
0.0
  0
LINE
  5
16C
102
{ACAD_REACTORS
330
24
102
}
100
AcDbEntity
  8
M04
100
AcDbLine
 10
500.522346
 20
240.313886
 30
0.0
 11
500.522346
 21
242.813886
 31
0.0
  0
LINE
  5
16D
102
{ACAD_REACTORS
330
24
102
}
100
AcDbEntity
  8
M04
100
AcDbLine
 10
499.822346
 20
241.013886
 30
0.0
 11
499.822346
 21
244.313886
 31
0.0
  0
LINE
  5
16E
102
{ACAD_REACTORS
330
128
102
}
100
AcDbEntity
  8
M05
100
AcDbLine
 10
502.772346
 20
231.013886
 30
0.0
 11
492.272346
 21
231.013886
 31
0.0
  0
LINE
  5
16F
102
{ACAD_REACTORS
330
128
102
}
100
AcDbEntity
  8
M04
100
AcDbLine
 10
492.272346
 20
231.013886
 30
0.0
 11
492.022346
 21
231.013886
 31
0.0
  0
LINE
  5
170
102
{ACAD_REACTORS
330
128
102
}
100
AcDbEntity
  8
M04
100
AcDbLine
 10
503.022346
 20
231.013886
 30
0.0
 11
503.022346
 21
227.013886
 31
0.0
  0
LINE
  5
171
102
{ACAD_REACTORS
330
128
102
}
100
AcDbEntity
  8
M04
100
AcDbLine
 10
492.022346
 20
231.013886
 30
0.0
 11
492.022346
 21
227.013886
 31
0.0
  0
LINE
  5
172
100
AcDbEntity
  8
M05
100
AcDbLine
 10
494.522346
 20
232.013886
 30
0.0
 11
500.522346
 21
232.013886
 31
0.0
  0
LINE
  5
173
102
{ACAD_REACTORS
330
24
102
}
100
AcDbEntity
  8
M04
100
AcDbLine
 10
499.822346
 20
244.313886
 30
0.0
 11
497.522346
 21
245.641791
 31
0.0
  0
LINE
  5
174
102
{ACAD_REACTORS
330
24
102
}
100
AcDbEntity
  8
M04
100
AcDbLine
 10
495.222346
 20
244.313886
 30
0.0
 11
497.522346
 21
245.641791
 31
0.0
  0
LINE
  5
175
100
AcDbEntity
  8
M04
100
AcDbLine
 10
495.222346
 20
244.313886
 30
0.0
 11
499.822346
 21
244.313886
 31
0.0
  0
LINE
  5
176
102
{ACAD_REACTORS
330
24
102
}
100
AcDbEntity
  8
M04
100
AcDbLine
 10
494.522346
 20
242.813886
 30
0.0
 11
500.522346
 21
242.813886
 31
0.0
  0
ARC
  5
177
100
AcDbEntity
  8
M05
100
AcDbCircle
 10
497.522346
 20
233.540022
 30
0.0
 40
5.826136
100
AcDbArc
 50
205.69541
 51
334.30459
  0
LINE
  5
178
100
AcDbEntity
  8
M05
100
AcDbLine
 10
500.522346
 20
240.313886
 30
0.0
 11
499.822346
 21
241.013886
 31
0.0
  0
LINE
  5
179
100
AcDbEntity
  8
M05
100
AcDbLine
 10
494.522346
 20
240.313886
 30
0.0
 11
495.222346
 21
241.013886
 31
0.0
  0
LINE
  5
17A
100
AcDbEntity
  8
M05
100
AcDbLine
 10
494.522346
 20
240.313886
 30
0.0
 11
500.522346
 21
240.313886
 31
0.0
  0
LINE
  5
17B
100
AcDbEntity
  8
M05
100
AcDbLine
 10
495.222346
 20
241.013886
 30
0.0
 11
499.822346
 21
241.013886
 31
0.0
  0
LINE
  5
17C
102
{ACAD_REACTORS
330
128
102
}
100
AcDbEntity
  8
M04
100
AcDbLine
 10
493.822346
 20
233.013886
 30
0.0
 11
493.822346
 21
231.013886
 31
0.0
  0
LINE
  5
17D
102
{ACAD_REACTORS
330
128
102
}
100
AcDbEntity
  8
M04
100
AcDbLine
 10
501.222346
 20
233.013886
 30
0.0
 11
501.222346
 21
231.013886
 31
0.0
  0
LINE
  5
17E
100
AcDbEntity
  8
M05
100
AcDbLine
 10
499.822346
 20
241.013886
 30
0.0
 11
499.822346
 21
232.013886
 31
0.0
  0
LINE
  5
17F
100
AcDbEntity
  8
M05
100
AcDbLine
 10
495.222346
 20
241.013886
 30
0.0
 11
495.222346
 21
232.013886
 31
0.0
  0
LINE
  5
180
102
{ACAD_REACTORS
330
24
102
}
100
AcDbEntity
  8
M05
100
AcDbLine
 10
494.522346
 20
240.313886
 30
0.0
 11
494.522346
 21
231.013886
 31
0.0
  0
LINE
  5
181
102
{ACAD_REACTORS
330
24
102
}
100
AcDbEntity
  8
M05
100
AcDbLine
 10
500.522346
 20
240.313886
 30
0.0
 11
500.522346
 21
231.013886
 31
0.0
  0
LINE
  5
182
102
{ACAD_REACTORS
330
128
102
}
100
AcDbEntity
  8
M04
100
AcDbLine
 10
503.022346
 20
231.013886
 30
0.0
 11
502.772346
 21
231.013886
 31
0.0
  0
LINE
  5
183
100
AcDbEntity
  8
CENTRE
100
AcDbLine
 10
497.522346
 20
248.280386
 30
0.0
 11
497.522346
 21
223.367697
 31
0.0
  0
LINE
  5
184
100
AcDbEntity
  8
DIMS
 62
     4
100
AcDbLine
 10
775.435214
 20
435.959226
 30
0.0
 11
775.435214
 21
438.259226
 31
0.0
  0
LINE
  5
185
100
AcDbEntity
  8
DIMS
 62
     4
100
AcDbLine
 10
775.435214
 20
429.159226
 30
0.0
 11
775.435214
 21
426.859226
 31
0.0
  0
LINE
  5
186
100
AcDbEntity
  8
DIMS
 62
     4
100
AcDbLine
 10
775.435214
 20
430.859226
 30
0.0
 11
775.435214
 21
434.259226
 31
0.0
  0
LINE
  5
187
100
AcDbEntity
  8
DIMS
 62
     4
100
AcDbLine
 10
794.935214
 20
418.459226
 30
0.0
 11
794.935214
 21
420.759226
 31
0.0
  0
LINE
  5
188
100
AcDbEntity
  8
DIMS
 62
     4
100
AcDbLine
 10
794.935214
 20
411.659226
 30
0.0
 11
794.935214
 21
409.359226
 31
0.0
  0
LINE
  5
189
100
AcDbEntity
  8
DIMS
 62
     4
100
AcDbLine
 10
798.335214
 20
415.059226
 30
0.0
 11
800.635214
 21
415.059226
 31
0.0
  0
LINE
  5
18A
100
AcDbEntity
  8
DIMS
 62
     4
100
AcDbLine
 10
791.535214
 20
415.059226
 30
0.0
 11
789.235214
 21
415.059226
 31
0.0
  0
LINE
  5
18B
100
AcDbEntity
  8
DIMS
 62
     4
100
AcDbLine
 10
794.935214
 20
413.359226
 30
0.0
 11
794.935214
 21
416.759226
 31
0.0
  0
LINE
  5
18C
100
AcDbEntity
  8
DIMS
 62
     4
100
AcDbLine
 10
793.235214
 20
415.059226
 30
0.0
 11
796.635214
 21
415.059226
 31
0.0
  0
LINE
  5
18D
100
AcDbEntity
  8
DIMS
 62
     4
100
AcDbLine
 10
755.935214
 20
418.459226
 30
0.0
 11
755.935214
 21
420.759226
 31
0.0
  0
LINE
  5
18E
100
AcDbEntity
  8
DIMS
 62
     4
100
AcDbLine
 10
755.935214
 20
411.659226
 30
0.0
 11
755.935214
 21
409.359226
 31
0.0
  0
LINE
  5
18F
100
AcDbEntity
  8
DIMS
 62
     4
100
AcDbLine
 10
759.335214
 20
415.059226
 30
0.0
 11
761.635214
 21
415.059226
 31
0.0
  0
LINE
  5
190
100
AcDbEntity
  8
DIMS
 62
     4
100
AcDbLine
 10
752.535214
 20
415.059226
 30
0.0
 11
750.235214
 21
415.059226
 31
0.0
  0
LINE
  5
191
100
AcDbEntity
  8
DIMS
 62
     4
100
AcDbLine
 10
755.935214
 20
413.359226
 30
0.0
 11
755.935214
 21
416.759226
 31
0.0
  0
LINE
  5
192
100
AcDbEntity
  8
DIMS
 62
     4
100
AcDbLine
 10
754.235214
 20
415.059226
 30
0.0
 11
757.635214
 21
415.059226
 31
0.0
  0
HATCH
  5
193
100
AcDbEntity
  8
HATCH
100
AcDbHatch
 10
0.0
 20
0.0
 30
0.0
210
0.0
220
0.0
230
1.0
  2
_U
 70
     0
 71
     1
 91
        2
 92
        7
 72
     1
 73
     1
 93
        2
 10
759.9352139304885
 20
415.0592260810631
 42
1.0
 10
751.9352139304885
 20
415.0592260810631
 42
1.0
 97
        1
330
199
 92
        7
 72
     1
 73
     1
 93
        2
 10
790.9352139304886
 20
415.0592260810631
 42
1.0
 10
798.9352139304885
 20
415.0592260810631
 42
1.0
 97
        1
330
198
 75
     0
 76
     0
 52
45.0
 41
0.8
 77
     0
 78
     1
 53
45.0
 43
-22.654894
 44
5.5
 45
-0.565685424949238
 46
0.565685424949238
 79
     0
 47
0.095608
 98
        2
 10
756.068562
 20
414.758585
 10
795.092753
 20
415.905882
  0
LINE
  5
194
102
{ACAD_REACTORS
330
20
102
}
100
AcDbEntity
  8
M01
100
AcDbLine
 10
794.935214
 20
411.059226
 30
0.0
 11
798.935214
 21
411.059226
 31
0.0
  0
LINE
  5
195
102
{ACAD_REACTORS
330
20
102
}
100
AcDbEntity
  8
M01
100
AcDbLine
 10
794.935214
 20
419.059226
 30
0.0
 11
798.935214
 21
419.059226
 31
0.0
  0
LINE
  5
196
102
{ACAD_REACTORS
330
20
102
}
100
AcDbEntity
  8
M01
100
AcDbLine
 10
755.935214
 20
411.059226
 30
0.0
 11
751.935214
 21
411.059226
 31
0.0
  0
LINE
  5
197
102
{ACAD_REACTORS
330
20
102
}
100
AcDbEntity
  8
M01
100
AcDbLine
 10
755.935214
 20
419.059226
 30
0.0
 11
751.935214
 21
419.059226
 31
0.0
  0
CIRCLE
  5
198
102
{ACAD_REACTORS
330
193
330
20
102
}
100
AcDbEntity
  8
M01
100
AcDbCircle
 10
794.935214
 20
415.059226
 30
0.0
 40
4.0
  0
CIRCLE
  5
199
102
{ACAD_REACTORS
330
193
330
20
102
}
100
AcDbEntity
  8
M01
100
AcDbCircle
 10
755.935214
 20
415.059226
 30
0.0
 40
4.0
  0
LINE
  5
19A
100
AcDbEntity
  8
DIMS
 62
     4
100
AcDbLine
 10
445.522346
 20
435.959226
 30
0.0
 11
445.522346
 21
439.759226
 31
0.0
  0
LINE
  5
19B
100
AcDbEntity
  8
DIMS
 62
     4
100
AcDbLine
 10
445.522346
 20
429.159226
 30
0.0
 11
445.522346
 21
425.359226
 31
0.0
  0
LINE
  5
19C
100
AcDbEntity
  8
DIMS
 62
     4
100
AcDbLine
 10
445.522346
 20
430.859226
 30
0.0
 11
445.522346
 21
434.259226
 31
0.0
  0
LINE
  5
19D
100
AcDbEntity
  8
DIMS
 62
     4
100
AcDbLine
 10
497.522346
 20
435.959226
 30
0.0
 11
497.522346
 21
439.759226
 31
0.0
  0
LINE
  5
19E
100
AcDbEntity
  8
DIMS
 62
     4
100
AcDbLine
 10
497.522346
 20
429.159226
 30
0.0
 11
497.522346
 21
425.359226
 31
0.0
  0
LINE
  5
19F
100
AcDbEntity
  8
DIMS
 62
     4
100
AcDbLine
 10
497.522346
 20
430.859226
 30
0.0
 11
497.522346
 21
434.259226
 31
0.0
  0
LINE
  5
1A0
100
AcDbEntity
  8
DIMS
 62
     4
100
AcDbLine
 10
474.922346
 20
458.559226
 30
0.0
 11
478.722346
 21
458.559226
 31
0.0
  0
LINE
  5
1A1
100
AcDbEntity
  8
DIMS
 62
     4
100
AcDbLine
 10
468.122346
 20
458.559226
 30
0.0
 11
464.322346
 21
458.559226
 31
0.0
  0
LINE
  5
1A2
100
AcDbEntity
  8
DIMS
 62
     4
100
AcDbLine
 10
469.822346
 20
458.559226
 30
0.0
 11
473.222346
 21
458.559226
 31
0.0
  0
HATCH
  5
1A3
100
AcDbEntity
  8
HATCH
100
AcDbHatch
 10
0.0
 20
0.0
 30
0.0
210
0.0
220
0.0
230
1.0
  2
_U
 70
     0
 71
     1
 91
        4
 92
        7
 72
     0
 73
     1
 93
        9
 10
804.9352139304886
 20
464.0592260810633
 10
804.9352139304884
 20
465.8592260810632
 10
804.2352139304886
 20
466.5592260810632
 10
799.6352139304884
 20
466.5592260810633
 10
798.9352139304886
 20
465.8592260810634
 10
798.9352139304886
 20
462.2592260810632
 10
800.9352139304885
 20
462.2592260810633
 10
800.9352139304885
 20
463.8092260810633
 10
800.9352139304887
 20
464.0592260810631
 97
        9
330
42F
330
432
330
42E
330
48B
330
1B8
330
1A9
330
1BD
330
1AB
330
431
 92
        7
 72
     1
 73
     1
 93
       16
 10
798.9352139304887
 20
442.5592260810629
 42
0.0
 10
789.9352139304887
 20
442.5592260810629
 42
0.0
 10
788.9352139304886
 20
441.5592260810629
 42
0.0
 10
788.9352139304886
 20
436.559226081063
 42
0.0
 10
807.2364282773873
 20
435.600100078959
 42
-0.1092323044357274
 10
809.9352139304887
 20
441.7243774709747
 42
0.0
 10
809.9352139304887
 20
451.8592260810631
 42
0.0
 10
809.2352139304882
 20
452.559226081063
 42
0.0
 10
807.9352139304884
 20
452.559226081063
 42
0.0
 10
807.9352139304885
 20
452.059226081063
 42
0.0
 10
804.9352139304884
 20
452.059226081063
 42
0.0
 10
804.9352139304884
 20
453.0592260810633
 42
0.0
 10
800.9352139304885
 20
453.0592260810633
 42
0.0
 10
800.9352139304885
 20
453.3092260810632
 42
0.0
 10
800.9352139304885
 20
454.8592260810631
 42
0.0
 10
798.9352139304885
 20
454.8592260810632
 42
0.0
 97
       16
330
424
330
427
330
421
330
420
330
431
330
1AC
330
1AA
330
1A9
330
1B7
330
1A8
330
43B
330
437
330
439
330
415
330
416
330
425
 92
        7
 72
     1
 73
     1
 93
       16
 10
798.9352139304886
 20
409.5592260810631
 42
0.0
 10
798.9352139304884
 20
408.2592260810632
 42
0.0
 10
799.6352139304888
 20
407.5592260810631
 42
0.0
 10
804.2352139304883
 20
407.5592260810631
 42
0.0
 10
804.9352139304884
 20
408.2592260810631
 42
0.0
 10
804.9352139304884
 20
413.059226081063
 42
0.0
 10
807.9352139304889
 20
413.0592260810631
 42
0.0
 10
807.9352139304887
 20
412.5592260810631
 42
0.0
 10
809.2352139304891
 20
412.5592260810631
 42
0.0
 10
809.935213930489
 20
413.2592260810631
 42
0.0
 10
809.9352139304889
 20
423.3940746911512
 42
-0.1092323044357307
 10
807.2364282773873
 20
429.5183520831669
 42
0.0
 10
788.9352139304886
 20
428.5592260810632
 42
0.0
 10
788.9352139304886
 20
423.5592260810632
 42
0.0
 10
789.9352139304885
 20
422.5592260810631
 42
0.0
 10
798.9352139304885
 20
422.5592260810631
 42
0.0
 97
       16
330
412
330
414
330
439
330
438
330
43A
330
429
330
26A
330
42B
330
42D
330
42C
330
41E
330
41F
330
41D
330
426
330
423
330
425
 92
       24
 93
        4
 72
     1
 10
790.941866
 20
437.880683
 11
805.313294
 21
437.880683
 72
     1
 10
805.313294
 20
437.880683
 11
805.313294
 21
440.880683
 72
     1
 10
805.313294
 20
440.880683
 11
790.941866
 21
440.880683
 72
     1
 10
790.941866
 20
440.880683
 11
790.941866
 21
437.880683
 97
        1
330
3C0
 75
     0
 76
     0
 52
135.0
 41
2.5
 77
     0
 78
     1
 53
135.0
 43
-22.654894
 44
0.0
 45
-1.767766952966368
 46
-1.767766952966368
 79
     0
 47
0.115254
 98
        3
 10
801.761221
 20
464.76431
 10
803.606041
 20
442.866133
 10
803.490739
 20
421.77473
  0
LINE
  5
1A4
102
{ACAD_REACTORS
330
20
102
}
100
AcDbEntity
  8
M04
100
AcDbLine
 10
791.635214
 20
455.559226
 30
0.0
 11
789.135214
 21
455.559226
 31
0.0
  0
LINE
  5
1A5
102
{ACAD_REACTORS
330
20
102
}
100
AcDbEntity
  8
M04
100
AcDbLine
 10
790.935214
 20
456.259226
 30
0.0
 11
787.635214
 21
456.259226
 31
0.0
  0
LINE
  5
1A6
102
{ACAD_REACTORS
330
20
102
}
100
AcDbEntity
  8
M04
100
AcDbLine
 10
791.635214
 20
461.559226
 30
0.0
 11
789.135214
 21
461.559226
 31
0.0
  0
LINE
  5
1A7
102
{ACAD_REACTORS
330
20
102
}
100
AcDbEntity
  8
M04
100
AcDbLine
 10
790.935214
 20
460.859226
 30
0.0
 11
787.635214
 21
460.859226
 31
0.0
  0
LINE
  5
1A8
102
{ACAD_REACTORS
330
1A3
330
20
102
}
100
AcDbEntity
  8
M01
100
AcDbLine
 10
798.935214
 20
455.559226
 30
0.0
 11
798.935214
 21
442.559226
 31
0.0
  0
LINE
  5
1A9
102
{ACAD_REACTORS
330
1A3
102
}
100
AcDbEntity
  8
M05
100
AcDbLine
 10
800.935214
 20
463.809226
 30
0.0
 11
800.935214
 21
453.309226
 31
0.0
  0
LINE
  5
1AA
102
{ACAD_REACTORS
330
1A3
102
}
100
AcDbEntity
  8
M04
100
AcDbLine
 10
800.935214
 20
453.309226
 30
0.0
 11
800.935214
 21
453.059226
 31
0.0
  0
LINE
  5
1AB
102
{ACAD_REACTORS
330
1A3
102
}
100
AcDbEntity
  8
M04
100
AcDbLine
 10
800.935214
 20
464.059226
 30
0.0
 11
804.935214
 21
464.059226
 31
0.0
  0
LINE
  5
1AC
102
{ACAD_REACTORS
330
1A3
102
}
100
AcDbEntity
  8
M04
100
AcDbLine
 10
800.935214
 20
453.059226
 30
0.0
 11
804.935214
 21
453.059226
 31
0.0
  0
LINE
  5
1AD
100
AcDbEntity
  8
M05
100
AcDbLine
 10
799.935214
 20
455.559226
 30
0.0
 11
799.935214
 21
461.559226
 31
0.0
  0
LINE
  5
1AE
102
{ACAD_REACTORS
330
20
102
}
100
AcDbEntity
  8
M04
100
AcDbLine
 10
787.635214
 20
460.859226
 30
0.0
 11
786.307308
 21
458.559226
 31
0.0
  0
LINE
  5
1AF
102
{ACAD_REACTORS
330
20
102
}
100
AcDbEntity
  8
M04
100
AcDbLine
 10
787.635214
 20
456.259226
 30
0.0
 11
786.307308
 21
458.559226
 31
0.0
  0
LINE
  5
1B0
100
AcDbEntity
  8
M04
100
AcDbLine
 10
787.635214
 20
456.259226
 30
0.0
 11
787.635214
 21
460.859226
 31
0.0
  0
LINE
  5
1B1
102
{ACAD_REACTORS
330
20
102
}
100
AcDbEntity
  8
M04
100
AcDbLine
 10
789.135214
 20
455.559226
 30
0.0
 11
789.135214
 21
461.559226
 31
0.0
  0
ARC
  5
1B2
100
AcDbEntity
  8
M05
100
AcDbCircle
 10
798.409078
 20
458.559226
 30
0.0
 40
5.826136
100
AcDbArc
 50
295.69541
 51
64.30459
  0
LINE
  5
1B3
100
AcDbEntity
  8
M05
100
AcDbLine
 10
791.635214
 20
461.559226
 30
0.0
 11
790.935214
 21
460.859226
 31
0.0
  0
LINE
  5
1B4
100
AcDbEntity
  8
M05
100
AcDbLine
 10
791.635214
 20
455.559226
 30
0.0
 11
790.935214
 21
456.259226
 31
0.0
  0
LINE
  5
1B5
100
AcDbEntity
  8
M05
100
AcDbLine
 10
791.635214
 20
455.559226
 30
0.0
 11
791.635214
 21
461.559226
 31
0.0
  0
LINE
  5
1B6
100
AcDbEntity
  8
M05
100
AcDbLine
 10
790.935214
 20
456.259226
 30
0.0
 11
790.935214
 21
460.859226
 31
0.0
  0
LINE
  5
1B7
102
{ACAD_REACTORS
330
1A3
102
}
100
AcDbEntity
  8
M04
100
AcDbLine
 10
798.935214
 20
454.859226
 30
0.0
 11
800.935214
 21
454.859226
 31
0.0
  0
LINE
  5
1B8
102
{ACAD_REACTORS
330
1A3
102
}
100
AcDbEntity
  8
M04
100
AcDbLine
 10
798.935214
 20
462.259226
 30
0.0
 11
800.935214
 21
462.259226
 31
0.0
  0
LINE
  5
1B9
100
AcDbEntity
  8
M05
100
AcDbLine
 10
790.935214
 20
460.859226
 30
0.0
 11
799.935214
 21
460.859226
 31
0.0
  0
LINE
  5
1BA
100
AcDbEntity
  8
M05
100
AcDbLine
 10
790.935214
 20
456.259226
 30
0.0
 11
799.935214
 21
456.259226
 31
0.0
  0
LINE
  5
1BB
102
{ACAD_REACTORS
330
20
102
}
100
AcDbEntity
  8
M05
100
AcDbLine
 10
791.635214
 20
455.559226
 30
0.0
 11
800.935214
 21
455.559226
 31
0.0
  0
LINE
  5
1BC
102
{ACAD_REACTORS
330
20
102
}
100
AcDbEntity
  8
M05
100
AcDbLine
 10
791.635214
 20
461.559226
 30
0.0
 11
800.935214
 21
461.559226
 31
0.0
  0
LINE
  5
1BD
102
{ACAD_REACTORS
330
1A3
102
}
100
AcDbEntity
  8
M04
100
AcDbLine
 10
800.935214
 20
464.059226
 30
0.0
 11
800.935214
 21
463.809226
 31
0.0
  0
LINE
  5
1BE
100
AcDbEntity
  8
CENTRE
100
AcDbLine
 10
783.668713
 20
458.559226
 30
0.0
 11
808.581402
 21
458.559226
 31
0.0
  0
MTEXT
  5
1BF
102
{ACAD_REACTORS
330
1C0
102
}
100
AcDbEntity
  8
DIMS
 62
     2
100
AcDbMText
 10
378.483025
 20
388.120852
 30
0.0
 40
3.0
 41
0.0
 71
     4
 72
     5
  1
HGX10037
  0
LEADER
  5
1C0
100
AcDbEntity
  8
DIMS
 62
     4
100
AcDbLeader
  3
DIM1$7
 73
     0
 74
     0
 75
     1
 40
3.0
 41
21.857143
 76
     3
 10
355.487922
 20
409.973989
 30
0.0
 10
373.983025
 20
388.120852
 30
0.0
 10
376.983025
 20
388.120852
 30
0.0
 77
   256
340
1BF
1001
ACAD
1000
DSTYLE
1002
{
1070
   288
1070
     1
1070
   144
1040
1.0
1002
}
  0
CIRCLE
  5
1C2
100
AcDbEntity
  8
M03
100
AcDbCircle
 10
497.522346
 20
432.559226
 30
0.0
 40
2.3
  0
ARC
  5
1C3
100
AcDbEntity
  8
M03
100
AcDbCircle
 10
497.522346
 20
432.559226
 30
0.0
 40
3.0
100
AcDbArc
 50
167.784636
 51
96.923103
  0
CIRCLE
  5
1C4
100
AcDbEntity
  8
M03
100
AcDbCircle
 10
497.522346
 20
432.559226
 30
0.0
 40
5.5
  0
CIRCLE
  5
1C5
100
AcDbEntity
  8
M03
100
AcDbCircle
 10
445.522346
 20
432.559226
 30
0.0
 40
2.3
  0
ARC
  5
1C6
100
AcDbEntity
  8
M03
100
AcDbCircle
 10
445.522346
 20
432.559226
 30
0.0
 40
3.0
100
AcDbArc
 50
167.784636
 51
96.923103
  0
CIRCLE
  5
1C7
100
AcDbEntity
  8
M03
100
AcDbCircle
 10
445.522346
 20
432.559226
 30
0.0
 40
5.5
  0
CIRCLE
  5
1C8
100
AcDbEntity
  8
M03
100
AcDbCircle
 10
471.522346
 20
458.559226
 30
0.0
 40
2.3
  0
ARC
  5
1C9
100
AcDbEntity
  8
M03
100
AcDbCircle
 10
471.522346
 20
458.559226
 30
0.0
 40
3.0
100
AcDbArc
 50
167.784636
 51
96.923103
  0
CIRCLE
  5
1CA
100
AcDbEntity
  8
M03
100
AcDbCircle
 10
471.522346
 20
458.559226
 30
0.0
 40
5.5
  0
LINE
  5
1CB
100
AcDbEntity
  8
M03
100
AcDbLine
 10
368.822346
 20
425.059226
 30
0.0
 11
366.522346
 21
426.387132
 31
0.0
  0
LINE
  5
1CC
100
AcDbEntity
  8
M03
100
AcDbLine
 10
364.222346
 20
425.059226
 30
0.0
 11
366.522346
 21
426.387132
 31
0.0
  0
LINE
  5
1CD
100
AcDbEntity
  8
M03
100
AcDbLine
 10
364.222346
 20
425.059226
 30
0.0
 11
368.822346
 21
425.059226
 31
0.0
  0
LINE
  5
1CE
100
AcDbEntity
  8
M03
100
AcDbLine
 10
363.522346
 20
423.559226
 30
0.0
 11
369.522346
 21
423.559226
 31
0.0
  0
LINE
  5
1CF
100
AcDbEntity
  8
M03
100
AcDbLine
 10
352.215284
 20
411.459226
 30
0.0
 11
322.976824
 21
411.459226
 31
0.0
  0
LINE
  5
1D0
100
AcDbEntity
  8
M03
100
AcDbLine
 10
352.215284
 20
409.559226
 30
0.0
 11
322.976824
 21
409.559226
 31
0.0
  0
LINE
  5
1D1
100
AcDbEntity
  8
M03
100
AcDbLine
 10
359.215284
 20
411.759226
 30
0.0
 11
373.522346
 21
411.759226
 31
0.0
  0
LINE
  5
1D2
100
AcDbEntity
  8
M03
100
AcDbLine
 10
358.170519
 20
412.559226
 30
0.0
 11
358.170519
 21
411.759226
 31
0.0
  0
LINE
  5
1D3
100
AcDbEntity
  8
M03
100
AcDbLine
 10
352.215284
 20
411.759226
 30
0.0
 11
352.215284
 21
409.259226
 31
0.0
  0
LINE
  5
1D4
100
AcDbEntity
  8
M03
100
AcDbLine
 10
352.215284
 20
409.259226
 30
0.0
 11
359.215284
 21
409.259226
 31
0.0
  0
LINE
  5
1D5
100
AcDbEntity
  8
M03
100
AcDbLine
 10
359.215284
 20
411.759226
 30
0.0
 11
359.215284
 21
409.259226
 31
0.0
  0
LINE
  5
1D6
100
AcDbEntity
  8
M03
100
AcDbLine
 10
373.522346
 20
412.559226
 30
0.0
 11
373.522346
 21
411.759226
 31
0.0
  0
ARC
  5
1D7
100
AcDbEntity
  8
M03
100
AcDbCircle
 10
366.522346
 20
414.285362
 30
0.0
 40
5.826136
100
AcDbArc
 50
205.69541
 51
334.30459
  0
LINE
  5
1D8
100
AcDbEntity
  8
M03
100
AcDbLine
 10
369.522346
 20
421.059226
 30
0.0
 11
368.822346
 21
421.759226
 31
0.0
  0
LINE
  5
1D9
100
AcDbEntity
  8
M03
100
AcDbLine
 10
363.522346
 20
421.059226
 30
0.0
 11
364.222346
 21
421.759226
 31
0.0
  0
LINE
  5
1DA
100
AcDbEntity
  8
M03
100
AcDbLine
 10
363.522346
 20
421.059226
 30
0.0
 11
369.522346
 21
421.059226
 31
0.0
  0
LINE
  5
1DB
100
AcDbEntity
  8
M03
100
AcDbLine
 10
364.222346
 20
421.759226
 30
0.0
 11
368.822346
 21
421.759226
 31
0.0
  0
LINE
  5
1DC
100
AcDbEntity
  8
M03
100
AcDbLine
 10
369.522346
 20
412.559226
 30
0.0
 11
376.522346
 21
412.559226
 31
0.0
  0
LINE
  5
1DD
100
AcDbEntity
  8
M03
100
AcDbLine
 10
352.822346
 20
412.559226
 30
0.0
 11
352.822346
 21
411.759226
 31
0.0
  0
LINE
  5
1DE
100
AcDbEntity
  8
M03
100
AcDbLine
 10
370.222346
 20
412.559226
 30
0.0
 11
370.222346
 21
411.759226
 31
0.0
  0
LINE
  5
1DF
100
AcDbEntity
  8
M03
100
AcDbLine
 10
368.822346
 20
425.059226
 30
0.0
 11
368.822346
 21
411.759226
 31
0.0
  0
LINE
  5
1E0
100
AcDbEntity
  8
M03
100
AcDbLine
 10
364.222346
 20
425.059226
 30
0.0
 11
364.222346
 21
411.759226
 31
0.0
  0
LINE
  5
1E1
100
AcDbEntity
  8
M03
100
AcDbLine
 10
363.522346
 20
423.559226
 30
0.0
 11
363.522346
 21
411.759226
 31
0.0
  0
LINE
  5
1E2
100
AcDbEntity
  8
M03
100
AcDbLine
 10
369.522346
 20
423.559226
 30
0.0
 11
369.522346
 21
411.759226
 31
0.0
  0
LINE
  5
1E3
100
AcDbEntity
  8
M03
100
AcDbLine
 10
352.215284
 20
411.759226
 30
0.0
 11
358.170519
 21
411.759226
 31
0.0
  0
LINE
  5
1E4
100
AcDbEntity
  8
M03
100
AcDbLine
 10
376.522346
 20
412.559226
 30
0.0
 11
376.522346
 21
407.559226
 31
0.0
  0
LINE
  5
1E5
100
AcDbEntity
  8
M03
100
AcDbLine
 10
309.022346
 20
412.559226
 30
0.0
 11
363.522346
 21
412.559226
 31
0.0
  0
LINE
  5
1E6
100
AcDbEntity
  8
CENTRE
100
AcDbLine
 10
366.522346
 20
430.757899
 30
0.0
 11
366.522346
 21
403.597749
 31
0.0
  0
DIMENSION
  5
1E7
100
AcDbEntity
  8
DIMS
100
AcDbDimension
  2
*D4
 10
717.259049
 20
499.059226
 30
0.0
 11
701.759049
 21
481.273512
 31
0.0
 12
-71.424894
 22
0.0
 32
0.0
  1
%%c<> H7
  3
DIM1
100
AcDbAlignedDimension
 13
731.935214
 23
507.059226
 33
0.0
 14
731.935214
 24
499.059226
 34
0.0
 50
90.0
100
AcDbRotatedDimension
1001
ACAD
1000
DSTYLE
1002
{
1070
   144
1040
1.0
1002
}
  0
CIRCLE
  5
1F5
100
AcDbEntity
  8
M03
100
AcDbCircle
 10
334.022346
 20
432.559226
 30
0.0
 40
2.3
  0
ARC
  5
1F6
100
AcDbEntity
  8
M03
100
AcDbCircle
 10
334.022346
 20
432.559226
 30
0.0
 40
3.0
100
AcDbArc
 50
167.784636
 51
96.923103
  0
CIRCLE
  5
1F7
100
AcDbEntity
  8
M03
100
AcDbCircle
 10
609.022346
 20
432.559226
 30
0.0
 40
2.3
  0
ARC
  5
1F8
100
AcDbEntity
  8
M03
100
AcDbCircle
 10
609.022346
 20
432.559226
 30
0.0
 40
3.0
100
AcDbArc
 50
167.784636
 51
96.923103
  0
LINE
  5
1F9
100
AcDbEntity
  8
DIMS
 62
     4
100
AcDbLine
 10
334.022346
 20
435.959226
 30
0.0
 11
334.022346
 21
449.259226
 31
0.0
  0
LINE
  5
1FA
100
AcDbEntity
  8
DIMS
 62
     4
100
AcDbLine
 10
334.022346
 20
429.159226
 30
0.0
 11
334.022346
 21
415.859226
 31
0.0
  0
LINE
  5
1FB
100
AcDbEntity
  8
DIMS
 62
     4
100
AcDbLine
 10
334.022346
 20
430.859226
 30
0.0
 11
334.022346
 21
434.259226
 31
0.0
  0
LINE
  5
1FC
100
AcDbEntity
  8
DIMS
 62
     4
100
AcDbLine
 10
609.022346
 20
435.959226
 30
0.0
 11
609.022346
 21
449.259226
 31
0.0
  0
LINE
  5
1FD
100
AcDbEntity
  8
DIMS
 62
     4
100
AcDbLine
 10
609.022346
 20
429.159226
 30
0.0
 11
609.022346
 21
415.859226
 31
0.0
  0
LINE
  5
1FE
100
AcDbEntity
  8
DIMS
 62
     4
100
AcDbLine
 10
609.022346
 20
430.859226
 30
0.0
 11
609.022346
 21
434.259226
 31
0.0
  0
LINE
  5
1FF
100
AcDbEntity
  8
M03
100
AcDbLine
 10
609.572346
 20
426.584488
 30
0.0
 11
609.572346
 21
438.533965
 31
0.0
  0
LINE
  5
200
100
AcDbEntity
  8
M03
100
AcDbLine
 10
608.472346
 20
426.584488
 30
0.0
 11
608.472346
 21
438.533965
 31
0.0
  0
CIRCLE
  5
201
100
AcDbEntity
  8
M03
100
AcDbCircle
 10
609.022346
 20
432.559226
 30
0.0
 40
15.0
  0
CIRCLE
  5
202
100
AcDbEntity
  8
M03
100
AcDbCircle
 10
609.022346
 20
432.559226
 30
0.0
 40
14.0
  0
CIRCLE
  5
203
100
AcDbEntity
  8
M03
100
AcDbCircle
 10
609.022346
 20
432.559226
 30
0.0
 40
7.858882
  0
CIRCLE
  5
204
100
AcDbEntity
  8
M03
100
AcDbCircle
 10
609.022346
 20
432.559226
 30
0.0
 40
6.0
  0
LINE
  5
205
100
AcDbEntity
  8
M03
100
AcDbLine
 10
333.472346
 20
426.584488
 30
0.0
 11
333.472346
 21
438.533965
 31
0.0
  0
LINE
  5
206
100
AcDbEntity
  8
M03
100
AcDbLine
 10
334.572346
 20
426.584488
 30
0.0
 11
334.572346
 21
438.533965
 31
0.0
  0
CIRCLE
  5
207
100
AcDbEntity
  8
M03
100
AcDbCircle
 10
334.022346
 20
432.559226
 30
0.0
 40
15.0
  0
CIRCLE
  5
208
100
AcDbEntity
  8
M03
100
AcDbCircle
 10
334.022346
 20
432.559226
 30
0.0
 40
14.0
  0
CIRCLE
  5
209
100
AcDbEntity
  8
M03
100
AcDbCircle
 10
334.022346
 20
432.559226
 30
0.0
 40
7.858882
  0
CIRCLE
  5
20A
100
AcDbEntity
  8
M03
100
AcDbCircle
 10
334.022346
 20
432.559226
 30
0.0
 40
6.0
  0
DIMENSION
  5
20B
100
AcDbEntity
  8
DIMS
100
AcDbDimension
  2
*D5
 10
850.250331
 20
452.559226
 30
0.0
 11
834.750331
 21
432.559226
 31
0.0
 12
-71.424894
 22
0.0
 32
0.0
  1
%%c<> H7
  3
DIM1
100
AcDbAlignedDimension
 13
813.935214
 23
412.559226
 33
0.0
 14
813.935214
 24
452.559226
 34
0.0
 50
90.0
100
AcDbRotatedDimension
1001
ACAD
1000
DSTYLE
1002
{
1070
   144
1040
1.0
1002
}
  0
DIMENSION
  5
218
100
AcDbEntity
  8
DIMS
100
AcDbDimension
  2
*D6
 10
744.935214
 20
362.279548
 30
0.0
 11
734.292357
 21
365.279548
 31
0.0
 12
-83.924894
 22
0.0
 32
0.0
  1
7.0
  3
DIM1
100
AcDbAlignedDimension
 13
751.935214
 23
409.559226
 33
0.0
 14
744.935214
 24
400.559226
 34
0.0
100
AcDbRotatedDimension
1001
ACAD
1000
DSTYLE
1002
{
1070
   144
1040
1.0
1002
}
  0
DIMENSION
  5
226
100
AcDbEntity
  8
DIMS
100
AcDbDimension
  2
*D7
 10
805.935214
 20
362.279548
 30
0.0
 11
816.578071
 21
365.279548
 31
0.0
 12
-83.924894
 22
0.0
 32
0.0
  1
7.0
  3
DIM1
100
AcDbAlignedDimension
 13
798.935214
 23
408.259226
 33
0.0
 14
805.935214
 24
382.045835
 34
0.0
100
AcDbRotatedDimension
1001
ACAD
1000
DSTYLE
1002
{
1070
   144
1040
1.0
1002
}
  0
DIMENSION
  5
234
100
AcDbEntity
  8
DIMS
100
AcDbDimension
  2
*D8
 10
798.935214
 20
362.279548
 30
0.0
 11
775.435214
 21
365.279548
 31
0.0
 12
-83.924894
 22
0.0
 32
0.0
  3
DIM1
100
AcDbAlignedDimension
 13
751.935214
 23
409.559226
 33
0.0
 14
798.935214
 24
408.259226
 34
0.0
100
AcDbRotatedDimension
1001
ACAD
1000
DSTYLE
1002
{
1070
   144
1040
1.0
1002
}
  0
LINE
  5
241
100
AcDbEntity
  8
M01
100
AcDbLine
 10
787.935214
 20
523.559226
 30
0.0
 11
797.935214
 21
523.559226
 31
0.0
  0
LINE
  5
242
100
AcDbEntity
  8
M01
100
AcDbLine
 10
754.685214
 20
530.503326
 30
0.0
 11
761.185214
 21
530.503326
 31
0.0
  0
LINE
  5
243
100
AcDbEntity
  8
M01
100
AcDbLine
 10
754.685214
 20
538.615126
 30
0.0
 11
761.185214
 21
538.615126
 31
0.0
  0
LINE
  5
244
100
AcDbEntity
  8
M01
100
AcDbLine
 10
754.685214
 20
530.503326
 30
0.0
 11
754.685214
 21
528.559226
 31
0.0
  0
ARC
  5
245
100
AcDbEntity
  8
M01
100
AcDbCircle
 10
753.435214
 20
532.064576
 30
0.0
 40
2.0
100
AcDbArc
 50
308.682187
 51
0.0
  0
ARC
  5
246
100
AcDbEntity
  8
M01
100
AcDbCircle
 10
753.435214
 20
537.053876
 30
0.0
 40
2.0
100
AcDbArc
 50
0.0
 51
51.317813
  0
LINE
  5
247
100
AcDbEntity
  8
M01
100
AcDbLine
 10
754.685214
 20
540.559226
 30
0.0
 11
754.685214
 21
538.615126
 31
0.0
  0
LINE
  5
248
100
AcDbEntity
  8
M01
100
AcDbLine
 10
755.435214
 20
537.053876
 30
0.0
 11
755.435214
 21
532.064576
 31
0.0
  0
LINE
  5
249
100
AcDbEntity
  8
M01
100
AcDbLine
 10
761.185214
 20
530.503326
 30
0.0
 11
761.185214
 21
528.559226
 31
0.0
  0
ARC
  5
24A
100
AcDbEntity
  8
M01
100
AcDbCircle
 10
762.435214
 20
532.064576
 30
0.0
 40
2.0
100
AcDbArc
 50
180.0
 51
231.317813
  0
ARC
  5
24B
100
AcDbEntity
  8
M01
100
AcDbCircle
 10
762.435214
 20
537.053876
 30
0.0
 40
2.0
100
AcDbArc
 50
128.682187
 51
180.0
  0
LINE
  5
24C
100
AcDbEntity
  8
M01
100
AcDbLine
 10
761.185214
 20
540.559226
 30
0.0
 11
761.185214
 21
538.615126
 31
0.0
  0
LINE
  5
24D
100
AcDbEntity
  8
M01
100
AcDbLine
 10
760.435214
 20
537.053876
 30
0.0
 11
760.435214
 21
532.064576
 31
0.0
  0
LINE
  5
24E
100
AcDbEntity
  8
M01
100
AcDbLine
 10
752.935214
 20
523.559226
 30
0.0
 11
762.935214
 21
523.559226
 31
0.0
  0
LINE
  5
24F
100
AcDbEntity
  8
M01
100
AcDbLine
 10
797.935214
 20
528.559226
 30
0.0
 11
797.935214
 21
507.559226
 31
0.0
  0
LINE
  5
250
100
AcDbEntity
  8
M01
100
AcDbLine
 10
787.935214
 20
528.559226
 30
0.0
 11
787.935214
 21
508.559226
 31
0.0
  0
LINE
  5
251
100
AcDbEntity
  8
M01
100
AcDbLine
 10
752.935214
 20
528.559226
 30
0.0
 11
752.935214
 21
507.559226
 31
0.0
  0
LINE
  5
252
100
AcDbEntity
  8
M01
100
AcDbLine
 10
762.935214
 20
528.559226
 30
0.0
 11
762.935214
 21
508.559226
 31
0.0
  0
LINE
  5
253
100
AcDbEntity
  8
M01
100
AcDbLine
 10
479.022346
 20
540.559226
 30
0.0
 11
488.022346
 21
540.559226
 31
0.0
  0
LINE
  5
254
100
AcDbEntity
  8
M01
100
AcDbLine
 10
488.022346
 20
541.359226
 30
0.0
 11
488.022346
 21
540.559226
 31
0.0
  0
LINE
  5
255
100
AcDbEntity
  8
M01
100
AcDbLine
 10
479.022346
 20
541.359226
 30
0.0
 11
479.022346
 21
540.559226
 31
0.0
  0
LINE
  5
256
100
AcDbEntity
  8
M01
100
AcDbLine
 10
456.272346
 20
530.503326
 30
0.0
 11
462.772346
 21
530.503326
 31
0.0
  0
LINE
  5
257
100
AcDbEntity
  8
M01
100
AcDbLine
 10
456.272346
 20
538.615126
 30
0.0
 11
462.772346
 21
538.615126
 31
0.0
  0
LINE
  5
258
100
AcDbEntity
  8
M01
100
AcDbLine
 10
456.272346
 20
530.503326
 30
0.0
 11
456.272346
 21
528.559226
 31
0.0
  0
ARC
  5
259
100
AcDbEntity
  8
M01
100
AcDbCircle
 10
455.022346
 20
532.064576
 30
0.0
 40
2.0
100
AcDbArc
 50
308.682187
 51
0.0
  0
ARC
  5
25A
100
AcDbEntity
  8
M01
100
AcDbCircle
 10
455.022346
 20
537.053876
 30
0.0
 40
2.0
100
AcDbArc
 50
0.0
 51
51.317813
  0
LINE
  5
25B
100
AcDbEntity
  8
M01
100
AcDbLine
 10
456.272346
 20
540.559226
 30
0.0
 11
456.272346
 21
538.615126
 31
0.0
  0
LINE
  5
25C
100
AcDbEntity
  8
M01
100
AcDbLine
 10
457.022346
 20
537.053876
 30
0.0
 11
457.022346
 21
532.064576
 31
0.0
  0
LINE
  5
25D
100
AcDbEntity
  8
M01
100
AcDbLine
 10
462.772346
 20
530.503326
 30
0.0
 11
462.772346
 21
528.559226
 31
0.0
  0
ARC
  5
25E
100
AcDbEntity
  8
M01
100
AcDbCircle
 10
464.022346
 20
532.064576
 30
0.0
 40
2.0
100
AcDbArc
 50
180.0
 51
231.317813
  0
ARC
  5
25F
100
AcDbEntity
  8
M01
100
AcDbCircle
 10
464.022346
 20
537.053876
 30
0.0
 40
2.0
100
AcDbArc
 50
128.682187
 51
180.0
  0
LINE
  5
260
100
AcDbEntity
  8
M01
100
AcDbLine
 10
462.772346
 20
540.559226
 30
0.0
 11
462.772346
 21
538.615126
 31
0.0
  0
LINE
  5
261
100
AcDbEntity
  8
M01
100
AcDbLine
 10
462.022346
 20
537.053876
 30
0.0
 11
462.022346
 21
532.064576
 31
0.0
  0
LINE
  5
262
100
AcDbEntity
  8
M01
100
AcDbLine
 10
488.522346
 20
523.559226
 30
0.0
 11
478.522346
 21
523.559226
 31
0.0
  0
LINE
  5
263
100
AcDbEntity
  8
M01
100
AcDbLine
 10
454.522346
 20
523.559226
 30
0.0
 11
464.522346
 21
523.559226
 31
0.0
  0
LINE
  5
264
100
AcDbEntity
  8
M01
100
AcDbLine
 10
454.522346
 20
528.559226
 30
0.0
 11
454.522346
 21
508.559226
 31
0.0
  0
LINE
  5
265
100
AcDbEntity
  8
M01
100
AcDbLine
 10
464.522346
 20
528.559226
 30
0.0
 11
464.522346
 21
508.559226
 31
0.0
  0
LINE
  5
266
100
AcDbEntity
  8
M01
100
AcDbLine
 10
478.522346
 20
528.559226
 30
0.0
 11
478.522346
 21
508.559226
 31
0.0
  0
LINE
  5
267
100
AcDbEntity
  8
M01
100
AcDbLine
 10
488.522346
 20
528.559226
 30
0.0
 11
488.522346
 21
508.559226
 31
0.0
  0
LINE
  5
268
100
AcDbEntity
  8
CENTRE
100
AcDbLine
 10
326.022346
 20
256.513886
 30
0.0
 11
617.022346
 21
256.513886
 31
0.0
  0
ARC
  5
269
100
AcDbEntity
  8
M03
100
AcDbCircle
 10
471.522346
 20
432.559226
 30
0.0
 40
34.0
100
AcDbArc
 50
312.667925
 51
227.332075
  0
LINE
  5
26A
102
{ACAD_REACTORS
330
1A3
102
}
100
AcDbEntity
  8
M05
100
AcDbLine
 10
798.935214
 20
408.259226
 30
0.0
 11
798.935214
 21
409.559226
 31
0.0
  0
WIPEOUT
  5
26B
100
AcDbEntity
  8
TEXT
 92
      140
310
8C00000001000000840000000600000005000000EF2C422930568340FED34C7A84546F400000000000000000FE16E3371ACF8340FED34C7A84546F400000000000000000FF16E3371ACF8340FAD34C7A84D46F400000000000000000F12C422930568340FED34C7A84D46F400000000000000000EF2C422930568340FED34C
310
7A84546F400000000000000000
100
AcDbWipeout
 90
        0
 10
609.19673
 20
229.9501
 30
0.0
 11
24.691071
 21
0.0
 31
0.0
 12
0.0
 22
24.691071
 32
0.0
 13
0.0
 23
0.0
340
0
 70
     7
280
     1
281
    50
282
    50
283
     0
360
0
 71
     2
 91
        5
 14
-0.112136
 24
-0.337998
 14
0.5
 24
-0.337998
 14
0.5
 24
-0.5
 14
-0.112136
 24
-0.5
 14
-0.112136
 24
-0.337998
  0
TEXT
  5
26C
102
{ACAD_REACTORS
330
24
102
}
100
AcDbEntity
  8
TEXT
100
AcDbText
 10
619.773516
 20
251.641172
 30
0.0
 40
2.0
  1
MM010028
 41
0.9
100
AcDbText
  0
WIPEOUT
  5
26D
100
AcDbEntity
  8
TEXT
 92
      140
310
8C000000010000008400000006000000050000009D28B1121CF48740936963D771EE79400000000000000000AC125221066D8840936963D771EE79400000000000000000AD125221066D8840916963D7712E7A4000000000000000009F28B1121CF48740936963D7712E7A4000000000000000009D28B1121CF48740936963
310
D771EE79400000000000000000
100
AcDbWipeout
 90
        0
 10
757.863708
 20
395.138508
 30
0.0
 11
23.764286
 21
0.0
 31
0.0
 12
0.0
 22
23.764286
 32
0.0
 13
0.0
 23
0.0
340
0
 70
     7
280
     1
281
    50
282
    50
283
     0
360
0
 71
     2
 91
        5
 14
-0.136008
 24
-0.33168
 14
0.5
 24
-0.33168
 14
0.5
 24
-0.5
 14
-0.136008
 24
-0.5
 14
-0.136008
 24
-0.33168
  0
TEXT
  5
26E
102
{ACAD_REACTORS
330
20
102
}
100
AcDbEntity
  8
TEXT
100
AcDbText
 10
767.513708
 20
415.902793
 30
0.0
 40
2.0
  1
MM010028
 41
0.9
100
AcDbText
  0
MTEXT
  5
26F
102
{ACAD_REACTORS
330
270
102
}
100
AcDbEntity
  8
HATCH
 62
     2
100
AcDbMText
 10
632.662526
 20
215.172659
 30
0.0
 40
3.0
 41
0.0
 71
     1
 72
     5
  1
MA010006 (x2)
  0
LEADER
  5
270
100
AcDbEntity
  8
HATCH
 62
     4
100
AcDbLeader
  3
DIM1$7
 73
     0
 74
     0
 75
     1
 40
4.571429
 41
34.142857
 76
     3
 10
618.739701
 20
227.644599
 30
0.0
 10
628.162526
 20
213.672659
 30
0.0
 10
631.162526
 20
213.672659
 30
0.0
 77
   256
340
26F
213
0.0
223
-1.5
233
0.0
1001
ACAD
1000
DSTYLE
1002
{
1070
   144
1040
1.0
1002
}
  0
LINE
  5
271
102
{ACAD_REACTORS
330
DD
102
}
100
AcDbEntity
  8
M04
100
AcDbLine
 10
337.022346
 20
226.013886
 30
0.0
 11
452.022346
 21
226.013886
 31
0.0
  0
LINE
  5
272
102
{ACAD_REACTORS
330
21
102
}
100
AcDbEntity
  8
M02
100
AcDbLine
 10
348.022346
 20
230.013886
 30
0.0
 11
437.522346
 21
230.013886
 31
0.0
  0
LINE
  5
273
100
AcDbEntity
  8
M04
100
AcDbLine
 10
334.022346
 20
208.18598
 30
0.0
 11
336.322346
 21
209.513886
 31
0.0
  0
LINE
  5
274
100
AcDbEntity
  8
M04
100
AcDbLine
 10
331.722346
 20
209.513886
 30
0.0
 11
334.022346
 21
208.18598
 31
0.0
  0
LINE
  5
275
100
AcDbEntity
  8
M04
100
AcDbLine
 10
331.722346
 20
209.513886
 30
0.0
 11
336.322346
 21
209.513886
 31
0.0
  0
LINE
  5
276
100
AcDbEntity
  8
M04
100
AcDbLine
 10
331.022346
 20
214.575004
 30
0.0
 11
331.022346
 21
211.013886
 31
0.0
  0
LINE
  5
277
100
AcDbEntity
  8
M04
100
AcDbLine
 10
331.722346
 20
213.875004
 30
0.0
 11
331.722346
 21
209.513886
 31
0.0
  0
LINE
  5
278
100
AcDbEntity
  8
M04
100
AcDbLine
 10
337.022346
 20
214.575004
 30
0.0
 11
337.022346
 21
211.013886
 31
0.0
  0
LINE
  5
279
100
AcDbEntity
  8
M04
100
AcDbLine
 10
336.322346
 20
213.875004
 30
0.0
 11
336.322346
 21
209.513886
 31
0.0
  0
LINE
  5
27A
100
AcDbEntity
  8
M05
100
AcDbLine
 10
336.322346
 20
213.875004
 30
0.0
 11
337.022346
 21
214.575004
 31
0.0
  0
LINE
  5
27B
100
AcDbEntity
  8
M05
100
AcDbLine
 10
331.022346
 20
214.575004
 30
0.0
 11
331.722346
 21
213.875004
 31
0.0
  0
LINE
  5
27C
100
AcDbEntity
  8
M05
100
AcDbLine
 10
336.322346
 20
226.655004
 30
0.0
 11
336.322346
 21
213.875004
 31
0.0
  0
LINE
  5
27D
100
AcDbEntity
  8
M05
100
AcDbLine
 10
331.722346
 20
226.655004
 30
0.0
 11
331.722346
 21
213.875004
 31
0.0
  0
LINE
  5
27E
100
AcDbEntity
  8
M05
100
AcDbLine
 10
331.022346
 20
214.575004
 30
0.0
 11
337.022346
 21
214.575004
 31
0.0
  0
LINE
  5
27F
100
AcDbEntity
  8
M04
100
AcDbLine
 10
331.022346
 20
211.013886
 30
0.0
 11
337.022346
 21
211.013886
 31
0.0
  0
LINE
  5
280
100
AcDbEntity
  8
M05
100
AcDbLine
 10
331.722346
 20
213.875004
 30
0.0
 11
336.322346
 21
213.875004
 31
0.0
  0
LINE
  5
281
102
{ACAD_REACTORS
330
24
102
}
100
AcDbEntity
  8
M05
  6
HIDDEN
100
AcDbLine
 10
325.863464
 20
233.313886
 30
0.0
 11
325.163464
 21
234.013886
 31
0.0
  0
LINE
  5
282
102
{ACAD_REACTORS
330
24
102
}
100
AcDbEntity
  8
M05
  6
HIDDEN
100
AcDbLine
 10
342.181228
 20
233.313886
 30
0.0
 11
342.881228
 21
234.013886
 31
0.0
  0
LINE
  5
283
100
AcDbEntity
  8
M05
100
AcDbLine
 10
331.022346
 20
226.655004
 30
0.0
 11
337.022346
 21
226.655004
 31
0.0
  0
LINE
  5
284
100
AcDbEntity
  8
M05
100
AcDbLine
 10
334.572346
 20
231.155004
 30
0.0
 11
340.022346
 21
231.155004
 31
0.0
  0
LINE
  5
285
100
AcDbEntity
  8
M05
100
AcDbLine
 10
334.572346
 20
231.875004
 30
0.0
 11
340.022346
 21
231.875004
 31
0.0
  0
LINE
  5
286
100
AcDbEntity
  8
M05
100
AcDbLine
 10
334.572346
 20
231.875004
 30
0.0
 11
334.572346
 21
230.375004
 31
0.0
  0
LINE
  5
287
100
AcDbEntity
  8
M05
100
AcDbLine
 10
333.472346
 20
231.875004
 30
0.0
 11
333.472346
 21
230.375004
 31
0.0
  0
LINE
  5
288
100
AcDbEntity
  8
M05
100
AcDbLine
 10
333.472346
 20
230.375004
 30
0.0
 11
334.572346
 21
230.375004
 31
0.0
  0
LINE
  5
289
102
{ACAD_REACTORS
330
DD
102
}
100
AcDbEntity
  8
M05
100
AcDbLine
 10
337.522346
 20
228.655004
 30
0.0
 11
337.522346
 21
226.013886
 31
0.0
  0
LINE
  5
28A
102
{ACAD_REACTORS
330
DD
102
}
100
AcDbEntity
  8
M05
100
AcDbLine
 10
330.522346
 20
228.655004
 30
0.0
 11
330.522346
 21
226.013886
 31
0.0
  0
LINE
  5
28B
100
AcDbEntity
  8
M05
100
AcDbLine
 10
328.022346
 20
231.155004
 30
0.0
 11
333.472346
 21
231.155004
 31
0.0
  0
LINE
  5
28C
102
{ACAD_REACTORS
330
DD
330
24
102
}
100
AcDbEntity
  8
M05
100
AcDbLine
 10
331.022346
 20
228.155004
 30
0.0
 11
325.863464
 21
233.313886
 31
0.0
  0
LINE
  5
28D
100
AcDbEntity
  8
M05
100
AcDbLine
 10
328.022346
 20
231.875004
 30
0.0
 11
328.022346
 21
231.155004
 31
0.0
  0
LINE
  5
28E
102
{ACAD_REACTORS
330
DD
330
24
102
}
100
AcDbEntity
  8
M05
100
AcDbLine
 10
337.022346
 20
228.155004
 30
0.0
 11
342.181228
 21
233.313886
 31
0.0
  0
LINE
  5
28F
100
AcDbEntity
  8
M05
100
AcDbLine
 10
331.022346
 20
228.155004
 30
0.0
 11
337.022346
 21
228.155004
 31
0.0
  0
LINE
  5
290
100
AcDbEntity
  8
M05
100
AcDbLine
 10
331.022346
 20
228.155004
 30
0.0
 11
331.022346
 21
214.575004
 31
0.0
  0
LINE
  5
291
100
AcDbEntity
  8
M05
100
AcDbLine
 10
337.022346
 20
228.155004
 30
0.0
 11
337.022346
 21
214.575004
 31
0.0
  0
LINE
  5
292
100
AcDbEntity
  8
M05
100
AcDbLine
 10
340.022346
 20
231.875004
 30
0.0
 11
340.022346
 21
231.155004
 31
0.0
  0
LINE
  5
293
100
AcDbEntity
  8
M05
100
AcDbLine
 10
328.022346
 20
231.875004
 30
0.0
 11
333.472346
 21
231.875004
 31
0.0
  0
LINE
  5
294
102
{ACAD_REACTORS
330
24
102
}
100
AcDbEntity
  8
M05
  6
HIDDEN
100
AcDbLine
 10
320.022346
 20
233.313886
 30
0.0
 11
348.022346
 21
233.313886
 31
0.0
  0
LINE
  5
295
102
{ACAD_REACTORS
330
24
102
}
100
AcDbEntity
  8
M05
  6
HIDDEN
100
AcDbLine
 10
348.022346
 20
233.313886
 30
0.0
 11
347.322346
 21
234.013886
 31
0.0
  0
LINE
  5
296
102
{ACAD_REACTORS
330
24
102
}
100
AcDbEntity
  8
M05
  6
HIDDEN
100
AcDbLine
 10
348.022346
 20
232.313886
 30
0.0
 11
348.022346
 21
233.313886
 31
0.0
  0
LINE
  5
297
102
{ACAD_REACTORS
330
DD
102
}
100
AcDbEntity
  8
M05
100
AcDbLine
 10
348.022346
 20
232.313886
 30
0.0
 11
347.322346
 21
233.013886
 31
0.0
  0
LINE
  5
298
102
{ACAD_REACTORS
330
DD
102
}
100
AcDbEntity
  8
M05
100
AcDbLine
 10
348.022346
 20
226.713886
 30
0.0
 11
347.322346
 21
226.013886
 31
0.0
  0
LINE
  5
299
102
{ACAD_REACTORS
330
DD
102
}
100
AcDbEntity
  8
M05
100
AcDbLine
 10
348.022346
 20
232.313886
 30
0.0
 11
348.022346
 21
226.713886
 31
0.0
  0
LINE
  5
29A
102
{ACAD_REACTORS
330
24
102
}
100
AcDbEntity
  8
M05
  6
HIDDEN
100
AcDbLine
 10
320.022346
 20
233.313886
 30
0.0
 11
320.722346
 21
234.013886
 31
0.0
  0
LINE
  5
29B
102
{ACAD_REACTORS
330
24
102
}
100
AcDbEntity
  8
M05
  6
HIDDEN
100
AcDbLine
 10
320.022346
 20
232.313886
 30
0.0
 11
320.022346
 21
233.313886
 31
0.0
  0
LINE
  5
29C
102
{ACAD_REACTORS
330
DD
102
}
100
AcDbEntity
  8
M05
100
AcDbLine
 10
320.022346
 20
232.313886
 30
0.0
 11
320.722346
 21
233.013886
 31
0.0
  0
LINE
  5
29D
102
{ACAD_REACTORS
330
DD
102
}
100
AcDbEntity
  8
M05
100
AcDbLine
 10
320.022346
 20
226.713886
 30
0.0
 11
320.722346
 21
226.013886
 31
0.0
  0
LINE
  5
29E
102
{ACAD_REACTORS
330
21
102
}
100
AcDbEntity
  8
M02
100
AcDbLine
 10
349.022346
 20
233.013886
 30
0.0
 11
349.022346
 21
230.013886
 31
0.0
  0
LINE
  5
29F
102
{ACAD_REACTORS
330
21
102
}
100
AcDbEntity
  8
M02
100
AcDbLine
 10
319.022346
 20
233.013886
 30
0.0
 11
319.022346
 21
230.013886
 31
0.0
  0
LINE
  5
2A0
102
{ACAD_REACTORS
330
24
102
}
100
AcDbEntity
  8
M05
  6
HIDDEN
100
AcDbLine
 10
320.722346
 20
234.013886
 30
0.0
 11
347.322346
 21
234.013886
 31
0.0
  0
LINE
  5
2A1
102
{ACAD_REACTORS
330
DD
102
}
100
AcDbEntity
  8
M05
100
AcDbLine
 10
320.022346
 20
232.313886
 30
0.0
 11
320.022346
 21
226.713886
 31
0.0
  0
LINE
  5
2A2
102
{ACAD_REACTORS
330
24
102
}
100
AcDbEntity
  8
CENTRE
100
AcDbLine
 10
334.022346
 20
238.522996
 30
0.0
 11
334.022346
 21
205.444658
 31
0.0
  0
LINE
  5
2A3
100
AcDbEntity
  8
CENTRE
100
AcDbLine
 10
609.022346
 20
248.397127
 30
0.0
 11
609.022346
 21
290.362183
 31
0.0
  0
LINE
  5
2A4
100
AcDbEntity
  8
CENTRE
100
AcDbLine
 10
334.022346
 20
248.397127
 30
0.0
 11
334.022346
 21
290.362183
 31
0.0
  0
LINE
  5
2A5
100
AcDbEntity
  8
M04
100
AcDbLine
 10
609.022346
 20
208.18598
 30
0.0
 11
611.322346
 21
209.513886
 31
0.0
  0
LINE
  5
2A6
100
AcDbEntity
  8
M04
100
AcDbLine
 10
606.722346
 20
209.513886
 30
0.0
 11
609.022346
 21
208.18598
 31
0.0
  0
LINE
  5
2A7
100
AcDbEntity
  8
M04
100
AcDbLine
 10
606.722346
 20
209.513886
 30
0.0
 11
611.322346
 21
209.513886
 31
0.0
  0
LINE
  5
2A8
100
AcDbEntity
  8
M04
100
AcDbLine
 10
606.022346
 20
214.575004
 30
0.0
 11
606.022346
 21
211.013886
 31
0.0
  0
LINE
  5
2A9
100
AcDbEntity
  8
M04
100
AcDbLine
 10
606.722346
 20
213.875004
 30
0.0
 11
606.722346
 21
209.513886
 31
0.0
  0
LINE
  5
2AA
100
AcDbEntity
  8
M04
100
AcDbLine
 10
612.022346
 20
214.575004
 30
0.0
 11
612.022346
 21
211.013886
 31
0.0
  0
LINE
  5
2AB
100
AcDbEntity
  8
M04
100
AcDbLine
 10
611.322346
 20
213.875004
 30
0.0
 11
611.322346
 21
209.513886
 31
0.0
  0
LINE
  5
2AC
100
AcDbEntity
  8
M05
100
AcDbLine
 10
611.322346
 20
213.875004
 30
0.0
 11
612.022346
 21
214.575004
 31
0.0
  0
LINE
  5
2AD
100
AcDbEntity
  8
M05
100
AcDbLine
 10
606.022346
 20
214.575004
 30
0.0
 11
606.722346
 21
213.875004
 31
0.0
  0
LINE
  5
2AE
100
AcDbEntity
  8
M05
100
AcDbLine
 10
611.322346
 20
226.655004
 30
0.0
 11
611.322346
 21
213.875004
 31
0.0
  0
LINE
  5
2AF
100
AcDbEntity
  8
M05
100
AcDbLine
 10
606.722346
 20
226.655004
 30
0.0
 11
606.722346
 21
213.875004
 31
0.0
  0
LINE
  5
2B0
100
AcDbEntity
  8
M05
100
AcDbLine
 10
606.022346
 20
214.575004
 30
0.0
 11
612.022346
 21
214.575004
 31
0.0
  0
LINE
  5
2B1
100
AcDbEntity
  8
M04
100
AcDbLine
 10
606.022346
 20
211.013886
 30
0.0
 11
612.022346
 21
211.013886
 31
0.0
  0
LINE
  5
2B2
100
AcDbEntity
  8
M05
100
AcDbLine
 10
606.722346
 20
213.875004
 30
0.0
 11
611.322346
 21
213.875004
 31
0.0
  0
LINE
  5
2B3
102
{ACAD_REACTORS
330
24
102
}
100
AcDbEntity
  8
M05
  6
HIDDEN
100
AcDbLine
 10
600.863464
 20
233.313886
 30
0.0
 11
600.163464
 21
234.013886
 31
0.0
  0
LINE
  5
2B4
102
{ACAD_REACTORS
330
24
102
}
100
AcDbEntity
  8
M05
  6
HIDDEN
100
AcDbLine
 10
617.181228
 20
233.313886
 30
0.0
 11
617.881228
 21
234.013886
 31
0.0
  0
LINE
  5
2B5
100
AcDbEntity
  8
M04
100
AcDbLine
 10
612.022346
 20
226.013886
 30
0.0
 11
665.573128
 21
226.013886
 31
0.0
  0
LINE
  5
2B6
100
AcDbEntity
  8
M05
100
AcDbLine
 10
606.022346
 20
226.655004
 30
0.0
 11
612.022346
 21
226.655004
 31
0.0
  0
LINE
  5
2B7
100
AcDbEntity
  8
M05
100
AcDbLine
 10
609.572346
 20
231.155004
 30
0.0
 11
615.022346
 21
231.155004
 31
0.0
  0
LINE
  5
2B8
100
AcDbEntity
  8
M05
100
AcDbLine
 10
609.572346
 20
231.875004
 30
0.0
 11
615.022346
 21
231.875004
 31
0.0
  0
LINE
  5
2B9
100
AcDbEntity
  8
M05
100
AcDbLine
 10
609.572346
 20
231.875004
 30
0.0
 11
609.572346
 21
230.375004
 31
0.0
  0
LINE
  5
2BA
100
AcDbEntity
  8
M05
100
AcDbLine
 10
608.472346
 20
231.875004
 30
0.0
 11
608.472346
 21
230.375004
 31
0.0
  0
LINE
  5
2BB
100
AcDbEntity
  8
M05
100
AcDbLine
 10
608.472346
 20
230.375004
 30
0.0
 11
609.572346
 21
230.375004
 31
0.0
  0
LINE
  5
2BC
100
AcDbEntity
  8
M05
100
AcDbLine
 10
612.522346
 20
228.655004
 30
0.0
 11
612.522346
 21
226.013886
 31
0.0
  0
LINE
  5
2BD
100
AcDbEntity
  8
M05
100
AcDbLine
 10
605.522346
 20
228.655004
 30
0.0
 11
605.522346
 21
226.013886
 31
0.0
  0
LINE
  5
2BE
100
AcDbEntity
  8
M05
100
AcDbLine
 10
603.022346
 20
231.155004
 30
0.0
 11
608.472346
 21
231.155004
 31
0.0
  0
LINE
  5
2BF
102
{ACAD_REACTORS
330
24
102
}
100
AcDbEntity
  8
M05
100
AcDbLine
 10
606.022346
 20
228.155004
 30
0.0
 11
600.863464
 21
233.313886
 31
0.0
  0
LINE
  5
2C0
100
AcDbEntity
  8
M05
100
AcDbLine
 10
603.022346
 20
231.875004
 30
0.0
 11
603.022346
 21
231.155004
 31
0.0
  0
LINE
  5
2C1
102
{ACAD_REACTORS
330
24
102
}
100
AcDbEntity
  8
M05
100
AcDbLine
 10
612.022346
 20
228.155004
 30
0.0
 11
617.181228
 21
233.313886
 31
0.0
  0
LINE
  5
2C2
100
AcDbEntity
  8
M05
100
AcDbLine
 10
606.022346
 20
228.155004
 30
0.0
 11
612.022346
 21
228.155004
 31
0.0
  0
LINE
  5
2C3
100
AcDbEntity
  8
M05
100
AcDbLine
 10
606.022346
 20
228.155004
 30
0.0
 11
606.022346
 21
214.575004
 31
0.0
  0
LINE
  5
2C4
100
AcDbEntity
  8
M05
100
AcDbLine
 10
612.022346
 20
228.155004
 30
0.0
 11
612.022346
 21
214.575004
 31
0.0
  0
LINE
  5
2C5
100
AcDbEntity
  8
M05
100
AcDbLine
 10
615.022346
 20
231.875004
 30
0.0
 11
615.022346
 21
231.155004
 31
0.0
  0
LINE
  5
2C6
100
AcDbEntity
  8
M05
100
AcDbLine
 10
603.022346
 20
231.875004
 30
0.0
 11
608.472346
 21
231.875004
 31
0.0
  0
HATCH
  5
2C7
100
AcDbEntity
  8
HATCH
100
AcDbHatch
 10
0.0
 20
0.0
 30
0.0
210
0.0
220
0.0
230
1.0
  2
_U
 70
     0
 71
     1
 91
        1
 92
        7
 72
     0
 73
     1
 93
        4
 10
801.9352139304887
 20
506.5592260810631
 10
798.9352139304885
 20
506.5592260810631
 10
798.9352139304886
 20
467.5592260810632
 10
801.9352139304883
 20
467.5592260810632
 97
        4
330
47E
330
48B
330
430
330
47F
 75
     0
 76
     0
 52
135.0
 41
0.8
 77
     0
 78
     1
 53
135.0
 43
-22.654894
 44
0.0
 45
-0.5656854249492382
 46
-0.565685424949238
 79
     0
 47
0.167139
 98
        1
 10
800.830257
 20
494.836786
  0
LINE
  5
2C8
100
AcDbEntity
  8
DIMS
 62
     4
100
AcDbLine
 10
474.922346
 20
503.059226
 30
0.0
 11
477.222346
 21
503.059226
 31
0.0
  0
LINE
  5
2C9
100
AcDbEntity
  8
DIMS
 62
     4
100
AcDbLine
 10
468.122346
 20
503.059226
 30
0.0
 11
465.822346
 21
503.059226
 31
0.0
  0
LINE
  5
2CA
100
AcDbEntity
  8
DIMS
 62
     4
100
AcDbLine
 10
469.822346
 20
503.059226
 30
0.0
 11
473.222346
 21
503.059226
 31
0.0
  0
DIMENSION
  5
2CB
100
AcDbEntity
  8
DIMS
100
AcDbDimension
  2
*D9
 10
670.779302
 20
457.559226
 30
0.0
 11
667.779302
 21
432.559226
 31
0.0
 12
-83.924894
 22
0.0
 32
0.0
  1
W=<>
  3
DIM1
100
AcDbAlignedDimension
 13
629.022346
 23
407.559226
 33
0.0
 14
629.022346
 24
457.559226
 34
0.0
 50
90.0
100
AcDbRotatedDimension
1001
ACAD
1000
DSTYLE
1002
{
1070
   144
1040
1.0
1002
}
  0
DIMENSION
  5
2D8
100
AcDbEntity
  8
DIMS
100
AcDbDimension
  2
*D10
 10
641.022346
 20
347.196619
 30
0.0
 11
471.522346
 21
343.196619
 31
0.0
 12
-83.924894
 22
7.0
 32
0.0
  1
L=<>
  3
DIM1
100
AcDbAlignedDimension
 13
302.022346
 23
419.559226
 33
0.0
 14
641.022346
 24
419.559226
 34
0.0
100
AcDbRotatedDimension
1001
ACAD
1000
DSTYLE
1002
{
1070
   144
1040
1.0
1002
}
  0
DIMENSION
  5
2E5
100
AcDbEntity
  8
DIMS
100
AcDbDimension
  2
*D11
 10
609.022346
 20
356.972053
 30
0.0
 11
471.522346
 21
356.972053
 31
0.0
 12
-83.924894
 22
0.0
 32
0.0
 70
   128
  1
A=<>
  3
DIM1
100
AcDbAlignedDimension
 13
334.022346
 23
415.860422
 33
0.0
 14
609.022346
 24
415.846007
 34
0.0
100
AcDbRotatedDimension
1001
ACAD
1000
DSTYLE
1002
{
1070
   144
1040
1.0
1002
}
  0
DIMENSION
  5
2F2
100
AcDbEntity
  8
DIMS
100
AcDbDimension
  2
*D12
 10
471.522346
 20
367.026785
 30
0.0
 11
410.754898
 21
367.026785
 31
0.0
 12
-83.924894
 22
0.0
 32
0.0
 70
   128
  1
A/2=<>
  3
DIM1
100
AcDbAlignedDimension
 13
334.022346
 23
415.860422
 33
0.0
 14
471.522346
 24
392.559226
 34
0.0
100
AcDbRotatedDimension
1001
ACAD
1000
DSTYLE
1002
{
1070
   144
1040
1.0
1002
}
  0
LINE
  5
2FF
100
AcDbEntity
  8
M01
100
AcDbLine
 10
789.904125
 20
550.459226
 30
0.0
 11
795.966303
 21
550.459226
 31
0.0
  0
ARC
  5
300
100
AcDbEntity
  8
M01
100
AcDbCircle
 10
795.966303
 20
548.609921
 30
0.0
 40
1.150694
100
AcDbArc
 50
208.592423
 51
331.407577
  0
ARC
  5
301
100
AcDbEntity
  8
M01
100
AcDbCircle
 10
792.935214
 20
551.162004
 30
0.0
 40
3.702778
100
AcDbArc
 50
236.92527
 51
303.07473
  0
ARC
  5
302
100
AcDbEntity
  8
M01
100
AcDbCircle
 10
789.904125
 20
548.609921
 30
0.0
 40
1.150694
100
AcDbArc
 50
208.592423
 51
331.407577
  0
ARC
  5
303
100
AcDbEntity
  8
M01
100
AcDbCircle
 10
795.966303
 20
549.308532
 30
0.0
 40
1.150694
100
AcDbArc
 50
28.592423
 51
151.407577
  0
ARC
  5
304
100
AcDbEntity
  8
M01
100
AcDbCircle
 10
792.935214
 20
546.756448
 30
0.0
 40
3.702778
100
AcDbArc
 50
56.92527
 51
123.07473
  0
LINE
  5
305
100
AcDbEntity
  8
M01
100
AcDbLine
 10
794.95594
 20
549.859226
 30
0.0
 11
794.95594
 21
548.059226
 31
0.0
  0
LINE
  5
306
100
AcDbEntity
  8
M01
100
AcDbLine
 10
796.976666
 20
549.859226
 30
0.0
 11
796.976666
 21
548.059226
 31
0.0
  0
ARC
  5
307
100
AcDbEntity
  8
M01
100
AcDbCircle
 10
789.904125
 20
549.308532
 30
0.0
 40
1.150694
100
AcDbArc
 50
28.592423
 51
151.407577
  0
LINE
  5
308
100
AcDbEntity
  8
M01
100
AcDbLine
 10
790.914488
 20
549.859226
 30
0.0
 11
790.914488
 21
548.059226
 31
0.0
  0
LINE
  5
309
100
AcDbEntity
  8
M01
100
AcDbLine
 10
788.893762
 20
549.859226
 30
0.0
 11
788.893762
 21
548.059226
 31
0.0
  0
LINE
  5
30A
100
AcDbEntity
  8
M01
100
AcDbLine
 10
797.935214
 20
545.159226
 30
0.0
 11
797.935214
 21
546.659226
 31
0.0
  0
LINE
  5
30B
100
AcDbEntity
  8
M01
100
AcDbLine
 10
787.935214
 20
545.159226
 30
0.0
 11
787.935214
 21
546.659226
 31
0.0
  0
LINE
  5
30C
100
AcDbEntity
  8
M01
100
AcDbLine
 10
797.435214
 20
546.659226
 30
0.0
 11
797.435214
 21
547.459226
 31
0.0
  0
LINE
  5
30D
100
AcDbEntity
  8
M01
100
AcDbLine
 10
788.435214
 20
546.659226
 30
0.0
 11
788.435214
 21
547.459226
 31
0.0
  0
LINE
  5
30E
100
AcDbEntity
  8
M01
100
AcDbLine
 10
788.435214
 20
547.459226
 30
0.0
 11
797.435214
 21
547.459226
 31
0.0
  0
LINE
  5
30F
100
AcDbEntity
  8
M01
100
AcDbLine
 10
787.935214
 20
546.659226
 30
0.0
 11
797.935214
 21
546.659226
 31
0.0
  0
LINE
  5
310
100
AcDbEntity
  8
M01
100
AcDbLine
 10
797.435214
 20
544.359226
 30
0.0
 11
797.435214
 21
545.159226
 31
0.0
  0
LINE
  5
311
100
AcDbEntity
  8
M01
100
AcDbLine
 10
788.435214
 20
544.359226
 30
0.0
 11
788.435214
 21
545.159226
 31
0.0
  0
LINE
  5
312
100
AcDbEntity
  8
M01
100
AcDbLine
 10
782.935214
 20
545.159226
 30
0.0
 11
797.935214
 21
545.159226
 31
0.0
  0
ARC
  5
313
100
AcDbEntity
  8
M01
100
AcDbCircle
 10
795.966303
 20
542.509921
 30
0.0
 40
1.150694
100
AcDbArc
 50
208.592423
 51
331.407577
  0
ARC
  5
314
100
AcDbEntity
  8
M01
100
AcDbCircle
 10
792.935214
 20
545.062004
 30
0.0
 40
3.702778
100
AcDbArc
 50
236.92527
 51
303.07473
  0
ARC
  5
315
100
AcDbEntity
  8
M01
100
AcDbCircle
 10
789.904125
 20
542.509921
 30
0.0
 40
1.150694
100
AcDbArc
 50
208.592423
 51
331.407577
  0
ARC
  5
316
100
AcDbEntity
  8
M01
100
AcDbCircle
 10
795.966303
 20
543.208532
 30
0.0
 40
1.150694
100
AcDbArc
 50
28.592423
 51
151.407577
  0
ARC
  5
317
100
AcDbEntity
  8
M01
100
AcDbCircle
 10
792.935214
 20
540.656448
 30
0.0
 40
3.702778
100
AcDbArc
 50
56.92527
 51
123.07473
  0
LINE
  5
318
100
AcDbEntity
  8
M01
100
AcDbLine
 10
794.95594
 20
543.759226
 30
0.0
 11
794.95594
 21
541.959226
 31
0.0
  0
LINE
  5
319
100
AcDbEntity
  8
M01
100
AcDbLine
 10
796.976666
 20
543.759226
 30
0.0
 11
796.976666
 21
541.959226
 31
0.0
  0
ARC
  5
31A
100
AcDbEntity
  8
M01
100
AcDbCircle
 10
789.904125
 20
543.208532
 30
0.0
 40
1.150694
100
AcDbArc
 50
28.592423
 51
151.407577
  0
LINE
  5
31B
100
AcDbEntity
  8
M01
100
AcDbLine
 10
790.914488
 20
543.759226
 30
0.0
 11
790.914488
 21
541.959226
 31
0.0
  0
LINE
  5
31C
100
AcDbEntity
  8
M01
100
AcDbLine
 10
788.893762
 20
543.759226
 30
0.0
 11
788.893762
 21
541.959226
 31
0.0
  0
LINE
  5
31D
100
AcDbEntity
  8
M01
100
AcDbLine
 10
788.435214
 20
544.359226
 30
0.0
 11
797.435214
 21
544.359226
 31
0.0
  0
LINE
  5
31E
100
AcDbEntity
  8
M01
100
AcDbLine
 10
788.435214
 20
541.359226
 30
0.0
 11
797.435214
 21
541.359226
 31
0.0
  0
LINE
  5
31F
100
AcDbEntity
  8
M01
100
AcDbLine
 10
788.435214
 20
540.559226
 30
0.0
 11
797.435214
 21
540.559226
 31
0.0
  0
LINE
  5
320
100
AcDbEntity
  8
M01
100
AcDbLine
 10
794.435214
 20
553.559226
 30
0.0
 11
794.935214
 21
553.059226
 31
0.0
  0
LINE
  5
321
100
AcDbEntity
  8
M01
100
AcDbLine
 10
790.935214
 20
553.059226
 30
0.0
 11
791.435214
 21
553.559226
 31
0.0
  0
LINE
  5
322
100
AcDbEntity
  8
M01
100
AcDbLine
 10
790.935214
 20
553.059226
 30
0.0
 11
794.935214
 21
553.059226
 31
0.0
  0
LINE
  5
323
100
AcDbEntity
  8
M01
100
AcDbLine
 10
794.435214
 20
553.559226
 30
0.0
 11
794.435214
 21
550.459226
 31
0.0
  0
LINE
  5
324
100
AcDbEntity
  8
M01
100
AcDbLine
 10
791.435214
 20
553.559226
 30
0.0
 11
791.435214
 21
550.459226
 31
0.0
  0
LINE
  5
325
100
AcDbEntity
  8
M01
100
AcDbLine
 10
790.935214
 20
553.059226
 30
0.0
 11
790.935214
 21
550.459226
 31
0.0
  0
LINE
  5
326
100
AcDbEntity
  8
M01
100
AcDbLine
 10
794.935214
 20
553.059226
 30
0.0
 11
794.935214
 21
550.459226
 31
0.0
  0
LINE
  5
327
100
AcDbEntity
  8
M01
100
AcDbLine
 10
791.435214
 20
553.559226
 30
0.0
 11
794.435214
 21
553.559226
 31
0.0
  0
LINE
  5
328
100
AcDbEntity
  8
M01
100
AcDbLine
 10
787.935214
 20
528.559226
 30
0.0
 11
797.935214
 21
528.559226
 31
0.0
  0
LINE
  5
329
100
AcDbEntity
  8
M01
100
AcDbLine
 10
797.435214
 20
541.359226
 30
0.0
 11
797.435214
 21
540.559226
 31
0.0
  0
LINE
  5
32A
100
AcDbEntity
  8
M01
100
AcDbLine
 10
788.435214
 20
541.359226
 30
0.0
 11
788.435214
 21
540.559226
 31
0.0
  0
LINE
  5
32B
100
AcDbEntity
  8
CENTRE
100
AcDbLine
 10
792.935214
 20
559.720115
 30
0.0
 11
792.935214
 21
496.126684
 31
0.0
  0
LINE
  5
32C
100
AcDbEntity
  8
M01
100
AcDbLine
 10
760.966303
 20
550.459226
 30
0.0
 11
754.904125
 21
550.459226
 31
0.0
  0
ARC
  5
32D
100
AcDbEntity
  8
M01
100
AcDbCircle
 10
754.904125
 20
548.609921
 30
0.0
 40
1.150694
100
AcDbArc
 50
208.592423
 51
331.407577
  0
ARC
  5
32E
100
AcDbEntity
  8
M01
100
AcDbCircle
 10
757.935214
 20
551.162004
 30
0.0
 40
3.702778
100
AcDbArc
 50
236.92527
 51
303.07473
  0
ARC
  5
32F
100
AcDbEntity
  8
M01
100
AcDbCircle
 10
760.966303
 20
548.609921
 30
0.0
 40
1.150694
100
AcDbArc
 50
208.592423
 51
331.407577
  0
ARC
  5
330
100
AcDbEntity
  8
M01
100
AcDbCircle
 10
754.904125
 20
549.308532
 30
0.0
 40
1.150694
100
AcDbArc
 50
28.592423
 51
151.407577
  0
ARC
  5
331
100
AcDbEntity
  8
M01
100
AcDbCircle
 10
757.935214
 20
546.756448
 30
0.0
 40
3.702778
100
AcDbArc
 50
56.92527
 51
123.07473
  0
LINE
  5
332
100
AcDbEntity
  8
M01
100
AcDbLine
 10
755.914488
 20
549.859226
 30
0.0
 11
755.914488
 21
548.059226
 31
0.0
  0
LINE
  5
333
100
AcDbEntity
  8
M01
100
AcDbLine
 10
753.893762
 20
549.859226
 30
0.0
 11
753.893762
 21
548.059226
 31
0.0
  0
ARC
  5
334
100
AcDbEntity
  8
M01
100
AcDbCircle
 10
760.966303
 20
549.308532
 30
0.0
 40
1.150694
100
AcDbArc
 50
28.592423
 51
151.407577
  0
LINE
  5
335
100
AcDbEntity
  8
M01
100
AcDbLine
 10
759.95594
 20
549.859226
 30
0.0
 11
759.95594
 21
548.059226
 31
0.0
  0
LINE
  5
336
100
AcDbEntity
  8
M01
100
AcDbLine
 10
761.976666
 20
549.859226
 30
0.0
 11
761.976666
 21
548.059226
 31
0.0
  0
LINE
  5
337
100
AcDbEntity
  8
M01
100
AcDbLine
 10
752.935214
 20
545.159226
 30
0.0
 11
752.935214
 21
546.659226
 31
0.0
  0
LINE
  5
338
100
AcDbEntity
  8
M01
100
AcDbLine
 10
753.435214
 20
546.659226
 30
0.0
 11
753.435214
 21
547.459226
 31
0.0
  0
LINE
  5
339
100
AcDbEntity
  8
M01
100
AcDbLine
 10
762.435214
 20
546.659226
 30
0.0
 11
762.435214
 21
547.459226
 31
0.0
  0
LINE
  5
33A
100
AcDbEntity
  8
M01
100
AcDbLine
 10
762.435214
 20
547.459226
 30
0.0
 11
753.435214
 21
547.459226
 31
0.0
  0
LINE
  5
33B
100
AcDbEntity
  8
M01
100
AcDbLine
 10
762.935214
 20
546.659226
 30
0.0
 11
752.935214
 21
546.659226
 31
0.0
  0
LINE
  5
33C
100
AcDbEntity
  8
M01
100
AcDbLine
 10
753.435214
 20
544.359226
 30
0.0
 11
753.435214
 21
545.159226
 31
0.0
  0
LINE
  5
33D
100
AcDbEntity
  8
M01
100
AcDbLine
 10
762.435214
 20
544.359226
 30
0.0
 11
762.435214
 21
545.159226
 31
0.0
  0
ARC
  5
33E
100
AcDbEntity
  8
M01
100
AcDbCircle
 10
754.904125
 20
542.509921
 30
0.0
 40
1.150694
100
AcDbArc
 50
208.592423
 51
331.407577
  0
ARC
  5
33F
100
AcDbEntity
  8
M01
100
AcDbCircle
 10
757.935214
 20
545.062004
 30
0.0
 40
3.702778
100
AcDbArc
 50
236.92527
 51
303.07473
  0
ARC
  5
340
100
AcDbEntity
  8
M01
100
AcDbCircle
 10
760.966303
 20
542.509921
 30
0.0
 40
1.150694
100
AcDbArc
 50
208.592423
 51
331.407577
  0
ARC
  5
341
100
AcDbEntity
  8
M01
100
AcDbCircle
 10
754.904125
 20
543.208532
 30
0.0
 40
1.150694
100
AcDbArc
 50
28.592423
 51
151.407577
  0
ARC
  5
342
100
AcDbEntity
  8
M01
100
AcDbCircle
 10
757.935214
 20
540.656448
 30
0.0
 40
3.702778
100
AcDbArc
 50
56.92527
 51
123.07473
  0
LINE
  5
343
100
AcDbEntity
  8
M01
100
AcDbLine
 10
755.914488
 20
543.759226
 30
0.0
 11
755.914488
 21
541.959226
 31
0.0
  0
LINE
  5
344
100
AcDbEntity
  8
M01
100
AcDbLine
 10
753.893762
 20
543.759226
 30
0.0
 11
753.893762
 21
541.959226
 31
0.0
  0
ARC
  5
345
100
AcDbEntity
  8
M01
100
AcDbCircle
 10
760.966303
 20
543.208532
 30
0.0
 40
1.150694
100
AcDbArc
 50
28.592423
 51
151.407577
  0
LINE
  5
346
100
AcDbEntity
  8
M01
100
AcDbLine
 10
759.95594
 20
543.759226
 30
0.0
 11
759.95594
 21
541.959226
 31
0.0
  0
LINE
  5
347
100
AcDbEntity
  8
M01
100
AcDbLine
 10
761.976666
 20
543.759226
 30
0.0
 11
761.976666
 21
541.959226
 31
0.0
  0
LINE
  5
348
100
AcDbEntity
  8
M01
100
AcDbLine
 10
762.435214
 20
544.359226
 30
0.0
 11
753.435214
 21
544.359226
 31
0.0
  0
LINE
  5
349
100
AcDbEntity
  8
M01
100
AcDbLine
 10
762.435214
 20
541.359226
 30
0.0
 11
753.435214
 21
541.359226
 31
0.0
  0
LINE
  5
34A
100
AcDbEntity
  8
M01
100
AcDbLine
 10
762.435214
 20
540.559226
 30
0.0
 11
753.435214
 21
540.559226
 31
0.0
  0
LINE
  5
34B
100
AcDbEntity
  8
M01
100
AcDbLine
 10
756.435214
 20
553.559226
 30
0.0
 11
755.935214
 21
553.059226
 31
0.0
  0
LINE
  5
34C
100
AcDbEntity
  8
M01
100
AcDbLine
 10
759.935214
 20
553.059226
 30
0.0
 11
759.435214
 21
553.559226
 31
0.0
  0
LINE
  5
34D
100
AcDbEntity
  8
M01
100
AcDbLine
 10
759.935214
 20
553.059226
 30
0.0
 11
755.935214
 21
553.059226
 31
0.0
  0
LINE
  5
34E
100
AcDbEntity
  8
M01
100
AcDbLine
 10
756.435214
 20
553.559226
 30
0.0
 11
756.435214
 21
550.459226
 31
0.0
  0
LINE
  5
34F
100
AcDbEntity
  8
M01
100
AcDbLine
 10
759.435214
 20
553.559226
 30
0.0
 11
759.435214
 21
550.459226
 31
0.0
  0
LINE
  5
350
100
AcDbEntity
  8
M01
100
AcDbLine
 10
759.935214
 20
553.059226
 30
0.0
 11
759.935214
 21
550.459226
 31
0.0
  0
LINE
  5
351
100
AcDbEntity
  8
M01
100
AcDbLine
 10
755.935214
 20
553.059226
 30
0.0
 11
755.935214
 21
550.459226
 31
0.0
  0
LINE
  5
352
100
AcDbEntity
  8
M01
100
AcDbLine
 10
759.435214
 20
553.559226
 30
0.0
 11
756.435214
 21
553.559226
 31
0.0
  0
LINE
  5
353
100
AcDbEntity
  8
M01
100
AcDbLine
 10
762.935214
 20
528.559226
 30
0.0
 11
752.935214
 21
528.559226
 31
0.0
  0
LINE
  5
354
100
AcDbEntity
  8
M01
100
AcDbLine
 10
753.435214
 20
541.359226
 30
0.0
 11
753.435214
 21
540.559226
 31
0.0
  0
LINE
  5
355
100
AcDbEntity
  8
M01
100
AcDbLine
 10
762.435214
 20
541.359226
 30
0.0
 11
762.435214
 21
540.559226
 31
0.0
  0
LINE
  5
356
102
{ACAD_REACTORS
330
20
102
}
100
AcDbEntity
  8
CENTRE
100
AcDbLine
 10
757.935214
 20
559.720115
 30
0.0
 11
757.935214
 21
496.126684
 31
0.0
  0
LINE
  5
357
100
AcDbEntity
  8
M01
100
AcDbLine
 10
486.553435
 20
550.459226
 30
0.0
 11
480.491258
 21
550.459226
 31
0.0
  0
ARC
  5
358
100
AcDbEntity
  8
M01
100
AcDbCircle
 10
480.491258
 20
548.609921
 30
0.0
 40
1.150694
100
AcDbArc
 50
208.592423
 51
331.407577
  0
ARC
  5
359
100
AcDbEntity
  8
M01
100
AcDbCircle
 10
483.522346
 20
551.162004
 30
0.0
 40
3.702778
100
AcDbArc
 50
236.92527
 51
303.07473
  0
ARC
  5
35A
100
AcDbEntity
  8
M01
100
AcDbCircle
 10
486.553435
 20
548.609921
 30
0.0
 40
1.150694
100
AcDbArc
 50
208.592423
 51
331.407577
  0
ARC
  5
35B
100
AcDbEntity
  8
M01
100
AcDbCircle
 10
480.491258
 20
549.308532
 30
0.0
 40
1.150694
100
AcDbArc
 50
28.592423
 51
151.407577
  0
ARC
  5
35C
100
AcDbEntity
  8
M01
100
AcDbCircle
 10
483.522346
 20
546.756448
 30
0.0
 40
3.702778
100
AcDbArc
 50
56.92527
 51
123.07473
  0
LINE
  5
35D
100
AcDbEntity
  8
M01
100
AcDbLine
 10
481.50162
 20
549.859226
 30
0.0
 11
481.50162
 21
548.059226
 31
0.0
  0
LINE
  5
35E
100
AcDbEntity
  8
M01
100
AcDbLine
 10
479.480895
 20
549.859226
 30
0.0
 11
479.480895
 21
548.059226
 31
0.0
  0
ARC
  5
35F
100
AcDbEntity
  8
M01
100
AcDbCircle
 10
486.553435
 20
549.308532
 30
0.0
 40
1.150694
100
AcDbArc
 50
28.592423
 51
151.407577
  0
LINE
  5
360
100
AcDbEntity
  8
M01
100
AcDbLine
 10
485.543072
 20
549.859226
 30
0.0
 11
485.543072
 21
548.059226
 31
0.0
  0
LINE
  5
361
100
AcDbEntity
  8
M01
100
AcDbLine
 10
487.563798
 20
549.859226
 30
0.0
 11
487.563798
 21
548.059226
 31
0.0
  0
LINE
  5
362
100
AcDbEntity
  8
M01
100
AcDbLine
 10
478.522346
 20
545.159226
 30
0.0
 11
478.522346
 21
546.659226
 31
0.0
  0
LINE
  5
363
100
AcDbEntity
  8
M01
100
AcDbLine
 10
488.522346
 20
545.159226
 30
0.0
 11
488.522346
 21
546.659226
 31
0.0
  0
LINE
  5
364
100
AcDbEntity
  8
M01
100
AcDbLine
 10
479.022346
 20
546.659226
 30
0.0
 11
479.022346
 21
547.459226
 31
0.0
  0
LINE
  5
365
100
AcDbEntity
  8
M01
100
AcDbLine
 10
488.022346
 20
546.659226
 30
0.0
 11
488.022346
 21
547.459226
 31
0.0
  0
LINE
  5
366
100
AcDbEntity
  8
M01
100
AcDbLine
 10
488.022346
 20
547.459226
 30
0.0
 11
479.022346
 21
547.459226
 31
0.0
  0
LINE
  5
367
100
AcDbEntity
  8
M01
100
AcDbLine
 10
488.522346
 20
546.659226
 30
0.0
 11
478.522346
 21
546.659226
 31
0.0
  0
LINE
  5
368
100
AcDbEntity
  8
M01
100
AcDbLine
 10
479.022346
 20
544.359226
 30
0.0
 11
479.022346
 21
545.159226
 31
0.0
  0
LINE
  5
369
100
AcDbEntity
  8
M01
100
AcDbLine
 10
488.022346
 20
544.359226
 30
0.0
 11
488.022346
 21
545.159226
 31
0.0
  0
LINE
  5
36A
100
AcDbEntity
  8
M01
100
AcDbLine
 10
488.522346
 20
545.159226
 30
0.0
 11
478.522346
 21
545.159226
 31
0.0
  0
ARC
  5
36B
100
AcDbEntity
  8
M01
100
AcDbCircle
 10
480.491258
 20
542.509921
 30
0.0
 40
1.150694
100
AcDbArc
 50
208.592423
 51
331.407577
  0
ARC
  5
36C
100
AcDbEntity
  8
M01
100
AcDbCircle
 10
483.522346
 20
545.062004
 30
0.0
 40
3.702778
100
AcDbArc
 50
236.92527
 51
303.07473
  0
ARC
  5
36D
100
AcDbEntity
  8
M01
100
AcDbCircle
 10
486.553435
 20
542.509921
 30
0.0
 40
1.150694
100
AcDbArc
 50
208.592423
 51
331.407577
  0
ARC
  5
36E
100
AcDbEntity
  8
M01
100
AcDbCircle
 10
480.491258
 20
543.208532
 30
0.0
 40
1.150694
100
AcDbArc
 50
28.592423
 51
151.407577
  0
ARC
  5
36F
100
AcDbEntity
  8
M01
100
AcDbCircle
 10
483.522346
 20
540.656448
 30
0.0
 40
3.702778
100
AcDbArc
 50
56.92527
 51
123.07473
  0
LINE
  5
370
100
AcDbEntity
  8
M01
100
AcDbLine
 10
481.50162
 20
543.759226
 30
0.0
 11
481.50162
 21
541.959226
 31
0.0
  0
LINE
  5
371
100
AcDbEntity
  8
M01
100
AcDbLine
 10
479.480895
 20
543.759226
 30
0.0
 11
479.480895
 21
541.959226
 31
0.0
  0
ARC
  5
372
100
AcDbEntity
  8
M01
100
AcDbCircle
 10
486.553435
 20
543.208532
 30
0.0
 40
1.150694
100
AcDbArc
 50
28.592423
 51
151.407577
  0
LINE
  5
373
100
AcDbEntity
  8
M01
100
AcDbLine
 10
485.543072
 20
543.759226
 30
0.0
 11
485.543072
 21
541.959226
 31
0.0
  0
LINE
  5
374
100
AcDbEntity
  8
M01
100
AcDbLine
 10
487.563798
 20
543.759226
 30
0.0
 11
487.563798
 21
541.959226
 31
0.0
  0
LINE
  5
375
100
AcDbEntity
  8
M01
100
AcDbLine
 10
488.022346
 20
544.359226
 30
0.0
 11
479.022346
 21
544.359226
 31
0.0
  0
LINE
  5
376
100
AcDbEntity
  8
M01
100
AcDbLine
 10
488.022346
 20
541.359226
 30
0.0
 11
479.022346
 21
541.359226
 31
0.0
  0
LINE
  5
377
100
AcDbEntity
  8
M01
100
AcDbLine
 10
482.022346
 20
553.559226
 30
0.0
 11
481.522346
 21
553.059226
 31
0.0
  0
LINE
  5
378
100
AcDbEntity
  8
M01
100
AcDbLine
 10
485.522346
 20
553.059226
 30
0.0
 11
485.022346
 21
553.559226
 31
0.0
  0
LINE
  5
379
100
AcDbEntity
  8
M01
100
AcDbLine
 10
485.522346
 20
553.059226
 30
0.0
 11
481.522346
 21
553.059226
 31
0.0
  0
LINE
  5
37A
100
AcDbEntity
  8
M01
100
AcDbLine
 10
482.022346
 20
553.559226
 30
0.0
 11
482.022346
 21
550.459226
 31
0.0
  0
LINE
  5
37B
100
AcDbEntity
  8
M01
100
AcDbLine
 10
485.022346
 20
553.559226
 30
0.0
 11
485.022346
 21
550.459226
 31
0.0
  0
LINE
  5
37C
100
AcDbEntity
  8
M01
100
AcDbLine
 10
485.522346
 20
553.059226
 30
0.0
 11
485.522346
 21
550.459226
 31
0.0
  0
LINE
  5
37D
100
AcDbEntity
  8
M01
100
AcDbLine
 10
481.522346
 20
553.059226
 30
0.0
 11
481.522346
 21
550.459226
 31
0.0
  0
LINE
  5
37E
100
AcDbEntity
  8
M01
100
AcDbLine
 10
485.022346
 20
553.559226
 30
0.0
 11
482.022346
 21
553.559226
 31
0.0
  0
LINE
  5
37F
100
AcDbEntity
  8
M01
100
AcDbLine
 10
488.522346
 20
528.559226
 30
0.0
 11
478.522346
 21
528.559226
 31
0.0
  0
LINE
  5
380
100
AcDbEntity
  8
CENTRE
100
AcDbLine
 10
483.522346
 20
559.720115
 30
0.0
 11
483.522346
 21
496.126684
 31
0.0
  0
LINE
  5
381
100
AcDbEntity
  8
M01
100
AcDbLine
 10
456.491258
 20
550.459226
 30
0.0
 11
462.553435
 21
550.459226
 31
0.0
  0
ARC
  5
382
100
AcDbEntity
  8
M01
100
AcDbCircle
 10
462.553435
 20
548.609921
 30
0.0
 40
1.150694
100
AcDbArc
 50
208.592423
 51
331.407577
  0
ARC
  5
383
100
AcDbEntity
  8
M01
100
AcDbCircle
 10
459.522346
 20
551.162004
 30
0.0
 40
3.702778
100
AcDbArc
 50
236.92527
 51
303.07473
  0
ARC
  5
384
100
AcDbEntity
  8
M01
100
AcDbCircle
 10
456.491258
 20
548.609921
 30
0.0
 40
1.150694
100
AcDbArc
 50
208.592423
 51
331.407577
  0
ARC
  5
385
100
AcDbEntity
  8
M01
100
AcDbCircle
 10
462.553435
 20
549.308532
 30
0.0
 40
1.150694
100
AcDbArc
 50
28.592423
 51
151.407577
  0
ARC
  5
386
100
AcDbEntity
  8
M01
100
AcDbCircle
 10
459.522346
 20
546.756448
 30
0.0
 40
3.702778
100
AcDbArc
 50
56.92527
 51
123.07473
  0
LINE
  5
387
100
AcDbEntity
  8
M01
100
AcDbLine
 10
461.543072
 20
549.859226
 30
0.0
 11
461.543072
 21
548.059226
 31
0.0
  0
LINE
  5
388
100
AcDbEntity
  8
M01
100
AcDbLine
 10
463.563798
 20
549.859226
 30
0.0
 11
463.563798
 21
548.059226
 31
0.0
  0
ARC
  5
389
100
AcDbEntity
  8
M01
100
AcDbCircle
 10
456.491258
 20
549.308532
 30
0.0
 40
1.150694
100
AcDbArc
 50
28.592423
 51
151.407577
  0
LINE
  5
38A
100
AcDbEntity
  8
M01
100
AcDbLine
 10
457.50162
 20
549.859226
 30
0.0
 11
457.50162
 21
548.059226
 31
0.0
  0
LINE
  5
38B
100
AcDbEntity
  8
M01
100
AcDbLine
 10
455.480895
 20
549.859226
 30
0.0
 11
455.480895
 21
548.059226
 31
0.0
  0
LINE
  5
38C
100
AcDbEntity
  8
M01
100
AcDbLine
 10
464.522346
 20
545.159226
 30
0.0
 11
464.522346
 21
546.659226
 31
0.0
  0
LINE
  5
38D
100
AcDbEntity
  8
M01
100
AcDbLine
 10
454.522346
 20
545.159226
 30
0.0
 11
454.522346
 21
546.659226
 31
0.0
  0
LINE
  5
38E
100
AcDbEntity
  8
M01
100
AcDbLine
 10
464.022346
 20
546.659226
 30
0.0
 11
464.022346
 21
547.459226
 31
0.0
  0
LINE
  5
38F
100
AcDbEntity
  8
M01
100
AcDbLine
 10
455.022346
 20
546.659226
 30
0.0
 11
455.022346
 21
547.459226
 31
0.0
  0
LINE
  5
390
100
AcDbEntity
  8
M01
100
AcDbLine
 10
455.022346
 20
547.459226
 30
0.0
 11
464.022346
 21
547.459226
 31
0.0
  0
LINE
  5
391
100
AcDbEntity
  8
M01
100
AcDbLine
 10
454.522346
 20
546.659226
 30
0.0
 11
464.522346
 21
546.659226
 31
0.0
  0
LINE
  5
392
100
AcDbEntity
  8
M01
100
AcDbLine
 10
464.022346
 20
544.359226
 30
0.0
 11
464.022346
 21
545.159226
 31
0.0
  0
LINE
  5
393
100
AcDbEntity
  8
M01
100
AcDbLine
 10
455.022346
 20
544.359226
 30
0.0
 11
455.022346
 21
545.159226
 31
0.0
  0
LINE
  5
394
100
AcDbEntity
  8
M01
100
AcDbLine
 10
454.522346
 20
545.159226
 30
0.0
 11
464.522346
 21
545.159226
 31
0.0
  0
ARC
  5
395
100
AcDbEntity
  8
M01
100
AcDbCircle
 10
462.553435
 20
542.509921
 30
0.0
 40
1.150694
100
AcDbArc
 50
208.592423
 51
331.407577
  0
ARC
  5
396
100
AcDbEntity
  8
M01
100
AcDbCircle
 10
459.522346
 20
545.062004
 30
0.0
 40
3.702778
100
AcDbArc
 50
236.92527
 51
303.07473
  0
ARC
  5
397
100
AcDbEntity
  8
M01
100
AcDbCircle
 10
456.491258
 20
542.509921
 30
0.0
 40
1.150694
100
AcDbArc
 50
208.592423
 51
331.407577
  0
ARC
  5
398
100
AcDbEntity
  8
M01
100
AcDbCircle
 10
462.553435
 20
543.208532
 30
0.0
 40
1.150694
100
AcDbArc
 50
28.592423
 51
151.407577
  0
ARC
  5
399
100
AcDbEntity
  8
M01
100
AcDbCircle
 10
459.522346
 20
540.656448
 30
0.0
 40
3.702778
100
AcDbArc
 50
56.92527
 51
123.07473
  0
LINE
  5
39A
100
AcDbEntity
  8
M01
100
AcDbLine
 10
461.543072
 20
543.759226
 30
0.0
 11
461.543072
 21
541.959226
 31
0.0
  0
LINE
  5
39B
100
AcDbEntity
  8
M01
100
AcDbLine
 10
463.563798
 20
543.759226
 30
0.0
 11
463.563798
 21
541.959226
 31
0.0
  0
ARC
  5
39C
100
AcDbEntity
  8
M01
100
AcDbCircle
 10
456.491258
 20
543.208532
 30
0.0
 40
1.150694
100
AcDbArc
 50
28.592423
 51
151.407577
  0
LINE
  5
39D
100
AcDbEntity
  8
M01
100
AcDbLine
 10
457.50162
 20
543.759226
 30
0.0
 11
457.50162
 21
541.959226
 31
0.0
  0
LINE
  5
39E
100
AcDbEntity
  8
M01
100
AcDbLine
 10
455.480895
 20
543.759226
 30
0.0
 11
455.480895
 21
541.959226
 31
0.0
  0
LINE
  5
39F
100
AcDbEntity
  8
M01
100
AcDbLine
 10
455.022346
 20
544.359226
 30
0.0
 11
464.022346
 21
544.359226
 31
0.0
  0
LINE
  5
3A0
100
AcDbEntity
  8
M01
100
AcDbLine
 10
455.022346
 20
541.359226
 30
0.0
 11
464.022346
 21
541.359226
 31
0.0
  0
LINE
  5
3A1
100
AcDbEntity
  8
M01
100
AcDbLine
 10
455.022346
 20
540.559226
 30
0.0
 11
464.022346
 21
540.559226
 31
0.0
  0
LINE
  5
3A2
100
AcDbEntity
  8
M01
100
AcDbLine
 10
338.022346
 20
260.513886
 30
0.0
 11
334.022346
 21
256.513886
 31
0.0
  0
LINE
  5
3A3
102
{ACAD_REACTORS
330
24
102
}
100
AcDbEntity
  8
M01
100
AcDbLine
 10
467.522346
 20
252.513886
 30
0.0
 11
334.022346
 21
252.513886
 31
0.0
  0
LINE
  5
3A4
102
{ACAD_REACTORS
330
24
102
}
100
AcDbEntity
  8
M01
100
AcDbLine
 10
338.022346
 20
260.513886
 30
0.0
 11
338.022346
 21
280.013886
 31
0.0
  0
LINE
  5
3A5
102
{ACAD_REACTORS
330
24
102
}
100
AcDbEntity
  8
M01
100
AcDbLine
 10
330.022346
 20
256.513886
 30
0.0
 11
330.022346
 21
280.013886
 31
0.0
  0
ARC
  5
3A6
102
{ACAD_REACTORS
330
24
102
}
100
AcDbEntity
  8
M01
100
AcDbCircle
 10
334.022346
 20
256.513886
 30
0.0
 40
4.0
100
AcDbArc
 50
180.0
 51
270.0
  0
LINE
  5
3A7
100
AcDbEntity
  8
M01
100
AcDbLine
 10
467.522346
 20
252.513886
 30
0.0
 11
471.522346
 21
256.513886
 31
0.0
  0
LINE
  5
3A8
100
AcDbEntity
  8
M01
100
AcDbLine
 10
475.522346
 20
252.513886
 30
0.0
 11
471.522346
 21
256.513886
 31
0.0
  0
LINE
  5
3A9
100
AcDbEntity
  8
M01
100
AcDbLine
 10
605.022346
 20
260.513886
 30
0.0
 11
609.022346
 21
256.513886
 31
0.0
  0
LINE
  5
3AA
102
{ACAD_REACTORS
330
24
102
}
100
AcDbEntity
  8
M01
100
AcDbLine
 10
338.022346
 20
260.513886
 30
0.0
 11
605.022346
 21
260.513886
 31
0.0
  0
LINE
  5
3AB
102
{ACAD_REACTORS
330
24
102
}
100
AcDbEntity
  8
M01
100
AcDbLine
 10
475.522346
 20
252.513886
 30
0.0
 11
609.022346
 21
252.513886
 31
0.0
  0
LINE
  5
3AC
102
{ACAD_REACTORS
330
24
102
}
100
AcDbEntity
  8
M01
100
AcDbLine
 10
605.022346
 20
260.513886
 30
0.0
 11
605.022346
 21
280.013886
 31
0.0
  0
LINE
  5
3AD
102
{ACAD_REACTORS
330
24
102
}
100
AcDbEntity
  8
M01
100
AcDbLine
 10
613.022346
 20
256.513886
 30
0.0
 11
613.022346
 21
280.013886
 31
0.0
  0
ARC
  5
3AE
102
{ACAD_REACTORS
330
24
102
}
100
AcDbEntity
  8
M01
100
AcDbCircle
 10
609.022346
 20
256.513886
 30
0.0
 40
4.0
100
AcDbArc
 50
270.0
 51
0.0
  0
LINE
  5
3AF
102
{ACAD_REACTORS
330
21
102
}
100
AcDbEntity
  8
M02
100
AcDbLine
 10
623.022346
 20
230.013886
 30
0.0
 11
639.022346
 21
230.013886
 31
0.0
  0
LINE
  5
3B0
102
{ACAD_REACTORS
330
24
102
}
100
AcDbEntity
  8
M05
  6
HIDDEN
100
AcDbLine
 10
595.022346
 20
233.313886
 30
0.0
 11
623.022346
 21
233.313886
 31
0.0
  0
LINE
  5
3B1
102
{ACAD_REACTORS
330
24
102
}
100
AcDbEntity
  8
M05
  6
HIDDEN
100
AcDbLine
 10
623.022346
 20
233.313886
 30
0.0
 11
622.322346
 21
234.013886
 31
0.0
  0
LINE
  5
3B2
102
{ACAD_REACTORS
330
24
102
}
100
AcDbEntity
  8
M05
  6
HIDDEN
100
AcDbLine
 10
623.022346
 20
232.313886
 30
0.0
 11
623.022346
 21
233.313886
 31
0.0
  0
LINE
  5
3B3
100
AcDbEntity
  8
M05
100
AcDbLine
 10
623.022346
 20
232.313886
 30
0.0
 11
622.322346
 21
233.013886
 31
0.0
  0
LINE
  5
3B4
100
AcDbEntity
  8
M05
100
AcDbLine
 10
623.022346
 20
226.713886
 30
0.0
 11
622.322346
 21
226.013886
 31
0.0
  0
LINE
  5
3B5
100
AcDbEntity
  8
M05
100
AcDbLine
 10
623.022346
 20
232.313886
 30
0.0
 11
623.022346
 21
226.713886
 31
0.0
  0
LINE
  5
3B6
102
{ACAD_REACTORS
330
24
102
}
100
AcDbEntity
  8
M05
  6
HIDDEN
100
AcDbLine
 10
595.022346
 20
233.313886
 30
0.0
 11
595.722346
 21
234.013886
 31
0.0
  0
LINE
  5
3B7
102
{ACAD_REACTORS
330
24
102
}
100
AcDbEntity
  8
M05
  6
HIDDEN
100
AcDbLine
 10
595.022346
 20
232.313886
 30
0.0
 11
595.022346
 21
233.313886
 31
0.0
  0
LINE
  5
3B8
100
AcDbEntity
  8
M05
100
AcDbLine
 10
595.022346
 20
232.313886
 30
0.0
 11
595.722346
 21
233.013886
 31
0.0
  0
LINE
  5
3B9
100
AcDbEntity
  8
M05
100
AcDbLine
 10
595.022346
 20
226.713886
 30
0.0
 11
595.722346
 21
226.013886
 31
0.0
  0
LINE
  5
3BA
102
{ACAD_REACTORS
330
21
102
}
100
AcDbEntity
  8
M02
100
AcDbLine
 10
624.022346
 20
233.013886
 30
0.0
 11
624.022346
 21
230.013886
 31
0.0
  0
LINE
  5
3BB
102
{ACAD_REACTORS
330
21
102
}
100
AcDbEntity
  8
M02
100
AcDbLine
 10
594.022346
 20
233.013886
 30
0.0
 11
594.022346
 21
230.013886
 31
0.0
  0
LINE
  5
3BC
102
{ACAD_REACTORS
330
24
102
}
100
AcDbEntity
  8
M05
  6
HIDDEN
100
AcDbLine
 10
595.722346
 20
234.013886
 30
0.0
 11
622.322346
 21
234.013886
 31
0.0
  0
LINE
  5
3BD
100
AcDbEntity
  8
M05
100
AcDbLine
 10
595.022346
 20
232.313886
 30
0.0
 11
595.022346
 21
226.713886
 31
0.0
  0
LINE
  5
3BE
102
{ACAD_REACTORS
330
24
102
}
100
AcDbEntity
  8
CENTRE
100
AcDbLine
 10
609.022346
 20
238.522996
 30
0.0
 11
609.022346
 21
205.444658
 31
0.0
  0
TEXT
  5
3BF
102
{ACAD_REACTORS
330
128
102
}
100
AcDbEntity
  8
TEXT
100
AcDbText
 10
476.596427
 20
228.581373
 30
0.0
 40
2.0
  1
MA010000
 41
0.9
100
AcDbText
  0
TEXT
  5
3C0
102
{ACAD_REACTORS
330
1A3
102
}
100
AcDbEntity
  8
TEXT
100
AcDbText
 10
791.441866
 20
438.380683
 30
0.0
 40
2.0
  1
MA010000
 41
0.9
100
AcDbText
  0
LINE
  5
3C1
100
AcDbEntity
  8
M04
100
AcDbLine
 10
441.522346
 20
208.013886
 30
0.0
 11
441.522346
 21
199.013886
 31
0.0
  0
LINE
  5
3C2
100
AcDbEntity
  8
M04
100
AcDbLine
 10
491.022346
 20
226.013886
 30
0.0
 11
606.022346
 21
226.013886
 31
0.0
  0
LINE
  5
3C3
102
{ACAD_REACTORS
330
21
102
}
100
AcDbEntity
  8
M02
100
AcDbLine
 10
505.522346
 20
230.013886
 30
0.0
 11
595.022346
 21
230.013886
 31
0.0
  0
LINE
  5
3C4
102
{ACAD_REACTORS
330
128
102
}
100
AcDbEntity
  8
M05
100
AcDbLine
 10
437.522346
 20
227.713886
 30
0.0
 11
438.222346
 21
227.013886
 31
0.0
  0
LINE
  5
3C5
102
{ACAD_REACTORS
330
21
102
}
100
AcDbEntity
  8
M02
100
AcDbLine
 10
436.522346
 20
233.013886
 30
0.0
 11
436.522346
 21
230.013886
 31
0.0
  0
LINE
  5
3C6
102
{ACAD_REACTORS
330
128
330
24
102
}
100
AcDbEntity
  8
M01
100
AcDbLine
 10
481.522346
 20
233.013886
 30
0.0
 11
494.522346
 21
233.013886
 31
0.0
  0
LINE
  5
3C7
100
AcDbEntity
  8
M04
100
AcDbLine
 10
441.522346
 20
208.013886
 30
0.0
 11
501.522346
 21
208.013886
 31
0.0
  0
LINE
  5
3C8
100
AcDbEntity
  8
M04
100
AcDbLine
 10
451.522346
 20
218.013886
 30
0.0
 11
441.522346
 21
208.013886
 31
0.0
  0
LINE
  5
3C9
100
AcDbEntity
  8
M04
100
AcDbLine
 10
501.522346
 20
208.013886
 30
0.0
 11
501.522346
 21
199.013886
 31
0.0
  0
LINE
  5
3CA
100
AcDbEntity
  8
M04
100
AcDbLine
 10
491.522346
 20
218.013886
 30
0.0
 11
501.522346
 21
208.013886
 31
0.0
  0
LINE
  5
3CB
100
AcDbEntity
  8
M05
100
AcDbLine
 10
468.481472
 20
224.712671
 30
0.0
 11
474.56322
 21
224.712671
 31
0.0
  0
ARC
  5
3CC
102
{ACAD_REACTORS
330
128
102
}
100
AcDbEntity
  8
M05
100
AcDbCircle
 10
471.522346
 20
209.513886
 30
0.0
 40
15.5
100
AcDbArc
 50
101.313981
 51
126.249321
  0
LINE
  5
3CD
102
{ACAD_REACTORS
330
24
102
}
100
AcDbEntity
  8
M01
100
AcDbLine
 10
467.522346
 20
252.513886
 30
0.0
 11
467.522346
 21
243.013886
 31
0.0
  0
LINE
  5
3CE
102
{ACAD_REACTORS
330
128
102
}
100
AcDbEntity
  8
M05
100
AcDbLine
 10
467.522346
 20
243.013886
 30
0.0
 11
468.481472
 21
224.712671
 31
0.0
  0
LINE
  5
3CF
102
{ACAD_REACTORS
330
128
102
}
100
AcDbEntity
  8
M05
100
AcDbLine
 10
475.522346
 20
243.013886
 30
0.0
 11
474.56322
 21
224.712671
 31
0.0
  0
ARC
  5
3D0
102
{ACAD_REACTORS
330
128
102
}
100
AcDbEntity
  8
M05
100
AcDbCircle
 10
471.522346
 20
209.513886
 30
0.0
 40
15.5
100
AcDbArc
 50
53.750679
 51
78.686019
  0
LINE
  5
3D1
102
{ACAD_REACTORS
330
24
102
}
100
AcDbEntity
  8
M01
100
AcDbLine
 10
475.522346
 20
252.513886
 30
0.0
 11
475.522346
 21
243.013886
 31
0.0
  0
LINE
  5
3D2
100
AcDbEntity
  8
M04
100
AcDbLine
 10
451.522346
 20
224.013886
 30
0.0
 11
451.522346
 21
226.013886
 31
0.0
  0
LINE
  5
3D3
100
AcDbEntity
  8
M04
100
AcDbLine
 10
451.522346
 20
222.713886
 30
0.0
 11
451.522346
 21
218.013886
 31
0.0
  0
LINE
  5
3D4
100
AcDbEntity
  8
M04
100
AcDbLine
 10
491.522346
 20
224.013886
 30
0.0
 11
491.522346
 21
226.013886
 31
0.0
  0
LINE
  5
3D5
100
AcDbEntity
  8
M04
100
AcDbLine
 10
491.522346
 20
222.713886
 30
0.0
 11
491.522346
 21
218.013886
 31
0.0
  0
LINE
  5
3D6
100
AcDbEntity
  8
M04
100
AcDbLine
 10
491.522346
 20
218.013886
 30
0.0
 11
451.522346
 21
218.013886
 31
0.0
  0
LINE
  5
3D7
102
{ACAD_REACTORS
330
128
102
}
100
AcDbEntity
  8
M05
100
AcDbLine
 10
452.022346
 20
224.013886
 30
0.0
 11
451.522346
 21
224.013886
 31
0.0
  0
LINE
  5
3D8
102
{ACAD_REACTORS
330
128
102
}
100
AcDbEntity
  8
M05
100
AcDbLine
 10
452.022346
 20
227.013886
 30
0.0
 11
438.222346
 21
227.013886
 31
0.0
  0
LINE
  5
3D9
102
{ACAD_REACTORS
330
128
102
}
100
AcDbEntity
  8
M05
100
AcDbLine
 10
452.022346
 20
227.013886
 30
0.0
 11
452.022346
 21
224.013886
 31
0.0
  0
LINE
  5
3DA
102
{ACAD_REACTORS
330
128
102
}
100
AcDbEntity
  8
M05
100
AcDbLine
 10
491.022346
 20
227.013886
 30
0.0
 11
491.022346
 21
224.013886
 31
0.0
  0
LINE
  5
3DB
102
{ACAD_REACTORS
330
128
102
}
100
AcDbEntity
  8
M05
100
AcDbLine
 10
491.522346
 20
224.013886
 30
0.0
 11
491.022346
 21
224.013886
 31
0.0
  0
LINE
  5
3DC
102
{ACAD_REACTORS
330
128
102
}
100
AcDbEntity
  8
M05
100
AcDbLine
 10
452.222346
 20
222.013886
 30
0.0
 11
451.522346
 21
222.713886
 31
0.0
  0
LINE
  5
3DD
102
{ACAD_REACTORS
330
128
102
}
100
AcDbEntity
  8
M05
100
AcDbLine
 10
490.822346
 20
222.013886
 30
0.0
 11
491.522346
 21
222.713886
 31
0.0
  0
LINE
  5
3DE
102
{ACAD_REACTORS
330
128
102
}
100
AcDbEntity
  8
M05
100
AcDbLine
 10
490.822346
 20
222.013886
 30
0.0
 11
452.222346
 21
222.013886
 31
0.0
  0
LINE
  5
3DF
102
{ACAD_REACTORS
330
128
102
}
100
AcDbEntity
  8
M05
100
AcDbLine
 10
451.522346
 20
224.013886
 30
0.0
 11
451.522346
 21
222.713886
 31
0.0
  0
LINE
  5
3E0
102
{ACAD_REACTORS
330
128
102
}
100
AcDbEntity
  8
M05
100
AcDbLine
 10
491.522346
 20
224.013886
 30
0.0
 11
491.522346
 21
222.713886
 31
0.0
  0
LINE
  5
3E1
102
{ACAD_REACTORS
330
24
102
}
100
AcDbEntity
  8
M04
100
AcDbLine
 10
461.522346
 20
233.513886
 30
0.0
 11
461.022346
 21
233.013886
 31
0.0
  0
LINE
  5
3E2
102
{ACAD_REACTORS
330
24
102
}
100
AcDbEntity
  8
M04
100
AcDbLine
 10
481.522346
 20
233.513886
 30
0.0
 11
482.022346
 21
233.013886
 31
0.0
  0
LINE
  5
3E3
102
{ACAD_REACTORS
330
128
102
}
100
AcDbEntity
  8
M05
100
AcDbLine
 10
437.522346
 20
232.313886
 30
0.0
 11
438.222346
 21
233.013886
 31
0.0
  0
LINE
  5
3E4
102
{ACAD_REACTORS
330
128
102
}
100
AcDbEntity
  8
M05
100
AcDbLine
 10
437.522346
 20
232.313886
 30
0.0
 11
437.522346
 21
227.713886
 31
0.0
  0
LINE
  5
3E5
102
{ACAD_REACTORS
330
128
102
}
100
AcDbEntity
  8
M05
100
AcDbLine
 10
505.522346
 20
232.313886
 30
0.0
 11
504.822346
 21
233.013886
 31
0.0
  0
LINE
  5
3E6
102
{ACAD_REACTORS
330
128
102
}
100
AcDbEntity
  8
M05
100
AcDbLine
 10
505.522346
 20
227.713886
 30
0.0
 11
504.822346
 21
227.013886
 31
0.0
  0
LINE
  5
3E7
102
{ACAD_REACTORS
330
21
102
}
100
AcDbEntity
  8
M02
100
AcDbLine
 10
506.522346
 20
233.013886
 30
0.0
 11
506.522346
 21
230.013886
 31
0.0
  0
LINE
  5
3E8
102
{ACAD_REACTORS
330
128
102
}
100
AcDbEntity
  8
M05
100
AcDbLine
 10
504.822346
 20
227.013886
 30
0.0
 11
491.022346
 21
227.013886
 31
0.0
  0
LINE
  5
3E9
102
{ACAD_REACTORS
330
128
102
}
100
AcDbEntity
  8
M05
100
AcDbLine
 10
505.522346
 20
232.313886
 30
0.0
 11
505.522346
 21
227.713886
 31
0.0
  0
LINE
  5
3EA
102
{ACAD_REACTORS
330
24
102
}
100
AcDbEntity
  8
M04
100
AcDbLine
 10
461.522346
 20
242.013886
 30
0.0
 11
461.522346
 21
243.013886
 31
0.0
  0
LINE
  5
3EB
102
{ACAD_REACTORS
330
24
102
}
100
AcDbEntity
  8
M04
100
AcDbLine
 10
462.522346
 20
243.013886
 30
0.0
 11
461.522346
 21
243.013886
 31
0.0
  0
LINE
  5
3EC
102
{ACAD_REACTORS
330
24
102
}
100
AcDbEntity
  8
M04
100
AcDbLine
 10
481.522346
 20
242.013886
 30
0.0
 11
481.522346
 21
243.013886
 31
0.0
  0
LINE
  5
3ED
102
{ACAD_REACTORS
330
24
102
}
100
AcDbEntity
  8
M04
100
AcDbLine
 10
480.522346
 20
243.013886
 30
0.0
 11
481.522346
 21
243.013886
 31
0.0
  0
LINE
  5
3EE
102
{ACAD_REACTORS
330
128
102
}
100
AcDbEntity
  8
M05
100
AcDbLine
 10
480.522346
 20
243.013886
 30
0.0
 11
481.522346
 21
242.013886
 31
0.0
  0
LINE
  5
3EF
102
{ACAD_REACTORS
330
128
102
}
100
AcDbEntity
  8
M05
100
AcDbLine
 10
461.522346
 20
242.013886
 30
0.0
 11
462.522346
 21
243.013886
 31
0.0
  0
LINE
  5
3F0
102
{ACAD_REACTORS
330
128
330
24
102
}
100
AcDbEntity
  8
M05
100
AcDbLine
 10
480.522346
 20
243.013886
 30
0.0
 11
462.522346
 21
243.013886
 31
0.0
  0
LINE
  5
3F1
102
{ACAD_REACTORS
330
128
330
24
102
}
100
AcDbEntity
  8
M05
100
AcDbLine
 10
461.522346
 20
242.013886
 30
0.0
 11
461.522346
 21
233.013886
 31
0.0
  0
LINE
  5
3F2
102
{ACAD_REACTORS
330
128
330
24
102
}
100
AcDbEntity
  8
M05
100
AcDbLine
 10
481.522346
 20
242.013886
 30
0.0
 11
481.522346
 21
233.013886
 31
0.0
  0
LINE
  5
3F3
100
AcDbEntity
  8
M04
100
AcDbLine
 10
493.247346
 20
287.013886
 30
0.0
 11
648.022346
 21
287.013886
 31
0.0
  0
LINE
  5
3F4
102
{ACAD_REACTORS
330
22
102
}
100
AcDbEntity
  8
M02
100
AcDbLine
 10
493.247346
 20
283.013886
 30
0.0
 11
639.022346
 21
283.013886
 31
0.0
  0
LINE
  5
3F5
102
{ACAD_REACTORS
330
22
102
}
100
AcDbEntity
  8
M02
100
AcDbLine
 10
494.747346
 20
283.013886
 30
0.0
 11
494.747346
 21
280.013886
 31
0.0
  0
LINE
  5
3F6
102
{ACAD_REACTORS
330
21
102
}
100
AcDbEntity
  8
M02
100
AcDbLine
 10
304.022346
 20
230.013886
 30
0.0
 11
320.022346
 21
230.013886
 31
0.0
  0
LINE
  5
3F7
102
{ACAD_REACTORS
330
21
102
}
100
AcDbEntity
  8
M02
100
AcDbLine
 10
639.022346
 20
233.013886
 30
0.0
 11
639.022346
 21
230.013886
 31
0.0
  0
LINE
  5
3F8
102
{ACAD_REACTORS
330
21
102
}
100
AcDbEntity
  8
M02
100
AcDbLine
 10
304.022346
 20
233.013886
 30
0.0
 11
304.022346
 21
230.013886
 31
0.0
  0
LINE
  5
3F9
102
{ACAD_REACTORS
330
22
102
}
100
AcDbEntity
  8
M02
100
AcDbLine
 10
304.022346
 20
283.013886
 30
0.0
 11
449.797346
 21
283.013886
 31
0.0
  0
LINE
  5
3FA
102
{ACAD_REACTORS
330
22
102
}
100
AcDbEntity
  8
M02
100
AcDbLine
 10
639.022346
 20
280.013886
 30
0.0
 11
639.022346
 21
283.013886
 31
0.0
  0
LINE
  5
3FB
102
{ACAD_REACTORS
330
22
102
}
100
AcDbEntity
  8
M02
100
AcDbLine
 10
304.022346
 20
280.013886
 30
0.0
 11
304.022346
 21
283.013886
 31
0.0
  0
LINE
  5
3FC
102
{ACAD_REACTORS
330
24
102
}
100
AcDbEntity
  8
M01
100
AcDbLine
 10
641.022346
 20
235.013886
 30
0.0
 11
639.022346
 21
233.013886
 31
0.0
  0
LINE
  5
3FD
102
{ACAD_REACTORS
330
24
102
}
100
AcDbEntity
  8
M01
100
AcDbLine
 10
639.022346
 20
280.013886
 30
0.0
 11
641.022346
 21
278.013886
 31
0.0
  0
LINE
  5
3FE
102
{ACAD_REACTORS
330
24
102
}
100
AcDbEntity
  8
M01
100
AcDbLine
 10
302.022346
 20
278.013886
 30
0.0
 11
304.022346
 21
280.013886
 31
0.0
  0
LINE
  5
3FF
102
{ACAD_REACTORS
330
24
102
}
100
AcDbEntity
  8
M01
100
AcDbLine
 10
304.022346
 20
233.013886
 30
0.0
 11
302.022346
 21
235.013886
 31
0.0
  0
LINE
  5
400
102
{ACAD_REACTORS
330
24
102
}
100
AcDbEntity
  8
M01
100
AcDbLine
 10
641.022346
 20
278.013886
 30
0.0
 11
641.022346
 21
235.013886
 31
0.0
  0
LINE
  5
401
102
{ACAD_REACTORS
330
24
102
}
100
AcDbEntity
  8
M01
100
AcDbLine
 10
302.022346
 20
278.013886
 30
0.0
 11
302.022346
 21
235.013886
 31
0.0
  0
LINE
  5
402
102
{ACAD_REACTORS
330
128
330
DD
330
24
330
21
102
}
100
AcDbEntity
  8
M01
100
AcDbLine
 10
304.022346
 20
233.013886
 30
0.0
 11
461.522346
 21
233.013886
 31
0.0
  0
LINE
  5
403
102
{ACAD_REACTORS
330
24
330
22
102
}
100
AcDbEntity
  8
M01
100
AcDbLine
 10
304.022346
 20
280.013886
 30
0.0
 11
639.022346
 21
280.013886
 31
0.0
  0
LINE
  5
404
100
AcDbEntity
  8
M04
100
AcDbLine
 10
295.022346
 20
287.013886
 30
0.0
 11
449.797346
 21
287.013886
 31
0.0
  0
LINE
  5
405
102
{ACAD_REACTORS
330
24
102
}
100
AcDbEntity
  8
CENTRE
100
AcDbLine
 10
471.522346
 20
317.276091
 30
0.0
 11
471.522346
 21
189.693943
 31
0.0
  0
LINE
  5
406
100
AcDbEntity
  8
M04
100
AcDbLine
 10
648.022346
 20
287.013886
 30
0.0
 11
648.022346
 21
226.013886
 31
0.0
  0
LINE
  5
407
100
AcDbEntity
  8
M04
100
AcDbLine
 10
295.022346
 20
287.013886
 30
0.0
 11
295.022346
 21
226.013886
 31
0.0
  0
LINE
  5
408
102
{ACAD_REACTORS
330
DD
102
}
100
AcDbEntity
  8
M04
100
AcDbLine
 10
277.471565
 20
226.013886
 30
0.0
 11
331.022346
 21
226.013886
 31
0.0
  0
LINE
  5
409
100
AcDbEntity
  8
M04
100
AcDbLine
 10
777.935214
 20
568.559226
 30
0.0
 11
787.935214
 21
578.559226
 31
0.0
  0
LINE
  5
40A
100
AcDbEntity
  8
M04
100
AcDbLine
 10
787.935214
 20
589.230704
 30
0.0
 11
787.935214
 21
578.559226
 31
0.0
  0
LINE
  5
40B
100
AcDbEntity
  8
M04
100
AcDbLine
 10
823.935214
 20
402.559226
 30
0.0
 11
823.935214
 21
462.559226
 31
0.0
  0
LINE
  5
40C
100
AcDbEntity
  8
M04
100
AcDbLine
 10
823.935214
 20
402.559226
 30
0.0
 11
832.935214
 21
402.559226
 31
0.0
  0
LINE
  5
40D
100
AcDbEntity
  8
M04
100
AcDbLine
 10
813.935214
 20
412.559226
 30
0.0
 11
823.935214
 21
402.559226
 31
0.0
  0
LINE
  5
40E
100
AcDbEntity
  8
M04
100
AcDbLine
 10
744.935214
 20
568.559226
 30
0.0
 11
805.935214
 21
568.559226
 31
0.0
  0
LINE
  5
40F
100
AcDbEntity
  8
M04
100
AcDbLine
 10
823.935214
 20
462.559226
 30
0.0
 11
832.935214
 21
462.559226
 31
0.0
  0
LINE
  5
410
100
AcDbEntity
  8
M04
100
AcDbLine
 10
813.935214
 20
452.559226
 30
0.0
 11
823.935214
 21
462.559226
 31
0.0
  0
LINE
  5
411
100
AcDbEntity
  8
M05
100
AcDbLine
 10
807.236428
 20
429.518352
 30
0.0
 11
807.236428
 21
435.6001
 31
0.0
  0
ARC
  5
412
102
{ACAD_REACTORS
330
1A3
102
}
100
AcDbEntity
  8
M05
100
AcDbCircle
 10
822.435214
 20
432.559226
 30
0.0
 40
15.5
100
AcDbArc
 50
191.313981
 51
216.249321
  0
LINE
  5
413
102
{ACAD_REACTORS
330
20
102
}
100
AcDbEntity
  8
M01
100
AcDbLine
 10
775.435214
 20
428.559226
 30
0.0
 11
788.935214
 21
428.559226
 31
0.0
  0
LINE
  5
414
102
{ACAD_REACTORS
330
1A3
102
}
100
AcDbEntity
  8
M05
100
AcDbLine
 10
788.935214
 20
428.559226
 30
0.0
 11
807.236428
 21
429.518352
 31
0.0
  0
LINE
  5
415
102
{ACAD_REACTORS
330
1A3
102
}
100
AcDbEntity
  8
M05
100
AcDbLine
 10
788.935214
 20
436.559226
 30
0.0
 11
807.236428
 21
435.6001
 31
0.0
  0
ARC
  5
416
102
{ACAD_REACTORS
330
1A3
102
}
100
AcDbEntity
  8
M05
100
AcDbCircle
 10
822.435214
 20
432.559226
 30
0.0
 40
15.5
100
AcDbArc
 50
143.750679
 51
168.686019
  0
LINE
  5
417
102
{ACAD_REACTORS
330
20
102
}
100
AcDbEntity
  8
M01
100
AcDbLine
 10
775.435214
 20
436.559226
 30
0.0
 11
788.935214
 21
436.559226
 31
0.0
  0
LINE
  5
418
100
AcDbEntity
  8
M04
100
AcDbLine
 10
807.935214
 20
412.559226
 30
0.0
 11
805.935214
 21
412.559226
 31
0.0
  0
LINE
  5
419
100
AcDbEntity
  8
M04
100
AcDbLine
 10
809.235214
 20
412.559226
 30
0.0
 11
813.935214
 21
412.559226
 31
0.0
  0
LINE
  5
41A
100
AcDbEntity
  8
M04
100
AcDbLine
 10
807.935214
 20
452.559226
 30
0.0
 11
805.935214
 21
452.559226
 31
0.0
  0
LINE
  5
41B
100
AcDbEntity
  8
M04
100
AcDbLine
 10
809.235214
 20
452.559226
 30
0.0
 11
813.935214
 21
452.559226
 31
0.0
  0
LINE
  5
41C
100
AcDbEntity
  8
M04
100
AcDbLine
 10
813.935214
 20
452.559226
 30
0.0
 11
813.935214
 21
412.559226
 31
0.0
  0
LINE
  5
41D
102
{ACAD_REACTORS
330
1A3
102
}
100
AcDbEntity
  8
M05
100
AcDbLine
 10
807.935214
 20
413.059226
 30
0.0
 11
807.935214
 21
412.559226
 31
0.0
  0
LINE
  5
41E
102
{ACAD_REACTORS
330
1A3
102
}
100
AcDbEntity
  8
M05
100
AcDbLine
 10
804.935214
 20
413.059226
 30
0.0
 11
804.935214
 21
408.259226
 31
0.0
  0
LINE
  5
41F
102
{ACAD_REACTORS
330
1A3
102
}
100
AcDbEntity
  8
M05
100
AcDbLine
 10
804.935214
 20
413.059226
 30
0.0
 11
807.935214
 21
413.059226
 31
0.0
  0
LINE
  5
420
102
{ACAD_REACTORS
330
1A3
102
}
100
AcDbEntity
  8
M05
100
AcDbLine
 10
804.935214
 20
452.059226
 30
0.0
 11
807.935214
 21
452.059226
 31
0.0
  0
LINE
  5
421
102
{ACAD_REACTORS
330
1A3
102
}
100
AcDbEntity
  8
M05
100
AcDbLine
 10
807.935214
 20
452.559226
 30
0.0
 11
807.935214
 21
452.059226
 31
0.0
  0
LINE
  5
422
100
AcDbEntity
  8
M04
100
AcDbLine
 10
805.935214
 20
413.059226
 30
0.0
 11
805.935214
 21
382.045835
 31
0.0
  0
LINE
  5
423
102
{ACAD_REACTORS
330
1A3
102
}
100
AcDbEntity
  8
M05
100
AcDbLine
 10
809.935214
 20
413.259226
 30
0.0
 11
809.235214
 21
412.559226
 31
0.0
  0
LINE
  5
424
102
{ACAD_REACTORS
330
1A3
102
}
100
AcDbEntity
  8
M05
100
AcDbLine
 10
809.935214
 20
451.859226
 30
0.0
 11
809.235214
 21
452.559226
 31
0.0
  0
LINE
  5
425
102
{ACAD_REACTORS
330
1A3
102
}
100
AcDbEntity
  8
M05
100
AcDbLine
 10
809.935214
 20
451.859226
 30
0.0
 11
809.935214
 21
413.259226
 31
0.0
  0
LINE
  5
426
102
{ACAD_REACTORS
330
1A3
102
}
100
AcDbEntity
  8
M05
100
AcDbLine
 10
807.935214
 20
412.559226
 30
0.0
 11
809.235214
 21
412.559226
 31
0.0
  0
LINE
  5
427
102
{ACAD_REACTORS
330
1A3
102
}
100
AcDbEntity
  8
M05
100
AcDbLine
 10
807.935214
 20
452.559226
 30
0.0
 11
809.235214
 21
452.559226
 31
0.0
  0
LINE
  5
428
102
{ACAD_REACTORS
330
20
102
}
100
AcDbEntity
  8
M04
100
AcDbLine
 10
798.435214
 20
422.559226
 30
0.0
 11
798.935214
 21
422.059226
 31
0.0
  0
LINE
  5
429
102
{ACAD_REACTORS
330
1A3
330
20
102
}
100
AcDbEntity
  8
M01
100
AcDbLine
 10
798.935214
 20
422.559226
 30
0.0
 11
798.935214
 21
409.559226
 31
0.0
  0
LINE
  5
42A
102
{ACAD_REACTORS
330
20
102
}
100
AcDbEntity
  8
M04
100
AcDbLine
 10
798.435214
 20
442.559226
 30
0.0
 11
798.935214
 21
443.059226
 31
0.0
  0
LINE
  5
42B
102
{ACAD_REACTORS
330
1A3
102
}
100
AcDbEntity
  8
M05
100
AcDbLine
 10
799.635214
 20
407.559226
 30
0.0
 11
798.935214
 21
408.259226
 31
0.0
  0
LINE
  5
42C
102
{ACAD_REACTORS
330
1A3
102
}
100
AcDbEntity
  8
M05
100
AcDbLine
 10
804.235214
 20
407.559226
 30
0.0
 11
804.935214
 21
408.259226
 31
0.0
  0
LINE
  5
42D
102
{ACAD_REACTORS
330
1A3
102
}
100
AcDbEntity
  8
M05
100
AcDbLine
 10
799.635214
 20
407.559226
 30
0.0
 11
804.235214
 21
407.559226
 31
0.0
  0
LINE
  5
42E
102
{ACAD_REACTORS
330
1A3
102
}
100
AcDbEntity
  8
M05
100
AcDbLine
 10
799.635214
 20
466.559226
 30
0.0
 11
798.935214
 21
465.859226
 31
0.0
  0
LINE
  5
42F
102
{ACAD_REACTORS
330
1A3
102
}
100
AcDbEntity
  8
M05
100
AcDbLine
 10
804.235214
 20
466.559226
 30
0.0
 11
804.935214
 21
465.859226
 31
0.0
  0
LINE
  5
430
102
{ACAD_REACTORS
330
2C7
102
}
100
AcDbEntity
  8
M02
100
AcDbLine
 10
798.935214
 20
467.559226
 30
0.0
 11
801.935214
 21
467.559226
 31
0.0
  0
LINE
  5
431
102
{ACAD_REACTORS
330
1A3
102
}
100
AcDbEntity
  8
M05
100
AcDbLine
 10
804.935214
 20
465.859226
 30
0.0
 11
804.935214
 21
452.059226
 31
0.0
  0
LINE
  5
432
102
{ACAD_REACTORS
330
1A3
102
}
100
AcDbEntity
  8
M05
100
AcDbLine
 10
799.635214
 20
466.559226
 30
0.0
 11
804.235214
 21
466.559226
 31
0.0
  0
LINE
  5
433
102
{ACAD_REACTORS
330
20
102
}
100
AcDbEntity
  8
M04
100
AcDbLine
 10
789.935214
 20
422.559226
 30
0.0
 11
788.935214
 21
422.559226
 31
0.0
  0
LINE
  5
434
102
{ACAD_REACTORS
330
20
102
}
100
AcDbEntity
  8
M04
100
AcDbLine
 10
788.935214
 20
423.559226
 30
0.0
 11
788.935214
 21
422.559226
 31
0.0
  0
LINE
  5
435
102
{ACAD_REACTORS
330
20
102
}
100
AcDbEntity
  8
M04
100
AcDbLine
 10
789.935214
 20
442.559226
 30
0.0
 11
788.935214
 21
442.559226
 31
0.0
  0
LINE
  5
436
102
{ACAD_REACTORS
330
20
102
}
100
AcDbEntity
  8
M04
100
AcDbLine
 10
788.935214
 20
441.559226
 30
0.0
 11
788.935214
 21
442.559226
 31
0.0
  0
LINE
  5
437
102
{ACAD_REACTORS
330
1A3
102
}
100
AcDbEntity
  8
M05
100
AcDbLine
 10
788.935214
 20
441.559226
 30
0.0
 11
789.935214
 21
442.559226
 31
0.0
  0
LINE
  5
438
102
{ACAD_REACTORS
330
1A3
102
}
100
AcDbEntity
  8
M05
100
AcDbLine
 10
789.935214
 20
422.559226
 30
0.0
 11
788.935214
 21
423.559226
 31
0.0
  0
LINE
  5
439
102
{ACAD_REACTORS
330
1A3
330
20
102
}
100
AcDbEntity
  8
M05
100
AcDbLine
 10
788.935214
 20
441.559226
 30
0.0
 11
788.935214
 21
423.559226
 31
0.0
  0
LINE
  5
43A
102
{ACAD_REACTORS
330
1A3
330
20
102
}
100
AcDbEntity
  8
M05
100
AcDbLine
 10
789.935214
 20
422.559226
 30
0.0
 11
798.935214
 21
422.559226
 31
0.0
  0
LINE
  5
43B
102
{ACAD_REACTORS
330
1A3
330
20
102
}
100
AcDbEntity
  8
M05
100
AcDbLine
 10
789.935214
 20
442.559226
 30
0.0
 11
798.935214
 21
442.559226
 31
0.0
  0
LINE
  5
43C
100
AcDbEntity
  8
M04
100
AcDbLine
 10
488.522346
 20
568.559226
 30
0.0
 11
488.522346
 21
589.230704
 31
0.0
  0
LINE
  5
43D
100
AcDbEntity
  8
M04
100
AcDbLine
 10
454.522346
 20
568.559226
 30
0.0
 11
454.522346
 21
589.230704
 31
0.0
  0
ARC
  5
43E
100
AcDbEntity
  8
M04
100
AcDbCircle
 10
488.522346
 20
553.559226
 30
0.0
 40
15.0
100
AcDbArc
 50
360.0
 51
90.0
  0
ARC
  5
43F
100
AcDbEntity
  8
M04
100
AcDbCircle
 10
454.522346
 20
553.559226
 30
0.0
 40
15.0
100
AcDbArc
 50
90.0
 51
180.0
  0
LINE
  5
440
100
AcDbEntity
  8
M04
100
AcDbLine
 10
454.522346
 20
568.559226
 30
0.0
 11
488.522346
 21
568.559226
 31
0.0
  0
LINE
  5
441
100
AcDbEntity
  8
M01
100
AcDbLine
 10
461.022346
 20
553.559226
 30
0.0
 11
461.522346
 21
553.059226
 31
0.0
  0
LINE
  5
442
100
AcDbEntity
  8
M01
100
AcDbLine
 10
457.522346
 20
553.059226
 30
0.0
 11
458.022346
 21
553.559226
 31
0.0
  0
LINE
  5
443
100
AcDbEntity
  8
M01
100
AcDbLine
 10
457.522346
 20
553.059226
 30
0.0
 11
461.522346
 21
553.059226
 31
0.0
  0
LINE
  5
444
100
AcDbEntity
  8
M01
100
AcDbLine
 10
461.022346
 20
553.559226
 30
0.0
 11
461.022346
 21
550.459226
 31
0.0
  0
LINE
  5
445
100
AcDbEntity
  8
M01
100
AcDbLine
 10
458.022346
 20
553.559226
 30
0.0
 11
458.022346
 21
550.459226
 31
0.0
  0
LINE
  5
446
100
AcDbEntity
  8
M01
100
AcDbLine
 10
457.522346
 20
553.059226
 30
0.0
 11
457.522346
 21
550.459226
 31
0.0
  0
LINE
  5
447
100
AcDbEntity
  8
M01
100
AcDbLine
 10
461.522346
 20
553.059226
 30
0.0
 11
461.522346
 21
550.459226
 31
0.0
  0
LINE
  5
448
100
AcDbEntity
  8
M04
100
AcDbLine
 10
729.625813
 20
503.059226
 30
0.0
 11
731.935214
 21
507.059226
 31
0.0
  0
LINE
  5
449
100
AcDbEntity
  8
M04
100
AcDbLine
 10
731.935214
 20
499.059226
 30
0.0
 11
729.625813
 21
503.059226
 31
0.0
  0
LINE
  5
44A
100
AcDbEntity
  8
M04
100
AcDbLine
 10
734.935214
 20
499.059226
 30
0.0
 11
731.935214
 21
499.059226
 31
0.0
  0
LINE
  5
44B
100
AcDbEntity
  8
M04
100
AcDbLine
 10
731.935214
 20
507.059226
 30
0.0
 11
731.935214
 21
499.059226
 31
0.0
  0
LINE
  5
44C
100
AcDbEntity
  8
M04
100
AcDbLine
 10
734.935214
 20
507.059226
 30
0.0
 11
731.935214
 21
507.059226
 31
0.0
  0
ARC
  5
44D
100
AcDbEntity
  8
M05
100
AcDbCircle
 10
744.272918
 20
503.059226
 30
0.0
 40
10.837705
100
AcDbArc
 50
161.372238
 51
198.627762
  0
LINE
  5
44E
100
AcDbEntity
  8
M05
100
AcDbLine
 10
734.935214
 20
499.059226
 30
0.0
 11
734.002961
 21
499.597463
 31
0.0
  0
LINE
  5
44F
100
AcDbEntity
  8
M05
100
AcDbLine
 10
734.002961
 20
506.520989
 30
0.0
 11
734.002961
 21
499.597463
 31
0.0
  0
LINE
  5
450
100
AcDbEntity
  8
M05
100
AcDbLine
 10
734.935214
 20
507.059226
 30
0.0
 11
734.002961
 21
506.520989
 31
0.0
  0
LINE
  5
451
100
AcDbEntity
  8
M05
100
AcDbLine
 10
734.935214
 20
507.059226
 30
0.0
 11
734.935214
 21
499.059226
 31
0.0
  0
LINE
  5
452
100
AcDbEntity
  8
M04
100
AcDbLine
 10
744.935214
 20
499.059226
 30
0.0
 11
744.935214
 21
454.284226
 31
0.0
  0
LINE
  5
453
100
AcDbEntity
  8
M04
100
AcDbLine
 10
744.435214
 20
499.059226
 30
0.0
 11
744.935214
 21
498.559226
 31
0.0
  0
LINE
  5
454
100
AcDbEntity
  8
M04
100
AcDbLine
 10
744.435214
 20
507.059226
 30
0.0
 11
744.935214
 21
507.559226
 31
0.0
  0
ARC
  5
455
100
AcDbEntity
  8
M05
100
AcDbCircle
 10
743.801881
 20
503.059226
 30
0.0
 40
13.633333
100
AcDbArc
 50
342.938469
 51
17.061531
  0
LINE
  5
456
100
AcDbEntity
  8
M05
100
AcDbLine
 10
756.835214
 20
507.059226
 30
0.0
 11
756.835214
 21
499.059226
 31
0.0
  0
LINE
  5
457
100
AcDbEntity
  8
M05
100
AcDbLine
 10
734.935214
 20
499.059226
 30
0.0
 11
756.835214
 21
499.059226
 31
0.0
  0
LINE
  5
458
100
AcDbEntity
  8
M05
100
AcDbLine
 10
734.935214
 20
507.059226
 30
0.0
 11
756.835214
 21
507.059226
 31
0.0
  0
CIRCLE
  5
459
102
{ACAD_REACTORS
330
20
102
}
100
AcDbEntity
  8
M01
100
AcDbCircle
 10
775.435214
 20
432.559226
 30
0.0
 40
4.0
  0
CIRCLE
  5
45A
100
AcDbEntity
  8
M03
100
AcDbCircle
 10
471.522346
 20
432.559226
 30
0.0
 40
20.0
  0
LINE
  5
45B
102
{ACAD_REACTORS
330
23
102
}
100
AcDbEntity
  8
M02
100
AcDbLine
 10
748.935214
 20
455.784226
 30
0.0
 11
751.935214
 21
455.784226
 31
0.0
  0
LINE
  5
45C
100
AcDbEntity
  8
M04
100
AcDbLine
 10
744.935214
 20
410.834226
 30
0.0
 11
744.935214
 21
400.559226
 31
0.0
  0
LINE
  5
45D
100
AcDbEntity
  8
M01
100
AcDbLine
 10
458.022346
 20
553.559226
 30
0.0
 11
461.022346
 21
553.559226
 31
0.0
  0
LINE
  5
45E
102
{ACAD_REACTORS
330
20
102
}
100
AcDbEntity
  8
CENTRE
100
AcDbLine
 10
729.110292
 20
432.559226
 30
0.0
 11
838.827254
 21
432.559226
 31
0.0
  0
CIRCLE
  5
45F
100
AcDbEntity
  8
M01
100
AcDbCircle
 10
471.522346
 20
432.559226
 30
0.0
 40
22.225
  0
LINE
  5
460
100
AcDbEntity
  8
M01
100
AcDbLine
 10
454.522346
 20
528.559226
 30
0.0
 11
464.522346
 21
528.559226
 31
0.0
  0
LINE
  5
461
100
AcDbEntity
  8
M01
100
AcDbLine
 10
464.022346
 20
541.359226
 30
0.0
 11
464.022346
 21
540.559226
 31
0.0
  0
LINE
  5
462
100
AcDbEntity
  8
M01
100
AcDbLine
 10
455.022346
 20
541.359226
 30
0.0
 11
455.022346
 21
540.559226
 31
0.0
  0
LINE
  5
463
100
AcDbEntity
  8
CENTRE
100
AcDbLine
 10
459.522346
 20
559.720115
 30
0.0
 11
459.522346
 21
496.126684
 31
0.0
  0
LINE
  5
464
100
AcDbEntity
  8
CENTRE
100
AcDbLine
 10
724.589096
 20
503.059226
 30
0.0
 11
762.678796
 21
503.059226
 31
0.0
  0
LINE
  5
465
100
AcDbEntity
  8
M04
100
AcDbLine
 10
805.935214
 20
589.230704
 30
0.0
 11
805.935214
 21
452.059226
 31
0.0
  0
LINE
  5
466
100
AcDbEntity
  8
M04
100
AcDbLine
 10
503.522346
 20
471.559226
 30
0.0
 11
510.522346
 21
464.559226
 31
0.0
  0
LINE
  5
467
100
AcDbEntity
  8
M04
100
AcDbLine
 10
432.522346
 20
464.559226
 30
0.0
 11
439.522346
 21
471.559226
 31
0.0
  0
ARC
  5
468
100
AcDbEntity
  8
M04
100
AcDbCircle
 10
310.022346
 20
415.559226
 30
0.0
 40
15.0
100
AcDbArc
 50
180.0
 51
270.0
  0
ARC
  5
469
100
AcDbEntity
  8
M04
100
AcDbCircle
 10
310.022346
 20
449.559226
 30
0.0
 40
15.0
100
AcDbArc
 50
90.0
 51
180.0
  0
ARC
  5
46A
100
AcDbEntity
  8
M04
100
AcDbCircle
 10
633.022346
 20
449.559226
 30
0.0
 40
15.0
100
AcDbArc
 50
0.0
 51
90.0
  0
ARC
  5
46B
100
AcDbEntity
  8
M04
100
AcDbCircle
 10
633.022346
 20
415.559226
 30
0.0
 40
15.0
100
AcDbArc
 50
270.0
 51
0.0
  0
LINE
  5
46C
100
AcDbEntity
  8
M04
100
AcDbLine
 10
295.022346
 20
449.559226
 30
0.0
 11
295.022346
 21
415.559226
 31
0.0
  0
LINE
  5
46D
100
AcDbEntity
  8
M04
100
AcDbLine
 10
310.022346
 20
464.559226
 30
0.0
 11
432.522346
 21
464.559226
 31
0.0
  0
LINE
  5
46E
100
AcDbEntity
  8
M04
100
AcDbLine
 10
439.522346
 20
553.559226
 30
0.0
 11
439.522346
 21
471.559226
 31
0.0
  0
LINE
  5
46F
100
AcDbEntity
  8
M04
100
AcDbLine
 10
503.522346
 20
553.559226
 30
0.0
 11
503.522346
 21
471.559226
 31
0.0
  0
LINE
  5
470
100
AcDbEntity
  8
M04
100
AcDbLine
 10
510.522346
 20
464.559226
 30
0.0
 11
633.022346
 21
464.559226
 31
0.0
  0
LINE
  5
471
100
AcDbEntity
  8
M04
100
AcDbLine
 10
648.022346
 20
449.559226
 30
0.0
 11
648.022346
 21
415.559226
 31
0.0
  0
LINE
  5
472
100
AcDbEntity
  8
M04
100
AcDbLine
 10
310.022346
 20
400.559226
 30
0.0
 11
633.022346
 21
400.559226
 31
0.0
  0
LINE
  5
473
100
AcDbEntity
  8
M04
100
AcDbLine
 10
744.935214
 20
400.559226
 30
0.0
 11
805.935214
 21
400.559226
 31
0.0
  0
LINE
  5
474
100
AcDbEntity
  8
M04
100
AcDbLine
 10
744.935214
 20
568.559226
 30
0.0
 11
744.935214
 21
507.059226
 31
0.0
  0
CIRCLE
  5
475
100
AcDbEntity
  8
M03
100
AcDbCircle
 10
471.522346
 20
432.559226
 30
0.0
 40
9.5
  0
CIRCLE
  5
476
100
AcDbEntity
  8
M03
100
AcDbCircle
 10
471.522346
 20
432.559226
 30
0.0
 40
4.0
  0
LINE
  5
477
100
AcDbEntity
  8
M03
100
AcDbLine
 10
334.022346
 20
428.559226
 30
0.0
 11
609.022346
 21
428.559226
 31
0.0
  0
LINE
  5
478
100
AcDbEntity
  8
M03
100
AcDbLine
 10
334.022346
 20
436.559226
 30
0.0
 11
609.022346
 21
436.559226
 31
0.0
  0
CIRCLE
  5
479
100
AcDbEntity
  8
M01
100
AcDbCircle
 10
609.022346
 20
432.559226
 30
0.0
 40
4.0
  0
CIRCLE
  5
47A
100
AcDbEntity
  8
M01
100
AcDbCircle
 10
334.022346
 20
432.559226
 30
0.0
 40
4.0
  0
LINE
  5
47B
102
{ACAD_REACTORS
330
23
102
}
100
AcDbEntity
  8
M02
100
AcDbLine
 10
751.935214
 20
496.559226
 30
0.0
 11
748.935214
 21
496.559226
 31
0.0
  0
LINE
  5
47C
102
{ACAD_REACTORS
330
20
102
}
100
AcDbEntity
  8
M01
100
AcDbLine
 10
751.935214
 20
496.559226
 30
0.0
 11
757.935214
 21
496.559226
 31
0.0
  0
LINE
  5
47D
100
AcDbEntity
  8
M01
100
AcDbLine
 10
757.935214
 20
508.559226
 30
0.0
 11
757.935214
 21
496.559226
 31
0.0
  0
LINE
  5
47E
102
{ACAD_REACTORS
330
2C7
102
}
100
AcDbEntity
  8
M02
100
AcDbLine
 10
798.935214
 20
506.559226
 30
0.0
 11
801.935214
 21
506.559226
 31
0.0
  0
LINE
  5
47F
102
{ACAD_REACTORS
330
2C7
102
}
100
AcDbEntity
  8
M02
100
AcDbLine
 10
801.935214
 20
506.559226
 30
0.0
 11
801.935214
 21
466.559226
 31
0.0
  0
LINE
  5
480
102
{ACAD_REACTORS
330
23
102
}
100
AcDbEntity
  8
M02
100
AcDbLine
 10
748.935214
 20
499.059226
 30
0.0
 11
748.935214
 21
454.284226
 31
0.0
  0
LWPOLYLINE
  5
481
100
AcDbEntity
  8
M01
100
AcDbPolyline
 90
        2
 70
     0
 43
4.0
 10
471.522346
 20
505.059226
 42
0.414214
 10
469.522346
 20
503.059226
  0
LWPOLYLINE
  5
482
100
AcDbEntity
  8
M01
100
AcDbPolyline
 90
        2
 70
     0
 43
4.0
 10
471.522346
 20
501.059226
 42
0.414214
 10
473.522346
 20
503.059226
  0
CIRCLE
  5
483
100
AcDbEntity
  8
M01
100
AcDbCircle
 10
471.522346
 20
503.059226
 30
0.0
 40
4.0
  0
LINE
  5
484
100
AcDbEntity
  8
M01
100
AcDbLine
 10
475.522346
 20
500.559226
 30
0.0
 11
475.522346
 21
508.559226
 31
0.0
  0
LINE
  5
485
100
AcDbEntity
  8
M01
100
AcDbLine
 10
467.522346
 20
500.559226
 30
0.0
 11
467.522346
 21
508.559226
 31
0.0
  0
ARC
  5
486
100
AcDbEntity
  8
M01
100
AcDbCircle
 10
471.522346
 20
500.559226
 30
0.0
 40
4.0
100
AcDbArc
 50
180.0
 51
0.0
  0
LINE
  5
487
102
{ACAD_REACTORS
330
20
102
}
100
AcDbEntity
  8
M01
100
AcDbLine
 10
798.935214
 20
409.559226
 30
0.0
 11
796.935214
 21
407.559226
 31
0.0
  0
LINE
  5
488
102
{ACAD_REACTORS
330
20
102
}
100
AcDbEntity
  8
M01
100
AcDbLine
 10
796.935214
 20
508.559226
 30
0.0
 11
798.935214
 21
506.559226
 31
0.0
  0
LINE
  5
489
100
AcDbEntity
  8
M01
100
AcDbLine
 10
752.935214
 20
507.559226
 30
0.0
 11
753.935214
 21
508.559226
 31
0.0
  0
LINE
  5
48A
102
{ACAD_REACTORS
330
20
102
}
100
AcDbEntity
  8
M01
100
AcDbLine
 10
753.935214
 20
407.559226
 30
0.0
 11
751.935214
 21
409.559226
 31
0.0
  0
LINE
  5
48B
102
{ACAD_REACTORS
330
2C7
330
1A3
330
20
102
}
100
AcDbEntity
  8
M01
100
AcDbLine
 10
798.935214
 20
506.559226
 30
0.0
 11
798.935214
 21
461.559226
 31
0.0
  0
LINE
  5
48C
102
{ACAD_REACTORS
330
20
102
}
100
AcDbEntity
  8
M01
100
AcDbLine
 10
753.935214
 20
407.559226
 30
0.0
 11
796.935214
 21
407.559226
 31
0.0
  0
LINE
  5
48D
102
{ACAD_REACTORS
330
20
102
}
100
AcDbEntity
  8
M01
100
AcDbLine
 10
753.935214
 20
508.559226
 30
0.0
 11
796.935214
 21
508.559226
 31
0.0
  0
LINE
  5
48E
102
{ACAD_REACTORS
330
23
330
20
102
}
100
AcDbEntity
  8
M01
100
AcDbLine
 10
751.935214
 20
499.059226
 30
0.0
 11
751.935214
 21
409.559226
 31
0.0
  0
LINE
  5
48F
100
AcDbEntity
  8
M01
100
AcDbLine
 10
491.522346
 20
508.559226
 30
0.0
 11
493.522346
 21
506.559226
 31
0.0
  0
LINE
  5
490
100
AcDbEntity
  8
M01
100
AcDbLine
 10
449.522346
 20
506.559226
 30
0.0
 11
451.522346
 21
508.559226
 31
0.0
  0
LINE
  5
491
100
AcDbEntity
  8
M01
100
AcDbLine
 10
451.522346
 20
508.559226
 30
0.0
 11
491.522346
 21
508.559226
 31
0.0
  0
ARC
  5
492
100
AcDbEntity
  8
M01
100
AcDbCircle
 10
505.522346
 20
469.559226
 30
0.0
 40
12.0
100
AcDbArc
 50
180.0
 51
270.0
  0
ARC
  5
493
100
AcDbEntity
  8
M01
100
AcDbCircle
 10
437.522346
 20
469.559226
 30
0.0
 40
12.0
100
AcDbArc
 50
270.0
 51
0.0
  0
LINE
  5
494
100
AcDbEntity
  8
M01
100
AcDbLine
 10
505.522346
 20
457.559226
 30
0.0
 11
629.022346
 21
457.559226
 31
0.0
  0
LINE
  5
495
100
AcDbEntity
  8
M01
100
AcDbLine
 10
493.522346
 20
506.559226
 30
0.0
 11
493.522346
 21
469.559226
 31
0.0
  0
LINE
  5
496
100
AcDbEntity
  8
M01
100
AcDbLine
 10
449.522346
 20
506.559226
 30
0.0
 11
449.522346
 21
469.559226
 31
0.0
  0
LINE
  5
497
100
AcDbEntity
  8
M01
100
AcDbLine
 10
641.022346
 20
419.559226
 30
0.0
 11
629.022346
 21
407.559226
 31
0.0
  0
LINE
  5
498
100
AcDbEntity
  8
M01
100
AcDbLine
 10
629.022346
 20
457.559226
 30
0.0
 11
641.022346
 21
445.559226
 31
0.0
  0
LINE
  5
499
100
AcDbEntity
  8
M01
100
AcDbLine
 10
302.022346
 20
445.559226
 30
0.0
 11
314.022346
 21
457.559226
 31
0.0
  0
LINE
  5
49A
100
AcDbEntity
  8
M01
100
AcDbLine
 10
314.022346
 20
407.559226
 30
0.0
 11
302.022346
 21
419.559226
 31
0.0
  0
LINE
  5
49B
100
AcDbEntity
  8
M01
100
AcDbLine
 10
314.022346
 20
407.559226
 30
0.0
 11
629.022346
 21
407.559226
 31
0.0
  0
LINE
  5
49C
100
AcDbEntity
  8
M01
100
AcDbLine
 10
314.022346
 20
457.559226
 30
0.0
 11
437.522346
 21
457.559226
 31
0.0
  0
LINE
  5
49D
100
AcDbEntity
  8
M01
100
AcDbLine
 10
641.022346
 20
445.559226
 30
0.0
 11
641.022346
 21
419.559226
 31
0.0
  0
LINE
  5
49E
100
AcDbEntity
  8
M01
100
AcDbLine
 10
302.022346
 20
445.559226
 30
0.0
 11
302.022346
 21
419.559226
 31
0.0
  0
LINE
  5
49F
100
AcDbEntity
  8
CENTRE
100
AcDbLine
 10
471.522346
 20
523.559226
 30
0.0
 11
471.522346
 21
392.559226
 31
0.0
  0
LINE
  5
4A0
100
AcDbEntity
  8
CENTRE
100
AcDbLine
 10
287.022346
 20
432.559226
 30
0.0
 11
656.022346
 21
432.559226
 31
0.0
  0
ENDSEC
  0
SECTION
  2
OBJECTS
  0
DICTIONARY
  5
1C
100
AcDbDictionary
  3
ACAD_GROUP
350
1A
  3
ACAD_MLINESTYLE
350
1B
  0
DICTIONARY
  5
3
100
AcDbDictionary
280
     1
  3
ACAD_SORTENTS
360
4
  0
DICTIONARY
  5
1A
102
{ACAD_REACTORS
330
1C
102
}
100
AcDbDictionary
  0
DICTIONARY
  5
1B
102
{ACAD_REACTORS
330
1C
102
}
100
AcDbDictionary
  3
STANDARD
350
1E
  0
SORTENTSTABLE
  5
4
102
{ACAD_REACTORS
330
3
102
}
100
AcDbSortentsTable
330
2
  0
MLINESTYLE
  5
1E
102
{ACAD_REACTORS
330
1B
102
}
100
AcDbMlineStyle
  2
STANDARD
 70
     0
  3

 62
   256
 51
90.0
 52
90.0
 71
     2
 49
0.5
 62
   256
  6
BYLAYER
 49
-0.5
 62
   256
  6
BYLAYER
  0
ENDSEC
  0
EOF
