  0
SECTION
  2
HEADER
  9
$ACADVER
  1
AC1014
  9
$ACADMAINTVER
 70
     9
  9
$DWGCODEPAGE
  3
ANSI_1252
  9
$INSBASE
 10
0.0
 20
0.0
 30
0.0
  9
$EXTMIN
 10
173.782646
 20
161.00006
 30
0.0
  9
$EXTMAX
 10
1164.519848
 20
711.531522
 30
0.0
  9
$LIMMIN
 10
0.0
 20
0.0
  9
$LIMMAX
 10
1189.0
 20
841.0
  9
$ORTHOMODE
 70
     1
  9
$REGENMODE
 70
     1
  9
$FILLMODE
 70
     1
  9
$QTEXTMODE
 70
     0
  9
$MIRRTEXT
 70
     1
  9
$DRAGMODE
 70
     2
  9
$LTSCALE
 40
8.0
  9
$OSMODE
 70
     0
  9
$ATTMODE
 70
     1
  9
$TEXTSIZE
 40
3.0
  9
$TRACEWID
 40
10.0
  9
$TEXTSTYLE
  7
STANDARD
  9
$CLAYER
  8
HATCH
  9
$CELTYPE
  6
BYLAYER
  9
$CECOLOR
 62
   256
  9
$CELTSCALE
 40
1.0
  9
$DELOBJ
 70
     1
  9
$DISPSILH
 70
     0
  9
$DIMSCALE
 40
1.0
  9
$DIMASZ
 40
3.0
  9
$DIMEXO
 40
1.0
  9
$DIMDLI
 40
10.0
  9
$DIMRND
 40
0.01
  9
$DIMDLE
 40
1.25
  9
$DIMEXE
 40
2.5
  9
$DIMTP
 40
0.05
  9
$DIMTM
 40
0.0
  9
$DIMTXT
 40
3.0
  9
$DIMCEN
 40
-1.7
  9
$DIMTSZ
 40
0.0
  9
$DIMTOL
 70
     0
  9
$DIMLIM
 70
     0
  9
$DIMTIH
 70
     0
  9
$DIMTOH
 70
     0
  9
$DIMSE1
 70
     0
  9
$DIMSE2
 70
     0
  9
$DIMTAD
 70
     3
  9
$DIMZIN
 70
     1
  9
$DIMBLK
  1

  9
$DIMASO
 70
     1
  9
$DIMSHO
 70
     0
  9
$DIMPOST
  1

  9
$DIMAPOST
  1

  9
$DIMALT
 70
     0
  9
$DIMALTD
 70
     2
  9
$DIMALTF
 40
0.039
  9
$DIMLFAC
 40
1.0
  9
$DIMTOFL
 70
     0
  9
$DIMTVP
 40
1.5
  9
$DIMTIX
 70
     0
  9
$DIMSOXD
 70
     0
  9
$DIMSAH
 70
     0
  9
$DIMBLK1
  1

  9
$DIMBLK2
  1

  9
$DIMSTYLE
  2
DIM1
  9
$DIMCLRD
 70
     4
  9
$DIMCLRE
 70
     4
  9
$DIMCLRT
 70
     2
  9
$DIMTFAC
 40
0.7
  9
$DIMGAP
 40
1.5
  9
$DIMJUST
 70
     0
  9
$DIMSD1
 70
     0
  9
$DIMSD2
 70
     0
  9
$DIMTOLJ
 70
     1
  9
$DIMTZIN
 70
     1
  9
$DIMALTZ
 70
     1
  9
$DIMALTTZ
 70
     1
  9
$DIMFIT
 70
     0
  9
$DIMUPT
 70
     1
  9
$DIMUNIT
 70
     2
  9
$DIMDEC
 70
     2
  9
$DIMTDEC
 70
     2
  9
$DIMALTU
 70
     2
  9
$DIMALTTD
 70
     2
  9
$DIMTXSTY
  7
STANDARD
  9
$DIMAUNIT
 70
     0
  9
$LUNITS
 70
     2
  9
$LUPREC
 70
     2
  9
$SKETCHINC
 40
1.0
  9
$FILLETRAD
 40
10.0
  9
$AUNITS
 70
     0
  9
$AUPREC
 70
     3
  9
$MENU
  1
ACAD
  9
$ELEVATION
 40
0.0
  9
$PELEVATION
 40
0.0
  9
$THICKNESS
 40
0.0
  9
$LIMCHECK
 70
     0
  9
$BLIPMODE
 70
     1
  9
$CHAMFERA
 40
0.7
  9
$CHAMFERB
 40
0.7
  9
$CHAMFERC
 40
0.0
  9
$CHAMFERD
 40
0.0
  9
$SKPOLY
 70
     1
  9
$TDCREATE
 40
2449993.725698611
  9
$TDUPDATE
 40
2451970.591485046
  9
$TDINDWG
 40
0.9404879282
  9
$TDUSRTIMER
 40
0.9404879282
  9
$USRTIMER
 70
     1
  9
$ANGBASE
 50
0.0
  9
$ANGDIR
 70
     0
  9
$PDMODE
 70
     3
  9
$PDSIZE
 40
0.0
  9
$PLINEWID
 40
0.0
  9
$COORDS
 70
     2
  9
$SPLFRAME
 70
     0
  9
$SPLINETYPE
 70
     6
  9
$SPLINESEGS
 70
     6
  9
$ATTDIA
 70
     1
  9
$ATTREQ
 70
     1
  9
$HANDLING
 70
     1
  9
$HANDSEED
  5
4A7
  9
$SURFTAB1
 70
    12
  9
$SURFTAB2
 70
    12
  9
$SURFTYPE
 70
     6
  9
$SURFU
 70
    12
  9
$SURFV
 70
    12
  9
$UCSNAME
  2

  9
$UCSORG
 10
0.0
 20
0.0
 30
0.0
  9
$UCSXDIR
 10
1.0
 20
0.0
 30
0.0
  9
$UCSYDIR
 10
0.0
 20
1.0
 30
0.0
  9
$PUCSNAME
  2

  9
$PUCSORG
 10
0.0
 20
0.0
 30
0.0
  9
$PUCSXDIR
 10
1.0
 20
0.0
 30
0.0
  9
$PUCSYDIR
 10
0.0
 20
1.0
 30
0.0
  9
$USERI1
 70
     0
  9
$USERI2
 70
     0
  9
$USERI3
 70
     0
  9
$USERI4
 70
     0
  9
$USERI5
 70
     0
  9
$USERR1
 40
0.0
  9
$USERR2
 40
0.0
  9
$USERR3
 40
0.0
  9
$USERR4
 40
0.0
  9
$USERR5
 40
0.0
  9
$WORLDVIEW
 70
     0
  9
$SHADEDGE
 70
     3
  9
$SHADEDIF
 70
    70
  9
$TILEMODE
 70
     1
  9
$MAXACTVP
 70
    16
  9
$PINSBASE
 10
0.0
 20
0.0
 30
0.0
  9
$PLIMCHECK
 70
     0
  9
$PEXTMIN
 10
1.000000E+20
 20
1.000000E+20
 30
1.000000E+20
  9
$PEXTMAX
 10
-1.000000E+20
 20
-1.000000E+20
 30
-1.000000E+20
  9
$PLIMMIN
 10
0.0
 20
0.0
  9
$PLIMMAX
 10
12.0
 20
9.0
  9
$UNITMODE
 70
     0
  9
$VISRETAIN
 70
     0
  9
$PLINEGEN
 70
     0
  9
$PSLTSCALE
 70
     0
  9
$TREEDEPTH
 70
  3020
  9
$PICKSTYLE
 70
     1
  9
$CMLSTYLE
  2
STANDARD
  9
$CMLJUST
 70
     0
  9
$CMLSCALE
 40
1.0
  9
$PROXYGRAPHICS
 70
     1
  9
$MEASUREMENT
 70
     0
  0
ENDSEC
  0
SECTION
  2
CLASSES
  0
CLASS
  1
DICTIONARYVAR
  2
AcDbDictionaryVar
  3
"AutoCAD"
 90
        0
280
     0
281
     0
  0
CLASS
  1
LWPOLYLINE
  2
AcDbPolyline
  3
"AutoCAD"
 90
        0
280
     0
281
     1
  0
CLASS
  1
HATCH
  2
AcDbHatch
  3
"ACAD_SEDONA"
 90
        0
280
     0
281
     1
  0
CLASS
  1
SORTENTSTABLE
  2
AcDbSortentsTable
  3
"AutoCAD"
 90
        0
280
     0
281
     0
  0
CLASS
  1
WIPEOUTVARIABLES
  2
AcDbWipeoutVariables
  3
WIPEOUT
 90
        0
280
     0
281
     0
  0
CLASS
  1
WIPEOUT
  2
AcDbWipeout
  3
WIPEOUT
 90
      127
280
     0
281
     1
  0
ENDSEC
  0
SECTION
  2
TABLES
  0
TABLE
  2
VPORT
  5
14
100
AcDbSymbolTable
 70
     2
  0
VPORT
  5
4A6
100
AcDbSymbolTableRecord
100
AcDbViewportTableRecord
  2
*ACTIVE
 70
     0
 10
0.0
 20
0.0
 11
1.0
 21
1.0
 12
775.727863
 22
371.543205
 13
0.0
 23
0.0
 14
10.0
 24
10.0
 15
0.0
 25
0.0
 16
0.0
 26
0.0
 36
1.0
 17
16.313321
 27
12.779115
 37
0.222949
 40
528.608513
 41
1.494382
 42
50.0
 43
0.0
 44
0.0
 50
0.0
 51
0.0
 71
     0
 72
  2000
 73
     1
 74
     2
 75
     0
 76
     0
 77
     0
 78
     1
  0
ENDTAB
  0
TABLE
  2
LTYPE
  5
F
100
AcDbSymbolTable
 70
     3
  0
LTYPE
  5
10
100
AcDbSymbolTableRecord
100
AcDbLinetypeTableRecord
  2
BYBLOCK
 70
     0
  3

 72
    65
 73
     0
 40
0.0
  0
LTYPE
  5
11
100
AcDbSymbolTableRecord
100
AcDbLinetypeTableRecord
  2
BYLAYER
 70
     0
  3

 72
    65
 73
     0
 40
0.0
  0
LTYPE
  5
7
100
AcDbSymbolTableRecord
100
AcDbLinetypeTableRecord
  2
CONTINUOUS
 70
     0
  3
Solid line
 72
    65
 73
     0
 40
0.0
  0
LTYPE
  5
169
100
AcDbSymbolTableRecord
100
AcDbLinetypeTableRecord
  2
CENTER
 70
     0
  3
Center ____ _ ____ _ ____ _ ____ _ ____ _ ____
 72
    65
 73
     4
 40
2.0
 49
1.25
 74
     0
 49
-0.25
 74
     0
 49
0.25
 74
     0
 49
-0.25
 74
     0
  0
LTYPE
  5
5E
100
AcDbSymbolTableRecord
100
AcDbLinetypeTableRecord
  2
HIDDEN
 70
     0
  3
Hidden __ __ __ __ __ __ __ __ __ __ __ __ __ _
 72
    65
 73
     2
 40
0.375
 49
0.25
 74
     0
 49
-0.125
 74
     0
  0
ENDTAB
  0
TABLE
  2
LAYER
  5
C
100
AcDbSymbolTable
 70
    11
  0
LAYER
  5
6
100
AcDbSymbolTableRecord
100
AcDbLayerTableRecord
  2
0
 70
     0
 62
     7
  6
CONTINUOUS
  0
LAYER
  5
168
100
AcDbSymbolTableRecord
100
AcDbLayerTableRecord
  2
CENTRE
 70
     0
 62
     3
  6
CENTER
  0
LAYER
  5
C0
100
AcDbSymbolTableRecord
100
AcDbLayerTableRecord
  2
M01
 70
     0
 62
     1
  6
CONTINUOUS
  0
LAYER
  5
8C
100
AcDbSymbolTableRecord
100
AcDbLayerTableRecord
  2
M02
 70
     0
 62
     2
  6
CONTINUOUS
  0
LAYER
  5
5D
100
AcDbSymbolTableRecord
100
AcDbLayerTableRecord
  2
M03
 70
     0
 62
     2
  6
HIDDEN
  0
LAYER
  5
5A
100
AcDbSymbolTableRecord
100
AcDbLayerTableRecord
  2
M04
 70
     0
 62
     7
  6
CONTINUOUS
  0
LAYER
  5
68
100
AcDbSymbolTableRecord
100
AcDbLayerTableRecord
  2
M05
 70
     0
 62
     5
  6
CONTINUOUS
  0
LAYER
  5
22
100
AcDbSymbolTableRecord
100
AcDbLayerTableRecord
  2
DIMS
 70
     0
 62
     4
  6
CONTINUOUS
  0
LAYER
  5
89
100
AcDbSymbolTableRecord
100
AcDbLayerTableRecord
  2
TEXT
 70
     0
 62
     2
  6
CONTINUOUS
  0
LAYER
  5
1D
100
AcDbSymbolTableRecord
100
AcDbLayerTableRecord
  2
HATCH
 70
     0
 62
     4
  6
CONTINUOUS
  0
LAYER
  5
2B
100
AcDbSymbolTableRecord
100
AcDbLayerTableRecord
  2
DEFPOINTS
 70
     0
 62
     7
  6
CONTINUOUS
  0
ENDTAB
  0
TABLE
  2
STYLE
  5
D
100
AcDbSymbolTable
 70
     1
  0
STYLE
  5
E
100
AcDbSymbolTableRecord
100
AcDbTextStyleTableRecord
  2
STANDARD
 70
     0
 40
0.0
 41
1.0
 50
0.0
 71
     0
 42
3.0
  3
SIMPLEX
  4

  0
ENDTAB
  0
TABLE
  2
VIEW
  5
12
100
AcDbSymbolTable
 70
     0
  0
ENDTAB
  0
TABLE
  2
UCS
  5
13
100
AcDbSymbolTable
 70
     0
  0
ENDTAB
  0
TABLE
  2
APPID
  5
16
100
AcDbSymbolTable
 70
     1
  0
APPID
  5
17
100
AcDbSymbolTableRecord
100
AcDbRegAppTableRecord
  2
ACAD
 70
     0
  0
ENDTAB
  0
TABLE
  2
DIMSTYLE
  5
18
100
AcDbSymbolTable
 70
     2
  0
DIMSTYLE
105
1F
102
{ACAD_REACTORS
330
1E9
330
20D
330
21A
330
228
330
236
330
2CD
330
2DA
330
2E7
330
2F4
330
4A
330
3D
330
30
330
21
102
}
100
AcDbSymbolTableRecord
100
AcDbDimStyleTableRecord
  2
DIM1
 70
     0
  3

  4

  5

  6

  7

 40
1.0
 41
3.0
 42
1.0
 43
10.0
 44
2.5
 45
0.01
 46
1.25
 47
0.05
 48
0.0
140
3.0
141
-1.7
142
0.0
143
0.039
144
0.2
145
1.5
146
0.7
147
1.5
 71
     0
 72
     0
 73
     0
 74
     0
 75
     0
 76
     0
 77
     3
 78
     1
170
     0
171
     2
172
     0
173
     0
174
     0
175
     0
176
     4
177
     4
178
     2
270
     2
271
     2
272
     2
273
     2
274
     2
340
E
275
     0
280
     0
281
     0
282
     0
283
     1
284
     1
285
     1
286
     1
287
     0
288
     0
  0
DIMSTYLE
105
1C3
100
AcDbSymbolTableRecord
100
AcDbDimStyleTableRecord
  2
DIM1$7
 70
     0
  3

  4

  5

  6

  7

 40
1.0
 41
3.0
 42
1.0
 43
10.0
 44
2.5
 45
0.01
 46
1.25
 47
0.0
 48
0.0
140
3.0
141
-1.7
142
0.0
143
0.039
144
1.0
145
0.0
146
1.0
147
1.5
 71
     0
 72
     0
 73
     0
 74
     0
 75
     0
 76
     0
 77
     0
 78
     1
170
     0
171
     2
172
     0
173
     0
174
     0
175
     0
176
     4
177
     4
178
     2
270
     2
271
     2
272
     2
273
     2
274
     2
340
E
275
     0
280
     0
281
     0
282
     0
283
     1
284
     1
285
     1
286
     1
287
     0
288
     0
  0
ENDTAB
  0
TABLE
  2
BLOCK_RECORD
  5
1
100
AcDbSymbolTable
 70
    13
  0
BLOCK_RECORD
  5
2
102
{ACAD_XDICTIONARY
360
3
102
}
100
AcDbSymbolTableRecord
100
AcDbBlockTableRecord
  2
*MODEL_SPACE
  0
BLOCK_RECORD
  5
9
100
AcDbSymbolTableRecord
100
AcDbBlockTableRecord
  2
*PAPER_SPACE
  0
BLOCK_RECORD
  5
1EA
100
AcDbSymbolTableRecord
100
AcDbBlockTableRecord
  2
*D0
  0
BLOCK_RECORD
  5
20E
100
AcDbSymbolTableRecord
100
AcDbBlockTableRecord
  2
*D1
  0
BLOCK_RECORD
  5
21B
100
AcDbSymbolTableRecord
100
AcDbBlockTableRecord
  2
*D2
  0
BLOCK_RECORD
  5
229
100
AcDbSymbolTableRecord
100
AcDbBlockTableRecord
  2
*D3
  0
BLOCK_RECORD
  5
237
100
AcDbSymbolTableRecord
100
AcDbBlockTableRecord
  2
*D4
  0
BLOCK_RECORD
  5
2CE
100
AcDbSymbolTableRecord
100
AcDbBlockTableRecord
  2
*D5
  0
BLOCK_RECORD
  5
2DB
100
AcDbSymbolTableRecord
100
AcDbBlockTableRecord
  2
*D6
  0
BLOCK_RECORD
  5
2E8
100
AcDbSymbolTableRecord
100
AcDbBlockTableRecord
  2
*D7
  0
BLOCK_RECORD
  5
2F5
100
AcDbSymbolTableRecord
100
AcDbBlockTableRecord
  2
*D8
  0
BLOCK_RECORD
  5
4B
100
AcDbSymbolTableRecord
100
AcDbBlockTableRecord
  2
*D9
  0
BLOCK_RECORD
  5
3E
100
AcDbSymbolTableRecord
100
AcDbBlockTableRecord
  2
*D10
  0
BLOCK_RECORD
  5
31
100
AcDbSymbolTableRecord
100
AcDbBlockTableRecord
  2
*D11
  0
BLOCK_RECORD
  5
23
100
AcDbSymbolTableRecord
100
AcDbBlockTableRecord
  2
*D12
  0
ENDTAB
  0
ENDSEC
  0
SECTION
  2
BLOCKS
  0
BLOCK
  5
5
100
AcDbEntity
  8
0
100
AcDbBlockBegin
  2
*MODEL_SPACE
 70
     0
 10
0.0
 20
0.0
 30
0.0
  3
*MODEL_SPACE
  1

  0
ENDBLK
  5
8
100
AcDbEntity
  8
0
100
AcDbBlockEnd
  0
BLOCK
  5
A
100
AcDbEntity
 67
     1
  8
0
100
AcDbBlockBegin
  2
*PAPER_SPACE
 70
     0
 10
0.0
 20
0.0
 30
0.0
  3
*PAPER_SPACE
  1

  0
ENDBLK
  5
B
100
AcDbEntity
 67
     1
  8
0
100
AcDbBlockEnd
  0
BLOCK
  5
1F5
100
AcDbEntity
  8
0
100
AcDbBlockBegin
  2
*D0
 70
     1
 10
0.0
 20
0.0
 30
0.0
  3
*D0
  1

  0
LINE
  5
1EB
100
AcDbEntity
  8
0
  6
BYBLOCK
 62
     4
100
AcDbLine
 10
777.360108
 20
507.059226
 30
0.0
 11
761.183943
 21
507.059226
 31
0.0
  0
LINE
  5
1EC
100
AcDbEntity
  8
0
  6
BYBLOCK
 62
     4
100
AcDbLine
 10
777.360108
 20
499.059226
 30
0.0
 11
761.183943
 21
499.059226
 31
0.0
  0
LINE
  5
1ED
100
AcDbEntity
  8
0
  6
BYBLOCK
 62
     4
100
AcDbLine
 10
763.683943
 20
510.059226
 30
0.0
 11
763.683943
 21
513.059226
 31
0.0
  0
LINE
  5
1EE
100
AcDbEntity
  8
0
  6
BYBLOCK
 62
     4
100
AcDbLine
 10
763.683943
 20
496.059226
 30
0.0
 11
763.683943
 21
469.487798
 31
0.0
  0
SOLID
  5
1EF
100
AcDbEntity
  8
0
  6
BYBLOCK
 62
     4
100
AcDbTrace
 10
763.183943
 20
510.059226
 30
0.0
 11
764.183943
 21
510.059226
 31
0.0
 12
763.683943
 22
507.059226
 32
0.0
 13
763.683943
 23
507.059226
 33
0.0
  0
SOLID
  5
1F0
100
AcDbEntity
  8
0
  6
BYBLOCK
 62
     4
100
AcDbTrace
 10
763.183943
 20
496.059226
 30
0.0
 11
764.183943
 21
496.059226
 31
0.0
 12
763.683943
 22
499.059226
 32
0.0
 13
763.683943
 23
499.059226
 33
0.0
  0
MTEXT
  5
1F1
100
AcDbEntity
  8
0
  6
BYBLOCK
 62
     2
100
AcDbMText
 10
760.683943
 20
481.273512
 30
0.0
 40
3.0
 41
0.0
 71
     5
 72
     1
  1
\A1;\U+22058.00 H7
 11
0.0
 21
1.0
 31
0.0
  0
POINT
  5
1F2
100
AcDbEntity
  8
DEFPOINTS
  6
BYBLOCK
 62
     0
100
AcDbPoint
 10
778.360108
 20
507.059226
 30
0.0
  0
POINT
  5
1F3
100
AcDbEntity
  8
DEFPOINTS
  6
BYBLOCK
 62
     0
100
AcDbPoint
 10
778.360108
 20
499.059226
 30
0.0
  0
POINT
  5
1F4
100
AcDbEntity
  8
DEFPOINTS
  6
BYBLOCK
 62
     0
100
AcDbPoint
 10
763.683943
 20
499.059226
 30
0.0
  0
ENDBLK
  5
1F6
100
AcDbEntity
  8
0
100
AcDbBlockEnd
  0
BLOCK
  5
218
100
AcDbEntity
  8
0
100
AcDbBlockBegin
  2
*D1
 70
     1
 10
0.0
 20
0.0
 30
0.0
  3
*D1
  1

  0
LINE
  5
20F
100
AcDbEntity
  8
0
  6
BYBLOCK
 62
     4
100
AcDbLine
 10
861.360108
 20
412.559226
 30
0.0
 11
899.175225
 21
412.559226
 31
0.0
  0
LINE
  5
210
100
AcDbEntity
  8
0
  6
BYBLOCK
 62
     4
100
AcDbLine
 10
861.360108
 20
452.559226
 30
0.0
 11
899.175225
 21
452.559226
 31
0.0
  0
LINE
  5
211
100
AcDbEntity
  8
0
  6
BYBLOCK
 62
     4
100
AcDbLine
 10
896.675225
 20
415.559226
 30
0.0
 11
896.675225
 21
449.559226
 31
0.0
  0
SOLID
  5
212
100
AcDbEntity
  8
0
  6
BYBLOCK
 62
     4
100
AcDbTrace
 10
896.175225
 20
415.559226
 30
0.0
 11
897.175225
 21
415.559226
 31
0.0
 12
896.675225
 22
412.559226
 32
0.0
 13
896.675225
 23
412.559226
 33
0.0
  0
SOLID
  5
213
100
AcDbEntity
  8
0
  6
BYBLOCK
 62
     4
100
AcDbTrace
 10
896.175225
 20
449.559226
 30
0.0
 11
897.175225
 21
449.559226
 31
0.0
 12
896.675225
 22
452.559226
 32
0.0
 13
896.675225
 23
452.559226
 33
0.0
  0
MTEXT
  5
214
100
AcDbEntity
  8
0
  6
BYBLOCK
 62
     2
100
AcDbMText
 10
893.675225
 20
432.559226
 30
0.0
 40
3.0
 41
0.0
 71
     5
 72
     1
  1
\A1;\U+220540.00 H7
 11
0.0
 21
1.0
 31
0.0
  0
POINT
  5
215
100
AcDbEntity
  8
DEFPOINTS
  6
BYBLOCK
 62
     0
100
AcDbPoint
 10
860.360108
 20
412.559226
 30
0.0
  0
POINT
  5
216
100
AcDbEntity
  8
DEFPOINTS
  6
BYBLOCK
 62
     0
100
AcDbPoint
 10
860.360108
 20
452.559226
 30
0.0
  0
POINT
  5
217
100
AcDbEntity
  8
DEFPOINTS
  6
BYBLOCK
 62
     0
100
AcDbPoint
 10
896.675225
 20
452.559226
 30
0.0
  0
ENDBLK
  5
219
100
AcDbEntity
  8
0
100
AcDbBlockEnd
  0
BLOCK
  5
226
100
AcDbEntity
  8
0
100
AcDbBlockBegin
  2
*D2
 70
     1
 10
0.0
 20
0.0
 30
0.0
  3
*D2
  1

  0
LINE
  5
21C
100
AcDbEntity
  8
0
  6
BYBLOCK
 62
     4
100
AcDbLine
 10
798.360108
 20
401.559226
 30
0.0
 11
798.360108
 21
359.779548
 31
0.0
  0
LINE
  5
21D
100
AcDbEntity
  8
0
  6
BYBLOCK
 62
     4
100
AcDbLine
 10
791.360108
 20
392.559226
 30
0.0
 11
791.360108
 21
359.779548
 31
0.0
  0
LINE
  5
21E
100
AcDbEntity
  8
0
  6
BYBLOCK
 62
     4
100
AcDbLine
 10
801.360108
 20
362.279548
 30
0.0
 11
804.360108
 21
362.279548
 31
0.0
  0
LINE
  5
21F
100
AcDbEntity
  8
0
  6
BYBLOCK
 62
     4
100
AcDbLine
 10
788.360108
 20
362.279548
 30
0.0
 11
776.074394
 21
362.279548
 31
0.0
  0
SOLID
  5
220
100
AcDbEntity
  8
0
  6
BYBLOCK
 62
     4
100
AcDbTrace
 10
801.360108
 20
362.779548
 30
0.0
 11
801.360108
 21
361.779548
 31
0.0
 12
798.360108
 22
362.279548
 32
0.0
 13
798.360108
 23
362.279548
 33
0.0
  0
SOLID
  5
221
100
AcDbEntity
  8
0
  6
BYBLOCK
 62
     4
100
AcDbTrace
 10
788.360108
 20
362.779548
 30
0.0
 11
788.360108
 21
361.779548
 31
0.0
 12
791.360108
 22
362.279548
 32
0.0
 13
791.360108
 23
362.279548
 33
0.0
  0
MTEXT
  5
222
100
AcDbEntity
  8
0
  6
BYBLOCK
 62
     2
100
AcDbMText
 10
780.717251
 20
365.279548
 30
0.0
 40
3.0
 41
0.0
 71
     5
 72
     1
  1
\A1;7.0
  0
POINT
  5
223
100
AcDbEntity
  8
DEFPOINTS
  6
BYBLOCK
 62
     0
100
AcDbPoint
 10
798.360108
 20
402.559226
 30
0.0
  0
POINT
  5
224
100
AcDbEntity
  8
DEFPOINTS
  6
BYBLOCK
 62
     0
100
AcDbPoint
 10
791.360108
 20
393.559226
 30
0.0
  0
POINT
  5
225
100
AcDbEntity
  8
DEFPOINTS
  6
BYBLOCK
 62
     0
100
AcDbPoint
 10
791.360108
 20
362.279548
 30
0.0
  0
ENDBLK
  5
227
100
AcDbEntity
  8
0
100
AcDbBlockEnd
  0
BLOCK
  5
234
100
AcDbEntity
  8
0
100
AcDbBlockBegin
  2
*D3
 70
     1
 10
0.0
 20
0.0
 30
0.0
  3
*D3
  1

  0
LINE
  5
22A
100
AcDbEntity
  8
0
  6
BYBLOCK
 62
     4
100
AcDbLine
 10
845.360108
 20
399.559226
 30
0.0
 11
845.360108
 21
359.779548
 31
0.0
  0
LINE
  5
22B
100
AcDbEntity
  8
0
  6
BYBLOCK
 62
     4
100
AcDbLine
 10
852.360108
 20
381.045835
 30
0.0
 11
852.360108
 21
359.779548
 31
0.0
  0
LINE
  5
22C
100
AcDbEntity
  8
0
  6
BYBLOCK
 62
     4
100
AcDbLine
 10
842.360108
 20
362.279548
 30
0.0
 11
839.360108
 21
362.279548
 31
0.0
  0
LINE
  5
22D
100
AcDbEntity
  8
0
  6
BYBLOCK
 62
     4
100
AcDbLine
 10
855.360108
 20
362.279548
 30
0.0
 11
867.645822
 21
362.279548
 31
0.0
  0
SOLID
  5
22E
100
AcDbEntity
  8
0
  6
BYBLOCK
 62
     4
100
AcDbTrace
 10
842.360108
 20
362.779548
 30
0.0
 11
842.360108
 21
361.779548
 31
0.0
 12
845.360108
 22
362.279548
 32
0.0
 13
845.360108
 23
362.279548
 33
0.0
  0
SOLID
  5
22F
100
AcDbEntity
  8
0
  6
BYBLOCK
 62
     4
100
AcDbTrace
 10
855.360108
 20
362.779548
 30
0.0
 11
855.360108
 21
361.779548
 31
0.0
 12
852.360108
 22
362.279548
 32
0.0
 13
852.360108
 23
362.279548
 33
0.0
  0
MTEXT
  5
230
100
AcDbEntity
  8
0
  6
BYBLOCK
 62
     2
100
AcDbMText
 10
863.002965
 20
365.279548
 30
0.0
 40
3.0
 41
0.0
 71
     5
 72
     1
  1
\A1;7.0
  0
POINT
  5
231
100
AcDbEntity
  8
DEFPOINTS
  6
BYBLOCK
 62
     0
100
AcDbPoint
 10
845.360108
 20
400.559226
 30
0.0
  0
POINT
  5
232
100
AcDbEntity
  8
DEFPOINTS
  6
BYBLOCK
 62
     0
100
AcDbPoint
 10
852.360108
 20
382.045835
 30
0.0
  0
POINT
  5
233
100
AcDbEntity
  8
DEFPOINTS
  6
BYBLOCK
 62
     0
100
AcDbPoint
 10
852.360108
 20
362.279548
 30
0.0
  0
ENDBLK
  5
235
100
AcDbEntity
  8
0
100
AcDbBlockEnd
  0
BLOCK
  5
241
100
AcDbEntity
  8
0
100
AcDbBlockBegin
  2
*D4
 70
     1
 10
0.0
 20
0.0
 30
0.0
  3
*D4
  1

  0
LINE
  5
238
100
AcDbEntity
  8
0
  6
BYBLOCK
 62
     4
100
AcDbLine
 10
798.360108
 20
401.559226
 30
0.0
 11
798.360108
 21
359.779548
 31
0.0
  0
LINE
  5
239
100
AcDbEntity
  8
0
  6
BYBLOCK
 62
     4
100
AcDbLine
 10
845.360108
 20
399.559226
 30
0.0
 11
845.360108
 21
359.779548
 31
0.0
  0
LINE
  5
23A
100
AcDbEntity
  8
0
  6
BYBLOCK
 62
     4
100
AcDbLine
 10
801.360108
 20
362.279548
 30
0.0
 11
842.360108
 21
362.279548
 31
0.0
  0
SOLID
  5
23B
100
AcDbEntity
  8
0
  6
BYBLOCK
 62
     4
100
AcDbTrace
 10
801.360108
 20
362.779548
 30
0.0
 11
801.360108
 21
361.779548
 31
0.0
 12
798.360108
 22
362.279548
 32
0.0
 13
798.360108
 23
362.279548
 33
0.0
  0
SOLID
  5
23C
100
AcDbEntity
  8
0
  6
BYBLOCK
 62
     4
100
AcDbTrace
 10
842.360108
 20
362.779548
 30
0.0
 11
842.360108
 21
361.779548
 31
0.0
 12
845.360108
 22
362.279548
 32
0.0
 13
845.360108
 23
362.279548
 33
0.0
  0
MTEXT
  5
23D
100
AcDbEntity
  8
0
  6
BYBLOCK
 62
     2
100
AcDbMText
 10
821.860108
 20
365.279548
 30
0.0
 40
3.0
 41
0.0
 71
     5
 72
     1
  1
\A1;47.00
  0
POINT
  5
23E
100
AcDbEntity
  8
DEFPOINTS
  6
BYBLOCK
 62
     0
100
AcDbPoint
 10
798.360108
 20
402.559226
 30
0.0
  0
POINT
  5
23F
100
AcDbEntity
  8
DEFPOINTS
  6
BYBLOCK
 62
     0
100
AcDbPoint
 10
845.360108
 20
400.559226
 30
0.0
  0
POINT
  5
240
100
AcDbEntity
  8
DEFPOINTS
  6
BYBLOCK
 62
     0
100
AcDbPoint
 10
845.360108
 20
362.279548
 30
0.0
  0
ENDBLK
  5
242
100
AcDbEntity
  8
0
100
AcDbBlockEnd
  0
BLOCK
  5
2D8
100
AcDbEntity
  8
0
100
AcDbBlockBegin
  2
*D5
 70
     1
 10
0.0
 20
0.0
 30
0.0
  3
*D5
  1

  0
LINE
  5
2CF
100
AcDbEntity
  8
0
  6
BYBLOCK
 62
     4
100
AcDbLine
 10
651.447241
 20
400.559226
 30
0.0
 11
694.704196
 21
400.559226
 31
0.0
  0
LINE
  5
2D0
100
AcDbEntity
  8
0
  6
BYBLOCK
 62
     4
100
AcDbLine
 10
651.447241
 20
464.559226
 30
0.0
 11
694.704196
 21
464.559226
 31
0.0
  0
LINE
  5
2D1
100
AcDbEntity
  8
0
  6
BYBLOCK
 62
     4
100
AcDbLine
 10
692.204196
 20
403.559226
 30
0.0
 11
692.204196
 21
461.559226
 31
0.0
  0
SOLID
  5
2D2
100
AcDbEntity
  8
0
  6
BYBLOCK
 62
     4
100
AcDbTrace
 10
691.704196
 20
403.559226
 30
0.0
 11
692.704196
 21
403.559226
 31
0.0
 12
692.204196
 22
400.559226
 32
0.0
 13
692.204196
 23
400.559226
 33
0.0
  0
SOLID
  5
2D3
100
AcDbEntity
  8
0
  6
BYBLOCK
 62
     4
100
AcDbTrace
 10
691.704196
 20
461.559226
 30
0.0
 11
692.704196
 21
461.559226
 31
0.0
 12
692.204196
 22
464.559226
 32
0.0
 13
692.204196
 23
464.559226
 33
0.0
  0
MTEXT
  5
2D4
100
AcDbEntity
  8
0
  6
BYBLOCK
 62
     2
100
AcDbMText
 10
689.204196
 20
432.559226
 30
0.0
 40
3.0
 41
0.0
 71
     5
 72
     1
  1
\A1;W=64.00
 11
0.0
 21
1.0
 31
0.0
  0
POINT
  5
2D5
100
AcDbEntity
  8
DEFPOINTS
  6
BYBLOCK
 62
     0
100
AcDbPoint
 10
650.447241
 20
400.559226
 30
0.0
  0
POINT
  5
2D6
100
AcDbEntity
  8
DEFPOINTS
  6
BYBLOCK
 62
     0
100
AcDbPoint
 10
650.447241
 20
464.559226
 30
0.0
  0
POINT
  5
2D7
100
AcDbEntity
  8
DEFPOINTS
  6
BYBLOCK
 62
     0
100
AcDbPoint
 10
692.204196
 20
464.559226
 30
0.0
  0
ENDBLK
  5
2D9
100
AcDbEntity
  8
0
100
AcDbBlockEnd
  0
BLOCK
  5
2E5
100
AcDbEntity
  8
0
100
AcDbBlockBegin
  2
*D6
 70
     1
 10
0.0
 20
0.0
 30
0.0
  3
*D6
  1

  0
LINE
  5
2DC
100
AcDbEntity
  8
0
  6
BYBLOCK
 62
     4
100
AcDbLine
 10
435.947241
 20
411.559226
 30
0.0
 11
435.947241
 21
337.696619
 31
0.0
  0
LINE
  5
2DD
100
AcDbEntity
  8
0
  6
BYBLOCK
 62
     4
100
AcDbLine
 10
674.947241
 20
411.559226
 30
0.0
 11
674.947241
 21
337.696619
 31
0.0
  0
LINE
  5
2DE
100
AcDbEntity
  8
0
  6
BYBLOCK
 62
     4
100
AcDbLine
 10
438.947241
 20
340.196619
 30
0.0
 11
671.947241
 21
340.196619
 31
0.0
  0
SOLID
  5
2DF
100
AcDbEntity
  8
0
  6
BYBLOCK
 62
     4
100
AcDbTrace
 10
438.947241
 20
340.696619
 30
0.0
 11
438.947241
 21
339.696619
 31
0.0
 12
435.947241
 22
340.196619
 32
0.0
 13
435.947241
 23
340.196619
 33
0.0
  0
SOLID
  5
2E0
100
AcDbEntity
  8
0
  6
BYBLOCK
 62
     4
100
AcDbTrace
 10
671.947241
 20
340.696619
 30
0.0
 11
671.947241
 21
339.696619
 31
0.0
 12
674.947241
 22
340.196619
 32
0.0
 13
674.947241
 23
340.196619
 33
0.0
  0
MTEXT
  5
2E1
100
AcDbEntity
  8
0
  6
BYBLOCK
 62
     2
100
AcDbMText
 10
555.447241
 20
343.196619
 30
0.0
 40
3.0
 41
0.0
 71
     5
 72
     1
  1
\A1;L=239.00
  0
POINT
  5
2E2
100
AcDbEntity
  8
DEFPOINTS
  6
BYBLOCK
 62
     0
100
AcDbPoint
 10
435.947241
 20
412.559226
 30
0.0
  0
POINT
  5
2E3
100
AcDbEntity
  8
DEFPOINTS
  6
BYBLOCK
 62
     0
100
AcDbPoint
 10
674.947241
 20
412.559226
 30
0.0
  0
POINT
  5
2E4
100
AcDbEntity
  8
DEFPOINTS
  6
BYBLOCK
 62
     0
100
AcDbPoint
 10
674.947241
 20
340.196619
 30
0.0
  0
ENDBLK
  5
2E6
100
AcDbEntity
  8
0
100
AcDbBlockEnd
  0
BLOCK
  5
2F2
100
AcDbEntity
  8
0
100
AcDbBlockBegin
  2
*D7
 70
     1
 10
0.0
 20
0.0
 30
0.0
  3
*D7
  1

  0
LINE
  5
2E9
100
AcDbEntity
  8
0
  6
BYBLOCK
 62
     4
100
AcDbLine
 10
467.947241
 20
414.860422
 30
0.0
 11
467.947241
 21
347.472053
 31
0.0
  0
LINE
  5
2EA
100
AcDbEntity
  8
0
  6
BYBLOCK
 62
     4
100
AcDbLine
 10
642.947241
 20
414.846007
 30
0.0
 11
642.947241
 21
347.472053
 31
0.0
  0
LINE
  5
2EB
100
AcDbEntity
  8
0
  6
BYBLOCK
 62
     4
100
AcDbLine
 10
470.947241
 20
349.972053
 30
0.0
 11
639.947241
 21
349.972053
 31
0.0
  0
SOLID
  5
2EC
100
AcDbEntity
  8
0
  6
BYBLOCK
 62
     4
100
AcDbTrace
 10
470.947241
 20
350.472053
 30
0.0
 11
470.947241
 21
349.472053
 31
0.0
 12
467.947241
 22
349.972053
 32
0.0
 13
467.947241
 23
349.972053
 33
0.0
  0
SOLID
  5
2ED
100
AcDbEntity
  8
0
  6
BYBLOCK
 62
     4
100
AcDbTrace
 10
639.947241
 20
350.472053
 30
0.0
 11
639.947241
 21
349.472053
 31
0.0
 12
642.947241
 22
349.972053
 32
0.0
 13
642.947241
 23
349.972053
 33
0.0
  0
MTEXT
  5
2EE
100
AcDbEntity
  8
0
  6
BYBLOCK
 62
     2
100
AcDbMText
 10
555.447241
 20
352.972053
 30
0.0
 40
3.0
 41
0.0
 71
     5
 72
     1
  1
\A1;A=175.00
  0
POINT
  5
2EF
100
AcDbEntity
  8
DEFPOINTS
  6
BYBLOCK
 62
     0
100
AcDbPoint
 10
467.947241
 20
415.860422
 30
0.0
  0
POINT
  5
2F0
100
AcDbEntity
  8
DEFPOINTS
  6
BYBLOCK
 62
     0
100
AcDbPoint
 10
642.947241
 20
415.846007
 30
0.0
  0
POINT
  5
2F1
100
AcDbEntity
  8
DEFPOINTS
  6
BYBLOCK
 62
     0
100
AcDbPoint
 10
642.947241
 20
349.972053
 30
0.0
  0
ENDBLK
  5
2F3
100
AcDbEntity
  8
0
100
AcDbBlockEnd
  0
BLOCK
  5
2FF
100
AcDbEntity
  8
0
100
AcDbBlockBegin
  2
*D8
 70
     1
 10
0.0
 20
0.0
 30
0.0
  3
*D8
  1

  0
LINE
  5
2F6
100
AcDbEntity
  8
0
  6
BYBLOCK
 62
     4
100
AcDbLine
 10
467.947241
 20
414.860422
 30
0.0
 11
467.947241
 21
357.526785
 31
0.0
  0
LINE
  5
2F7
100
AcDbEntity
  8
0
  6
BYBLOCK
 62
     4
100
AcDbLine
 10
555.447241
 20
384.559226
 30
0.0
 11
555.447241
 21
357.526785
 31
0.0
  0
LINE
  5
2F8
100
AcDbEntity
  8
0
  6
BYBLOCK
 62
     4
100
AcDbLine
 10
470.947241
 20
360.026785
 30
0.0
 11
552.447241
 21
360.026785
 31
0.0
  0
SOLID
  5
2F9
100
AcDbEntity
  8
0
  6
BYBLOCK
 62
     4
100
AcDbTrace
 10
470.947241
 20
360.526785
 30
0.0
 11
470.947241
 21
359.526785
 31
0.0
 12
467.947241
 22
360.026785
 32
0.0
 13
467.947241
 23
360.026785
 33
0.0
  0
SOLID
  5
2FA
100
AcDbEntity
  8
0
  6
BYBLOCK
 62
     4
100
AcDbTrace
 10
552.447241
 20
360.526785
 30
0.0
 11
552.447241
 21
359.526785
 31
0.0
 12
555.447241
 22
360.026785
 32
0.0
 13
555.447241
 23
360.026785
 33
0.0
  0
MTEXT
  5
2FB
100
AcDbEntity
  8
0
  6
BYBLOCK
 62
     2
100
AcDbMText
 10
511.508111
 20
363.812499
 30
0.0
 40
3.0
 41
0.0
 71
     5
 72
     1
  1
\A1;A/2=87.50
  0
POINT
  5
2FC
100
AcDbEntity
  8
DEFPOINTS
  6
BYBLOCK
 62
     0
100
AcDbPoint
 10
467.947241
 20
415.860422
 30
0.0
  0
POINT
  5
2FD
100
AcDbEntity
  8
DEFPOINTS
  6
BYBLOCK
 62
     0
100
AcDbPoint
 10
555.447241
 20
385.559226
 30
0.0
  0
POINT
  5
2FE
100
AcDbEntity
  8
DEFPOINTS
  6
BYBLOCK
 62
     0
100
AcDbPoint
 10
555.447241
 20
360.026785
 30
0.0
  0
ENDBLK
  5
300
100
AcDbEntity
  8
0
100
AcDbBlockEnd
  0
BLOCK
  5
55
100
AcDbEntity
  8
0
100
AcDbBlockBegin
  2
*D9
 70
     1
 10
0.0
 20
0.0
 30
0.0
  3
*D9
  1

  0
LINE
  5
4C
100
AcDbEntity
  8
0
  6
BYBLOCK
 62
     4
100
AcDbLine
 10
791.360108
 20
392.559226
 30
0.0
 11
791.360108
 21
378.62743
 31
0.0
  0
LINE
  5
4D
100
AcDbEntity
  8
0
  6
BYBLOCK
 62
     4
100
AcDbLine
 10
777.960108
 20
409.334226
 30
0.0
 11
777.960108
 21
378.62743
 31
0.0
  0
LINE
  5
4E
100
AcDbEntity
  8
0
  6
BYBLOCK
 62
     4
100
AcDbLine
 10
788.360108
 20
381.12743
 30
0.0
 11
780.960108
 21
381.12743
 31
0.0
  0
SOLID
  5
4F
100
AcDbEntity
  8
0
  6
BYBLOCK
 62
     4
100
AcDbTrace
 10
788.360108
 20
381.62743
 30
0.0
 11
788.360108
 21
380.62743
 31
0.0
 12
791.360108
 22
381.12743
 32
0.0
 13
791.360108
 23
381.12743
 33
0.0
  0
SOLID
  5
50
100
AcDbEntity
  8
0
  6
BYBLOCK
 62
     4
100
AcDbTrace
 10
780.960108
 20
381.62743
 30
0.0
 11
780.960108
 21
380.62743
 31
0.0
 12
777.960108
 22
381.12743
 32
0.0
 13
777.960108
 23
381.12743
 33
0.0
  0
MTEXT
  5
51
100
AcDbEntity
  8
0
  6
BYBLOCK
 62
     2
100
AcDbMText
 10
784.660108
 20
384.12743
 30
0.0
 40
3.0
 41
0.0
 71
     5
 72
     1
  1
\A1;13.4
  0
POINT
  5
52
100
AcDbEntity
  8
DEFPOINTS
  6
BYBLOCK
 62
     0
100
AcDbPoint
 10
791.360108
 20
393.559226
 30
0.0
  0
POINT
  5
53
100
AcDbEntity
  8
DEFPOINTS
  6
BYBLOCK
 62
     0
100
AcDbPoint
 10
777.960108
 20
410.334226
 30
0.0
  0
POINT
  5
54
100
AcDbEntity
  8
DEFPOINTS
  6
BYBLOCK
 62
     0
100
AcDbPoint
 10
777.960108
 20
381.12743
 30
0.0
  0
ENDBLK
  5
56
100
AcDbEntity
  8
0
100
AcDbBlockEnd
  0
BLOCK
  5
48
100
AcDbEntity
  8
0
100
AcDbBlockBegin
  2
*D10
 70
     1
 10
0.0
 20
0.0
 30
0.0
  3
*D10
  1

  0
LINE
  5
3F
100
AcDbEntity
  8
0
  6
BYBLOCK
 62
     4
100
AcDbLine
 10
771.960108
 20
454.784226
 30
0.0
 11
757.502232
 21
454.784226
 31
0.0
  0
LINE
  5
40
100
AcDbEntity
  8
0
  6
BYBLOCK
 62
     4
100
AcDbLine
 10
771.960108
 20
410.334226
 30
0.0
 11
757.502232
 21
410.334226
 31
0.0
  0
LINE
  5
41
100
AcDbEntity
  8
0
  6
BYBLOCK
 62
     4
100
AcDbLine
 10
760.002232
 20
451.784226
 30
0.0
 11
760.002232
 21
413.334226
 31
0.0
  0
SOLID
  5
42
100
AcDbEntity
  8
0
  6
BYBLOCK
 62
     4
100
AcDbTrace
 10
759.502232
 20
451.784226
 30
0.0
 11
760.502232
 21
451.784226
 31
0.0
 12
760.002232
 22
454.784226
 32
0.0
 13
760.002232
 23
454.784226
 33
0.0
  0
SOLID
  5
43
100
AcDbEntity
  8
0
  6
BYBLOCK
 62
     4
100
AcDbTrace
 10
759.502232
 20
413.334226
 30
0.0
 11
760.502232
 21
413.334226
 31
0.0
 12
760.002232
 22
410.334226
 32
0.0
 13
760.002232
 23
410.334226
 33
0.0
  0
MTEXT
  5
44
100
AcDbEntity
  8
0
  6
BYBLOCK
 62
     2
100
AcDbMText
 10
757.002232
 20
433.524437
 30
0.0
 40
3.0
 41
0.0
 71
     5
 72
     1
  1
\A1;\U+220544.45 H7
 11
0.0
 21
1.0
 31
0.0
  0
POINT
  5
45
100
AcDbEntity
  8
DEFPOINTS
  6
BYBLOCK
 62
     0
100
AcDbPoint
 10
772.960108
 20
454.784226
 30
0.0
  0
POINT
  5
46
100
AcDbEntity
  8
DEFPOINTS
  6
BYBLOCK
 62
     0
100
AcDbPoint
 10
772.960108
 20
410.334226
 30
0.0
  0
POINT
  5
47
100
AcDbEntity
  8
DEFPOINTS
  6
BYBLOCK
 62
     0
100
AcDbPoint
 10
760.002232
 20
410.334226
 30
0.0
  0
ENDBLK
  5
49
100
AcDbEntity
  8
0
100
AcDbBlockEnd
  0
BLOCK
  5
3B
100
AcDbEntity
  8
0
100
AcDbBlockBegin
  2
*D11
 70
     1
 10
0.0
 20
0.0
 30
0.0
  3
*D11
  1

  0
LINE
  5
32
100
AcDbEntity
  8
0
  6
BYBLOCK
 62
     4
100
AcDbLine
 10
777.537458
 20
409.334226
 30
0.0
 11
747.461001
 21
409.334226
 31
0.0
  0
LINE
  5
33
100
AcDbEntity
  8
0
  6
BYBLOCK
 62
     4
100
AcDbLine
 10
777.537458
 20
455.784226
 30
0.0
 11
747.461001
 21
455.784226
 31
0.0
  0
LINE
  5
34
100
AcDbEntity
  8
0
  6
BYBLOCK
 62
     4
100
AcDbLine
 10
749.961001
 20
412.334226
 30
0.0
 11
749.961001
 21
452.784226
 31
0.0
  0
SOLID
  5
35
100
AcDbEntity
  8
0
  6
BYBLOCK
 62
     4
100
AcDbTrace
 10
749.461001
 20
412.334226
 30
0.0
 11
750.461001
 21
412.334226
 31
0.0
 12
749.961001
 22
409.334226
 32
0.0
 13
749.961001
 23
409.334226
 33
0.0
  0
SOLID
  5
36
100
AcDbEntity
  8
0
  6
BYBLOCK
 62
     4
100
AcDbTrace
 10
749.461001
 20
452.784226
 30
0.0
 11
750.461001
 21
452.784226
 31
0.0
 12
749.961001
 22
455.784226
 32
0.0
 13
749.961001
 23
455.784226
 33
0.0
  0
MTEXT
  5
37
100
AcDbEntity
  8
0
  6
BYBLOCK
 62
     2
100
AcDbMText
 10
746.961001
 20
433.864678
 30
0.0
 40
3.0
 41
0.0
 71
     5
 72
     1
  1
\A1;\U+220546.5
 11
0.0
 21
1.0
 31
0.0
  0
POINT
  5
38
100
AcDbEntity
  8
DEFPOINTS
  6
BYBLOCK
 62
     0
100
AcDbPoint
 10
778.537458
 20
409.334226
 30
0.0
  0
POINT
  5
39
100
AcDbEntity
  8
DEFPOINTS
  6
BYBLOCK
 62
     0
100
AcDbPoint
 10
778.537458
 20
455.784226
 30
0.0
  0
POINT
  5
3A
100
AcDbEntity
  8
DEFPOINTS
  6
BYBLOCK
 62
     0
100
AcDbPoint
 10
749.961001
 20
455.784226
 30
0.0
  0
ENDBLK
  5
3C
100
AcDbEntity
  8
0
100
AcDbBlockEnd
  0
BLOCK
  5
2E
100
AcDbEntity
  8
0
100
AcDbBlockBegin
  2
*D12
 70
     1
 10
0.0
 20
0.0
 30
0.0
  3
*D12
  1

  0
LINE
  5
24
100
AcDbEntity
  8
0
  6
BYBLOCK
 62
     4
100
AcDbLine
 10
798.360108
 20
456.784226
 30
0.0
 11
798.360108
 21
472.600271
 31
0.0
  0
LINE
  5
25
100
AcDbEntity
  8
0
  6
BYBLOCK
 62
     4
100
AcDbLine
 10
772.960108
 20
455.784226
 30
0.0
 11
772.960108
 21
472.600271
 31
0.0
  0
LINE
  5
26
100
AcDbEntity
  8
0
  6
BYBLOCK
 62
     4
100
AcDbLine
 10
795.360108
 20
470.100271
 30
0.0
 11
775.960108
 21
470.100271
 31
0.0
  0
SOLID
  5
27
100
AcDbEntity
  8
0
  6
BYBLOCK
 62
     4
100
AcDbTrace
 10
795.360108
 20
470.600271
 30
0.0
 11
795.360108
 21
469.600271
 31
0.0
 12
798.360108
 22
470.100271
 32
0.0
 13
798.360108
 23
470.100271
 33
0.0
  0
SOLID
  5
28
100
AcDbEntity
  8
0
  6
BYBLOCK
 62
     4
100
AcDbTrace
 10
775.960108
 20
470.600271
 30
0.0
 11
775.960108
 21
469.600271
 31
0.0
 12
772.960108
 22
470.100271
 32
0.0
 13
772.960108
 23
470.100271
 33
0.0
  0
MTEXT
  5
29
100
AcDbEntity
  8
0
  6
BYBLOCK
 62
     2
100
AcDbMText
 10
783.658692
 20
473.100271
 30
0.0
 40
3.0
 41
0.0
 71
     5
 72
     1
  1
\A1;25.40
  0
POINT
  5
2A
100
AcDbEntity
  8
DEFPOINTS
  6
BYBLOCK
 62
     0
100
AcDbPoint
 10
798.360108
 20
455.784226
 30
0.0
  0
POINT
  5
2C
100
AcDbEntity
  8
DEFPOINTS
  6
BYBLOCK
 62
     0
100
AcDbPoint
 10
772.960108
 20
454.784226
 30
0.0
  0
POINT
  5
2D
100
AcDbEntity
  8
DEFPOINTS
  6
BYBLOCK
 62
     0
100
AcDbPoint
 10
772.960108
 20
470.100271
 30
0.0
  0
ENDBLK
  5
2F
100
AcDbEntity
  8
0
100
AcDbBlockEnd
  0
ENDSEC
  0
SECTION
  2
ENTITIES
  0
HATCH
  5
20
100
AcDbEntity
  8
HATCH
100
AcDbHatch
 10
0.0
 20
0.0
 30
0.0
210
0.0
220
0.0
230
1.0
  2
_U
 70
     0
 71
     1
 91
        2
 92
        7
 72
     0
 73
     1
 93
        4
 10
798.3601080691219
 20
496.559226081063
 10
795.3601080691215
 20
496.5592260810631
 10
795.3601080691217
 20
455.784226081063
 10
798.3601080691218
 20
455.7842260810631
 97
        4
330
47F
330
485
330
45E
330
493
 92
        7
 72
     0
 73
     1
 93
        4
 10
798.3601080691218
 20
409.334226081063
 10
795.3601080691218
 20
409.3342260810631
 10
795.3601080691218
 20
402.5592260810632
 10
798.3601080691218
 20
402.5592260810631
 97
        4
330
45D
330
45F
330
483
330
493
 75
     0
 76
     0
 52
135.0
 41
0.8
 77
     0
 78
     1
 53
135.0
 43
0.0
 44
0.0
 45
-0.5656854249492382
 46
-0.565685424949238
 79
     0
 47
0.242442
 98
        2
 10
796.682777
 20
492.865964
 10
796.92532
 20
406.799137
  0
DIMENSION
  5
21
100
AcDbEntity
  8
DIMS
100
AcDbDimension
  2
*D12
 10
772.960108
 20
470.100271
 30
0.0
 11
783.658692
 21
470.100271
 31
0.0
 70
   128
  3
DIM1
100
AcDbAlignedDimension
 13
798.360108
 23
455.784226
 33
0.0
 14
772.960108
 24
454.784226
 34
0.0
100
AcDbRotatedDimension
1001
ACAD
1000
DSTYLE
1002
{
1070
   288
1070
     1
1070
   144
1040
1.0
1002
}
  0
DIMENSION
  5
30
100
AcDbEntity
  8
DIMS
100
AcDbDimension
  2
*D11
 10
749.961001
 20
455.784226
 30
0.0
 11
749.961001
 21
433.864678
 31
0.0
 70
   128
  1
%%c46.5
  3
DIM1
100
AcDbAlignedDimension
 13
778.537458
 23
409.334226
 33
0.0
 14
778.537458
 24
455.784226
 34
0.0
 50
90.0
100
AcDbRotatedDimension
1001
ACAD
1000
DSTYLE
1002
{
1070
   288
1070
     1
1070
   144
1040
1.0
1002
}
  0
DIMENSION
  5
3D
100
AcDbEntity
  8
DIMS
100
AcDbDimension
  2
*D10
 10
760.002232
 20
410.334226
 30
0.0
 11
760.002232
 21
433.524437
 31
0.0
 70
   128
  1
%%c<> H7
  3
DIM1
100
AcDbAlignedDimension
 13
772.960108
 23
454.784226
 33
0.0
 14
772.960108
 24
410.334226
 34
0.0
 50
90.0
100
AcDbRotatedDimension
1001
ACAD
1000
DSTYLE
1002
{
1070
   288
1070
     1
1070
   144
1040
1.0
1002
}
  0
DIMENSION
  5
4A
100
AcDbEntity
  8
DIMS
100
AcDbDimension
  2
*D9
 10
777.960108
 20
381.12743
 30
0.0
 11
784.660108
 21
381.12743
 31
0.0
 70
   128
  1
13.4
  3
DIM1
100
AcDbAlignedDimension
 13
791.360108
 23
393.559226
 33
0.0
 14
777.960108
 24
410.334226
 34
0.0
100
AcDbRotatedDimension
1001
ACAD
1000
DSTYLE
1002
{
1070
   288
1070
     1
1070
   144
1040
1.0
1002
}
  0
POINT
  5
57
100
AcDbEntity
  8
DEFPOINTS
  6
BYBLOCK
 62
     0
100
AcDbPoint
 10
798.360108
 20
432.559226
 30
0.0
  0
POINT
  5
58
100
AcDbEntity
  8
DEFPOINTS
  6
BYBLOCK
 62
     0
100
AcDbPoint
 10
798.77251
 20
433.470228
 30
0.0
  0
LINE
  5
59
100
AcDbEntity
  8
M04
100
AcDbLine
 10
798.360108
 20
422.359226
 30
0.0
 11
799.060108
 21
423.059226
 31
0.0
  0
LINE
  5
5B
100
AcDbEntity
  8
M04
100
AcDbLine
 10
798.360108
 20
442.759226
 30
0.0
 11
799.060108
 21
442.059226
 31
0.0
  0
LINE
  5
5C
100
AcDbEntity
  8
M03
100
AcDbLine
 10
790.960108
 20
434.859226
 30
0.0
 11
803.360108
 21
434.859226
 31
0.0
  0
LINE
  5
5F
100
AcDbEntity
  8
M03
100
AcDbLine
 10
790.960108
 20
430.259226
 30
0.0
 11
803.360108
 21
430.259226
 31
0.0
  0
LINE
  5
60
100
AcDbEntity
  8
M03
100
AcDbLine
 10
790.960108
 20
429.559226
 30
0.0
 11
803.360108
 21
429.559226
 31
0.0
  0
LINE
  5
61
100
AcDbEntity
  8
M03
100
AcDbLine
 10
790.960108
 20
435.559226
 30
0.0
 11
803.360108
 21
435.559226
 31
0.0
  0
ARC
  5
62
100
AcDbEntity
  8
M03
100
AcDbCircle
 10
785.960108
 20
421.059226
 30
0.0
 40
5.0
100
AcDbArc
 50
270.0
 51
0.0
  0
ARC
  5
63
100
AcDbEntity
  8
M03
100
AcDbCircle
 10
785.960108
 20
444.059226
 30
0.0
 40
5.0
100
AcDbArc
 50
0.0
 51
90.0
  0
LINE
  5
64
100
AcDbEntity
  8
M03
100
AcDbLine
 10
772.960108
 20
416.059226
 30
0.0
 11
785.960108
 21
416.059226
 31
0.0
  0
LINE
  5
65
100
AcDbEntity
  8
M03
100
AcDbLine
 10
772.960108
 20
449.059226
 30
0.0
 11
785.960108
 21
449.059226
 31
0.0
  0
LINE
  5
66
100
AcDbEntity
  8
M03
100
AcDbLine
 10
790.960108
 20
444.059226
 30
0.0
 11
790.960108
 21
421.059226
 31
0.0
  0
LINE
  5
67
100
AcDbEntity
  8
M05
100
AcDbLine
 10
797.660108
 20
410.834226
 30
0.0
 11
797.660108
 21
454.284226
 31
0.0
  0
LINE
  5
69
100
AcDbEntity
  8
M05
100
AcDbLine
 10
798.360108
 20
453.584226
 30
0.0
 11
797.660108
 21
454.284226
 31
0.0
  0
LINE
  5
6A
100
AcDbEntity
  8
M05
100
AcDbLine
 10
797.660108
 20
410.834226
 30
0.0
 11
798.360108
 21
411.534226
 31
0.0
  0
LINE
  5
6B
100
AcDbEntity
  8
M05
100
AcDbLine
 10
777.960108
 20
410.834226
 30
0.0
 11
797.660108
 21
410.834226
 31
0.0
  0
LINE
  5
6C
100
AcDbEntity
  8
M04
100
AcDbLine
 10
778.537458
 20
409.334226
 30
0.0
 11
778.537458
 21
410.834226
 31
0.0
  0
LINE
  5
6D
100
AcDbEntity
  8
M04
100
AcDbLine
 10
778.537458
 20
409.334226
 30
0.0
 11
791.360108
 21
409.334226
 31
0.0
  0
LINE
  5
6E
100
AcDbEntity
  8
M04
100
AcDbLine
 10
777.960108
 20
410.334226
 30
0.0
 11
778.537458
 21
409.334226
 31
0.0
  0
LINE
  5
6F
100
AcDbEntity
  8
M04
100
AcDbLine
 10
773.960108
 20
410.334226
 30
0.0
 11
772.960108
 21
410.334226
 31
0.0
  0
LINE
  5
70
100
AcDbEntity
  8
M04
100
AcDbLine
 10
772.960108
 20
411.334226
 30
0.0
 11
772.960108
 21
410.334226
 31
0.0
  0
LINE
  5
71
100
AcDbEntity
  8
M05
100
AcDbLine
 10
772.960108
 20
411.334226
 30
0.0
 11
773.960108
 21
410.334226
 31
0.0
  0
LINE
  5
72
100
AcDbEntity
  8
M05
100
AcDbLine
 10
773.960108
 20
410.334226
 30
0.0
 11
777.960108
 21
410.334226
 31
0.0
  0
LINE
  5
73
100
AcDbEntity
  8
M05
100
AcDbLine
 10
777.960108
 20
454.284226
 30
0.0
 11
797.660108
 21
454.284226
 31
0.0
  0
LINE
  5
74
100
AcDbEntity
  8
M04
100
AcDbLine
 10
803.360108
 20
424.059226
 30
0.0
 11
803.360108
 21
423.059226
 31
0.0
  0
LINE
  5
75
100
AcDbEntity
  8
M04
100
AcDbLine
 10
802.360108
 20
423.059226
 30
0.0
 11
803.360108
 21
423.059226
 31
0.0
  0
LINE
  5
76
100
AcDbEntity
  8
M04
100
AcDbLine
 10
778.537458
 20
455.784226
 30
0.0
 11
778.537458
 21
454.284226
 31
0.0
  0
LINE
  5
77
100
AcDbEntity
  8
M04
100
AcDbLine
 10
778.537458
 20
455.784226
 30
0.0
 11
791.360108
 21
455.784226
 31
0.0
  0
LINE
  5
78
100
AcDbEntity
  8
M04
100
AcDbLine
 10
777.960108
 20
454.784226
 30
0.0
 11
778.537458
 21
455.784226
 31
0.0
  0
LINE
  5
79
100
AcDbEntity
  8
M04
100
AcDbLine
 10
773.960108
 20
454.784226
 30
0.0
 11
772.960108
 21
454.784226
 31
0.0
  0
LINE
  5
7A
100
AcDbEntity
  8
M04
100
AcDbLine
 10
772.960108
 20
453.784226
 30
0.0
 11
772.960108
 21
454.784226
 31
0.0
  0
LINE
  5
7B
100
AcDbEntity
  8
M04
100
AcDbLine
 10
803.360108
 20
441.059226
 30
0.0
 11
803.360108
 21
442.059226
 31
0.0
  0
LINE
  5
7C
100
AcDbEntity
  8
M04
100
AcDbLine
 10
802.360108
 20
442.059226
 30
0.0
 11
803.360108
 21
442.059226
 31
0.0
  0
LINE
  5
7D
100
AcDbEntity
  8
M05
100
AcDbLine
 10
802.360108
 20
423.059226
 30
0.0
 11
802.360108
 21
442.059226
 31
0.0
  0
LINE
  5
7E
100
AcDbEntity
  8
M05
100
AcDbLine
 10
773.960108
 20
410.334226
 30
0.0
 11
773.960108
 21
454.784226
 31
0.0
  0
LINE
  5
7F
100
AcDbEntity
  8
M05
100
AcDbLine
 10
803.360108
 20
424.059226
 30
0.0
 11
802.360108
 21
423.059226
 31
0.0
  0
LINE
  5
80
100
AcDbEntity
  8
M05
100
AcDbLine
 10
802.360108
 20
442.059226
 30
0.0
 11
803.360108
 21
441.059226
 31
0.0
  0
LINE
  5
81
100
AcDbEntity
  8
M05
100
AcDbLine
 10
772.960108
 20
453.784226
 30
0.0
 11
773.960108
 21
454.784226
 31
0.0
  0
LINE
  5
82
100
AcDbEntity
  8
M05
100
AcDbLine
 10
773.960108
 20
454.784226
 30
0.0
 11
777.960108
 21
454.784226
 31
0.0
  0
LINE
  5
83
100
AcDbEntity
  8
M05
100
AcDbLine
 10
777.960108
 20
454.784226
 30
0.0
 11
777.960108
 21
410.334226
 31
0.0
  0
LINE
  5
84
100
AcDbEntity
  8
M05
100
AcDbLine
 10
772.960108
 20
453.784226
 30
0.0
 11
772.960108
 21
411.334226
 31
0.0
  0
LINE
  5
85
100
AcDbEntity
  8
M05
100
AcDbLine
 10
798.360108
 20
423.059226
 30
0.0
 11
802.360108
 21
423.059226
 31
0.0
  0
LINE
  5
86
100
AcDbEntity
  8
M05
100
AcDbLine
 10
798.360108
 20
442.059226
 30
0.0
 11
802.360108
 21
442.059226
 31
0.0
  0
LINE
  5
87
100
AcDbEntity
  8
M05
100
AcDbLine
 10
803.360108
 20
441.059226
 30
0.0
 11
803.360108
 21
424.059226
 31
0.0
  0
TEXT
  5
88
100
AcDbEntity
  8
TEXT
100
AcDbText
 10
561.158614
 20
282.734612
 30
0.0
 40
2.0
  1
MA010002
 41
0.9
100
AcDbText
  0
HATCH
  5
8A
100
AcDbEntity
  8
HATCH
100
AcDbHatch
 10
0.0
 20
0.0
 30
0.0
210
0.0
220
0.0
230
1.0
  2
_U
 70
     0
 71
     1
 91
        4
 92
        7
 72
     0
 73
     1
 93
        4
 10
672.9472405752651
 20
283.0138856722446
 10
660.9472405752653
 20
283.0138856722446
 10
660.9472405752653
 20
280.0138856722446
 10
672.9472405752654
 20
280.0138856722446
 97
        4
330
3F6
330
EB
330
405
330
3FC
 92
        7
 72
     0
 73
     1
 93
        4
 10
624.9472405752656
 20
283.0138856722447
 10
578.6722405752654
 20
283.0138856722447
 10
578.6722405752654
 20
280.0138856722446
 10
624.9472405752652
 20
280.0138856722446
 97
        4
330
3F6
330
3F7
330
405
330
EA
 92
        7
 72
     0
 73
     1
 93
        4
 10
532.2222405752653
 20
283.0138856722445
 10
485.9472405752653
 20
283.0138856722446
 10
485.9472405752653
 20
280.0138856722446
 10
532.2222405752653
 20
280.0138856722446
 97
        4
330
3FB
330
EC
330
405
330
8B
 92
        7
 72
     0
 73
     1
 93
        4
 10
449.9472405752652
 20
283.0138856722446
 10
437.9472405752653
 20
283.0138856722446
 10
437.9472405752653
 20
280.0138856722446
 10
449.9472405752653
 20
280.0138856722445
 97
        4
330
3FB
330
3FD
330
405
330
ED
 75
     0
 76
     0
 52
135.0
 41
0.8
 77
     0
 78
     1
 53
135.0
 43
0.0
 44
0.0
 45
-0.5656854249492382
 46
-0.565685424949238
 79
     0
 47
0.265731
 98
        4
 10
664.294566
 20
281.519567
 10
608.733764
 20
282.316761
 10
522.601228
 20
281.785299
 10
446.570658
 20
281.519567
  0
LINE
  5
8B
102
{ACAD_REACTORS
330
8A
102
}
100
AcDbEntity
  8
M02
100
AcDbLine
 10
532.222241
 20
283.013886
 30
0.0
 11
532.222241
 21
280.013886
 31
0.0
  0
POINT
  5
8D
100
AcDbEntity
  8
DEFPOINTS
  6
BYBLOCK
 62
     0
100
AcDbPoint
 10
555.447241
 20
280.013886
 30
0.0
  0
LINE
  5
8E
100
AcDbEntity
  8
M04
100
AcDbLine
 10
545.247241
 20
280.013886
 30
0.0
 11
545.947241
 21
279.313886
 31
0.0
  0
LINE
  5
8F
100
AcDbEntity
  8
M04
100
AcDbLine
 10
565.647241
 20
280.013886
 30
0.0
 11
564.947241
 21
279.313886
 31
0.0
  0
LINE
  5
90
100
AcDbEntity
  8
M03
100
AcDbLine
 10
557.747241
 20
287.413886
 30
0.0
 11
557.747241
 21
275.013886
 31
0.0
  0
LINE
  5
91
100
AcDbEntity
  8
M03
100
AcDbLine
 10
553.147241
 20
287.413886
 30
0.0
 11
553.147241
 21
275.013886
 31
0.0
  0
LINE
  5
92
100
AcDbEntity
  8
M03
100
AcDbLine
 10
552.447241
 20
287.413886
 30
0.0
 11
552.447241
 21
275.013886
 31
0.0
  0
LINE
  5
93
100
AcDbEntity
  8
M03
100
AcDbLine
 10
558.447241
 20
287.413886
 30
0.0
 11
558.447241
 21
275.013886
 31
0.0
  0
ARC
  5
94
100
AcDbEntity
  8
M03
100
AcDbCircle
 10
543.947241
 20
292.413886
 30
0.0
 40
5.0
100
AcDbArc
 50
180.0
 51
270.0
  0
ARC
  5
95
100
AcDbEntity
  8
M03
100
AcDbCircle
 10
566.947241
 20
292.413886
 30
0.0
 40
5.0
100
AcDbArc
 50
270.0
 51
0.0
  0
LINE
  5
96
100
AcDbEntity
  8
M03
100
AcDbLine
 10
538.947241
 20
305.413886
 30
0.0
 11
538.947241
 21
292.413886
 31
0.0
  0
LINE
  5
97
100
AcDbEntity
  8
M03
100
AcDbLine
 10
571.947241
 20
305.413886
 30
0.0
 11
571.947241
 21
292.413886
 31
0.0
  0
LINE
  5
98
100
AcDbEntity
  8
M03
100
AcDbLine
 10
566.947241
 20
287.413886
 30
0.0
 11
543.947241
 21
287.413886
 31
0.0
  0
LINE
  5
99
100
AcDbEntity
  8
M05
100
AcDbLine
 10
533.722241
 20
280.713886
 30
0.0
 11
577.172241
 21
280.713886
 31
0.0
  0
LINE
  5
9A
100
AcDbEntity
  8
M05
100
AcDbLine
 10
576.472241
 20
280.013886
 30
0.0
 11
577.172241
 21
280.713886
 31
0.0
  0
LINE
  5
9B
100
AcDbEntity
  8
M05
100
AcDbLine
 10
533.722241
 20
280.713886
 30
0.0
 11
534.422241
 21
280.013886
 31
0.0
  0
LINE
  5
9C
100
AcDbEntity
  8
M05
100
AcDbLine
 10
533.722241
 20
300.413886
 30
0.0
 11
533.722241
 21
280.713886
 31
0.0
  0
LINE
  5
9D
100
AcDbEntity
  8
M04
100
AcDbLine
 10
532.222241
 20
299.836535
 30
0.0
 11
533.722241
 21
299.836535
 31
0.0
  0
LINE
  5
9E
100
AcDbEntity
  8
M04
100
AcDbLine
 10
532.222241
 20
299.836535
 30
0.0
 11
532.222241
 21
287.013886
 31
0.0
  0
LINE
  5
9F
100
AcDbEntity
  8
M04
100
AcDbLine
 10
533.222241
 20
300.413886
 30
0.0
 11
532.222241
 21
299.836535
 31
0.0
  0
LINE
  5
A0
100
AcDbEntity
  8
M04
100
AcDbLine
 10
533.222241
 20
304.413886
 30
0.0
 11
533.222241
 21
305.413886
 31
0.0
  0
LINE
  5
A1
100
AcDbEntity
  8
M04
100
AcDbLine
 10
534.222241
 20
305.413886
 30
0.0
 11
533.222241
 21
305.413886
 31
0.0
  0
LINE
  5
A2
100
AcDbEntity
  8
M05
100
AcDbLine
 10
534.222241
 20
305.413886
 30
0.0
 11
533.222241
 21
304.413886
 31
0.0
  0
LINE
  5
A3
100
AcDbEntity
  8
M05
100
AcDbLine
 10
533.222241
 20
304.413886
 30
0.0
 11
533.222241
 21
300.413886
 31
0.0
  0
LINE
  5
A4
100
AcDbEntity
  8
M05
100
AcDbLine
 10
577.172241
 20
300.413886
 30
0.0
 11
577.172241
 21
280.713886
 31
0.0
  0
LINE
  5
A5
100
AcDbEntity
  8
M04
100
AcDbLine
 10
546.947241
 20
275.013886
 30
0.0
 11
545.947241
 21
275.013886
 31
0.0
  0
LINE
  5
A6
100
AcDbEntity
  8
M04
100
AcDbLine
 10
545.947241
 20
276.013886
 30
0.0
 11
545.947241
 21
275.013886
 31
0.0
  0
LINE
  5
A7
100
AcDbEntity
  8
M04
100
AcDbLine
 10
578.672241
 20
299.836535
 30
0.0
 11
577.172241
 21
299.836535
 31
0.0
  0
LINE
  5
A8
100
AcDbEntity
  8
M04
100
AcDbLine
 10
578.672241
 20
299.836535
 30
0.0
 11
578.672241
 21
287.013886
 31
0.0
  0
LINE
  5
A9
100
AcDbEntity
  8
M04
100
AcDbLine
 10
577.672241
 20
300.413886
 30
0.0
 11
578.672241
 21
299.836535
 31
0.0
  0
LINE
  5
AA
100
AcDbEntity
  8
M04
100
AcDbLine
 10
577.672241
 20
304.413886
 30
0.0
 11
577.672241
 21
305.413886
 31
0.0
  0
LINE
  5
AB
100
AcDbEntity
  8
M04
100
AcDbLine
 10
576.672241
 20
305.413886
 30
0.0
 11
577.672241
 21
305.413886
 31
0.0
  0
LINE
  5
AC
100
AcDbEntity
  8
M04
100
AcDbLine
 10
563.947241
 20
275.013886
 30
0.0
 11
564.947241
 21
275.013886
 31
0.0
  0
LINE
  5
AD
100
AcDbEntity
  8
M04
100
AcDbLine
 10
564.947241
 20
276.013886
 30
0.0
 11
564.947241
 21
275.013886
 31
0.0
  0
LINE
  5
AE
100
AcDbEntity
  8
M05
100
AcDbLine
 10
545.947241
 20
276.013886
 30
0.0
 11
564.947241
 21
276.013886
 31
0.0
  0
LINE
  5
AF
100
AcDbEntity
  8
M05
100
AcDbLine
 10
533.222241
 20
304.413886
 30
0.0
 11
577.672241
 21
304.413886
 31
0.0
  0
LINE
  5
B0
100
AcDbEntity
  8
M05
100
AcDbLine
 10
546.947241
 20
275.013886
 30
0.0
 11
545.947241
 21
276.013886
 31
0.0
  0
LINE
  5
B1
100
AcDbEntity
  8
M05
100
AcDbLine
 10
564.947241
 20
276.013886
 30
0.0
 11
563.947241
 21
275.013886
 31
0.0
  0
LINE
  5
B2
100
AcDbEntity
  8
M05
100
AcDbLine
 10
576.672241
 20
305.413886
 30
0.0
 11
577.672241
 21
304.413886
 31
0.0
  0
LINE
  5
B3
100
AcDbEntity
  8
M05
100
AcDbLine
 10
577.672241
 20
304.413886
 30
0.0
 11
577.672241
 21
300.413886
 31
0.0
  0
LINE
  5
B4
100
AcDbEntity
  8
M05
100
AcDbLine
 10
577.672241
 20
300.413886
 30
0.0
 11
533.222241
 21
300.413886
 31
0.0
  0
LINE
  5
B5
100
AcDbEntity
  8
M05
100
AcDbLine
 10
576.672241
 20
305.413886
 30
0.0
 11
534.222241
 21
305.413886
 31
0.0
  0
LINE
  5
B6
100
AcDbEntity
  8
M05
100
AcDbLine
 10
545.947241
 20
280.013886
 30
0.0
 11
545.947241
 21
276.013886
 31
0.0
  0
LINE
  5
B7
100
AcDbEntity
  8
M05
100
AcDbLine
 10
564.947241
 20
280.013886
 30
0.0
 11
564.947241
 21
276.013886
 31
0.0
  0
LINE
  5
B8
100
AcDbEntity
  8
M05
100
AcDbLine
 10
563.947241
 20
275.013886
 30
0.0
 11
546.947241
 21
275.013886
 31
0.0
  0
HATCH
  5
B9
100
AcDbEntity
  8
HATCH
100
AcDbHatch
 10
0.0
 20
0.0
 30
0.0
210
0.0
220
0.0
230
1.0
  2
_U
 70
     0
 71
     0
 91
        4
 92
        7
 72
     0
 73
     1
 93
        4
 10
452.9472405752653
 20
233.0138856722446
 10
437.9472405752653
 20
233.0138856722446
 10
437.9472405752653
 20
230.0138856722446
 10
452.9472405752651
 20
230.0138856722446
 97
        0
 92
        7
 72
     0
 73
     1
 93
        4
 10
520.4472405752652
 20
233.0138856722447
 10
482.9472405752652
 20
233.0138856722446
 10
482.9472405752654
 20
230.0138856722446
 10
520.4472405752652
 20
230.0138856722446
 97
        0
 92
        7
 72
     0
 73
     1
 93
        4
 10
627.9472405752653
 20
233.0138856722446
 10
590.4472405752654
 20
233.0138856722447
 10
590.4472405752653
 20
230.0138856722446
 10
627.9472405752653
 20
230.0138856722446
 97
        0
 92
        7
 72
     0
 73
     1
 93
        4
 10
672.9472405752654
 20
233.0138856722446
 10
657.9472405752653
 20
233.0138856722446
 10
657.9472405752653
 20
230.0138856722446
 10
672.9472405752652
 20
230.0138856722446
 97
        0
 75
     0
 76
     0
 52
135.0
 41
0.8
 77
     0
 78
     1
 53
135.0
 43
0.0
 44
-14.472589
 45
-0.5656854249492382
 46
-0.565685424949238
 79
     0
 47
0.251927
 98
        4
 10
448.776794
 20
231.178403
 10
500.191164
 20
231.682257
 10
604.532091
 20
231.430329
 10
669.556148
 20
231.934185
  0
HATCH
  5
BA
100
AcDbEntity
  8
HATCH
100
AcDbHatch
 10
0.0
 20
0.0
 30
0.0
210
0.0
220
0.0
230
1.0
  2
_U
 70
     0
 71
     1
 91
        2
 92
        7
 72
     1
 73
     1
 93
        2
 10
440.9472405752653
 20
276.0138856722448
 42
1.0
 10
448.9472405752653
 20
276.0138856722448
 42
1.0
 97
        1
330
13B
 92
        7
 72
     1
 73
     1
 93
        2
 10
440.9472405752653
 20
237.0138856722445
 42
1.0
 10
448.9472405752653
 20
237.0138856722445
 42
1.0
 97
        1
330
132
 75
     0
 76
     0
 52
45.0
 41
0.8
 77
     0
 78
     1
 53
45.0
 43
0.0
 44
-14.472589
 45
-0.565685424949238
 46
0.565685424949238
 79
     0
 47
0.251927
 98
        2
 10
443.484138
 20
277.784946
 10
446.508512
 20
238.988148
  0
HATCH
  5
BB
100
AcDbEntity
  8
HATCH
100
AcDbHatch
 10
0.0
 20
0.0
 30
0.0
210
0.0
220
0.0
230
1.0
  2
_U
 70
     0
 71
     0
 91
        2
 92
        7
 72
     1
 73
     1
 93
        2
 10
661.9472405752653
 20
276.0138856722448
 42
1.0
 10
669.9472405752653
 20
276.0138856722448
 42
1.0
 97
        0
 92
        7
 72
     1
 73
     1
 93
        2
 10
661.9472405752653
 20
237.0138856722445
 42
1.0
 10
669.9472405752653
 20
237.0138856722445
 42
1.0
 97
        0
 75
     0
 76
     0
 52
45.0
 41
0.8
 77
     0
 78
     1
 53
45.0
 43
0.0
 44
-14.472589
 45
-0.565685424949238
 46
0.565685424949238
 79
     0
 47
0.251927
 98
        2
 10
667.287867
 20
277.533019
 10
667.791929
 20
237.980438
  0
HATCH
  5
BC
100
AcDbEntity
  8
HATCH
100
AcDbHatch
 10
0.0
 20
0.0
 30
0.0
210
0.0
220
0.0
230
1.0
  2
_U
 70
     0
 71
     0
 91
       16
 92
        7
 72
     1
 73
     1
 93
        5
 10
555.4472405752654
 20
452.5592260810632
 42
0.0
 10
555.4472405752654
 20
453.0592260810632
 42
-0.1856631955229143
 10
551.7619018306982
 20
454.4765457926017
 42
0.3157147729334966
 10
533.5851586753181
 20
436.5592260810632
 42
0.0
 10
535.851322633
 20
436.5592260810632
 42
-0.3563939586925999
 97
        0
 92
       22
 72
     1
 73
     1
 93
        4
 10
555.4472405752654
 20
452.5592260810632
 42
0.3563939586925999
 10
535.851322633
 20
436.5592260810632
 42
0.0
 10
546.8303966054583
 20
436.5592260810632
 42
-0.2919418509678903
 10
555.4472405752654
 20
442.0592260810632
 42
0.0
 97
        0
 92
        6
 72
     1
 73
     1
 93
        3
 10
555.4472405752654
 20
442.0592260810632
 42
0.2919418509678903
 10
546.8303966054583
 20
436.5592260810632
 42
0.0
 10
555.4472405752654
 20
436.5592260810632
 42
0.0
 97
        0
 92
        7
 72
     1
 73
     1
 93
        4
 10
555.4472405752654
 20
436.5592260810632
 42
0.0
 10
546.8303966054583
 20
436.5592260810632
 42
0.1090809576248918
 10
545.9472405752653
 20
432.5592260810632
 42
0.0
 10
551.4472405752654
 20
432.5592260810632
 42
-0.4142135623730992
 97
        0
 92
       22
 72
     1
 73
     1
 93
        3
 10
555.4472405752654
 20
436.5592260810632
 42
0.4142135623730992
 10
551.4472405752654
 20
432.5592260810632
 42
0.0
 10
555.4472405752655
 20
432.5592260810631
 42
0.0
 97
        0
 92
        7
 72
     1
 73
     1
 93
        4
 10
546.8303966054583
 20
436.5592260810632
 42
0.0
 10
535.851322633
 20
436.5592260810632
 42
0.0503820444848851
 10
535.4472405752654
 20
432.5592260810632
 42
0.0
 10
545.9472405752653
 20
432.5592260810632
 42
-0.1090809576248918
 97
        0
 92
        7
 72
     1
 73
     1
 93
        5
 10
535.851322633
 20
436.5592260810632
 42
0.0
 10
533.5851586753181
 20
436.5592260810632
 42
0.003593667114849
 10
533.5299208637269
 20
436.2445648256303
 42
-0.1856631955229133
 10
534.9472405752654
 20
432.5592260810632
 42
0.0
 10
535.4472405752654
 20
432.5592260810632
 42
-0.0503820444848851
 97
        0
 92
        7
 72
     1
 73
     1
 93
        3
 10
533.5299208637269
 20
436.2445648256303
 42
0.0416713391594355
 10
533.2222405752653
 20
432.5592260810632
 42
0.0
 10
534.9472405752654
 20
432.5592260810632
 42
0.1856631955229133
 97
        0
 92
       22
 72
     1
 73
     1
 93
        3
 10
559.4472405752653
 20
432.5592260810632
 42
0.0
 10
555.4472405752655
 20
432.5592260810632
 42
0.0
 10
555.4472405752655
 20
428.5592260810632
 42
0.4142135623730826
 97
        0
 92
        7
 72
     1
 73
     1
 93
        4
 10
564.9472405752653
 20
432.5592260810632
 42
0.0
 10
559.4472405752653
 20
432.5592260810632
 42
-0.4142135623730909
 10
555.4472405752654
 20
428.5592260810632
 42
0.0
 10
564.0640845450724
 20
428.5592260810632
 42
0.1090809576248888
 97
        0
 92
        6
 72
     1
 73
     1
 93
        3
 10
564.0640845450724
 20
428.5592260810632
 42
0.0
 10
555.4472405752654
 20
428.5592260810632
 42
0.0
 10
555.4472405752654
 20
423.0592260810632
 42
0.2919418509678903
 97
        0
 92
       22
 72
     1
 73
     1
 93
        4
 10
575.0431585175307
 20
428.5592260810632
 42
0.0
 10
564.0640845450724
 20
428.5592260810632
 42
-0.2919418509678903
 10
555.4472405752654
 20
423.0592260810632
 42
0.0
 10
555.4472405752654
 20
412.5592260810632
 42
0.3563939586925999
 97
        0
 92
        7
 72
     1
 73
     1
 93
        4
 10
575.4472405752653
 20
432.5592260810632
 42
0.0
 10
564.9472405752653
 20
432.5592260810632
 42
-0.1090809576248888
 10
564.0640845450724
 20
428.5592260810632
 42
0.0
 10
575.0431585175307
 20
428.5592260810632
 42
0.0503820444848837
 97
        0
 92
        7
 72
     1
 73
     1
 93
        5
 10
575.9472405752653
 20
432.5592260810632
 42
0.0
 10
575.4472405752653
 20
432.5592260810632
 42
-0.0503820444848837
 10
575.0431585175307
 20
428.5592260810632
 42
0.0
 10
577.3093224752126
 20
428.5592260810632
 42
0.003593667114849
 10
577.3645602868038
 20
428.8738873364961
 42
-0.185663195522908
 97
        0
 92
        7
 72
     1
 73
     1
 93
        3
 10
577.6722405752654
 20
432.5592260810632
 42
0.0
 10
575.9472405752653
 20
432.5592260810632
 42
0.185663195522908
 10
577.3645602868038
 20
428.8738873364961
 42
0.0416713391594342
 97
        0
 92
        7
 72
     1
 73
     1
 93
        4
 10
577.3093224752126
 20
428.5592260810632
 42
0.0
 10
575.0431585175307
 20
428.5592260810632
 42
-0.3563939586925999
 10
555.4472405752654
 20
412.5592260810632
 42
0.0
 10
555.4472405752654
 20
410.3342260810632
 42
0.3621506593782504
 97
        0
 75
     0
 76
     0
 52
45.0
 41
2.0
 77
     1
 78
     2
 53
45.0
 43
0.0
 44
0.0
 45
-1.414213562373094
 46
1.414213562373095
 79
     0
 53
135.0
 43
0.0
 44
0.0
 45
-1.414213562373095
 46
-1.414213562373094
 79
     0
 47
0.113412
 98
       16
 10
543.131086
 20
449.879146
 10
544.832962
 20
446.023152
 10
553.001966
 20
439.672104
 10
549.938589
 20
435.022228
 10
554.13655
 20
434.681993
 10
542.904169
 20
434.568582
 10
534.848623
 20
435.929521
 10
534.281332
 20
433.888112
 10
557.767219
 20
430.485764
 10
561.738262
 20
430.599175
 10
558.447969
 20
426.176123
 10
565.482389
 20
424.47495
 10
569.226516
 20
430.258941
 10
575.807103
 20
429.691883
 10
577.282062
 20
430.939411
 10
575.920562
 20
424.928596
  0
HATCH
  5
BD
100
AcDbEntity
  8
M03
100
AcDbHatch
 10
0.0
 20
0.0
 30
0.0
210
0.0
220
0.0
230
1.0
  2
_U
 70
     0
 71
     0
 91
        1
 92
        7
 72
     0
 73
     1
 93
        4
 10
486.1401777820803
 20
404.4592260810629
 10
456.9017183674449
 20
404.4592260810629
 10
456.9017183674449
 20
402.5592260810629
 10
486.1401777820804
 20
402.559226081063
 97
        0
 75
     0
 76
     0
 52
330.0
 41
0.7
 77
     0
 78
     1
 53
330.0
 43
-5.0
 44
0.0
 45
0.3500000000000003
 46
0.6062177826491069
 79
     0
 47
0.060863
 98
        1
 10
482.449006
 20
403.271795
  0
HATCH
  5
BE
100
AcDbEntity
  8
M03
100
AcDbHatch
 10
0.0
 20
0.0
 30
0.0
210
0.0
220
0.0
230
1.0
  2
_U
 70
     0
 71
     0
 91
        1
 92
        7
 72
     0
 73
     1
 93
        4
 10
486.1401777820804
 20
404.4592260810629
 10
456.9017183674448
 20
404.4592260810629
 10
456.9017183674448
 20
402.5592260810628
 10
486.1401777820804
 20
402.559226081063
 97
        0
 75
     0
 76
     0
 52
30.0
 41
0.7
 77
     0
 78
     1
 53
30.0
 43
-5.0
 44
0.0
 45
-0.3499999999999999
 46
0.6062177826491072
 79
     0
 47
0.060863
 98
        1
 10
482.266342
 20
403.515247
  0
LINE
  5
BF
100
AcDbEntity
  8
M01
100
AcDbLine
 10
839.34812
 20
566.794894
 30
0.0
 11
841.327828
 21
568.001623
 31
0.0
  0
LINE
  5
C1
100
AcDbEntity
  8
M01
100
AcDbLine
 10
847.082087
 20
578.248121
 30
0.0
 11
847.082087
 21
586.822933
 31
0.0
  0
LINE
  5
C2
100
AcDbEntity
  8
M01
100
AcDbLine
 10
843.082087
 20
578.248121
 30
0.0
 11
843.082087
 21
586.822933
 31
0.0
  0
ARC
  5
C3
100
AcDbEntity
  8
M01
100
AcDbCircle
 10
835.082087
 20
578.248121
 30
0.0
 40
12.0
100
AcDbArc
 50
301.364349
 51
0.0
  0
ARC
  5
C4
100
AcDbEntity
  8
M01
100
AcDbCircle
 10
835.082087
 20
578.248121
 30
0.0
 40
8.0
100
AcDbArc
 50
308.846454
 51
0.0
  0
LINE
  5
C5
100
AcDbEntity
  8
M01
100
AcDbLine
 10
825.716759
 20
563.170441
 30
0.0
 11
835.944171
 21
569.404549
 31
0.0
  0
LINE
  5
C6
100
AcDbEntity
  8
M01
100
AcDbLine
 10
827.798673
 20
559.754942
 30
0.0
 11
828.122205
 21
559.952151
 31
0.0
  0
LINE
  5
C7
100
AcDbEntity
  8
M01
100
AcDbLine
 10
826.360108
 20
552.752534
 30
0.0
 11
826.360108
 21
552.159226
 31
0.0
  0
LINE
  5
C8
100
AcDbEntity
  8
M01
100
AcDbLine
 10
822.360108
 20
557.193317
 30
0.0
 11
822.360108
 21
554.467473
 31
0.0
  0
ARC
  5
C9
100
AcDbEntity
  8
M01
100
AcDbCircle
 10
829.360108
 20
557.193317
 30
0.0
 40
3.0
100
AcDbArc
 50
121.364349
 51
151.672691
  0
ARC
  5
CA
100
AcDbEntity
  8
M01
100
AcDbCircle
 10
829.360108
 20
557.193317
 30
0.0
 40
7.0
100
AcDbArc
 50
121.364349
 51
180.0
  0
ARC
  5
CB
100
AcDbEntity
  8
M01
100
AcDbCircle
 10
829.360108
 20
552.159226
 30
0.0
 40
7.0
100
AcDbArc
 50
202.678679
 51
270.0
  0
ARC
  5
CC
100
AcDbEntity
  8
M01
100
AcDbCircle
 10
829.360108
 20
552.159226
 30
0.0
 40
3.0
100
AcDbArc
 50
180.0
 51
270.0
  0
ARC
  5
CD
100
AcDbEntity
  8
M01
100
AcDbCircle
 10
828.099971
 20
570.975701
 30
0.0
 40
12.0
100
AcDbArc
 50
313.586993
 51
0.0
  0
ARC
  5
CE
100
AcDbEntity
  8
M01
100
AcDbCircle
 10
828.099971
 20
570.975701
 30
0.0
 40
8.0
100
AcDbArc
 50
313.586993
 51
0.0
  0
LINE
  5
CF
100
AcDbEntity
  8
M01
100
AcDbLine
 10
829.360108
 20
549.159226
 30
0.0
 11
834.360108
 21
549.159226
 31
0.0
  0
LINE
  5
D0
100
AcDbEntity
  8
M01
100
AcDbLine
 10
830.360108
 20
549.159226
 30
0.0
 11
830.360108
 21
545.159226
 31
0.0
  0
LINE
  5
D1
100
AcDbEntity
  8
M01
100
AcDbLine
 10
834.360108
 20
549.159226
 30
0.0
 11
834.360108
 21
545.159226
 31
0.0
  0
LINE
  5
D2
100
AcDbEntity
  8
M01
100
AcDbLine
 10
799.360108
 20
545.159226
 30
0.0
 11
813.584646
 21
545.159226
 31
0.0
  0
LINE
  5
D3
100
AcDbEntity
  8
M01
100
AcDbLine
 10
813.584646
 20
549.159226
 30
0.0
 11
809.360108
 21
549.159226
 31
0.0
  0
ARC
  5
D4
100
AcDbEntity
  8
M01
100
AcDbCircle
 10
813.584646
 20
557.159226
 30
0.0
 40
12.0
100
AcDbArc
 50
270.0
 51
313.586993
  0
ARC
  5
D5
100
AcDbEntity
  8
M01
100
AcDbCircle
 10
813.584646
 20
557.159226
 30
0.0
 40
8.0
100
AcDbArc
 50
270.0
 51
313.586993
  0
LINE
  5
D6
100
AcDbEntity
  8
M01
100
AcDbLine
 10
813.360108
 20
549.159226
 30
0.0
 11
813.360108
 21
545.159226
 31
0.0
  0
LINE
  5
D7
100
AcDbEntity
  8
M01
100
AcDbLine
 10
809.360108
 20
549.159226
 30
0.0
 11
809.360108
 21
545.159226
 31
0.0
  0
LINE
  5
D8
100
AcDbEntity
  8
M01
100
AcDbLine
 10
836.373432
 20
562.28376
 30
0.0
 11
821.858108
 21
548.467285
 31
0.0
  0
LINE
  5
D9
100
AcDbEntity
  8
M01
100
AcDbLine
 10
833.615612
 20
565.181074
 30
0.0
 11
819.100287
 21
551.364599
 31
0.0
  0
LINE
  5
DA
100
AcDbEntity
  8
M01
100
AcDbLine
 10
840.099971
 20
586.814191
 30
0.0
 11
840.099971
 21
570.975701
 31
0.0
  0
LINE
  5
DB
100
AcDbEntity
  8
M01
100
AcDbLine
 10
836.099971
 20
586.814191
 30
0.0
 11
836.099971
 21
570.975701
 31
0.0
  0
HATCH
  5
DC
100
AcDbEntity
  8
HATCH
100
AcDbHatch
 10
0.0
 20
0.0
 30
0.0
210
0.0
220
0.0
230
1.0
  2
_U
 70
     0
 71
     1
 91
        2
 92
        7
 72
     0
 73
     1
 93
       11
 10
460.0883585878083
 20
233.0138856722447
 10
454.6472405752654
 20
233.0138856722447
 10
453.9472405752654
 20
232.3138856722447
 10
453.9472405752655
 20
226.7138856722445
 10
454.6472405752654
 20
226.0138856722446
 10
457.4472405752656
 20
226.0138856722446
 10
458.4472405752653
 20
227.0138856722445
 10
460.4472405752648
 20
227.0138856722446
 10
461.4472405752646
 20
226.0138856722446
 10
464.4472405752652
 20
226.0138856722446
 10
464.4472405752651
 20
228.6550036847877
 97
       10
330
404
330
29E
330
2A3
330
29F
330
40A
330
E0
330
E2
330
E1
330
28C
330
28E
 92
        7
 72
     0
 73
     1
 93
       11
 10
475.8061225627224
 20
233.0138856722447
 10
471.4472405752653
 20
228.6550036847875
 10
471.4472405752653
 20
226.0138856722445
 10
474.4472405752661
 20
226.0138856722445
 10
475.4472405752657
 20
227.0138856722446
 10
477.4472405752653
 20
227.0138856722445
 10
478.4472405752651
 20
226.0138856722446
 10
481.2472405752653
 20
226.0138856722446
 10
481.9472405752653
 20
226.7138856722445
 10
481.9472405752653
 20
232.3138856722447
 10
481.2472405752652
 20
233.0138856722447
 97
       10
330
299
330
404
330
290
330
28B
330
273
330
DE
330
DF
330
DD
330
29A
330
29B
 75
     0
 76
     0
 52
135.0
 41
1.5
 77
     0
 78
     1
 53
135.0
 43
-32.5
 44
-14.472589
 45
-1.060660171779821
 46
-1.060660171779821
 79
     0
 47
0.040219
 98
        2
 10
459.099024
 20
230.493456
 10
477.567312
 20
230.051044
  0
LINE
  5
DD
102
{ACAD_REACTORS
330
DC
102
}
100
AcDbEntity
  8
M05
100
AcDbLine
 10
477.447241
 20
227.013886
 30
0.0
 11
478.447241
 21
226.013886
 31
0.0
  0
LINE
  5
DE
102
{ACAD_REACTORS
330
DC
102
}
100
AcDbEntity
  8
M05
100
AcDbLine
 10
475.447241
 20
227.013886
 30
0.0
 11
474.447241
 21
226.013886
 31
0.0
  0
LINE
  5
DF
102
{ACAD_REACTORS
330
DC
102
}
100
AcDbEntity
  8
M05
100
AcDbLine
 10
477.447241
 20
227.013886
 30
0.0
 11
475.447241
 21
227.013886
 31
0.0
  0
LINE
  5
E0
102
{ACAD_REACTORS
330
DC
102
}
100
AcDbEntity
  8
M05
100
AcDbLine
 10
458.447241
 20
227.013886
 30
0.0
 11
457.447241
 21
226.013886
 31
0.0
  0
LINE
  5
E1
102
{ACAD_REACTORS
330
DC
102
}
100
AcDbEntity
  8
M05
100
AcDbLine
 10
460.447241
 20
227.013886
 30
0.0
 11
461.447241
 21
226.013886
 31
0.0
  0
LINE
  5
E2
102
{ACAD_REACTORS
330
DC
102
}
100
AcDbEntity
  8
M05
100
AcDbLine
 10
458.447241
 20
227.013886
 30
0.0
 11
460.447241
 21
227.013886
 31
0.0
  0
HATCH
  5
E3
100
AcDbEntity
  8
HATCH
100
AcDbHatch
 10
0.0
 20
0.0
 30
0.0
210
0.0
220
0.0
230
1.0
  2
_U
 70
     0
 71
     0
 91
        2
 92
        7
 72
     0
 73
     1
 93
       11
 10
635.0883585878082
 20
233.0138856722446
 10
629.6472405752655
 20
233.0138856722447
 10
628.9472405752653
 20
232.3138856722446
 10
628.9472405752653
 20
226.7138856722445
 10
629.6472405752653
 20
226.0138856722446
 10
632.4472405752654
 20
226.0138856722446
 10
633.4472405752652
 20
227.0138856722445
 10
635.447240575265
 20
227.0138856722446
 10
636.4472405752645
 20
226.0138856722446
 10
639.4472405752652
 20
226.0138856722446
 10
639.4472405752652
 20
228.6550036847875
 97
        0
 92
        7
 72
     0
 73
     1
 93
       11
 10
656.9472405752653
 20
232.3138856722446
 10
656.2472405752653
 20
233.0138856722446
 10
650.8061225627223
 20
233.0138856722445
 10
646.4472405752653
 20
228.6550036847875
 10
646.4472405752653
 20
226.0138856722445
 10
649.447240575266
 20
226.0138856722445
 10
650.4472405752657
 20
227.0138856722446
 10
652.4472405752653
 20
227.0138856722445
 10
653.4472405752651
 20
226.0138856722445
 10
656.2472405752653
 20
226.0138856722445
 10
656.9472405752651
 20
226.7138856722444
 97
        0
 75
     0
 76
     0
 52
135.0
 41
1.5
 77
     0
 78
     1
 53
135.0
 43
32.5
 44
-14.472589
 45
-1.060660171779821
 46
-1.060660171779821
 79
     0
 47
0.151518
 98
        2
 10
633.423171
 20
229.697923
 10
652.067581
 20
230.303994
  0
LINE
  5
E4
100
AcDbEntity
  8
M05
100
AcDbLine
 10
633.447241
 20
227.013886
 30
0.0
 11
632.447241
 21
226.013886
 31
0.0
  0
LINE
  5
E5
100
AcDbEntity
  8
M05
100
AcDbLine
 10
635.447241
 20
227.013886
 30
0.0
 11
636.447241
 21
226.013886
 31
0.0
  0
LINE
  5
E6
100
AcDbEntity
  8
M05
100
AcDbLine
 10
633.447241
 20
227.013886
 30
0.0
 11
635.447241
 21
227.013886
 31
0.0
  0
LINE
  5
E7
100
AcDbEntity
  8
M05
100
AcDbLine
 10
652.447241
 20
227.013886
 30
0.0
 11
653.447241
 21
226.013886
 31
0.0
  0
LINE
  5
E8
100
AcDbEntity
  8
M05
100
AcDbLine
 10
650.447241
 20
227.013886
 30
0.0
 11
649.447241
 21
226.013886
 31
0.0
  0
LINE
  5
E9
100
AcDbEntity
  8
M05
100
AcDbLine
 10
652.447241
 20
227.013886
 30
0.0
 11
650.447241
 21
227.013886
 31
0.0
  0
LINE
  5
EA
102
{ACAD_REACTORS
330
8A
102
}
100
AcDbEntity
  8
M02
100
AcDbLine
 10
624.947241
 20
280.013886
 30
0.0
 11
624.947241
 21
283.013886
 31
0.0
  0
LINE
  5
EB
102
{ACAD_REACTORS
330
8A
102
}
100
AcDbEntity
  8
M02
100
AcDbLine
 10
660.947241
 20
280.013886
 30
0.0
 11
660.947241
 21
283.013886
 31
0.0
  0
LINE
  5
EC
102
{ACAD_REACTORS
330
8A
102
}
100
AcDbEntity
  8
M02
100
AcDbLine
 10
485.947241
 20
280.013886
 30
0.0
 11
485.947241
 21
283.013886
 31
0.0
  0
LINE
  5
ED
102
{ACAD_REACTORS
330
8A
102
}
100
AcDbEntity
  8
M02
100
AcDbLine
 10
449.947241
 20
280.013886
 30
0.0
 11
449.947241
 21
283.013886
 31
0.0
  0
TEXT
  5
EE
100
AcDbEntity
  8
DIMS
 62
     2
100
AcDbText
 10
710.147296
 20
412.860551
 30
0.0
 40
3.0
  1
(W=50.00 OPTION)
 50
90.0
100
AcDbText
  0
POINT
  5
EF
100
AcDbEntity
  8
DEFPOINTS
  6
BYBLOCK
 62
     0
100
AcDbPoint
 10
642.947241
 20
482.559226
 30
0.0
  0
POINT
  5
F0
100
AcDbEntity
  8
DEFPOINTS
  6
BYBLOCK
 62
     0
100
AcDbPoint
 10
646.357108
 20
488.093014
 30
0.0
  0
MTEXT
  5
F1
100
AcDbEntity
  8
0
  6
BYBLOCK
 62
     2
100
AcDbMText
 10
605.488893
 20
507.810084
 30
0.0
 40
3.0
 41
0.0
 71
     4
 72
     1
  1
M12 PLATE RETAINING SCREWS SHOULD ALSO BE FITTED.\PMINIMUM 2 PER DROP & ALSO AROUND MANIFOLD POCKET.
  0
SOLID
  5
F2
100
AcDbEntity
  8
0
  6
BYBLOCK
 62
     4
100
AcDbTrace
 10
647.505217
 20
490.909367
 30
0.0
 11
648.356569
 21
490.384772
 31
0.0
 12
646.357108
 22
488.093014
 32
0.0
 13
646.357108
 23
488.093014
 33
0.0
  0
LINE
  5
F3
100
AcDbEntity
  8
0
  6
BYBLOCK
 62
     4
100
AcDbLine
 10
647.930893
 20
490.647069
 30
0.0
 11
655.468082
 21
502.580289
 31
0.0
  0
LINE
  5
F4
100
AcDbEntity
  8
M01
100
AcDbLine
 10
836.110108
 20
530.503326
 30
0.0
 11
842.610108
 21
530.503326
 31
0.0
  0
LINE
  5
F5
100
AcDbEntity
  8
M01
100
AcDbLine
 10
836.110108
 20
538.615126
 30
0.0
 11
842.610108
 21
538.615126
 31
0.0
  0
LINE
  5
F6
100
AcDbEntity
  8
M01
100
AcDbLine
 10
836.110108
 20
530.503326
 30
0.0
 11
836.110108
 21
528.559226
 31
0.0
  0
ARC
  5
F7
100
AcDbEntity
  8
M01
100
AcDbCircle
 10
834.860108
 20
532.064576
 30
0.0
 40
2.0
100
AcDbArc
 50
308.682187
 51
0.0
  0
ARC
  5
F8
100
AcDbEntity
  8
M01
100
AcDbCircle
 10
834.860108
 20
537.053876
 30
0.0
 40
2.0
100
AcDbArc
 50
0.0
 51
51.317813
  0
LINE
  5
F9
100
AcDbEntity
  8
M01
100
AcDbLine
 10
836.110108
 20
540.559226
 30
0.0
 11
836.110108
 21
538.615126
 31
0.0
  0
LINE
  5
FA
100
AcDbEntity
  8
M01
100
AcDbLine
 10
836.860108
 20
537.053876
 30
0.0
 11
836.860108
 21
532.064576
 31
0.0
  0
LINE
  5
FB
100
AcDbEntity
  8
M01
100
AcDbLine
 10
842.610108
 20
530.503326
 30
0.0
 11
842.610108
 21
528.559226
 31
0.0
  0
ARC
  5
FC
100
AcDbEntity
  8
M01
100
AcDbCircle
 10
843.860108
 20
532.064576
 30
0.0
 40
2.0
100
AcDbArc
 50
180.0
 51
231.317813
  0
ARC
  5
FD
100
AcDbEntity
  8
M01
100
AcDbCircle
 10
843.860108
 20
537.053876
 30
0.0
 40
2.0
100
AcDbArc
 50
128.682187
 51
180.0
  0
LINE
  5
FE
100
AcDbEntity
  8
M01
100
AcDbLine
 10
842.610108
 20
540.559226
 30
0.0
 11
842.610108
 21
538.615126
 31
0.0
  0
LINE
  5
FF
100
AcDbEntity
  8
M01
100
AcDbLine
 10
841.860108
 20
537.053876
 30
0.0
 11
841.860108
 21
532.064576
 31
0.0
  0
LINE
  5
100
100
AcDbEntity
  8
M01
100
AcDbLine
 10
570.697241
 20
530.503326
 30
0.0
 11
564.197241
 21
530.503326
 31
0.0
  0
LINE
  5
101
100
AcDbEntity
  8
M01
100
AcDbLine
 10
570.697241
 20
538.615126
 30
0.0
 11
564.197241
 21
538.615126
 31
0.0
  0
LINE
  5
102
100
AcDbEntity
  8
M01
100
AcDbLine
 10
570.697241
 20
530.503326
 30
0.0
 11
570.697241
 21
528.559226
 31
0.0
  0
ARC
  5
103
100
AcDbEntity
  8
M01
100
AcDbCircle
 10
571.947241
 20
532.064576
 30
0.0
 40
2.0
100
AcDbArc
 50
180.0
 51
231.317813
  0
ARC
  5
104
100
AcDbEntity
  8
M01
100
AcDbCircle
 10
571.947241
 20
537.053876
 30
0.0
 40
2.0
100
AcDbArc
 50
128.682187
 51
180.0
  0
LINE
  5
105
100
AcDbEntity
  8
M01
100
AcDbLine
 10
570.697241
 20
540.559226
 30
0.0
 11
570.697241
 21
538.615126
 31
0.0
  0
LINE
  5
106
100
AcDbEntity
  8
M01
100
AcDbLine
 10
569.947241
 20
537.053876
 30
0.0
 11
569.947241
 21
532.064576
 31
0.0
  0
LINE
  5
107
100
AcDbEntity
  8
M01
100
AcDbLine
 10
564.197241
 20
530.503326
 30
0.0
 11
564.197241
 21
528.559226
 31
0.0
  0
ARC
  5
108
100
AcDbEntity
  8
M01
100
AcDbCircle
 10
562.947241
 20
532.064576
 30
0.0
 40
2.0
100
AcDbArc
 50
308.682187
 51
0.0
  0
ARC
  5
109
100
AcDbEntity
  8
M01
100
AcDbCircle
 10
562.947241
 20
537.053876
 30
0.0
 40
2.0
100
AcDbArc
 50
0.0
 51
51.317813
  0
LINE
  5
10A
100
AcDbEntity
  8
M01
100
AcDbLine
 10
564.197241
 20
540.559226
 30
0.0
 11
564.197241
 21
538.615126
 31
0.0
  0
LINE
  5
10B
100
AcDbEntity
  8
M01
100
AcDbLine
 10
564.947241
 20
537.053876
 30
0.0
 11
564.947241
 21
532.064576
 31
0.0
  0
LINE
  5
10C
100
AcDbEntity
  8
DIMS
 62
     4
100
AcDbLine
 10
642.947241
 20
485.959226
 30
0.0
 11
642.947241
 21
490.759226
 31
0.0
  0
LINE
  5
10D
100
AcDbEntity
  8
DIMS
 62
     4
100
AcDbLine
 10
642.947241
 20
479.159226
 30
0.0
 11
642.947241
 21
474.359226
 31
0.0
  0
LINE
  5
10E
100
AcDbEntity
  8
DIMS
 62
     4
100
AcDbLine
 10
646.347241
 20
482.559226
 30
0.0
 11
651.147241
 21
482.559226
 31
0.0
  0
LINE
  5
10F
100
AcDbEntity
  8
DIMS
 62
     4
100
AcDbLine
 10
639.547241
 20
482.559226
 30
0.0
 11
634.747241
 21
482.559226
 31
0.0
  0
LINE
  5
110
100
AcDbEntity
  8
DIMS
 62
     4
100
AcDbLine
 10
642.947241
 20
480.859226
 30
0.0
 11
642.947241
 21
484.259226
 31
0.0
  0
LINE
  5
111
100
AcDbEntity
  8
DIMS
 62
     4
100
AcDbLine
 10
641.247241
 20
482.559226
 30
0.0
 11
644.647241
 21
482.559226
 31
0.0
  0
LINE
  5
112
100
AcDbEntity
  8
DIMS
 62
     4
100
AcDbLine
 10
467.947241
 20
485.959226
 30
0.0
 11
467.947241
 21
490.759226
 31
0.0
  0
LINE
  5
113
100
AcDbEntity
  8
DIMS
 62
     4
100
AcDbLine
 10
467.947241
 20
479.159226
 30
0.0
 11
467.947241
 21
474.359226
 31
0.0
  0
LINE
  5
114
100
AcDbEntity
  8
DIMS
 62
     4
100
AcDbLine
 10
471.347241
 20
482.559226
 30
0.0
 11
476.147241
 21
482.559226
 31
0.0
  0
LINE
  5
115
100
AcDbEntity
  8
DIMS
 62
     4
100
AcDbLine
 10
464.547241
 20
482.559226
 30
0.0
 11
459.747241
 21
482.559226
 31
0.0
  0
LINE
  5
116
100
AcDbEntity
  8
DIMS
 62
     4
100
AcDbLine
 10
467.947241
 20
480.859226
 30
0.0
 11
467.947241
 21
484.259226
 31
0.0
  0
LINE
  5
117
100
AcDbEntity
  8
DIMS
 62
     4
100
AcDbLine
 10
466.247241
 20
482.559226
 30
0.0
 11
469.647241
 21
482.559226
 31
0.0
  0
LINE
  5
118
100
AcDbEntity
  8
DIMS
 62
     4
100
AcDbLine
 10
467.947241
 20
385.959226
 30
0.0
 11
467.947241
 21
390.759226
 31
0.0
  0
LINE
  5
119
100
AcDbEntity
  8
DIMS
 62
     4
100
AcDbLine
 10
467.947241
 20
379.159226
 30
0.0
 11
467.947241
 21
374.359226
 31
0.0
  0
LINE
  5
11A
100
AcDbEntity
  8
DIMS
 62
     4
100
AcDbLine
 10
471.347241
 20
382.559226
 30
0.0
 11
476.147241
 21
382.559226
 31
0.0
  0
LINE
  5
11B
100
AcDbEntity
  8
DIMS
 62
     4
100
AcDbLine
 10
464.547241
 20
382.559226
 30
0.0
 11
459.747241
 21
382.559226
 31
0.0
  0
LINE
  5
11C
100
AcDbEntity
  8
DIMS
 62
     4
100
AcDbLine
 10
467.947241
 20
380.859226
 30
0.0
 11
467.947241
 21
384.259226
 31
0.0
  0
LINE
  5
11D
100
AcDbEntity
  8
DIMS
 62
     4
100
AcDbLine
 10
466.247241
 20
382.559226
 30
0.0
 11
469.647241
 21
382.559226
 31
0.0
  0
LINE
  5
11E
100
AcDbEntity
  8
DIMS
 62
     4
100
AcDbLine
 10
642.947241
 20
385.959226
 30
0.0
 11
642.947241
 21
390.759226
 31
0.0
  0
LINE
  5
11F
100
AcDbEntity
  8
DIMS
 62
     4
100
AcDbLine
 10
642.947241
 20
379.159226
 30
0.0
 11
642.947241
 21
374.359226
 31
0.0
  0
LINE
  5
120
100
AcDbEntity
  8
DIMS
 62
     4
100
AcDbLine
 10
646.347241
 20
382.559226
 30
0.0
 11
651.147241
 21
382.559226
 31
0.0
  0
LINE
  5
121
100
AcDbEntity
  8
DIMS
 62
     4
100
AcDbLine
 10
639.547241
 20
382.559226
 30
0.0
 11
634.747241
 21
382.559226
 31
0.0
  0
LINE
  5
122
100
AcDbEntity
  8
DIMS
 62
     4
100
AcDbLine
 10
642.947241
 20
380.859226
 30
0.0
 11
642.947241
 21
384.259226
 31
0.0
  0
LINE
  5
123
100
AcDbEntity
  8
DIMS
 62
     4
100
AcDbLine
 10
641.247241
 20
382.559226
 30
0.0
 11
644.647241
 21
382.559226
 31
0.0
  0
CIRCLE
  5
124
100
AcDbEntity
  8
M04
100
AcDbCircle
 10
642.947241
 20
382.559226
 30
0.0
 40
6.5
  0
CIRCLE
  5
125
100
AcDbEntity
  8
M04
100
AcDbCircle
 10
642.947241
 20
482.559226
 30
0.0
 40
6.5
  0
CIRCLE
  5
126
100
AcDbEntity
  8
M04
100
AcDbCircle
 10
467.947241
 20
382.559226
 30
0.0
 40
6.5
  0
CIRCLE
  5
127
100
AcDbEntity
  8
M04
100
AcDbCircle
 10
467.947241
 20
482.559226
 30
0.0
 40
6.5
  0
HATCH
  5
128
100
AcDbEntity
  8
DIMS
100
AcDbHatch
 10
0.0
 20
0.0
 30
0.0
210
0.0
220
0.0
230
1.0
  2
_U
 70
     0
 71
     1
 91
        5
 92
        7
 72
     0
 73
     1
 93
        9
 10
586.9472405752653
 20
231.0138856722444
 10
586.9472405752653
 20
227.0138856722445
 10
588.7472405752657
 20
227.0138856722445
 10
589.4472405752654
 20
227.7138856722445
 10
589.4472405752655
 20
232.3138856722444
 10
588.7472405752654
 20
233.0138856722447
 10
585.1472405752653
 20
233.0138856722447
 10
585.1472405752653
 20
231.0138856722445
 10
586.6972405752655
 20
231.0138856722445
 97
        9
330
3E7
330
16A
330
17E
330
16F
330
183
330
171
330
3EA
330
3E8
330
3EB
 92
        7
 72
     1
 73
     1
 93
       16
 10
574.7472405752652
 20
222.0138856722445
 42
0.0
 10
575.4472405752653
 20
222.7138856722445
 42
0.0
 10
575.4472405752653
 20
224.0138856722446
 42
0.0
 10
574.9472405752653
 20
224.0138856722445
 42
0.0
 10
574.9472405752653
 20
227.0138856722446
 42
0.0
 10
575.9472405752655
 20
227.0138856722446
 42
0.0
 10
575.9472405752655
 20
231.0138856722445
 42
0.0
 10
576.1972405752654
 20
231.0138856722445
 42
0.0
 10
577.7472405752652
 20
231.0138856722445
 42
0.0
 10
577.7472405752654
 20
233.0138856722447
 42
0.0
 10
565.4472405752652
 20
233.0138856722447
 42
0.0
 10
565.4472405752652
 20
242.0138856722445
 42
0.0
 10
564.4472405752652
 20
243.0138856722444
 42
0.0
 10
559.4472405752655
 20
243.0138856722445
 42
0.0
 10
558.4881145731612
 20
224.7126713253457
 42
-0.1092323044357263
 10
564.6123919651768
 20
222.0138856722444
 42
0.0
 97
       16
330
3EA
330
172
330
170
330
16F
330
17D
330
3C8
330
3F4
330
3F0
330
3F2
330
3D1
330
3D2
330
3E0
330
3DF
330
3E2
330
3DD
330
3DC
 92
        7
 72
     1
 73
     1
 93
       16
 10
552.4063665773692
 20
224.7126713253456
 42
0.0
 10
551.4472405752655
 20
243.0138856722445
 42
0.0
 10
546.4472405752653
 20
243.0138856722445
 42
0.0
 10
545.4472405752653
 20
242.0138856722445
 42
0.0
 10
545.4472405752653
 20
233.0138856722447
 42
0.0
 10
533.1472405752653
 20
233.0138856722447
 42
0.0
 10
533.1472405752654
 20
231.0138856722445
 42
0.0
 10
534.6972405752652
 20
231.0138856722445
 42
0.0
 10
534.9472405752652
 20
231.0138856722445
 42
0.0
 10
534.9472405752652
 20
227.0138856722446
 42
0.0
 10
535.9472405752653
 20
227.0138856722446
 42
0.0
 10
535.9472405752653
 20
224.0138856722443
 42
0.0
 10
535.4472405752654
 20
224.0138856722443
 42
0.0
 10
535.4472405752654
 20
222.7138856722443
 42
0.0
 10
536.1472405752652
 20
222.0138856722441
 42
0.0
 10
546.2820891853537
 20
222.0138856722442
 42
-0.1092323044357268
 97
       16
330
3F2
330
3F1
330
3F3
330
404
330
160
330
152
330
153
330
155
330
3DA
330
3DB
330
3D9
330
3E1
330
3DE
330
3E0
330
3CE
330
3D0
 92
        7
 72
     0
 73
     1
 93
        9
 10
523.9472405752653
 20
231.0138856722444
 10
524.1972405752651
 20
231.0138856722444
 10
525.7472405752653
 20
231.0138856722445
 10
525.7472405752653
 20
233.0138856722447
 10
522.1472405752653
 20
233.0138856722447
 10
521.4472405752651
 20
232.3138856722446
 10
521.4472405752651
 20
227.7138856722447
 10
522.147240575265
 20
227.0138856722446
 10
523.9472405752653
 20
227.0138856722446
 97
        9
330
404
330
3E5
330
3E6
330
3C6
330
3DA
330
154
330
166
330
152
330
161
 92
       24
 93
        4
 72
     1
 10
560.021321
 20
228.081373
 11
574.39275
 21
228.081373
 72
     1
 10
574.39275
 20
228.081373
 11
574.39275
 21
231.081373
 72
     1
 10
574.39275
 20
231.081373
 11
560.021321
 21
231.081373
 72
     1
 10
560.021321
 20
231.081373
 11
560.021321
 21
228.081373
 97
        1
330
3C1
 75
     0
 76
     0
 52
135.0
 41
2.5
 77
     0
 78
     1
 53
135.0
 43
0.0
 44
-14.472589
 45
-1.767766952966368
 46
-1.767766952966368
 79
     0
 47
0.085632
 98
        4
 10
587.944203
 20
231.37187
 10
570.296758
 20
225.377641
 10
547.509279
 20
226.576487
 10
523.26546
 20
231.37187
  0
HATCH
  5
129
100
AcDbEntity
  8
DIMS
100
AcDbHatch
 10
0.0
 20
0.0
 30
0.0
210
0.0
220
0.0
230
1.0
  2
_U
 70
     0
 71
     0
 91
       21
 92
        7
 72
     1
 73
     1
 93
       39
 10
551.4472405752654
 20
252.5138856722445
 42
0.0
 10
467.9472405752654
 20
252.5138856722445
 42
-0.4142135623730951
 10
463.9472405752654
 20
256.5138856722445
 42
0.0
 10
463.9472405752654
 20
280.0138856722446
 42
0.0
 10
448.9472405752654
 20
280.0138856722446
 42
0.0
 10
448.9472405752653
 20
276.0138856722447
 42
-1.0
 10
440.9472405752653
 20
276.0138856722448
 42
0.0
 10
440.9472405752654
 20
280.0138856722446
 42
0.0
 10
437.9472405752653
 20
280.0138856722446
 42
0.0
 10
435.9472405752653
 20
278.0138856722446
 42
0.0
 10
435.9472405752653
 20
235.0138856722446
 42
0.0
 10
437.9472405752653
 20
233.0138856722447
 42
0.0
 10
440.9472405752653
 20
233.0138856722446
 42
0.0
 10
440.9472405752653
 20
237.0138856722445
 42
-1.0
 10
448.9472405752653
 20
237.0138856722445
 42
0.0
 10
448.9472405752654
 20
233.0138856722446
 42
0.0
 10
453.9472405752654
 20
233.0138856722447
 42
0.0
 10
453.9472405752653
 20
233.3138856722446
 42
0.0
 10
454.6472405752653
 20
234.0138856722445
 42
0.0
 10
481.2472405752653
 20
234.0138856722446
 42
0.0
 10
481.9472405752653
 20
233.3138856722445
 42
0.0
 10
481.9472405752653
 20
233.0138856722447
 42
0.0
 10
526.4472405752655
 20
233.0138856722447
 42
0.0
 10
526.4472405752654
 20
240.3138856722446
 42
0.0
 10
526.4472405752654
 20
242.8138856722445
 42
0.0
 10
527.1472405752653
 20
242.8138856722445
 42
0.0
 10
527.1472405752653
 20
244.3138856722445
 42
0.0
 10
529.4472405752653
 20
245.6417912913806
 42
0.0
 10
531.7472405752653
 20
244.3138856722445
 42
0.0
 10
531.7472405752653
 20
242.8138856722445
 42
0.0
 10
532.4472405752653
 20
242.8138856722445
 42
0.0
 10
532.4472405752653
 20
240.3138856722447
 42
0.0
 10
532.4472405752653
 20
233.0138856722447
 42
0.0
 10
544.9472405752656
 20
233.0138856722447
 42
0.0
 10
545.4472405752653
 20
233.5138856722442
 42
0.0
 10
545.4472405752653
 20
242.0138856722445
 42
0.0
 10
545.4472405752656
 20
243.0138856722445
 42
0.0
 10
546.4472405752655
 20
243.0138856722445
 42
0.0
 10
551.4472405752654
 20
243.0138856722444
 42
0.0
 97
        0
 92
        7
 72
     0
 73
     1
 93
        8
 10
545.9472405752653
 20
275.0138856722447
 10
545.9472405752653
 20
276.0138856722448
 10
545.9472405752653
 20
280.0138856722446
 10
471.9472405752653
 20
280.0138856722446
 10
471.9472405752653
 20
260.5138856722445
 10
555.4472405752654
 20
260.5138856722445
 10
555.4472405752655
 20
275.0138856722447
 10
546.9472405752653
 20
275.0138856722447
 97
        0
 92
        7
 72
     0
 73
     1
 93
        8
 10
638.9472405752655
 20
260.5138856722445
 10
638.9472405752652
 20
280.0138856722446
 10
564.9472405752653
 20
280.0138856722446
 10
564.9472405752653
 20
276.0138856722448
 10
564.9472405752653
 20
275.0138856722447
 10
563.9472405752654
 20
275.0138856722447
 10
555.4472405752654
 20
275.0138856722447
 10
555.4472405752654
 20
260.5138856722445
 97
        0
 92
        7
 72
     1
 73
     1
 93
       39
 10
642.9472405752654
 20
252.5138856722445
 42
0.0
 10
559.4472405752653
 20
252.5138856722445
 42
0.0
 10
559.4472405752653
 20
243.0138856722444
 42
0.0
 10
564.4472405752652
 20
243.0138856722444
 42
0.0
 10
565.4472405752651
 20
243.0138856722444
 42
0.0
 10
565.4472405752652
 20
242.0138856722444
 42
0.0
 10
565.4472405752652
 20
233.5138856722443
 42
0.0
 10
565.9472405752651
 20
233.0138856722447
 42
0.0
 10
578.4472405752653
 20
233.0138856722447
 42
0.0
 10
578.4472405752653
 20
240.3138856722446
 42
0.0
 10
578.4472405752653
 20
242.8138856722445
 42
0.0
 10
579.1472405752654
 20
242.8138856722445
 42
0.0
 10
579.1472405752654
 20
244.3138856722445
 42
0.0
 10
581.4472405752654
 20
245.6417912913806
 42
0.0
 10
583.7472405752653
 20
244.3138856722445
 42
0.0
 10
583.7472405752653
 20
242.8138856722445
 42
0.0
 10
584.4472405752652
 20
242.8138856722445
 42
0.0
 10
584.4472405752653
 20
240.3138856722447
 42
0.0
 10
584.4472405752653
 20
233.0138856722447
 42
0.0
 10
628.9472405752654
 20
233.0138856722446
 42
0.0
 10
628.9472405752652
 20
233.3138856722446
 42
0.0
 10
629.6472405752654
 20
234.0138856722445
 42
0.0
 10
656.2472405752654
 20
234.0138856722446
 42
0.0
 10
656.9472405752653
 20
233.3138856722445
 42
0.0
 10
656.9472405752653
 20
233.0138856722445
 42
0.0
 10
661.9472405752653
 20
233.0138856722445
 42
0.0
 10
661.9472405752653
 20
237.0138856722445
 42
-1.0
 10
669.9472405752653
 20
237.0138856722445
 42
0.0
 10
669.9472405752653
 20
233.0138856722446
 42
0.0
 10
672.9472405752654
 20
233.0138856722445
 42
0.0
 10
674.9472405752653
 20
235.0138856722445
 42
0.0
 10
674.9472405752653
 20
278.0138856722446
 42
0.0
 10
672.9472405752654
 20
280.0138856722446
 42
0.0
 10
669.9472405752654
 20
280.0138856722446
 42
0.0
 10
669.9472405752653
 20
276.0138856722446
 42
-1.0
 10
661.9472405752653
 20
276.0138856722448
 42
0.0
 10
661.9472405752654
 20
280.0138856722446
 42
0.0
 10
646.9472405752654
 20
280.0138856722446
 42
0.0
 10
646.9472405752654
 20
256.5138856722445
 42
-0.4142135623730951
 97
        0
 92
       22
 72
     0
 73
     1
 93
        4
 10
628.9472405752654
 20
233.0138856722446
 10
628.9472405752653
 20
233.3138856722446
 10
634.7883585878084
 20
233.3138856722446
 10
635.0883585878083
 20
233.0138856722446
 97
        0
 92
       22
 72
     0
 73
     1
 93
        4
 10
628.9472405752653
 20
233.3138856722446
 10
629.6472405752655
 20
234.0138856722446
 10
634.0883585878081
 20
234.0138856722446
 10
634.7883585878081
 20
233.3138856722446
 97
        0
 92
       23
 72
     0
 73
     1
 93
        4
 10
634.7883585878082
 20
233.3138856722446
 10
642.9472405752654
 20
233.3138856722446
 10
642.9472405752654
 20
234.0138856722445
 10
634.0883585878083
 20
234.0138856722445
 97
        0
 92
       23
 72
     0
 73
     1
 93
        4
 10
635.0883585878083
 20
233.0138856722446
 10
642.9472405752655
 20
233.0138856722446
 10
642.9472405752655
 20
233.3138856722445
 10
634.7883585878082
 20
233.3138856722445
 97
        0
 92
       23
 72
     0
 73
     1
 93
        4
 10
642.9472405752655
 20
233.3138856722446
 10
651.1061225627225
 20
233.3138856722446
 10
651.8061225627225
 20
234.0138856722446
 10
642.9472405752654
 20
234.0138856722446
 97
        0
 92
       23
 72
     0
 73
     1
 93
        4
 10
642.9472405752655
 20
233.0138856722447
 10
650.8061225627224
 20
233.0138856722447
 10
651.1061225627225
 20
233.3138856722445
 10
642.9472405752654
 20
233.3138856722445
 97
        0
 92
       23
 72
     0
 73
     1
 93
        4
 10
651.1061225627225
 20
233.3138856722445
 10
656.9472405752654
 20
233.3138856722447
 10
656.2472405752654
 20
234.0138856722446
 10
651.8061225627225
 20
234.0138856722446
 97
        0
 92
       23
 72
     0
 73
     1
 93
        4
 10
650.8061225627226
 20
233.0138856722446
 10
656.9472405752654
 20
233.0138856722446
 10
656.9472405752653
 20
233.3138856722446
 10
651.1061225627225
 20
233.3138856722446
 97
        0
 92
        7
 72
     0
 73
     1
 93
        4
 10
453.9472405752653
 20
233.0138856722446
 10
453.9472405752653
 20
233.3138856722446
 10
459.7883585878084
 20
233.3138856722446
 10
460.0883585878082
 20
233.0138856722446
 97
        0
 92
       22
 72
     0
 73
     1
 93
        4
 10
453.9472405752653
 20
233.3138856722445
 10
454.6472405752653
 20
234.0138856722446
 10
459.0883585878081
 20
234.0138856722445
 10
459.7883585878082
 20
233.3138856722446
 97
        0
 92
       23
 72
     0
 73
     1
 93
        4
 10
459.7883585878082
 20
233.3138856722446
 10
467.9472405752654
 20
233.3138856722446
 10
467.9472405752654
 20
234.0138856722445
 10
459.0883585878081
 20
234.0138856722446
 97
        0
 92
        7
 72
     0
 73
     1
 93
        4
 10
460.0883585878079
 20
233.0138856722446
 10
467.9472405752653
 20
233.0138856722446
 10
467.9472405752653
 20
233.3138856722446
 10
459.7883585878083
 20
233.3138856722447
 97
        0
 92
       23
 72
     0
 73
     1
 93
        4
 10
467.9472405752654
 20
233.0138856722446
 10
475.8061225627224
 20
233.0138856722447
 10
476.1061225627225
 20
233.3138856722445
 10
467.9472405752654
 20
233.3138856722445
 97
        0
 92
       23
 72
     0
 73
     1
 93
        4
 10
467.9472405752653
 20
233.3138856722446
 10
476.1061225627225
 20
233.3138856722446
 10
476.8061225627225
 20
234.0138856722446
 10
467.9472405752654
 20
234.0138856722446
 97
        0
 92
       22
 72
     0
 73
     1
 93
        4
 10
481.9472405752657
 20
233.3138856722445
 10
476.1061225627225
 20
233.3138856722445
 10
476.8061225627225
 20
234.0138856722445
 10
481.2472405752652
 20
234.0138856722445
 97
        0
 92
       23
 72
     0
 73
     1
 93
        4
 10
475.8061225627226
 20
233.0138856722447
 10
481.9472405752653
 20
233.0138856722447
 10
481.9472405752653
 20
233.3138856722445
 10
476.1061225627224
 20
233.3138856722445
 97
        0
 92
       24
 93
        4
 72
     1
 10
653.19841
 20
251.141172
 11
667.826982
 21
251.141172
 72
     1
 10
667.826982
 20
251.141172
 11
667.826982
 21
254.141172
 72
     1
 10
667.826982
 20
254.141172
 11
653.19841
 21
254.141172
 72
     1
 10
653.19841
 20
254.141172
 11
653.19841
 21
251.141172
 97
        0
 75
     0
 76
     0
 52
45.0
 41
6.0
 77
     0
 78
     1
 53
45.0
 43
0.0
 44
-14.472589
 45
-4.242640687119284
 46
4.242640687119285
 79
     0
 47
0.027694
 98
       20
 10
488.868983
 20
262.123915
 10
538.65512
 20
270.199912
 10
574.90292
 20
266.707589
 10
616.391366
 20
260.377754
 10
600.482328
 20
233.145088
 10
600.592234
 20
233.621166
 10
603.266693
 20
233.5113
 10
603.596421
 20
233.108467
 10
611.766339
 20
233.657786
 10
611.656429
 20
233.108467
 10
620.11944
 20
233.547923
 10
619.643164
 20
233.071845
 10
488.611252
 20
233.093073
 10
488.832894
 20
233.563866
 10
493.847524
 20
233.646946
 10
493.76441
 20
233.203847
 10
501.660375
 20
233.093073
 10
501.798899
 20
233.591559
 10
510.165853
 20
233.702333
 10
509.528635
 20
233.176153
  0
LINE
  5
12A
100
AcDbEntity
  8
DIMS
 62
     4
100
AcDbLine
 10
441.547241
 20
237.013886
 30
0.0
 11
439.247241
 21
237.013886
 31
0.0
  0
LINE
  5
12B
100
AcDbEntity
  8
DIMS
 62
     4
100
AcDbLine
 10
448.347241
 20
237.013886
 30
0.0
 11
450.647241
 21
237.013886
 31
0.0
  0
LINE
  5
12C
100
AcDbEntity
  8
DIMS
 62
     4
100
AcDbLine
 10
444.947241
 20
240.413886
 30
0.0
 11
444.947241
 21
242.713886
 31
0.0
  0
LINE
  5
12D
100
AcDbEntity
  8
DIMS
 62
     4
100
AcDbLine
 10
444.947241
 20
233.613886
 30
0.0
 11
444.947241
 21
231.313886
 31
0.0
  0
LINE
  5
12E
100
AcDbEntity
  8
DIMS
 62
     4
100
AcDbLine
 10
446.647241
 20
237.013886
 30
0.0
 11
443.247241
 21
237.013886
 31
0.0
  0
LINE
  5
12F
100
AcDbEntity
  8
DIMS
 62
     4
100
AcDbLine
 10
444.947241
 20
235.313886
 30
0.0
 11
444.947241
 21
238.713886
 31
0.0
  0
LINE
  5
130
100
AcDbEntity
  8
M01
100
AcDbLine
 10
448.947241
 20
237.013886
 30
0.0
 11
448.947241
 21
233.013886
 31
0.0
  0
LINE
  5
131
100
AcDbEntity
  8
M01
100
AcDbLine
 10
440.947241
 20
237.013886
 30
0.0
 11
440.947241
 21
233.013886
 31
0.0
  0
CIRCLE
  5
132
102
{ACAD_REACTORS
330
BA
102
}
100
AcDbEntity
  8
M01
100
AcDbCircle
 10
444.947241
 20
237.013886
 30
0.0
 40
4.0
  0
LINE
  5
133
100
AcDbEntity
  8
DIMS
 62
     4
100
AcDbLine
 10
441.547241
 20
276.013886
 30
0.0
 11
439.247241
 21
276.013886
 31
0.0
  0
LINE
  5
134
100
AcDbEntity
  8
DIMS
 62
     4
100
AcDbLine
 10
448.347241
 20
276.013886
 30
0.0
 11
450.647241
 21
276.013886
 31
0.0
  0
LINE
  5
135
100
AcDbEntity
  8
DIMS
 62
     4
100
AcDbLine
 10
444.947241
 20
272.613886
 30
0.0
 11
444.947241
 21
270.313886
 31
0.0
  0
LINE
  5
136
100
AcDbEntity
  8
DIMS
 62
     4
100
AcDbLine
 10
444.947241
 20
279.413886
 30
0.0
 11
444.947241
 21
281.713886
 31
0.0
  0
LINE
  5
137
100
AcDbEntity
  8
DIMS
 62
     4
100
AcDbLine
 10
446.647241
 20
276.013886
 30
0.0
 11
443.247241
 21
276.013886
 31
0.0
  0
LINE
  5
138
100
AcDbEntity
  8
DIMS
 62
     4
100
AcDbLine
 10
444.947241
 20
277.713886
 30
0.0
 11
444.947241
 21
274.313886
 31
0.0
  0
LINE
  5
139
100
AcDbEntity
  8
M01
100
AcDbLine
 10
448.947241
 20
276.013886
 30
0.0
 11
448.947241
 21
280.013886
 31
0.0
  0
LINE
  5
13A
100
AcDbEntity
  8
M01
100
AcDbLine
 10
440.947241
 20
276.013886
 30
0.0
 11
440.947241
 21
280.013886
 31
0.0
  0
CIRCLE
  5
13B
102
{ACAD_REACTORS
330
BA
102
}
100
AcDbEntity
  8
M01
100
AcDbCircle
 10
444.947241
 20
276.013886
 30
0.0
 40
4.0
  0
LINE
  5
13C
100
AcDbEntity
  8
DIMS
 62
     4
100
AcDbLine
 10
669.347241
 20
237.013886
 30
0.0
 11
671.647241
 21
237.013886
 31
0.0
  0
LINE
  5
13D
100
AcDbEntity
  8
DIMS
 62
     4
100
AcDbLine
 10
662.547241
 20
237.013886
 30
0.0
 11
660.247241
 21
237.013886
 31
0.0
  0
LINE
  5
13E
100
AcDbEntity
  8
DIMS
 62
     4
100
AcDbLine
 10
665.947241
 20
240.413886
 30
0.0
 11
665.947241
 21
242.713886
 31
0.0
  0
LINE
  5
13F
100
AcDbEntity
  8
DIMS
 62
     4
100
AcDbLine
 10
665.947241
 20
233.613886
 30
0.0
 11
665.947241
 21
231.313886
 31
0.0
  0
LINE
  5
140
100
AcDbEntity
  8
DIMS
 62
     4
100
AcDbLine
 10
664.247241
 20
237.013886
 30
0.0
 11
667.647241
 21
237.013886
 31
0.0
  0
LINE
  5
141
100
AcDbEntity
  8
DIMS
 62
     4
100
AcDbLine
 10
665.947241
 20
235.313886
 30
0.0
 11
665.947241
 21
238.713886
 31
0.0
  0
LINE
  5
142
100
AcDbEntity
  8
M01
100
AcDbLine
 10
661.947241
 20
237.013886
 30
0.0
 11
661.947241
 21
233.013886
 31
0.0
  0
LINE
  5
143
100
AcDbEntity
  8
M01
100
AcDbLine
 10
669.947241
 20
237.013886
 30
0.0
 11
669.947241
 21
233.013886
 31
0.0
  0
CIRCLE
  5
144
100
AcDbEntity
  8
M01
100
AcDbCircle
 10
665.947241
 20
237.013886
 30
0.0
 40
4.0
  0
LINE
  5
145
100
AcDbEntity
  8
DIMS
 62
     4
100
AcDbLine
 10
669.347241
 20
276.013886
 30
0.0
 11
671.647241
 21
276.013886
 31
0.0
  0
LINE
  5
146
100
AcDbEntity
  8
DIMS
 62
     4
100
AcDbLine
 10
662.547241
 20
276.013886
 30
0.0
 11
660.247241
 21
276.013886
 31
0.0
  0
LINE
  5
147
100
AcDbEntity
  8
DIMS
 62
     4
100
AcDbLine
 10
665.947241
 20
272.613886
 30
0.0
 11
665.947241
 21
270.313886
 31
0.0
  0
LINE
  5
148
100
AcDbEntity
  8
DIMS
 62
     4
100
AcDbLine
 10
665.947241
 20
279.413886
 30
0.0
 11
665.947241
 21
281.713886
 31
0.0
  0
LINE
  5
149
100
AcDbEntity
  8
DIMS
 62
     4
100
AcDbLine
 10
664.247241
 20
276.013886
 30
0.0
 11
667.647241
 21
276.013886
 31
0.0
  0
LINE
  5
14A
100
AcDbEntity
  8
DIMS
 62
     4
100
AcDbLine
 10
665.947241
 20
277.713886
 30
0.0
 11
665.947241
 21
274.313886
 31
0.0
  0
LINE
  5
14B
100
AcDbEntity
  8
M01
100
AcDbLine
 10
661.947241
 20
276.013886
 30
0.0
 11
661.947241
 21
280.013886
 31
0.0
  0
LINE
  5
14C
100
AcDbEntity
  8
M01
100
AcDbLine
 10
669.947241
 20
276.013886
 30
0.0
 11
669.947241
 21
280.013886
 31
0.0
  0
CIRCLE
  5
14D
100
AcDbEntity
  8
M01
100
AcDbCircle
 10
665.947241
 20
276.013886
 30
0.0
 40
4.0
  0
LINE
  5
14E
100
AcDbEntity
  8
M04
100
AcDbLine
 10
532.447241
 20
240.313886
 30
0.0
 11
532.447241
 21
242.813886
 31
0.0
  0
LINE
  5
14F
100
AcDbEntity
  8
M04
100
AcDbLine
 10
531.747241
 20
241.013886
 30
0.0
 11
531.747241
 21
244.313886
 31
0.0
  0
LINE
  5
150
100
AcDbEntity
  8
M04
100
AcDbLine
 10
526.447241
 20
240.313886
 30
0.0
 11
526.447241
 21
242.813886
 31
0.0
  0
LINE
  5
151
100
AcDbEntity
  8
M04
100
AcDbLine
 10
527.147241
 20
241.013886
 30
0.0
 11
527.147241
 21
244.313886
 31
0.0
  0
LINE
  5
152
102
{ACAD_REACTORS
330
128
102
}
100
AcDbEntity
  8
M05
100
AcDbLine
 10
524.197241
 20
231.013886
 30
0.0
 11
534.697241
 21
231.013886
 31
0.0
  0
LINE
  5
153
102
{ACAD_REACTORS
330
128
102
}
100
AcDbEntity
  8
M04
100
AcDbLine
 10
534.697241
 20
231.013886
 30
0.0
 11
534.947241
 21
231.013886
 31
0.0
  0
LINE
  5
154
102
{ACAD_REACTORS
330
128
102
}
100
AcDbEntity
  8
M04
100
AcDbLine
 10
523.947241
 20
231.013886
 30
0.0
 11
523.947241
 21
227.013886
 31
0.0
  0
LINE
  5
155
102
{ACAD_REACTORS
330
128
102
}
100
AcDbEntity
  8
M04
100
AcDbLine
 10
534.947241
 20
231.013886
 30
0.0
 11
534.947241
 21
227.013886
 31
0.0
  0
LINE
  5
156
100
AcDbEntity
  8
M05
100
AcDbLine
 10
532.447241
 20
232.013886
 30
0.0
 11
526.447241
 21
232.013886
 31
0.0
  0
LINE
  5
157
100
AcDbEntity
  8
M04
100
AcDbLine
 10
527.147241
 20
244.313886
 30
0.0
 11
529.447241
 21
245.641791
 31
0.0
  0
LINE
  5
158
100
AcDbEntity
  8
M04
100
AcDbLine
 10
531.747241
 20
244.313886
 30
0.0
 11
529.447241
 21
245.641791
 31
0.0
  0
LINE
  5
159
100
AcDbEntity
  8
M04
100
AcDbLine
 10
531.747241
 20
244.313886
 30
0.0
 11
527.147241
 21
244.313886
 31
0.0
  0
LINE
  5
15A
100
AcDbEntity
  8
M04
100
AcDbLine
 10
532.447241
 20
242.813886
 30
0.0
 11
526.447241
 21
242.813886
 31
0.0
  0
ARC
  5
15B
100
AcDbEntity
  8
M05
100
AcDbCircle
 10
529.447241
 20
233.540022
 30
0.0
 40
5.826136
100
AcDbArc
 50
205.69541
 51
334.30459
  0
LINE
  5
15C
100
AcDbEntity
  8
M05
100
AcDbLine
 10
526.447241
 20
240.313886
 30
0.0
 11
527.147241
 21
241.013886
 31
0.0
  0
LINE
  5
15D
100
AcDbEntity
  8
M05
100
AcDbLine
 10
532.447241
 20
240.313886
 30
0.0
 11
531.747241
 21
241.013886
 31
0.0
  0
LINE
  5
15E
100
AcDbEntity
  8
M05
100
AcDbLine
 10
532.447241
 20
240.313886
 30
0.0
 11
526.447241
 21
240.313886
 31
0.0
  0
LINE
  5
15F
100
AcDbEntity
  8
M05
100
AcDbLine
 10
531.747241
 20
241.013886
 30
0.0
 11
527.147241
 21
241.013886
 31
0.0
  0
LINE
  5
160
102
{ACAD_REACTORS
330
128
102
}
100
AcDbEntity
  8
M04
100
AcDbLine
 10
533.147241
 20
233.013886
 30
0.0
 11
533.147241
 21
231.013886
 31
0.0
  0
LINE
  5
161
102
{ACAD_REACTORS
330
128
102
}
100
AcDbEntity
  8
M04
100
AcDbLine
 10
525.747241
 20
233.013886
 30
0.0
 11
525.747241
 21
231.013886
 31
0.0
  0
LINE
  5
162
100
AcDbEntity
  8
M05
100
AcDbLine
 10
527.147241
 20
241.013886
 30
0.0
 11
527.147241
 21
232.013886
 31
0.0
  0
LINE
  5
163
100
AcDbEntity
  8
M05
100
AcDbLine
 10
531.747241
 20
241.013886
 30
0.0
 11
531.747241
 21
232.013886
 31
0.0
  0
LINE
  5
164
100
AcDbEntity
  8
M05
100
AcDbLine
 10
532.447241
 20
240.313886
 30
0.0
 11
532.447241
 21
231.013886
 31
0.0
  0
LINE
  5
165
100
AcDbEntity
  8
M05
100
AcDbLine
 10
526.447241
 20
240.313886
 30
0.0
 11
526.447241
 21
231.013886
 31
0.0
  0
LINE
  5
166
102
{ACAD_REACTORS
330
128
102
}
100
AcDbEntity
  8
M04
100
AcDbLine
 10
523.947241
 20
231.013886
 30
0.0
 11
524.197241
 21
231.013886
 31
0.0
  0
LINE
  5
167
100
AcDbEntity
  8
CENTRE
100
AcDbLine
 10
529.447241
 20
248.280386
 30
0.0
 11
529.447241
 21
223.367697
 31
0.0
  0
LINE
  5
16A
102
{ACAD_REACTORS
330
128
102
}
100
AcDbEntity
  8
M01
100
AcDbLine
 10
584.447241
 20
233.013886
 30
0.0
 11
672.947241
 21
233.013886
 31
0.0
  0
LINE
  5
16B
100
AcDbEntity
  8
M04
100
AcDbLine
 10
578.447241
 20
240.313886
 30
0.0
 11
578.447241
 21
242.813886
 31
0.0
  0
LINE
  5
16C
100
AcDbEntity
  8
M04
100
AcDbLine
 10
579.147241
 20
241.013886
 30
0.0
 11
579.147241
 21
244.313886
 31
0.0
  0
LINE
  5
16D
100
AcDbEntity
  8
M04
100
AcDbLine
 10
584.447241
 20
240.313886
 30
0.0
 11
584.447241
 21
242.813886
 31
0.0
  0
LINE
  5
16E
100
AcDbEntity
  8
M04
100
AcDbLine
 10
583.747241
 20
241.013886
 30
0.0
 11
583.747241
 21
244.313886
 31
0.0
  0
LINE
  5
16F
102
{ACAD_REACTORS
330
128
102
}
100
AcDbEntity
  8
M05
100
AcDbLine
 10
586.697241
 20
231.013886
 30
0.0
 11
576.197241
 21
231.013886
 31
0.0
  0
LINE
  5
170
102
{ACAD_REACTORS
330
128
102
}
100
AcDbEntity
  8
M04
100
AcDbLine
 10
576.197241
 20
231.013886
 30
0.0
 11
575.947241
 21
231.013886
 31
0.0
  0
LINE
  5
171
102
{ACAD_REACTORS
330
128
102
}
100
AcDbEntity
  8
M04
100
AcDbLine
 10
586.947241
 20
231.013886
 30
0.0
 11
586.947241
 21
227.013886
 31
0.0
  0
LINE
  5
172
102
{ACAD_REACTORS
330
128
102
}
100
AcDbEntity
  8
M04
100
AcDbLine
 10
575.947241
 20
231.013886
 30
0.0
 11
575.947241
 21
227.013886
 31
0.0
  0
LINE
  5
173
100
AcDbEntity
  8
M05
100
AcDbLine
 10
578.447241
 20
232.013886
 30
0.0
 11
584.447241
 21
232.013886
 31
0.0
  0
LINE
  5
174
100
AcDbEntity
  8
M04
100
AcDbLine
 10
583.747241
 20
244.313886
 30
0.0
 11
581.447241
 21
245.641791
 31
0.0
  0
LINE
  5
175
100
AcDbEntity
  8
M04
100
AcDbLine
 10
579.147241
 20
244.313886
 30
0.0
 11
581.447241
 21
245.641791
 31
0.0
  0
LINE
  5
176
100
AcDbEntity
  8
M04
100
AcDbLine
 10
579.147241
 20
244.313886
 30
0.0
 11
583.747241
 21
244.313886
 31
0.0
  0
LINE
  5
177
100
AcDbEntity
  8
M04
100
AcDbLine
 10
578.447241
 20
242.813886
 30
0.0
 11
584.447241
 21
242.813886
 31
0.0
  0
ARC
  5
178
100
AcDbEntity
  8
M05
100
AcDbCircle
 10
581.447241
 20
233.540022
 30
0.0
 40
5.826136
100
AcDbArc
 50
205.69541
 51
334.30459
  0
LINE
  5
179
100
AcDbEntity
  8
M05
100
AcDbLine
 10
584.447241
 20
240.313886
 30
0.0
 11
583.747241
 21
241.013886
 31
0.0
  0
LINE
  5
17A
100
AcDbEntity
  8
M05
100
AcDbLine
 10
578.447241
 20
240.313886
 30
0.0
 11
579.147241
 21
241.013886
 31
0.0
  0
LINE
  5
17B
100
AcDbEntity
  8
M05
100
AcDbLine
 10
578.447241
 20
240.313886
 30
0.0
 11
584.447241
 21
240.313886
 31
0.0
  0
LINE
  5
17C
100
AcDbEntity
  8
M05
100
AcDbLine
 10
579.147241
 20
241.013886
 30
0.0
 11
583.747241
 21
241.013886
 31
0.0
  0
LINE
  5
17D
102
{ACAD_REACTORS
330
128
102
}
100
AcDbEntity
  8
M04
100
AcDbLine
 10
577.747241
 20
233.013886
 30
0.0
 11
577.747241
 21
231.013886
 31
0.0
  0
LINE
  5
17E
102
{ACAD_REACTORS
330
128
102
}
100
AcDbEntity
  8
M04
100
AcDbLine
 10
585.147241
 20
233.013886
 30
0.0
 11
585.147241
 21
231.013886
 31
0.0
  0
LINE
  5
17F
100
AcDbEntity
  8
M05
100
AcDbLine
 10
583.747241
 20
241.013886
 30
0.0
 11
583.747241
 21
232.013886
 31
0.0
  0
LINE
  5
180
100
AcDbEntity
  8
M05
100
AcDbLine
 10
579.147241
 20
241.013886
 30
0.0
 11
579.147241
 21
232.013886
 31
0.0
  0
LINE
  5
181
100
AcDbEntity
  8
M05
100
AcDbLine
 10
578.447241
 20
240.313886
 30
0.0
 11
578.447241
 21
231.013886
 31
0.0
  0
LINE
  5
182
100
AcDbEntity
  8
M05
100
AcDbLine
 10
584.447241
 20
240.313886
 30
0.0
 11
584.447241
 21
231.013886
 31
0.0
  0
LINE
  5
183
102
{ACAD_REACTORS
330
128
102
}
100
AcDbEntity
  8
M04
100
AcDbLine
 10
586.947241
 20
231.013886
 30
0.0
 11
586.697241
 21
231.013886
 31
0.0
  0
LINE
  5
184
100
AcDbEntity
  8
CENTRE
100
AcDbLine
 10
581.447241
 20
248.280386
 30
0.0
 11
581.447241
 21
223.367697
 31
0.0
  0
LINE
  5
185
100
AcDbEntity
  8
DIMS
 62
     4
100
AcDbLine
 10
821.860108
 20
435.959226
 30
0.0
 11
821.860108
 21
438.259226
 31
0.0
  0
LINE
  5
186
100
AcDbEntity
  8
DIMS
 62
     4
100
AcDbLine
 10
821.860108
 20
429.159226
 30
0.0
 11
821.860108
 21
426.859226
 31
0.0
  0
LINE
  5
187
100
AcDbEntity
  8
DIMS
 62
     4
100
AcDbLine
 10
821.860108
 20
430.859226
 30
0.0
 11
821.860108
 21
434.259226
 31
0.0
  0
LINE
  5
188
100
AcDbEntity
  8
DIMS
 62
     4
100
AcDbLine
 10
841.360108
 20
412.959226
 30
0.0
 11
841.360108
 21
415.259226
 31
0.0
  0
LINE
  5
189
100
AcDbEntity
  8
DIMS
 62
     4
100
AcDbLine
 10
841.360108
 20
406.159226
 30
0.0
 11
841.360108
 21
403.859226
 31
0.0
  0
LINE
  5
18A
100
AcDbEntity
  8
DIMS
 62
     4
100
AcDbLine
 10
844.760108
 20
409.559226
 30
0.0
 11
847.060108
 21
409.559226
 31
0.0
  0
LINE
  5
18B
100
AcDbEntity
  8
DIMS
 62
     4
100
AcDbLine
 10
837.960108
 20
409.559226
 30
0.0
 11
835.660108
 21
409.559226
 31
0.0
  0
LINE
  5
18C
100
AcDbEntity
  8
DIMS
 62
     4
100
AcDbLine
 10
841.360108
 20
407.859226
 30
0.0
 11
841.360108
 21
411.259226
 31
0.0
  0
LINE
  5
18D
100
AcDbEntity
  8
DIMS
 62
     4
100
AcDbLine
 10
839.660108
 20
409.559226
 30
0.0
 11
843.060108
 21
409.559226
 31
0.0
  0
LINE
  5
18E
100
AcDbEntity
  8
DIMS
 62
     4
100
AcDbLine
 10
802.360108
 20
412.959226
 30
0.0
 11
802.360108
 21
415.259226
 31
0.0
  0
LINE
  5
18F
100
AcDbEntity
  8
DIMS
 62
     4
100
AcDbLine
 10
802.360108
 20
406.159226
 30
0.0
 11
802.360108
 21
403.859226
 31
0.0
  0
LINE
  5
190
100
AcDbEntity
  8
DIMS
 62
     4
100
AcDbLine
 10
805.760108
 20
409.559226
 30
0.0
 11
808.060108
 21
409.559226
 31
0.0
  0
LINE
  5
191
100
AcDbEntity
  8
DIMS
 62
     4
100
AcDbLine
 10
798.960108
 20
409.559226
 30
0.0
 11
796.660108
 21
409.559226
 31
0.0
  0
LINE
  5
192
100
AcDbEntity
  8
DIMS
 62
     4
100
AcDbLine
 10
802.360108
 20
407.859226
 30
0.0
 11
802.360108
 21
411.259226
 31
0.0
  0
LINE
  5
193
100
AcDbEntity
  8
DIMS
 62
     4
100
AcDbLine
 10
800.660108
 20
409.559226
 30
0.0
 11
804.060108
 21
409.559226
 31
0.0
  0
HATCH
  5
194
100
AcDbEntity
  8
HATCH
100
AcDbHatch
 10
0.0
 20
0.0
 30
0.0
210
0.0
220
0.0
230
1.0
  2
_U
 70
     0
 71
     0
 91
        3
 92
        7
 72
     1
 73
     1
 93
       29
 10
845.3601080691216
 20
506.559226081063
 42
0.0
 10
843.3601080691218
 20
508.5592260810631
 42
0.0
 10
804.3601080691217
 20
508.5592260810631
 42
0.0
 10
804.3601080691217
 20
496.559226081063
 42
0.0
 10
798.3601080691219
 20
496.559226081063
 42
0.0
 10
798.3601080691219
 20
442.059226081063
 42
0.0
 10
802.3601080691218
 20
442.059226081063
 42
0.0
 10
803.3601080691218
 20
442.059226081063
 42
0.0
 10
803.3601080691218
 20
441.059226081063
 42
0.0
 10
803.3601080691219
 20
432.5592260810631
 42
0.0
 10
817.8601080691217
 20
432.5592260810631
 42
-0.4142135623730951
 10
821.8601080691216
 20
436.5592260810631
 42
0.0
 10
835.3601080691218
 20
436.559226081063
 42
0.0
 10
835.3601080691218
 20
441.559226081063
 42
0.0
 10
835.3601080691218
 20
442.5592260810629
 42
0.0
 10
836.3601080691218
 20
442.5592260810629
 42
0.0
 10
844.8601080691217
 20
442.5592260810629
 42
0.0
 10
845.3601080691218
 20
443.059226081063
 42
0.0
 10
845.3601080691216
 20
455.5592260810632
 42
0.0
 10
838.0601080691215
 20
455.5592260810632
 42
0.0
 10
835.5601080691217
 20
455.5592260810631
 42
0.0
 10
835.5601080691217
 20
456.2592260810633
 42
0.0
 10
834.0601080691216
 20
456.2592260810632
 42
0.0
 10
832.7322024499856
 20
458.559226081063
 42
0.0
 10
834.0601080691216
 20
460.8592260810632
 42
0.0
 10
835.5601080691217
 20
460.8592260810633
 42
0.0
 10
835.5601080691219
 20
461.5592260810633
 42
0.0
 10
838.0601080691215
 20
461.5592260810632
 42
0.0
 10
845.3601080691216
 20
461.5592260810632
 42
0.0
 97
        0
 92
        7
 72
     1
 73
     1
 93
       27
 10
845.3601080691218
 20
405.5592260810631
 42
0.0
 10
841.3601080691217
 20
405.5592260810631
 42
-0.4142135623730951
 10
837.3601080691216
 20
409.5592260810631
 42
-0.4142135623730951
 10
841.3601080691217
 20
413.559226081063
 42
0.0
 10
845.3601080691216
 20
413.559226081063
 42
0.0
 10
845.3601080691218
 20
422.0592260810632
 42
0.0
 10
844.8601080691219
 20
422.5592260810631
 42
0.0
 10
836.3601080691218
 20
422.5592260810631
 42
0.0
 10
835.3601080691218
 20
422.5592260810633
 42
0.0
 10
835.3601080691218
 20
423.5592260810632
 42
0.0
 10
835.3601080691218
 20
428.5592260810631
 42
0.0
 10
821.8601080691216
 20
428.5592260810631
 42
-0.4142135623730951
 10
817.8601080691217
 20
432.5592260810631
 42
0.0
 10
803.3601080691216
 20
432.5592260810632
 42
0.0
 10
803.3601080691218
 20
424.0592260810632
 42
0.0
 10
803.3601080691218
 20
423.0592260810631
 42
0.0
 10
802.3601080691218
 20
423.0592260810631
 42
0.0
 10
798.3601080691219
 20
423.0592260810631
 42
0.0
 10
798.3601080691219
 20
413.5592260810632
 42
0.0
 10
802.3601080691218
 20
413.559226081063
 42
-0.4142135623730868
 10
806.3601080691217
 20
409.5592260810631
 42
-0.4142135623730951
 10
802.3601080691216
 20
405.5592260810631
 42
0.0
 10
798.3601080691218
 20
405.5592260810631
 42
0.0
 10
798.3601080691218
 20
402.5592260810633
 42
0.0
 10
800.3601080691218
 20
400.5592260810631
 42
0.0
 10
843.3601080691218
 20
400.559226081063
 42
0.0
 10
845.3601080691218
 20
402.5592260810632
 42
0.0
 97
        0
 92
       24
 93
        4
 72
     1
 10
813.438602
 20
415.402793
 11
827.552887
 21
415.402793
 72
     1
 10
827.552887
 20
415.402793
 11
827.552887
 21
418.402793
 72
     1
 10
827.552887
 20
418.402793
 11
813.438602
 21
418.402793
 72
     1
 10
813.438602
 20
418.402793
 11
813.438602
 21
415.402793
 97
        0
 75
     0
 76
     0
 52
45.0
 41
6.0
 77
     0
 78
     1
 53
45.0
 43
23.770001
 44
0.0
 45
-4.242640687119284
 46
4.242640687119285
 79
     0
 47
0.350126
 98
        2
 10
826.577636
 20
475.451457
 10
820.9733
 20
405.426186
  0
HATCH
  5
195
100
AcDbEntity
  8
HATCH
100
AcDbHatch
 10
0.0
 20
0.0
 30
0.0
210
0.0
220
0.0
230
1.0
  2
_U
 70
     0
 71
     1
 91
        2
 92
        7
 72
     1
 73
     1
 93
        2
 10
806.3601080691217
 20
409.5592260810631
 42
1.0
 10
798.3601080691216
 20
409.5592260810631
 42
1.0
 97
        1
330
19B
 92
        7
 72
     1
 73
     1
 93
        2
 10
837.3601080691216
 20
409.5592260810631
 42
1.0
 10
845.3601080691216
 20
409.5592260810631
 42
1.0
 97
        1
330
19A
 75
     0
 76
     0
 52
45.0
 41
0.8
 77
     0
 78
     1
 53
45.0
 43
23.770001
 44
0.0
 45
-0.565685424949238
 46
0.565685424949238
 79
     0
 47
0.095608
 98
        2
 10
802.493456
 20
409.258585
 10
841.517647
 20
410.405882
  0
LINE
  5
196
100
AcDbEntity
  8
M01
100
AcDbLine
 10
841.360108
 20
405.559226
 30
0.0
 11
845.360108
 21
405.559226
 31
0.0
  0
LINE
  5
197
100
AcDbEntity
  8
M01
100
AcDbLine
 10
841.360108
 20
413.559226
 30
0.0
 11
845.360108
 21
413.559226
 31
0.0
  0
LINE
  5
198
100
AcDbEntity
  8
M01
100
AcDbLine
 10
802.360108
 20
405.559226
 30
0.0
 11
798.360108
 21
405.559226
 31
0.0
  0
LINE
  5
199
100
AcDbEntity
  8
M01
100
AcDbLine
 10
802.360108
 20
413.559226
 30
0.0
 11
798.360108
 21
413.559226
 31
0.0
  0
CIRCLE
  5
19A
102
{ACAD_REACTORS
330
195
102
}
100
AcDbEntity
  8
M01
100
AcDbCircle
 10
841.360108
 20
409.559226
 30
0.0
 40
4.0
  0
CIRCLE
  5
19B
102
{ACAD_REACTORS
330
195
102
}
100
AcDbEntity
  8
M01
100
AcDbCircle
 10
802.360108
 20
409.559226
 30
0.0
 40
4.0
  0
LINE
  5
19C
100
AcDbEntity
  8
DIMS
 62
     4
100
AcDbLine
 10
529.447241
 20
435.959226
 30
0.0
 11
529.447241
 21
439.759226
 31
0.0
  0
LINE
  5
19D
100
AcDbEntity
  8
DIMS
 62
     4
100
AcDbLine
 10
529.447241
 20
429.159226
 30
0.0
 11
529.447241
 21
425.359226
 31
0.0
  0
LINE
  5
19E
100
AcDbEntity
  8
DIMS
 62
     4
100
AcDbLine
 10
529.447241
 20
430.859226
 30
0.0
 11
529.447241
 21
434.259226
 31
0.0
  0
LINE
  5
19F
100
AcDbEntity
  8
DIMS
 62
     4
100
AcDbLine
 10
581.447241
 20
435.959226
 30
0.0
 11
581.447241
 21
439.759226
 31
0.0
  0
LINE
  5
1A0
100
AcDbEntity
  8
DIMS
 62
     4
100
AcDbLine
 10
581.447241
 20
429.159226
 30
0.0
 11
581.447241
 21
425.359226
 31
0.0
  0
LINE
  5
1A1
100
AcDbEntity
  8
DIMS
 62
     4
100
AcDbLine
 10
581.447241
 20
430.859226
 30
0.0
 11
581.447241
 21
434.259226
 31
0.0
  0
LINE
  5
1A2
100
AcDbEntity
  8
DIMS
 62
     4
100
AcDbLine
 10
558.847241
 20
458.559226
 30
0.0
 11
562.647241
 21
458.559226
 31
0.0
  0
LINE
  5
1A3
100
AcDbEntity
  8
DIMS
 62
     4
100
AcDbLine
 10
552.047241
 20
458.559226
 30
0.0
 11
548.247241
 21
458.559226
 31
0.0
  0
LINE
  5
1A4
100
AcDbEntity
  8
DIMS
 62
     4
100
AcDbLine
 10
553.747241
 20
458.559226
 30
0.0
 11
557.147241
 21
458.559226
 31
0.0
  0
HATCH
  5
1A5
100
AcDbEntity
  8
HATCH
100
AcDbHatch
 10
0.0
 20
0.0
 30
0.0
210
0.0
220
0.0
230
1.0
  2
_U
 70
     0
 71
     1
 91
        4
 92
        7
 72
     0
 73
     1
 93
        9
 10
851.3601080691216
 20
464.0592260810633
 10
851.3601080691218
 20
465.8592260810632
 10
850.6601080691217
 20
466.5592260810632
 10
846.0601080691217
 20
466.5592260810633
 10
845.3601080691216
 20
465.8592260810634
 10
845.3601080691216
 20
462.2592260810631
 10
847.3601080691217
 20
462.2592260810633
 10
847.3601080691217
 20
463.8092260810633
 10
847.3601080691217
 20
464.0592260810631
 97
        9
330
431
330
434
330
430
330
490
330
1BA
330
1AB
330
1BF
330
1AD
330
433
 92
        7
 72
     1
 73
     1
 93
       16
 10
845.3601080691218
 20
442.5592260810629
 42
0.0
 10
836.3601080691218
 20
442.5592260810629
 42
0.0
 10
835.3601080691218
 20
441.559226081063
 42
0.0
 10
835.3601080691218
 20
436.5592260810631
 42
0.0
 10
853.6613224160205
 20
435.600100078959
 42
-0.1092323044357274
 10
856.3601080691217
 20
441.7243774709747
 42
0.0
 10
856.3601080691219
 20
451.8592260810629
 42
0.0
 10
855.6601080691216
 20
452.559226081063
 42
0.0
 10
854.3601080691214
 20
452.559226081063
 42
0.0
 10
854.3601080691216
 20
452.059226081063
 42
0.0
 10
851.3601080691218
 20
452.059226081063
 42
0.0
 10
851.3601080691218
 20
453.0592260810633
 42
0.0
 10
847.3601080691217
 20
453.0592260810633
 42
0.0
 10
847.3601080691217
 20
453.3092260810632
 42
0.0
 10
847.3601080691217
 20
454.8592260810631
 42
0.0
 10
845.3601080691218
 20
454.8592260810632
 42
0.0
 97
       16
330
426
330
429
330
423
330
422
330
433
330
1AE
330
1AC
330
1AB
330
1B9
330
1AA
330
43D
330
439
330
43B
330
417
330
418
330
427
 92
        7
 72
     1
 73
     1
 93
       16
 10
845.3601080691218
 20
402.5592260810631
 42
0.0
 10
845.3601080691216
 20
400.559226081063
 42
0.0
 10
846.0601080691217
 20
399.859226081063
 42
0.0
 10
850.6601080691218
 20
399.8592260810632
 42
0.0
 10
851.3601080691216
 20
400.559226081063
 42
0.0
 10
851.3601080691216
 20
413.059226081063
 42
0.0
 10
854.3601080691221
 20
413.0592260810631
 42
0.0
 10
854.3601080691217
 20
412.5592260810631
 42
0.0
 10
855.6601080691221
 20
412.5592260810631
 42
0.0
 10
856.3601080691221
 20
413.259226081063
 42
0.0
 10
856.3601080691219
 20
423.3940746911513
 42
-0.1092323044357282
 10
853.6613224160205
 20
429.5183520831669
 42
0.0
 10
835.3601080691218
 20
428.5592260810632
 42
0.0
 10
835.3601080691216
 20
423.5592260810633
 42
0.0
 10
836.3601080691218
 20
422.5592260810632
 42
0.0
 10
845.3601080691219
 20
422.5592260810631
 42
0.0
 97
       16
330
414
330
416
330
43B
330
43A
330
43C
330
42B
330
26C
330
42D
330
42F
330
42E
330
420
330
421
330
41F
330
428
330
425
330
427
 92
       24
 93
        4
 72
     1
 10
837.36676
 20
437.880683
 11
851.738188
 21
437.880683
 72
     1
 10
851.738188
 20
437.880683
 11
851.738188
 21
440.880683
 72
     1
 10
851.738188
 20
440.880683
 11
837.36676
 21
440.880683
 72
     1
 10
837.36676
 20
440.880683
 11
837.36676
 21
437.880683
 97
        1
330
3C2
 75
     0
 76
     0
 52
135.0
 41
2.5
 77
     0
 78
     1
 53
135.0
 43
23.770001
 44
0.0
 45
-1.767766952966368
 46
-1.767766952966368
 79
     0
 47
0.115254
 98
        3
 10
848.186116
 20
464.76431
 10
850.030935
 20
442.866133
 10
849.915633
 20
421.77473
  0
LINE
  5
1A6
100
AcDbEntity
  8
M04
100
AcDbLine
 10
838.060108
 20
455.559226
 30
0.0
 11
835.560108
 21
455.559226
 31
0.0
  0
LINE
  5
1A7
100
AcDbEntity
  8
M04
100
AcDbLine
 10
837.360108
 20
456.259226
 30
0.0
 11
834.060108
 21
456.259226
 31
0.0
  0
LINE
  5
1A8
100
AcDbEntity
  8
M04
100
AcDbLine
 10
838.060108
 20
461.559226
 30
0.0
 11
835.560108
 21
461.559226
 31
0.0
  0
LINE
  5
1A9
100
AcDbEntity
  8
M04
100
AcDbLine
 10
837.360108
 20
460.859226
 30
0.0
 11
834.060108
 21
460.859226
 31
0.0
  0
LINE
  5
1AA
102
{ACAD_REACTORS
330
1A5
102
}
100
AcDbEntity
  8
M01
100
AcDbLine
 10
845.360108
 20
455.559226
 30
0.0
 11
845.360108
 21
442.559226
 31
0.0
  0
LINE
  5
1AB
102
{ACAD_REACTORS
330
1A5
102
}
100
AcDbEntity
  8
M05
100
AcDbLine
 10
847.360108
 20
463.809226
 30
0.0
 11
847.360108
 21
453.309226
 31
0.0
  0
LINE
  5
1AC
102
{ACAD_REACTORS
330
1A5
102
}
100
AcDbEntity
  8
M04
100
AcDbLine
 10
847.360108
 20
453.309226
 30
0.0
 11
847.360108
 21
453.059226
 31
0.0
  0
LINE
  5
1AD
102
{ACAD_REACTORS
330
1A5
102
}
100
AcDbEntity
  8
M04
100
AcDbLine
 10
847.360108
 20
464.059226
 30
0.0
 11
851.360108
 21
464.059226
 31
0.0
  0
LINE
  5
1AE
102
{ACAD_REACTORS
330
1A5
102
}
100
AcDbEntity
  8
M04
100
AcDbLine
 10
847.360108
 20
453.059226
 30
0.0
 11
851.360108
 21
453.059226
 31
0.0
  0
LINE
  5
1AF
100
AcDbEntity
  8
M05
100
AcDbLine
 10
846.360108
 20
455.559226
 30
0.0
 11
846.360108
 21
461.559226
 31
0.0
  0
LINE
  5
1B0
100
AcDbEntity
  8
M04
100
AcDbLine
 10
834.060108
 20
460.859226
 30
0.0
 11
832.732202
 21
458.559226
 31
0.0
  0
LINE
  5
1B1
100
AcDbEntity
  8
M04
100
AcDbLine
 10
834.060108
 20
456.259226
 30
0.0
 11
832.732202
 21
458.559226
 31
0.0
  0
LINE
  5
1B2
100
AcDbEntity
  8
M04
100
AcDbLine
 10
834.060108
 20
456.259226
 30
0.0
 11
834.060108
 21
460.859226
 31
0.0
  0
LINE
  5
1B3
100
AcDbEntity
  8
M04
100
AcDbLine
 10
835.560108
 20
455.559226
 30
0.0
 11
835.560108
 21
461.559226
 31
0.0
  0
ARC
  5
1B4
100
AcDbEntity
  8
M05
100
AcDbCircle
 10
844.833972
 20
458.559226
 30
0.0
 40
5.826136
100
AcDbArc
 50
295.69541
 51
64.30459
  0
LINE
  5
1B5
100
AcDbEntity
  8
M05
100
AcDbLine
 10
838.060108
 20
461.559226
 30
0.0
 11
837.360108
 21
460.859226
 31
0.0
  0
LINE
  5
1B6
100
AcDbEntity
  8
M05
100
AcDbLine
 10
838.060108
 20
455.559226
 30
0.0
 11
837.360108
 21
456.259226
 31
0.0
  0
LINE
  5
1B7
100
AcDbEntity
  8
M05
100
AcDbLine
 10
838.060108
 20
455.559226
 30
0.0
 11
838.060108
 21
461.559226
 31
0.0
  0
LINE
  5
1B8
100
AcDbEntity
  8
M05
100
AcDbLine
 10
837.360108
 20
456.259226
 30
0.0
 11
837.360108
 21
460.859226
 31
0.0
  0
LINE
  5
1B9
102
{ACAD_REACTORS
330
1A5
102
}
100
AcDbEntity
  8
M04
100
AcDbLine
 10
845.360108
 20
454.859226
 30
0.0
 11
847.360108
 21
454.859226
 31
0.0
  0
LINE
  5
1BA
102
{ACAD_REACTORS
330
1A5
102
}
100
AcDbEntity
  8
M04
100
AcDbLine
 10
845.360108
 20
462.259226
 30
0.0
 11
847.360108
 21
462.259226
 31
0.0
  0
LINE
  5
1BB
100
AcDbEntity
  8
M05
100
AcDbLine
 10
837.360108
 20
460.859226
 30
0.0
 11
846.360108
 21
460.859226
 31
0.0
  0
LINE
  5
1BC
100
AcDbEntity
  8
M05
100
AcDbLine
 10
837.360108
 20
456.259226
 30
0.0
 11
846.360108
 21
456.259226
 31
0.0
  0
LINE
  5
1BD
100
AcDbEntity
  8
M05
100
AcDbLine
 10
838.060108
 20
455.559226
 30
0.0
 11
847.360108
 21
455.559226
 31
0.0
  0
LINE
  5
1BE
100
AcDbEntity
  8
M05
100
AcDbLine
 10
838.060108
 20
461.559226
 30
0.0
 11
847.360108
 21
461.559226
 31
0.0
  0
LINE
  5
1BF
102
{ACAD_REACTORS
330
1A5
102
}
100
AcDbEntity
  8
M04
100
AcDbLine
 10
847.360108
 20
464.059226
 30
0.0
 11
847.360108
 21
463.809226
 31
0.0
  0
LINE
  5
1C0
100
AcDbEntity
  8
CENTRE
100
AcDbLine
 10
830.093608
 20
458.559226
 30
0.0
 11
855.006296
 21
458.559226
 31
0.0
  0
MTEXT
  5
1C1
102
{ACAD_REACTORS
330
1C2
102
}
100
AcDbEntity
  8
DIMS
 62
     2
100
AcDbMText
 10
512.407919
 20
381.120852
 30
0.0
 40
3.0
 41
0.0
 71
     4
 72
     5
  1
HGX10037
  0
LEADER
  5
1C2
100
AcDbEntity
  8
DIMS
 62
     4
100
AcDbLeader
  3
DIM1$7
 73
     0
 74
     0
 75
     1
 40
3.0
 41
21.857143
 76
     3
 10
489.412816
 20
402.973989
 30
0.0
 10
507.907919
 20
381.120852
 30
0.0
 10
510.907919
 20
381.120852
 30
0.0
 77
   256
340
1C1
1001
ACAD
1000
DSTYLE
1002
{
1070
   288
1070
     1
1070
   144
1040
1.0
1002
}
  0
CIRCLE
  5
1C4
100
AcDbEntity
  8
M03
100
AcDbCircle
 10
581.447241
 20
432.559226
 30
0.0
 40
2.3
  0
ARC
  5
1C5
100
AcDbEntity
  8
M03
100
AcDbCircle
 10
581.447241
 20
432.559226
 30
0.0
 40
3.0
100
AcDbArc
 50
167.784636
 51
96.923103
  0
CIRCLE
  5
1C6
100
AcDbEntity
  8
M03
100
AcDbCircle
 10
581.447241
 20
432.559226
 30
0.0
 40
5.5
  0
CIRCLE
  5
1C7
100
AcDbEntity
  8
M03
100
AcDbCircle
 10
529.447241
 20
432.559226
 30
0.0
 40
2.3
  0
ARC
  5
1C8
100
AcDbEntity
  8
M03
100
AcDbCircle
 10
529.447241
 20
432.559226
 30
0.0
 40
3.0
100
AcDbArc
 50
167.784636
 51
96.923103
  0
CIRCLE
  5
1C9
100
AcDbEntity
  8
M03
100
AcDbCircle
 10
529.447241
 20
432.559226
 30
0.0
 40
5.5
  0
CIRCLE
  5
1CA
100
AcDbEntity
  8
M03
100
AcDbCircle
 10
555.447241
 20
458.559226
 30
0.0
 40
2.3
  0
ARC
  5
1CB
100
AcDbEntity
  8
M03
100
AcDbCircle
 10
555.447241
 20
458.559226
 30
0.0
 40
3.0
100
AcDbArc
 50
167.784636
 51
96.923103
  0
CIRCLE
  5
1CC
100
AcDbEntity
  8
M03
100
AcDbCircle
 10
555.447241
 20
458.559226
 30
0.0
 40
5.5
  0
LINE
  5
1CD
100
AcDbEntity
  8
M03
100
AcDbLine
 10
502.747241
 20
418.059226
 30
0.0
 11
500.447241
 21
419.387132
 31
0.0
  0
LINE
  5
1CE
100
AcDbEntity
  8
M03
100
AcDbLine
 10
498.147241
 20
418.059226
 30
0.0
 11
500.447241
 21
419.387132
 31
0.0
  0
LINE
  5
1CF
100
AcDbEntity
  8
M03
100
AcDbLine
 10
498.147241
 20
418.059226
 30
0.0
 11
502.747241
 21
418.059226
 31
0.0
  0
LINE
  5
1D0
100
AcDbEntity
  8
M03
100
AcDbLine
 10
497.447241
 20
416.559226
 30
0.0
 11
503.447241
 21
416.559226
 31
0.0
  0
LINE
  5
1D1
100
AcDbEntity
  8
M03
100
AcDbLine
 10
486.140178
 20
404.459226
 30
0.0
 11
456.901718
 21
404.459226
 31
0.0
  0
LINE
  5
1D2
100
AcDbEntity
  8
M03
100
AcDbLine
 10
486.140178
 20
402.559226
 30
0.0
 11
456.901718
 21
402.559226
 31
0.0
  0
LINE
  5
1D3
100
AcDbEntity
  8
M03
100
AcDbLine
 10
493.140178
 20
404.759226
 30
0.0
 11
507.447241
 21
404.759226
 31
0.0
  0
LINE
  5
1D4
100
AcDbEntity
  8
M03
100
AcDbLine
 10
492.095414
 20
405.559226
 30
0.0
 11
492.095414
 21
404.759226
 31
0.0
  0
LINE
  5
1D5
100
AcDbEntity
  8
M03
100
AcDbLine
 10
486.140178
 20
404.759226
 30
0.0
 11
486.140178
 21
402.259226
 31
0.0
  0
LINE
  5
1D6
100
AcDbEntity
  8
M03
100
AcDbLine
 10
486.140178
 20
402.259226
 30
0.0
 11
493.140178
 21
402.259226
 31
0.0
  0
LINE
  5
1D7
100
AcDbEntity
  8
M03
100
AcDbLine
 10
493.140178
 20
404.759226
 30
0.0
 11
493.140178
 21
402.259226
 31
0.0
  0
LINE
  5
1D8
100
AcDbEntity
  8
M03
100
AcDbLine
 10
507.447241
 20
405.559226
 30
0.0
 11
507.447241
 21
404.759226
 31
0.0
  0
ARC
  5
1D9
100
AcDbEntity
  8
M03
100
AcDbCircle
 10
500.447241
 20
407.285362
 30
0.0
 40
5.826136
100
AcDbArc
 50
205.69541
 51
334.30459
  0
LINE
  5
1DA
100
AcDbEntity
  8
M03
100
AcDbLine
 10
503.447241
 20
414.059226
 30
0.0
 11
502.747241
 21
414.759226
 31
0.0
  0
LINE
  5
1DB
100
AcDbEntity
  8
M03
100
AcDbLine
 10
497.447241
 20
414.059226
 30
0.0
 11
498.147241
 21
414.759226
 31
0.0
  0
LINE
  5
1DC
100
AcDbEntity
  8
M03
100
AcDbLine
 10
497.447241
 20
414.059226
 30
0.0
 11
503.447241
 21
414.059226
 31
0.0
  0
LINE
  5
1DD
100
AcDbEntity
  8
M03
100
AcDbLine
 10
498.147241
 20
414.759226
 30
0.0
 11
502.747241
 21
414.759226
 31
0.0
  0
LINE
  5
1DE
100
AcDbEntity
  8
M03
100
AcDbLine
 10
503.447241
 20
405.559226
 30
0.0
 11
510.447241
 21
405.559226
 31
0.0
  0
LINE
  5
1DF
100
AcDbEntity
  8
M03
100
AcDbLine
 10
486.747241
 20
405.559226
 30
0.0
 11
486.747241
 21
404.759226
 31
0.0
  0
LINE
  5
1E0
100
AcDbEntity
  8
M03
100
AcDbLine
 10
504.147241
 20
405.559226
 30
0.0
 11
504.147241
 21
404.759226
 31
0.0
  0
LINE
  5
1E1
100
AcDbEntity
  8
M03
100
AcDbLine
 10
502.747241
 20
418.059226
 30
0.0
 11
502.747241
 21
404.759226
 31
0.0
  0
LINE
  5
1E2
100
AcDbEntity
  8
M03
100
AcDbLine
 10
498.147241
 20
418.059226
 30
0.0
 11
498.147241
 21
404.759226
 31
0.0
  0
LINE
  5
1E3
100
AcDbEntity
  8
M03
100
AcDbLine
 10
497.447241
 20
416.559226
 30
0.0
 11
497.447241
 21
404.759226
 31
0.0
  0
LINE
  5
1E4
100
AcDbEntity
  8
M03
100
AcDbLine
 10
503.447241
 20
416.559226
 30
0.0
 11
503.447241
 21
404.759226
 31
0.0
  0
LINE
  5
1E5
100
AcDbEntity
  8
M03
100
AcDbLine
 10
486.140178
 20
404.759226
 30
0.0
 11
492.095414
 21
404.759226
 31
0.0
  0
LINE
  5
1E6
100
AcDbEntity
  8
M03
100
AcDbLine
 10
510.447241
 20
405.559226
 30
0.0
 11
510.447241
 21
400.559226
 31
0.0
  0
LINE
  5
1E7
100
AcDbEntity
  8
M03
100
AcDbLine
 10
442.947241
 20
405.559226
 30
0.0
 11
497.447241
 21
405.559226
 31
0.0
  0
LINE
  5
1E8
100
AcDbEntity
  8
CENTRE
100
AcDbLine
 10
500.447241
 20
423.757899
 30
0.0
 11
500.447241
 21
396.597749
 31
0.0
  0
DIMENSION
  5
1E9
100
AcDbEntity
  8
DIMS
100
AcDbDimension
  2
*D0
 10
763.683943
 20
499.059226
 30
0.0
 11
760.683943
 21
481.273512
 31
0.0
  1
%%c<> H7
  3
DIM1
100
AcDbAlignedDimension
 13
778.360108
 23
507.059226
 33
0.0
 14
778.360108
 24
499.059226
 34
0.0
 50
90.0
100
AcDbRotatedDimension
1001
ACAD
1000
DSTYLE
1002
{
1070
   144
1040
1.0
1002
}
  0
CIRCLE
  5
1F7
100
AcDbEntity
  8
M03
100
AcDbCircle
 10
467.947241
 20
432.559226
 30
0.0
 40
2.3
  0
ARC
  5
1F8
100
AcDbEntity
  8
M03
100
AcDbCircle
 10
467.947241
 20
432.559226
 30
0.0
 40
3.0
100
AcDbArc
 50
167.784636
 51
96.923103
  0
CIRCLE
  5
1F9
100
AcDbEntity
  8
M03
100
AcDbCircle
 10
642.947241
 20
432.559226
 30
0.0
 40
2.3
  0
ARC
  5
1FA
100
AcDbEntity
  8
M03
100
AcDbCircle
 10
642.947241
 20
432.559226
 30
0.0
 40
3.0
100
AcDbArc
 50
167.784636
 51
96.923103
  0
LINE
  5
1FB
100
AcDbEntity
  8
DIMS
 62
     4
100
AcDbLine
 10
467.947241
 20
435.959226
 30
0.0
 11
467.947241
 21
449.259226
 31
0.0
  0
LINE
  5
1FC
100
AcDbEntity
  8
DIMS
 62
     4
100
AcDbLine
 10
467.947241
 20
429.159226
 30
0.0
 11
467.947241
 21
415.859226
 31
0.0
  0
LINE
  5
1FD
100
AcDbEntity
  8
DIMS
 62
     4
100
AcDbLine
 10
467.947241
 20
430.859226
 30
0.0
 11
467.947241
 21
434.259226
 31
0.0
  0
LINE
  5
1FE
100
AcDbEntity
  8
DIMS
 62
     4
100
AcDbLine
 10
642.947241
 20
435.959226
 30
0.0
 11
642.947241
 21
449.259226
 31
0.0
  0
LINE
  5
1FF
100
AcDbEntity
  8
DIMS
 62
     4
100
AcDbLine
 10
642.947241
 20
429.159226
 30
0.0
 11
642.947241
 21
415.859226
 31
0.0
  0
LINE
  5
200
100
AcDbEntity
  8
DIMS
 62
     4
100
AcDbLine
 10
642.947241
 20
430.859226
 30
0.0
 11
642.947241
 21
434.259226
 31
0.0
  0
LINE
  5
201
100
AcDbEntity
  8
M03
100
AcDbLine
 10
643.497241
 20
426.584488
 30
0.0
 11
643.497241
 21
438.533965
 31
0.0
  0
LINE
  5
202
100
AcDbEntity
  8
M03
100
AcDbLine
 10
642.397241
 20
426.584488
 30
0.0
 11
642.397241
 21
438.533965
 31
0.0
  0
CIRCLE
  5
203
100
AcDbEntity
  8
M03
100
AcDbCircle
 10
642.947241
 20
432.559226
 30
0.0
 40
15.0
  0
CIRCLE
  5
204
100
AcDbEntity
  8
M03
100
AcDbCircle
 10
642.947241
 20
432.559226
 30
0.0
 40
14.0
  0
CIRCLE
  5
205
100
AcDbEntity
  8
M03
100
AcDbCircle
 10
642.947241
 20
432.559226
 30
0.0
 40
7.858882
  0
CIRCLE
  5
206
100
AcDbEntity
  8
M03
100
AcDbCircle
 10
642.947241
 20
432.559226
 30
0.0
 40
6.0
  0
LINE
  5
207
100
AcDbEntity
  8
M03
100
AcDbLine
 10
467.397241
 20
426.584488
 30
0.0
 11
467.397241
 21
438.533965
 31
0.0
  0
LINE
  5
208
100
AcDbEntity
  8
M03
100
AcDbLine
 10
468.497241
 20
426.584488
 30
0.0
 11
468.497241
 21
438.533965
 31
0.0
  0
CIRCLE
  5
209
100
AcDbEntity
  8
M03
100
AcDbCircle
 10
467.947241
 20
432.559226
 30
0.0
 40
15.0
  0
CIRCLE
  5
20A
100
AcDbEntity
  8
M03
100
AcDbCircle
 10
467.947241
 20
432.559226
 30
0.0
 40
14.0
  0
CIRCLE
  5
20B
100
AcDbEntity
  8
M03
100
AcDbCircle
 10
467.947241
 20
432.559226
 30
0.0
 40
7.858882
  0
CIRCLE
  5
20C
100
AcDbEntity
  8
M03
100
AcDbCircle
 10
467.947241
 20
432.559226
 30
0.0
 40
6.0
  0
DIMENSION
  5
20D
100
AcDbEntity
  8
DIMS
100
AcDbDimension
  2
*D1
 10
896.675225
 20
452.559226
 30
0.0
 11
893.675225
 21
432.559226
 31
0.0
  1
%%c<> H7
  3
DIM1
100
AcDbAlignedDimension
 13
860.360108
 23
412.559226
 33
0.0
 14
860.360108
 24
452.559226
 34
0.0
 50
90.0
100
AcDbRotatedDimension
1001
ACAD
1000
DSTYLE
1002
{
1070
   144
1040
1.0
1002
}
  0
DIMENSION
  5
21A
100
AcDbEntity
  8
DIMS
100
AcDbDimension
  2
*D2
 10
791.360108
 20
362.279548
 30
0.0
 11
780.717251
 21
365.279548
 31
0.0
  1
7.0
  3
DIM1
100
AcDbAlignedDimension
 13
798.360108
 23
402.559226
 33
0.0
 14
791.360108
 24
393.559226
 34
0.0
100
AcDbRotatedDimension
1001
ACAD
1000
DSTYLE
1002
{
1070
   144
1040
1.0
1002
}
  0
DIMENSION
  5
228
100
AcDbEntity
  8
DIMS
100
AcDbDimension
  2
*D3
 10
852.360108
 20
362.279548
 30
0.0
 11
863.002965
 21
365.279548
 31
0.0
  1
7.0
  3
DIM1
100
AcDbAlignedDimension
 13
845.360108
 23
400.559226
 33
0.0
 14
852.360108
 24
382.045835
 34
0.0
100
AcDbRotatedDimension
1001
ACAD
1000
DSTYLE
1002
{
1070
   144
1040
1.0
1002
}
  0
DIMENSION
  5
236
100
AcDbEntity
  8
DIMS
100
AcDbDimension
  2
*D4
 10
845.360108
 20
362.279548
 30
0.0
 11
821.860108
 21
365.279548
 31
0.0
  3
DIM1
100
AcDbAlignedDimension
 13
798.360108
 23
402.559226
 33
0.0
 14
845.360108
 24
400.559226
 34
0.0
100
AcDbRotatedDimension
1001
ACAD
1000
DSTYLE
1002
{
1070
   144
1040
1.0
1002
}
  0
LINE
  5
243
100
AcDbEntity
  8
M01
100
AcDbLine
 10
834.360108
 20
523.559226
 30
0.0
 11
844.360108
 21
523.559226
 31
0.0
  0
LINE
  5
244
100
AcDbEntity
  8
M01
100
AcDbLine
 10
801.110108
 20
530.503326
 30
0.0
 11
807.610108
 21
530.503326
 31
0.0
  0
LINE
  5
245
100
AcDbEntity
  8
M01
100
AcDbLine
 10
801.110108
 20
538.615126
 30
0.0
 11
807.610108
 21
538.615126
 31
0.0
  0
LINE
  5
246
100
AcDbEntity
  8
M01
100
AcDbLine
 10
801.110108
 20
530.503326
 30
0.0
 11
801.110108
 21
528.559226
 31
0.0
  0
ARC
  5
247
100
AcDbEntity
  8
M01
100
AcDbCircle
 10
799.860108
 20
532.064576
 30
0.0
 40
2.0
100
AcDbArc
 50
308.682187
 51
0.0
  0
ARC
  5
248
100
AcDbEntity
  8
M01
100
AcDbCircle
 10
799.860108
 20
537.053876
 30
0.0
 40
2.0
100
AcDbArc
 50
0.0
 51
51.317813
  0
LINE
  5
249
100
AcDbEntity
  8
M01
100
AcDbLine
 10
801.110108
 20
540.559226
 30
0.0
 11
801.110108
 21
538.615126
 31
0.0
  0
LINE
  5
24A
100
AcDbEntity
  8
M01
100
AcDbLine
 10
801.860108
 20
537.053876
 30
0.0
 11
801.860108
 21
532.064576
 31
0.0
  0
LINE
  5
24B
100
AcDbEntity
  8
M01
100
AcDbLine
 10
807.610108
 20
530.503326
 30
0.0
 11
807.610108
 21
528.559226
 31
0.0
  0
ARC
  5
24C
100
AcDbEntity
  8
M01
100
AcDbCircle
 10
808.860108
 20
532.064576
 30
0.0
 40
2.0
100
AcDbArc
 50
180.0
 51
231.317813
  0
ARC
  5
24D
100
AcDbEntity
  8
M01
100
AcDbCircle
 10
808.860108
 20
537.053876
 30
0.0
 40
2.0
100
AcDbArc
 50
128.682187
 51
180.0
  0
LINE
  5
24E
100
AcDbEntity
  8
M01
100
AcDbLine
 10
807.610108
 20
540.559226
 30
0.0
 11
807.610108
 21
538.615126
 31
0.0
  0
LINE
  5
24F
100
AcDbEntity
  8
M01
100
AcDbLine
 10
806.860108
 20
537.053876
 30
0.0
 11
806.860108
 21
532.064576
 31
0.0
  0
LINE
  5
250
100
AcDbEntity
  8
M01
100
AcDbLine
 10
799.360108
 20
523.559226
 30
0.0
 11
809.360108
 21
523.559226
 31
0.0
  0
LINE
  5
251
100
AcDbEntity
  8
M01
100
AcDbLine
 10
844.360108
 20
528.559226
 30
0.0
 11
844.360108
 21
507.559226
 31
0.0
  0
LINE
  5
252
100
AcDbEntity
  8
M01
100
AcDbLine
 10
834.360108
 20
528.559226
 30
0.0
 11
834.360108
 21
508.559226
 31
0.0
  0
LINE
  5
253
100
AcDbEntity
  8
M01
100
AcDbLine
 10
799.360108
 20
528.559226
 30
0.0
 11
799.360108
 21
507.559226
 31
0.0
  0
LINE
  5
254
100
AcDbEntity
  8
M01
100
AcDbLine
 10
809.360108
 20
528.559226
 30
0.0
 11
809.360108
 21
508.559226
 31
0.0
  0
LINE
  5
255
100
AcDbEntity
  8
M01
100
AcDbLine
 10
562.947241
 20
540.559226
 30
0.0
 11
571.947241
 21
540.559226
 31
0.0
  0
LINE
  5
256
100
AcDbEntity
  8
M01
100
AcDbLine
 10
571.947241
 20
541.359226
 30
0.0
 11
571.947241
 21
540.559226
 31
0.0
  0
LINE
  5
257
100
AcDbEntity
  8
M01
100
AcDbLine
 10
562.947241
 20
541.359226
 30
0.0
 11
562.947241
 21
540.559226
 31
0.0
  0
LINE
  5
258
100
AcDbEntity
  8
M01
100
AcDbLine
 10
540.197241
 20
530.503326
 30
0.0
 11
546.697241
 21
530.503326
 31
0.0
  0
LINE
  5
259
100
AcDbEntity
  8
M01
100
AcDbLine
 10
540.197241
 20
538.615126
 30
0.0
 11
546.697241
 21
538.615126
 31
0.0
  0
LINE
  5
25A
100
AcDbEntity
  8
M01
100
AcDbLine
 10
540.197241
 20
530.503326
 30
0.0
 11
540.197241
 21
528.559226
 31
0.0
  0
ARC
  5
25B
100
AcDbEntity
  8
M01
100
AcDbCircle
 10
538.947241
 20
532.064576
 30
0.0
 40
2.0
100
AcDbArc
 50
308.682187
 51
0.0
  0
ARC
  5
25C
100
AcDbEntity
  8
M01
100
AcDbCircle
 10
538.947241
 20
537.053876
 30
0.0
 40
2.0
100
AcDbArc
 50
0.0
 51
51.317813
  0
LINE
  5
25D
100
AcDbEntity
  8
M01
100
AcDbLine
 10
540.197241
 20
540.559226
 30
0.0
 11
540.197241
 21
538.615126
 31
0.0
  0
LINE
  5
25E
100
AcDbEntity
  8
M01
100
AcDbLine
 10
540.947241
 20
537.053876
 30
0.0
 11
540.947241
 21
532.064576
 31
0.0
  0
LINE
  5
25F
100
AcDbEntity
  8
M01
100
AcDbLine
 10
546.697241
 20
530.503326
 30
0.0
 11
546.697241
 21
528.559226
 31
0.0
  0
ARC
  5
260
100
AcDbEntity
  8
M01
100
AcDbCircle
 10
547.947241
 20
532.064576
 30
0.0
 40
2.0
100
AcDbArc
 50
180.0
 51
231.317813
  0
ARC
  5
261
100
AcDbEntity
  8
M01
100
AcDbCircle
 10
547.947241
 20
537.053876
 30
0.0
 40
2.0
100
AcDbArc
 50
128.682187
 51
180.0
  0
LINE
  5
262
100
AcDbEntity
  8
M01
100
AcDbLine
 10
546.697241
 20
540.559226
 30
0.0
 11
546.697241
 21
538.615126
 31
0.0
  0
LINE
  5
263
100
AcDbEntity
  8
M01
100
AcDbLine
 10
545.947241
 20
537.053876
 30
0.0
 11
545.947241
 21
532.064576
 31
0.0
  0
LINE
  5
264
100
AcDbEntity
  8
M01
100
AcDbLine
 10
572.447241
 20
523.559226
 30
0.0
 11
562.447241
 21
523.559226
 31
0.0
  0
LINE
  5
265
100
AcDbEntity
  8
M01
100
AcDbLine
 10
538.447241
 20
523.559226
 30
0.0
 11
548.447241
 21
523.559226
 31
0.0
  0
LINE
  5
266
100
AcDbEntity
  8
M01
100
AcDbLine
 10
538.447241
 20
528.559226
 30
0.0
 11
538.447241
 21
508.559226
 31
0.0
  0
LINE
  5
267
100
AcDbEntity
  8
M01
100
AcDbLine
 10
548.447241
 20
528.559226
 30
0.0
 11
548.447241
 21
508.559226
 31
0.0
  0
LINE
  5
268
100
AcDbEntity
  8
M01
100
AcDbLine
 10
562.447241
 20
528.559226
 30
0.0
 11
562.447241
 21
508.559226
 31
0.0
  0
LINE
  5
269
100
AcDbEntity
  8
M01
100
AcDbLine
 10
572.447241
 20
528.559226
 30
0.0
 11
572.447241
 21
508.559226
 31
0.0
  0
LINE
  5
26A
100
AcDbEntity
  8
CENTRE
100
AcDbLine
 10
459.947241
 20
256.513886
 30
0.0
 11
650.947241
 21
256.513886
 31
0.0
  0
ARC
  5
26B
100
AcDbEntity
  8
M03
100
AcDbCircle
 10
555.447241
 20
432.559226
 30
0.0
 40
34.0
100
AcDbArc
 50
289.749923
 51
250.250077
  0
LINE
  5
26C
102
{ACAD_REACTORS
330
1A5
102
}
100
AcDbEntity
  8
M05
100
AcDbLine
 10
845.360108
 20
400.559226
 30
0.0
 11
845.360108
 21
402.559226
 31
0.0
  0
WIPEOUT
  5
26D
100
AcDbEntity
  8
TEXT
 92
      140
310
8C00000001000000840000000600000005000000771A285896658440FED34C7A84546F4000000000000000008604C96680DE8440FED34C7A84546F4000000000000000008704C96680DE8440FBD34C7A84D46F400000000000000000791A285896658440FED34C7A84D46F400000000000000000771A285896658440FED34C
310
7A84546F400000000000000000
100
AcDbWipeout
 90
        0
 10
647.755553
 20
238.141172
 30
0.0
 11
20.057143
 21
0.0
 31
0.0
 12
0.0
 22
20.057143
 32
0.0
 13
0.0
 23
0.0
340
0
 70
     7
280
     1
281
    50
282
    50
283
     0
360
0
 71
     2
 91
        5
 14
-0.253561
 24
-0.123219
 14
0.5
 24
-0.123219
 14
0.5
 24
-0.32265
 14
-0.253561
 24
-0.32265
 14
-0.253561
 24
-0.123219
  0
TEXT
  5
26E
100
AcDbEntity
  8
TEXT
100
AcDbText
 10
653.69841
 20
251.641172
 30
0.0
 40
2.0
  1
MM010024
 41
0.9
100
AcDbText
  0
WIPEOUT
  5
26F
100
AcDbEntity
  8
TEXT
 92
      140
310
8C000000010000008400000006000000050000002516974182678940936963D771EE79400000000000000000340038506CE08940936963D771EE79400000000000000000350038506CE08940916963D7712E7A4000000000000000002716974182678940936963D7712E7A4000000000000000002516974182678940936963
310
D771EE79400000000000000000
100
AcDbWipeout
 90
        0
 10
812.938602
 20
410.34565
 30
0.0
 11
15.114286
 21
0.0
 31
0.0
 12
0.0
 22
15.114286
 32
0.0
 13
0.0
 23
0.0
340
0
 70
     7
280
     1
281
    50
282
    50
283
     0
360
0
 71
     2
 91
        5
 14
-0.5
 24
0.198488
 14
0.5
 24
0.198488
 14
0.5
 24
-0.066163
 14
-0.5
 24
-0.066163
 14
-0.5
 24
0.198488
  0
TEXT
  5
270
100
AcDbEntity
  8
TEXT
100
AcDbText
 10
813.938602
 20
415.902793
 30
0.0
 40
2.0
  1
MM010024
 41
0.9
100
AcDbText
  0
MTEXT
  5
271
102
{ACAD_REACTORS
330
272
102
}
100
AcDbEntity
  8
HATCH
 62
     2
100
AcDbMText
 10
666.58742
 20
215.172659
 30
0.0
 40
3.0
 41
0.0
 71
     1
 72
     5
  1
MA010006 (x2)
  0
LEADER
  5
272
100
AcDbEntity
  8
HATCH
 62
     4
100
AcDbLeader
  3
DIM1$7
 73
     0
 74
     0
 75
     1
 40
4.571429
 41
34.142857
 76
     3
 10
652.664595
 20
227.644599
 30
0.0
 10
662.08742
 20
213.672659
 30
0.0
 10
665.08742
 20
213.672659
 30
0.0
 77
   256
340
271
213
0.0
223
-1.5
233
0.0
1001
ACAD
1000
DSTYLE
1002
{
1070
   144
1040
1.0
1002
}
  0
LINE
  5
273
102
{ACAD_REACTORS
330
DC
102
}
100
AcDbEntity
  8
M04
100
AcDbLine
 10
470.947241
 20
226.013886
 30
0.0
 11
535.947241
 21
226.013886
 31
0.0
  0
LINE
  5
274
100
AcDbEntity
  8
M02
100
AcDbLine
 10
481.947241
 20
230.013886
 30
0.0
 11
521.447241
 21
230.013886
 31
0.0
  0
LINE
  5
275
100
AcDbEntity
  8
M04
100
AcDbLine
 10
467.947241
 20
208.18598
 30
0.0
 11
470.247241
 21
209.513886
 31
0.0
  0
LINE
  5
276
100
AcDbEntity
  8
M04
100
AcDbLine
 10
465.647241
 20
209.513886
 30
0.0
 11
467.947241
 21
208.18598
 31
0.0
  0
LINE
  5
277
100
AcDbEntity
  8
M04
100
AcDbLine
 10
465.647241
 20
209.513886
 30
0.0
 11
470.247241
 21
209.513886
 31
0.0
  0
LINE
  5
278
100
AcDbEntity
  8
M04
100
AcDbLine
 10
464.947241
 20
214.575004
 30
0.0
 11
464.947241
 21
211.013886
 31
0.0
  0
LINE
  5
279
100
AcDbEntity
  8
M04
100
AcDbLine
 10
465.647241
 20
213.875004
 30
0.0
 11
465.647241
 21
209.513886
 31
0.0
  0
LINE
  5
27A
100
AcDbEntity
  8
M04
100
AcDbLine
 10
470.947241
 20
214.575004
 30
0.0
 11
470.947241
 21
211.013886
 31
0.0
  0
LINE
  5
27B
100
AcDbEntity
  8
M04
100
AcDbLine
 10
470.247241
 20
213.875004
 30
0.0
 11
470.247241
 21
209.513886
 31
0.0
  0
LINE
  5
27C
100
AcDbEntity
  8
M05
100
AcDbLine
 10
470.247241
 20
213.875004
 30
0.0
 11
470.947241
 21
214.575004
 31
0.0
  0
LINE
  5
27D
100
AcDbEntity
  8
M05
100
AcDbLine
 10
464.947241
 20
214.575004
 30
0.0
 11
465.647241
 21
213.875004
 31
0.0
  0
LINE
  5
27E
100
AcDbEntity
  8
M05
100
AcDbLine
 10
470.247241
 20
226.655004
 30
0.0
 11
470.247241
 21
213.875004
 31
0.0
  0
LINE
  5
27F
100
AcDbEntity
  8
M05
100
AcDbLine
 10
465.647241
 20
226.655004
 30
0.0
 11
465.647241
 21
213.875004
 31
0.0
  0
LINE
  5
280
100
AcDbEntity
  8
M05
100
AcDbLine
 10
464.947241
 20
214.575004
 30
0.0
 11
470.947241
 21
214.575004
 31
0.0
  0
LINE
  5
281
100
AcDbEntity
  8
M04
100
AcDbLine
 10
464.947241
 20
211.013886
 30
0.0
 11
470.947241
 21
211.013886
 31
0.0
  0
LINE
  5
282
100
AcDbEntity
  8
M05
100
AcDbLine
 10
465.647241
 20
213.875004
 30
0.0
 11
470.247241
 21
213.875004
 31
0.0
  0
LINE
  5
283
100
AcDbEntity
  8
M05
  6
HIDDEN
100
AcDbLine
 10
459.788359
 20
233.313886
 30
0.0
 11
459.088359
 21
234.013886
 31
0.0
  0
LINE
  5
284
100
AcDbEntity
  8
M05
  6
HIDDEN
100
AcDbLine
 10
476.106123
 20
233.313886
 30
0.0
 11
476.806123
 21
234.013886
 31
0.0
  0
LINE
  5
285
100
AcDbEntity
  8
M05
100
AcDbLine
 10
464.947241
 20
226.655004
 30
0.0
 11
470.947241
 21
226.655004
 31
0.0
  0
LINE
  5
286
100
AcDbEntity
  8
M05
100
AcDbLine
 10
468.497241
 20
231.155004
 30
0.0
 11
473.947241
 21
231.155004
 31
0.0
  0
LINE
  5
287
100
AcDbEntity
  8
M05
100
AcDbLine
 10
468.497241
 20
231.875004
 30
0.0
 11
473.947241
 21
231.875004
 31
0.0
  0
LINE
  5
288
100
AcDbEntity
  8
M05
100
AcDbLine
 10
468.497241
 20
231.875004
 30
0.0
 11
468.497241
 21
230.375004
 31
0.0
  0
LINE
  5
289
100
AcDbEntity
  8
M05
100
AcDbLine
 10
467.397241
 20
231.875004
 30
0.0
 11
467.397241
 21
230.375004
 31
0.0
  0
LINE
  5
28A
100
AcDbEntity
  8
M05
100
AcDbLine
 10
467.397241
 20
230.375004
 30
0.0
 11
468.497241
 21
230.375004
 31
0.0
  0
LINE
  5
28B
102
{ACAD_REACTORS
330
DC
102
}
100
AcDbEntity
  8
M05
100
AcDbLine
 10
471.447241
 20
228.655004
 30
0.0
 11
471.447241
 21
226.013886
 31
0.0
  0
LINE
  5
28C
102
{ACAD_REACTORS
330
DC
102
}
100
AcDbEntity
  8
M05
100
AcDbLine
 10
464.447241
 20
228.655004
 30
0.0
 11
464.447241
 21
226.013886
 31
0.0
  0
LINE
  5
28D
100
AcDbEntity
  8
M05
100
AcDbLine
 10
461.947241
 20
231.155004
 30
0.0
 11
467.397241
 21
231.155004
 31
0.0
  0
LINE
  5
28E
102
{ACAD_REACTORS
330
DC
102
}
100
AcDbEntity
  8
M05
100
AcDbLine
 10
464.947241
 20
228.155004
 30
0.0
 11
459.788359
 21
233.313886
 31
0.0
  0
LINE
  5
28F
100
AcDbEntity
  8
M05
100
AcDbLine
 10
461.947241
 20
231.875004
 30
0.0
 11
461.947241
 21
231.155004
 31
0.0
  0
LINE
  5
290
102
{ACAD_REACTORS
330
DC
102
}
100
AcDbEntity
  8
M05
100
AcDbLine
 10
470.947241
 20
228.155004
 30
0.0
 11
476.106123
 21
233.313886
 31
0.0
  0
LINE
  5
291
100
AcDbEntity
  8
M05
100
AcDbLine
 10
464.947241
 20
228.155004
 30
0.0
 11
470.947241
 21
228.155004
 31
0.0
  0
LINE
  5
292
100
AcDbEntity
  8
M05
100
AcDbLine
 10
464.947241
 20
228.155004
 30
0.0
 11
464.947241
 21
214.575004
 31
0.0
  0
LINE
  5
293
100
AcDbEntity
  8
M05
100
AcDbLine
 10
470.947241
 20
228.155004
 30
0.0
 11
470.947241
 21
214.575004
 31
0.0
  0
LINE
  5
294
100
AcDbEntity
  8
M05
100
AcDbLine
 10
473.947241
 20
231.875004
 30
0.0
 11
473.947241
 21
231.155004
 31
0.0
  0
LINE
  5
295
100
AcDbEntity
  8
M05
100
AcDbLine
 10
461.947241
 20
231.875004
 30
0.0
 11
467.397241
 21
231.875004
 31
0.0
  0
LINE
  5
296
100
AcDbEntity
  8
M05
  6
HIDDEN
100
AcDbLine
 10
453.947241
 20
233.313886
 30
0.0
 11
481.947241
 21
233.313886
 31
0.0
  0
LINE
  5
297
100
AcDbEntity
  8
M05
  6
HIDDEN
100
AcDbLine
 10
481.947241
 20
233.313886
 30
0.0
 11
481.247241
 21
234.013886
 31
0.0
  0
LINE
  5
298
100
AcDbEntity
  8
M05
  6
HIDDEN
100
AcDbLine
 10
481.947241
 20
232.313886
 30
0.0
 11
481.947241
 21
233.313886
 31
0.0
  0
LINE
  5
299
102
{ACAD_REACTORS
330
DC
102
}
100
AcDbEntity
  8
M05
100
AcDbLine
 10
481.947241
 20
232.313886
 30
0.0
 11
481.247241
 21
233.013886
 31
0.0
  0
LINE
  5
29A
102
{ACAD_REACTORS
330
DC
102
}
100
AcDbEntity
  8
M05
100
AcDbLine
 10
481.947241
 20
226.713886
 30
0.0
 11
481.247241
 21
226.013886
 31
0.0
  0
LINE
  5
29B
102
{ACAD_REACTORS
330
DC
102
}
100
AcDbEntity
  8
M05
100
AcDbLine
 10
481.947241
 20
232.313886
 30
0.0
 11
481.947241
 21
226.713886
 31
0.0
  0
LINE
  5
29C
100
AcDbEntity
  8
M05
  6
HIDDEN
100
AcDbLine
 10
453.947241
 20
233.313886
 30
0.0
 11
454.647241
 21
234.013886
 31
0.0
  0
LINE
  5
29D
100
AcDbEntity
  8
M05
  6
HIDDEN
100
AcDbLine
 10
453.947241
 20
232.313886
 30
0.0
 11
453.947241
 21
233.313886
 31
0.0
  0
LINE
  5
29E
102
{ACAD_REACTORS
330
DC
102
}
100
AcDbEntity
  8
M05
100
AcDbLine
 10
453.947241
 20
232.313886
 30
0.0
 11
454.647241
 21
233.013886
 31
0.0
  0
LINE
  5
29F
102
{ACAD_REACTORS
330
DC
102
}
100
AcDbEntity
  8
M05
100
AcDbLine
 10
453.947241
 20
226.713886
 30
0.0
 11
454.647241
 21
226.013886
 31
0.0
  0
LINE
  5
2A0
100
AcDbEntity
  8
M02
100
AcDbLine
 10
482.947241
 20
233.013886
 30
0.0
 11
482.947241
 21
230.013886
 31
0.0
  0
LINE
  5
2A1
100
AcDbEntity
  8
M02
100
AcDbLine
 10
452.947241
 20
233.013886
 30
0.0
 11
452.947241
 21
230.013886
 31
0.0
  0
LINE
  5
2A2
100
AcDbEntity
  8
M05
  6
HIDDEN
100
AcDbLine
 10
454.647241
 20
234.013886
 30
0.0
 11
481.247241
 21
234.013886
 31
0.0
  0
LINE
  5
2A3
102
{ACAD_REACTORS
330
DC
102
}
100
AcDbEntity
  8
M05
100
AcDbLine
 10
453.947241
 20
232.313886
 30
0.0
 11
453.947241
 21
226.713886
 31
0.0
  0
LINE
  5
2A4
100
AcDbEntity
  8
CENTRE
100
AcDbLine
 10
467.947241
 20
238.522996
 30
0.0
 11
467.947241
 21
205.444658
 31
0.0
  0
LINE
  5
2A5
100
AcDbEntity
  8
CENTRE
100
AcDbLine
 10
642.947241
 20
248.397127
 30
0.0
 11
642.947241
 21
290.362183
 31
0.0
  0
LINE
  5
2A6
100
AcDbEntity
  8
CENTRE
100
AcDbLine
 10
467.947241
 20
248.397127
 30
0.0
 11
467.947241
 21
290.362183
 31
0.0
  0
LINE
  5
2A7
100
AcDbEntity
  8
M04
100
AcDbLine
 10
642.947241
 20
208.18598
 30
0.0
 11
645.247241
 21
209.513886
 31
0.0
  0
LINE
  5
2A8
100
AcDbEntity
  8
M04
100
AcDbLine
 10
640.647241
 20
209.513886
 30
0.0
 11
642.947241
 21
208.18598
 31
0.0
  0
LINE
  5
2A9
100
AcDbEntity
  8
M04
100
AcDbLine
 10
640.647241
 20
209.513886
 30
0.0
 11
645.247241
 21
209.513886
 31
0.0
  0
LINE
  5
2AA
100
AcDbEntity
  8
M04
100
AcDbLine
 10
639.947241
 20
214.575004
 30
0.0
 11
639.947241
 21
211.013886
 31
0.0
  0
LINE
  5
2AB
100
AcDbEntity
  8
M04
100
AcDbLine
 10
640.647241
 20
213.875004
 30
0.0
 11
640.647241
 21
209.513886
 31
0.0
  0
LINE
  5
2AC
100
AcDbEntity
  8
M04
100
AcDbLine
 10
645.947241
 20
214.575004
 30
0.0
 11
645.947241
 21
211.013886
 31
0.0
  0
LINE
  5
2AD
100
AcDbEntity
  8
M04
100
AcDbLine
 10
645.247241
 20
213.875004
 30
0.0
 11
645.247241
 21
209.513886
 31
0.0
  0
LINE
  5
2AE
100
AcDbEntity
  8
M05
100
AcDbLine
 10
645.247241
 20
213.875004
 30
0.0
 11
645.947241
 21
214.575004
 31
0.0
  0
LINE
  5
2AF
100
AcDbEntity
  8
M05
100
AcDbLine
 10
639.947241
 20
214.575004
 30
0.0
 11
640.647241
 21
213.875004
 31
0.0
  0
LINE
  5
2B0
100
AcDbEntity
  8
M05
100
AcDbLine
 10
645.247241
 20
226.655004
 30
0.0
 11
645.247241
 21
213.875004
 31
0.0
  0
LINE
  5
2B1
100
AcDbEntity
  8
M05
100
AcDbLine
 10
640.647241
 20
226.655004
 30
0.0
 11
640.647241
 21
213.875004
 31
0.0
  0
LINE
  5
2B2
100
AcDbEntity
  8
M05
100
AcDbLine
 10
639.947241
 20
214.575004
 30
0.0
 11
645.947241
 21
214.575004
 31
0.0
  0
LINE
  5
2B3
100
AcDbEntity
  8
M04
100
AcDbLine
 10
639.947241
 20
211.013886
 30
0.0
 11
645.947241
 21
211.013886
 31
0.0
  0
LINE
  5
2B4
100
AcDbEntity
  8
M05
100
AcDbLine
 10
640.647241
 20
213.875004
 30
0.0
 11
645.247241
 21
213.875004
 31
0.0
  0
LINE
  5
2B5
100
AcDbEntity
  8
M05
  6
HIDDEN
100
AcDbLine
 10
634.788359
 20
233.313886
 30
0.0
 11
634.088359
 21
234.013886
 31
0.0
  0
LINE
  5
2B6
100
AcDbEntity
  8
M05
  6
HIDDEN
100
AcDbLine
 10
651.106123
 20
233.313886
 30
0.0
 11
651.806123
 21
234.013886
 31
0.0
  0
LINE
  5
2B7
100
AcDbEntity
  8
M04
100
AcDbLine
 10
645.947241
 20
226.013886
 30
0.0
 11
699.498022
 21
226.013886
 31
0.0
  0
LINE
  5
2B8
100
AcDbEntity
  8
M05
100
AcDbLine
 10
639.947241
 20
226.655004
 30
0.0
 11
645.947241
 21
226.655004
 31
0.0
  0
LINE
  5
2B9
100
AcDbEntity
  8
M05
100
AcDbLine
 10
643.497241
 20
231.155004
 30
0.0
 11
648.947241
 21
231.155004
 31
0.0
  0
LINE
  5
2BA
100
AcDbEntity
  8
M05
100
AcDbLine
 10
643.497241
 20
231.875004
 30
0.0
 11
648.947241
 21
231.875004
 31
0.0
  0
LINE
  5
2BB
100
AcDbEntity
  8
M05
100
AcDbLine
 10
643.497241
 20
231.875004
 30
0.0
 11
643.497241
 21
230.375004
 31
0.0
  0
LINE
  5
2BC
100
AcDbEntity
  8
M05
100
AcDbLine
 10
642.397241
 20
231.875004
 30
0.0
 11
642.397241
 21
230.375004
 31
0.0
  0
LINE
  5
2BD
100
AcDbEntity
  8
M05
100
AcDbLine
 10
642.397241
 20
230.375004
 30
0.0
 11
643.497241
 21
230.375004
 31
0.0
  0
LINE
  5
2BE
100
AcDbEntity
  8
M05
100
AcDbLine
 10
646.447241
 20
228.655004
 30
0.0
 11
646.447241
 21
226.013886
 31
0.0
  0
LINE
  5
2BF
100
AcDbEntity
  8
M05
100
AcDbLine
 10
639.447241
 20
228.655004
 30
0.0
 11
639.447241
 21
226.013886
 31
0.0
  0
LINE
  5
2C0
100
AcDbEntity
  8
M05
100
AcDbLine
 10
636.947241
 20
231.155004
 30
0.0
 11
642.397241
 21
231.155004
 31
0.0
  0
LINE
  5
2C1
100
AcDbEntity
  8
M05
100
AcDbLine
 10
639.947241
 20
228.155004
 30
0.0
 11
634.788359
 21
233.313886
 31
0.0
  0
LINE
  5
2C2
100
AcDbEntity
  8
M05
100
AcDbLine
 10
636.947241
 20
231.875004
 30
0.0
 11
636.947241
 21
231.155004
 31
0.0
  0
LINE
  5
2C3
100
AcDbEntity
  8
M05
100
AcDbLine
 10
645.947241
 20
228.155004
 30
0.0
 11
651.106123
 21
233.313886
 31
0.0
  0
LINE
  5
2C4
100
AcDbEntity
  8
M05
100
AcDbLine
 10
639.947241
 20
228.155004
 30
0.0
 11
645.947241
 21
228.155004
 31
0.0
  0
LINE
  5
2C5
100
AcDbEntity
  8
M05
100
AcDbLine
 10
639.947241
 20
228.155004
 30
0.0
 11
639.947241
 21
214.575004
 31
0.0
  0
LINE
  5
2C6
100
AcDbEntity
  8
M05
100
AcDbLine
 10
645.947241
 20
228.155004
 30
0.0
 11
645.947241
 21
214.575004
 31
0.0
  0
LINE
  5
2C7
100
AcDbEntity
  8
M05
100
AcDbLine
 10
648.947241
 20
231.875004
 30
0.0
 11
648.947241
 21
231.155004
 31
0.0
  0
LINE
  5
2C8
100
AcDbEntity
  8
M05
100
AcDbLine
 10
636.947241
 20
231.875004
 30
0.0
 11
642.397241
 21
231.875004
 31
0.0
  0
HATCH
  5
2C9
100
AcDbEntity
  8
HATCH
100
AcDbHatch
 10
0.0
 20
0.0
 30
0.0
210
0.0
220
0.0
230
1.0
  2
_U
 70
     0
 71
     1
 91
        1
 92
        7
 72
     0
 73
     1
 93
        4
 10
848.3601080691217
 20
506.5592260810631
 10
845.3601080691216
 20
506.5592260810631
 10
845.3601080691218
 20
467.5592260810632
 10
848.3601080691217
 20
467.5592260810631
 97
        4
330
482
330
490
330
432
330
484
 75
     0
 76
     0
 52
135.0
 41
0.8
 77
     0
 78
     1
 53
135.0
 43
23.770001
 44
0.0
 45
-0.5656854249492382
 46
-0.565685424949238
 79
     0
 47
0.167139
 98
        1
 10
847.255151
 20
494.836786
  0
LINE
  5
2CA
100
AcDbEntity
  8
DIMS
 62
     4
100
AcDbLine
 10
558.847241
 20
503.059226
 30
0.0
 11
561.147241
 21
503.059226
 31
0.0
  0
LINE
  5
2CB
100
AcDbEntity
  8
DIMS
 62
     4
100
AcDbLine
 10
552.047241
 20
503.059226
 30
0.0
 11
549.747241
 21
503.059226
 31
0.0
  0
LINE
  5
2CC
100
AcDbEntity
  8
DIMS
 62
     4
100
AcDbLine
 10
553.747241
 20
503.059226
 30
0.0
 11
557.147241
 21
503.059226
 31
0.0
  0
DIMENSION
  5
2CD
100
AcDbEntity
  8
DIMS
100
AcDbDimension
  2
*D5
 10
704.704196
 20
464.559226
 30
0.0
 11
689.204196
 21
432.559226
 31
0.0
 12
12.5
 22
0.0
 32
0.0
  1
W=<>
  3
DIM1
100
AcDbAlignedDimension
 13
662.947241
 23
400.559226
 33
0.0
 14
662.947241
 24
464.559226
 34
0.0
 50
90.0
100
AcDbRotatedDimension
1001
ACAD
1000
DSTYLE
1002
{
1070
   144
1040
1.0
1002
}
  0
DIMENSION
  5
2DA
100
AcDbEntity
  8
DIMS
100
AcDbDimension
  2
*D6
 10
674.947241
 20
340.196619
 30
0.0
 11
555.447241
 21
343.196619
 31
0.0
  1
L=<>
  3
DIM1
100
AcDbAlignedDimension
 13
435.947241
 23
412.559226
 33
0.0
 14
674.947241
 24
412.559226
 34
0.0
100
AcDbRotatedDimension
1001
ACAD
1000
DSTYLE
1002
{
1070
   144
1040
1.0
1002
}
  0
DIMENSION
  5
2E7
100
AcDbEntity
  8
DIMS
100
AcDbDimension
  2
*D7
 10
642.947241
 20
349.972053
 30
0.0
 11
555.447241
 21
349.972053
 31
0.0
 70
   128
  1
A=<>
  3
DIM1
100
AcDbAlignedDimension
 13
467.947241
 23
415.860422
 33
0.0
 14
642.947241
 24
415.846007
 34
0.0
100
AcDbRotatedDimension
1001
ACAD
1000
DSTYLE
1002
{
1070
   144
1040
1.0
1002
}
  0
DIMENSION
  5
2F4
100
AcDbEntity
  8
DIMS
100
AcDbDimension
  2
*D8
 10
555.447241
 20
360.026785
 30
0.0
 11
511.508111
 21
360.026785
 31
0.0
 70
   128
  1
A/2=<>
  3
DIM1
100
AcDbAlignedDimension
 13
467.947241
 23
415.860422
 33
0.0
 14
555.447241
 24
385.559226
 34
0.0
100
AcDbRotatedDimension
1001
ACAD
1000
DSTYLE
1002
{
1070
   144
1040
1.0
1002
}
  0
LINE
  5
301
100
AcDbEntity
  8
M01
100
AcDbLine
 10
836.329019
 20
550.459226
 30
0.0
 11
842.391197
 21
550.459226
 31
0.0
  0
ARC
  5
302
100
AcDbEntity
  8
M01
100
AcDbCircle
 10
842.391197
 20
548.609921
 30
0.0
 40
1.150694
100
AcDbArc
 50
208.592423
 51
331.407577
  0
ARC
  5
303
100
AcDbEntity
  8
M01
100
AcDbCircle
 10
839.360108
 20
551.162004
 30
0.0
 40
3.702778
100
AcDbArc
 50
236.92527
 51
303.07473
  0
ARC
  5
304
100
AcDbEntity
  8
M01
100
AcDbCircle
 10
836.329019
 20
548.609921
 30
0.0
 40
1.150694
100
AcDbArc
 50
208.592423
 51
331.407577
  0
ARC
  5
305
100
AcDbEntity
  8
M01
100
AcDbCircle
 10
842.391197
 20
549.308532
 30
0.0
 40
1.150694
100
AcDbArc
 50
28.592423
 51
151.407577
  0
ARC
  5
306
100
AcDbEntity
  8
M01
100
AcDbCircle
 10
839.360108
 20
546.756448
 30
0.0
 40
3.702778
100
AcDbArc
 50
56.92527
 51
123.07473
  0
LINE
  5
307
100
AcDbEntity
  8
M01
100
AcDbLine
 10
841.380834
 20
549.859226
 30
0.0
 11
841.380834
 21
548.059226
 31
0.0
  0
LINE
  5
308
100
AcDbEntity
  8
M01
100
AcDbLine
 10
843.40156
 20
549.859226
 30
0.0
 11
843.40156
 21
548.059226
 31
0.0
  0
ARC
  5
309
100
AcDbEntity
  8
M01
100
AcDbCircle
 10
836.329019
 20
549.308532
 30
0.0
 40
1.150694
100
AcDbArc
 50
28.592423
 51
151.407577
  0
LINE
  5
30A
100
AcDbEntity
  8
M01
100
AcDbLine
 10
837.339382
 20
549.859226
 30
0.0
 11
837.339382
 21
548.059226
 31
0.0
  0
LINE
  5
30B
100
AcDbEntity
  8
M01
100
AcDbLine
 10
835.318656
 20
549.859226
 30
0.0
 11
835.318656
 21
548.059226
 31
0.0
  0
LINE
  5
30C
100
AcDbEntity
  8
M01
100
AcDbLine
 10
844.360108
 20
545.159226
 30
0.0
 11
844.360108
 21
546.659226
 31
0.0
  0
LINE
  5
30D
100
AcDbEntity
  8
M01
100
AcDbLine
 10
834.360108
 20
545.159226
 30
0.0
 11
834.360108
 21
546.659226
 31
0.0
  0
LINE
  5
30E
100
AcDbEntity
  8
M01
100
AcDbLine
 10
843.860108
 20
546.659226
 30
0.0
 11
843.860108
 21
547.459226
 31
0.0
  0
LINE
  5
30F
100
AcDbEntity
  8
M01
100
AcDbLine
 10
834.860108
 20
546.659226
 30
0.0
 11
834.860108
 21
547.459226
 31
0.0
  0
LINE
  5
310
100
AcDbEntity
  8
M01
100
AcDbLine
 10
834.860108
 20
547.459226
 30
0.0
 11
843.860108
 21
547.459226
 31
0.0
  0
LINE
  5
311
100
AcDbEntity
  8
M01
100
AcDbLine
 10
834.360108
 20
546.659226
 30
0.0
 11
844.360108
 21
546.659226
 31
0.0
  0
LINE
  5
312
100
AcDbEntity
  8
M01
100
AcDbLine
 10
843.860108
 20
544.359226
 30
0.0
 11
843.860108
 21
545.159226
 31
0.0
  0
LINE
  5
313
100
AcDbEntity
  8
M01
100
AcDbLine
 10
834.860108
 20
544.359226
 30
0.0
 11
834.860108
 21
545.159226
 31
0.0
  0
LINE
  5
314
100
AcDbEntity
  8
M01
100
AcDbLine
 10
829.360108
 20
545.159226
 30
0.0
 11
844.360108
 21
545.159226
 31
0.0
  0
ARC
  5
315
100
AcDbEntity
  8
M01
100
AcDbCircle
 10
842.391197
 20
542.509921
 30
0.0
 40
1.150694
100
AcDbArc
 50
208.592423
 51
331.407577
  0
ARC
  5
316
100
AcDbEntity
  8
M01
100
AcDbCircle
 10
839.360108
 20
545.062004
 30
0.0
 40
3.702778
100
AcDbArc
 50
236.92527
 51
303.07473
  0
ARC
  5
317
100
AcDbEntity
  8
M01
100
AcDbCircle
 10
836.329019
 20
542.509921
 30
0.0
 40
1.150694
100
AcDbArc
 50
208.592423
 51
331.407577
  0
ARC
  5
318
100
AcDbEntity
  8
M01
100
AcDbCircle
 10
842.391197
 20
543.208532
 30
0.0
 40
1.150694
100
AcDbArc
 50
28.592423
 51
151.407577
  0
ARC
  5
319
100
AcDbEntity
  8
M01
100
AcDbCircle
 10
839.360108
 20
540.656448
 30
0.0
 40
3.702778
100
AcDbArc
 50
56.92527
 51
123.07473
  0
LINE
  5
31A
100
AcDbEntity
  8
M01
100
AcDbLine
 10
841.380834
 20
543.759226
 30
0.0
 11
841.380834
 21
541.959226
 31
0.0
  0
LINE
  5
31B
100
AcDbEntity
  8
M01
100
AcDbLine
 10
843.40156
 20
543.759226
 30
0.0
 11
843.40156
 21
541.959226
 31
0.0
  0
ARC
  5
31C
100
AcDbEntity
  8
M01
100
AcDbCircle
 10
836.329019
 20
543.208532
 30
0.0
 40
1.150694
100
AcDbArc
 50
28.592423
 51
151.407577
  0
LINE
  5
31D
100
AcDbEntity
  8
M01
100
AcDbLine
 10
837.339382
 20
543.759226
 30
0.0
 11
837.339382
 21
541.959226
 31
0.0
  0
LINE
  5
31E
100
AcDbEntity
  8
M01
100
AcDbLine
 10
835.318656
 20
543.759226
 30
0.0
 11
835.318656
 21
541.959226
 31
0.0
  0
LINE
  5
31F
100
AcDbEntity
  8
M01
100
AcDbLine
 10
834.860108
 20
544.359226
 30
0.0
 11
843.860108
 21
544.359226
 31
0.0
  0
LINE
  5
320
100
AcDbEntity
  8
M01
100
AcDbLine
 10
834.860108
 20
541.359226
 30
0.0
 11
843.860108
 21
541.359226
 31
0.0
  0
LINE
  5
321
100
AcDbEntity
  8
M01
100
AcDbLine
 10
834.860108
 20
540.559226
 30
0.0
 11
843.860108
 21
540.559226
 31
0.0
  0
LINE
  5
322
100
AcDbEntity
  8
M01
100
AcDbLine
 10
840.860108
 20
553.559226
 30
0.0
 11
841.360108
 21
553.059226
 31
0.0
  0
LINE
  5
323
100
AcDbEntity
  8
M01
100
AcDbLine
 10
837.360108
 20
553.059226
 30
0.0
 11
837.860108
 21
553.559226
 31
0.0
  0
LINE
  5
324
100
AcDbEntity
  8
M01
100
AcDbLine
 10
837.360108
 20
553.059226
 30
0.0
 11
841.360108
 21
553.059226
 31
0.0
  0
LINE
  5
325
100
AcDbEntity
  8
M01
100
AcDbLine
 10
840.860108
 20
553.559226
 30
0.0
 11
840.860108
 21
550.459226
 31
0.0
  0
LINE
  5
326
100
AcDbEntity
  8
M01
100
AcDbLine
 10
837.860108
 20
553.559226
 30
0.0
 11
837.860108
 21
550.459226
 31
0.0
  0
LINE
  5
327
100
AcDbEntity
  8
M01
100
AcDbLine
 10
837.360108
 20
553.059226
 30
0.0
 11
837.360108
 21
550.459226
 31
0.0
  0
LINE
  5
328
100
AcDbEntity
  8
M01
100
AcDbLine
 10
841.360108
 20
553.059226
 30
0.0
 11
841.360108
 21
550.459226
 31
0.0
  0
LINE
  5
329
100
AcDbEntity
  8
M01
100
AcDbLine
 10
837.860108
 20
553.559226
 30
0.0
 11
840.860108
 21
553.559226
 31
0.0
  0
LINE
  5
32A
100
AcDbEntity
  8
M01
100
AcDbLine
 10
834.360108
 20
528.559226
 30
0.0
 11
844.360108
 21
528.559226
 31
0.0
  0
LINE
  5
32B
100
AcDbEntity
  8
M01
100
AcDbLine
 10
843.860108
 20
541.359226
 30
0.0
 11
843.860108
 21
540.559226
 31
0.0
  0
LINE
  5
32C
100
AcDbEntity
  8
M01
100
AcDbLine
 10
834.860108
 20
541.359226
 30
0.0
 11
834.860108
 21
540.559226
 31
0.0
  0
LINE
  5
32D
100
AcDbEntity
  8
CENTRE
100
AcDbLine
 10
839.360108
 20
559.720115
 30
0.0
 11
839.360108
 21
496.126684
 31
0.0
  0
LINE
  5
32E
100
AcDbEntity
  8
M01
100
AcDbLine
 10
807.391197
 20
550.459226
 30
0.0
 11
801.329019
 21
550.459226
 31
0.0
  0
ARC
  5
32F
100
AcDbEntity
  8
M01
100
AcDbCircle
 10
801.329019
 20
548.609921
 30
0.0
 40
1.150694
100
AcDbArc
 50
208.592423
 51
331.407577
  0
ARC
  5
330
100
AcDbEntity
  8
M01
100
AcDbCircle
 10
804.360108
 20
551.162004
 30
0.0
 40
3.702778
100
AcDbArc
 50
236.92527
 51
303.07473
  0
ARC
  5
331
100
AcDbEntity
  8
M01
100
AcDbCircle
 10
807.391197
 20
548.609921
 30
0.0
 40
1.150694
100
AcDbArc
 50
208.592423
 51
331.407577
  0
ARC
  5
332
100
AcDbEntity
  8
M01
100
AcDbCircle
 10
801.329019
 20
549.308532
 30
0.0
 40
1.150694
100
AcDbArc
 50
28.592423
 51
151.407577
  0
ARC
  5
333
100
AcDbEntity
  8
M01
100
AcDbCircle
 10
804.360108
 20
546.756448
 30
0.0
 40
3.702778
100
AcDbArc
 50
56.92527
 51
123.07473
  0
LINE
  5
334
100
AcDbEntity
  8
M01
100
AcDbLine
 10
802.339382
 20
549.859226
 30
0.0
 11
802.339382
 21
548.059226
 31
0.0
  0
LINE
  5
335
100
AcDbEntity
  8
M01
100
AcDbLine
 10
800.318656
 20
549.859226
 30
0.0
 11
800.318656
 21
548.059226
 31
0.0
  0
ARC
  5
336
100
AcDbEntity
  8
M01
100
AcDbCircle
 10
807.391197
 20
549.308532
 30
0.0
 40
1.150694
100
AcDbArc
 50
28.592423
 51
151.407577
  0
LINE
  5
337
100
AcDbEntity
  8
M01
100
AcDbLine
 10
806.380834
 20
549.859226
 30
0.0
 11
806.380834
 21
548.059226
 31
0.0
  0
LINE
  5
338
100
AcDbEntity
  8
M01
100
AcDbLine
 10
808.40156
 20
549.859226
 30
0.0
 11
808.40156
 21
548.059226
 31
0.0
  0
LINE
  5
339
100
AcDbEntity
  8
M01
100
AcDbLine
 10
799.360108
 20
545.159226
 30
0.0
 11
799.360108
 21
546.659226
 31
0.0
  0
LINE
  5
33A
100
AcDbEntity
  8
M01
100
AcDbLine
 10
799.860108
 20
546.659226
 30
0.0
 11
799.860108
 21
547.459226
 31
0.0
  0
LINE
  5
33B
100
AcDbEntity
  8
M01
100
AcDbLine
 10
808.860108
 20
546.659226
 30
0.0
 11
808.860108
 21
547.459226
 31
0.0
  0
LINE
  5
33C
100
AcDbEntity
  8
M01
100
AcDbLine
 10
808.860108
 20
547.459226
 30
0.0
 11
799.860108
 21
547.459226
 31
0.0
  0
LINE
  5
33D
100
AcDbEntity
  8
M01
100
AcDbLine
 10
809.360108
 20
546.659226
 30
0.0
 11
799.360108
 21
546.659226
 31
0.0
  0
LINE
  5
33E
100
AcDbEntity
  8
M01
100
AcDbLine
 10
799.860108
 20
544.359226
 30
0.0
 11
799.860108
 21
545.159226
 31
0.0
  0
LINE
  5
33F
100
AcDbEntity
  8
M01
100
AcDbLine
 10
808.860108
 20
544.359226
 30
0.0
 11
808.860108
 21
545.159226
 31
0.0
  0
ARC
  5
340
100
AcDbEntity
  8
M01
100
AcDbCircle
 10
801.329019
 20
542.509921
 30
0.0
 40
1.150694
100
AcDbArc
 50
208.592423
 51
331.407577
  0
ARC
  5
341
100
AcDbEntity
  8
M01
100
AcDbCircle
 10
804.360108
 20
545.062004
 30
0.0
 40
3.702778
100
AcDbArc
 50
236.92527
 51
303.07473
  0
ARC
  5
342
100
AcDbEntity
  8
M01
100
AcDbCircle
 10
807.391197
 20
542.509921
 30
0.0
 40
1.150694
100
AcDbArc
 50
208.592423
 51
331.407577
  0
ARC
  5
343
100
AcDbEntity
  8
M01
100
AcDbCircle
 10
801.329019
 20
543.208532
 30
0.0
 40
1.150694
100
AcDbArc
 50
28.592423
 51
151.407577
  0
ARC
  5
344
100
AcDbEntity
  8
M01
100
AcDbCircle
 10
804.360108
 20
540.656448
 30
0.0
 40
3.702778
100
AcDbArc
 50
56.92527
 51
123.07473
  0
LINE
  5
345
100
AcDbEntity
  8
M01
100
AcDbLine
 10
802.339382
 20
543.759226
 30
0.0
 11
802.339382
 21
541.959226
 31
0.0
  0
LINE
  5
346
100
AcDbEntity
  8
M01
100
AcDbLine
 10
800.318656
 20
543.759226
 30
0.0
 11
800.318656
 21
541.959226
 31
0.0
  0
ARC
  5
347
100
AcDbEntity
  8
M01
100
AcDbCircle
 10
807.391197
 20
543.208532
 30
0.0
 40
1.150694
100
AcDbArc
 50
28.592423
 51
151.407577
  0
LINE
  5
348
100
AcDbEntity
  8
M01
100
AcDbLine
 10
806.380834
 20
543.759226
 30
0.0
 11
806.380834
 21
541.959226
 31
0.0
  0
LINE
  5
349
100
AcDbEntity
  8
M01
100
AcDbLine
 10
808.40156
 20
543.759226
 30
0.0
 11
808.40156
 21
541.959226
 31
0.0
  0
LINE
  5
34A
100
AcDbEntity
  8
M01
100
AcDbLine
 10
808.860108
 20
544.359226
 30
0.0
 11
799.860108
 21
544.359226
 31
0.0
  0
LINE
  5
34B
100
AcDbEntity
  8
M01
100
AcDbLine
 10
808.860108
 20
541.359226
 30
0.0
 11
799.860108
 21
541.359226
 31
0.0
  0
LINE
  5
34C
100
AcDbEntity
  8
M01
100
AcDbLine
 10
808.860108
 20
540.559226
 30
0.0
 11
799.860108
 21
540.559226
 31
0.0
  0
LINE
  5
34D
100
AcDbEntity
  8
M01
100
AcDbLine
 10
802.860108
 20
553.559226
 30
0.0
 11
802.360108
 21
553.059226
 31
0.0
  0
LINE
  5
34E
100
AcDbEntity
  8
M01
100
AcDbLine
 10
806.360108
 20
553.059226
 30
0.0
 11
805.860108
 21
553.559226
 31
0.0
  0
LINE
  5
34F
100
AcDbEntity
  8
M01
100
AcDbLine
 10
806.360108
 20
553.059226
 30
0.0
 11
802.360108
 21
553.059226
 31
0.0
  0
LINE
  5
350
100
AcDbEntity
  8
M01
100
AcDbLine
 10
802.860108
 20
553.559226
 30
0.0
 11
802.860108
 21
550.459226
 31
0.0
  0
LINE
  5
351
100
AcDbEntity
  8
M01
100
AcDbLine
 10
805.860108
 20
553.559226
 30
0.0
 11
805.860108
 21
550.459226
 31
0.0
  0
LINE
  5
352
100
AcDbEntity
  8
M01
100
AcDbLine
 10
806.360108
 20
553.059226
 30
0.0
 11
806.360108
 21
550.459226
 31
0.0
  0
LINE
  5
353
100
AcDbEntity
  8
M01
100
AcDbLine
 10
802.360108
 20
553.059226
 30
0.0
 11
802.360108
 21
550.459226
 31
0.0
  0
LINE
  5
354
100
AcDbEntity
  8
M01
100
AcDbLine
 10
805.860108
 20
553.559226
 30
0.0
 11
802.860108
 21
553.559226
 31
0.0
  0
LINE
  5
355
100
AcDbEntity
  8
M01
100
AcDbLine
 10
809.360108
 20
528.559226
 30
0.0
 11
799.360108
 21
528.559226
 31
0.0
  0
LINE
  5
356
100
AcDbEntity
  8
M01
100
AcDbLine
 10
799.860108
 20
541.359226
 30
0.0
 11
799.860108
 21
540.559226
 31
0.0
  0
LINE
  5
357
100
AcDbEntity
  8
M01
100
AcDbLine
 10
808.860108
 20
541.359226
 30
0.0
 11
808.860108
 21
540.559226
 31
0.0
  0
LINE
  5
358
100
AcDbEntity
  8
CENTRE
100
AcDbLine
 10
804.360108
 20
559.720115
 30
0.0
 11
804.360108
 21
496.126684
 31
0.0
  0
LINE
  5
359
100
AcDbEntity
  8
M01
100
AcDbLine
 10
570.478329
 20
550.459226
 30
0.0
 11
564.416152
 21
550.459226
 31
0.0
  0
ARC
  5
35A
100
AcDbEntity
  8
M01
100
AcDbCircle
 10
564.416152
 20
548.609921
 30
0.0
 40
1.150694
100
AcDbArc
 50
208.592423
 51
331.407577
  0
ARC
  5
35B
100
AcDbEntity
  8
M01
100
AcDbCircle
 10
567.447241
 20
551.162004
 30
0.0
 40
3.702778
100
AcDbArc
 50
236.92527
 51
303.07473
  0
ARC
  5
35C
100
AcDbEntity
  8
M01
100
AcDbCircle
 10
570.478329
 20
548.609921
 30
0.0
 40
1.150694
100
AcDbArc
 50
208.592423
 51
331.407577
  0
ARC
  5
35D
100
AcDbEntity
  8
M01
100
AcDbCircle
 10
564.416152
 20
549.308532
 30
0.0
 40
1.150694
100
AcDbArc
 50
28.592423
 51
151.407577
  0
ARC
  5
35E
100
AcDbEntity
  8
M01
100
AcDbCircle
 10
567.447241
 20
546.756448
 30
0.0
 40
3.702778
100
AcDbArc
 50
56.92527
 51
123.07473
  0
LINE
  5
35F
100
AcDbEntity
  8
M01
100
AcDbLine
 10
565.426515
 20
549.859226
 30
0.0
 11
565.426515
 21
548.059226
 31
0.0
  0
LINE
  5
360
100
AcDbEntity
  8
M01
100
AcDbLine
 10
563.405789
 20
549.859226
 30
0.0
 11
563.405789
 21
548.059226
 31
0.0
  0
ARC
  5
361
100
AcDbEntity
  8
M01
100
AcDbCircle
 10
570.478329
 20
549.308532
 30
0.0
 40
1.150694
100
AcDbArc
 50
28.592423
 51
151.407577
  0
LINE
  5
362
100
AcDbEntity
  8
M01
100
AcDbLine
 10
569.467967
 20
549.859226
 30
0.0
 11
569.467967
 21
548.059226
 31
0.0
  0
LINE
  5
363
100
AcDbEntity
  8
M01
100
AcDbLine
 10
571.488692
 20
549.859226
 30
0.0
 11
571.488692
 21
548.059226
 31
0.0
  0
LINE
  5
364
100
AcDbEntity
  8
M01
100
AcDbLine
 10
562.447241
 20
545.159226
 30
0.0
 11
562.447241
 21
546.659226
 31
0.0
  0
LINE
  5
365
100
AcDbEntity
  8
M01
100
AcDbLine
 10
572.447241
 20
545.159226
 30
0.0
 11
572.447241
 21
546.659226
 31
0.0
  0
LINE
  5
366
100
AcDbEntity
  8
M01
100
AcDbLine
 10
562.947241
 20
546.659226
 30
0.0
 11
562.947241
 21
547.459226
 31
0.0
  0
LINE
  5
367
100
AcDbEntity
  8
M01
100
AcDbLine
 10
571.947241
 20
546.659226
 30
0.0
 11
571.947241
 21
547.459226
 31
0.0
  0
LINE
  5
368
100
AcDbEntity
  8
M01
100
AcDbLine
 10
571.947241
 20
547.459226
 30
0.0
 11
562.947241
 21
547.459226
 31
0.0
  0
LINE
  5
369
100
AcDbEntity
  8
M01
100
AcDbLine
 10
572.447241
 20
546.659226
 30
0.0
 11
562.447241
 21
546.659226
 31
0.0
  0
LINE
  5
36A
100
AcDbEntity
  8
M01
100
AcDbLine
 10
562.947241
 20
544.359226
 30
0.0
 11
562.947241
 21
545.159226
 31
0.0
  0
LINE
  5
36B
100
AcDbEntity
  8
M01
100
AcDbLine
 10
571.947241
 20
544.359226
 30
0.0
 11
571.947241
 21
545.159226
 31
0.0
  0
LINE
  5
36C
100
AcDbEntity
  8
M01
100
AcDbLine
 10
572.447241
 20
545.159226
 30
0.0
 11
562.447241
 21
545.159226
 31
0.0
  0
ARC
  5
36D
100
AcDbEntity
  8
M01
100
AcDbCircle
 10
564.416152
 20
542.509921
 30
0.0
 40
1.150694
100
AcDbArc
 50
208.592423
 51
331.407577
  0
ARC
  5
36E
100
AcDbEntity
  8
M01
100
AcDbCircle
 10
567.447241
 20
545.062004
 30
0.0
 40
3.702778
100
AcDbArc
 50
236.92527
 51
303.07473
  0
ARC
  5
36F
100
AcDbEntity
  8
M01
100
AcDbCircle
 10
570.478329
 20
542.509921
 30
0.0
 40
1.150694
100
AcDbArc
 50
208.592423
 51
331.407577
  0
ARC
  5
370
100
AcDbEntity
  8
M01
100
AcDbCircle
 10
564.416152
 20
543.208532
 30
0.0
 40
1.150694
100
AcDbArc
 50
28.592423
 51
151.407577
  0
ARC
  5
371
100
AcDbEntity
  8
M01
100
AcDbCircle
 10
567.447241
 20
540.656448
 30
0.0
 40
3.702778
100
AcDbArc
 50
56.92527
 51
123.07473
  0
LINE
  5
372
100
AcDbEntity
  8
M01
100
AcDbLine
 10
565.426515
 20
543.759226
 30
0.0
 11
565.426515
 21
541.959226
 31
0.0
  0
LINE
  5
373
100
AcDbEntity
  8
M01
100
AcDbLine
 10
563.405789
 20
543.759226
 30
0.0
 11
563.405789
 21
541.959226
 31
0.0
  0
ARC
  5
374
100
AcDbEntity
  8
M01
100
AcDbCircle
 10
570.478329
 20
543.208532
 30
0.0
 40
1.150694
100
AcDbArc
 50
28.592423
 51
151.407577
  0
LINE
  5
375
100
AcDbEntity
  8
M01
100
AcDbLine
 10
569.467967
 20
543.759226
 30
0.0
 11
569.467967
 21
541.959226
 31
0.0
  0
LINE
  5
376
100
AcDbEntity
  8
M01
100
AcDbLine
 10
571.488692
 20
543.759226
 30
0.0
 11
571.488692
 21
541.959226
 31
0.0
  0
LINE
  5
377
100
AcDbEntity
  8
M01
100
AcDbLine
 10
571.947241
 20
544.359226
 30
0.0
 11
562.947241
 21
544.359226
 31
0.0
  0
LINE
  5
378
100
AcDbEntity
  8
M01
100
AcDbLine
 10
571.947241
 20
541.359226
 30
0.0
 11
562.947241
 21
541.359226
 31
0.0
  0
LINE
  5
379
100
AcDbEntity
  8
M01
100
AcDbLine
 10
565.947241
 20
553.559226
 30
0.0
 11
565.447241
 21
553.059226
 31
0.0
  0
LINE
  5
37A
100
AcDbEntity
  8
M01
100
AcDbLine
 10
569.447241
 20
553.059226
 30
0.0
 11
568.947241
 21
553.559226
 31
0.0
  0
LINE
  5
37B
100
AcDbEntity
  8
M01
100
AcDbLine
 10
569.447241
 20
553.059226
 30
0.0
 11
565.447241
 21
553.059226
 31
0.0
  0
LINE
  5
37C
100
AcDbEntity
  8
M01
100
AcDbLine
 10
565.947241
 20
553.559226
 30
0.0
 11
565.947241
 21
550.459226
 31
0.0
  0
LINE
  5
37D
100
AcDbEntity
  8
M01
100
AcDbLine
 10
568.947241
 20
553.559226
 30
0.0
 11
568.947241
 21
550.459226
 31
0.0
  0
LINE
  5
37E
100
AcDbEntity
  8
M01
100
AcDbLine
 10
569.447241
 20
553.059226
 30
0.0
 11
569.447241
 21
550.459226
 31
0.0
  0
LINE
  5
37F
100
AcDbEntity
  8
M01
100
AcDbLine
 10
565.447241
 20
553.059226
 30
0.0
 11
565.447241
 21
550.459226
 31
0.0
  0
LINE
  5
380
100
AcDbEntity
  8
M01
100
AcDbLine
 10
568.947241
 20
553.559226
 30
0.0
 11
565.947241
 21
553.559226
 31
0.0
  0
LINE
  5
381
100
AcDbEntity
  8
M01
100
AcDbLine
 10
572.447241
 20
528.559226
 30
0.0
 11
562.447241
 21
528.559226
 31
0.0
  0
LINE
  5
382
100
AcDbEntity
  8
CENTRE
100
AcDbLine
 10
567.447241
 20
559.720115
 30
0.0
 11
567.447241
 21
496.126684
 31
0.0
  0
LINE
  5
383
100
AcDbEntity
  8
M01
100
AcDbLine
 10
540.416152
 20
550.459226
 30
0.0
 11
546.478329
 21
550.459226
 31
0.0
  0
ARC
  5
384
100
AcDbEntity
  8
M01
100
AcDbCircle
 10
546.478329
 20
548.609921
 30
0.0
 40
1.150694
100
AcDbArc
 50
208.592423
 51
331.407577
  0
ARC
  5
385
100
AcDbEntity
  8
M01
100
AcDbCircle
 10
543.447241
 20
551.162004
 30
0.0
 40
3.702778
100
AcDbArc
 50
236.92527
 51
303.07473
  0
ARC
  5
386
100
AcDbEntity
  8
M01
100
AcDbCircle
 10
540.416152
 20
548.609921
 30
0.0
 40
1.150694
100
AcDbArc
 50
208.592423
 51
331.407577
  0
ARC
  5
387
100
AcDbEntity
  8
M01
100
AcDbCircle
 10
546.478329
 20
549.308532
 30
0.0
 40
1.150694
100
AcDbArc
 50
28.592423
 51
151.407577
  0
ARC
  5
388
100
AcDbEntity
  8
M01
100
AcDbCircle
 10
543.447241
 20
546.756448
 30
0.0
 40
3.702778
100
AcDbArc
 50
56.92527
 51
123.07473
  0
LINE
  5
389
100
AcDbEntity
  8
M01
100
AcDbLine
 10
545.467967
 20
549.859226
 30
0.0
 11
545.467967
 21
548.059226
 31
0.0
  0
LINE
  5
38A
100
AcDbEntity
  8
M01
100
AcDbLine
 10
547.488692
 20
549.859226
 30
0.0
 11
547.488692
 21
548.059226
 31
0.0
  0
ARC
  5
38B
100
AcDbEntity
  8
M01
100
AcDbCircle
 10
540.416152
 20
549.308532
 30
0.0
 40
1.150694
100
AcDbArc
 50
28.592423
 51
151.407577
  0
LINE
  5
38C
100
AcDbEntity
  8
M01
100
AcDbLine
 10
541.426515
 20
549.859226
 30
0.0
 11
541.426515
 21
548.059226
 31
0.0
  0
LINE
  5
38D
100
AcDbEntity
  8
M01
100
AcDbLine
 10
539.405789
 20
549.859226
 30
0.0
 11
539.405789
 21
548.059226
 31
0.0
  0
LINE
  5
38E
100
AcDbEntity
  8
M01
100
AcDbLine
 10
548.447241
 20
545.159226
 30
0.0
 11
548.447241
 21
546.659226
 31
0.0
  0
LINE
  5
38F
100
AcDbEntity
  8
M01
100
AcDbLine
 10
538.447241
 20
545.159226
 30
0.0
 11
538.447241
 21
546.659226
 31
0.0
  0
LINE
  5
390
100
AcDbEntity
  8
M01
100
AcDbLine
 10
547.947241
 20
546.659226
 30
0.0
 11
547.947241
 21
547.459226
 31
0.0
  0
LINE
  5
391
100
AcDbEntity
  8
M01
100
AcDbLine
 10
538.947241
 20
546.659226
 30
0.0
 11
538.947241
 21
547.459226
 31
0.0
  0
LINE
  5
392
100
AcDbEntity
  8
M01
100
AcDbLine
 10
538.947241
 20
547.459226
 30
0.0
 11
547.947241
 21
547.459226
 31
0.0
  0
LINE
  5
393
100
AcDbEntity
  8
M01
100
AcDbLine
 10
538.447241
 20
546.659226
 30
0.0
 11
548.447241
 21
546.659226
 31
0.0
  0
LINE
  5
394
100
AcDbEntity
  8
M01
100
AcDbLine
 10
547.947241
 20
544.359226
 30
0.0
 11
547.947241
 21
545.159226
 31
0.0
  0
LINE
  5
395
100
AcDbEntity
  8
M01
100
AcDbLine
 10
538.947241
 20
544.359226
 30
0.0
 11
538.947241
 21
545.159226
 31
0.0
  0
LINE
  5
396
100
AcDbEntity
  8
M01
100
AcDbLine
 10
538.447241
 20
545.159226
 30
0.0
 11
548.447241
 21
545.159226
 31
0.0
  0
ARC
  5
397
100
AcDbEntity
  8
M01
100
AcDbCircle
 10
546.478329
 20
542.509921
 30
0.0
 40
1.150694
100
AcDbArc
 50
208.592423
 51
331.407577
  0
ARC
  5
398
100
AcDbEntity
  8
M01
100
AcDbCircle
 10
543.447241
 20
545.062004
 30
0.0
 40
3.702778
100
AcDbArc
 50
236.92527
 51
303.07473
  0
ARC
  5
399
100
AcDbEntity
  8
M01
100
AcDbCircle
 10
540.416152
 20
542.509921
 30
0.0
 40
1.150694
100
AcDbArc
 50
208.592423
 51
331.407577
  0
ARC
  5
39A
100
AcDbEntity
  8
M01
100
AcDbCircle
 10
546.478329
 20
543.208532
 30
0.0
 40
1.150694
100
AcDbArc
 50
28.592423
 51
151.407577
  0
ARC
  5
39B
100
AcDbEntity
  8
M01
100
AcDbCircle
 10
543.447241
 20
540.656448
 30
0.0
 40
3.702778
100
AcDbArc
 50
56.92527
 51
123.07473
  0
LINE
  5
39C
100
AcDbEntity
  8
M01
100
AcDbLine
 10
545.467967
 20
543.759226
 30
0.0
 11
545.467967
 21
541.959226
 31
0.0
  0
LINE
  5
39D
100
AcDbEntity
  8
M01
100
AcDbLine
 10
547.488692
 20
543.759226
 30
0.0
 11
547.488692
 21
541.959226
 31
0.0
  0
ARC
  5
39E
100
AcDbEntity
  8
M01
100
AcDbCircle
 10
540.416152
 20
543.208532
 30
0.0
 40
1.150694
100
AcDbArc
 50
28.592423
 51
151.407577
  0
LINE
  5
39F
100
AcDbEntity
  8
M01
100
AcDbLine
 10
541.426515
 20
543.759226
 30
0.0
 11
541.426515
 21
541.959226
 31
0.0
  0
LINE
  5
3A0
100
AcDbEntity
  8
M01
100
AcDbLine
 10
539.405789
 20
543.759226
 30
0.0
 11
539.405789
 21
541.959226
 31
0.0
  0
LINE
  5
3A1
100
AcDbEntity
  8
M01
100
AcDbLine
 10
538.947241
 20
544.359226
 30
0.0
 11
547.947241
 21
544.359226
 31
0.0
  0
LINE
  5
3A2
100
AcDbEntity
  8
M01
100
AcDbLine
 10
538.947241
 20
541.359226
 30
0.0
 11
547.947241
 21
541.359226
 31
0.0
  0
LINE
  5
3A3
100
AcDbEntity
  8
M01
100
AcDbLine
 10
538.947241
 20
540.559226
 30
0.0
 11
547.947241
 21
540.559226
 31
0.0
  0
LINE
  5
3A4
100
AcDbEntity
  8
M01
100
AcDbLine
 10
471.947241
 20
260.513886
 30
0.0
 11
467.947241
 21
256.513886
 31
0.0
  0
LINE
  5
3A5
100
AcDbEntity
  8
M01
100
AcDbLine
 10
551.447241
 20
252.513886
 30
0.0
 11
467.947241
 21
252.513886
 31
0.0
  0
LINE
  5
3A6
100
AcDbEntity
  8
M01
100
AcDbLine
 10
471.947241
 20
260.513886
 30
0.0
 11
471.947241
 21
280.013886
 31
0.0
  0
LINE
  5
3A7
100
AcDbEntity
  8
M01
100
AcDbLine
 10
463.947241
 20
256.513886
 30
0.0
 11
463.947241
 21
280.013886
 31
0.0
  0
ARC
  5
3A8
100
AcDbEntity
  8
M01
100
AcDbCircle
 10
467.947241
 20
256.513886
 30
0.0
 40
4.0
100
AcDbArc
 50
180.0
 51
270.0
  0
LINE
  5
3A9
100
AcDbEntity
  8
M01
100
AcDbLine
 10
551.447241
 20
252.513886
 30
0.0
 11
555.447241
 21
256.513886
 31
0.0
  0
LINE
  5
3AA
100
AcDbEntity
  8
M01
100
AcDbLine
 10
559.447241
 20
252.513886
 30
0.0
 11
555.447241
 21
256.513886
 31
0.0
  0
LINE
  5
3AB
100
AcDbEntity
  8
M01
100
AcDbLine
 10
638.947241
 20
260.513886
 30
0.0
 11
642.947241
 21
256.513886
 31
0.0
  0
LINE
  5
3AC
100
AcDbEntity
  8
M01
100
AcDbLine
 10
471.947241
 20
260.513886
 30
0.0
 11
638.947241
 21
260.513886
 31
0.0
  0
LINE
  5
3AD
100
AcDbEntity
  8
M01
100
AcDbLine
 10
559.447241
 20
252.513886
 30
0.0
 11
642.947241
 21
252.513886
 31
0.0
  0
LINE
  5
3AE
100
AcDbEntity
  8
M01
100
AcDbLine
 10
638.947241
 20
260.513886
 30
0.0
 11
638.947241
 21
280.013886
 31
0.0
  0
LINE
  5
3AF
100
AcDbEntity
  8
M01
100
AcDbLine
 10
646.947241
 20
256.513886
 30
0.0
 11
646.947241
 21
280.013886
 31
0.0
  0
ARC
  5
3B0
100
AcDbEntity
  8
M01
100
AcDbCircle
 10
642.947241
 20
256.513886
 30
0.0
 40
4.0
100
AcDbArc
 50
270.0
 51
0.0
  0
LINE
  5
3B1
100
AcDbEntity
  8
M02
100
AcDbLine
 10
656.947241
 20
230.013886
 30
0.0
 11
672.947241
 21
230.013886
 31
0.0
  0
LINE
  5
3B2
100
AcDbEntity
  8
M05
  6
HIDDEN
100
AcDbLine
 10
628.947241
 20
233.313886
 30
0.0
 11
656.947241
 21
233.313886
 31
0.0
  0
LINE
  5
3B3
100
AcDbEntity
  8
M05
  6
HIDDEN
100
AcDbLine
 10
656.947241
 20
233.313886
 30
0.0
 11
656.247241
 21
234.013886
 31
0.0
  0
LINE
  5
3B4
100
AcDbEntity
  8
M05
  6
HIDDEN
100
AcDbLine
 10
656.947241
 20
232.313886
 30
0.0
 11
656.947241
 21
233.313886
 31
0.0
  0
LINE
  5
3B5
100
AcDbEntity
  8
M05
100
AcDbLine
 10
656.947241
 20
232.313886
 30
0.0
 11
656.247241
 21
233.013886
 31
0.0
  0
LINE
  5
3B6
100
AcDbEntity
  8
M05
100
AcDbLine
 10
656.947241
 20
226.713886
 30
0.0
 11
656.247241
 21
226.013886
 31
0.0
  0
LINE
  5
3B7
100
AcDbEntity
  8
M05
100
AcDbLine
 10
656.947241
 20
232.313886
 30
0.0
 11
656.947241
 21
226.713886
 31
0.0
  0
LINE
  5
3B8
100
AcDbEntity
  8
M05
  6
HIDDEN
100
AcDbLine
 10
628.947241
 20
233.313886
 30
0.0
 11
629.647241
 21
234.013886
 31
0.0
  0
LINE
  5
3B9
100
AcDbEntity
  8
M05
  6
HIDDEN
100
AcDbLine
 10
628.947241
 20
232.313886
 30
0.0
 11
628.947241
 21
233.313886
 31
0.0
  0
LINE
  5
3BA
100
AcDbEntity
  8
M05
100
AcDbLine
 10
628.947241
 20
232.313886
 30
0.0
 11
629.647241
 21
233.013886
 31
0.0
  0
LINE
  5
3BB
100
AcDbEntity
  8
M05
100
AcDbLine
 10
628.947241
 20
226.713886
 30
0.0
 11
629.647241
 21
226.013886
 31
0.0
  0
LINE
  5
3BC
100
AcDbEntity
  8
M02
100
AcDbLine
 10
657.947241
 20
233.013886
 30
0.0
 11
657.947241
 21
230.013886
 31
0.0
  0
LINE
  5
3BD
100
AcDbEntity
  8
M02
100
AcDbLine
 10
627.947241
 20
233.013886
 30
0.0
 11
627.947241
 21
230.013886
 31
0.0
  0
LINE
  5
3BE
100
AcDbEntity
  8
M05
  6
HIDDEN
100
AcDbLine
 10
629.647241
 20
234.013886
 30
0.0
 11
656.247241
 21
234.013886
 31
0.0
  0
LINE
  5
3BF
100
AcDbEntity
  8
M05
100
AcDbLine
 10
628.947241
 20
232.313886
 30
0.0
 11
628.947241
 21
226.713886
 31
0.0
  0
LINE
  5
3C0
100
AcDbEntity
  8
CENTRE
100
AcDbLine
 10
642.947241
 20
238.522996
 30
0.0
 11
642.947241
 21
205.444658
 31
0.0
  0
TEXT
  5
3C1
102
{ACAD_REACTORS
330
128
102
}
100
AcDbEntity
  8
TEXT
100
AcDbText
 10
560.521321
 20
228.581373
 30
0.0
 40
2.0
  1
MA010000
 41
0.9
100
AcDbText
  0
TEXT
  5
3C2
102
{ACAD_REACTORS
330
1A5
102
}
100
AcDbEntity
  8
TEXT
100
AcDbText
 10
837.86676
 20
438.380683
 30
0.0
 40
2.0
  1
MA010000
 41
0.9
100
AcDbText
  0
LINE
  5
3C3
100
AcDbEntity
  8
M04
100
AcDbLine
 10
525.447241
 20
208.013886
 30
0.0
 11
525.447241
 21
199.013886
 31
0.0
  0
LINE
  5
3C4
100
AcDbEntity
  8
M04
100
AcDbLine
 10
574.947241
 20
226.013886
 30
0.0
 11
639.947241
 21
226.013886
 31
0.0
  0
LINE
  5
3C5
100
AcDbEntity
  8
M02
100
AcDbLine
 10
589.447241
 20
230.013886
 30
0.0
 11
628.947241
 21
230.013886
 31
0.0
  0
LINE
  5
3C6
102
{ACAD_REACTORS
330
128
102
}
100
AcDbEntity
  8
M05
100
AcDbLine
 10
521.447241
 20
227.713886
 30
0.0
 11
522.147241
 21
227.013886
 31
0.0
  0
LINE
  5
3C7
100
AcDbEntity
  8
M02
100
AcDbLine
 10
520.447241
 20
233.013886
 30
0.0
 11
520.447241
 21
230.013886
 31
0.0
  0
LINE
  5
3C8
102
{ACAD_REACTORS
330
128
102
}
100
AcDbEntity
  8
M01
100
AcDbLine
 10
565.447241
 20
233.013886
 30
0.0
 11
578.447241
 21
233.013886
 31
0.0
  0
LINE
  5
3C9
100
AcDbEntity
  8
M04
100
AcDbLine
 10
525.447241
 20
208.013886
 30
0.0
 11
585.447241
 21
208.013886
 31
0.0
  0
LINE
  5
3CA
100
AcDbEntity
  8
M04
100
AcDbLine
 10
535.447241
 20
218.013886
 30
0.0
 11
525.447241
 21
208.013886
 31
0.0
  0
LINE
  5
3CB
100
AcDbEntity
  8
M04
100
AcDbLine
 10
585.447241
 20
208.013886
 30
0.0
 11
585.447241
 21
199.013886
 31
0.0
  0
LINE
  5
3CC
100
AcDbEntity
  8
M04
100
AcDbLine
 10
575.447241
 20
218.013886
 30
0.0
 11
585.447241
 21
208.013886
 31
0.0
  0
LINE
  5
3CD
100
AcDbEntity
  8
M05
100
AcDbLine
 10
552.406367
 20
224.712671
 30
0.0
 11
558.488115
 21
224.712671
 31
0.0
  0
ARC
  5
3CE
102
{ACAD_REACTORS
330
128
102
}
100
AcDbEntity
  8
M05
100
AcDbCircle
 10
555.447241
 20
209.513886
 30
0.0
 40
15.5
100
AcDbArc
 50
101.313981
 51
126.249321
  0
LINE
  5
3CF
100
AcDbEntity
  8
M01
100
AcDbLine
 10
551.447241
 20
252.513886
 30
0.0
 11
551.447241
 21
243.013886
 31
0.0
  0
LINE
  5
3D0
102
{ACAD_REACTORS
330
128
102
}
100
AcDbEntity
  8
M05
100
AcDbLine
 10
551.447241
 20
243.013886
 30
0.0
 11
552.406367
 21
224.712671
 31
0.0
  0
LINE
  5
3D1
102
{ACAD_REACTORS
330
128
102
}
100
AcDbEntity
  8
M05
100
AcDbLine
 10
559.447241
 20
243.013886
 30
0.0
 11
558.488115
 21
224.712671
 31
0.0
  0
ARC
  5
3D2
102
{ACAD_REACTORS
330
128
102
}
100
AcDbEntity
  8
M05
100
AcDbCircle
 10
555.447241
 20
209.513886
 30
0.0
 40
15.5
100
AcDbArc
 50
53.750679
 51
78.686019
  0
LINE
  5
3D3
100
AcDbEntity
  8
M01
100
AcDbLine
 10
559.447241
 20
252.513886
 30
0.0
 11
559.447241
 21
243.013886
 31
0.0
  0
LINE
  5
3D4
100
AcDbEntity
  8
M04
100
AcDbLine
 10
535.447241
 20
224.013886
 30
0.0
 11
535.447241
 21
226.013886
 31
0.0
  0
LINE
  5
3D5
100
AcDbEntity
  8
M04
100
AcDbLine
 10
535.447241
 20
222.713886
 30
0.0
 11
535.447241
 21
218.013886
 31
0.0
  0
LINE
  5
3D6
100
AcDbEntity
  8
M04
100
AcDbLine
 10
575.447241
 20
224.013886
 30
0.0
 11
575.447241
 21
226.013886
 31
0.0
  0
LINE
  5
3D7
100
AcDbEntity
  8
M04
100
AcDbLine
 10
575.447241
 20
222.713886
 30
0.0
 11
575.447241
 21
218.013886
 31
0.0
  0
LINE
  5
3D8
100
AcDbEntity
  8
M04
100
AcDbLine
 10
575.447241
 20
218.013886
 30
0.0
 11
535.447241
 21
218.013886
 31
0.0
  0
LINE
  5
3D9
102
{ACAD_REACTORS
330
128
102
}
100
AcDbEntity
  8
M05
100
AcDbLine
 10
535.947241
 20
224.013886
 30
0.0
 11
535.447241
 21
224.013886
 31
0.0
  0
LINE
  5
3DA
102
{ACAD_REACTORS
330
128
102
}
100
AcDbEntity
  8
M05
100
AcDbLine
 10
535.947241
 20
227.013886
 30
0.0
 11
522.147241
 21
227.013886
 31
0.0
  0
LINE
  5
3DB
102
{ACAD_REACTORS
330
128
102
}
100
AcDbEntity
  8
M05
100
AcDbLine
 10
535.947241
 20
227.013886
 30
0.0
 11
535.947241
 21
224.013886
 31
0.0
  0
LINE
  5
3DC
102
{ACAD_REACTORS
330
128
102
}
100
AcDbEntity
  8
M05
100
AcDbLine
 10
574.947241
 20
227.013886
 30
0.0
 11
574.947241
 21
224.013886
 31
0.0
  0
LINE
  5
3DD
102
{ACAD_REACTORS
330
128
102
}
100
AcDbEntity
  8
M05
100
AcDbLine
 10
575.447241
 20
224.013886
 30
0.0
 11
574.947241
 21
224.013886
 31
0.0
  0
LINE
  5
3DE
102
{ACAD_REACTORS
330
128
102
}
100
AcDbEntity
  8
M05
100
AcDbLine
 10
536.147241
 20
222.013886
 30
0.0
 11
535.447241
 21
222.713886
 31
0.0
  0
LINE
  5
3DF
102
{ACAD_REACTORS
330
128
102
}
100
AcDbEntity
  8
M05
100
AcDbLine
 10
574.747241
 20
222.013886
 30
0.0
 11
575.447241
 21
222.713886
 31
0.0
  0
LINE
  5
3E0
102
{ACAD_REACTORS
330
128
102
}
100
AcDbEntity
  8
M05
100
AcDbLine
 10
574.747241
 20
222.013886
 30
0.0
 11
536.147241
 21
222.013886
 31
0.0
  0
LINE
  5
3E1
102
{ACAD_REACTORS
330
128
102
}
100
AcDbEntity
  8
M05
100
AcDbLine
 10
535.447241
 20
224.013886
 30
0.0
 11
535.447241
 21
222.713886
 31
0.0
  0
LINE
  5
3E2
102
{ACAD_REACTORS
330
128
102
}
100
AcDbEntity
  8
M05
100
AcDbLine
 10
575.447241
 20
224.013886
 30
0.0
 11
575.447241
 21
222.713886
 31
0.0
  0
LINE
  5
3E3
100
AcDbEntity
  8
M04
100
AcDbLine
 10
545.447241
 20
233.513886
 30
0.0
 11
544.947241
 21
233.013886
 31
0.0
  0
LINE
  5
3E4
100
AcDbEntity
  8
M04
100
AcDbLine
 10
565.447241
 20
233.513886
 30
0.0
 11
565.947241
 21
233.013886
 31
0.0
  0
LINE
  5
3E5
102
{ACAD_REACTORS
330
128
102
}
100
AcDbEntity
  8
M05
100
AcDbLine
 10
521.447241
 20
232.313886
 30
0.0
 11
522.147241
 21
233.013886
 31
0.0
  0
LINE
  5
3E6
102
{ACAD_REACTORS
330
128
102
}
100
AcDbEntity
  8
M05
100
AcDbLine
 10
521.447241
 20
232.313886
 30
0.0
 11
521.447241
 21
227.713886
 31
0.0
  0
LINE
  5
3E7
102
{ACAD_REACTORS
330
128
102
}
100
AcDbEntity
  8
M05
100
AcDbLine
 10
589.447241
 20
232.313886
 30
0.0
 11
588.747241
 21
233.013886
 31
0.0
  0
LINE
  5
3E8
102
{ACAD_REACTORS
330
128
102
}
100
AcDbEntity
  8
M05
100
AcDbLine
 10
589.447241
 20
227.713886
 30
0.0
 11
588.747241
 21
227.013886
 31
0.0
  0
LINE
  5
3E9
100
AcDbEntity
  8
M02
100
AcDbLine
 10
590.447241
 20
233.013886
 30
0.0
 11
590.447241
 21
230.013886
 31
0.0
  0
LINE
  5
3EA
102
{ACAD_REACTORS
330
128
102
}
100
AcDbEntity
  8
M05
100
AcDbLine
 10
588.747241
 20
227.013886
 30
0.0
 11
574.947241
 21
227.013886
 31
0.0
  0
LINE
  5
3EB
102
{ACAD_REACTORS
330
128
102
}
100
AcDbEntity
  8
M05
100
AcDbLine
 10
589.447241
 20
232.313886
 30
0.0
 11
589.447241
 21
227.713886
 31
0.0
  0
LINE
  5
3EC
100
AcDbEntity
  8
M04
100
AcDbLine
 10
545.447241
 20
242.013886
 30
0.0
 11
545.447241
 21
243.013886
 31
0.0
  0
LINE
  5
3ED
100
AcDbEntity
  8
M04
100
AcDbLine
 10
546.447241
 20
243.013886
 30
0.0
 11
545.447241
 21
243.013886
 31
0.0
  0
LINE
  5
3EE
100
AcDbEntity
  8
M04
100
AcDbLine
 10
565.447241
 20
242.013886
 30
0.0
 11
565.447241
 21
243.013886
 31
0.0
  0
LINE
  5
3EF
100
AcDbEntity
  8
M04
100
AcDbLine
 10
564.447241
 20
243.013886
 30
0.0
 11
565.447241
 21
243.013886
 31
0.0
  0
LINE
  5
3F0
102
{ACAD_REACTORS
330
128
102
}
100
AcDbEntity
  8
M05
100
AcDbLine
 10
564.447241
 20
243.013886
 30
0.0
 11
565.447241
 21
242.013886
 31
0.0
  0
LINE
  5
3F1
102
{ACAD_REACTORS
330
128
102
}
100
AcDbEntity
  8
M05
100
AcDbLine
 10
545.447241
 20
242.013886
 30
0.0
 11
546.447241
 21
243.013886
 31
0.0
  0
LINE
  5
3F2
102
{ACAD_REACTORS
330
128
102
}
100
AcDbEntity
  8
M05
100
AcDbLine
 10
564.447241
 20
243.013886
 30
0.0
 11
546.447241
 21
243.013886
 31
0.0
  0
LINE
  5
3F3
102
{ACAD_REACTORS
330
128
102
}
100
AcDbEntity
  8
M05
100
AcDbLine
 10
545.447241
 20
242.013886
 30
0.0
 11
545.447241
 21
233.013886
 31
0.0
  0
LINE
  5
3F4
102
{ACAD_REACTORS
330
128
102
}
100
AcDbEntity
  8
M05
100
AcDbLine
 10
565.447241
 20
242.013886
 30
0.0
 11
565.447241
 21
233.013886
 31
0.0
  0
LINE
  5
3F5
100
AcDbEntity
  8
M04
100
AcDbLine
 10
577.172241
 20
287.013886
 30
0.0
 11
681.947241
 21
287.013886
 31
0.0
  0
LINE
  5
3F6
102
{ACAD_REACTORS
330
8A
102
}
100
AcDbEntity
  8
M02
100
AcDbLine
 10
577.172241
 20
283.013886
 30
0.0
 11
672.947241
 21
283.013886
 31
0.0
  0
LINE
  5
3F7
102
{ACAD_REACTORS
330
8A
102
}
100
AcDbEntity
  8
M02
100
AcDbLine
 10
578.672241
 20
283.013886
 30
0.0
 11
578.672241
 21
280.013886
 31
0.0
  0
LINE
  5
3F8
100
AcDbEntity
  8
M02
100
AcDbLine
 10
437.947241
 20
230.013886
 30
0.0
 11
453.947241
 21
230.013886
 31
0.0
  0
LINE
  5
3F9
100
AcDbEntity
  8
M02
100
AcDbLine
 10
672.947241
 20
233.013886
 30
0.0
 11
672.947241
 21
230.013886
 31
0.0
  0
LINE
  5
3FA
100
AcDbEntity
  8
M02
100
AcDbLine
 10
437.947241
 20
233.013886
 30
0.0
 11
437.947241
 21
230.013886
 31
0.0
  0
LINE
  5
3FB
102
{ACAD_REACTORS
330
8A
102
}
100
AcDbEntity
  8
M02
100
AcDbLine
 10
437.947241
 20
283.013886
 30
0.0
 11
533.722241
 21
283.013886
 31
0.0
  0
LINE
  5
3FC
102
{ACAD_REACTORS
330
8A
102
}
100
AcDbEntity
  8
M02
100
AcDbLine
 10
672.947241
 20
280.013886
 30
0.0
 11
672.947241
 21
283.013886
 31
0.0
  0
LINE
  5
3FD
102
{ACAD_REACTORS
330
8A
102
}
100
AcDbEntity
  8
M02
100
AcDbLine
 10
437.947241
 20
280.013886
 30
0.0
 11
437.947241
 21
283.013886
 31
0.0
  0
LINE
  5
3FE
100
AcDbEntity
  8
M01
100
AcDbLine
 10
674.947241
 20
235.013886
 30
0.0
 11
672.947241
 21
233.013886
 31
0.0
  0
LINE
  5
3FF
100
AcDbEntity
  8
M01
100
AcDbLine
 10
672.947241
 20
280.013886
 30
0.0
 11
674.947241
 21
278.013886
 31
0.0
  0
LINE
  5
400
100
AcDbEntity
  8
M01
100
AcDbLine
 10
435.947241
 20
278.013886
 30
0.0
 11
437.947241
 21
280.013886
 31
0.0
  0
LINE
  5
401
100
AcDbEntity
  8
M01
100
AcDbLine
 10
437.947241
 20
233.013886
 30
0.0
 11
435.947241
 21
235.013886
 31
0.0
  0
LINE
  5
402
100
AcDbEntity
  8
M01
100
AcDbLine
 10
674.947241
 20
278.013886
 30
0.0
 11
674.947241
 21
235.013886
 31
0.0
  0
LINE
  5
403
100
AcDbEntity
  8
M01
100
AcDbLine
 10
435.947241
 20
278.013886
 30
0.0
 11
435.947241
 21
235.013886
 31
0.0
  0
LINE
  5
404
102
{ACAD_REACTORS
330
128
330
DC
102
}
100
AcDbEntity
  8
M01
100
AcDbLine
 10
437.947241
 20
233.013886
 30
0.0
 11
545.447241
 21
233.013886
 31
0.0
  0
LINE
  5
405
102
{ACAD_REACTORS
330
8A
102
}
100
AcDbEntity
  8
M01
100
AcDbLine
 10
437.947241
 20
280.013886
 30
0.0
 11
672.947241
 21
280.013886
 31
0.0
  0
LINE
  5
406
100
AcDbEntity
  8
M04
100
AcDbLine
 10
428.947241
 20
287.013886
 30
0.0
 11
533.722241
 21
287.013886
 31
0.0
  0
LINE
  5
407
100
AcDbEntity
  8
CENTRE
100
AcDbLine
 10
555.447241
 20
317.276091
 30
0.0
 11
555.447241
 21
189.693943
 31
0.0
  0
LINE
  5
408
100
AcDbEntity
  8
M04
100
AcDbLine
 10
681.947241
 20
287.013886
 30
0.0
 11
681.947241
 21
226.013886
 31
0.0
  0
LINE
  5
409
100
AcDbEntity
  8
M04
100
AcDbLine
 10
428.947241
 20
287.013886
 30
0.0
 11
428.947241
 21
226.013886
 31
0.0
  0
LINE
  5
40A
102
{ACAD_REACTORS
330
DC
102
}
100
AcDbEntity
  8
M04
100
AcDbLine
 10
411.396459
 20
226.013886
 30
0.0
 11
464.947241
 21
226.013886
 31
0.0
  0
LINE
  5
40B
100
AcDbEntity
  8
M04
100
AcDbLine
 10
824.360108
 20
568.559226
 30
0.0
 11
834.360108
 21
578.559226
 31
0.0
  0
LINE
  5
40C
100
AcDbEntity
  8
M04
100
AcDbLine
 10
834.360108
 20
589.230704
 30
0.0
 11
834.360108
 21
578.559226
 31
0.0
  0
LINE
  5
40D
100
AcDbEntity
  8
M04
100
AcDbLine
 10
870.360108
 20
402.559226
 30
0.0
 11
870.360108
 21
462.559226
 31
0.0
  0
LINE
  5
40E
100
AcDbEntity
  8
M04
100
AcDbLine
 10
870.360108
 20
402.559226
 30
0.0
 11
879.360108
 21
402.559226
 31
0.0
  0
LINE
  5
40F
100
AcDbEntity
  8
M04
100
AcDbLine
 10
860.360108
 20
412.559226
 30
0.0
 11
870.360108
 21
402.559226
 31
0.0
  0
LINE
  5
410
100
AcDbEntity
  8
M04
100
AcDbLine
 10
791.360108
 20
568.559226
 30
0.0
 11
852.360108
 21
568.559226
 31
0.0
  0
LINE
  5
411
100
AcDbEntity
  8
M04
100
AcDbLine
 10
870.360108
 20
462.559226
 30
0.0
 11
879.360108
 21
462.559226
 31
0.0
  0
LINE
  5
412
100
AcDbEntity
  8
M04
100
AcDbLine
 10
860.360108
 20
452.559226
 30
0.0
 11
870.360108
 21
462.559226
 31
0.0
  0
LINE
  5
413
100
AcDbEntity
  8
M05
100
AcDbLine
 10
853.661322
 20
429.518352
 30
0.0
 11
853.661322
 21
435.6001
 31
0.0
  0
ARC
  5
414
102
{ACAD_REACTORS
330
1A5
102
}
100
AcDbEntity
  8
M05
100
AcDbCircle
 10
868.860108
 20
432.559226
 30
0.0
 40
15.5
100
AcDbArc
 50
191.313981
 51
216.249321
  0
LINE
  5
415
100
AcDbEntity
  8
M01
100
AcDbLine
 10
821.860108
 20
428.559226
 30
0.0
 11
835.360108
 21
428.559226
 31
0.0
  0
LINE
  5
416
102
{ACAD_REACTORS
330
1A5
102
}
100
AcDbEntity
  8
M05
100
AcDbLine
 10
835.360108
 20
428.559226
 30
0.0
 11
853.661322
 21
429.518352
 31
0.0
  0
LINE
  5
417
102
{ACAD_REACTORS
330
1A5
102
}
100
AcDbEntity
  8
M05
100
AcDbLine
 10
835.360108
 20
436.559226
 30
0.0
 11
853.661322
 21
435.6001
 31
0.0
  0
ARC
  5
418
102
{ACAD_REACTORS
330
1A5
102
}
100
AcDbEntity
  8
M05
100
AcDbCircle
 10
868.860108
 20
432.559226
 30
0.0
 40
15.5
100
AcDbArc
 50
143.750679
 51
168.686019
  0
LINE
  5
419
100
AcDbEntity
  8
M01
100
AcDbLine
 10
821.860108
 20
436.559226
 30
0.0
 11
835.360108
 21
436.559226
 31
0.0
  0
LINE
  5
41A
100
AcDbEntity
  8
M04
100
AcDbLine
 10
854.360108
 20
412.559226
 30
0.0
 11
852.360108
 21
412.559226
 31
0.0
  0
LINE
  5
41B
100
AcDbEntity
  8
M04
100
AcDbLine
 10
855.660108
 20
412.559226
 30
0.0
 11
860.360108
 21
412.559226
 31
0.0
  0
LINE
  5
41C
100
AcDbEntity
  8
M04
100
AcDbLine
 10
854.360108
 20
452.559226
 30
0.0
 11
852.360108
 21
452.559226
 31
0.0
  0
LINE
  5
41D
100
AcDbEntity
  8
M04
100
AcDbLine
 10
855.660108
 20
452.559226
 30
0.0
 11
860.360108
 21
452.559226
 31
0.0
  0
LINE
  5
41E
100
AcDbEntity
  8
M04
100
AcDbLine
 10
860.360108
 20
452.559226
 30
0.0
 11
860.360108
 21
412.559226
 31
0.0
  0
LINE
  5
41F
102
{ACAD_REACTORS
330
1A5
102
}
100
AcDbEntity
  8
M05
100
AcDbLine
 10
854.360108
 20
413.059226
 30
0.0
 11
854.360108
 21
412.559226
 31
0.0
  0
LINE
  5
420
102
{ACAD_REACTORS
330
1A5
102
}
100
AcDbEntity
  8
M05
100
AcDbLine
 10
851.360108
 20
413.059226
 30
0.0
 11
851.360108
 21
400.559226
 31
0.0
  0
LINE
  5
421
102
{ACAD_REACTORS
330
1A5
102
}
100
AcDbEntity
  8
M05
100
AcDbLine
 10
851.360108
 20
413.059226
 30
0.0
 11
854.360108
 21
413.059226
 31
0.0
  0
LINE
  5
422
102
{ACAD_REACTORS
330
1A5
102
}
100
AcDbEntity
  8
M05
100
AcDbLine
 10
851.360108
 20
452.059226
 30
0.0
 11
854.360108
 21
452.059226
 31
0.0
  0
LINE
  5
423
102
{ACAD_REACTORS
330
1A5
102
}
100
AcDbEntity
  8
M05
100
AcDbLine
 10
854.360108
 20
452.559226
 30
0.0
 11
854.360108
 21
452.059226
 31
0.0
  0
LINE
  5
424
100
AcDbEntity
  8
M04
100
AcDbLine
 10
852.360108
 20
413.059226
 30
0.0
 11
852.360108
 21
382.045835
 31
0.0
  0
LINE
  5
425
102
{ACAD_REACTORS
330
1A5
102
}
100
AcDbEntity
  8
M05
100
AcDbLine
 10
856.360108
 20
413.259226
 30
0.0
 11
855.660108
 21
412.559226
 31
0.0
  0
LINE
  5
426
102
{ACAD_REACTORS
330
1A5
102
}
100
AcDbEntity
  8
M05
100
AcDbLine
 10
856.360108
 20
451.859226
 30
0.0
 11
855.660108
 21
452.559226
 31
0.0
  0
LINE
  5
427
102
{ACAD_REACTORS
330
1A5
102
}
100
AcDbEntity
  8
M05
100
AcDbLine
 10
856.360108
 20
451.859226
 30
0.0
 11
856.360108
 21
413.259226
 31
0.0
  0
LINE
  5
428
102
{ACAD_REACTORS
330
1A5
102
}
100
AcDbEntity
  8
M05
100
AcDbLine
 10
854.360108
 20
412.559226
 30
0.0
 11
855.660108
 21
412.559226
 31
0.0
  0
LINE
  5
429
102
{ACAD_REACTORS
330
1A5
102
}
100
AcDbEntity
  8
M05
100
AcDbLine
 10
854.360108
 20
452.559226
 30
0.0
 11
855.660108
 21
452.559226
 31
0.0
  0
LINE
  5
42A
100
AcDbEntity
  8
M04
100
AcDbLine
 10
844.860108
 20
422.559226
 30
0.0
 11
845.360108
 21
422.059226
 31
0.0
  0
LINE
  5
42B
102
{ACAD_REACTORS
330
1A5
102
}
100
AcDbEntity
  8
M01
100
AcDbLine
 10
845.360108
 20
422.559226
 30
0.0
 11
845.360108
 21
402.559226
 31
0.0
  0
LINE
  5
42C
100
AcDbEntity
  8
M04
100
AcDbLine
 10
844.860108
 20
442.559226
 30
0.0
 11
845.360108
 21
443.059226
 31
0.0
  0
LINE
  5
42D
102
{ACAD_REACTORS
330
1A5
102
}
100
AcDbEntity
  8
M05
100
AcDbLine
 10
846.060108
 20
399.859226
 30
0.0
 11
845.360108
 21
400.559226
 31
0.0
  0
LINE
  5
42E
102
{ACAD_REACTORS
330
1A5
102
}
100
AcDbEntity
  8
M05
100
AcDbLine
 10
850.660108
 20
399.859226
 30
0.0
 11
851.360108
 21
400.559226
 31
0.0
  0
LINE
  5
42F
102
{ACAD_REACTORS
330
1A5
102
}
100
AcDbEntity
  8
M05
100
AcDbLine
 10
846.060108
 20
399.859226
 30
0.0
 11
850.660108
 21
399.859226
 31
0.0
  0
LINE
  5
430
102
{ACAD_REACTORS
330
1A5
102
}
100
AcDbEntity
  8
M05
100
AcDbLine
 10
846.060108
 20
466.559226
 30
0.0
 11
845.360108
 21
465.859226
 31
0.0
  0
LINE
  5
431
102
{ACAD_REACTORS
330
1A5
102
}
100
AcDbEntity
  8
M05
100
AcDbLine
 10
850.660108
 20
466.559226
 30
0.0
 11
851.360108
 21
465.859226
 31
0.0
  0
LINE
  5
432
102
{ACAD_REACTORS
330
2C9
102
}
100
AcDbEntity
  8
M02
100
AcDbLine
 10
845.360108
 20
467.559226
 30
0.0
 11
848.360108
 21
467.559226
 31
0.0
  0
LINE
  5
433
102
{ACAD_REACTORS
330
1A5
102
}
100
AcDbEntity
  8
M05
100
AcDbLine
 10
851.360108
 20
465.859226
 30
0.0
 11
851.360108
 21
452.059226
 31
0.0
  0
LINE
  5
434
102
{ACAD_REACTORS
330
1A5
102
}
100
AcDbEntity
  8
M05
100
AcDbLine
 10
846.060108
 20
466.559226
 30
0.0
 11
850.660108
 21
466.559226
 31
0.0
  0
LINE
  5
435
100
AcDbEntity
  8
M04
100
AcDbLine
 10
836.360108
 20
422.559226
 30
0.0
 11
835.360108
 21
422.559226
 31
0.0
  0
LINE
  5
436
100
AcDbEntity
  8
M04
100
AcDbLine
 10
835.360108
 20
423.559226
 30
0.0
 11
835.360108
 21
422.559226
 31
0.0
  0
LINE
  5
437
100
AcDbEntity
  8
M04
100
AcDbLine
 10
836.360108
 20
442.559226
 30
0.0
 11
835.360108
 21
442.559226
 31
0.0
  0
LINE
  5
438
100
AcDbEntity
  8
M04
100
AcDbLine
 10
835.360108
 20
441.559226
 30
0.0
 11
835.360108
 21
442.559226
 31
0.0
  0
LINE
  5
439
102
{ACAD_REACTORS
330
1A5
102
}
100
AcDbEntity
  8
M05
100
AcDbLine
 10
835.360108
 20
441.559226
 30
0.0
 11
836.360108
 21
442.559226
 31
0.0
  0
LINE
  5
43A
102
{ACAD_REACTORS
330
1A5
102
}
100
AcDbEntity
  8
M05
100
AcDbLine
 10
836.360108
 20
422.559226
 30
0.0
 11
835.360108
 21
423.559226
 31
0.0
  0
LINE
  5
43B
102
{ACAD_REACTORS
330
1A5
102
}
100
AcDbEntity
  8
M05
100
AcDbLine
 10
835.360108
 20
441.559226
 30
0.0
 11
835.360108
 21
423.559226
 31
0.0
  0
LINE
  5
43C
102
{ACAD_REACTORS
330
1A5
102
}
100
AcDbEntity
  8
M05
100
AcDbLine
 10
836.360108
 20
422.559226
 30
0.0
 11
845.360108
 21
422.559226
 31
0.0
  0
LINE
  5
43D
102
{ACAD_REACTORS
330
1A5
102
}
100
AcDbEntity
  8
M05
100
AcDbLine
 10
836.360108
 20
442.559226
 30
0.0
 11
845.360108
 21
442.559226
 31
0.0
  0
LINE
  5
43E
100
AcDbEntity
  8
M04
100
AcDbLine
 10
572.447241
 20
568.559226
 30
0.0
 11
572.447241
 21
589.230704
 31
0.0
  0
LINE
  5
43F
100
AcDbEntity
  8
M04
100
AcDbLine
 10
538.447241
 20
568.559226
 30
0.0
 11
538.447241
 21
589.230704
 31
0.0
  0
ARC
  5
440
100
AcDbEntity
  8
M04
100
AcDbCircle
 10
572.447241
 20
553.559226
 30
0.0
 40
15.0
100
AcDbArc
 50
360.0
 51
90.0
  0
ARC
  5
441
100
AcDbEntity
  8
M04
100
AcDbCircle
 10
538.447241
 20
553.559226
 30
0.0
 40
15.0
100
AcDbArc
 50
90.0
 51
180.0
  0
LINE
  5
442
100
AcDbEntity
  8
M04
100
AcDbLine
 10
538.447241
 20
568.559226
 30
0.0
 11
572.447241
 21
568.559226
 31
0.0
  0
LINE
  5
443
100
AcDbEntity
  8
M01
100
AcDbLine
 10
544.947241
 20
553.559226
 30
0.0
 11
545.447241
 21
553.059226
 31
0.0
  0
LINE
  5
444
100
AcDbEntity
  8
M01
100
AcDbLine
 10
541.447241
 20
553.059226
 30
0.0
 11
541.947241
 21
553.559226
 31
0.0
  0
LINE
  5
445
100
AcDbEntity
  8
M01
100
AcDbLine
 10
541.447241
 20
553.059226
 30
0.0
 11
545.447241
 21
553.059226
 31
0.0
  0
LINE
  5
446
100
AcDbEntity
  8
M01
100
AcDbLine
 10
544.947241
 20
553.559226
 30
0.0
 11
544.947241
 21
550.459226
 31
0.0
  0
LINE
  5
447
100
AcDbEntity
  8
M01
100
AcDbLine
 10
541.947241
 20
553.559226
 30
0.0
 11
541.947241
 21
550.459226
 31
0.0
  0
LINE
  5
448
100
AcDbEntity
  8
M01
100
AcDbLine
 10
541.447241
 20
553.059226
 30
0.0
 11
541.447241
 21
550.459226
 31
0.0
  0
LINE
  5
449
100
AcDbEntity
  8
M01
100
AcDbLine
 10
545.447241
 20
553.059226
 30
0.0
 11
545.447241
 21
550.459226
 31
0.0
  0
LINE
  5
44A
100
AcDbEntity
  8
M04
100
AcDbLine
 10
776.050707
 20
503.059226
 30
0.0
 11
778.360108
 21
507.059226
 31
0.0
  0
LINE
  5
44B
100
AcDbEntity
  8
M04
100
AcDbLine
 10
778.360108
 20
499.059226
 30
0.0
 11
776.050707
 21
503.059226
 31
0.0
  0
LINE
  5
44C
100
AcDbEntity
  8
M04
100
AcDbLine
 10
781.360108
 20
499.059226
 30
0.0
 11
778.360108
 21
499.059226
 31
0.0
  0
LINE
  5
44D
100
AcDbEntity
  8
M04
100
AcDbLine
 10
778.360108
 20
507.059226
 30
0.0
 11
778.360108
 21
499.059226
 31
0.0
  0
LINE
  5
44E
100
AcDbEntity
  8
M04
100
AcDbLine
 10
781.360108
 20
507.059226
 30
0.0
 11
778.360108
 21
507.059226
 31
0.0
  0
ARC
  5
44F
100
AcDbEntity
  8
M05
100
AcDbCircle
 10
790.697813
 20
503.059226
 30
0.0
 40
10.837705
100
AcDbArc
 50
161.372238
 51
198.627762
  0
LINE
  5
450
100
AcDbEntity
  8
M05
100
AcDbLine
 10
781.360108
 20
499.059226
 30
0.0
 11
780.427855
 21
499.597463
 31
0.0
  0
LINE
  5
451
100
AcDbEntity
  8
M05
100
AcDbLine
 10
780.427855
 20
506.520989
 30
0.0
 11
780.427855
 21
499.597463
 31
0.0
  0
LINE
  5
452
100
AcDbEntity
  8
M05
100
AcDbLine
 10
781.360108
 20
507.059226
 30
0.0
 11
780.427855
 21
506.520989
 31
0.0
  0
LINE
  5
453
100
AcDbEntity
  8
M05
100
AcDbLine
 10
781.360108
 20
507.059226
 30
0.0
 11
781.360108
 21
499.059226
 31
0.0
  0
LINE
  5
454
100
AcDbEntity
  8
M04
100
AcDbLine
 10
791.360108
 20
499.059226
 30
0.0
 11
791.360108
 21
454.284226
 31
0.0
  0
LINE
  5
455
100
AcDbEntity
  8
M04
100
AcDbLine
 10
790.860108
 20
499.059226
 30
0.0
 11
791.360108
 21
498.559226
 31
0.0
  0
LINE
  5
456
100
AcDbEntity
  8
M04
100
AcDbLine
 10
790.860108
 20
507.059226
 30
0.0
 11
791.360108
 21
507.559226
 31
0.0
  0
ARC
  5
457
100
AcDbEntity
  8
M05
100
AcDbCircle
 10
790.226775
 20
503.059226
 30
0.0
 40
13.633333
100
AcDbArc
 50
342.938469
 51
17.061531
  0
LINE
  5
458
100
AcDbEntity
  8
M05
100
AcDbLine
 10
803.260108
 20
507.059226
 30
0.0
 11
803.260108
 21
499.059226
 31
0.0
  0
LINE
  5
459
100
AcDbEntity
  8
M05
100
AcDbLine
 10
781.360108
 20
499.059226
 30
0.0
 11
803.260108
 21
499.059226
 31
0.0
  0
LINE
  5
45A
100
AcDbEntity
  8
M05
100
AcDbLine
 10
781.360108
 20
507.059226
 30
0.0
 11
803.260108
 21
507.059226
 31
0.0
  0
CIRCLE
  5
45B
100
AcDbEntity
  8
M01
100
AcDbCircle
 10
821.860108
 20
432.559226
 30
0.0
 40
4.0
  0
CIRCLE
  5
45C
100
AcDbEntity
  8
M03
100
AcDbCircle
 10
555.447241
 20
432.559226
 30
0.0
 40
20.0
  0
LINE
  5
45D
102
{ACAD_REACTORS
330
20
102
}
100
AcDbEntity
  8
M02
100
AcDbLine
 10
795.360108
 20
409.334226
 30
0.0
 11
798.360108
 21
409.334226
 31
0.0
  0
LINE
  5
45E
102
{ACAD_REACTORS
330
20
102
}
100
AcDbEntity
  8
M02
100
AcDbLine
 10
795.360108
 20
455.784226
 30
0.0
 11
798.360108
 21
455.784226
 31
0.0
  0
LINE
  5
45F
102
{ACAD_REACTORS
330
20
102
}
100
AcDbEntity
  8
M02
100
AcDbLine
 10
795.360108
 20
410.834226
 30
0.0
 11
795.360108
 21
402.559226
 31
0.0
  0
LINE
  5
460
100
AcDbEntity
  8
M04
100
AcDbLine
 10
791.360108
 20
410.834226
 30
0.0
 11
791.360108
 21
393.559226
 31
0.0
  0
LINE
  5
461
100
AcDbEntity
  8
M01
100
AcDbLine
 10
541.947241
 20
553.559226
 30
0.0
 11
544.947241
 21
553.559226
 31
0.0
  0
LINE
  5
462
100
AcDbEntity
  8
CENTRE
100
AcDbLine
 10
775.535186
 20
432.559226
 30
0.0
 11
885.252148
 21
432.559226
 31
0.0
  0
CIRCLE
  5
463
100
AcDbEntity
  8
M01
100
AcDbCircle
 10
555.447241
 20
432.559226
 30
0.0
 40
22.225
  0
LINE
  5
464
100
AcDbEntity
  8
M01
100
AcDbLine
 10
538.447241
 20
528.559226
 30
0.0
 11
548.447241
 21
528.559226
 31
0.0
  0
LINE
  5
465
100
AcDbEntity
  8
M01
100
AcDbLine
 10
547.947241
 20
541.359226
 30
0.0
 11
547.947241
 21
540.559226
 31
0.0
  0
LINE
  5
466
100
AcDbEntity
  8
M01
100
AcDbLine
 10
538.947241
 20
541.359226
 30
0.0
 11
538.947241
 21
540.559226
 31
0.0
  0
LINE
  5
467
100
AcDbEntity
  8
CENTRE
100
AcDbLine
 10
543.447241
 20
559.720115
 30
0.0
 11
543.447241
 21
496.126684
 31
0.0
  0
LINE
  5
468
100
AcDbEntity
  8
CENTRE
100
AcDbLine
 10
771.01399
 20
503.059226
 30
0.0
 11
809.10369
 21
503.059226
 31
0.0
  0
LINE
  5
469
100
AcDbEntity
  8
M04
100
AcDbLine
 10
852.360108
 20
589.230704
 30
0.0
 11
852.360108
 21
452.059226
 31
0.0
  0
LINE
  5
46A
100
AcDbEntity
  8
M04
100
AcDbLine
 10
587.447241
 20
478.559226
 30
0.0
 11
594.447241
 21
471.559226
 31
0.0
  0
LINE
  5
46B
100
AcDbEntity
  8
M04
100
AcDbLine
 10
516.447241
 20
471.559226
 30
0.0
 11
523.447241
 21
478.559226
 31
0.0
  0
ARC
  5
46C
100
AcDbEntity
  8
M04
100
AcDbCircle
 10
443.947241
 20
408.559226
 30
0.0
 40
15.0
100
AcDbArc
 50
180.0
 51
270.0
  0
ARC
  5
46D
100
AcDbEntity
  8
M04
100
AcDbCircle
 10
443.947241
 20
456.559226
 30
0.0
 40
15.0
100
AcDbArc
 50
90.0
 51
180.0
  0
ARC
  5
46E
100
AcDbEntity
  8
M04
100
AcDbCircle
 10
666.947241
 20
456.559226
 30
0.0
 40
15.0
100
AcDbArc
 50
0.0
 51
90.0
  0
ARC
  5
46F
100
AcDbEntity
  8
M04
100
AcDbCircle
 10
666.947241
 20
408.559226
 30
0.0
 40
15.0
100
AcDbArc
 50
270.0
 51
0.0
  0
LINE
  5
470
100
AcDbEntity
  8
M04
100
AcDbLine
 10
428.947241
 20
456.559226
 30
0.0
 11
428.947241
 21
408.559226
 31
0.0
  0
LINE
  5
471
100
AcDbEntity
  8
M04
100
AcDbLine
 10
443.947241
 20
471.559226
 30
0.0
 11
516.447241
 21
471.559226
 31
0.0
  0
LINE
  5
472
100
AcDbEntity
  8
M04
100
AcDbLine
 10
523.447241
 20
553.559226
 30
0.0
 11
523.447241
 21
478.559226
 31
0.0
  0
LINE
  5
473
100
AcDbEntity
  8
M04
100
AcDbLine
 10
587.447241
 20
553.559226
 30
0.0
 11
587.447241
 21
478.559226
 31
0.0
  0
LINE
  5
474
100
AcDbEntity
  8
M04
100
AcDbLine
 10
594.447241
 20
471.559226
 30
0.0
 11
666.947241
 21
471.559226
 31
0.0
  0
LINE
  5
475
100
AcDbEntity
  8
M04
100
AcDbLine
 10
681.947241
 20
456.559226
 30
0.0
 11
681.947241
 21
408.559226
 31
0.0
  0
LINE
  5
476
100
AcDbEntity
  8
M04
100
AcDbLine
 10
443.947241
 20
393.559226
 30
0.0
 11
666.947241
 21
393.559226
 31
0.0
  0
LINE
  5
477
100
AcDbEntity
  8
M04
100
AcDbLine
 10
791.360108
 20
393.559226
 30
0.0
 11
852.360108
 21
393.559226
 31
0.0
  0
LINE
  5
478
100
AcDbEntity
  8
M04
100
AcDbLine
 10
791.360108
 20
568.559226
 30
0.0
 11
791.360108
 21
507.059226
 31
0.0
  0
CIRCLE
  5
479
100
AcDbEntity
  8
M03
100
AcDbCircle
 10
555.447241
 20
432.559226
 30
0.0
 40
9.5
  0
CIRCLE
  5
47A
100
AcDbEntity
  8
M03
100
AcDbCircle
 10
555.447241
 20
432.559226
 30
0.0
 40
4.0
  0
LINE
  5
47B
100
AcDbEntity
  8
M03
100
AcDbLine
 10
467.947241
 20
428.559226
 30
0.0
 11
642.947241
 21
428.559226
 31
0.0
  0
LINE
  5
47C
100
AcDbEntity
  8
M03
100
AcDbLine
 10
467.947241
 20
436.559226
 30
0.0
 11
642.947241
 21
436.559226
 31
0.0
  0
CIRCLE
  5
47D
100
AcDbEntity
  8
M01
100
AcDbCircle
 10
642.947241
 20
432.559226
 30
0.0
 40
4.0
  0
CIRCLE
  5
47E
100
AcDbEntity
  8
M01
100
AcDbCircle
 10
467.947241
 20
432.559226
 30
0.0
 40
4.0
  0
LINE
  5
47F
102
{ACAD_REACTORS
330
20
102
}
100
AcDbEntity
  8
M02
100
AcDbLine
 10
798.360108
 20
496.559226
 30
0.0
 11
795.360108
 21
496.559226
 31
0.0
  0
LINE
  5
480
100
AcDbEntity
  8
M01
100
AcDbLine
 10
798.360108
 20
496.559226
 30
0.0
 11
804.360108
 21
496.559226
 31
0.0
  0
LINE
  5
481
100
AcDbEntity
  8
M01
100
AcDbLine
 10
804.360108
 20
508.559226
 30
0.0
 11
804.360108
 21
496.559226
 31
0.0
  0
LINE
  5
482
102
{ACAD_REACTORS
330
2C9
102
}
100
AcDbEntity
  8
M02
100
AcDbLine
 10
845.360108
 20
506.559226
 30
0.0
 11
848.360108
 21
506.559226
 31
0.0
  0
LINE
  5
483
102
{ACAD_REACTORS
330
20
102
}
100
AcDbEntity
  8
M02
100
AcDbLine
 10
798.360108
 20
402.559226
 30
0.0
 11
795.360108
 21
402.559226
 31
0.0
  0
LINE
  5
484
102
{ACAD_REACTORS
330
2C9
102
}
100
AcDbEntity
  8
M02
100
AcDbLine
 10
848.360108
 20
506.559226
 30
0.0
 11
848.360108
 21
466.559226
 31
0.0
  0
LINE
  5
485
102
{ACAD_REACTORS
330
20
102
}
100
AcDbEntity
  8
M02
100
AcDbLine
 10
795.360108
 20
499.059226
 30
0.0
 11
795.360108
 21
454.284226
 31
0.0
  0
LWPOLYLINE
  5
486
100
AcDbEntity
  8
M01
100
AcDbPolyline
 90
        2
 70
     0
 43
4.0
 10
555.447241
 20
505.059226
 42
0.414214
 10
553.447241
 20
503.059226
  0
LWPOLYLINE
  5
487
100
AcDbEntity
  8
M01
100
AcDbPolyline
 90
        2
 70
     0
 43
4.0
 10
555.447241
 20
501.059226
 42
0.414214
 10
557.447241
 20
503.059226
  0
CIRCLE
  5
488
100
AcDbEntity
  8
M01
100
AcDbCircle
 10
555.447241
 20
503.059226
 30
0.0
 40
4.0
  0
LINE
  5
489
100
AcDbEntity
  8
M01
100
AcDbLine
 10
559.447241
 20
500.559226
 30
0.0
 11
559.447241
 21
508.559226
 31
0.0
  0
LINE
  5
48A
100
AcDbEntity
  8
M01
100
AcDbLine
 10
551.447241
 20
500.559226
 30
0.0
 11
551.447241
 21
508.559226
 31
0.0
  0
ARC
  5
48B
100
AcDbEntity
  8
M01
100
AcDbCircle
 10
555.447241
 20
500.559226
 30
0.0
 40
4.0
100
AcDbArc
 50
180.0
 51
0.0
  0
LINE
  5
48C
100
AcDbEntity
  8
M01
100
AcDbLine
 10
845.360108
 20
402.559226
 30
0.0
 11
843.360108
 21
400.559226
 31
0.0
  0
LINE
  5
48D
100
AcDbEntity
  8
M01
100
AcDbLine
 10
843.360108
 20
508.559226
 30
0.0
 11
845.360108
 21
506.559226
 31
0.0
  0
LINE
  5
48E
100
AcDbEntity
  8
M01
100
AcDbLine
 10
799.360108
 20
507.559226
 30
0.0
 11
800.360108
 21
508.559226
 31
0.0
  0
LINE
  5
48F
100
AcDbEntity
  8
M01
100
AcDbLine
 10
800.360108
 20
400.559226
 30
0.0
 11
798.360108
 21
402.559226
 31
0.0
  0
LINE
  5
490
102
{ACAD_REACTORS
330
2C9
330
1A5
102
}
100
AcDbEntity
  8
M01
100
AcDbLine
 10
845.360108
 20
506.559226
 30
0.0
 11
845.360108
 21
461.559226
 31
0.0
  0
LINE
  5
491
100
AcDbEntity
  8
M01
100
AcDbLine
 10
800.360108
 20
400.559226
 30
0.0
 11
843.360108
 21
400.559226
 31
0.0
  0
LINE
  5
492
100
AcDbEntity
  8
M01
100
AcDbLine
 10
800.360108
 20
508.559226
 30
0.0
 11
843.360108
 21
508.559226
 31
0.0
  0
LINE
  5
493
102
{ACAD_REACTORS
330
20
102
}
100
AcDbEntity
  8
M01
100
AcDbLine
 10
798.360108
 20
499.059226
 30
0.0
 11
798.360108
 21
402.559226
 31
0.0
  0
LINE
  5
494
100
AcDbEntity
  8
M01
100
AcDbLine
 10
575.447241
 20
508.559226
 30
0.0
 11
577.447241
 21
506.559226
 31
0.0
  0
LINE
  5
495
100
AcDbEntity
  8
M01
100
AcDbLine
 10
533.447241
 20
506.559226
 30
0.0
 11
535.447241
 21
508.559226
 31
0.0
  0
LINE
  5
496
100
AcDbEntity
  8
M01
100
AcDbLine
 10
535.447241
 20
508.559226
 30
0.0
 11
575.447241
 21
508.559226
 31
0.0
  0
ARC
  5
497
100
AcDbEntity
  8
M01
100
AcDbCircle
 10
589.447241
 20
476.559226
 30
0.0
 40
12.0
100
AcDbArc
 50
180.0
 51
270.0
  0
ARC
  5
498
100
AcDbEntity
  8
M01
100
AcDbCircle
 10
521.447241
 20
476.559226
 30
0.0
 40
12.0
100
AcDbArc
 50
270.0
 51
0.0
  0
LINE
  5
499
100
AcDbEntity
  8
M01
100
AcDbLine
 10
589.447241
 20
464.559226
 30
0.0
 11
662.947241
 21
464.559226
 31
0.0
  0
LINE
  5
49A
100
AcDbEntity
  8
M01
100
AcDbLine
 10
577.447241
 20
506.559226
 30
0.0
 11
577.447241
 21
476.559226
 31
0.0
  0
LINE
  5
49B
100
AcDbEntity
  8
M01
100
AcDbLine
 10
533.447241
 20
506.559226
 30
0.0
 11
533.447241
 21
476.559226
 31
0.0
  0
LINE
  5
49C
100
AcDbEntity
  8
M01
100
AcDbLine
 10
674.947241
 20
412.559226
 30
0.0
 11
662.947241
 21
400.559226
 31
0.0
  0
LINE
  5
49D
100
AcDbEntity
  8
M01
100
AcDbLine
 10
662.947241
 20
464.559226
 30
0.0
 11
674.947241
 21
452.559226
 31
0.0
  0
LINE
  5
49E
100
AcDbEntity
  8
M01
100
AcDbLine
 10
435.947241
 20
452.559226
 30
0.0
 11
447.947241
 21
464.559226
 31
0.0
  0
LINE
  5
49F
100
AcDbEntity
  8
M01
100
AcDbLine
 10
447.947241
 20
400.559226
 30
0.0
 11
435.947241
 21
412.559226
 31
0.0
  0
LINE
  5
4A0
100
AcDbEntity
  8
M01
100
AcDbLine
 10
447.947241
 20
400.559226
 30
0.0
 11
662.947241
 21
400.559226
 31
0.0
  0
LINE
  5
4A1
100
AcDbEntity
  8
M01
100
AcDbLine
 10
447.947241
 20
464.559226
 30
0.0
 11
521.447241
 21
464.559226
 31
0.0
  0
LINE
  5
4A2
100
AcDbEntity
  8
M01
100
AcDbLine
 10
674.947241
 20
452.559226
 30
0.0
 11
674.947241
 21
412.559226
 31
0.0
  0
LINE
  5
4A3
100
AcDbEntity
  8
M01
100
AcDbLine
 10
435.947241
 20
452.559226
 30
0.0
 11
435.947241
 21
412.559226
 31
0.0
  0
LINE
  5
4A4
100
AcDbEntity
  8
CENTRE
100
AcDbLine
 10
555.447241
 20
523.559226
 30
0.0
 11
555.447241
 21
385.559226
 31
0.0
  0
LINE
  5
4A5
100
AcDbEntity
  8
CENTRE
100
AcDbLine
 10
420.947241
 20
432.559226
 30
0.0
 11
689.947241
 21
432.559226
 31
0.0
  0
ENDSEC
  0
SECTION
  2
OBJECTS
  0
DICTIONARY
  5
1C
100
AcDbDictionary
  3
ACAD_GROUP
350
1A
  3
ACAD_MLINESTYLE
350
1B
  0
DICTIONARY
  5
3
100
AcDbDictionary
280
     1
  3
ACAD_SORTENTS
360
4
  0
DICTIONARY
  5
1A
102
{ACAD_REACTORS
330
1C
102
}
100
AcDbDictionary
  0
DICTIONARY
  5
1B
102
{ACAD_REACTORS
330
1C
102
}
100
AcDbDictionary
  3
STANDARD
350
1E
  0
SORTENTSTABLE
  5
4
102
{ACAD_REACTORS
330
3
102
}
100
AcDbSortentsTable
330
2
  0
MLINESTYLE
  5
1E
102
{ACAD_REACTORS
330
1B
102
}
100
AcDbMlineStyle
  2
STANDARD
 70
     0
  3

 62
   256
 51
90.0
 52
90.0
 71
     2
 49
0.5
 62
   256
  6
BYLAYER
 49
-0.5
 62
   256
  6
BYLAYER
  0
ENDSEC
  0
EOF
