  0
SECTION
  2
HEADER
  9
$ACADVER
  1
AC1014
  9
$ACADMAINTVER
 70
     9
  9
$DWGCODEPAGE
  3
ANSI_1252
  9
$INSBASE
 10
0.0
 20
0.0
 30
0.0
  9
$EXTMIN
 10
-51.13588
 20
161.00006
 30
0.0
  9
$EXTMAX
 10
1164.519848
 20
881.859434
 30
0.0
  9
$LIMMIN
 10
0.0
 20
0.0
  9
$LIMMAX
 10
1189.0
 20
841.0
  9
$ORTHOMODE
 70
     1
  9
$REGENMODE
 70
     1
  9
$FILLMODE
 70
     1
  9
$QTEXTMODE
 70
     0
  9
$MIRRTEXT
 70
     1
  9
$DRAGMODE
 70
     2
  9
$LTSCALE
 40
8.0
  9
$OSMODE
 70
     0
  9
$ATTMODE
 70
     1
  9
$TEXTSIZE
 40
3.0
  9
$TRACEWID
 40
10.0
  9
$TEXTSTYLE
  7
STANDARD
  9
$CLAYER
  8
HATCH
  9
$CELTYPE
  6
BYLAYER
  9
$CECOLOR
 62
   256
  9
$CELTSCALE
 40
1.0
  9
$DELOBJ
 70
     1
  9
$DISPSILH
 70
     0
  9
$DIMSCALE
 40
1.0
  9
$DIMASZ
 40
3.0
  9
$DIMEXO
 40
1.0
  9
$DIMDLI
 40
10.0
  9
$DIMRND
 40
0.01
  9
$DIMDLE
 40
1.25
  9
$DIMEXE
 40
2.5
  9
$DIMTP
 40
0.05
  9
$DIMTM
 40
0.0
  9
$DIMTXT
 40
3.0
  9
$DIMCEN
 40
-1.7
  9
$DIMTSZ
 40
0.0
  9
$DIMTOL
 70
     0
  9
$DIMLIM
 70
     0
  9
$DIMTIH
 70
     0
  9
$DIMTOH
 70
     0
  9
$DIMSE1
 70
     0
  9
$DIMSE2
 70
     0
  9
$DIMTAD
 70
     3
  9
$DIMZIN
 70
     1
  9
$DIMBLK
  1

  9
$DIMASO
 70
     1
  9
$DIMSHO
 70
     0
  9
$DIMPOST
  1

  9
$DIMAPOST
  1

  9
$DIMALT
 70
     0
  9
$DIMALTD
 70
     2
  9
$DIMALTF
 40
0.039
  9
$DIMLFAC
 40
1.0
  9
$DIMTOFL
 70
     0
  9
$DIMTVP
 40
1.5
  9
$DIMTIX
 70
     0
  9
$DIMSOXD
 70
     0
  9
$DIMSAH
 70
     0
  9
$DIMBLK1
  1

  9
$DIMBLK2
  1

  9
$DIMSTYLE
  2
DIM1
  9
$DIMCLRD
 70
     4
  9
$DIMCLRE
 70
     4
  9
$DIMCLRT
 70
     2
  9
$DIMTFAC
 40
0.7
  9
$DIMGAP
 40
1.5
  9
$DIMJUST
 70
     0
  9
$DIMSD1
 70
     0
  9
$DIMSD2
 70
     0
  9
$DIMTOLJ
 70
     1
  9
$DIMTZIN
 70
     1
  9
$DIMALTZ
 70
     1
  9
$DIMALTTZ
 70
     1
  9
$DIMFIT
 70
     0
  9
$DIMUPT
 70
     1
  9
$DIMUNIT
 70
     2
  9
$DIMDEC
 70
     2
  9
$DIMTDEC
 70
     2
  9
$DIMALTU
 70
     2
  9
$DIMALTTD
 70
     2
  9
$DIMTXSTY
  7
STANDARD
  9
$DIMAUNIT
 70
     0
  9
$LUNITS
 70
     2
  9
$LUPREC
 70
     2
  9
$SKETCHINC
 40
1.0
  9
$FILLETRAD
 40
10.0
  9
$AUNITS
 70
     0
  9
$AUPREC
 70
     3
  9
$MENU
  1
ACAD
  9
$ELEVATION
 40
0.0
  9
$PELEVATION
 40
0.0
  9
$THICKNESS
 40
0.0
  9
$LIMCHECK
 70
     0
  9
$BLIPMODE
 70
     1
  9
$CHAMFERA
 40
0.7
  9
$CHAMFERB
 40
0.7
  9
$CHAMFERC
 40
0.0
  9
$CHAMFERD
 40
0.0
  9
$SKPOLY
 70
     1
  9
$TDCREATE
 40
2449993.725698611
  9
$TDUPDATE
 40
2451970.582478228
  9
$TDINDWG
 40
0.9337152315
  9
$TDUSRTIMER
 40
0.9337152315
  9
$USRTIMER
 70
     1
  9
$ANGBASE
 50
0.0
  9
$ANGDIR
 70
     0
  9
$PDMODE
 70
     3
  9
$PDSIZE
 40
0.0
  9
$PLINEWID
 40
0.0
  9
$COORDS
 70
     2
  9
$SPLFRAME
 70
     0
  9
$SPLINETYPE
 70
     6
  9
$SPLINESEGS
 70
     6
  9
$ATTDIA
 70
     1
  9
$ATTREQ
 70
     1
  9
$HANDLING
 70
     1
  9
$HANDSEED
  5
487
  9
$SURFTAB1
 70
    12
  9
$SURFTAB2
 70
    12
  9
$SURFTYPE
 70
     6
  9
$SURFU
 70
    12
  9
$SURFV
 70
    12
  9
$UCSNAME
  2

  9
$UCSORG
 10
0.0
 20
0.0
 30
0.0
  9
$UCSXDIR
 10
1.0
 20
0.0
 30
0.0
  9
$UCSYDIR
 10
0.0
 20
1.0
 30
0.0
  9
$PUCSNAME
  2

  9
$PUCSORG
 10
0.0
 20
0.0
 30
0.0
  9
$PUCSXDIR
 10
1.0
 20
0.0
 30
0.0
  9
$PUCSYDIR
 10
0.0
 20
1.0
 30
0.0
  9
$USERI1
 70
     0
  9
$USERI2
 70
     0
  9
$USERI3
 70
     0
  9
$USERI4
 70
     0
  9
$USERI5
 70
     0
  9
$USERR1
 40
0.0
  9
$USERR2
 40
0.0
  9
$USERR3
 40
0.0
  9
$USERR4
 40
0.0
  9
$USERR5
 40
0.0
  9
$WORLDVIEW
 70
     0
  9
$SHADEDGE
 70
     3
  9
$SHADEDIF
 70
    70
  9
$TILEMODE
 70
     1
  9
$MAXACTVP
 70
    16
  9
$PINSBASE
 10
0.0
 20
0.0
 30
0.0
  9
$PLIMCHECK
 70
     0
  9
$PEXTMIN
 10
1.000000E+20
 20
1.000000E+20
 30
1.000000E+20
  9
$PEXTMAX
 10
-1.000000E+20
 20
-1.000000E+20
 30
-1.000000E+20
  9
$PLIMMIN
 10
0.0
 20
0.0
  9
$PLIMMAX
 10
12.0
 20
9.0
  9
$UNITMODE
 70
     0
  9
$VISRETAIN
 70
     0
  9
$PLINEGEN
 70
     0
  9
$PSLTSCALE
 70
     0
  9
$TREEDEPTH
 70
  3020
  9
$PICKSTYLE
 70
     1
  9
$CMLSTYLE
  2
STANDARD
  9
$CMLJUST
 70
     0
  9
$CMLSCALE
 40
1.0
  9
$PROXYGRAPHICS
 70
     1
  9
$MEASUREMENT
 70
     0
  0
ENDSEC
  0
SECTION
  2
CLASSES
  0
CLASS
  1
DICTIONARYVAR
  2
AcDbDictionaryVar
  3
"AutoCAD"
 90
        0
280
     0
281
     0
  0
CLASS
  1
LWPOLYLINE
  2
AcDbPolyline
  3
"AutoCAD"
 90
        0
280
     0
281
     1
  0
CLASS
  1
HATCH
  2
AcDbHatch
  3
"ACAD_SEDONA"
 90
        0
280
     0
281
     1
  0
CLASS
  1
SORTENTSTABLE
  2
AcDbSortentsTable
  3
"AutoCAD"
 90
        0
280
     0
281
     0
  0
CLASS
  1
WIPEOUTVARIABLES
  2
AcDbWipeoutVariables
  3
WIPEOUT
 90
        0
280
     0
281
     0
  0
CLASS
  1
WIPEOUT
  2
AcDbWipeout
  3
WIPEOUT
 90
      127
280
     0
281
     1
  0
ENDSEC
  0
SECTION
  2
TABLES
  0
TABLE
  2
VPORT
  5
14
100
AcDbSymbolTable
 70
     2
  0
VPORT
  5
486
100
AcDbSymbolTableRecord
100
AcDbViewportTableRecord
  2
*ACTIVE
 70
     0
 10
0.0
 20
0.0
 11
1.0
 21
1.0
 12
186.191386
 22
675.60159
 13
0.0
 23
0.0
 14
10.0
 24
10.0
 15
0.0
 25
0.0
 16
0.0
 26
0.0
 36
1.0
 17
16.313321
 27
12.779115
 37
0.222949
 40
401.624687
 41
1.494382
 42
50.0
 43
0.0
 44
0.0
 50
0.0
 51
0.0
 71
     0
 72
  2000
 73
     1
 74
     2
 75
     0
 76
     0
 77
     0
 78
     1
  0
ENDTAB
  0
TABLE
  2
LTYPE
  5
F
100
AcDbSymbolTable
 70
     3
  0
LTYPE
  5
10
100
AcDbSymbolTableRecord
100
AcDbLinetypeTableRecord
  2
BYBLOCK
 70
     0
  3

 72
    65
 73
     0
 40
0.0
  0
LTYPE
  5
11
100
AcDbSymbolTableRecord
100
AcDbLinetypeTableRecord
  2
BYLAYER
 70
     0
  3

 72
    65
 73
     0
 40
0.0
  0
LTYPE
  5
7
100
AcDbSymbolTableRecord
100
AcDbLinetypeTableRecord
  2
CONTINUOUS
 70
     0
  3
Solid line
 72
    65
 73
     0
 40
0.0
  0
LTYPE
  5
D6
100
AcDbSymbolTableRecord
100
AcDbLinetypeTableRecord
  2
CENTER
 70
     0
  3
Center ____ _ ____ _ ____ _ ____ _ ____ _ ____
 72
    65
 73
     4
 40
2.0
 49
1.25
 74
     0
 49
-0.25
 74
     0
 49
0.25
 74
     0
 49
-0.25
 74
     0
  0
LTYPE
  5
22
100
AcDbSymbolTableRecord
100
AcDbLinetypeTableRecord
  2
HIDDEN
 70
     0
  3
Hidden __ __ __ __ __ __ __ __ __ __ __ __ __ _
 72
    65
 73
     2
 40
0.375
 49
0.25
 74
     0
 49
-0.125
 74
     0
  0
ENDTAB
  0
TABLE
  2
LAYER
  5
C
100
AcDbSymbolTable
 70
    11
  0
LAYER
  5
6
100
AcDbSymbolTableRecord
100
AcDbLayerTableRecord
  2
0
 70
     0
 62
     7
  6
CONTINUOUS
  0
LAYER
  5
D5
100
AcDbSymbolTableRecord
100
AcDbLayerTableRecord
  2
CENTRE
 70
     0
 62
     3
  6
CENTER
  0
LAYER
  5
27
100
AcDbSymbolTableRecord
100
AcDbLayerTableRecord
  2
M01
 70
     0
 62
     1
  6
CONTINUOUS
  0
LAYER
  5
53
100
AcDbSymbolTableRecord
100
AcDbLayerTableRecord
  2
M02
 70
     0
 62
     2
  6
CONTINUOUS
  0
LAYER
  5
21
100
AcDbSymbolTableRecord
100
AcDbLayerTableRecord
  2
M03
 70
     0
 62
     2
  6
HIDDEN
  0
LAYER
  5
90
100
AcDbSymbolTableRecord
100
AcDbLayerTableRecord
  2
M04
 70
     0
 62
     7
  6
CONTINUOUS
  0
LAYER
  5
45
100
AcDbSymbolTableRecord
100
AcDbLayerTableRecord
  2
M05
 70
     0
 62
     5
  6
CONTINUOUS
  0
LAYER
  5
58
100
AcDbSymbolTableRecord
100
AcDbLayerTableRecord
  2
DIMS
 70
     0
 62
     4
  6
CONTINUOUS
  0
LAYER
  5
212
100
AcDbSymbolTableRecord
100
AcDbLayerTableRecord
  2
TEXT
 70
     0
 62
     2
  6
CONTINUOUS
  0
LAYER
  5
1D
100
AcDbSymbolTableRecord
100
AcDbLayerTableRecord
  2
HATCH
 70
     0
 62
     4
  6
CONTINUOUS
  0
LAYER
  5
5A
100
AcDbSymbolTableRecord
100
AcDbLayerTableRecord
  2
DEFPOINTS
 70
     0
 62
     7
  6
CONTINUOUS
  0
ENDTAB
  0
TABLE
  2
STYLE
  5
D
100
AcDbSymbolTable
 70
     1
  0
STYLE
  5
E
100
AcDbSymbolTableRecord
100
AcDbTextStyleTableRecord
  2
STANDARD
 70
     0
 40
0.0
 41
1.0
 50
0.0
 71
     0
 42
3.0
  3
SIMPLEX
  4

  0
ENDTAB
  0
TABLE
  2
VIEW
  5
12
100
AcDbSymbolTable
 70
     0
  0
ENDTAB
  0
TABLE
  2
UCS
  5
13
100
AcDbSymbolTable
 70
     0
  0
ENDTAB
  0
TABLE
  2
APPID
  5
16
100
AcDbSymbolTable
 70
     1
  0
APPID
  5
17
100
AcDbSymbolTableRecord
100
AcDbRegAppTableRecord
  2
ACAD
 70
     0
  0
ENDTAB
  0
TABLE
  2
DIMSTYLE
  5
18
100
AcDbSymbolTable
 70
     2
  0
DIMSTYLE
105
1F
102
{ACAD_REACTORS
330
298
330
28B
330
27E
330
271
330
1DA
330
1CC
330
1BE
330
1B1
330
1A3
330
195
330
188
330
17A
330
156
102
}
100
AcDbSymbolTableRecord
100
AcDbDimStyleTableRecord
  2
DIM1
 70
     0
  3

  4

  5

  6

  7

 40
1.0
 41
3.0
 42
1.0
 43
10.0
 44
2.5
 45
0.01
 46
1.25
 47
0.05
 48
0.0
140
3.0
141
-1.7
142
0.0
143
0.039
144
0.2
145
1.5
146
0.7
147
1.5
 71
     0
 72
     0
 73
     0
 74
     0
 75
     0
 76
     0
 77
     3
 78
     1
170
     0
171
     2
172
     0
173
     0
174
     0
175
     0
176
     4
177
     4
178
     2
270
     2
271
     2
272
     2
273
     2
274
     2
340
E
275
     0
280
     0
281
     0
282
     0
283
     1
284
     1
285
     1
286
     1
287
     0
288
     0
  0
DIMSTYLE
105
130
100
AcDbSymbolTableRecord
100
AcDbDimStyleTableRecord
  2
DIM1$7
 70
     0
  3

  4

  5

  6

  7

 40
1.0
 41
3.0
 42
1.0
 43
10.0
 44
2.5
 45
0.01
 46
1.25
 47
0.0
 48
0.0
140
3.0
141
-1.7
142
0.0
143
0.039
144
1.0
145
0.0
146
1.0
147
1.5
 71
     0
 72
     0
 73
     0
 74
     0
 75
     0
 76
     0
 77
     0
 78
     1
170
     0
171
     2
172
     0
173
     0
174
     0
175
     0
176
     4
177
     4
178
     2
270
     2
271
     2
272
     2
273
     2
274
     2
340
E
275
     0
280
     0
281
     0
282
     0
283
     1
284
     1
285
     1
286
     1
287
     0
288
     0
  0
ENDTAB
  0
TABLE
  2
BLOCK_RECORD
  5
1
100
AcDbSymbolTable
 70
    13
  0
BLOCK_RECORD
  5
2
102
{ACAD_XDICTIONARY
360
3
102
}
100
AcDbSymbolTableRecord
100
AcDbBlockTableRecord
  2
*MODEL_SPACE
  0
BLOCK_RECORD
  5
9
100
AcDbSymbolTableRecord
100
AcDbBlockTableRecord
  2
*PAPER_SPACE
  0
BLOCK_RECORD
  5
299
100
AcDbSymbolTableRecord
100
AcDbBlockTableRecord
  2
*D0
  0
BLOCK_RECORD
  5
28C
100
AcDbSymbolTableRecord
100
AcDbBlockTableRecord
  2
*D1
  0
BLOCK_RECORD
  5
27F
100
AcDbSymbolTableRecord
100
AcDbBlockTableRecord
  2
*D2
  0
BLOCK_RECORD
  5
272
100
AcDbSymbolTableRecord
100
AcDbBlockTableRecord
  2
*D3
  0
BLOCK_RECORD
  5
1DB
100
AcDbSymbolTableRecord
100
AcDbBlockTableRecord
  2
*D4
  0
BLOCK_RECORD
  5
1CD
100
AcDbSymbolTableRecord
100
AcDbBlockTableRecord
  2
*D5
  0
BLOCK_RECORD
  5
1BF
100
AcDbSymbolTableRecord
100
AcDbBlockTableRecord
  2
*D6
  0
BLOCK_RECORD
  5
1B2
100
AcDbSymbolTableRecord
100
AcDbBlockTableRecord
  2
*D7
  0
BLOCK_RECORD
  5
1A4
100
AcDbSymbolTableRecord
100
AcDbBlockTableRecord
  2
*D8
  0
BLOCK_RECORD
  5
196
100
AcDbSymbolTableRecord
100
AcDbBlockTableRecord
  2
*D9
  0
BLOCK_RECORD
  5
189
100
AcDbSymbolTableRecord
100
AcDbBlockTableRecord
  2
*D10
  0
BLOCK_RECORD
  5
17B
100
AcDbSymbolTableRecord
100
AcDbBlockTableRecord
  2
*D11
  0
BLOCK_RECORD
  5
157
100
AcDbSymbolTableRecord
100
AcDbBlockTableRecord
  2
*D12
  0
ENDTAB
  0
ENDSEC
  0
SECTION
  2
BLOCKS
  0
BLOCK
  5
5
100
AcDbEntity
  8
0
100
AcDbBlockBegin
  2
*MODEL_SPACE
 70
     0
 10
0.0
 20
0.0
 30
0.0
  3
*MODEL_SPACE
  1

  0
ENDBLK
  5
8
100
AcDbEntity
  8
0
100
AcDbBlockEnd
  0
BLOCK
  5
A
100
AcDbEntity
 67
     1
  8
0
100
AcDbBlockBegin
  2
*PAPER_SPACE
 70
     0
 10
0.0
 20
0.0
 30
0.0
  3
*PAPER_SPACE
  1

  0
ENDBLK
  5
B
100
AcDbEntity
 67
     1
  8
0
100
AcDbBlockEnd
  0
BLOCK
  5
2A3
100
AcDbEntity
  8
0
100
AcDbBlockBegin
  2
*D0
 70
     1
 10
0.0
 20
0.0
 30
0.0
  3
*D0
  1

  0
LINE
  5
29A
100
AcDbEntity
  8
0
  6
BYBLOCK
 62
     4
100
AcDbLine
 10
14.031476
 20
707.489151
 30
0.0
 11
14.031476
 21
660.155514
 31
0.0
  0
LINE
  5
29B
100
AcDbEntity
  8
0
  6
BYBLOCK
 62
     4
100
AcDbLine
 10
89.031476
 20
677.187955
 30
0.0
 11
89.031476
 21
660.155514
 31
0.0
  0
LINE
  5
29C
100
AcDbEntity
  8
0
  6
BYBLOCK
 62
     4
100
AcDbLine
 10
17.031476
 20
662.655514
 30
0.0
 11
86.031476
 21
662.655514
 31
0.0
  0
SOLID
  5
29D
100
AcDbEntity
  8
0
  6
BYBLOCK
 62
     4
100
AcDbTrace
 10
17.031476
 20
663.155514
 30
0.0
 11
17.031476
 21
662.155514
 31
0.0
 12
14.031476
 22
662.655514
 32
0.0
 13
14.031476
 23
662.655514
 33
0.0
  0
SOLID
  5
29E
100
AcDbEntity
  8
0
  6
BYBLOCK
 62
     4
100
AcDbTrace
 10
86.031476
 20
663.155514
 30
0.0
 11
86.031476
 21
662.155514
 31
0.0
 12
89.031476
 22
662.655514
 32
0.0
 13
89.031476
 23
662.655514
 33
0.0
  0
MTEXT
  5
29F
100
AcDbEntity
  8
0
  6
BYBLOCK
 62
     2
100
AcDbMText
 10
60.613684
 20
666.441229
 30
0.0
 40
3.0
 41
0.0
 71
     5
 72
     1
  1
\A1;A/2=75.00
  0
POINT
  5
2A0
100
AcDbEntity
  8
DEFPOINTS
  6
BYBLOCK
 62
     0
100
AcDbPoint
 10
14.031476
 20
708.489151
 30
0.0
  0
POINT
  5
2A1
100
AcDbEntity
  8
DEFPOINTS
  6
BYBLOCK
 62
     0
100
AcDbPoint
 10
89.031476
 20
678.187955
 30
0.0
  0
POINT
  5
2A2
100
AcDbEntity
  8
DEFPOINTS
  6
BYBLOCK
 62
     0
100
AcDbPoint
 10
89.031476
 20
662.655514
 30
0.0
  0
ENDBLK
  5
2A4
100
AcDbEntity
  8
0
100
AcDbBlockEnd
  0
BLOCK
  5
296
100
AcDbEntity
  8
0
100
AcDbBlockBegin
  2
*D1
 70
     1
 10
0.0
 20
0.0
 30
0.0
  3
*D1
  1

  0
LINE
  5
28D
100
AcDbEntity
  8
0
  6
BYBLOCK
 62
     4
100
AcDbLine
 10
14.031476
 20
707.489151
 30
0.0
 11
14.031476
 21
650.100782
 31
0.0
  0
LINE
  5
28E
100
AcDbEntity
  8
0
  6
BYBLOCK
 62
     4
100
AcDbLine
 10
164.031476
 20
707.474736
 30
0.0
 11
164.031476
 21
650.100782
 31
0.0
  0
LINE
  5
28F
100
AcDbEntity
  8
0
  6
BYBLOCK
 62
     4
100
AcDbLine
 10
17.031476
 20
652.600782
 30
0.0
 11
161.031476
 21
652.600782
 31
0.0
  0
SOLID
  5
290
100
AcDbEntity
  8
0
  6
BYBLOCK
 62
     4
100
AcDbTrace
 10
17.031476
 20
653.100782
 30
0.0
 11
17.031476
 21
652.100782
 31
0.0
 12
14.031476
 22
652.600782
 32
0.0
 13
14.031476
 23
652.600782
 33
0.0
  0
SOLID
  5
291
100
AcDbEntity
  8
0
  6
BYBLOCK
 62
     4
100
AcDbTrace
 10
161.031476
 20
653.100782
 30
0.0
 11
161.031476
 21
652.100782
 31
0.0
 12
164.031476
 22
652.600782
 32
0.0
 13
164.031476
 23
652.600782
 33
0.0
  0
MTEXT
  5
292
100
AcDbEntity
  8
0
  6
BYBLOCK
 62
     2
100
AcDbMText
 10
89.031476
 20
655.600782
 30
0.0
 40
3.0
 41
0.0
 71
     5
 72
     1
  1
\A1;A=150.00
  0
POINT
  5
293
100
AcDbEntity
  8
DEFPOINTS
  6
BYBLOCK
 62
     0
100
AcDbPoint
 10
14.031476
 20
708.489151
 30
0.0
  0
POINT
  5
294
100
AcDbEntity
  8
DEFPOINTS
  6
BYBLOCK
 62
     0
100
AcDbPoint
 10
164.031476
 20
708.474736
 30
0.0
  0
POINT
  5
295
100
AcDbEntity
  8
DEFPOINTS
  6
BYBLOCK
 62
     0
100
AcDbPoint
 10
164.031476
 20
652.600782
 30
0.0
  0
ENDBLK
  5
297
100
AcDbEntity
  8
0
100
AcDbBlockEnd
  0
BLOCK
  5
289
100
AcDbEntity
  8
0
100
AcDbBlockBegin
  2
*D2
 70
     1
 10
0.0
 20
0.0
 30
0.0
  3
*D2
  1

  0
LINE
  5
280
100
AcDbEntity
  8
0
  6
BYBLOCK
 62
     4
100
AcDbLine
 10
-17.968524
 20
704.187955
 30
0.0
 11
-17.968524
 21
640.325348
 31
0.0
  0
LINE
  5
281
100
AcDbEntity
  8
0
  6
BYBLOCK
 62
     4
100
AcDbLine
 10
196.031476
 20
704.187955
 30
0.0
 11
196.031476
 21
640.325348
 31
0.0
  0
LINE
  5
282
100
AcDbEntity
  8
0
  6
BYBLOCK
 62
     4
100
AcDbLine
 10
-14.968524
 20
642.825348
 30
0.0
 11
193.031476
 21
642.825348
 31
0.0
  0
SOLID
  5
283
100
AcDbEntity
  8
0
  6
BYBLOCK
 62
     4
100
AcDbTrace
 10
-14.968524
 20
643.325348
 30
0.0
 11
-14.968524
 21
642.325348
 31
0.0
 12
-17.968524
 22
642.825348
 32
0.0
 13
-17.968524
 23
642.825348
 33
0.0
  0
SOLID
  5
284
100
AcDbEntity
  8
0
  6
BYBLOCK
 62
     4
100
AcDbTrace
 10
193.031476
 20
643.325348
 30
0.0
 11
193.031476
 21
642.325348
 31
0.0
 12
196.031476
 22
642.825348
 32
0.0
 13
196.031476
 23
642.825348
 33
0.0
  0
MTEXT
  5
285
100
AcDbEntity
  8
0
  6
BYBLOCK
 62
     2
100
AcDbMText
 10
89.031476
 20
645.825348
 30
0.0
 40
3.0
 41
0.0
 71
     5
 72
     1
  1
\A1;L=214.00
  0
POINT
  5
286
100
AcDbEntity
  8
DEFPOINTS
  6
BYBLOCK
 62
     0
100
AcDbPoint
 10
-17.968524
 20
705.187955
 30
0.0
  0
POINT
  5
287
100
AcDbEntity
  8
DEFPOINTS
  6
BYBLOCK
 62
     0
100
AcDbPoint
 10
196.031476
 20
705.187955
 30
0.0
  0
POINT
  5
288
100
AcDbEntity
  8
DEFPOINTS
  6
BYBLOCK
 62
     0
100
AcDbPoint
 10
196.031476
 20
642.825348
 30
0.0
  0
ENDBLK
  5
28A
100
AcDbEntity
  8
0
100
AcDbBlockEnd
  0
BLOCK
  5
27C
100
AcDbEntity
  8
0
100
AcDbBlockBegin
  2
*D3
 70
     1
 10
0.0
 20
0.0
 30
0.0
  3
*D3
  1

  0
LINE
  5
273
100
AcDbEntity
  8
0
  6
BYBLOCK
 62
     4
100
AcDbLine
 10
185.031476
 20
693.187955
 30
0.0
 11
228.288431
 21
693.187955
 31
0.0
  0
LINE
  5
274
100
AcDbEntity
  8
0
  6
BYBLOCK
 62
     4
100
AcDbLine
 10
185.031476
 20
757.187955
 30
0.0
 11
228.288431
 21
757.187955
 31
0.0
  0
LINE
  5
275
100
AcDbEntity
  8
0
  6
BYBLOCK
 62
     4
100
AcDbLine
 10
225.788431
 20
696.187955
 30
0.0
 11
225.788431
 21
754.187955
 31
0.0
  0
SOLID
  5
276
100
AcDbEntity
  8
0
  6
BYBLOCK
 62
     4
100
AcDbTrace
 10
225.288431
 20
696.187955
 30
0.0
 11
226.288431
 21
696.187955
 31
0.0
 12
225.788431
 22
693.187955
 32
0.0
 13
225.788431
 23
693.187955
 33
0.0
  0
SOLID
  5
277
100
AcDbEntity
  8
0
  6
BYBLOCK
 62
     4
100
AcDbTrace
 10
225.288431
 20
754.187955
 30
0.0
 11
226.288431
 21
754.187955
 31
0.0
 12
225.788431
 22
757.187955
 32
0.0
 13
225.788431
 23
757.187955
 33
0.0
  0
MTEXT
  5
278
100
AcDbEntity
  8
0
  6
BYBLOCK
 62
     2
100
AcDbMText
 10
222.788431
 20
725.187955
 30
0.0
 40
3.0
 41
0.0
 71
     5
 72
     1
  1
\A1;W=64.00
 11
0.0
 21
1.0
 31
0.0
  0
POINT
  5
279
100
AcDbEntity
  8
DEFPOINTS
  6
BYBLOCK
 62
     0
100
AcDbPoint
 10
184.031476
 20
693.187955
 30
0.0
  0
POINT
  5
27A
100
AcDbEntity
  8
DEFPOINTS
  6
BYBLOCK
 62
     0
100
AcDbPoint
 10
184.031476
 20
757.187955
 30
0.0
  0
POINT
  5
27B
100
AcDbEntity
  8
DEFPOINTS
  6
BYBLOCK
 62
     0
100
AcDbPoint
 10
225.788431
 20
757.187955
 30
0.0
  0
ENDBLK
  5
27D
100
AcDbEntity
  8
0
100
AcDbBlockEnd
  0
BLOCK
  5
1E5
100
AcDbEntity
  8
0
100
AcDbBlockBegin
  2
*D4
 70
     1
 10
0.0
 20
0.0
 30
0.0
  3
*D4
  1

  0
LINE
  5
1DC
100
AcDbEntity
  8
0
  6
BYBLOCK
 62
     4
100
AcDbLine
 10
331.944343
 20
694.187955
 30
0.0
 11
331.944343
 21
652.408277
 31
0.0
  0
LINE
  5
1DD
100
AcDbEntity
  8
0
  6
BYBLOCK
 62
     4
100
AcDbLine
 10
378.944343
 20
692.187955
 30
0.0
 11
378.944343
 21
652.408277
 31
0.0
  0
LINE
  5
1DE
100
AcDbEntity
  8
0
  6
BYBLOCK
 62
     4
100
AcDbLine
 10
334.944343
 20
654.908277
 30
0.0
 11
375.944343
 21
654.908277
 31
0.0
  0
SOLID
  5
1DF
100
AcDbEntity
  8
0
  6
BYBLOCK
 62
     4
100
AcDbTrace
 10
334.944343
 20
655.408277
 30
0.0
 11
334.944343
 21
654.408277
 31
0.0
 12
331.944343
 22
654.908277
 32
0.0
 13
331.944343
 23
654.908277
 33
0.0
  0
SOLID
  5
1E0
100
AcDbEntity
  8
0
  6
BYBLOCK
 62
     4
100
AcDbTrace
 10
375.944343
 20
655.408277
 30
0.0
 11
375.944343
 21
654.408277
 31
0.0
 12
378.944343
 22
654.908277
 32
0.0
 13
378.944343
 23
654.908277
 33
0.0
  0
MTEXT
  5
1E1
100
AcDbEntity
  8
0
  6
BYBLOCK
 62
     2
100
AcDbMText
 10
355.444343
 20
657.908277
 30
0.0
 40
3.0
 41
0.0
 71
     5
 72
     1
  1
\A1;47.00
  0
POINT
  5
1E2
100
AcDbEntity
  8
DEFPOINTS
  6
BYBLOCK
 62
     0
100
AcDbPoint
 10
331.944343
 20
695.187955
 30
0.0
  0
POINT
  5
1E3
100
AcDbEntity
  8
DEFPOINTS
  6
BYBLOCK
 62
     0
100
AcDbPoint
 10
378.944343
 20
693.187955
 30
0.0
  0
POINT
  5
1E4
100
AcDbEntity
  8
DEFPOINTS
  6
BYBLOCK
 62
     0
100
AcDbPoint
 10
378.944343
 20
654.908277
 30
0.0
  0
ENDBLK
  5
1E6
100
AcDbEntity
  8
0
100
AcDbBlockEnd
  0
BLOCK
  5
1D8
100
AcDbEntity
  8
0
100
AcDbBlockBegin
  2
*D5
 70
     1
 10
0.0
 20
0.0
 30
0.0
  3
*D5
  1

  0
LINE
  5
1CE
100
AcDbEntity
  8
0
  6
BYBLOCK
 62
     4
100
AcDbLine
 10
378.944343
 20
692.187955
 30
0.0
 11
378.944343
 21
652.408277
 31
0.0
  0
LINE
  5
1CF
100
AcDbEntity
  8
0
  6
BYBLOCK
 62
     4
100
AcDbLine
 10
385.944343
 20
673.674564
 30
0.0
 11
385.944343
 21
652.408277
 31
0.0
  0
LINE
  5
1D0
100
AcDbEntity
  8
0
  6
BYBLOCK
 62
     4
100
AcDbLine
 10
375.944343
 20
654.908277
 30
0.0
 11
372.944343
 21
654.908277
 31
0.0
  0
LINE
  5
1D1
100
AcDbEntity
  8
0
  6
BYBLOCK
 62
     4
100
AcDbLine
 10
388.944343
 20
654.908277
 30
0.0
 11
401.230058
 21
654.908277
 31
0.0
  0
SOLID
  5
1D2
100
AcDbEntity
  8
0
  6
BYBLOCK
 62
     4
100
AcDbTrace
 10
375.944343
 20
655.408277
 30
0.0
 11
375.944343
 21
654.408277
 31
0.0
 12
378.944343
 22
654.908277
 32
0.0
 13
378.944343
 23
654.908277
 33
0.0
  0
SOLID
  5
1D3
100
AcDbEntity
  8
0
  6
BYBLOCK
 62
     4
100
AcDbTrace
 10
388.944343
 20
655.408277
 30
0.0
 11
388.944343
 21
654.408277
 31
0.0
 12
385.944343
 22
654.908277
 32
0.0
 13
385.944343
 23
654.908277
 33
0.0
  0
MTEXT
  5
1D4
100
AcDbEntity
  8
0
  6
BYBLOCK
 62
     2
100
AcDbMText
 10
396.5872
 20
657.908277
 30
0.0
 40
3.0
 41
0.0
 71
     5
 72
     1
  1
\A1;7.0
  0
POINT
  5
1D5
100
AcDbEntity
  8
DEFPOINTS
  6
BYBLOCK
 62
     0
100
AcDbPoint
 10
378.944343
 20
693.187955
 30
0.0
  0
POINT
  5
1D6
100
AcDbEntity
  8
DEFPOINTS
  6
BYBLOCK
 62
     0
100
AcDbPoint
 10
385.944343
 20
674.674564
 30
0.0
  0
POINT
  5
1D7
100
AcDbEntity
  8
DEFPOINTS
  6
BYBLOCK
 62
     0
100
AcDbPoint
 10
385.944343
 20
654.908277
 30
0.0
  0
ENDBLK
  5
1D9
100
AcDbEntity
  8
0
100
AcDbBlockEnd
  0
BLOCK
  5
1CA
100
AcDbEntity
  8
0
100
AcDbBlockBegin
  2
*D6
 70
     1
 10
0.0
 20
0.0
 30
0.0
  3
*D6
  1

  0
LINE
  5
1C0
100
AcDbEntity
  8
0
  6
BYBLOCK
 62
     4
100
AcDbLine
 10
331.944343
 20
694.187955
 30
0.0
 11
331.944343
 21
652.408277
 31
0.0
  0
LINE
  5
1C1
100
AcDbEntity
  8
0
  6
BYBLOCK
 62
     4
100
AcDbLine
 10
324.944343
 20
685.187955
 30
0.0
 11
324.944343
 21
652.408277
 31
0.0
  0
LINE
  5
1C2
100
AcDbEntity
  8
0
  6
BYBLOCK
 62
     4
100
AcDbLine
 10
334.944343
 20
654.908277
 30
0.0
 11
337.944343
 21
654.908277
 31
0.0
  0
LINE
  5
1C3
100
AcDbEntity
  8
0
  6
BYBLOCK
 62
     4
100
AcDbLine
 10
321.944343
 20
654.908277
 30
0.0
 11
309.658629
 21
654.908277
 31
0.0
  0
SOLID
  5
1C4
100
AcDbEntity
  8
0
  6
BYBLOCK
 62
     4
100
AcDbTrace
 10
334.944343
 20
655.408277
 30
0.0
 11
334.944343
 21
654.408277
 31
0.0
 12
331.944343
 22
654.908277
 32
0.0
 13
331.944343
 23
654.908277
 33
0.0
  0
SOLID
  5
1C5
100
AcDbEntity
  8
0
  6
BYBLOCK
 62
     4
100
AcDbTrace
 10
321.944343
 20
655.408277
 30
0.0
 11
321.944343
 21
654.408277
 31
0.0
 12
324.944343
 22
654.908277
 32
0.0
 13
324.944343
 23
654.908277
 33
0.0
  0
MTEXT
  5
1C6
100
AcDbEntity
  8
0
  6
BYBLOCK
 62
     2
100
AcDbMText
 10
314.301486
 20
657.908277
 30
0.0
 40
3.0
 41
0.0
 71
     5
 72
     1
  1
\A1;7.0
  0
POINT
  5
1C7
100
AcDbEntity
  8
DEFPOINTS
  6
BYBLOCK
 62
     0
100
AcDbPoint
 10
331.944343
 20
695.187955
 30
0.0
  0
POINT
  5
1C8
100
AcDbEntity
  8
DEFPOINTS
  6
BYBLOCK
 62
     0
100
AcDbPoint
 10
324.944343
 20
686.187955
 30
0.0
  0
POINT
  5
1C9
100
AcDbEntity
  8
DEFPOINTS
  6
BYBLOCK
 62
     0
100
AcDbPoint
 10
324.944343
 20
654.908277
 30
0.0
  0
ENDBLK
  5
1CB
100
AcDbEntity
  8
0
100
AcDbBlockEnd
  0
BLOCK
  5
1BC
100
AcDbEntity
  8
0
100
AcDbBlockBegin
  2
*D7
 70
     1
 10
0.0
 20
0.0
 30
0.0
  3
*D7
  1

  0
LINE
  5
1B3
100
AcDbEntity
  8
0
  6
BYBLOCK
 62
     4
100
AcDbLine
 10
394.944343
 20
705.187955
 30
0.0
 11
432.75946
 21
705.187955
 31
0.0
  0
LINE
  5
1B4
100
AcDbEntity
  8
0
  6
BYBLOCK
 62
     4
100
AcDbLine
 10
394.944343
 20
745.187955
 30
0.0
 11
432.75946
 21
745.187955
 31
0.0
  0
LINE
  5
1B5
100
AcDbEntity
  8
0
  6
BYBLOCK
 62
     4
100
AcDbLine
 10
430.25946
 20
708.187955
 30
0.0
 11
430.25946
 21
742.187955
 31
0.0
  0
SOLID
  5
1B6
100
AcDbEntity
  8
0
  6
BYBLOCK
 62
     4
100
AcDbTrace
 10
429.75946
 20
708.187955
 30
0.0
 11
430.75946
 21
708.187955
 31
0.0
 12
430.25946
 22
705.187955
 32
0.0
 13
430.25946
 23
705.187955
 33
0.0
  0
SOLID
  5
1B7
100
AcDbEntity
  8
0
  6
BYBLOCK
 62
     4
100
AcDbTrace
 10
429.75946
 20
742.187955
 30
0.0
 11
430.75946
 21
742.187955
 31
0.0
 12
430.25946
 22
745.187955
 32
0.0
 13
430.25946
 23
745.187955
 33
0.0
  0
MTEXT
  5
1B8
100
AcDbEntity
  8
0
  6
BYBLOCK
 62
     2
100
AcDbMText
 10
427.25946
 20
725.187955
 30
0.0
 40
3.0
 41
0.0
 71
     5
 72
     1
  1
\A1;\U+220540.00 H7
 11
0.0
 21
1.0
 31
0.0
  0
POINT
  5
1B9
100
AcDbEntity
  8
DEFPOINTS
  6
BYBLOCK
 62
     0
100
AcDbPoint
 10
393.944343
 20
705.187955
 30
0.0
  0
POINT
  5
1BA
100
AcDbEntity
  8
DEFPOINTS
  6
BYBLOCK
 62
     0
100
AcDbPoint
 10
393.944343
 20
745.187955
 30
0.0
  0
POINT
  5
1BB
100
AcDbEntity
  8
DEFPOINTS
  6
BYBLOCK
 62
     0
100
AcDbPoint
 10
430.25946
 20
745.187955
 30
0.0
  0
ENDBLK
  5
1BD
100
AcDbEntity
  8
0
100
AcDbBlockEnd
  0
BLOCK
  5
1AF
100
AcDbEntity
  8
0
100
AcDbBlockBegin
  2
*D8
 70
     1
 10
0.0
 20
0.0
 30
0.0
  3
*D8
  1

  0
LINE
  5
1A5
100
AcDbEntity
  8
0
  6
BYBLOCK
 62
     4
100
AcDbLine
 10
331.944343
 20
735.687955
 30
0.0
 11
331.944343
 21
753.974972
 31
0.0
  0
LINE
  5
1A6
100
AcDbEntity
  8
0
  6
BYBLOCK
 62
     4
100
AcDbLine
 10
314.944343
 20
736.187955
 30
0.0
 11
314.944343
 21
753.974972
 31
0.0
  0
LINE
  5
1A7
100
AcDbEntity
  8
0
  6
BYBLOCK
 62
     4
100
AcDbLine
 10
334.944343
 20
751.474972
 30
0.0
 11
337.944343
 21
751.474972
 31
0.0
  0
LINE
  5
1A8
100
AcDbEntity
  8
0
  6
BYBLOCK
 62
     4
100
AcDbLine
 10
311.944343
 20
751.474972
 30
0.0
 11
294.515772
 21
751.474972
 31
0.0
  0
SOLID
  5
1A9
100
AcDbEntity
  8
0
  6
BYBLOCK
 62
     4
100
AcDbTrace
 10
334.944343
 20
751.974972
 30
0.0
 11
334.944343
 21
750.974972
 31
0.0
 12
331.944343
 22
751.474972
 32
0.0
 13
331.944343
 23
751.474972
 33
0.0
  0
SOLID
  5
1AA
100
AcDbEntity
  8
0
  6
BYBLOCK
 62
     4
100
AcDbTrace
 10
311.944343
 20
751.974972
 30
0.0
 11
311.944343
 21
750.974972
 31
0.0
 12
314.944343
 22
751.474972
 32
0.0
 13
314.944343
 23
751.474972
 33
0.0
  0
MTEXT
  5
1AB
100
AcDbEntity
  8
0
  6
BYBLOCK
 62
     2
100
AcDbMText
 10
301.730058
 20
754.474972
 30
0.0
 40
3.0
 41
0.0
 71
     5
 72
     1
  1
\A1;17.00
  0
POINT
  5
1AC
100
AcDbEntity
  8
DEFPOINTS
  6
BYBLOCK
 62
     0
100
AcDbPoint
 10
331.944343
 20
734.687955
 30
0.0
  0
POINT
  5
1AD
100
AcDbEntity
  8
DEFPOINTS
  6
BYBLOCK
 62
     0
100
AcDbPoint
 10
314.944343
 20
735.187955
 30
0.0
  0
POINT
  5
1AE
100
AcDbEntity
  8
DEFPOINTS
  6
BYBLOCK
 62
     0
100
AcDbPoint
 10
314.944343
 20
751.474972
 30
0.0
  0
ENDBLK
  5
1B0
100
AcDbEntity
  8
0
100
AcDbBlockEnd
  0
BLOCK
  5
1A1
100
AcDbEntity
  8
0
100
AcDbBlockBegin
  2
*D9
 70
     1
 10
0.0
 20
0.0
 30
0.0
  3
*D9
  1

  0
LINE
  5
197
100
AcDbEntity
  8
0
  6
BYBLOCK
 62
     4
100
AcDbLine
 10
313.944343
 20
735.187955
 30
0.0
 11
294.794528
 21
735.187955
 31
0.0
  0
LINE
  5
198
100
AcDbEntity
  8
0
  6
BYBLOCK
 62
     4
100
AcDbLine
 10
313.944343
 20
715.187955
 30
0.0
 11
294.794528
 21
715.187955
 31
0.0
  0
LINE
  5
199
100
AcDbEntity
  8
0
  6
BYBLOCK
 62
     4
100
AcDbLine
 10
297.294528
 20
738.187955
 30
0.0
 11
297.294528
 21
741.187955
 31
0.0
  0
LINE
  5
19A
100
AcDbEntity
  8
0
  6
BYBLOCK
 62
     4
100
AcDbLine
 10
297.294528
 20
712.187955
 30
0.0
 11
297.294528
 21
682.759384
 31
0.0
  0
SOLID
  5
19B
100
AcDbEntity
  8
0
  6
BYBLOCK
 62
     4
100
AcDbTrace
 10
296.794528
 20
738.187955
 30
0.0
 11
297.794528
 21
738.187955
 31
0.0
 12
297.294528
 22
735.187955
 32
0.0
 13
297.294528
 23
735.187955
 33
0.0
  0
SOLID
  5
19C
100
AcDbEntity
  8
0
  6
BYBLOCK
 62
     4
100
AcDbTrace
 10
296.794528
 20
712.187955
 30
0.0
 11
297.794528
 21
712.187955
 31
0.0
 12
297.294528
 22
715.187955
 32
0.0
 13
297.294528
 23
715.187955
 33
0.0
  0
MTEXT
  5
19D
100
AcDbEntity
  8
0
  6
BYBLOCK
 62
     2
100
AcDbMText
 10
294.294528
 20
695.97367
 30
0.0
 40
3.0
 41
0.0
 71
     5
 72
     1
  1
\A1;\U+220520.00 H7
 11
0.0
 21
1.0
 31
0.0
  0
POINT
  5
19E
100
AcDbEntity
  8
DEFPOINTS
  6
BYBLOCK
 62
     0
100
AcDbPoint
 10
314.944343
 20
735.187955
 30
0.0
  0
POINT
  5
19F
100
AcDbEntity
  8
DEFPOINTS
  6
BYBLOCK
 62
     0
100
AcDbPoint
 10
314.944343
 20
715.187955
 30
0.0
  0
POINT
  5
1A0
100
AcDbEntity
  8
DEFPOINTS
  6
BYBLOCK
 62
     0
100
AcDbPoint
 10
297.294528
 20
715.187955
 30
0.0
  0
ENDBLK
  5
1A2
100
AcDbEntity
  8
0
100
AcDbBlockEnd
  0
BLOCK
  5
193
100
AcDbEntity
  8
0
100
AcDbBlockBegin
  2
*D10
 70
     1
 10
0.0
 20
0.0
 30
0.0
  3
*D10
  1

  0
LINE
  5
18A
100
AcDbEntity
  8
0
  6
BYBLOCK
 62
     4
100
AcDbLine
 10
319.521694
 20
736.187955
 30
0.0
 11
284.917115
 21
736.187955
 31
0.0
  0
LINE
  5
18B
100
AcDbEntity
  8
0
  6
BYBLOCK
 62
     4
100
AcDbLine
 10
319.521694
 20
714.187955
 30
0.0
 11
284.917115
 21
714.187955
 31
0.0
  0
LINE
  5
18C
100
AcDbEntity
  8
0
  6
BYBLOCK
 62
     4
100
AcDbLine
 10
287.417115
 20
733.187955
 30
0.0
 11
287.417115
 21
717.187955
 31
0.0
  0
SOLID
  5
18D
100
AcDbEntity
  8
0
  6
BYBLOCK
 62
     4
100
AcDbTrace
 10
286.917115
 20
733.187955
 30
0.0
 11
287.917115
 21
733.187955
 31
0.0
 12
287.417115
 22
736.187955
 32
0.0
 13
287.417115
 23
736.187955
 33
0.0
  0
SOLID
  5
18E
100
AcDbEntity
  8
0
  6
BYBLOCK
 62
     4
100
AcDbTrace
 10
286.917115
 20
717.187955
 30
0.0
 11
287.917115
 21
717.187955
 31
0.0
 12
287.417115
 22
714.187955
 32
0.0
 13
287.417115
 23
714.187955
 33
0.0
  0
MTEXT
  5
18F
100
AcDbEntity
  8
0
  6
BYBLOCK
 62
     2
100
AcDbMText
 10
284.417115
 20
725.187955
 30
0.0
 40
3.0
 41
0.0
 71
     5
 72
     1
  1
\A1;22.00
 11
0.0
 21
1.0
 31
0.0
  0
POINT
  5
190
100
AcDbEntity
  8
DEFPOINTS
  6
BYBLOCK
 62
     0
100
AcDbPoint
 10
320.521694
 20
736.187955
 30
0.0
  0
POINT
  5
191
100
AcDbEntity
  8
DEFPOINTS
  6
BYBLOCK
 62
     0
100
AcDbPoint
 10
320.521694
 20
714.187955
 30
0.0
  0
POINT
  5
192
100
AcDbEntity
  8
DEFPOINTS
  6
BYBLOCK
 62
     0
100
AcDbPoint
 10
287.417115
 20
714.187955
 30
0.0
  0
ENDBLK
  5
194
100
AcDbEntity
  8
0
100
AcDbBlockEnd
  0
BLOCK
  5
186
100
AcDbEntity
  8
0
100
AcDbBlockBegin
  2
*D11
 70
     1
 10
0.0
 20
0.0
 30
0.0
  3
*D11
  1

  0
LINE
  5
17C
100
AcDbEntity
  8
0
  6
BYBLOCK
 62
     4
100
AcDbLine
 10
324.944343
 20
713.187955
 30
0.0
 11
324.944343
 21
689.399933
 31
0.0
  0
LINE
  5
17D
100
AcDbEntity
  8
0
  6
BYBLOCK
 62
     4
100
AcDbLine
 10
319.944343
 20
714.187955
 30
0.0
 11
319.944343
 21
689.399933
 31
0.0
  0
LINE
  5
17E
100
AcDbEntity
  8
0
  6
BYBLOCK
 62
     4
100
AcDbLine
 10
327.944343
 20
691.899933
 30
0.0
 11
330.944343
 21
691.899933
 31
0.0
  0
LINE
  5
17F
100
AcDbEntity
  8
0
  6
BYBLOCK
 62
     4
100
AcDbLine
 10
316.944343
 20
691.899933
 30
0.0
 11
304.658629
 21
691.899933
 31
0.0
  0
SOLID
  5
180
100
AcDbEntity
  8
0
  6
BYBLOCK
 62
     4
100
AcDbTrace
 10
327.944343
 20
692.399933
 30
0.0
 11
327.944343
 21
691.399933
 31
0.0
 12
324.944343
 22
691.899933
 32
0.0
 13
324.944343
 23
691.899933
 33
0.0
  0
SOLID
  5
181
100
AcDbEntity
  8
0
  6
BYBLOCK
 62
     4
100
AcDbTrace
 10
316.944343
 20
692.399933
 30
0.0
 11
316.944343
 21
691.399933
 31
0.0
 12
319.944343
 22
691.899933
 32
0.0
 13
319.944343
 23
691.899933
 33
0.0
  0
MTEXT
  5
182
100
AcDbEntity
  8
0
  6
BYBLOCK
 62
     2
100
AcDbMText
 10
309.301486
 20
694.899933
 30
0.0
 40
3.0
 41
0.0
 71
     5
 72
     1
  1
\A1;5.0
  0
POINT
  5
183
100
AcDbEntity
  8
DEFPOINTS
  6
BYBLOCK
 62
     0
100
AcDbPoint
 10
324.944343
 20
714.187955
 30
0.0
  0
POINT
  5
184
100
AcDbEntity
  8
DEFPOINTS
  6
BYBLOCK
 62
     0
100
AcDbPoint
 10
319.944343
 20
715.187955
 30
0.0
  0
POINT
  5
185
100
AcDbEntity
  8
DEFPOINTS
  6
BYBLOCK
 62
     0
100
AcDbPoint
 10
319.944343
 20
691.899933
 30
0.0
  0
ENDBLK
  5
187
100
AcDbEntity
  8
0
100
AcDbBlockEnd
  0
BLOCK
  5
162
100
AcDbEntity
  8
0
100
AcDbBlockBegin
  2
*D12
 70
     1
 10
0.0
 20
0.0
 30
0.0
  3
*D12
  1

  0
LINE
  5
158
100
AcDbEntity
  8
0
  6
BYBLOCK
 62
     4
100
AcDbLine
 10
310.944343
 20
799.687955
 30
0.0
 11
294.768178
 21
799.687955
 31
0.0
  0
LINE
  5
159
100
AcDbEntity
  8
0
  6
BYBLOCK
 62
     4
100
AcDbLine
 10
310.944343
 20
791.687955
 30
0.0
 11
294.768178
 21
791.687955
 31
0.0
  0
LINE
  5
15A
100
AcDbEntity
  8
0
  6
BYBLOCK
 62
     4
100
AcDbLine
 10
297.268178
 20
802.687955
 30
0.0
 11
297.268178
 21
805.687955
 31
0.0
  0
LINE
  5
15B
100
AcDbEntity
  8
0
  6
BYBLOCK
 62
     4
100
AcDbLine
 10
297.268178
 20
788.687955
 30
0.0
 11
297.268178
 21
762.116527
 31
0.0
  0
SOLID
  5
15C
100
AcDbEntity
  8
0
  6
BYBLOCK
 62
     4
100
AcDbTrace
 10
296.768178
 20
802.687955
 30
0.0
 11
297.768178
 21
802.687955
 31
0.0
 12
297.268178
 22
799.687955
 32
0.0
 13
297.268178
 23
799.687955
 33
0.0
  0
SOLID
  5
15D
100
AcDbEntity
  8
0
  6
BYBLOCK
 62
     4
100
AcDbTrace
 10
296.768178
 20
788.687955
 30
0.0
 11
297.768178
 21
788.687955
 31
0.0
 12
297.268178
 22
791.687955
 32
0.0
 13
297.268178
 23
791.687955
 33
0.0
  0
MTEXT
  5
15E
100
AcDbEntity
  8
0
  6
BYBLOCK
 62
     2
100
AcDbMText
 10
294.268178
 20
773.902241
 30
0.0
 40
3.0
 41
0.0
 71
     5
 72
     1
  1
\A1;\U+22058.00 H7
 11
0.0
 21
1.0
 31
0.0
  0
POINT
  5
15F
100
AcDbEntity
  8
DEFPOINTS
  6
BYBLOCK
 62
     0
100
AcDbPoint
 10
311.944343
 20
799.687955
 30
0.0
  0
POINT
  5
160
100
AcDbEntity
  8
DEFPOINTS
  6
BYBLOCK
 62
     0
100
AcDbPoint
 10
311.944343
 20
791.687955
 30
0.0
  0
POINT
  5
161
100
AcDbEntity
  8
DEFPOINTS
  6
BYBLOCK
 62
     0
100
AcDbPoint
 10
297.268178
 20
791.687955
 30
0.0
  0
ENDBLK
  5
163
100
AcDbEntity
  8
0
100
AcDbBlockEnd
  0
ENDSEC
  0
SECTION
  2
ENTITIES
  0
HATCH
  5
20
100
AcDbEntity
  8
M03
100
AcDbHatch
 10
0.0
 20
0.0
 30
0.0
210
0.0
220
0.0
230
1.0
  2
_U
 70
     0
 71
     0
 91
        1
 92
        7
 72
     0
 73
     1
 93
        4
 10
24.724413010798
 20
697.0879552233346
 10
-4.514046403837369
 20
697.0879552233346
 10
-4.514046403837426
 20
695.1879552233345
 10
24.72441301079811
 20
695.1879552233346
 97
        0
 75
     0
 76
     0
 52
330.0
 41
0.7
 77
     0
 78
     1
 53
330.0
 43
-466.415765
 44
292.628729
 45
0.3500000000000003
 46
0.6062177826491069
 79
     0
 47
0.060863
 98
        1
 10
21.033241
 20
695.900524
  0
HATCH
  5
23
100
AcDbEntity
  8
M03
100
AcDbHatch
 10
0.0
 20
0.0
 30
0.0
210
0.0
220
0.0
230
1.0
  2
_U
 70
     0
 71
     0
 91
        1
 92
        7
 72
     0
 73
     1
 93
        4
 10
24.72441301079811
 20
697.0879552233346
 10
-4.514046403837483
 20
697.0879552233346
 10
-4.514046403837483
 20
695.1879552233345
 10
24.72441301079817
 20
695.1879552233346
 97
        0
 75
     0
 76
     0
 52
30.0
 41
0.7
 77
     0
 78
     1
 53
30.0
 43
-466.415765
 44
292.628729
 45
-0.3499999999999999
 46
0.6062177826491072
 79
     0
 47
0.060863
 98
        1
 10
20.850577
 20
696.143976
  0
HATCH
  5
24
100
AcDbEntity
  8
HATCH
100
AcDbHatch
 10
0.0
 20
0.0
 30
0.0
210
0.0
220
0.0
230
1.0
  2
_U
 70
     0
 71
     1
 91
        4
 92
        7
 72
     0
 73
     1
 93
        4
 10
-0.9685241960169719
 20
540.115203601945
 10
-15.96852419601697
 20
540.115203601945
 10
-15.96852419601697
 20
537.115203601945
 10
-0.9685241960171424
 20
537.115203601945
 97
        4
330
3C6
330
3BC
330
3BA
330
244
 92
        7
 72
     0
 73
     1
 93
        4
 10
54.0314758039828
 20
540.115203601945
 10
29.03147580398297
 20
540.115203601945
 10
29.03147580398297
 20
537.115203601945
 10
54.03147580398303
 20
537.115203601945
 97
        4
330
3C6
330
243
330
217
330
36B
 92
        7
 72
     0
 73
     1
 93
        4
 10
149.031475803983
 20
540.115203601945
 10
124.0314758039832
 20
540.115203601945
 10
124.031475803983
 20
537.115203601945
 10
149.0314758039829
 20
537.115203601945
 97
        4
330
D7
330
38D
330
369
330
361
 92
        7
 72
     0
 73
     1
 93
        4
 10
194.031475803983
 20
540.1152036019449
 10
179.031475803983
 20
540.115203601945
 10
179.031475803983
 20
537.115203601945
 10
194.0314758039829
 20
537.115203601945
 97
        4
330
D7
330
360
330
355
330
3BB
 75
     0
 76
     0
 52
135.0
 41
0.8
 77
     0
 78
     1
 53
135.0
 43
-466.415765
 44
292.628729
 45
-0.5656854249492382
 46
-0.565685424949238
 79
     0
 47
0.234448
 98
        4
 10
-4.327798
 20
538.525188
 10
44.457553
 20
537.821843
 10
131.473736
 20
538.056292
 10
188.937251
 20
538.29074
  0
HATCH
  5
25
100
AcDbEntity
  8
HATCH
100
AcDbHatch
 10
0.0
 20
0.0
 30
0.0
210
0.0
220
0.0
230
1.0
  2
_U
 70
     0
 71
     0
 91
        4
 92
        7
 72
     0
 73
     1
 93
        4
 10
-3.968524196017028
 20
590.115203601945
 10
-15.96852419601697
 20
590.115203601945
 10
-15.96852419601697
 20
587.115203601945
 10
-3.968524196016971
 20
587.115203601945
 97
        0
 92
        7
 72
     0
 73
     1
 93
        4
 10
78.03147580398302
 20
590.115203601945
 10
32.03147580398291
 20
590.115203601945
 10
32.03147580398308
 20
587.115203601945
 10
78.03147580398302
 20
587.115203601945
 97
        0
 92
        7
 72
     0
 73
     1
 93
        4
 10
146.0314758039831
 20
590.115203601945
 10
100.031475803983
 20
590.115203601945
 10
100.031475803983
 20
587.115203601945
 10
146.031475803983
 20
587.115203601945
 97
        0
 92
        7
 72
     0
 73
     1
 93
        4
 10
194.0314758039829
 20
590.115203601945
 10
182.031475803983
 20
590.115203601945
 10
182.031475803983
 20
587.115203601945
 10
194.031475803983
 20
587.115203601945
 97
        0
 75
     0
 76
     0
 52
135.0
 41
0.8
 77
     0
 78
     1
 53
135.0
 43
-466.415765
 44
292.628729
 45
-0.5656854249492382
 46
-0.565685424949238
 79
     0
 47
0.234448
 98
        4
 10
-5.265979
 20
588.697106
 10
42.815738
 20
588.931554
 10
113.648319
 20
588.697106
 10
185.184533
 20
588.462658
  0
LINE
  5
26
100
AcDbEntity
  8
M01
100
AcDbLine
 10
372.932355
 20
859.423623
 30
0.0
 11
374.912063
 21
860.630352
 31
0.0
  0
LINE
  5
28
100
AcDbEntity
  8
M01
100
AcDbLine
 10
380.666322
 20
870.87685
 30
0.0
 11
380.666322
 21
879.451662
 31
0.0
  0
LINE
  5
29
100
AcDbEntity
  8
M01
100
AcDbLine
 10
376.666322
 20
870.87685
 30
0.0
 11
376.666322
 21
879.451662
 31
0.0
  0
ARC
  5
2A
100
AcDbEntity
  8
M01
100
AcDbCircle
 10
368.666322
 20
870.87685
 30
0.0
 40
12.0
100
AcDbArc
 50
301.364349
 51
0.0
  0
ARC
  5
2B
100
AcDbEntity
  8
M01
100
AcDbCircle
 10
368.666322
 20
870.87685
 30
0.0
 40
8.0
100
AcDbArc
 50
308.846454
 51
0.0
  0
LINE
  5
2C
100
AcDbEntity
  8
M01
100
AcDbLine
 10
359.300994
 20
855.79917
 30
0.0
 11
369.528407
 21
862.033278
 31
0.0
  0
LINE
  5
2D
100
AcDbEntity
  8
M01
100
AcDbLine
 10
361.382908
 20
852.383671
 30
0.0
 11
361.70644
 21
852.58088
 31
0.0
  0
LINE
  5
2E
100
AcDbEntity
  8
M01
100
AcDbLine
 10
359.944343
 20
845.381263
 30
0.0
 11
359.944343
 21
844.787955
 31
0.0
  0
LINE
  5
2F
100
AcDbEntity
  8
M01
100
AcDbLine
 10
355.944343
 20
849.822046
 30
0.0
 11
355.944343
 21
847.096202
 31
0.0
  0
ARC
  5
30
100
AcDbEntity
  8
M01
100
AcDbCircle
 10
362.944343
 20
849.822046
 30
0.0
 40
3.0
100
AcDbArc
 50
121.364349
 51
151.672691
  0
ARC
  5
31
100
AcDbEntity
  8
M01
100
AcDbCircle
 10
362.944343
 20
849.822046
 30
0.0
 40
7.0
100
AcDbArc
 50
121.364349
 51
180.0
  0
ARC
  5
32
100
AcDbEntity
  8
M01
100
AcDbCircle
 10
362.944343
 20
844.787955
 30
0.0
 40
7.0
100
AcDbArc
 50
202.678679
 51
270.0
  0
ARC
  5
33
100
AcDbEntity
  8
M01
100
AcDbCircle
 10
362.944343
 20
844.787955
 30
0.0
 40
3.0
100
AcDbArc
 50
180.0
 51
270.0
  0
ARC
  5
34
100
AcDbEntity
  8
M01
100
AcDbCircle
 10
361.684206
 20
863.60443
 30
0.0
 40
12.0
100
AcDbArc
 50
313.586993
 51
0.0
  0
ARC
  5
35
100
AcDbEntity
  8
M01
100
AcDbCircle
 10
361.684206
 20
863.60443
 30
0.0
 40
8.0
100
AcDbArc
 50
313.586993
 51
0.0
  0
LINE
  5
36
100
AcDbEntity
  8
M01
100
AcDbLine
 10
362.944343
 20
841.787955
 30
0.0
 11
367.944343
 21
841.787955
 31
0.0
  0
LINE
  5
37
100
AcDbEntity
  8
M01
100
AcDbLine
 10
363.944343
 20
841.787955
 30
0.0
 11
363.944343
 21
837.787955
 31
0.0
  0
LINE
  5
38
100
AcDbEntity
  8
M01
100
AcDbLine
 10
367.944343
 20
841.787955
 30
0.0
 11
367.944343
 21
837.787955
 31
0.0
  0
LINE
  5
39
100
AcDbEntity
  8
M01
100
AcDbLine
 10
332.944343
 20
837.787955
 30
0.0
 11
347.168882
 21
837.787955
 31
0.0
  0
LINE
  5
3A
100
AcDbEntity
  8
M01
100
AcDbLine
 10
347.168882
 20
841.787955
 30
0.0
 11
342.944343
 21
841.787955
 31
0.0
  0
ARC
  5
3B
100
AcDbEntity
  8
M01
100
AcDbCircle
 10
347.168882
 20
849.787955
 30
0.0
 40
12.0
100
AcDbArc
 50
270.0
 51
313.586993
  0
ARC
  5
3C
100
AcDbEntity
  8
M01
100
AcDbCircle
 10
347.168882
 20
849.787955
 30
0.0
 40
8.0
100
AcDbArc
 50
270.0
 51
313.586993
  0
LINE
  5
3D
100
AcDbEntity
  8
M01
100
AcDbLine
 10
346.944343
 20
841.787955
 30
0.0
 11
346.944343
 21
837.787955
 31
0.0
  0
LINE
  5
3E
100
AcDbEntity
  8
M01
100
AcDbLine
 10
342.944343
 20
841.787955
 30
0.0
 11
342.944343
 21
837.787955
 31
0.0
  0
LINE
  5
3F
100
AcDbEntity
  8
M01
100
AcDbLine
 10
369.957668
 20
854.912489
 30
0.0
 11
355.442343
 21
841.096014
 31
0.0
  0
LINE
  5
40
100
AcDbEntity
  8
M01
100
AcDbLine
 10
367.199847
 20
857.809803
 30
0.0
 11
352.684523
 21
843.993328
 31
0.0
  0
LINE
  5
41
100
AcDbEntity
  8
M01
100
AcDbLine
 10
373.684206
 20
879.44292
 30
0.0
 11
373.684206
 21
863.60443
 31
0.0
  0
LINE
  5
42
100
AcDbEntity
  8
M01
100
AcDbLine
 10
369.684206
 20
879.44292
 30
0.0
 11
369.684206
 21
863.60443
 31
0.0
  0
HATCH
  5
43
100
AcDbEntity
  8
HATCH
100
AcDbHatch
 10
0.0
 20
0.0
 30
0.0
210
0.0
220
0.0
230
1.0
  2
_U
 70
     0
 71
     1
 91
        2
 92
        7
 72
     0
 73
     1
 93
       11
 10
6.172593816525989
 20
540.115203601945
 10
0.7314758039831304
 20
540.115203601945
 10
0.0314758039830849
 20
539.4152036019451
 10
0.0314758039831418
 20
533.8152036019448
 10
0.7314758039829599
 20
533.1152036019449
 10
3.531475803983312
 20
533.1152036019449
 10
4.531475803982971
 20
534.1152036019447
 10
6.531475803982516
 20
534.115203601945
 10
7.531475803982402
 20
533.115203601945
 10
10.53147580398297
 20
533.115203601945
 10
10.53147580398297
 20
535.7563216144878
 97
       10
330
3C6
330
241
330
246
330
242
330
3CC
330
48
330
4A
330
49
330
22F
330
231
 92
        7
 72
     0
 73
     1
 93
       11
 10
21.89035779144018
 20
540.115203601945
 10
17.53147580398297
 20
535.7563216144878
 10
17.53147580398297
 20
533.115203601945
 10
20.53147580398382
 20
533.115203601945
 10
21.53147580398348
 20
534.115203601945
 10
23.53147580398297
 20
534.1152036019447
 10
24.53147580398291
 20
533.115203601945
 10
27.33147580398298
 20
533.115203601945
 10
28.03147580398291
 20
533.8152036019448
 10
28.03147580398302
 20
539.4152036019449
 10
27.33147580398286
 20
540.115203601945
 97
       10
330
23C
330
3C6
330
233
330
22E
330
216
330
46
330
47
330
44
330
23D
330
23E
 75
     0
 76
     0
 52
135.0
 41
1.5
 77
     0
 78
     1
 53
135.0
 43
-486.415765
 44
292.628729
 45
-1.060660171779821
 46
-1.060660171779821
 79
     0
 47
0.040219
 98
        2
 10
5.183259
 20
537.594774
 10
23.651547
 20
537.152362
  0
LINE
  5
44
102
{ACAD_REACTORS
330
43
102
}
100
AcDbEntity
  8
M05
100
AcDbLine
 10
23.531476
 20
534.115204
 30
0.0
 11
24.531476
 21
533.115204
 31
0.0
  0
LINE
  5
46
102
{ACAD_REACTORS
330
43
102
}
100
AcDbEntity
  8
M05
100
AcDbLine
 10
21.531476
 20
534.115204
 30
0.0
 11
20.531476
 21
533.115204
 31
0.0
  0
LINE
  5
47
102
{ACAD_REACTORS
330
43
102
}
100
AcDbEntity
  8
M05
100
AcDbLine
 10
23.531476
 20
534.115204
 30
0.0
 11
21.531476
 21
534.115204
 31
0.0
  0
LINE
  5
48
102
{ACAD_REACTORS
330
43
102
}
100
AcDbEntity
  8
M05
100
AcDbLine
 10
4.531476
 20
534.115204
 30
0.0
 11
3.531476
 21
533.115204
 31
0.0
  0
LINE
  5
49
102
{ACAD_REACTORS
330
43
102
}
100
AcDbEntity
  8
M05
100
AcDbLine
 10
6.531476
 20
534.115204
 30
0.0
 11
7.531476
 21
533.115204
 31
0.0
  0
LINE
  5
4A
102
{ACAD_REACTORS
330
43
102
}
100
AcDbEntity
  8
M05
100
AcDbLine
 10
4.531476
 20
534.115204
 30
0.0
 11
6.531476
 21
534.115204
 31
0.0
  0
HATCH
  5
4B
100
AcDbEntity
  8
HATCH
100
AcDbHatch
 10
0.0
 20
0.0
 30
0.0
210
0.0
220
0.0
230
1.0
  2
_U
 70
     0
 71
     0
 91
        2
 92
        7
 72
     0
 73
     1
 93
       11
 10
156.1725938165258
 20
540.115203601945
 10
150.7314758039831
 20
540.115203601945
 10
150.031475803983
 20
539.4152036019449
 10
150.031475803983
 20
533.8152036019448
 10
150.7314758039829
 20
533.115203601945
 10
153.5314758039831
 20
533.115203601945
 10
154.5314758039829
 20
534.1152036019447
 10
156.5314758039827
 20
534.115203601945
 10
157.5314758039822
 20
533.115203601945
 10
160.5314758039829
 20
533.115203601945
 10
160.5314758039829
 20
535.756321614488
 97
        0
 92
        7
 72
     0
 73
     1
 93
       11
 10
178.031475803983
 20
539.4152036019449
 10
177.3314758039829
 20
540.115203601945
 10
171.8903577914399
 20
540.1152036019449
 10
167.531475803983
 20
535.7563216144878
 10
167.531475803983
 20
533.1152036019449
 10
170.5314758039837
 20
533.1152036019449
 10
171.5314758039834
 20
534.1152036019449
 10
173.531475803983
 20
534.1152036019447
 10
174.5314758039828
 20
533.1152036019449
 10
177.3314758039829
 20
533.1152036019449
 10
178.0314758039827
 20
533.8152036019447
 97
        0
 75
     0
 76
     0
 52
135.0
 41
1.5
 77
     0
 78
     1
 53
135.0
 43
-446.415765
 44
292.628729
 45
-1.060660171779821
 46
-1.060660171779821
 79
     0
 47
0.151518
 98
        2
 10
154.507406
 20
536.799241
 10
173.151817
 20
537.405312
  0
LINE
  5
4C
100
AcDbEntity
  8
M05
100
AcDbLine
 10
154.531476
 20
534.115204
 30
0.0
 11
153.531476
 21
533.115204
 31
0.0
  0
LINE
  5
4D
100
AcDbEntity
  8
M05
100
AcDbLine
 10
156.531476
 20
534.115204
 30
0.0
 11
157.531476
 21
533.115204
 31
0.0
  0
LINE
  5
4E
100
AcDbEntity
  8
M05
100
AcDbLine
 10
154.531476
 20
534.115204
 30
0.0
 11
156.531476
 21
534.115204
 31
0.0
  0
LINE
  5
4F
100
AcDbEntity
  8
M05
100
AcDbLine
 10
173.531476
 20
534.115204
 30
0.0
 11
174.531476
 21
533.115204
 31
0.0
  0
LINE
  5
50
100
AcDbEntity
  8
M05
100
AcDbLine
 10
171.531476
 20
534.115204
 30
0.0
 11
170.531476
 21
533.115204
 31
0.0
  0
LINE
  5
51
100
AcDbEntity
  8
M05
100
AcDbLine
 10
173.531476
 20
534.115204
 30
0.0
 11
171.531476
 21
534.115204
 31
0.0
  0
LINE
  5
52
100
AcDbEntity
  8
M02
100
AcDbLine
 10
146.031476
 20
587.115204
 30
0.0
 11
146.031476
 21
590.115204
 31
0.0
  0
LINE
  5
54
100
AcDbEntity
  8
M02
100
AcDbLine
 10
182.031476
 20
587.115204
 30
0.0
 11
182.031476
 21
590.115204
 31
0.0
  0
LINE
  5
55
100
AcDbEntity
  8
M02
100
AcDbLine
 10
32.031476
 20
587.115204
 30
0.0
 11
32.031476
 21
590.115204
 31
0.0
  0
LINE
  5
56
100
AcDbEntity
  8
M02
100
AcDbLine
 10
-3.968524
 20
587.115204
 30
0.0
 11
-3.968524
 21
590.115204
 31
0.0
  0
TEXT
  5
57
100
AcDbEntity
  8
DIMS
 62
     2
100
AcDbText
 10
231.231532
 20
705.489281
 30
0.0
 40
3.0
  1
(W=50.00 OPTION)
 50
90.0
100
AcDbText
  0
POINT
  5
59
100
AcDbEntity
  8
DEFPOINTS
  6
BYBLOCK
 62
     0
100
AcDbPoint
 10
164.031476
 20
775.187955
 30
0.0
  0
POINT
  5
5B
100
AcDbEntity
  8
DEFPOINTS
  6
BYBLOCK
 62
     0
100
AcDbPoint
 10
167.441343
 20
780.721743
 30
0.0
  0
MTEXT
  5
5C
100
AcDbEntity
  8
0
  6
BYBLOCK
 62
     2
100
AcDbMText
 10
129.114157
 20
800.438814
 30
0.0
 40
3.0
 41
0.0
 71
     4
 72
     1
  1
M12 PLATE RETAINING SCREWS SHOULD ALSO BE FITTED.\PMINIMUM 2 PER DROP & ALSO AROUND MANIFOLD POCKET.
  0
SOLID
  5
5D
100
AcDbEntity
  8
0
  6
BYBLOCK
 62
     4
100
AcDbTrace
 10
168.589452
 20
783.538096
 30
0.0
 11
169.440804
 21
783.013501
 31
0.0
 12
167.441343
 22
780.721743
 32
0.0
 13
167.441343
 23
780.721743
 33
0.0
  0
LINE
  5
5E
100
AcDbEntity
  8
0
  6
BYBLOCK
 62
     4
100
AcDbLine
 10
169.015128
 20
783.275799
 30
0.0
 11
176.552317
 21
795.209019
 31
0.0
  0
LINE
  5
5F
100
AcDbEntity
  8
M01
100
AcDbLine
 10
369.694343
 20
823.132056
 30
0.0
 11
376.194343
 21
823.132056
 31
0.0
  0
LINE
  5
60
100
AcDbEntity
  8
M01
100
AcDbLine
 10
369.694343
 20
831.243855
 30
0.0
 11
376.194343
 21
831.243855
 31
0.0
  0
LINE
  5
61
100
AcDbEntity
  8
M01
100
AcDbLine
 10
369.694343
 20
823.132056
 30
0.0
 11
369.694343
 21
821.187955
 31
0.0
  0
ARC
  5
62
100
AcDbEntity
  8
M01
100
AcDbCircle
 10
368.444343
 20
824.693305
 30
0.0
 40
2.0
100
AcDbArc
 50
308.682187
 51
0.0
  0
ARC
  5
63
100
AcDbEntity
  8
M01
100
AcDbCircle
 10
368.444343
 20
829.682605
 30
0.0
 40
2.0
100
AcDbArc
 50
0.0
 51
51.317813
  0
LINE
  5
64
100
AcDbEntity
  8
M01
100
AcDbLine
 10
369.694343
 20
833.187955
 30
0.0
 11
369.694343
 21
831.243855
 31
0.0
  0
LINE
  5
65
100
AcDbEntity
  8
M01
100
AcDbLine
 10
370.444343
 20
829.682605
 30
0.0
 11
370.444343
 21
824.693305
 31
0.0
  0
LINE
  5
66
100
AcDbEntity
  8
M01
100
AcDbLine
 10
376.194343
 20
823.132056
 30
0.0
 11
376.194343
 21
821.187955
 31
0.0
  0
ARC
  5
67
100
AcDbEntity
  8
M01
100
AcDbCircle
 10
377.444343
 20
824.693305
 30
0.0
 40
2.0
100
AcDbArc
 50
180.0
 51
231.317813
  0
ARC
  5
68
100
AcDbEntity
  8
M01
100
AcDbCircle
 10
377.444343
 20
829.682605
 30
0.0
 40
2.0
100
AcDbArc
 50
128.682187
 51
180.0
  0
LINE
  5
69
100
AcDbEntity
  8
M01
100
AcDbLine
 10
376.194343
 20
833.187955
 30
0.0
 11
376.194343
 21
831.243855
 31
0.0
  0
LINE
  5
6A
100
AcDbEntity
  8
M01
100
AcDbLine
 10
375.444343
 20
829.682605
 30
0.0
 11
375.444343
 21
824.693305
 31
0.0
  0
LINE
  5
6B
100
AcDbEntity
  8
M01
100
AcDbLine
 10
104.281476
 20
823.132056
 30
0.0
 11
97.781476
 21
823.132056
 31
0.0
  0
LINE
  5
6C
100
AcDbEntity
  8
M01
100
AcDbLine
 10
104.281476
 20
831.243855
 30
0.0
 11
97.781476
 21
831.243855
 31
0.0
  0
LINE
  5
6D
100
AcDbEntity
  8
M01
100
AcDbLine
 10
104.281476
 20
823.132056
 30
0.0
 11
104.281476
 21
821.187955
 31
0.0
  0
ARC
  5
6E
100
AcDbEntity
  8
M01
100
AcDbCircle
 10
105.531476
 20
824.693305
 30
0.0
 40
2.0
100
AcDbArc
 50
180.0
 51
231.317813
  0
ARC
  5
6F
100
AcDbEntity
  8
M01
100
AcDbCircle
 10
105.531476
 20
829.682605
 30
0.0
 40
2.0
100
AcDbArc
 50
128.682187
 51
180.0
  0
LINE
  5
70
100
AcDbEntity
  8
M01
100
AcDbLine
 10
104.281476
 20
833.187955
 30
0.0
 11
104.281476
 21
831.243855
 31
0.0
  0
LINE
  5
71
100
AcDbEntity
  8
M01
100
AcDbLine
 10
103.531476
 20
829.682605
 30
0.0
 11
103.531476
 21
824.693305
 31
0.0
  0
LINE
  5
72
100
AcDbEntity
  8
M01
100
AcDbLine
 10
97.781476
 20
823.132056
 30
0.0
 11
97.781476
 21
821.187955
 31
0.0
  0
ARC
  5
73
100
AcDbEntity
  8
M01
100
AcDbCircle
 10
96.531476
 20
824.693305
 30
0.0
 40
2.0
100
AcDbArc
 50
308.682187
 51
0.0
  0
ARC
  5
74
100
AcDbEntity
  8
M01
100
AcDbCircle
 10
96.531476
 20
829.682605
 30
0.0
 40
2.0
100
AcDbArc
 50
0.0
 51
51.317813
  0
LINE
  5
75
100
AcDbEntity
  8
M01
100
AcDbLine
 10
97.781476
 20
833.187955
 30
0.0
 11
97.781476
 21
831.243855
 31
0.0
  0
LINE
  5
76
100
AcDbEntity
  8
M01
100
AcDbLine
 10
98.531476
 20
829.682605
 30
0.0
 11
98.531476
 21
824.693305
 31
0.0
  0
LINE
  5
77
100
AcDbEntity
  8
DIMS
 62
     4
100
AcDbLine
 10
164.031476
 20
778.587955
 30
0.0
 11
164.031476
 21
783.387955
 31
0.0
  0
LINE
  5
78
100
AcDbEntity
  8
DIMS
 62
     4
100
AcDbLine
 10
164.031476
 20
771.787955
 30
0.0
 11
164.031476
 21
766.987955
 31
0.0
  0
LINE
  5
79
100
AcDbEntity
  8
DIMS
 62
     4
100
AcDbLine
 10
167.431476
 20
775.187955
 30
0.0
 11
172.231476
 21
775.187955
 31
0.0
  0
LINE
  5
7A
100
AcDbEntity
  8
DIMS
 62
     4
100
AcDbLine
 10
160.631476
 20
775.187955
 30
0.0
 11
155.831476
 21
775.187955
 31
0.0
  0
LINE
  5
7B
100
AcDbEntity
  8
DIMS
 62
     4
100
AcDbLine
 10
164.031476
 20
773.487955
 30
0.0
 11
164.031476
 21
776.887955
 31
0.0
  0
LINE
  5
7C
100
AcDbEntity
  8
DIMS
 62
     4
100
AcDbLine
 10
162.331476
 20
775.187955
 30
0.0
 11
165.731476
 21
775.187955
 31
0.0
  0
LINE
  5
7D
100
AcDbEntity
  8
DIMS
 62
     4
100
AcDbLine
 10
14.031476
 20
778.587955
 30
0.0
 11
14.031476
 21
783.387955
 31
0.0
  0
LINE
  5
7E
100
AcDbEntity
  8
DIMS
 62
     4
100
AcDbLine
 10
14.031476
 20
771.787955
 30
0.0
 11
14.031476
 21
766.987955
 31
0.0
  0
LINE
  5
7F
100
AcDbEntity
  8
DIMS
 62
     4
100
AcDbLine
 10
17.431476
 20
775.187955
 30
0.0
 11
22.231476
 21
775.187955
 31
0.0
  0
LINE
  5
80
100
AcDbEntity
  8
DIMS
 62
     4
100
AcDbLine
 10
10.631476
 20
775.187955
 30
0.0
 11
5.831476
 21
775.187955
 31
0.0
  0
LINE
  5
81
100
AcDbEntity
  8
DIMS
 62
     4
100
AcDbLine
 10
14.031476
 20
773.487955
 30
0.0
 11
14.031476
 21
776.887955
 31
0.0
  0
LINE
  5
82
100
AcDbEntity
  8
DIMS
 62
     4
100
AcDbLine
 10
12.331476
 20
775.187955
 30
0.0
 11
15.731476
 21
775.187955
 31
0.0
  0
LINE
  5
83
100
AcDbEntity
  8
DIMS
 62
     4
100
AcDbLine
 10
14.031476
 20
678.587955
 30
0.0
 11
14.031476
 21
683.387955
 31
0.0
  0
LINE
  5
84
100
AcDbEntity
  8
DIMS
 62
     4
100
AcDbLine
 10
14.031476
 20
671.787955
 30
0.0
 11
14.031476
 21
666.987955
 31
0.0
  0
LINE
  5
85
100
AcDbEntity
  8
DIMS
 62
     4
100
AcDbLine
 10
17.431476
 20
675.187955
 30
0.0
 11
22.231476
 21
675.187955
 31
0.0
  0
LINE
  5
86
100
AcDbEntity
  8
DIMS
 62
     4
100
AcDbLine
 10
10.631476
 20
675.187955
 30
0.0
 11
5.831476
 21
675.187955
 31
0.0
  0
LINE
  5
87
100
AcDbEntity
  8
DIMS
 62
     4
100
AcDbLine
 10
14.031476
 20
673.487955
 30
0.0
 11
14.031476
 21
676.887955
 31
0.0
  0
LINE
  5
88
100
AcDbEntity
  8
DIMS
 62
     4
100
AcDbLine
 10
12.331476
 20
675.187955
 30
0.0
 11
15.731476
 21
675.187955
 31
0.0
  0
LINE
  5
89
100
AcDbEntity
  8
DIMS
 62
     4
100
AcDbLine
 10
164.031476
 20
678.587955
 30
0.0
 11
164.031476
 21
683.387955
 31
0.0
  0
LINE
  5
8A
100
AcDbEntity
  8
DIMS
 62
     4
100
AcDbLine
 10
164.031476
 20
671.787955
 30
0.0
 11
164.031476
 21
666.987955
 31
0.0
  0
LINE
  5
8B
100
AcDbEntity
  8
DIMS
 62
     4
100
AcDbLine
 10
167.431476
 20
675.187955
 30
0.0
 11
172.231476
 21
675.187955
 31
0.0
  0
LINE
  5
8C
100
AcDbEntity
  8
DIMS
 62
     4
100
AcDbLine
 10
160.631476
 20
675.187955
 30
0.0
 11
155.831476
 21
675.187955
 31
0.0
  0
LINE
  5
8D
100
AcDbEntity
  8
DIMS
 62
     4
100
AcDbLine
 10
164.031476
 20
673.487955
 30
0.0
 11
164.031476
 21
676.887955
 31
0.0
  0
LINE
  5
8E
100
AcDbEntity
  8
DIMS
 62
     4
100
AcDbLine
 10
162.331476
 20
675.187955
 30
0.0
 11
165.731476
 21
675.187955
 31
0.0
  0
CIRCLE
  5
8F
100
AcDbEntity
  8
M04
100
AcDbCircle
 10
164.031476
 20
675.187955
 30
0.0
 40
6.5
  0
CIRCLE
  5
91
100
AcDbEntity
  8
M04
100
AcDbCircle
 10
164.031476
 20
775.187955
 30
0.0
 40
6.5
  0
CIRCLE
  5
92
100
AcDbEntity
  8
M04
100
AcDbCircle
 10
14.031476
 20
675.187955
 30
0.0
 40
6.5
  0
CIRCLE
  5
93
100
AcDbEntity
  8
M04
100
AcDbCircle
 10
14.031476
 20
775.187955
 30
0.0
 40
6.5
  0
HATCH
  5
94
100
AcDbEntity
  8
DIMS
100
AcDbHatch
 10
0.0
 20
0.0
 30
0.0
210
0.0
220
0.0
230
1.0
  2
_U
 70
     0
 71
     1
 91
        5
 92
        7
 72
     0
 73
     1
 93
        9
 10
120.531475803983
 20
538.1152036019448
 10
120.531475803983
 20
534.1152036019449
 10
122.331475803983
 20
534.1152036019447
 10
123.0314758039832
 20
534.8152036019449
 10
123.0314758039832
 20
539.4152036019448
 10
122.331475803983
 20
540.115203601945
 10
118.731475803983
 20
540.115203601945
 10
118.7314758039831
 20
538.1152036019449
 10
120.2814758039832
 20
538.1152036019449
 97
        9
330
38B
330
D7
330
EB
330
DC
330
F0
330
DE
330
38E
330
38C
330
38F
 92
        7
 72
     1
 73
     1
 93
       16
 10
108.3314758039831
 20
529.1152036019449
 42
0.0
 10
109.031475803983
 20
529.8152036019449
 42
0.0
 10
109.031475803983
 20
531.115203601945
 42
0.0
 10
108.531475803983
 20
531.1152036019449
 42
0.0
 10
108.5314758039831
 20
534.1152036019449
 42
0.0
 10
109.5314758039831
 20
534.1152036019449
 42
0.0
 10
109.5314758039831
 20
538.1152036019449
 42
0.0
 10
109.7814758039831
 20
538.1152036019449
 42
0.0
 10
111.3314758039828
 20
538.1152036019449
 42
0.0
 10
111.3314758039831
 20
540.115203601945
 42
0.0
 10
99.03147580398291
 20
540.115203601945
 42
0.0
 10
99.03147580398291
 20
549.1152036019448
 42
0.0
 10
98.03147580398302
 20
550.1152036019448
 42
0.0
 10
93.03147580398302
 20
550.1152036019448
 42
0.0
 10
92.07234980187894
 20
531.813989255046
 42
-0.1092323044357263
 10
98.19662719389448
 20
529.1152036019448
 42
0.0
 97
       16
330
38E
330
DF
330
DD
330
DC
330
EA
330
36C
330
398
330
394
330
396
330
375
330
376
330
384
330
383
330
386
330
381
330
380
 92
        7
 72
     1
 73
     1
 93
       16
 10
85.99060180608688
 20
531.813989255046
 42
0.0
 10
85.03147580398303
 20
550.1152036019449
 42
0.0
 10
80.03147580398303
 20
550.1152036019449
 42
0.0
 10
79.03147580398303
 20
549.1152036019448
 42
0.0
 10
79.03147580398303
 20
540.115203601945
 42
0.0
 10
66.73147580398296
 20
540.115203601945
 42
0.0
 10
66.73147580398307
 20
538.1152036019449
 42
0.0
 10
68.28147580398291
 20
538.1152036019449
 42
0.0
 10
68.53147580398291
 20
538.1152036019449
 42
0.0
 10
68.53147580398291
 20
534.115203601945
 42
0.0
 10
69.53147580398303
 20
534.115203601945
 42
0.0
 10
69.53147580398303
 20
531.1152036019446
 42
0.0
 10
69.03147580398303
 20
531.1152036019446
 42
0.0
 10
69.03147580398303
 20
529.8152036019446
 42
0.0
 10
69.73147580398308
 20
529.1152036019446
 42
0.0
 10
79.86632441407135
 20
529.1152036019447
 42
-0.1092323044357266
 97
       16
330
396
330
395
330
397
330
3C6
330
CD
330
BF
330
C0
330
C2
330
37E
330
37F
330
37D
330
385
330
382
330
384
330
372
330
374
 92
        7
 72
     0
 73
     1
 93
        9
 10
57.53147580398302
 20
538.1152036019448
 10
57.7814758039828
 20
538.1152036019448
 10
59.33147580398298
 20
538.1152036019448
 10
59.33147580398298
 20
540.115203601945
 10
55.73147580398296
 20
540.115203601945
 10
55.0314758039828
 20
539.4152036019449
 10
55.0314758039828
 20
534.8152036019448
 10
55.73147580398284
 20
534.115203601945
 10
57.53147580398302
 20
534.115203601945
 97
        9
330
3C6
330
389
330
38A
330
36A
330
37E
330
C1
330
D3
330
BF
330
CE
 92
       24
 93
        4
 72
     1
 10
93.605557
 20
535.182691
 11
107.976985
 21
535.182691
 72
     1
 10
107.976985
 20
535.182691
 11
107.976985
 21
538.182691
 72
     1
 10
107.976985
 20
538.182691
 11
93.605557
 21
538.182691
 72
     1
 10
93.605557
 20
538.182691
 11
93.605557
 21
535.182691
 97
        1
330
365
 75
     0
 76
     0
 52
135.0
 41
2.5
 77
     0
 78
     1
 53
135.0
 43
-466.415765
 44
292.628729
 45
-1.767766952966368
 46
-1.767766952966368
 79
     0
 47
0.085632
 98
        4
 10
121.528438
 20
538.473188
 10
103.880993
 20
532.478959
 10
81.093514
 20
533.677805
 10
56.849696
 20
538.473188
  0
HATCH
  5
95
100
AcDbEntity
  8
DIMS
100
AcDbHatch
 10
0.0
 20
0.0
 30
0.0
210
0.0
220
0.0
230
1.0
  2
_U
 70
     0
 71
     1
 91
        4
 92
        7
 72
     1
 73
     1
 93
        2
 10
183.031475803983
 20
583.1152036019451
 42
1.0
 10
191.031475803983
 20
583.1152036019451
 42
1.0
 97
        1
330
BA
 92
        7
 72
     1
 73
     1
 93
        2
 10
183.031475803983
 20
544.1152036019449
 42
1.0
 10
191.031475803983
 20
544.1152036019449
 42
1.0
 97
        1
330
B1
 92
        7
 72
     1
 73
     1
 93
        2
 10
-12.96852419601697
 20
544.1152036019449
 42
1.0
 10
-4.968524196016971
 20
544.1152036019449
 42
1.0
 97
        1
330
9F
 92
        7
 72
     1
 73
     1
 93
        2
 10
-12.96852419601697
 20
583.1152036019451
 42
1.0
 10
-4.968524196016971
 20
583.1152036019451
 42
1.0
 97
        1
330
A8
 75
     0
 76
     0
 52
45.0
 41
0.8
 77
     0
 78
     1
 53
45.0
 43
-466.415765
 44
292.628729
 45
-0.565685424949238
 46
0.565685424949238
 79
     0
 47
0.21827
 98
        4
 10
186.660121
 20
584.940685
 10
188.407002
 20
545.433784
 10
-7.243774
 20
545.215514
 10
-7.680495
 20
584.504145
  0
HATCH
  5
96
100
AcDbEntity
  8
DIMS
100
AcDbHatch
 10
0.0
 20
0.0
 30
0.0
210
0.0
220
0.0
230
1.0
  2
_U
 70
     0
 71
     1
 91
       21
 92
        7
 72
     1
 73
     1
 93
       39
 10
85.03147580398303
 20
559.6152036019449
 42
0.0
 10
14.03147580398302
 20
559.6152036019449
 42
-0.4142135623730951
 10
10.03147580398302
 20
563.6152036019449
 42
0.0
 10
10.03147580398297
 20
587.115203601945
 42
0.0
 10
-4.968524196017028
 20
587.115203601945
 42
0.0
 10
-4.968524196016971
 20
583.1152036019452
 42
-1.0
 10
-12.96852419601697
 20
583.1152036019451
 42
0.0
 10
-12.96852419601697
 20
587.115203601945
 42
0.0
 10
-15.96852419601697
 20
587.115203601945
 42
0.0
 10
-17.96852419601697
 20
585.115203601945
 42
0.0
 10
-17.96852419601697
 20
542.115203601945
 42
0.0
 10
-15.96852419601691
 20
540.115203601945
 42
0.0
 10
-12.96852419601697
 20
540.115203601945
 42
0.0
 10
-12.96852419601697
 20
544.1152036019449
 42
-1.0
 10
-4.968524196016971
 20
544.1152036019449
 42
0.0
 10
-4.968524196016971
 20
540.115203601945
 42
0.0
 10
0.0314758039830849
 20
540.115203601945
 42
0.0
 10
0.0314758039829712
 20
540.415203601945
 42
0.0
 10
0.7314758039830167
 20
541.115203601945
 42
0.0
 10
27.33147580398304
 20
541.115203601945
 42
0.0
 10
28.03147580398302
 20
540.415203601945
 42
0.0
 10
28.03147580398302
 20
540.115203601945
 42
0.0
 10
60.03147580398302
 20
540.115203601945
 42
0.0
 10
60.03147580398302
 20
547.4152036019449
 42
0.0
 10
60.03147580398302
 20
549.9152036019449
 42
0.0
 10
60.73147580398307
 20
549.9152036019449
 42
0.0
 10
60.73147580398307
 20
551.4152036019448
 42
0.0
 10
63.03147580398302
 20
552.743109221081
 42
0.0
 10
65.33147580398298
 20
551.4152036019448
 42
0.0
 10
65.33147580398298
 20
549.9152036019449
 42
0.0
 10
66.03147580398303
 20
549.9152036019449
 42
0.0
 10
66.03147580398303
 20
547.4152036019451
 42
0.0
 10
66.03147580398303
 20
540.115203601945
 42
0.0
 10
78.53147580398325
 20
540.1152036019452
 42
0.0
 10
79.03147580398303
 20
540.6152036019445
 42
0.0
 10
79.03147580398303
 20
549.1152036019449
 42
0.0
 10
79.03147580398325
 20
550.1152036019449
 42
0.0
 10
80.03147580398314
 20
550.1152036019449
 42
0.0
 10
85.03147580398303
 20
550.1152036019448
 42
0.0
 97
       34
330
3C7
330
A6
330
A8
330
A7
330
3C2
330
3C5
330
3C3
330
3C6
330
9E
330
9F
330
9D
330
240
330
23F
330
245
330
23A
330
23B
330
D2
330
BD
330
C7
330
BE
330
C4
330
C5
330
BC
330
BB
330
D1
330
387
330
397
330
390
330
391
330
396
330
373
330
349
330
34C
330
34B
 92
        7
 72
     0
 73
     1
 93
        8
 10
79.53147580398303
 20
582.1152036019451
 10
79.53147580398303
 20
583.1152036019451
 10
79.53147580398303
 20
587.115203601945
 10
18.03147580398302
 20
587.115203601945
 10
18.03147580398297
 20
567.6152036019449
 10
89.03147580398302
 20
567.6152036019447
 10
89.03147580398302
 20
582.1152036019451
 10
80.53147580398302
 20
582.1152036019451
 97
        8
330
3B9
330
3A2
330
3A3
330
3B7
330
3C7
330
34A
330
350
330
3C9
 92
        7
 72
     0
 73
     1
 93
        8
 10
160.031475803983
 20
567.6152036019449
 10
160.031475803983
 20
587.115203601945
 10
98.53147580398303
 20
587.115203601945
 10
98.53147580398303
 20
583.1152036019451
 10
98.53147580398303
 20
582.1152036019451
 10
97.53147580398303
 20
582.1152036019451
 10
89.03147580398302
 20
582.1152036019451
 10
89.03147580398302
 20
567.6152036019449
 97
        8
330
39B
330
3B8
330
3AA
330
3A9
330
3B9
330
3C9
330
350
330
352
 92
        7
 72
     1
 73
     1
 93
       39
 10
164.031475803983
 20
559.6152036019449
 42
0.0
 10
93.03147580398302
 20
559.6152036019449
 42
0.0
 10
93.03147580398302
 20
550.1152036019448
 42
0.0
 10
98.03147580398292
 20
550.1152036019448
 42
0.0
 10
99.03147580398281
 20
550.1152036019448
 42
0.0
 10
99.03147580398291
 20
549.1152036019448
 42
0.0
 10
99.03147580398291
 20
540.6152036019447
 42
0.0
 10
99.5314758039828
 20
540.115203601945
 42
0.0
 10
112.031475803983
 20
540.115203601945
 42
0.0
 10
112.031475803983
 20
547.4152036019449
 42
0.0
 10
112.031475803983
 20
549.9152036019449
 42
0.0
 10
112.731475803983
 20
549.9152036019449
 42
0.0
 10
112.731475803983
 20
551.4152036019448
 42
0.0
 10
115.031475803983
 20
552.743109221081
 42
0.0
 10
117.3314758039829
 20
551.4152036019448
 42
0.0
 10
117.3314758039829
 20
549.9152036019449
 42
0.0
 10
118.0314758039829
 20
549.9152036019449
 42
0.0
 10
118.031475803983
 20
547.4152036019451
 42
0.0
 10
118.031475803983
 20
540.115203601945
 42
0.0
 10
150.031475803983
 20
540.115203601945
 42
0.0
 10
150.031475803983
 20
540.415203601945
 42
0.0
 10
150.7314758039829
 20
541.115203601945
 42
0.0
 10
177.3314758039828
 20
541.1152036019449
 42
0.0
 10
178.031475803983
 20
540.4152036019448
 42
0.0
 10
178.031475803983
 20
540.1152036019449
 42
0.0
 10
183.031475803983
 20
540.115203601945
 42
0.0
 10
183.031475803983
 20
544.1152036019449
 42
-1.0
 10
191.031475803983
 20
544.1152036019449
 42
0.0
 10
191.031475803983
 20
540.1152036019449
 42
0.0
 10
194.031475803983
 20
540.1152036019449
 42
0.0
 10
196.031475803983
 20
542.1152036019448
 42
0.0
 10
196.031475803983
 20
585.115203601945
 42
0.0
 10
194.031475803983
 20
587.115203601945
 42
0.0
 10
191.031475803983
 20
587.115203601945
 42
0.0
 10
191.031475803983
 20
583.1152036019451
 42
-1.0
 10
183.031475803983
 20
583.1152036019451
 42
0.0
 10
183.031475803983
 20
587.115203601945
 42
0.0
 10
168.031475803983
 20
587.115203601945
 42
0.0
 10
168.031475803983
 20
563.6152036019449
 42
-0.4142135623730951
 97
       35
330
3C1
330
39B
330
B9
330
BA
330
B8
330
353
330
354
330
351
330
377
330
396
330
393
330
392
330
398
330
388
330
36C
330
EE
330
D8
330
E4
330
D9
330
E2
330
E1
330
DB
330
DA
330
EF
330
D7
330
35D
330
35C
330
362
330
357
330
358
330
AF
330
B1
330
B0
330
3C0
330
3C4
 92
       22
 72
     0
 73
     1
 93
        4
 10
150.0314758039831
 20
540.115203601945
 10
150.031475803983
 20
540.415203601945
 10
155.872593816526
 20
540.415203601945
 10
156.1725938165259
 20
540.115203601945
 97
        4
330
356
330
35D
330
D7
330
264
 92
       22
 72
     0
 73
     1
 93
        4
 10
150.031475803983
 20
540.415203601945
 10
150.731475803983
 20
541.1152036019449
 10
155.1725938165258
 20
541.1152036019449
 10
155.8725938165259
 20
540.415203601945
 97
        4
330
362
330
35C
330
356
330
258
 92
       23
 72
     0
 73
     1
 93
        4
 10
155.8725938165259
 20
540.415203601945
 10
164.031475803983
 20
540.415203601945
 10
164.031475803983
 20
541.1152036019449
 10
155.1725938165257
 20
541.115203601945
 97
        4
330
362
330
258
330
356
330
364
 92
       23
 72
     0
 73
     1
 93
        4
 10
156.1725938165259
 20
540.115203601945
 10
164.031475803983
 20
540.115203601945
 10
164.031475803983
 20
540.415203601945
 10
155.8725938165259
 20
540.415203601945
 97
        4
330
356
330
264
330
D7
330
364
 92
       23
 72
     0
 73
     1
 93
        4
 10
164.0314758039829
 20
540.415203601945
 10
172.19035779144
 20
540.415203601945
 10
172.8903577914403
 20
541.1152036019449
 10
164.031475803983
 20
541.115203601945
 97
        4
330
362
330
364
330
356
330
259
 92
       23
 72
     0
 73
     1
 93
        4
 10
164.031475803983
 20
540.115203601945
 10
171.8903577914401
 20
540.115203601945
 10
172.1903577914402
 20
540.415203601945
 10
164.031475803983
 20
540.415203601945
 97
        4
330
356
330
364
330
D7
330
266
 92
       23
 72
     0
 73
     1
 93
        4
 10
172.1903577914402
 20
540.415203601945
 10
178.031475803983
 20
540.415203601945
 10
177.331475803983
 20
541.115203601945
 10
172.8903577914403
 20
541.115203601945
 97
        4
330
362
330
259
330
356
330
357
 92
       23
 72
     0
 73
     1
 93
        4
 10
171.89035779144
 20
540.115203601945
 10
178.031475803983
 20
540.115203601945
 10
178.031475803983
 20
540.415203601945
 10
172.1903577914401
 20
540.415203601945
 97
        4
330
356
330
266
330
D7
330
358
 92
       22
 72
     0
 73
     1
 93
        4
 10
0.0314758039830849
 20
540.115203601945
 10
0.0314758039830281
 20
540.415203601945
 10
5.87259381652592
 20
540.415203601945
 10
6.172593816525989
 20
540.115203601945
 97
        4
330
239
330
240
330
3C6
330
231
 92
       22
 72
     0
 73
     1
 93
        4
 10
0.0314758039830849
 20
540.415203601945
 10
0.7314758039830167
 20
541.115203601945
 10
5.172593816525761
 20
541.115203601945
 10
5.872593816525977
 20
540.415203601945
 97
        4
330
245
330
23F
330
239
330
226
 92
       23
 72
     0
 73
     1
 93
        4
 10
5.87259381652592
 20
540.415203601945
 10
14.03147580398302
 20
540.415203601945
 10
14.03147580398297
 20
541.1152036019449
 10
5.172593816525875
 20
541.115203601945
 97
        4
330
245
330
226
330
239
330
247
 92
       23
 72
     0
 73
     1
 93
        4
 10
14.03147580398297
 20
540.415203601945
 10
5.872593816526034
 20
540.415203601945
 10
6.172593816525932
 20
540.115203601945
 10
14.03147580398302
 20
540.115203601945
 97
        4
330
239
330
231
330
3C6
330
247
 92
       23
 72
     0
 73
     1
 93
        4
 10
14.03147580398302
 20
540.115203601945
 10
21.89035779144029
 20
540.1152036019452
 10
22.19035779144013
 20
540.415203601945
 10
14.03147580398302
 20
540.415203601945
 97
        4
330
239
330
247
330
3C6
330
233
 92
       23
 72
     0
 73
     1
 93
        4
 10
14.03147580398297
 20
540.415203601945
 10
22.19035779144013
 20
540.415203601945
 10
22.89035779144023
 20
541.1152036019449
 10
14.03147580398302
 20
541.1152036019449
 97
        4
330
245
330
247
330
239
330
227
 92
       22
 72
     0
 73
     1
 93
        4
 10
28.03147580398331
 20
540.415203601945
 10
22.19035779144007
 20
540.415203601945
 10
22.89035779144023
 20
541.1152036019449
 10
27.33147580398292
 20
541.115203601945
 97
        4
330
245
330
227
330
239
330
23A
 92
       23
 72
     0
 73
     1
 93
        4
 10
21.89035779144024
 20
540.115203601945
 10
28.03147580398302
 20
540.115203601945
 10
28.03147580398308
 20
540.415203601945
 10
22.19035779144013
 20
540.415203601945
 97
        4
330
239
330
233
330
3C6
330
23B
 92
       24
 93
        4
 72
     1
 10
174.282646
 20
558.24249
 11
188.825503
 21
558.24249
 72
     1
 10
188.825503
 20
558.24249
 11
188.825503
 21
561.24249
 72
     1
 10
188.825503
 20
561.24249
 11
174.282646
 21
561.24249
 72
     1
 10
174.282646
 20
561.24249
 11
174.282646
 21
558.24249
 97
        1
330
211
 75
     0
 76
     0
 52
45.0
 41
6.0
 77
     0
 78
     1
 53
45.0
 43
-466.415765
 44
292.628729
 45
-4.242640687119284
 46
4.242640687119285
 79
     0
 47
0.027694
 98
       20
 10
22.453218
 20
569.225233
 10
72.239355
 20
577.30123
 10
108.487155
 20
573.808907
 10
149.975601
 20
567.479072
 10
134.066563
 20
540.246406
 10
134.176469
 20
540.722484
 10
136.850928
 20
540.612618
 10
137.180656
 20
540.209785
 10
145.350574
 20
540.759104
 10
145.240665
 20
540.209785
 10
153.703675
 20
540.649241
 10
153.227399
 20
540.173163
 10
22.195488
 20
540.19439
 10
22.417129
 20
540.665184
 10
27.43176
 20
540.748264
 10
27.348645
 20
540.305164
 10
35.24461
 20
540.19439
 10
35.383134
 20
540.692877
 10
43.750088
 20
540.803651
 10
43.11287
 20
540.277471
  0
LINE
  5
97
100
AcDbEntity
  8
DIMS
 62
     4
100
AcDbLine
 10
-12.368524
 20
544.115204
 30
0.0
 11
-14.668524
 21
544.115204
 31
0.0
  0
LINE
  5
98
100
AcDbEntity
  8
DIMS
 62
     4
100
AcDbLine
 10
-5.568524
 20
544.115204
 30
0.0
 11
-3.268524
 21
544.115204
 31
0.0
  0
LINE
  5
99
100
AcDbEntity
  8
DIMS
 62
     4
100
AcDbLine
 10
-8.968524
 20
547.515204
 30
0.0
 11
-8.968524
 21
549.815204
 31
0.0
  0
LINE
  5
9A
100
AcDbEntity
  8
DIMS
 62
     4
100
AcDbLine
 10
-8.968524
 20
540.715204
 30
0.0
 11
-8.968524
 21
538.415204
 31
0.0
  0
LINE
  5
9B
100
AcDbEntity
  8
DIMS
 62
     4
100
AcDbLine
 10
-7.268524
 20
544.115204
 30
0.0
 11
-10.668524
 21
544.115204
 31
0.0
  0
LINE
  5
9C
100
AcDbEntity
  8
DIMS
 62
     4
100
AcDbLine
 10
-8.968524
 20
542.415204
 30
0.0
 11
-8.968524
 21
545.815204
 31
0.0
  0
LINE
  5
9D
102
{ACAD_REACTORS
330
96
102
}
100
AcDbEntity
  8
M01
100
AcDbLine
 10
-4.968524
 20
544.115204
 30
0.0
 11
-4.968524
 21
540.115204
 31
0.0
  0
LINE
  5
9E
102
{ACAD_REACTORS
330
96
102
}
100
AcDbEntity
  8
M01
100
AcDbLine
 10
-12.968524
 20
544.115204
 30
0.0
 11
-12.968524
 21
540.115204
 31
0.0
  0
CIRCLE
  5
9F
102
{ACAD_REACTORS
330
96
330
95
102
}
100
AcDbEntity
  8
M01
100
AcDbCircle
 10
-8.968524
 20
544.115204
 30
0.0
 40
4.0
  0
LINE
  5
A0
100
AcDbEntity
  8
DIMS
 62
     4
100
AcDbLine
 10
-12.368524
 20
583.115204
 30
0.0
 11
-14.668524
 21
583.115204
 31
0.0
  0
LINE
  5
A1
100
AcDbEntity
  8
DIMS
 62
     4
100
AcDbLine
 10
-5.568524
 20
583.115204
 30
0.0
 11
-3.268524
 21
583.115204
 31
0.0
  0
LINE
  5
A2
100
AcDbEntity
  8
DIMS
 62
     4
100
AcDbLine
 10
-8.968524
 20
579.715204
 30
0.0
 11
-8.968524
 21
577.415204
 31
0.0
  0
LINE
  5
A3
100
AcDbEntity
  8
DIMS
 62
     4
100
AcDbLine
 10
-8.968524
 20
586.515204
 30
0.0
 11
-8.968524
 21
588.815204
 31
0.0
  0
LINE
  5
A4
100
AcDbEntity
  8
DIMS
 62
     4
100
AcDbLine
 10
-7.268524
 20
583.115204
 30
0.0
 11
-10.668524
 21
583.115204
 31
0.0
  0
LINE
  5
A5
100
AcDbEntity
  8
DIMS
 62
     4
100
AcDbLine
 10
-8.968524
 20
584.815204
 30
0.0
 11
-8.968524
 21
581.415204
 31
0.0
  0
LINE
  5
A6
102
{ACAD_REACTORS
330
96
102
}
100
AcDbEntity
  8
M01
100
AcDbLine
 10
-4.968524
 20
583.115204
 30
0.0
 11
-4.968524
 21
587.115204
 31
0.0
  0
LINE
  5
A7
102
{ACAD_REACTORS
330
96
102
}
100
AcDbEntity
  8
M01
100
AcDbLine
 10
-12.968524
 20
583.115204
 30
0.0
 11
-12.968524
 21
587.115204
 31
0.0
  0
CIRCLE
  5
A8
102
{ACAD_REACTORS
330
96
330
95
102
}
100
AcDbEntity
  8
M01
100
AcDbCircle
 10
-8.968524
 20
583.115204
 30
0.0
 40
4.0
  0
LINE
  5
A9
100
AcDbEntity
  8
DIMS
 62
     4
100
AcDbLine
 10
190.431476
 20
544.115204
 30
0.0
 11
192.731476
 21
544.115204
 31
0.0
  0
LINE
  5
AA
100
AcDbEntity
  8
DIMS
 62
     4
100
AcDbLine
 10
183.631476
 20
544.115204
 30
0.0
 11
181.331476
 21
544.115204
 31
0.0
  0
LINE
  5
AB
100
AcDbEntity
  8
DIMS
 62
     4
100
AcDbLine
 10
187.031476
 20
547.515204
 30
0.0
 11
187.031476
 21
549.815204
 31
0.0
  0
LINE
  5
AC
100
AcDbEntity
  8
DIMS
 62
     4
100
AcDbLine
 10
187.031476
 20
540.715204
 30
0.0
 11
187.031476
 21
538.415204
 31
0.0
  0
LINE
  5
AD
100
AcDbEntity
  8
DIMS
 62
     4
100
AcDbLine
 10
185.331476
 20
544.115204
 30
0.0
 11
188.731476
 21
544.115204
 31
0.0
  0
LINE
  5
AE
100
AcDbEntity
  8
DIMS
 62
     4
100
AcDbLine
 10
187.031476
 20
542.415204
 30
0.0
 11
187.031476
 21
545.815204
 31
0.0
  0
LINE
  5
AF
102
{ACAD_REACTORS
330
96
102
}
100
AcDbEntity
  8
M01
100
AcDbLine
 10
183.031476
 20
544.115204
 30
0.0
 11
183.031476
 21
540.115204
 31
0.0
  0
LINE
  5
B0
102
{ACAD_REACTORS
330
96
102
}
100
AcDbEntity
  8
M01
100
AcDbLine
 10
191.031476
 20
544.115204
 30
0.0
 11
191.031476
 21
540.115204
 31
0.0
  0
CIRCLE
  5
B1
102
{ACAD_REACTORS
330
96
330
95
102
}
100
AcDbEntity
  8
M01
100
AcDbCircle
 10
187.031476
 20
544.115204
 30
0.0
 40
4.0
  0
LINE
  5
B2
100
AcDbEntity
  8
DIMS
 62
     4
100
AcDbLine
 10
190.431476
 20
583.115204
 30
0.0
 11
192.731476
 21
583.115204
 31
0.0
  0
LINE
  5
B3
100
AcDbEntity
  8
DIMS
 62
     4
100
AcDbLine
 10
183.631476
 20
583.115204
 30
0.0
 11
181.331476
 21
583.115204
 31
0.0
  0
LINE
  5
B4
100
AcDbEntity
  8
DIMS
 62
     4
100
AcDbLine
 10
187.031476
 20
579.715204
 30
0.0
 11
187.031476
 21
577.415204
 31
0.0
  0
LINE
  5
B5
100
AcDbEntity
  8
DIMS
 62
     4
100
AcDbLine
 10
187.031476
 20
586.515204
 30
0.0
 11
187.031476
 21
588.815204
 31
0.0
  0
LINE
  5
B6
100
AcDbEntity
  8
DIMS
 62
     4
100
AcDbLine
 10
185.331476
 20
583.115204
 30
0.0
 11
188.731476
 21
583.115204
 31
0.0
  0
LINE
  5
B7
100
AcDbEntity
  8
DIMS
 62
     4
100
AcDbLine
 10
187.031476
 20
584.815204
 30
0.0
 11
187.031476
 21
581.415204
 31
0.0
  0
LINE
  5
B8
102
{ACAD_REACTORS
330
96
102
}
100
AcDbEntity
  8
M01
100
AcDbLine
 10
183.031476
 20
583.115204
 30
0.0
 11
183.031476
 21
587.115204
 31
0.0
  0
LINE
  5
B9
102
{ACAD_REACTORS
330
96
102
}
100
AcDbEntity
  8
M01
100
AcDbLine
 10
191.031476
 20
583.115204
 30
0.0
 11
191.031476
 21
587.115204
 31
0.0
  0
CIRCLE
  5
BA
102
{ACAD_REACTORS
330
96
330
95
102
}
100
AcDbEntity
  8
M01
100
AcDbCircle
 10
187.031476
 20
583.115204
 30
0.0
 40
4.0
  0
LINE
  5
BB
102
{ACAD_REACTORS
330
96
102
}
100
AcDbEntity
  8
M04
100
AcDbLine
 10
66.031476
 20
547.415204
 30
0.0
 11
66.031476
 21
549.915204
 31
0.0
  0
LINE
  5
BC
102
{ACAD_REACTORS
330
96
102
}
100
AcDbEntity
  8
M04
100
AcDbLine
 10
65.331476
 20
548.115204
 30
0.0
 11
65.331476
 21
551.415204
 31
0.0
  0
LINE
  5
BD
102
{ACAD_REACTORS
330
96
102
}
100
AcDbEntity
  8
M04
100
AcDbLine
 10
60.031476
 20
547.415204
 30
0.0
 11
60.031476
 21
549.915204
 31
0.0
  0
LINE
  5
BE
102
{ACAD_REACTORS
330
96
102
}
100
AcDbEntity
  8
M04
100
AcDbLine
 10
60.731476
 20
548.115204
 30
0.0
 11
60.731476
 21
551.415204
 31
0.0
  0
LINE
  5
BF
102
{ACAD_REACTORS
330
94
102
}
100
AcDbEntity
  8
M05
100
AcDbLine
 10
57.781476
 20
538.115204
 30
0.0
 11
68.281476
 21
538.115204
 31
0.0
  0
LINE
  5
C0
102
{ACAD_REACTORS
330
94
102
}
100
AcDbEntity
  8
M04
100
AcDbLine
 10
68.281476
 20
538.115204
 30
0.0
 11
68.531476
 21
538.115204
 31
0.0
  0
LINE
  5
C1
102
{ACAD_REACTORS
330
94
102
}
100
AcDbEntity
  8
M04
100
AcDbLine
 10
57.531476
 20
538.115204
 30
0.0
 11
57.531476
 21
534.115204
 31
0.0
  0
LINE
  5
C2
102
{ACAD_REACTORS
330
94
102
}
100
AcDbEntity
  8
M04
100
AcDbLine
 10
68.531476
 20
538.115204
 30
0.0
 11
68.531476
 21
534.115204
 31
0.0
  0
LINE
  5
C3
100
AcDbEntity
  8
M05
100
AcDbLine
 10
66.031476
 20
539.115204
 30
0.0
 11
60.031476
 21
539.115204
 31
0.0
  0
LINE
  5
C4
102
{ACAD_REACTORS
330
96
102
}
100
AcDbEntity
  8
M04
100
AcDbLine
 10
60.731476
 20
551.415204
 30
0.0
 11
63.031476
 21
552.743109
 31
0.0
  0
LINE
  5
C5
102
{ACAD_REACTORS
330
96
102
}
100
AcDbEntity
  8
M04
100
AcDbLine
 10
65.331476
 20
551.415204
 30
0.0
 11
63.031476
 21
552.743109
 31
0.0
  0
LINE
  5
C6
100
AcDbEntity
  8
M04
100
AcDbLine
 10
65.331476
 20
551.415204
 30
0.0
 11
60.731476
 21
551.415204
 31
0.0
  0
LINE
  5
C7
102
{ACAD_REACTORS
330
96
102
}
100
AcDbEntity
  8
M04
100
AcDbLine
 10
66.031476
 20
549.915204
 30
0.0
 11
60.031476
 21
549.915204
 31
0.0
  0
ARC
  5
C8
100
AcDbEntity
  8
M05
100
AcDbCircle
 10
63.031476
 20
540.64134
 30
0.0
 40
5.826136
100
AcDbArc
 50
205.69541
 51
334.30459
  0
LINE
  5
C9
100
AcDbEntity
  8
M05
100
AcDbLine
 10
60.031476
 20
547.415204
 30
0.0
 11
60.731476
 21
548.115204
 31
0.0
  0
LINE
  5
CA
100
AcDbEntity
  8
M05
100
AcDbLine
 10
66.031476
 20
547.415204
 30
0.0
 11
65.331476
 21
548.115204
 31
0.0
  0
LINE
  5
CB
100
AcDbEntity
  8
M05
100
AcDbLine
 10
66.031476
 20
547.415204
 30
0.0
 11
60.031476
 21
547.415204
 31
0.0
  0
LINE
  5
CC
100
AcDbEntity
  8
M05
100
AcDbLine
 10
65.331476
 20
548.115204
 30
0.0
 11
60.731476
 21
548.115204
 31
0.0
  0
LINE
  5
CD
102
{ACAD_REACTORS
330
94
102
}
100
AcDbEntity
  8
M04
100
AcDbLine
 10
66.731476
 20
540.115204
 30
0.0
 11
66.731476
 21
538.115204
 31
0.0
  0
LINE
  5
CE
102
{ACAD_REACTORS
330
94
102
}
100
AcDbEntity
  8
M04
100
AcDbLine
 10
59.331476
 20
540.115204
 30
0.0
 11
59.331476
 21
538.115204
 31
0.0
  0
LINE
  5
CF
100
AcDbEntity
  8
M05
100
AcDbLine
 10
60.731476
 20
548.115204
 30
0.0
 11
60.731476
 21
539.115204
 31
0.0
  0
LINE
  5
D0
100
AcDbEntity
  8
M05
100
AcDbLine
 10
65.331476
 20
548.115204
 30
0.0
 11
65.331476
 21
539.115204
 31
0.0
  0
LINE
  5
D1
102
{ACAD_REACTORS
330
96
102
}
100
AcDbEntity
  8
M05
100
AcDbLine
 10
66.031476
 20
547.415204
 30
0.0
 11
66.031476
 21
538.115204
 31
0.0
  0
LINE
  5
D2
102
{ACAD_REACTORS
330
96
102
}
100
AcDbEntity
  8
M05
100
AcDbLine
 10
60.031476
 20
547.415204
 30
0.0
 11
60.031476
 21
538.115204
 31
0.0
  0
LINE
  5
D3
102
{ACAD_REACTORS
330
94
102
}
100
AcDbEntity
  8
M04
100
AcDbLine
 10
57.531476
 20
538.115204
 30
0.0
 11
57.781476
 21
538.115204
 31
0.0
  0
LINE
  5
D4
100
AcDbEntity
  8
CENTRE
100
AcDbLine
 10
63.031476
 20
555.381704
 30
0.0
 11
63.031476
 21
530.469015
 31
0.0
  0
LINE
  5
D7
102
{ACAD_REACTORS
330
96
330
94
330
24
102
}
100
AcDbEntity
  8
M01
100
AcDbLine
 10
118.031476
 20
540.115204
 30
0.0
 11
194.031476
 21
540.115204
 31
0.0
  0
LINE
  5
D8
102
{ACAD_REACTORS
330
96
102
}
100
AcDbEntity
  8
M04
100
AcDbLine
 10
112.031476
 20
547.415204
 30
0.0
 11
112.031476
 21
549.915204
 31
0.0
  0
LINE
  5
D9
102
{ACAD_REACTORS
330
96
102
}
100
AcDbEntity
  8
M04
100
AcDbLine
 10
112.731476
 20
548.115204
 30
0.0
 11
112.731476
 21
551.415204
 31
0.0
  0
LINE
  5
DA
102
{ACAD_REACTORS
330
96
102
}
100
AcDbEntity
  8
M04
100
AcDbLine
 10
118.031476
 20
547.415204
 30
0.0
 11
118.031476
 21
549.915204
 31
0.0
  0
LINE
  5
DB
102
{ACAD_REACTORS
330
96
102
}
100
AcDbEntity
  8
M04
100
AcDbLine
 10
117.331476
 20
548.115204
 30
0.0
 11
117.331476
 21
551.415204
 31
0.0
  0
LINE
  5
DC
102
{ACAD_REACTORS
330
94
102
}
100
AcDbEntity
  8
M05
100
AcDbLine
 10
120.281476
 20
538.115204
 30
0.0
 11
109.781476
 21
538.115204
 31
0.0
  0
LINE
  5
DD
102
{ACAD_REACTORS
330
94
102
}
100
AcDbEntity
  8
M04
100
AcDbLine
 10
109.781476
 20
538.115204
 30
0.0
 11
109.531476
 21
538.115204
 31
0.0
  0
LINE
  5
DE
102
{ACAD_REACTORS
330
94
102
}
100
AcDbEntity
  8
M04
100
AcDbLine
 10
120.531476
 20
538.115204
 30
0.0
 11
120.531476
 21
534.115204
 31
0.0
  0
LINE
  5
DF
102
{ACAD_REACTORS
330
94
102
}
100
AcDbEntity
  8
M04
100
AcDbLine
 10
109.531476
 20
538.115204
 30
0.0
 11
109.531476
 21
534.115204
 31
0.0
  0
LINE
  5
E0
100
AcDbEntity
  8
M05
100
AcDbLine
 10
112.031476
 20
539.115204
 30
0.0
 11
118.031476
 21
539.115204
 31
0.0
  0
LINE
  5
E1
102
{ACAD_REACTORS
330
96
102
}
100
AcDbEntity
  8
M04
100
AcDbLine
 10
117.331476
 20
551.415204
 30
0.0
 11
115.031476
 21
552.743109
 31
0.0
  0
LINE
  5
E2
102
{ACAD_REACTORS
330
96
102
}
100
AcDbEntity
  8
M04
100
AcDbLine
 10
112.731476
 20
551.415204
 30
0.0
 11
115.031476
 21
552.743109
 31
0.0
  0
LINE
  5
E3
100
AcDbEntity
  8
M04
100
AcDbLine
 10
112.731476
 20
551.415204
 30
0.0
 11
117.331476
 21
551.415204
 31
0.0
  0
LINE
  5
E4
102
{ACAD_REACTORS
330
96
102
}
100
AcDbEntity
  8
M04
100
AcDbLine
 10
112.031476
 20
549.915204
 30
0.0
 11
118.031476
 21
549.915204
 31
0.0
  0
ARC
  5
E5
100
AcDbEntity
  8
M05
100
AcDbCircle
 10
115.031476
 20
540.64134
 30
0.0
 40
5.826136
100
AcDbArc
 50
205.69541
 51
334.30459
  0
LINE
  5
E6
100
AcDbEntity
  8
M05
100
AcDbLine
 10
118.031476
 20
547.415204
 30
0.0
 11
117.331476
 21
548.115204
 31
0.0
  0
LINE
  5
E7
100
AcDbEntity
  8
M05
100
AcDbLine
 10
112.031476
 20
547.415204
 30
0.0
 11
112.731476
 21
548.115204
 31
0.0
  0
LINE
  5
E8
100
AcDbEntity
  8
M05
100
AcDbLine
 10
112.031476
 20
547.415204
 30
0.0
 11
118.031476
 21
547.415204
 31
0.0
  0
LINE
  5
E9
100
AcDbEntity
  8
M05
100
AcDbLine
 10
112.731476
 20
548.115204
 30
0.0
 11
117.331476
 21
548.115204
 31
0.0
  0
LINE
  5
EA
102
{ACAD_REACTORS
330
94
102
}
100
AcDbEntity
  8
M04
100
AcDbLine
 10
111.331476
 20
540.115204
 30
0.0
 11
111.331476
 21
538.115204
 31
0.0
  0
LINE
  5
EB
102
{ACAD_REACTORS
330
94
102
}
100
AcDbEntity
  8
M04
100
AcDbLine
 10
118.731476
 20
540.115204
 30
0.0
 11
118.731476
 21
538.115204
 31
0.0
  0
LINE
  5
EC
100
AcDbEntity
  8
M05
100
AcDbLine
 10
117.331476
 20
548.115204
 30
0.0
 11
117.331476
 21
539.115204
 31
0.0
  0
LINE
  5
ED
100
AcDbEntity
  8
M05
100
AcDbLine
 10
112.731476
 20
548.115204
 30
0.0
 11
112.731476
 21
539.115204
 31
0.0
  0
LINE
  5
EE
102
{ACAD_REACTORS
330
96
102
}
100
AcDbEntity
  8
M05
100
AcDbLine
 10
112.031476
 20
547.415204
 30
0.0
 11
112.031476
 21
538.115204
 31
0.0
  0
LINE
  5
EF
102
{ACAD_REACTORS
330
96
102
}
100
AcDbEntity
  8
M05
100
AcDbLine
 10
118.031476
 20
547.415204
 30
0.0
 11
118.031476
 21
538.115204
 31
0.0
  0
LINE
  5
F0
102
{ACAD_REACTORS
330
94
102
}
100
AcDbEntity
  8
M04
100
AcDbLine
 10
120.531476
 20
538.115204
 30
0.0
 11
120.281476
 21
538.115204
 31
0.0
  0
LINE
  5
F1
100
AcDbEntity
  8
CENTRE
100
AcDbLine
 10
115.031476
 20
555.381704
 30
0.0
 11
115.031476
 21
530.469015
 31
0.0
  0
LINE
  5
F2
100
AcDbEntity
  8
DIMS
 62
     4
100
AcDbLine
 10
355.444343
 20
728.587955
 30
0.0
 11
355.444343
 21
730.887955
 31
0.0
  0
LINE
  5
F3
100
AcDbEntity
  8
DIMS
 62
     4
100
AcDbLine
 10
355.444343
 20
721.787955
 30
0.0
 11
355.444343
 21
719.487955
 31
0.0
  0
LINE
  5
F4
100
AcDbEntity
  8
DIMS
 62
     4
100
AcDbLine
 10
355.444343
 20
723.487955
 30
0.0
 11
355.444343
 21
726.887955
 31
0.0
  0
LINE
  5
F5
100
AcDbEntity
  8
DIMS
 62
     4
100
AcDbLine
 10
374.944343
 20
705.587955
 30
0.0
 11
374.944343
 21
707.887955
 31
0.0
  0
LINE
  5
F6
100
AcDbEntity
  8
DIMS
 62
     4
100
AcDbLine
 10
374.944343
 20
698.787955
 30
0.0
 11
374.944343
 21
696.487955
 31
0.0
  0
LINE
  5
F7
100
AcDbEntity
  8
DIMS
 62
     4
100
AcDbLine
 10
378.344343
 20
702.187955
 30
0.0
 11
380.644343
 21
702.187955
 31
0.0
  0
LINE
  5
F8
100
AcDbEntity
  8
DIMS
 62
     4
100
AcDbLine
 10
371.544343
 20
702.187955
 30
0.0
 11
369.244343
 21
702.187955
 31
0.0
  0
LINE
  5
F9
100
AcDbEntity
  8
DIMS
 62
     4
100
AcDbLine
 10
374.944343
 20
700.487955
 30
0.0
 11
374.944343
 21
703.887955
 31
0.0
  0
LINE
  5
FA
100
AcDbEntity
  8
DIMS
 62
     4
100
AcDbLine
 10
373.244343
 20
702.187955
 30
0.0
 11
376.644343
 21
702.187955
 31
0.0
  0
LINE
  5
FB
100
AcDbEntity
  8
DIMS
 62
     4
100
AcDbLine
 10
335.944343
 20
705.587955
 30
0.0
 11
335.944343
 21
707.887955
 31
0.0
  0
LINE
  5
FC
100
AcDbEntity
  8
DIMS
 62
     4
100
AcDbLine
 10
335.944343
 20
698.787955
 30
0.0
 11
335.944343
 21
696.487955
 31
0.0
  0
LINE
  5
FD
100
AcDbEntity
  8
DIMS
 62
     4
100
AcDbLine
 10
339.344343
 20
702.187955
 30
0.0
 11
341.644343
 21
702.187955
 31
0.0
  0
LINE
  5
FE
100
AcDbEntity
  8
DIMS
 62
     4
100
AcDbLine
 10
332.544343
 20
702.187955
 30
0.0
 11
330.244343
 21
702.187955
 31
0.0
  0
LINE
  5
FF
100
AcDbEntity
  8
DIMS
 62
     4
100
AcDbLine
 10
335.944343
 20
700.487955
 30
0.0
 11
335.944343
 21
703.887955
 31
0.0
  0
LINE
  5
100
100
AcDbEntity
  8
DIMS
 62
     4
100
AcDbLine
 10
334.244343
 20
702.187955
 30
0.0
 11
337.644343
 21
702.187955
 31
0.0
  0
HATCH
  5
101
100
AcDbEntity
  8
HATCH
100
AcDbHatch
 10
0.0
 20
0.0
 30
0.0
210
0.0
220
0.0
230
1.0
  2
_U
 70
     0
 71
     0
 91
        3
 92
        7
 72
     1
 73
     1
 93
       29
 10
378.9443432978393
 20
799.1879552233347
 42
0.0
 10
376.9443432978394
 20
801.1879552233347
 42
0.0
 10
337.9443432978394
 20
801.1879552233347
 42
0.0
 10
337.9443432978394
 20
789.1879552233347
 42
0.0
 10
331.9443432978395
 20
789.1879552233347
 42
0.0
 10
331.9443432978395
 20
734.6879552233346
 42
0.0
 10
335.9443432978394
 20
734.6879552233347
 42
0.0
 10
336.9443432978394
 20
734.6879552233347
 42
0.0
 10
336.9443432978394
 20
733.6879552233347
 42
0.0
 10
336.9443432978395
 20
725.1879552233347
 42
0.0
 10
351.4443432978393
 20
725.1879552233347
 42
-0.4142135623730951
 10
355.4443432978393
 20
729.1879552233346
 42
0.0
 10
368.9443432978394
 20
729.1879552233346
 42
0.0
 10
368.9443432978394
 20
734.1879552233345
 42
0.0
 10
368.9443432978394
 20
735.1879552233344
 42
0.0
 10
369.9443432978394
 20
735.1879552233346
 42
0.0
 10
378.4443432978394
 20
735.1879552233344
 42
0.0
 10
378.9443432978394
 20
735.6879552233347
 42
0.0
 10
378.9443432978393
 20
748.1879552233348
 42
0.0
 10
371.6443432978392
 20
748.1879552233348
 42
0.0
 10
369.1443432978394
 20
748.1879552233347
 42
0.0
 10
369.1443432978394
 20
748.8879552233349
 42
0.0
 10
367.6443432978393
 20
748.8879552233347
 42
0.0
 10
366.3164376787032
 20
751.1879552233347
 42
0.0
 10
367.6443432978392
 20
753.4879552233348
 42
0.0
 10
369.1443432978394
 20
753.4879552233348
 42
0.0
 10
369.1443432978394
 20
754.1879552233349
 42
0.0
 10
371.6443432978391
 20
754.1879552233348
 42
0.0
 10
378.9443432978393
 20
754.1879552233346
 42
0.0
 97
        0
 92
        7
 72
     1
 73
     1
 93
       27
 10
378.9443432978394
 20
698.1879552233347
 42
0.0
 10
374.9443432978393
 20
698.1879552233347
 42
-0.4142135623730951
 10
370.9443432978393
 20
702.1879552233347
 42
-0.4142135623730951
 10
374.9443432978393
 20
706.1879552233347
 42
0.0
 10
378.9443432978393
 20
706.1879552233347
 42
0.0
 10
378.9443432978394
 20
714.6879552233349
 42
0.0
 10
378.4443432978395
 20
715.1879552233347
 42
0.0
 10
369.9443432978394
 20
715.1879552233347
 42
0.0
 10
368.9443432978394
 20
715.1879552233349
 42
0.0
 10
368.9443432978394
 20
716.1879552233348
 42
0.0
 10
368.9443432978394
 20
721.1879552233347
 42
0.0
 10
355.4443432978393
 20
721.1879552233347
 42
-0.4142135623730951
 10
351.4443432978393
 20
725.1879552233347
 42
0.0
 10
336.9443432978393
 20
725.1879552233347
 42
0.0
 10
336.9443432978394
 20
716.6879552233346
 42
0.0
 10
336.9443432978394
 20
715.6879552233347
 42
0.0
 10
335.9443432978394
 20
715.6879552233347
 42
0.0
 10
331.9443432978395
 20
715.6879552233347
 42
0.0
 10
331.9443432978395
 20
706.1879552233348
 42
0.0
 10
335.9443432978394
 20
706.1879552233347
 42
-0.4142135623730868
 10
339.9443432978393
 20
702.1879552233347
 42
-0.4142135623730951
 10
335.9443432978393
 20
698.1879552233347
 42
0.0
 10
331.9443432978394
 20
698.1879552233347
 42
0.0
 10
331.9443432978394
 20
695.1879552233349
 42
0.0
 10
333.9443432978394
 20
693.1879552233347
 42
0.0
 10
376.9443432978394
 20
693.1879552233347
 42
0.0
 10
378.9443432978394
 20
695.1879552233348
 42
0.0
 97
        0
 92
       24
 93
        4
 72
     1
 10
347.022837
 20
708.031522
 11
361.137123
 21
708.031522
 72
     1
 10
361.137123
 20
708.031522
 11
361.137123
 21
711.031522
 72
     1
 10
361.137123
 20
711.031522
 11
347.022837
 21
711.031522
 72
     1
 10
347.022837
 20
711.031522
 11
347.022837
 21
708.031522
 97
        0
 75
     0
 76
     0
 52
45.0
 41
6.0
 77
     0
 78
     1
 53
45.0
 43
-442.645764
 44
292.628729
 45
-4.242640687119284
 46
4.242640687119285
 79
     0
 47
0.350126
 98
        2
 10
360.161871
 20
768.080187
 10
354.557535
 20
698.054915
  0
HATCH
  5
102
100
AcDbEntity
  8
HATCH
100
AcDbHatch
 10
0.0
 20
0.0
 30
0.0
210
0.0
220
0.0
230
1.0
  2
_U
 70
     0
 71
     1
 91
        2
 92
        7
 72
     1
 73
     1
 93
        2
 10
339.9443432978393
 20
702.1879552233347
 42
1.0
 10
331.9443432978393
 20
702.1879552233347
 42
1.0
 97
        1
330
108
 92
        7
 72
     1
 73
     1
 93
        2
 10
370.9443432978393
 20
702.1879552233347
 42
1.0
 10
378.9443432978393
 20
702.1879552233347
 42
1.0
 97
        1
330
107
 75
     0
 76
     0
 52
45.0
 41
0.8
 77
     0
 78
     1
 53
45.0
 43
-442.645764
 44
292.628729
 45
-0.565685424949238
 46
0.565685424949238
 79
     0
 47
0.095608
 98
        2
 10
336.077692
 20
701.887314
 10
375.101883
 20
703.034611
  0
LINE
  5
103
100
AcDbEntity
  8
M01
100
AcDbLine
 10
374.944343
 20
698.187955
 30
0.0
 11
378.944343
 21
698.187955
 31
0.0
  0
LINE
  5
104
100
AcDbEntity
  8
M01
100
AcDbLine
 10
374.944343
 20
706.187955
 30
0.0
 11
378.944343
 21
706.187955
 31
0.0
  0
LINE
  5
105
100
AcDbEntity
  8
M01
100
AcDbLine
 10
335.944343
 20
698.187955
 30
0.0
 11
331.944343
 21
698.187955
 31
0.0
  0
LINE
  5
106
100
AcDbEntity
  8
M01
100
AcDbLine
 10
335.944343
 20
706.187955
 30
0.0
 11
331.944343
 21
706.187955
 31
0.0
  0
CIRCLE
  5
107
102
{ACAD_REACTORS
330
102
102
}
100
AcDbEntity
  8
M01
100
AcDbCircle
 10
374.944343
 20
702.187955
 30
0.0
 40
4.0
  0
CIRCLE
  5
108
102
{ACAD_REACTORS
330
102
102
}
100
AcDbEntity
  8
M01
100
AcDbCircle
 10
335.944343
 20
702.187955
 30
0.0
 40
4.0
  0
LINE
  5
109
100
AcDbEntity
  8
DIMS
 62
     4
100
AcDbLine
 10
63.031476
 20
728.587955
 30
0.0
 11
63.031476
 21
732.387955
 31
0.0
  0
LINE
  5
10A
100
AcDbEntity
  8
DIMS
 62
     4
100
AcDbLine
 10
63.031476
 20
721.787955
 30
0.0
 11
63.031476
 21
717.987955
 31
0.0
  0
LINE
  5
10B
100
AcDbEntity
  8
DIMS
 62
     4
100
AcDbLine
 10
63.031476
 20
723.487955
 30
0.0
 11
63.031476
 21
726.887955
 31
0.0
  0
LINE
  5
10C
100
AcDbEntity
  8
DIMS
 62
     4
100
AcDbLine
 10
115.031476
 20
728.587955
 30
0.0
 11
115.031476
 21
732.387955
 31
0.0
  0
LINE
  5
10D
100
AcDbEntity
  8
DIMS
 62
     4
100
AcDbLine
 10
115.031476
 20
721.787955
 30
0.0
 11
115.031476
 21
717.987955
 31
0.0
  0
LINE
  5
10E
100
AcDbEntity
  8
DIMS
 62
     4
100
AcDbLine
 10
115.031476
 20
723.487955
 30
0.0
 11
115.031476
 21
726.887955
 31
0.0
  0
LINE
  5
10F
100
AcDbEntity
  8
DIMS
 62
     4
100
AcDbLine
 10
92.431476
 20
751.187955
 30
0.0
 11
96.231476
 21
751.187955
 31
0.0
  0
LINE
  5
110
100
AcDbEntity
  8
DIMS
 62
     4
100
AcDbLine
 10
85.631476
 20
751.187955
 30
0.0
 11
81.831476
 21
751.187955
 31
0.0
  0
LINE
  5
111
100
AcDbEntity
  8
DIMS
 62
     4
100
AcDbLine
 10
87.331476
 20
751.187955
 30
0.0
 11
90.731476
 21
751.187955
 31
0.0
  0
HATCH
  5
112
100
AcDbEntity
  8
HATCH
100
AcDbHatch
 10
0.0
 20
0.0
 30
0.0
210
0.0
220
0.0
230
1.0
  2
_U
 70
     0
 71
     1
 91
        4
 92
        7
 72
     0
 73
     1
 93
        9
 10
384.9443432978393
 20
756.6879552233349
 10
384.9443432978394
 20
758.4879552233347
 10
384.2443432978392
 20
759.1879552233349
 10
379.6443432978394
 20
759.1879552233349
 10
378.9443432978393
 20
758.4879552233348
 10
378.9443432978393
 20
754.8879552233347
 10
380.9443432978393
 20
754.887955223335
 10
380.9443432978393
 20
756.4379552233349
 10
380.9443432978394
 20
756.6879552233347
 97
        9
330
3F3
330
3F6
330
3F2
330
470
330
127
330
118
330
12C
330
11A
330
3F5
 92
        7
 72
     1
 73
     1
 93
       16
 10
378.9443432978394
 20
735.1879552233346
 42
0.0
 10
369.9443432978394
 20
735.1879552233346
 42
0.0
 10
368.9443432978394
 20
734.1879552233345
 42
0.0
 10
368.9443432978395
 20
729.1879552233346
 42
0.0
 10
387.2455576447382
 20
728.2288292212306
 42
-0.1092323044357274
 10
389.9443432978394
 20
734.3531066132463
 42
0.0
 10
389.9443432978395
 20
744.4879552233346
 42
0.0
 10
389.2443432978393
 20
745.1879552233346
 42
0.0
 10
387.9443432978391
 20
745.1879552233346
 42
0.0
 10
387.9443432978393
 20
744.6879552233347
 42
0.0
 10
384.9443432978394
 20
744.6879552233347
 42
0.0
 10
384.9443432978394
 20
745.6879552233349
 42
0.0
 10
380.9443432978393
 20
745.6879552233349
 42
0.0
 10
380.9443432978393
 20
745.9379552233349
 42
0.0
 10
380.9443432978393
 20
747.4879552233347
 42
0.0
 10
378.9443432978394
 20
747.4879552233349
 42
0.0
 97
       16
330
3E8
330
3EB
330
3E5
330
3E4
330
3F5
330
11B
330
119
330
118
330
126
330
117
330
3FF
330
3FB
330
3FD
330
3D9
330
3DA
330
3E9
 92
        7
 72
     1
 73
     1
 93
       16
 10
378.9443432978394
 20
695.1879552233346
 42
0.0
 10
378.9443432978393
 20
693.1879552233347
 42
0.0
 10
379.6443432978394
 20
692.4879552233346
 42
0.0
 10
384.2443432978395
 20
692.4879552233347
 42
0.0
 10
384.9443432978393
 20
693.1879552233347
 42
0.0
 10
384.9443432978393
 20
705.6879552233347
 42
0.0
 10
387.9443432978398
 20
705.6879552233347
 42
0.0
 10
387.9443432978394
 20
705.1879552233347
 42
0.0
 10
389.2443432978398
 20
705.1879552233347
 42
0.0
 10
389.9443432978396
 20
705.8879552233346
 42
0.0
 10
389.9443432978395
 20
716.022803833423
 42
-0.1092323044357282
 10
387.2455576447382
 20
722.1470812254385
 42
0.0
 10
368.9443432978395
 20
721.1879552233348
 42
0.0
 10
368.9443432978393
 20
716.1879552233349
 42
0.0
 10
369.9443432978394
 20
715.1879552233348
 42
0.0
 10
378.9443432978395
 20
715.1879552233347
 42
0.0
 97
       16
330
3D6
330
3D8
330
3FD
330
3FC
330
3FE
330
3ED
330
210
330
3EF
330
3F1
330
3F0
330
3E2
330
3E3
330
3E1
330
3EA
330
3E7
330
3E9
 92
       24
 93
        4
 72
     1
 10
370.950995
 20
730.509412
 11
385.322424
 21
730.509412
 72
     1
 10
385.322424
 20
730.509412
 11
385.322424
 21
733.509412
 72
     1
 10
385.322424
 20
733.509412
 11
370.950995
 21
733.509412
 72
     1
 10
370.950995
 20
733.509412
 11
370.950995
 21
730.509412
 97
        1
330
366
 75
     0
 76
     0
 52
135.0
 41
2.5
 77
     0
 78
     1
 53
135.0
 43
-442.645764
 44
292.628729
 45
-1.767766952966368
 46
-1.767766952966368
 79
     0
 47
0.115254
 98
        3
 10
381.770351
 20
757.393039
 10
383.61517
 20
735.494862
 10
383.499868
 20
714.403459
  0
LINE
  5
113
100
AcDbEntity
  8
M04
100
AcDbLine
 10
371.644343
 20
748.187955
 30
0.0
 11
369.144343
 21
748.187955
 31
0.0
  0
LINE
  5
114
100
AcDbEntity
  8
M04
100
AcDbLine
 10
370.944343
 20
748.887955
 30
0.0
 11
367.644343
 21
748.887955
 31
0.0
  0
LINE
  5
115
100
AcDbEntity
  8
M04
100
AcDbLine
 10
371.644343
 20
754.187955
 30
0.0
 11
369.144343
 21
754.187955
 31
0.0
  0
LINE
  5
116
100
AcDbEntity
  8
M04
100
AcDbLine
 10
370.944343
 20
753.487955
 30
0.0
 11
367.644343
 21
753.487955
 31
0.0
  0
LINE
  5
117
102
{ACAD_REACTORS
330
112
102
}
100
AcDbEntity
  8
M01
100
AcDbLine
 10
378.944343
 20
748.187955
 30
0.0
 11
378.944343
 21
735.187955
 31
0.0
  0
LINE
  5
118
102
{ACAD_REACTORS
330
112
102
}
100
AcDbEntity
  8
M05
100
AcDbLine
 10
380.944343
 20
756.437955
 30
0.0
 11
380.944343
 21
745.937955
 31
0.0
  0
LINE
  5
119
102
{ACAD_REACTORS
330
112
102
}
100
AcDbEntity
  8
M04
100
AcDbLine
 10
380.944343
 20
745.937955
 30
0.0
 11
380.944343
 21
745.687955
 31
0.0
  0
LINE
  5
11A
102
{ACAD_REACTORS
330
112
102
}
100
AcDbEntity
  8
M04
100
AcDbLine
 10
380.944343
 20
756.687955
 30
0.0
 11
384.944343
 21
756.687955
 31
0.0
  0
LINE
  5
11B
102
{ACAD_REACTORS
330
112
102
}
100
AcDbEntity
  8
M04
100
AcDbLine
 10
380.944343
 20
745.687955
 30
0.0
 11
384.944343
 21
745.687955
 31
0.0
  0
LINE
  5
11C
100
AcDbEntity
  8
M05
100
AcDbLine
 10
379.944343
 20
748.187955
 30
0.0
 11
379.944343
 21
754.187955
 31
0.0
  0
LINE
  5
11D
100
AcDbEntity
  8
M04
100
AcDbLine
 10
367.644343
 20
753.487955
 30
0.0
 11
366.316438
 21
751.187955
 31
0.0
  0
LINE
  5
11E
100
AcDbEntity
  8
M04
100
AcDbLine
 10
367.644343
 20
748.887955
 30
0.0
 11
366.316438
 21
751.187955
 31
0.0
  0
LINE
  5
11F
100
AcDbEntity
  8
M04
100
AcDbLine
 10
367.644343
 20
748.887955
 30
0.0
 11
367.644343
 21
753.487955
 31
0.0
  0
LINE
  5
120
100
AcDbEntity
  8
M04
100
AcDbLine
 10
369.144343
 20
748.187955
 30
0.0
 11
369.144343
 21
754.187955
 31
0.0
  0
ARC
  5
121
100
AcDbEntity
  8
M05
100
AcDbCircle
 10
378.418207
 20
751.187955
 30
0.0
 40
5.826136
100
AcDbArc
 50
295.69541
 51
64.30459
  0
LINE
  5
122
100
AcDbEntity
  8
M05
100
AcDbLine
 10
371.644343
 20
754.187955
 30
0.0
 11
370.944343
 21
753.487955
 31
0.0
  0
LINE
  5
123
100
AcDbEntity
  8
M05
100
AcDbLine
 10
371.644343
 20
748.187955
 30
0.0
 11
370.944343
 21
748.887955
 31
0.0
  0
LINE
  5
124
100
AcDbEntity
  8
M05
100
AcDbLine
 10
371.644343
 20
748.187955
 30
0.0
 11
371.644343
 21
754.187955
 31
0.0
  0
LINE
  5
125
100
AcDbEntity
  8
M05
100
AcDbLine
 10
370.944343
 20
748.887955
 30
0.0
 11
370.944343
 21
753.487955
 31
0.0
  0
LINE
  5
126
102
{ACAD_REACTORS
330
112
102
}
100
AcDbEntity
  8
M04
100
AcDbLine
 10
378.944343
 20
747.487955
 30
0.0
 11
380.944343
 21
747.487955
 31
0.0
  0
LINE
  5
127
102
{ACAD_REACTORS
330
112
102
}
100
AcDbEntity
  8
M04
100
AcDbLine
 10
378.944343
 20
754.887955
 30
0.0
 11
380.944343
 21
754.887955
 31
0.0
  0
LINE
  5
128
100
AcDbEntity
  8
M05
100
AcDbLine
 10
370.944343
 20
753.487955
 30
0.0
 11
379.944343
 21
753.487955
 31
0.0
  0
LINE
  5
129
100
AcDbEntity
  8
M05
100
AcDbLine
 10
370.944343
 20
748.887955
 30
0.0
 11
379.944343
 21
748.887955
 31
0.0
  0
LINE
  5
12A
100
AcDbEntity
  8
M05
100
AcDbLine
 10
371.644343
 20
748.187955
 30
0.0
 11
380.944343
 21
748.187955
 31
0.0
  0
LINE
  5
12B
100
AcDbEntity
  8
M05
100
AcDbLine
 10
371.644343
 20
754.187955
 30
0.0
 11
380.944343
 21
754.187955
 31
0.0
  0
LINE
  5
12C
102
{ACAD_REACTORS
330
112
102
}
100
AcDbEntity
  8
M04
100
AcDbLine
 10
380.944343
 20
756.687955
 30
0.0
 11
380.944343
 21
756.437955
 31
0.0
  0
LINE
  5
12D
100
AcDbEntity
  8
CENTRE
100
AcDbLine
 10
363.677843
 20
751.187955
 30
0.0
 11
388.590531
 21
751.187955
 31
0.0
  0
MTEXT
  5
12E
102
{ACAD_REACTORS
330
12F
102
}
100
AcDbEntity
  8
DIMS
 62
     2
100
AcDbMText
 10
43.61659
 20
673.749581
 30
0.0
 40
3.0
 41
0.0
 71
     4
 72
     5
  1
HGX10037
  0
LEADER
  5
12F
100
AcDbEntity
  8
DIMS
 62
     4
100
AcDbLeader
  3
DIM1$7
 73
     0
 74
     0
 75
     1
 40
3.0
 41
21.857143
 76
     3
 10
28.858539
 20
695.602719
 30
0.0
 10
39.11659
 20
673.749581
 30
0.0
 10
42.11659
 20
673.749581
 30
0.0
 77
   256
340
12E
1001
ACAD
1000
DSTYLE
1002
{
1070
   288
1070
     1
1070
   144
1040
1.0
1002
}
  0
CIRCLE
  5
131
100
AcDbEntity
  8
M03
100
AcDbCircle
 10
115.031476
 20
725.187955
 30
0.0
 40
2.3
  0
ARC
  5
132
100
AcDbEntity
  8
M03
100
AcDbCircle
 10
115.031476
 20
725.187955
 30
0.0
 40
3.0
100
AcDbArc
 50
167.784636
 51
96.923103
  0
CIRCLE
  5
133
100
AcDbEntity
  8
M03
100
AcDbCircle
 10
115.031476
 20
725.187955
 30
0.0
 40
5.5
  0
CIRCLE
  5
134
100
AcDbEntity
  8
M03
100
AcDbCircle
 10
63.031476
 20
725.187955
 30
0.0
 40
2.3
  0
ARC
  5
135
100
AcDbEntity
  8
M03
100
AcDbCircle
 10
63.031476
 20
725.187955
 30
0.0
 40
3.0
100
AcDbArc
 50
167.784636
 51
96.923103
  0
CIRCLE
  5
136
100
AcDbEntity
  8
M03
100
AcDbCircle
 10
63.031476
 20
725.187955
 30
0.0
 40
5.5
  0
CIRCLE
  5
137
100
AcDbEntity
  8
M03
100
AcDbCircle
 10
89.031476
 20
751.187955
 30
0.0
 40
2.3
  0
ARC
  5
138
100
AcDbEntity
  8
M03
100
AcDbCircle
 10
89.031476
 20
751.187955
 30
0.0
 40
3.0
100
AcDbArc
 50
167.784636
 51
96.923103
  0
CIRCLE
  5
139
100
AcDbEntity
  8
M03
100
AcDbCircle
 10
89.031476
 20
751.187955
 30
0.0
 40
5.5
  0
LINE
  5
13A
100
AcDbEntity
  8
M03
100
AcDbLine
 10
41.331476
 20
710.687955
 30
0.0
 11
39.031476
 21
712.015861
 31
0.0
  0
LINE
  5
13B
100
AcDbEntity
  8
M03
100
AcDbLine
 10
36.731476
 20
710.687955
 30
0.0
 11
39.031476
 21
712.015861
 31
0.0
  0
LINE
  5
13C
100
AcDbEntity
  8
M03
100
AcDbLine
 10
36.731476
 20
710.687955
 30
0.0
 11
41.331476
 21
710.687955
 31
0.0
  0
LINE
  5
13D
100
AcDbEntity
  8
M03
100
AcDbLine
 10
36.031476
 20
709.187955
 30
0.0
 11
42.031476
 21
709.187955
 31
0.0
  0
LINE
  5
13E
100
AcDbEntity
  8
M03
100
AcDbLine
 10
24.724413
 20
697.087955
 30
0.0
 11
-4.514046
 21
697.087955
 31
0.0
  0
LINE
  5
13F
100
AcDbEntity
  8
M03
100
AcDbLine
 10
24.724413
 20
695.187955
 30
0.0
 11
-4.514046
 21
695.187955
 31
0.0
  0
LINE
  5
140
100
AcDbEntity
  8
M03
100
AcDbLine
 10
31.724413
 20
697.387955
 30
0.0
 11
46.031476
 21
697.387955
 31
0.0
  0
LINE
  5
141
100
AcDbEntity
  8
M03
100
AcDbLine
 10
30.679649
 20
698.187955
 30
0.0
 11
30.679649
 21
697.387955
 31
0.0
  0
LINE
  5
142
100
AcDbEntity
  8
M03
100
AcDbLine
 10
24.724413
 20
697.387955
 30
0.0
 11
24.724413
 21
694.887955
 31
0.0
  0
LINE
  5
143
100
AcDbEntity
  8
M03
100
AcDbLine
 10
24.724413
 20
694.887955
 30
0.0
 11
31.724413
 21
694.887955
 31
0.0
  0
LINE
  5
144
100
AcDbEntity
  8
M03
100
AcDbLine
 10
31.724413
 20
697.387955
 30
0.0
 11
31.724413
 21
694.887955
 31
0.0
  0
LINE
  5
145
100
AcDbEntity
  8
M03
100
AcDbLine
 10
46.031476
 20
698.187955
 30
0.0
 11
46.031476
 21
697.387955
 31
0.0
  0
ARC
  5
146
100
AcDbEntity
  8
M03
100
AcDbCircle
 10
39.031476
 20
699.914092
 30
0.0
 40
5.826136
100
AcDbArc
 50
205.69541
 51
334.30459
  0
LINE
  5
147
100
AcDbEntity
  8
M03
100
AcDbLine
 10
42.031476
 20
706.687955
 30
0.0
 11
41.331476
 21
707.387955
 31
0.0
  0
LINE
  5
148
100
AcDbEntity
  8
M03
100
AcDbLine
 10
36.031476
 20
706.687955
 30
0.0
 11
36.731476
 21
707.387955
 31
0.0
  0
LINE
  5
149
100
AcDbEntity
  8
M03
100
AcDbLine
 10
36.031476
 20
706.687955
 30
0.0
 11
42.031476
 21
706.687955
 31
0.0
  0
LINE
  5
14A
100
AcDbEntity
  8
M03
100
AcDbLine
 10
36.731476
 20
707.387955
 30
0.0
 11
41.331476
 21
707.387955
 31
0.0
  0
LINE
  5
14B
100
AcDbEntity
  8
M03
100
AcDbLine
 10
42.031476
 20
698.187955
 30
0.0
 11
49.031476
 21
698.187955
 31
0.0
  0
LINE
  5
14C
100
AcDbEntity
  8
M03
100
AcDbLine
 10
25.331476
 20
698.187955
 30
0.0
 11
25.331476
 21
697.387955
 31
0.0
  0
LINE
  5
14D
100
AcDbEntity
  8
M03
100
AcDbLine
 10
42.731476
 20
698.187955
 30
0.0
 11
42.731476
 21
697.387955
 31
0.0
  0
LINE
  5
14E
100
AcDbEntity
  8
M03
100
AcDbLine
 10
41.331476
 20
710.687955
 30
0.0
 11
41.331476
 21
697.387955
 31
0.0
  0
LINE
  5
14F
100
AcDbEntity
  8
M03
100
AcDbLine
 10
36.731476
 20
710.687955
 30
0.0
 11
36.731476
 21
697.387955
 31
0.0
  0
LINE
  5
150
100
AcDbEntity
  8
M03
100
AcDbLine
 10
36.031476
 20
709.187955
 30
0.0
 11
36.031476
 21
697.387955
 31
0.0
  0
LINE
  5
151
100
AcDbEntity
  8
M03
100
AcDbLine
 10
42.031476
 20
709.187955
 30
0.0
 11
42.031476
 21
697.387955
 31
0.0
  0
LINE
  5
152
100
AcDbEntity
  8
M03
100
AcDbLine
 10
24.724413
 20
697.387955
 30
0.0
 11
30.679649
 21
697.387955
 31
0.0
  0
LINE
  5
153
100
AcDbEntity
  8
M03
100
AcDbLine
 10
49.031476
 20
698.187955
 30
0.0
 11
49.031476
 21
693.187955
 31
0.0
  0
LINE
  5
154
100
AcDbEntity
  8
M03
100
AcDbLine
 10
-10.968524
 20
698.187955
 30
0.0
 11
36.031476
 21
698.187955
 31
0.0
  0
LINE
  5
155
100
AcDbEntity
  8
CENTRE
100
AcDbLine
 10
39.031476
 20
716.386628
 30
0.0
 11
39.031476
 21
689.226478
 31
0.0
  0
DIMENSION
  5
156
100
AcDbEntity
  8
DIMS
100
AcDbDimension
  2
*D12
 10
297.268178
 20
791.687955
 30
0.0
 11
294.268178
 21
773.902241
 31
0.0
  1
%%c<> H7
  3
DIM1
100
AcDbAlignedDimension
 13
311.944343
 23
799.687955
 33
0.0
 14
311.944343
 24
791.687955
 34
0.0
 50
90.0
100
AcDbRotatedDimension
1001
ACAD
1000
DSTYLE
1002
{
1070
   144
1040
1.0
1002
}
  0
CIRCLE
  5
164
100
AcDbEntity
  8
M03
100
AcDbCircle
 10
14.031476
 20
725.187955
 30
0.0
 40
2.3
  0
ARC
  5
165
100
AcDbEntity
  8
M03
100
AcDbCircle
 10
14.031476
 20
725.187955
 30
0.0
 40
3.0
100
AcDbArc
 50
167.784636
 51
96.923103
  0
CIRCLE
  5
166
100
AcDbEntity
  8
M03
100
AcDbCircle
 10
164.031476
 20
725.187955
 30
0.0
 40
2.3
  0
ARC
  5
167
100
AcDbEntity
  8
M03
100
AcDbCircle
 10
164.031476
 20
725.187955
 30
0.0
 40
3.0
100
AcDbArc
 50
167.784636
 51
96.923103
  0
LINE
  5
168
100
AcDbEntity
  8
DIMS
 62
     4
100
AcDbLine
 10
14.031476
 20
728.587955
 30
0.0
 11
14.031476
 21
741.887955
 31
0.0
  0
LINE
  5
169
100
AcDbEntity
  8
DIMS
 62
     4
100
AcDbLine
 10
14.031476
 20
721.787955
 30
0.0
 11
14.031476
 21
708.487955
 31
0.0
  0
LINE
  5
16A
100
AcDbEntity
  8
DIMS
 62
     4
100
AcDbLine
 10
14.031476
 20
723.487955
 30
0.0
 11
14.031476
 21
726.887955
 31
0.0
  0
LINE
  5
16B
100
AcDbEntity
  8
DIMS
 62
     4
100
AcDbLine
 10
164.031476
 20
728.587955
 30
0.0
 11
164.031476
 21
741.887955
 31
0.0
  0
LINE
  5
16C
100
AcDbEntity
  8
DIMS
 62
     4
100
AcDbLine
 10
164.031476
 20
721.787955
 30
0.0
 11
164.031476
 21
708.487955
 31
0.0
  0
LINE
  5
16D
100
AcDbEntity
  8
DIMS
 62
     4
100
AcDbLine
 10
164.031476
 20
723.487955
 30
0.0
 11
164.031476
 21
726.887955
 31
0.0
  0
LINE
  5
16E
100
AcDbEntity
  8
M03
100
AcDbLine
 10
164.581476
 20
719.213217
 30
0.0
 11
164.581476
 21
731.162694
 31
0.0
  0
LINE
  5
16F
100
AcDbEntity
  8
M03
100
AcDbLine
 10
163.481476
 20
719.213217
 30
0.0
 11
163.481476
 21
731.162694
 31
0.0
  0
CIRCLE
  5
170
100
AcDbEntity
  8
M03
100
AcDbCircle
 10
164.031476
 20
725.187955
 30
0.0
 40
15.0
  0
CIRCLE
  5
171
100
AcDbEntity
  8
M03
100
AcDbCircle
 10
164.031476
 20
725.187955
 30
0.0
 40
14.0
  0
CIRCLE
  5
172
100
AcDbEntity
  8
M03
100
AcDbCircle
 10
164.031476
 20
725.187955
 30
0.0
 40
7.858882
  0
CIRCLE
  5
173
100
AcDbEntity
  8
M03
100
AcDbCircle
 10
164.031476
 20
725.187955
 30
0.0
 40
6.0
  0
LINE
  5
174
100
AcDbEntity
  8
M03
100
AcDbLine
 10
13.481476
 20
719.213217
 30
0.0
 11
13.481476
 21
731.162694
 31
0.0
  0
LINE
  5
175
100
AcDbEntity
  8
M03
100
AcDbLine
 10
14.581476
 20
719.213217
 30
0.0
 11
14.581476
 21
731.162694
 31
0.0
  0
CIRCLE
  5
176
100
AcDbEntity
  8
M03
100
AcDbCircle
 10
14.031476
 20
725.187955
 30
0.0
 40
15.0
  0
CIRCLE
  5
177
100
AcDbEntity
  8
M03
100
AcDbCircle
 10
14.031476
 20
725.187955
 30
0.0
 40
14.0
  0
CIRCLE
  5
178
100
AcDbEntity
  8
M03
100
AcDbCircle
 10
14.031476
 20
725.187955
 30
0.0
 40
7.858882
  0
CIRCLE
  5
179
100
AcDbEntity
  8
M03
100
AcDbCircle
 10
14.031476
 20
725.187955
 30
0.0
 40
6.0
  0
DIMENSION
  5
17A
100
AcDbEntity
  8
DIMS
100
AcDbDimension
  2
*D11
 10
319.944343
 20
691.899933
 30
0.0
 11
309.301486
 21
694.899933
 31
0.0
  1
5.0
  3
DIM1
100
AcDbAlignedDimension
 13
324.944343
 23
714.187955
 33
0.0
 14
319.944343
 24
715.187955
 34
0.0
100
AcDbRotatedDimension
1001
ACAD
1000
DSTYLE
1002
{
1070
   144
1040
1.0
1002
}
  0
DIMENSION
  5
188
100
AcDbEntity
  8
DIMS
100
AcDbDimension
  2
*D10
 10
287.417115
 20
714.187955
 30
0.0
 11
284.417115
 21
725.187955
 31
0.0
  3
DIM1
100
AcDbAlignedDimension
 13
320.521694
 23
736.187955
 33
0.0
 14
320.521694
 24
714.187955
 34
0.0
 50
90.0
100
AcDbRotatedDimension
1001
ACAD
1000
DSTYLE
1002
{
1070
   144
1040
1.0
1002
}
  0
DIMENSION
  5
195
100
AcDbEntity
  8
DIMS
100
AcDbDimension
  2
*D9
 10
297.294528
 20
715.187955
 30
0.0
 11
294.294528
 21
695.97367
 31
0.0
  1
%%c<> H7
  3
DIM1
100
AcDbAlignedDimension
 13
314.944343
 23
735.187955
 33
0.0
 14
314.944343
 24
715.187955
 34
0.0
 50
90.0
100
AcDbRotatedDimension
1001
ACAD
1000
DSTYLE
1002
{
1070
   144
1040
1.0
1002
}
  0
DIMENSION
  5
1A3
100
AcDbEntity
  8
DIMS
100
AcDbDimension
  2
*D8
 10
314.944343
 20
751.474972
 30
0.0
 11
301.730058
 21
751.474972
 31
0.0
 70
   128
  3
DIM1
100
AcDbAlignedDimension
 13
331.944343
 23
734.687955
 33
0.0
 14
314.944343
 24
735.187955
 34
0.0
100
AcDbRotatedDimension
1001
ACAD
1000
DSTYLE
1002
{
1070
   144
1040
1.0
1002
}
  0
DIMENSION
  5
1B1
100
AcDbEntity
  8
DIMS
100
AcDbDimension
  2
*D7
 10
430.25946
 20
745.187955
 30
0.0
 11
427.25946
 21
725.187955
 31
0.0
  1
%%c<> H7
  3
DIM1
100
AcDbAlignedDimension
 13
393.944343
 23
705.187955
 33
0.0
 14
393.944343
 24
745.187955
 34
0.0
 50
90.0
100
AcDbRotatedDimension
1001
ACAD
1000
DSTYLE
1002
{
1070
   144
1040
1.0
1002
}
  0
DIMENSION
  5
1BE
100
AcDbEntity
  8
DIMS
100
AcDbDimension
  2
*D6
 10
324.944343
 20
654.908277
 30
0.0
 11
314.301486
 21
657.908277
 31
0.0
  1
7.0
  3
DIM1
100
AcDbAlignedDimension
 13
331.944343
 23
695.187955
 33
0.0
 14
324.944343
 24
686.187955
 34
0.0
100
AcDbRotatedDimension
1001
ACAD
1000
DSTYLE
1002
{
1070
   144
1040
1.0
1002
}
  0
DIMENSION
  5
1CC
100
AcDbEntity
  8
DIMS
100
AcDbDimension
  2
*D5
 10
385.944343
 20
654.908277
 30
0.0
 11
396.5872
 21
657.908277
 31
0.0
  1
7.0
  3
DIM1
100
AcDbAlignedDimension
 13
378.944343
 23
693.187955
 33
0.0
 14
385.944343
 24
674.674564
 34
0.0
100
AcDbRotatedDimension
1001
ACAD
1000
DSTYLE
1002
{
1070
   144
1040
1.0
1002
}
  0
DIMENSION
  5
1DA
100
AcDbEntity
  8
DIMS
100
AcDbDimension
  2
*D4
 10
378.944343
 20
654.908277
 30
0.0
 11
355.444343
 21
657.908277
 31
0.0
  3
DIM1
100
AcDbAlignedDimension
 13
331.944343
 23
695.187955
 33
0.0
 14
378.944343
 24
693.187955
 34
0.0
100
AcDbRotatedDimension
1001
ACAD
1000
DSTYLE
1002
{
1070
   144
1040
1.0
1002
}
  0
LINE
  5
1E7
100
AcDbEntity
  8
M01
100
AcDbLine
 10
367.944343
 20
816.187955
 30
0.0
 11
377.944343
 21
816.187955
 31
0.0
  0
LINE
  5
1E8
100
AcDbEntity
  8
M01
100
AcDbLine
 10
334.694343
 20
823.132056
 30
0.0
 11
341.194343
 21
823.132056
 31
0.0
  0
LINE
  5
1E9
100
AcDbEntity
  8
M01
100
AcDbLine
 10
334.694343
 20
831.243855
 30
0.0
 11
341.194343
 21
831.243855
 31
0.0
  0
LINE
  5
1EA
100
AcDbEntity
  8
M01
100
AcDbLine
 10
334.694343
 20
823.132056
 30
0.0
 11
334.694343
 21
821.187955
 31
0.0
  0
ARC
  5
1EB
100
AcDbEntity
  8
M01
100
AcDbCircle
 10
333.444343
 20
824.693305
 30
0.0
 40
2.0
100
AcDbArc
 50
308.682187
 51
0.0
  0
ARC
  5
1EC
100
AcDbEntity
  8
M01
100
AcDbCircle
 10
333.444343
 20
829.682605
 30
0.0
 40
2.0
100
AcDbArc
 50
0.0
 51
51.317813
  0
LINE
  5
1ED
100
AcDbEntity
  8
M01
100
AcDbLine
 10
334.694343
 20
833.187955
 30
0.0
 11
334.694343
 21
831.243855
 31
0.0
  0
LINE
  5
1EE
100
AcDbEntity
  8
M01
100
AcDbLine
 10
335.444343
 20
829.682605
 30
0.0
 11
335.444343
 21
824.693305
 31
0.0
  0
LINE
  5
1EF
100
AcDbEntity
  8
M01
100
AcDbLine
 10
341.194343
 20
823.132056
 30
0.0
 11
341.194343
 21
821.187955
 31
0.0
  0
ARC
  5
1F0
100
AcDbEntity
  8
M01
100
AcDbCircle
 10
342.444343
 20
824.693305
 30
0.0
 40
2.0
100
AcDbArc
 50
180.0
 51
231.317813
  0
ARC
  5
1F1
100
AcDbEntity
  8
M01
100
AcDbCircle
 10
342.444343
 20
829.682605
 30
0.0
 40
2.0
100
AcDbArc
 50
128.682187
 51
180.0
  0
LINE
  5
1F2
100
AcDbEntity
  8
M01
100
AcDbLine
 10
341.194343
 20
833.187955
 30
0.0
 11
341.194343
 21
831.243855
 31
0.0
  0
LINE
  5
1F3
100
AcDbEntity
  8
M01
100
AcDbLine
 10
340.444343
 20
829.682605
 30
0.0
 11
340.444343
 21
824.693305
 31
0.0
  0
LINE
  5
1F4
100
AcDbEntity
  8
M01
100
AcDbLine
 10
332.944343
 20
816.187955
 30
0.0
 11
342.944343
 21
816.187955
 31
0.0
  0
LINE
  5
1F5
100
AcDbEntity
  8
M01
100
AcDbLine
 10
377.944343
 20
821.187955
 30
0.0
 11
377.944343
 21
800.187955
 31
0.0
  0
LINE
  5
1F6
100
AcDbEntity
  8
M01
100
AcDbLine
 10
367.944343
 20
821.187955
 30
0.0
 11
367.944343
 21
801.187955
 31
0.0
  0
LINE
  5
1F7
100
AcDbEntity
  8
M01
100
AcDbLine
 10
332.944343
 20
821.187955
 30
0.0
 11
332.944343
 21
800.187955
 31
0.0
  0
LINE
  5
1F8
100
AcDbEntity
  8
M01
100
AcDbLine
 10
342.944343
 20
821.187955
 30
0.0
 11
342.944343
 21
801.187955
 31
0.0
  0
LINE
  5
1F9
100
AcDbEntity
  8
M01
100
AcDbLine
 10
96.531476
 20
833.187955
 30
0.0
 11
105.531476
 21
833.187955
 31
0.0
  0
LINE
  5
1FA
100
AcDbEntity
  8
M01
100
AcDbLine
 10
105.531476
 20
833.987955
 30
0.0
 11
105.531476
 21
833.187955
 31
0.0
  0
LINE
  5
1FB
100
AcDbEntity
  8
M01
100
AcDbLine
 10
96.531476
 20
833.987955
 30
0.0
 11
96.531476
 21
833.187955
 31
0.0
  0
LINE
  5
1FC
100
AcDbEntity
  8
M01
100
AcDbLine
 10
73.781476
 20
823.132056
 30
0.0
 11
80.281476
 21
823.132056
 31
0.0
  0
LINE
  5
1FD
100
AcDbEntity
  8
M01
100
AcDbLine
 10
73.781476
 20
831.243855
 30
0.0
 11
80.281476
 21
831.243855
 31
0.0
  0
LINE
  5
1FE
100
AcDbEntity
  8
M01
100
AcDbLine
 10
73.781476
 20
823.132056
 30
0.0
 11
73.781476
 21
821.187955
 31
0.0
  0
ARC
  5
1FF
100
AcDbEntity
  8
M01
100
AcDbCircle
 10
72.531476
 20
824.693305
 30
0.0
 40
2.0
100
AcDbArc
 50
308.682187
 51
0.0
  0
ARC
  5
200
100
AcDbEntity
  8
M01
100
AcDbCircle
 10
72.531476
 20
829.682605
 30
0.0
 40
2.0
100
AcDbArc
 50
0.0
 51
51.317813
  0
LINE
  5
201
100
AcDbEntity
  8
M01
100
AcDbLine
 10
73.781476
 20
833.187955
 30
0.0
 11
73.781476
 21
831.243855
 31
0.0
  0
LINE
  5
202
100
AcDbEntity
  8
M01
100
AcDbLine
 10
74.531476
 20
829.682605
 30
0.0
 11
74.531476
 21
824.693305
 31
0.0
  0
LINE
  5
203
100
AcDbEntity
  8
M01
100
AcDbLine
 10
80.281476
 20
823.132056
 30
0.0
 11
80.281476
 21
821.187955
 31
0.0
  0
ARC
  5
204
100
AcDbEntity
  8
M01
100
AcDbCircle
 10
81.531476
 20
824.693305
 30
0.0
 40
2.0
100
AcDbArc
 50
180.0
 51
231.317813
  0
ARC
  5
205
100
AcDbEntity
  8
M01
100
AcDbCircle
 10
81.531476
 20
829.682605
 30
0.0
 40
2.0
100
AcDbArc
 50
128.682187
 51
180.0
  0
LINE
  5
206
100
AcDbEntity
  8
M01
100
AcDbLine
 10
80.281476
 20
833.187955
 30
0.0
 11
80.281476
 21
831.243855
 31
0.0
  0
LINE
  5
207
100
AcDbEntity
  8
M01
100
AcDbLine
 10
79.531476
 20
829.682605
 30
0.0
 11
79.531476
 21
824.693305
 31
0.0
  0
LINE
  5
208
100
AcDbEntity
  8
M01
100
AcDbLine
 10
106.031476
 20
816.187955
 30
0.0
 11
96.031476
 21
816.187955
 31
0.0
  0
LINE
  5
209
100
AcDbEntity
  8
M01
100
AcDbLine
 10
72.031476
 20
816.187955
 30
0.0
 11
82.031476
 21
816.187955
 31
0.0
  0
LINE
  5
20A
100
AcDbEntity
  8
M01
100
AcDbLine
 10
72.031476
 20
821.187955
 30
0.0
 11
72.031476
 21
801.187955
 31
0.0
  0
LINE
  5
20B
100
AcDbEntity
  8
M01
100
AcDbLine
 10
82.031476
 20
821.187955
 30
0.0
 11
82.031476
 21
801.187955
 31
0.0
  0
LINE
  5
20C
100
AcDbEntity
  8
M01
100
AcDbLine
 10
96.031476
 20
821.187955
 30
0.0
 11
96.031476
 21
801.187955
 31
0.0
  0
LINE
  5
20D
100
AcDbEntity
  8
M01
100
AcDbLine
 10
106.031476
 20
821.187955
 30
0.0
 11
106.031476
 21
801.187955
 31
0.0
  0
LINE
  5
20E
100
AcDbEntity
  8
CENTRE
100
AcDbLine
 10
6.031476
 20
563.615204
 30
0.0
 11
172.031476
 21
563.615204
 31
0.0
  0
ARC
  5
20F
100
AcDbEntity
  8
M03
100
AcDbCircle
 10
89.031476
 20
725.187955
 30
0.0
 40
34.0
100
AcDbArc
 50
289.749923
 51
250.250077
  0
LINE
  5
210
102
{ACAD_REACTORS
330
112
102
}
100
AcDbEntity
  8
M05
100
AcDbLine
 10
378.944343
 20
693.187955
 30
0.0
 11
378.944343
 21
695.187955
 31
0.0
  0
TEXT
  5
211
102
{ACAD_REACTORS
330
96
102
}
100
AcDbEntity
  8
TEXT
100
AcDbText
 10
174.782646
 20
558.74249
 30
0.0
 40
2.0
  1
MM010022
 41
0.9
100
AcDbText
  0
TEXT
  5
213
100
AcDbEntity
  8
TEXT
100
AcDbText
 10
347.522837
 20
708.531522
 30
0.0
 40
2.0
  1
MM010022
 41
0.9
100
AcDbText
  0
MTEXT
  5
214
102
{ACAD_REACTORS
330
215
102
}
100
AcDbEntity
  8
HATCH
 62
     2
100
AcDbMText
 10
187.671655
 20
522.273977
 30
0.0
 40
3.0
 41
0.0
 71
     1
 72
     5
  1
MA010006 (x2)
  0
LEADER
  5
215
100
AcDbEntity
  8
HATCH
 62
     4
100
AcDbLeader
  3
DIM1$7
 73
     0
 74
     0
 75
     1
 40
4.571429
 41
34.142857
 76
     3
 10
173.74883
 20
534.745917
 30
0.0
 10
183.171655
 20
520.773977
 30
0.0
 10
186.171655
 20
520.773977
 30
0.0
 77
   256
340
214
213
0.0
223
-1.5
233
0.0
1001
ACAD
1000
DSTYLE
1002
{
1070
   144
1040
1.0
1002
}
  0
LINE
  5
216
102
{ACAD_REACTORS
330
43
102
}
100
AcDbEntity
  8
M04
100
AcDbLine
 10
17.031476
 20
533.115204
 30
0.0
 11
69.531476
 21
533.115204
 31
0.0
  0
LINE
  5
217
102
{ACAD_REACTORS
330
24
102
}
100
AcDbEntity
  8
M02
100
AcDbLine
 10
28.031476
 20
537.115204
 30
0.0
 11
55.031476
 21
537.115204
 31
0.0
  0
LINE
  5
218
100
AcDbEntity
  8
M04
100
AcDbLine
 10
14.031476
 20
515.287298
 30
0.0
 11
16.331476
 21
516.615204
 31
0.0
  0
LINE
  5
219
100
AcDbEntity
  8
M04
100
AcDbLine
 10
11.731476
 20
516.615204
 30
0.0
 11
14.031476
 21
515.287298
 31
0.0
  0
LINE
  5
21A
100
AcDbEntity
  8
M04
100
AcDbLine
 10
11.731476
 20
516.615204
 30
0.0
 11
16.331476
 21
516.615204
 31
0.0
  0
LINE
  5
21B
100
AcDbEntity
  8
M04
100
AcDbLine
 10
11.031476
 20
521.676322
 30
0.0
 11
11.031476
 21
518.115204
 31
0.0
  0
LINE
  5
21C
100
AcDbEntity
  8
M04
100
AcDbLine
 10
11.731476
 20
520.976322
 30
0.0
 11
11.731476
 21
516.615204
 31
0.0
  0
LINE
  5
21D
100
AcDbEntity
  8
M04
100
AcDbLine
 10
17.031476
 20
521.676322
 30
0.0
 11
17.031476
 21
518.115204
 31
0.0
  0
LINE
  5
21E
100
AcDbEntity
  8
M04
100
AcDbLine
 10
16.331476
 20
520.976322
 30
0.0
 11
16.331476
 21
516.615204
 31
0.0
  0
LINE
  5
21F
100
AcDbEntity
  8
M05
100
AcDbLine
 10
16.331476
 20
520.976322
 30
0.0
 11
17.031476
 21
521.676322
 31
0.0
  0
LINE
  5
220
100
AcDbEntity
  8
M05
100
AcDbLine
 10
11.031476
 20
521.676322
 30
0.0
 11
11.731476
 21
520.976322
 31
0.0
  0
LINE
  5
221
100
AcDbEntity
  8
M05
100
AcDbLine
 10
16.331476
 20
533.756322
 30
0.0
 11
16.331476
 21
520.976322
 31
0.0
  0
LINE
  5
222
100
AcDbEntity
  8
M05
100
AcDbLine
 10
11.731476
 20
533.756322
 30
0.0
 11
11.731476
 21
520.976322
 31
0.0
  0
LINE
  5
223
100
AcDbEntity
  8
M05
100
AcDbLine
 10
11.031476
 20
521.676322
 30
0.0
 11
17.031476
 21
521.676322
 31
0.0
  0
LINE
  5
224
100
AcDbEntity
  8
M04
100
AcDbLine
 10
11.031476
 20
518.115204
 30
0.0
 11
17.031476
 21
518.115204
 31
0.0
  0
LINE
  5
225
100
AcDbEntity
  8
M05
100
AcDbLine
 10
11.731476
 20
520.976322
 30
0.0
 11
16.331476
 21
520.976322
 31
0.0
  0
LINE
  5
226
102
{ACAD_REACTORS
330
96
102
}
100
AcDbEntity
  8
M05
  6
HIDDEN
100
AcDbLine
 10
5.872594
 20
540.415204
 30
0.0
 11
5.172594
 21
541.115204
 31
0.0
  0
LINE
  5
227
102
{ACAD_REACTORS
330
96
102
}
100
AcDbEntity
  8
M05
  6
HIDDEN
100
AcDbLine
 10
22.190358
 20
540.415204
 30
0.0
 11
22.890358
 21
541.115204
 31
0.0
  0
LINE
  5
228
100
AcDbEntity
  8
M05
100
AcDbLine
 10
11.031476
 20
533.756322
 30
0.0
 11
17.031476
 21
533.756322
 31
0.0
  0
LINE
  5
229
100
AcDbEntity
  8
M05
100
AcDbLine
 10
14.581476
 20
538.256322
 30
0.0
 11
20.031476
 21
538.256322
 31
0.0
  0
LINE
  5
22A
100
AcDbEntity
  8
M05
100
AcDbLine
 10
14.581476
 20
538.976322
 30
0.0
 11
20.031476
 21
538.976322
 31
0.0
  0
LINE
  5
22B
100
AcDbEntity
  8
M05
100
AcDbLine
 10
14.581476
 20
538.976322
 30
0.0
 11
14.581476
 21
537.476322
 31
0.0
  0
LINE
  5
22C
100
AcDbEntity
  8
M05
100
AcDbLine
 10
13.481476
 20
538.976322
 30
0.0
 11
13.481476
 21
537.476322
 31
0.0
  0
LINE
  5
22D
100
AcDbEntity
  8
M05
100
AcDbLine
 10
13.481476
 20
537.476322
 30
0.0
 11
14.581476
 21
537.476322
 31
0.0
  0
LINE
  5
22E
102
{ACAD_REACTORS
330
43
102
}
100
AcDbEntity
  8
M05
100
AcDbLine
 10
17.531476
 20
535.756322
 30
0.0
 11
17.531476
 21
533.115204
 31
0.0
  0
LINE
  5
22F
102
{ACAD_REACTORS
330
43
102
}
100
AcDbEntity
  8
M05
100
AcDbLine
 10
10.531476
 20
535.756322
 30
0.0
 11
10.531476
 21
533.115204
 31
0.0
  0
LINE
  5
230
100
AcDbEntity
  8
M05
100
AcDbLine
 10
8.031476
 20
538.256322
 30
0.0
 11
13.481476
 21
538.256322
 31
0.0
  0
LINE
  5
231
102
{ACAD_REACTORS
330
96
330
43
102
}
100
AcDbEntity
  8
M05
100
AcDbLine
 10
11.031476
 20
535.256322
 30
0.0
 11
5.872594
 21
540.415204
 31
0.0
  0
LINE
  5
232
100
AcDbEntity
  8
M05
100
AcDbLine
 10
8.031476
 20
538.976322
 30
0.0
 11
8.031476
 21
538.256322
 31
0.0
  0
LINE
  5
233
102
{ACAD_REACTORS
330
96
330
43
102
}
100
AcDbEntity
  8
M05
100
AcDbLine
 10
17.031476
 20
535.256322
 30
0.0
 11
22.190358
 21
540.415204
 31
0.0
  0
LINE
  5
234
100
AcDbEntity
  8
M05
100
AcDbLine
 10
11.031476
 20
535.256322
 30
0.0
 11
17.031476
 21
535.256322
 31
0.0
  0
LINE
  5
235
100
AcDbEntity
  8
M05
100
AcDbLine
 10
11.031476
 20
535.256322
 30
0.0
 11
11.031476
 21
521.676322
 31
0.0
  0
LINE
  5
236
100
AcDbEntity
  8
M05
100
AcDbLine
 10
17.031476
 20
535.256322
 30
0.0
 11
17.031476
 21
521.676322
 31
0.0
  0
LINE
  5
237
100
AcDbEntity
  8
M05
100
AcDbLine
 10
20.031476
 20
538.976322
 30
0.0
 11
20.031476
 21
538.256322
 31
0.0
  0
LINE
  5
238
100
AcDbEntity
  8
M05
100
AcDbLine
 10
8.031476
 20
538.976322
 30
0.0
 11
13.481476
 21
538.976322
 31
0.0
  0
LINE
  5
239
102
{ACAD_REACTORS
330
96
102
}
100
AcDbEntity
  8
M05
  6
HIDDEN
100
AcDbLine
 10
0.031476
 20
540.415204
 30
0.0
 11
28.031476
 21
540.415204
 31
0.0
  0
LINE
  5
23A
102
{ACAD_REACTORS
330
96
102
}
100
AcDbEntity
  8
M05
  6
HIDDEN
100
AcDbLine
 10
28.031476
 20
540.415204
 30
0.0
 11
27.331476
 21
541.115204
 31
0.0
  0
LINE
  5
23B
102
{ACAD_REACTORS
330
96
102
}
100
AcDbEntity
  8
M05
  6
HIDDEN
100
AcDbLine
 10
28.031476
 20
539.415204
 30
0.0
 11
28.031476
 21
540.415204
 31
0.0
  0
LINE
  5
23C
102
{ACAD_REACTORS
330
43
102
}
100
AcDbEntity
  8
M05
100
AcDbLine
 10
28.031476
 20
539.415204
 30
0.0
 11
27.331476
 21
540.115204
 31
0.0
  0
LINE
  5
23D
102
{ACAD_REACTORS
330
43
102
}
100
AcDbEntity
  8
M05
100
AcDbLine
 10
28.031476
 20
533.815204
 30
0.0
 11
27.331476
 21
533.115204
 31
0.0
  0
LINE
  5
23E
102
{ACAD_REACTORS
330
43
102
}
100
AcDbEntity
  8
M05
100
AcDbLine
 10
28.031476
 20
539.415204
 30
0.0
 11
28.031476
 21
533.815204
 31
0.0
  0
LINE
  5
23F
102
{ACAD_REACTORS
330
96
102
}
100
AcDbEntity
  8
M05
  6
HIDDEN
100
AcDbLine
 10
0.031476
 20
540.415204
 30
0.0
 11
0.731476
 21
541.115204
 31
0.0
  0
LINE
  5
240
102
{ACAD_REACTORS
330
96
102
}
100
AcDbEntity
  8
M05
  6
HIDDEN
100
AcDbLine
 10
0.031476
 20
539.415204
 30
0.0
 11
0.031476
 21
540.415204
 31
0.0
  0
LINE
  5
241
102
{ACAD_REACTORS
330
43
102
}
100
AcDbEntity
  8
M05
100
AcDbLine
 10
0.031476
 20
539.415204
 30
0.0
 11
0.731476
 21
540.115204
 31
0.0
  0
LINE
  5
242
102
{ACAD_REACTORS
330
43
102
}
100
AcDbEntity
  8
M05
100
AcDbLine
 10
0.031476
 20
533.815204
 30
0.0
 11
0.731476
 21
533.115204
 31
0.0
  0
LINE
  5
243
102
{ACAD_REACTORS
330
24
102
}
100
AcDbEntity
  8
M02
100
AcDbLine
 10
29.031476
 20
540.115204
 30
0.0
 11
29.031476
 21
537.115204
 31
0.0
  0
LINE
  5
244
102
{ACAD_REACTORS
330
24
102
}
100
AcDbEntity
  8
M02
100
AcDbLine
 10
-0.968524
 20
540.115204
 30
0.0
 11
-0.968524
 21
537.115204
 31
0.0
  0
LINE
  5
245
102
{ACAD_REACTORS
330
96
102
}
100
AcDbEntity
  8
M05
  6
HIDDEN
100
AcDbLine
 10
0.731476
 20
541.115204
 30
0.0
 11
27.331476
 21
541.115204
 31
0.0
  0
LINE
  5
246
102
{ACAD_REACTORS
330
43
102
}
100
AcDbEntity
  8
M05
100
AcDbLine
 10
0.031476
 20
539.415204
 30
0.0
 11
0.031476
 21
533.815204
 31
0.0
  0
LINE
  5
247
102
{ACAD_REACTORS
330
96
102
}
100
AcDbEntity
  8
CENTRE
100
AcDbLine
 10
14.031476
 20
545.624314
 30
0.0
 11
14.031476
 21
512.545976
 31
0.0
  0
LINE
  5
248
100
AcDbEntity
  8
CENTRE
100
AcDbLine
 10
164.031476
 20
555.498445
 30
0.0
 11
164.031476
 21
597.463501
 31
0.0
  0
LINE
  5
249
100
AcDbEntity
  8
CENTRE
100
AcDbLine
 10
14.031476
 20
555.498445
 30
0.0
 11
14.031476
 21
597.463501
 31
0.0
  0
LINE
  5
24A
100
AcDbEntity
  8
M04
100
AcDbLine
 10
164.031476
 20
515.287298
 30
0.0
 11
166.331476
 21
516.615204
 31
0.0
  0
LINE
  5
24B
100
AcDbEntity
  8
M04
100
AcDbLine
 10
161.731476
 20
516.615204
 30
0.0
 11
164.031476
 21
515.287298
 31
0.0
  0
LINE
  5
24C
100
AcDbEntity
  8
M04
100
AcDbLine
 10
161.731476
 20
516.615204
 30
0.0
 11
166.331476
 21
516.615204
 31
0.0
  0
LINE
  5
24D
100
AcDbEntity
  8
M04
100
AcDbLine
 10
161.031476
 20
521.676322
 30
0.0
 11
161.031476
 21
518.115204
 31
0.0
  0
LINE
  5
24E
100
AcDbEntity
  8
M04
100
AcDbLine
 10
161.731476
 20
520.976322
 30
0.0
 11
161.731476
 21
516.615204
 31
0.0
  0
LINE
  5
24F
100
AcDbEntity
  8
M04
100
AcDbLine
 10
167.031476
 20
521.676322
 30
0.0
 11
167.031476
 21
518.115204
 31
0.0
  0
LINE
  5
250
100
AcDbEntity
  8
M04
100
AcDbLine
 10
166.331476
 20
520.976322
 30
0.0
 11
166.331476
 21
516.615204
 31
0.0
  0
LINE
  5
251
100
AcDbEntity
  8
M05
100
AcDbLine
 10
166.331476
 20
520.976322
 30
0.0
 11
167.031476
 21
521.676322
 31
0.0
  0
LINE
  5
252
100
AcDbEntity
  8
M05
100
AcDbLine
 10
161.031476
 20
521.676322
 30
0.0
 11
161.731476
 21
520.976322
 31
0.0
  0
LINE
  5
253
100
AcDbEntity
  8
M05
100
AcDbLine
 10
166.331476
 20
533.756322
 30
0.0
 11
166.331476
 21
520.976322
 31
0.0
  0
LINE
  5
254
100
AcDbEntity
  8
M05
100
AcDbLine
 10
161.731476
 20
533.756322
 30
0.0
 11
161.731476
 21
520.976322
 31
0.0
  0
LINE
  5
255
100
AcDbEntity
  8
M05
100
AcDbLine
 10
161.031476
 20
521.676322
 30
0.0
 11
167.031476
 21
521.676322
 31
0.0
  0
LINE
  5
256
100
AcDbEntity
  8
M04
100
AcDbLine
 10
161.031476
 20
518.115204
 30
0.0
 11
167.031476
 21
518.115204
 31
0.0
  0
LINE
  5
257
100
AcDbEntity
  8
M05
100
AcDbLine
 10
161.731476
 20
520.976322
 30
0.0
 11
166.331476
 21
520.976322
 31
0.0
  0
LINE
  5
258
102
{ACAD_REACTORS
330
96
102
}
100
AcDbEntity
  8
M05
  6
HIDDEN
100
AcDbLine
 10
155.872594
 20
540.415204
 30
0.0
 11
155.172594
 21
541.115204
 31
0.0
  0
LINE
  5
259
102
{ACAD_REACTORS
330
96
102
}
100
AcDbEntity
  8
M05
  6
HIDDEN
100
AcDbLine
 10
172.190358
 20
540.415204
 30
0.0
 11
172.890358
 21
541.115204
 31
0.0
  0
LINE
  5
25A
100
AcDbEntity
  8
M04
100
AcDbLine
 10
167.031476
 20
533.115204
 30
0.0
 11
220.582257
 21
533.115204
 31
0.0
  0
LINE
  5
25B
100
AcDbEntity
  8
M05
100
AcDbLine
 10
161.031476
 20
533.756322
 30
0.0
 11
167.031476
 21
533.756322
 31
0.0
  0
LINE
  5
25C
100
AcDbEntity
  8
M05
100
AcDbLine
 10
164.581476
 20
538.256322
 30
0.0
 11
170.031476
 21
538.256322
 31
0.0
  0
LINE
  5
25D
100
AcDbEntity
  8
M05
100
AcDbLine
 10
164.581476
 20
538.976322
 30
0.0
 11
170.031476
 21
538.976322
 31
0.0
  0
LINE
  5
25E
100
AcDbEntity
  8
M05
100
AcDbLine
 10
164.581476
 20
538.976322
 30
0.0
 11
164.581476
 21
537.476322
 31
0.0
  0
LINE
  5
25F
100
AcDbEntity
  8
M05
100
AcDbLine
 10
163.481476
 20
538.976322
 30
0.0
 11
163.481476
 21
537.476322
 31
0.0
  0
LINE
  5
260
100
AcDbEntity
  8
M05
100
AcDbLine
 10
163.481476
 20
537.476322
 30
0.0
 11
164.581476
 21
537.476322
 31
0.0
  0
LINE
  5
261
100
AcDbEntity
  8
M05
100
AcDbLine
 10
167.531476
 20
535.756322
 30
0.0
 11
167.531476
 21
533.115204
 31
0.0
  0
LINE
  5
262
100
AcDbEntity
  8
M05
100
AcDbLine
 10
160.531476
 20
535.756322
 30
0.0
 11
160.531476
 21
533.115204
 31
0.0
  0
LINE
  5
263
100
AcDbEntity
  8
M05
100
AcDbLine
 10
158.031476
 20
538.256322
 30
0.0
 11
163.481476
 21
538.256322
 31
0.0
  0
LINE
  5
264
102
{ACAD_REACTORS
330
96
102
}
100
AcDbEntity
  8
M05
100
AcDbLine
 10
161.031476
 20
535.256322
 30
0.0
 11
155.872594
 21
540.415204
 31
0.0
  0
LINE
  5
265
100
AcDbEntity
  8
M05
100
AcDbLine
 10
158.031476
 20
538.976322
 30
0.0
 11
158.031476
 21
538.256322
 31
0.0
  0
LINE
  5
266
102
{ACAD_REACTORS
330
96
102
}
100
AcDbEntity
  8
M05
100
AcDbLine
 10
167.031476
 20
535.256322
 30
0.0
 11
172.190358
 21
540.415204
 31
0.0
  0
LINE
  5
267
100
AcDbEntity
  8
M05
100
AcDbLine
 10
161.031476
 20
535.256322
 30
0.0
 11
167.031476
 21
535.256322
 31
0.0
  0
LINE
  5
268
100
AcDbEntity
  8
M05
100
AcDbLine
 10
161.031476
 20
535.256322
 30
0.0
 11
161.031476
 21
521.676322
 31
0.0
  0
LINE
  5
269
100
AcDbEntity
  8
M05
100
AcDbLine
 10
167.031476
 20
535.256322
 30
0.0
 11
167.031476
 21
521.676322
 31
0.0
  0
LINE
  5
26A
100
AcDbEntity
  8
M05
100
AcDbLine
 10
170.031476
 20
538.976322
 30
0.0
 11
170.031476
 21
538.256322
 31
0.0
  0
LINE
  5
26B
100
AcDbEntity
  8
M05
100
AcDbLine
 10
158.031476
 20
538.976322
 30
0.0
 11
163.481476
 21
538.976322
 31
0.0
  0
HATCH
  5
26C
100
AcDbEntity
  8
HATCH
100
AcDbHatch
 10
0.0
 20
0.0
 30
0.0
210
0.0
220
0.0
230
1.0
  2
_U
 70
     0
 71
     1
 91
        1
 92
        7
 72
     0
 73
     1
 93
        4
 10
381.9443432978393
 20
799.1879552233347
 10
378.9443432978393
 20
799.1879552233347
 10
378.9443432978394
 20
760.1879552233349
 10
381.9443432978393
 20
760.1879552233347
 97
        4
330
462
330
470
330
3F4
330
464
 75
     0
 76
     0
 52
135.0
 41
0.8
 77
     0
 78
     1
 53
135.0
 43
-442.645764
 44
292.628729
 45
-0.5656854249492382
 46
-0.565685424949238
 79
     0
 47
0.167139
 98
        1
 10
380.839386
 20
787.465515
  0
HATCH
  5
26D
100
AcDbEntity
  8
HATCH
100
AcDbHatch
 10
0.0
 20
0.0
 30
0.0
210
0.0
220
0.0
230
1.0
  2
_U
 70
     0
 71
     1
 91
        2
 92
        7
 72
     0
 73
     1
 93
        4
 10
328.9443432978395
 20
736.1879552233347
 10
331.9443432978395
 20
736.1879552233347
 10
331.9443432978394
 20
789.1879552233347
 10
328.9443432978392
 20
789.1879552233347
 97
        4
330
45F
330
465
330
42F
330
473
 92
        7
 72
     0
 73
     1
 93
        4
 10
328.9443432978394
 20
695.1879552233346
 10
331.9443432978394
 20
695.1879552233346
 10
331.9443432978396
 20
714.1879552233348
 10
328.9443432978397
 20
714.1879552233347
 97
        4
330
42E
330
431
330
463
330
430
 75
     0
 76
     0
 52
135.0
 41
0.8
 77
     0
 78
     1
 53
135.0
 43
-442.645764
 44
292.628729
 45
-0.5656854249492382
 46
-0.565685424949238
 79
     0
 47
0.167139
 98
        2
 10
330.342429
 20
784.791283
 10
330.008012
 20
711.584184
  0
LINE
  5
26E
100
AcDbEntity
  8
DIMS
 62
     4
100
AcDbLine
 10
92.431476
 20
795.687955
 30
0.0
 11
94.731476
 21
795.687955
 31
0.0
  0
LINE
  5
26F
100
AcDbEntity
  8
DIMS
 62
     4
100
AcDbLine
 10
85.631476
 20
795.687955
 30
0.0
 11
83.331476
 21
795.687955
 31
0.0
  0
LINE
  5
270
100
AcDbEntity
  8
DIMS
 62
     4
100
AcDbLine
 10
87.331476
 20
795.687955
 30
0.0
 11
90.731476
 21
795.687955
 31
0.0
  0
DIMENSION
  5
271
100
AcDbEntity
  8
DIMS
100
AcDbDimension
  2
*D3
 10
225.788431
 20
757.187955
 30
0.0
 11
222.788431
 21
725.187955
 31
0.0
  1
W=<>
  3
DIM1
100
AcDbAlignedDimension
 13
184.031476
 23
693.187955
 33
0.0
 14
184.031476
 24
757.187955
 34
0.0
 50
90.0
100
AcDbRotatedDimension
1001
ACAD
1000
DSTYLE
1002
{
1070
   144
1040
1.0
1002
}
  0
DIMENSION
  5
27E
100
AcDbEntity
  8
DIMS
100
AcDbDimension
  2
*D2
 10
196.031476
 20
642.825348
 30
0.0
 11
89.031476
 21
645.825348
 31
0.0
  1
L=<>
  3
DIM1
100
AcDbAlignedDimension
 13
-17.968524
 23
705.187955
 33
0.0
 14
196.031476
 24
705.187955
 34
0.0
100
AcDbRotatedDimension
1001
ACAD
1000
DSTYLE
1002
{
1070
   144
1040
1.0
1002
}
  0
DIMENSION
  5
28B
100
AcDbEntity
  8
DIMS
100
AcDbDimension
  2
*D1
 10
164.031476
 20
652.600782
 30
0.0
 11
89.031476
 21
652.600782
 31
0.0
 70
   128
  1
A=<>
  3
DIM1
100
AcDbAlignedDimension
 13
14.031476
 23
708.489151
 33
0.0
 14
164.031476
 24
708.474736
 34
0.0
100
AcDbRotatedDimension
1001
ACAD
1000
DSTYLE
1002
{
1070
   144
1040
1.0
1002
}
  0
DIMENSION
  5
298
100
AcDbEntity
  8
DIMS
100
AcDbDimension
  2
*D0
 10
89.031476
 20
662.655514
 30
0.0
 11
60.613684
 21
662.655514
 31
0.0
 70
   128
  1
A/2=<>
  3
DIM1
100
AcDbAlignedDimension
 13
14.031476
 23
708.489151
 33
0.0
 14
89.031476
 24
678.187955
 34
0.0
100
AcDbRotatedDimension
1001
ACAD
1000
DSTYLE
1002
{
1070
   144
1040
1.0
1002
}
  0
LINE
  5
2A5
100
AcDbEntity
  8
M01
100
AcDbLine
 10
369.913254
 20
843.087955
 30
0.0
 11
375.975432
 21
843.087955
 31
0.0
  0
ARC
  5
2A6
100
AcDbEntity
  8
M01
100
AcDbCircle
 10
375.975432
 20
841.23865
 30
0.0
 40
1.150694
100
AcDbArc
 50
208.592423
 51
331.407577
  0
ARC
  5
2A7
100
AcDbEntity
  8
M01
100
AcDbCircle
 10
372.944343
 20
843.790733
 30
0.0
 40
3.702778
100
AcDbArc
 50
236.92527
 51
303.07473
  0
ARC
  5
2A8
100
AcDbEntity
  8
M01
100
AcDbCircle
 10
369.913254
 20
841.23865
 30
0.0
 40
1.150694
100
AcDbArc
 50
208.592423
 51
331.407577
  0
ARC
  5
2A9
100
AcDbEntity
  8
M01
100
AcDbCircle
 10
375.975432
 20
841.937261
 30
0.0
 40
1.150694
100
AcDbArc
 50
28.592423
 51
151.407577
  0
ARC
  5
2AA
100
AcDbEntity
  8
M01
100
AcDbCircle
 10
372.944343
 20
839.385177
 30
0.0
 40
3.702778
100
AcDbArc
 50
56.92527
 51
123.07473
  0
LINE
  5
2AB
100
AcDbEntity
  8
M01
100
AcDbLine
 10
374.965069
 20
842.487955
 30
0.0
 11
374.965069
 21
840.687955
 31
0.0
  0
LINE
  5
2AC
100
AcDbEntity
  8
M01
100
AcDbLine
 10
376.985795
 20
842.487955
 30
0.0
 11
376.985795
 21
840.687955
 31
0.0
  0
ARC
  5
2AD
100
AcDbEntity
  8
M01
100
AcDbCircle
 10
369.913254
 20
841.937261
 30
0.0
 40
1.150694
100
AcDbArc
 50
28.592423
 51
151.407577
  0
LINE
  5
2AE
100
AcDbEntity
  8
M01
100
AcDbLine
 10
370.923617
 20
842.487955
 30
0.0
 11
370.923617
 21
840.687955
 31
0.0
  0
LINE
  5
2AF
100
AcDbEntity
  8
M01
100
AcDbLine
 10
368.902891
 20
842.487955
 30
0.0
 11
368.902891
 21
840.687955
 31
0.0
  0
LINE
  5
2B0
100
AcDbEntity
  8
M01
100
AcDbLine
 10
377.944343
 20
837.787955
 30
0.0
 11
377.944343
 21
839.287955
 31
0.0
  0
LINE
  5
2B1
100
AcDbEntity
  8
M01
100
AcDbLine
 10
367.944343
 20
837.787955
 30
0.0
 11
367.944343
 21
839.287955
 31
0.0
  0
LINE
  5
2B2
100
AcDbEntity
  8
M01
100
AcDbLine
 10
377.444343
 20
839.287955
 30
0.0
 11
377.444343
 21
840.087955
 31
0.0
  0
LINE
  5
2B3
100
AcDbEntity
  8
M01
100
AcDbLine
 10
368.444343
 20
839.287955
 30
0.0
 11
368.444343
 21
840.087955
 31
0.0
  0
LINE
  5
2B4
100
AcDbEntity
  8
M01
100
AcDbLine
 10
368.444343
 20
840.087955
 30
0.0
 11
377.444343
 21
840.087955
 31
0.0
  0
LINE
  5
2B5
100
AcDbEntity
  8
M01
100
AcDbLine
 10
367.944343
 20
839.287955
 30
0.0
 11
377.944343
 21
839.287955
 31
0.0
  0
LINE
  5
2B6
100
AcDbEntity
  8
M01
100
AcDbLine
 10
377.444343
 20
836.987955
 30
0.0
 11
377.444343
 21
837.787955
 31
0.0
  0
LINE
  5
2B7
100
AcDbEntity
  8
M01
100
AcDbLine
 10
368.444343
 20
836.987955
 30
0.0
 11
368.444343
 21
837.787955
 31
0.0
  0
LINE
  5
2B8
100
AcDbEntity
  8
M01
100
AcDbLine
 10
362.944343
 20
837.787955
 30
0.0
 11
377.944343
 21
837.787955
 31
0.0
  0
ARC
  5
2B9
100
AcDbEntity
  8
M01
100
AcDbCircle
 10
375.975432
 20
835.13865
 30
0.0
 40
1.150694
100
AcDbArc
 50
208.592423
 51
331.407577
  0
ARC
  5
2BA
100
AcDbEntity
  8
M01
100
AcDbCircle
 10
372.944343
 20
837.690733
 30
0.0
 40
3.702778
100
AcDbArc
 50
236.92527
 51
303.07473
  0
ARC
  5
2BB
100
AcDbEntity
  8
M01
100
AcDbCircle
 10
369.913254
 20
835.13865
 30
0.0
 40
1.150694
100
AcDbArc
 50
208.592423
 51
331.407577
  0
ARC
  5
2BC
100
AcDbEntity
  8
M01
100
AcDbCircle
 10
375.975432
 20
835.837261
 30
0.0
 40
1.150694
100
AcDbArc
 50
28.592423
 51
151.407577
  0
ARC
  5
2BD
100
AcDbEntity
  8
M01
100
AcDbCircle
 10
372.944343
 20
833.285177
 30
0.0
 40
3.702778
100
AcDbArc
 50
56.92527
 51
123.07473
  0
LINE
  5
2BE
100
AcDbEntity
  8
M01
100
AcDbLine
 10
374.965069
 20
836.387955
 30
0.0
 11
374.965069
 21
834.587955
 31
0.0
  0
LINE
  5
2BF
100
AcDbEntity
  8
M01
100
AcDbLine
 10
376.985795
 20
836.387955
 30
0.0
 11
376.985795
 21
834.587955
 31
0.0
  0
ARC
  5
2C0
100
AcDbEntity
  8
M01
100
AcDbCircle
 10
369.913254
 20
835.837261
 30
0.0
 40
1.150694
100
AcDbArc
 50
28.592423
 51
151.407577
  0
LINE
  5
2C1
100
AcDbEntity
  8
M01
100
AcDbLine
 10
370.923617
 20
836.387955
 30
0.0
 11
370.923617
 21
834.587955
 31
0.0
  0
LINE
  5
2C2
100
AcDbEntity
  8
M01
100
AcDbLine
 10
368.902891
 20
836.387955
 30
0.0
 11
368.902891
 21
834.587955
 31
0.0
  0
LINE
  5
2C3
100
AcDbEntity
  8
M01
100
AcDbLine
 10
368.444343
 20
836.987955
 30
0.0
 11
377.444343
 21
836.987955
 31
0.0
  0
LINE
  5
2C4
100
AcDbEntity
  8
M01
100
AcDbLine
 10
368.444343
 20
833.987955
 30
0.0
 11
377.444343
 21
833.987955
 31
0.0
  0
LINE
  5
2C5
100
AcDbEntity
  8
M01
100
AcDbLine
 10
368.444343
 20
833.187955
 30
0.0
 11
377.444343
 21
833.187955
 31
0.0
  0
LINE
  5
2C6
100
AcDbEntity
  8
M01
100
AcDbLine
 10
374.444343
 20
846.187955
 30
0.0
 11
374.944343
 21
845.687955
 31
0.0
  0
LINE
  5
2C7
100
AcDbEntity
  8
M01
100
AcDbLine
 10
370.944343
 20
845.687955
 30
0.0
 11
371.444343
 21
846.187955
 31
0.0
  0
LINE
  5
2C8
100
AcDbEntity
  8
M01
100
AcDbLine
 10
370.944343
 20
845.687955
 30
0.0
 11
374.944343
 21
845.687955
 31
0.0
  0
LINE
  5
2C9
100
AcDbEntity
  8
M01
100
AcDbLine
 10
374.444343
 20
846.187955
 30
0.0
 11
374.444343
 21
843.087955
 31
0.0
  0
LINE
  5
2CA
100
AcDbEntity
  8
M01
100
AcDbLine
 10
371.444343
 20
846.187955
 30
0.0
 11
371.444343
 21
843.087955
 31
0.0
  0
LINE
  5
2CB
100
AcDbEntity
  8
M01
100
AcDbLine
 10
370.944343
 20
845.687955
 30
0.0
 11
370.944343
 21
843.087955
 31
0.0
  0
LINE
  5
2CC
100
AcDbEntity
  8
M01
100
AcDbLine
 10
374.944343
 20
845.687955
 30
0.0
 11
374.944343
 21
843.087955
 31
0.0
  0
LINE
  5
2CD
100
AcDbEntity
  8
M01
100
AcDbLine
 10
371.444343
 20
846.187955
 30
0.0
 11
374.444343
 21
846.187955
 31
0.0
  0
LINE
  5
2CE
100
AcDbEntity
  8
M01
100
AcDbLine
 10
367.944343
 20
821.187955
 30
0.0
 11
377.944343
 21
821.187955
 31
0.0
  0
LINE
  5
2CF
100
AcDbEntity
  8
M01
100
AcDbLine
 10
377.444343
 20
833.987955
 30
0.0
 11
377.444343
 21
833.187955
 31
0.0
  0
LINE
  5
2D0
100
AcDbEntity
  8
M01
100
AcDbLine
 10
368.444343
 20
833.987955
 30
0.0
 11
368.444343
 21
833.187955
 31
0.0
  0
LINE
  5
2D1
100
AcDbEntity
  8
CENTRE
100
AcDbLine
 10
372.944343
 20
852.348845
 30
0.0
 11
372.944343
 21
788.755413
 31
0.0
  0
LINE
  5
2D2
100
AcDbEntity
  8
M01
100
AcDbLine
 10
340.975432
 20
843.087955
 30
0.0
 11
334.913254
 21
843.087955
 31
0.0
  0
ARC
  5
2D3
100
AcDbEntity
  8
M01
100
AcDbCircle
 10
334.913254
 20
841.23865
 30
0.0
 40
1.150694
100
AcDbArc
 50
208.592423
 51
331.407577
  0
ARC
  5
2D4
100
AcDbEntity
  8
M01
100
AcDbCircle
 10
337.944343
 20
843.790733
 30
0.0
 40
3.702778
100
AcDbArc
 50
236.92527
 51
303.07473
  0
ARC
  5
2D5
100
AcDbEntity
  8
M01
100
AcDbCircle
 10
340.975432
 20
841.23865
 30
0.0
 40
1.150694
100
AcDbArc
 50
208.592423
 51
331.407577
  0
ARC
  5
2D6
100
AcDbEntity
  8
M01
100
AcDbCircle
 10
334.913254
 20
841.937261
 30
0.0
 40
1.150694
100
AcDbArc
 50
28.592423
 51
151.407577
  0
ARC
  5
2D7
100
AcDbEntity
  8
M01
100
AcDbCircle
 10
337.944343
 20
839.385177
 30
0.0
 40
3.702778
100
AcDbArc
 50
56.92527
 51
123.07473
  0
LINE
  5
2D8
100
AcDbEntity
  8
M01
100
AcDbLine
 10
335.923617
 20
842.487955
 30
0.0
 11
335.923617
 21
840.687955
 31
0.0
  0
LINE
  5
2D9
100
AcDbEntity
  8
M01
100
AcDbLine
 10
333.902891
 20
842.487955
 30
0.0
 11
333.902891
 21
840.687955
 31
0.0
  0
ARC
  5
2DA
100
AcDbEntity
  8
M01
100
AcDbCircle
 10
340.975432
 20
841.937261
 30
0.0
 40
1.150694
100
AcDbArc
 50
28.592423
 51
151.407577
  0
LINE
  5
2DB
100
AcDbEntity
  8
M01
100
AcDbLine
 10
339.965069
 20
842.487955
 30
0.0
 11
339.965069
 21
840.687955
 31
0.0
  0
LINE
  5
2DC
100
AcDbEntity
  8
M01
100
AcDbLine
 10
341.985795
 20
842.487955
 30
0.0
 11
341.985795
 21
840.687955
 31
0.0
  0
LINE
  5
2DD
100
AcDbEntity
  8
M01
100
AcDbLine
 10
332.944343
 20
837.787955
 30
0.0
 11
332.944343
 21
839.287955
 31
0.0
  0
LINE
  5
2DE
100
AcDbEntity
  8
M01
100
AcDbLine
 10
333.444343
 20
839.287955
 30
0.0
 11
333.444343
 21
840.087955
 31
0.0
  0
LINE
  5
2DF
100
AcDbEntity
  8
M01
100
AcDbLine
 10
342.444343
 20
839.287955
 30
0.0
 11
342.444343
 21
840.087955
 31
0.0
  0
LINE
  5
2E0
100
AcDbEntity
  8
M01
100
AcDbLine
 10
342.444343
 20
840.087955
 30
0.0
 11
333.444343
 21
840.087955
 31
0.0
  0
LINE
  5
2E1
100
AcDbEntity
  8
M01
100
AcDbLine
 10
342.944343
 20
839.287955
 30
0.0
 11
332.944343
 21
839.287955
 31
0.0
  0
LINE
  5
2E2
100
AcDbEntity
  8
M01
100
AcDbLine
 10
333.444343
 20
836.987955
 30
0.0
 11
333.444343
 21
837.787955
 31
0.0
  0
LINE
  5
2E3
100
AcDbEntity
  8
M01
100
AcDbLine
 10
342.444343
 20
836.987955
 30
0.0
 11
342.444343
 21
837.787955
 31
0.0
  0
ARC
  5
2E4
100
AcDbEntity
  8
M01
100
AcDbCircle
 10
334.913254
 20
835.13865
 30
0.0
 40
1.150694
100
AcDbArc
 50
208.592423
 51
331.407577
  0
ARC
  5
2E5
100
AcDbEntity
  8
M01
100
AcDbCircle
 10
337.944343
 20
837.690733
 30
0.0
 40
3.702778
100
AcDbArc
 50
236.92527
 51
303.07473
  0
ARC
  5
2E6
100
AcDbEntity
  8
M01
100
AcDbCircle
 10
340.975432
 20
835.13865
 30
0.0
 40
1.150694
100
AcDbArc
 50
208.592423
 51
331.407577
  0
ARC
  5
2E7
100
AcDbEntity
  8
M01
100
AcDbCircle
 10
334.913254
 20
835.837261
 30
0.0
 40
1.150694
100
AcDbArc
 50
28.592423
 51
151.407577
  0
ARC
  5
2E8
100
AcDbEntity
  8
M01
100
AcDbCircle
 10
337.944343
 20
833.285177
 30
0.0
 40
3.702778
100
AcDbArc
 50
56.92527
 51
123.07473
  0
LINE
  5
2E9
100
AcDbEntity
  8
M01
100
AcDbLine
 10
335.923617
 20
836.387955
 30
0.0
 11
335.923617
 21
834.587955
 31
0.0
  0
LINE
  5
2EA
100
AcDbEntity
  8
M01
100
AcDbLine
 10
333.902891
 20
836.387955
 30
0.0
 11
333.902891
 21
834.587955
 31
0.0
  0
ARC
  5
2EB
100
AcDbEntity
  8
M01
100
AcDbCircle
 10
340.975432
 20
835.837261
 30
0.0
 40
1.150694
100
AcDbArc
 50
28.592423
 51
151.407577
  0
LINE
  5
2EC
100
AcDbEntity
  8
M01
100
AcDbLine
 10
339.965069
 20
836.387955
 30
0.0
 11
339.965069
 21
834.587955
 31
0.0
  0
LINE
  5
2ED
100
AcDbEntity
  8
M01
100
AcDbLine
 10
341.985795
 20
836.387955
 30
0.0
 11
341.985795
 21
834.587955
 31
0.0
  0
LINE
  5
2EE
100
AcDbEntity
  8
M01
100
AcDbLine
 10
342.444343
 20
836.987955
 30
0.0
 11
333.444343
 21
836.987955
 31
0.0
  0
LINE
  5
2EF
100
AcDbEntity
  8
M01
100
AcDbLine
 10
342.444343
 20
833.987955
 30
0.0
 11
333.444343
 21
833.987955
 31
0.0
  0
LINE
  5
2F0
100
AcDbEntity
  8
M01
100
AcDbLine
 10
342.444343
 20
833.187955
 30
0.0
 11
333.444343
 21
833.187955
 31
0.0
  0
LINE
  5
2F1
100
AcDbEntity
  8
M01
100
AcDbLine
 10
336.444343
 20
846.187955
 30
0.0
 11
335.944343
 21
845.687955
 31
0.0
  0
LINE
  5
2F2
100
AcDbEntity
  8
M01
100
AcDbLine
 10
339.944343
 20
845.687955
 30
0.0
 11
339.444343
 21
846.187955
 31
0.0
  0
LINE
  5
2F3
100
AcDbEntity
  8
M01
100
AcDbLine
 10
339.944343
 20
845.687955
 30
0.0
 11
335.944343
 21
845.687955
 31
0.0
  0
LINE
  5
2F4
100
AcDbEntity
  8
M01
100
AcDbLine
 10
336.444343
 20
846.187955
 30
0.0
 11
336.444343
 21
843.087955
 31
0.0
  0
LINE
  5
2F5
100
AcDbEntity
  8
M01
100
AcDbLine
 10
339.444343
 20
846.187955
 30
0.0
 11
339.444343
 21
843.087955
 31
0.0
  0
LINE
  5
2F6
100
AcDbEntity
  8
M01
100
AcDbLine
 10
339.944343
 20
845.687955
 30
0.0
 11
339.944343
 21
843.087955
 31
0.0
  0
LINE
  5
2F7
100
AcDbEntity
  8
M01
100
AcDbLine
 10
335.944343
 20
845.687955
 30
0.0
 11
335.944343
 21
843.087955
 31
0.0
  0
LINE
  5
2F8
100
AcDbEntity
  8
M01
100
AcDbLine
 10
339.444343
 20
846.187955
 30
0.0
 11
336.444343
 21
846.187955
 31
0.0
  0
LINE
  5
2F9
100
AcDbEntity
  8
M01
100
AcDbLine
 10
342.944343
 20
821.187955
 30
0.0
 11
332.944343
 21
821.187955
 31
0.0
  0
LINE
  5
2FA
100
AcDbEntity
  8
M01
100
AcDbLine
 10
333.444343
 20
833.987955
 30
0.0
 11
333.444343
 21
833.187955
 31
0.0
  0
LINE
  5
2FB
100
AcDbEntity
  8
M01
100
AcDbLine
 10
342.444343
 20
833.987955
 30
0.0
 11
342.444343
 21
833.187955
 31
0.0
  0
LINE
  5
2FC
100
AcDbEntity
  8
CENTRE
100
AcDbLine
 10
337.944343
 20
852.348845
 30
0.0
 11
337.944343
 21
788.755413
 31
0.0
  0
LINE
  5
2FD
100
AcDbEntity
  8
M01
100
AcDbLine
 10
104.062565
 20
843.087955
 30
0.0
 11
98.000387
 21
843.087955
 31
0.0
  0
ARC
  5
2FE
100
AcDbEntity
  8
M01
100
AcDbCircle
 10
98.000387
 20
841.23865
 30
0.0
 40
1.150694
100
AcDbArc
 50
208.592423
 51
331.407577
  0
ARC
  5
2FF
100
AcDbEntity
  8
M01
100
AcDbCircle
 10
101.031476
 20
843.790733
 30
0.0
 40
3.702778
100
AcDbArc
 50
236.92527
 51
303.07473
  0
ARC
  5
300
100
AcDbEntity
  8
M01
100
AcDbCircle
 10
104.062565
 20
841.23865
 30
0.0
 40
1.150694
100
AcDbArc
 50
208.592423
 51
331.407577
  0
ARC
  5
301
100
AcDbEntity
  8
M01
100
AcDbCircle
 10
98.000387
 20
841.937261
 30
0.0
 40
1.150694
100
AcDbArc
 50
28.592423
 51
151.407577
  0
ARC
  5
302
100
AcDbEntity
  8
M01
100
AcDbCircle
 10
101.031476
 20
839.385177
 30
0.0
 40
3.702778
100
AcDbArc
 50
56.92527
 51
123.07473
  0
LINE
  5
303
100
AcDbEntity
  8
M01
100
AcDbLine
 10
99.01075
 20
842.487955
 30
0.0
 11
99.01075
 21
840.687955
 31
0.0
  0
LINE
  5
304
100
AcDbEntity
  8
M01
100
AcDbLine
 10
96.990024
 20
842.487955
 30
0.0
 11
96.990024
 21
840.687955
 31
0.0
  0
ARC
  5
305
100
AcDbEntity
  8
M01
100
AcDbCircle
 10
104.062565
 20
841.937261
 30
0.0
 40
1.150694
100
AcDbArc
 50
28.592423
 51
151.407577
  0
LINE
  5
306
100
AcDbEntity
  8
M01
100
AcDbLine
 10
103.052202
 20
842.487955
 30
0.0
 11
103.052202
 21
840.687955
 31
0.0
  0
LINE
  5
307
100
AcDbEntity
  8
M01
100
AcDbLine
 10
105.072928
 20
842.487955
 30
0.0
 11
105.072928
 21
840.687955
 31
0.0
  0
LINE
  5
308
100
AcDbEntity
  8
M01
100
AcDbLine
 10
96.031476
 20
837.787955
 30
0.0
 11
96.031476
 21
839.287955
 31
0.0
  0
LINE
  5
309
100
AcDbEntity
  8
M01
100
AcDbLine
 10
106.031476
 20
837.787955
 30
0.0
 11
106.031476
 21
839.287955
 31
0.0
  0
LINE
  5
30A
100
AcDbEntity
  8
M01
100
AcDbLine
 10
96.531476
 20
839.287955
 30
0.0
 11
96.531476
 21
840.087955
 31
0.0
  0
LINE
  5
30B
100
AcDbEntity
  8
M01
100
AcDbLine
 10
105.531476
 20
839.287955
 30
0.0
 11
105.531476
 21
840.087955
 31
0.0
  0
LINE
  5
30C
100
AcDbEntity
  8
M01
100
AcDbLine
 10
105.531476
 20
840.087955
 30
0.0
 11
96.531476
 21
840.087955
 31
0.0
  0
LINE
  5
30D
100
AcDbEntity
  8
M01
100
AcDbLine
 10
106.031476
 20
839.287955
 30
0.0
 11
96.031476
 21
839.287955
 31
0.0
  0
LINE
  5
30E
100
AcDbEntity
  8
M01
100
AcDbLine
 10
96.531476
 20
836.987955
 30
0.0
 11
96.531476
 21
837.787955
 31
0.0
  0
LINE
  5
30F
100
AcDbEntity
  8
M01
100
AcDbLine
 10
105.531476
 20
836.987955
 30
0.0
 11
105.531476
 21
837.787955
 31
0.0
  0
LINE
  5
310
100
AcDbEntity
  8
M01
100
AcDbLine
 10
106.031476
 20
837.787955
 30
0.0
 11
96.031476
 21
837.787955
 31
0.0
  0
ARC
  5
311
100
AcDbEntity
  8
M01
100
AcDbCircle
 10
98.000387
 20
835.13865
 30
0.0
 40
1.150694
100
AcDbArc
 50
208.592423
 51
331.407577
  0
ARC
  5
312
100
AcDbEntity
  8
M01
100
AcDbCircle
 10
101.031476
 20
837.690733
 30
0.0
 40
3.702778
100
AcDbArc
 50
236.92527
 51
303.07473
  0
ARC
  5
313
100
AcDbEntity
  8
M01
100
AcDbCircle
 10
104.062565
 20
835.13865
 30
0.0
 40
1.150694
100
AcDbArc
 50
208.592423
 51
331.407577
  0
ARC
  5
314
100
AcDbEntity
  8
M01
100
AcDbCircle
 10
98.000387
 20
835.837261
 30
0.0
 40
1.150694
100
AcDbArc
 50
28.592423
 51
151.407577
  0
ARC
  5
315
100
AcDbEntity
  8
M01
100
AcDbCircle
 10
101.031476
 20
833.285177
 30
0.0
 40
3.702778
100
AcDbArc
 50
56.92527
 51
123.07473
  0
LINE
  5
316
100
AcDbEntity
  8
M01
100
AcDbLine
 10
99.01075
 20
836.387955
 30
0.0
 11
99.01075
 21
834.587955
 31
0.0
  0
LINE
  5
317
100
AcDbEntity
  8
M01
100
AcDbLine
 10
96.990024
 20
836.387955
 30
0.0
 11
96.990024
 21
834.587955
 31
0.0
  0
ARC
  5
318
100
AcDbEntity
  8
M01
100
AcDbCircle
 10
104.062565
 20
835.837261
 30
0.0
 40
1.150694
100
AcDbArc
 50
28.592423
 51
151.407577
  0
LINE
  5
319
100
AcDbEntity
  8
M01
100
AcDbLine
 10
103.052202
 20
836.387955
 30
0.0
 11
103.052202
 21
834.587955
 31
0.0
  0
LINE
  5
31A
100
AcDbEntity
  8
M01
100
AcDbLine
 10
105.072928
 20
836.387955
 30
0.0
 11
105.072928
 21
834.587955
 31
0.0
  0
LINE
  5
31B
100
AcDbEntity
  8
M01
100
AcDbLine
 10
105.531476
 20
836.987955
 30
0.0
 11
96.531476
 21
836.987955
 31
0.0
  0
LINE
  5
31C
100
AcDbEntity
  8
M01
100
AcDbLine
 10
105.531476
 20
833.987955
 30
0.0
 11
96.531476
 21
833.987955
 31
0.0
  0
LINE
  5
31D
100
AcDbEntity
  8
M01
100
AcDbLine
 10
99.531476
 20
846.187955
 30
0.0
 11
99.031476
 21
845.687955
 31
0.0
  0
LINE
  5
31E
100
AcDbEntity
  8
M01
100
AcDbLine
 10
103.031476
 20
845.687955
 30
0.0
 11
102.531476
 21
846.187955
 31
0.0
  0
LINE
  5
31F
100
AcDbEntity
  8
M01
100
AcDbLine
 10
103.031476
 20
845.687955
 30
0.0
 11
99.031476
 21
845.687955
 31
0.0
  0
LINE
  5
320
100
AcDbEntity
  8
M01
100
AcDbLine
 10
99.531476
 20
846.187955
 30
0.0
 11
99.531476
 21
843.087955
 31
0.0
  0
LINE
  5
321
100
AcDbEntity
  8
M01
100
AcDbLine
 10
102.531476
 20
846.187955
 30
0.0
 11
102.531476
 21
843.087955
 31
0.0
  0
LINE
  5
322
100
AcDbEntity
  8
M01
100
AcDbLine
 10
103.031476
 20
845.687955
 30
0.0
 11
103.031476
 21
843.087955
 31
0.0
  0
LINE
  5
323
100
AcDbEntity
  8
M01
100
AcDbLine
 10
99.031476
 20
845.687955
 30
0.0
 11
99.031476
 21
843.087955
 31
0.0
  0
LINE
  5
324
100
AcDbEntity
  8
M01
100
AcDbLine
 10
102.531476
 20
846.187955
 30
0.0
 11
99.531476
 21
846.187955
 31
0.0
  0
LINE
  5
325
100
AcDbEntity
  8
M01
100
AcDbLine
 10
106.031476
 20
821.187955
 30
0.0
 11
96.031476
 21
821.187955
 31
0.0
  0
LINE
  5
326
100
AcDbEntity
  8
CENTRE
100
AcDbLine
 10
101.031476
 20
852.348845
 30
0.0
 11
101.031476
 21
788.755413
 31
0.0
  0
LINE
  5
327
100
AcDbEntity
  8
M01
100
AcDbLine
 10
74.000387
 20
843.087955
 30
0.0
 11
80.062565
 21
843.087955
 31
0.0
  0
ARC
  5
328
100
AcDbEntity
  8
M01
100
AcDbCircle
 10
80.062565
 20
841.23865
 30
0.0
 40
1.150694
100
AcDbArc
 50
208.592423
 51
331.407577
  0
ARC
  5
329
100
AcDbEntity
  8
M01
100
AcDbCircle
 10
77.031476
 20
843.790733
 30
0.0
 40
3.702778
100
AcDbArc
 50
236.92527
 51
303.07473
  0
ARC
  5
32A
100
AcDbEntity
  8
M01
100
AcDbCircle
 10
74.000387
 20
841.23865
 30
0.0
 40
1.150694
100
AcDbArc
 50
208.592423
 51
331.407577
  0
ARC
  5
32B
100
AcDbEntity
  8
M01
100
AcDbCircle
 10
80.062565
 20
841.937261
 30
0.0
 40
1.150694
100
AcDbArc
 50
28.592423
 51
151.407577
  0
ARC
  5
32C
100
AcDbEntity
  8
M01
100
AcDbCircle
 10
77.031476
 20
839.385177
 30
0.0
 40
3.702778
100
AcDbArc
 50
56.92527
 51
123.07473
  0
LINE
  5
32D
100
AcDbEntity
  8
M01
100
AcDbLine
 10
79.052202
 20
842.487955
 30
0.0
 11
79.052202
 21
840.687955
 31
0.0
  0
LINE
  5
32E
100
AcDbEntity
  8
M01
100
AcDbLine
 10
81.072928
 20
842.487955
 30
0.0
 11
81.072928
 21
840.687955
 31
0.0
  0
ARC
  5
32F
100
AcDbEntity
  8
M01
100
AcDbCircle
 10
74.000387
 20
841.937261
 30
0.0
 40
1.150694
100
AcDbArc
 50
28.592423
 51
151.407577
  0
LINE
  5
330
100
AcDbEntity
  8
M01
100
AcDbLine
 10
75.01075
 20
842.487955
 30
0.0
 11
75.01075
 21
840.687955
 31
0.0
  0
LINE
  5
331
100
AcDbEntity
  8
M01
100
AcDbLine
 10
72.990024
 20
842.487955
 30
0.0
 11
72.990024
 21
840.687955
 31
0.0
  0
LINE
  5
332
100
AcDbEntity
  8
M01
100
AcDbLine
 10
82.031476
 20
837.787955
 30
0.0
 11
82.031476
 21
839.287955
 31
0.0
  0
LINE
  5
333
100
AcDbEntity
  8
M01
100
AcDbLine
 10
72.031476
 20
837.787955
 30
0.0
 11
72.031476
 21
839.287955
 31
0.0
  0
LINE
  5
334
100
AcDbEntity
  8
M01
100
AcDbLine
 10
81.531476
 20
839.287955
 30
0.0
 11
81.531476
 21
840.087955
 31
0.0
  0
LINE
  5
335
100
AcDbEntity
  8
M01
100
AcDbLine
 10
72.531476
 20
839.287955
 30
0.0
 11
72.531476
 21
840.087955
 31
0.0
  0
LINE
  5
336
100
AcDbEntity
  8
M01
100
AcDbLine
 10
72.531476
 20
840.087955
 30
0.0
 11
81.531476
 21
840.087955
 31
0.0
  0
LINE
  5
337
100
AcDbEntity
  8
M01
100
AcDbLine
 10
72.031476
 20
839.287955
 30
0.0
 11
82.031476
 21
839.287955
 31
0.0
  0
LINE
  5
338
100
AcDbEntity
  8
M01
100
AcDbLine
 10
81.531476
 20
836.987955
 30
0.0
 11
81.531476
 21
837.787955
 31
0.0
  0
LINE
  5
339
100
AcDbEntity
  8
M01
100
AcDbLine
 10
72.531476
 20
836.987955
 30
0.0
 11
72.531476
 21
837.787955
 31
0.0
  0
LINE
  5
33A
100
AcDbEntity
  8
M01
100
AcDbLine
 10
72.031476
 20
837.787955
 30
0.0
 11
82.031476
 21
837.787955
 31
0.0
  0
ARC
  5
33B
100
AcDbEntity
  8
M01
100
AcDbCircle
 10
80.062565
 20
835.13865
 30
0.0
 40
1.150694
100
AcDbArc
 50
208.592423
 51
331.407577
  0
ARC
  5
33C
100
AcDbEntity
  8
M01
100
AcDbCircle
 10
77.031476
 20
837.690733
 30
0.0
 40
3.702778
100
AcDbArc
 50
236.92527
 51
303.07473
  0
ARC
  5
33D
100
AcDbEntity
  8
M01
100
AcDbCircle
 10
74.000387
 20
835.13865
 30
0.0
 40
1.150694
100
AcDbArc
 50
208.592423
 51
331.407577
  0
ARC
  5
33E
100
AcDbEntity
  8
M01
100
AcDbCircle
 10
80.062565
 20
835.837261
 30
0.0
 40
1.150694
100
AcDbArc
 50
28.592423
 51
151.407577
  0
ARC
  5
33F
100
AcDbEntity
  8
M01
100
AcDbCircle
 10
77.031476
 20
833.285177
 30
0.0
 40
3.702778
100
AcDbArc
 50
56.92527
 51
123.07473
  0
LINE
  5
340
100
AcDbEntity
  8
M01
100
AcDbLine
 10
79.052202
 20
836.387955
 30
0.0
 11
79.052202
 21
834.587955
 31
0.0
  0
LINE
  5
341
100
AcDbEntity
  8
M01
100
AcDbLine
 10
81.072928
 20
836.387955
 30
0.0
 11
81.072928
 21
834.587955
 31
0.0
  0
ARC
  5
342
100
AcDbEntity
  8
M01
100
AcDbCircle
 10
74.000387
 20
835.837261
 30
0.0
 40
1.150694
100
AcDbArc
 50
28.592423
 51
151.407577
  0
LINE
  5
343
100
AcDbEntity
  8
M01
100
AcDbLine
 10
75.01075
 20
836.387955
 30
0.0
 11
75.01075
 21
834.587955
 31
0.0
  0
LINE
  5
344
100
AcDbEntity
  8
M01
100
AcDbLine
 10
72.990024
 20
836.387955
 30
0.0
 11
72.990024
 21
834.587955
 31
0.0
  0
LINE
  5
345
100
AcDbEntity
  8
M01
100
AcDbLine
 10
72.531476
 20
836.987955
 30
0.0
 11
81.531476
 21
836.987955
 31
0.0
  0
LINE
  5
346
100
AcDbEntity
  8
M01
100
AcDbLine
 10
72.531476
 20
833.987955
 30
0.0
 11
81.531476
 21
833.987955
 31
0.0
  0
LINE
  5
347
100
AcDbEntity
  8
M01
100
AcDbLine
 10
72.531476
 20
833.187955
 30
0.0
 11
81.531476
 21
833.187955
 31
0.0
  0
LINE
  5
348
100
AcDbEntity
  8
M01
100
AcDbLine
 10
18.031476
 20
567.615204
 30
0.0
 11
14.031476
 21
563.615204
 31
0.0
  0
LINE
  5
349
102
{ACAD_REACTORS
330
96
102
}
100
AcDbEntity
  8
M01
100
AcDbLine
 10
85.031476
 20
559.615204
 30
0.0
 11
14.031476
 21
559.615204
 31
0.0
  0
LINE
  5
34A
102
{ACAD_REACTORS
330
96
102
}
100
AcDbEntity
  8
M01
100
AcDbLine
 10
18.031476
 20
567.615204
 30
0.0
 11
18.031476
 21
587.115204
 31
0.0
  0
LINE
  5
34B
102
{ACAD_REACTORS
330
96
102
}
100
AcDbEntity
  8
M01
100
AcDbLine
 10
10.031476
 20
563.615204
 30
0.0
 11
10.031476
 21
587.115204
 31
0.0
  0
ARC
  5
34C
102
{ACAD_REACTORS
330
96
102
}
100
AcDbEntity
  8
M01
100
AcDbCircle
 10
14.031476
 20
563.615204
 30
0.0
 40
4.0
100
AcDbArc
 50
180.0
 51
270.0
  0
LINE
  5
34D
100
AcDbEntity
  8
M01
100
AcDbLine
 10
85.031476
 20
559.615204
 30
0.0
 11
89.031476
 21
563.615204
 31
0.0
  0
LINE
  5
34E
100
AcDbEntity
  8
M01
100
AcDbLine
 10
93.031476
 20
559.615204
 30
0.0
 11
89.031476
 21
563.615204
 31
0.0
  0
LINE
  5
34F
100
AcDbEntity
  8
M01
100
AcDbLine
 10
160.031476
 20
567.615204
 30
0.0
 11
164.031476
 21
563.615204
 31
0.0
  0
LINE
  5
350
102
{ACAD_REACTORS
330
96
102
}
100
AcDbEntity
  8
M01
100
AcDbLine
 10
18.031476
 20
567.615204
 30
0.0
 11
160.031476
 21
567.615204
 31
0.0
  0
LINE
  5
351
102
{ACAD_REACTORS
330
96
102
}
100
AcDbEntity
  8
M01
100
AcDbLine
 10
93.031476
 20
559.615204
 30
0.0
 11
164.031476
 21
559.615204
 31
0.0
  0
LINE
  5
352
102
{ACAD_REACTORS
330
96
102
}
100
AcDbEntity
  8
M01
100
AcDbLine
 10
160.031476
 20
567.615204
 30
0.0
 11
160.031476
 21
587.115204
 31
0.0
  0
LINE
  5
353
102
{ACAD_REACTORS
330
96
102
}
100
AcDbEntity
  8
M01
100
AcDbLine
 10
168.031476
 20
563.615204
 30
0.0
 11
168.031476
 21
587.115204
 31
0.0
  0
ARC
  5
354
102
{ACAD_REACTORS
330
96
102
}
100
AcDbEntity
  8
M01
100
AcDbCircle
 10
164.031476
 20
563.615204
 30
0.0
 40
4.0
100
AcDbArc
 50
270.0
 51
0.0
  0
LINE
  5
355
102
{ACAD_REACTORS
330
24
102
}
100
AcDbEntity
  8
M02
100
AcDbLine
 10
178.031476
 20
537.115204
 30
0.0
 11
194.031476
 21
537.115204
 31
0.0
  0
LINE
  5
356
102
{ACAD_REACTORS
330
96
102
}
100
AcDbEntity
  8
M05
  6
HIDDEN
100
AcDbLine
 10
150.031476
 20
540.415204
 30
0.0
 11
178.031476
 21
540.415204
 31
0.0
  0
LINE
  5
357
102
{ACAD_REACTORS
330
96
102
}
100
AcDbEntity
  8
M05
  6
HIDDEN
100
AcDbLine
 10
178.031476
 20
540.415204
 30
0.0
 11
177.331476
 21
541.115204
 31
0.0
  0
LINE
  5
358
102
{ACAD_REACTORS
330
96
102
}
100
AcDbEntity
  8
M05
  6
HIDDEN
100
AcDbLine
 10
178.031476
 20
539.415204
 30
0.0
 11
178.031476
 21
540.415204
 31
0.0
  0
LINE
  5
359
100
AcDbEntity
  8
M05
100
AcDbLine
 10
178.031476
 20
539.415204
 30
0.0
 11
177.331476
 21
540.115204
 31
0.0
  0
LINE
  5
35A
100
AcDbEntity
  8
M05
100
AcDbLine
 10
178.031476
 20
533.815204
 30
0.0
 11
177.331476
 21
533.115204
 31
0.0
  0
LINE
  5
35B
100
AcDbEntity
  8
M05
100
AcDbLine
 10
178.031476
 20
539.415204
 30
0.0
 11
178.031476
 21
533.815204
 31
0.0
  0
LINE
  5
35C
102
{ACAD_REACTORS
330
96
102
}
100
AcDbEntity
  8
M05
  6
HIDDEN
100
AcDbLine
 10
150.031476
 20
540.415204
 30
0.0
 11
150.731476
 21
541.115204
 31
0.0
  0
LINE
  5
35D
102
{ACAD_REACTORS
330
96
102
}
100
AcDbEntity
  8
M05
  6
HIDDEN
100
AcDbLine
 10
150.031476
 20
539.415204
 30
0.0
 11
150.031476
 21
540.415204
 31
0.0
  0
LINE
  5
35E
100
AcDbEntity
  8
M05
100
AcDbLine
 10
150.031476
 20
539.415204
 30
0.0
 11
150.731476
 21
540.115204
 31
0.0
  0
LINE
  5
35F
100
AcDbEntity
  8
M05
100
AcDbLine
 10
150.031476
 20
533.815204
 30
0.0
 11
150.731476
 21
533.115204
 31
0.0
  0
LINE
  5
360
102
{ACAD_REACTORS
330
24
102
}
100
AcDbEntity
  8
M02
100
AcDbLine
 10
179.031476
 20
540.115204
 30
0.0
 11
179.031476
 21
537.115204
 31
0.0
  0
LINE
  5
361
102
{ACAD_REACTORS
330
24
102
}
100
AcDbEntity
  8
M02
100
AcDbLine
 10
149.031476
 20
540.115204
 30
0.0
 11
149.031476
 21
537.115204
 31
0.0
  0
LINE
  5
362
102
{ACAD_REACTORS
330
96
102
}
100
AcDbEntity
  8
M05
  6
HIDDEN
100
AcDbLine
 10
150.731476
 20
541.115204
 30
0.0
 11
177.331476
 21
541.115204
 31
0.0
  0
LINE
  5
363
100
AcDbEntity
  8
M05
100
AcDbLine
 10
150.031476
 20
539.415204
 30
0.0
 11
150.031476
 21
533.815204
 31
0.0
  0
LINE
  5
364
102
{ACAD_REACTORS
330
96
102
}
100
AcDbEntity
  8
CENTRE
100
AcDbLine
 10
164.031476
 20
545.624314
 30
0.0
 11
164.031476
 21
512.545976
 31
0.0
  0
TEXT
  5
365
102
{ACAD_REACTORS
330
94
102
}
100
AcDbEntity
  8
TEXT
100
AcDbText
 10
94.105557
 20
535.682691
 30
0.0
 40
2.0
  1
MA010000
 41
0.9
100
AcDbText
  0
TEXT
  5
366
102
{ACAD_REACTORS
330
112
102
}
100
AcDbEntity
  8
TEXT
100
AcDbText
 10
371.450995
 20
731.009412
 30
0.0
 40
2.0
  1
MA010000
 41
0.9
100
AcDbText
  0
LINE
  5
367
100
AcDbEntity
  8
M04
100
AcDbLine
 10
59.031476
 20
515.115204
 30
0.0
 11
59.031476
 21
506.115204
 31
0.0
  0
LINE
  5
368
100
AcDbEntity
  8
M04
100
AcDbLine
 10
108.531476
 20
533.115204
 30
0.0
 11
161.031476
 21
533.115204
 31
0.0
  0
LINE
  5
369
102
{ACAD_REACTORS
330
24
102
}
100
AcDbEntity
  8
M02
100
AcDbLine
 10
123.031476
 20
537.115204
 30
0.0
 11
150.031476
 21
537.115204
 31
0.0
  0
LINE
  5
36A
102
{ACAD_REACTORS
330
94
102
}
100
AcDbEntity
  8
M05
100
AcDbLine
 10
55.031476
 20
534.815204
 30
0.0
 11
55.731476
 21
534.115204
 31
0.0
  0
LINE
  5
36B
102
{ACAD_REACTORS
330
24
102
}
100
AcDbEntity
  8
M02
100
AcDbLine
 10
54.031476
 20
540.115204
 30
0.0
 11
54.031476
 21
537.115204
 31
0.0
  0
LINE
  5
36C
102
{ACAD_REACTORS
330
96
330
94
102
}
100
AcDbEntity
  8
M01
100
AcDbLine
 10
99.031476
 20
540.115204
 30
0.0
 11
112.031476
 21
540.115204
 31
0.0
  0
LINE
  5
36D
100
AcDbEntity
  8
M04
100
AcDbLine
 10
59.031476
 20
515.115204
 30
0.0
 11
119.031476
 21
515.115204
 31
0.0
  0
LINE
  5
36E
100
AcDbEntity
  8
M04
100
AcDbLine
 10
69.031476
 20
525.115204
 30
0.0
 11
59.031476
 21
515.115204
 31
0.0
  0
LINE
  5
36F
100
AcDbEntity
  8
M04
100
AcDbLine
 10
119.031476
 20
515.115204
 30
0.0
 11
119.031476
 21
506.115204
 31
0.0
  0
LINE
  5
370
100
AcDbEntity
  8
M04
100
AcDbLine
 10
109.031476
 20
525.115204
 30
0.0
 11
119.031476
 21
515.115204
 31
0.0
  0
LINE
  5
371
100
AcDbEntity
  8
M05
100
AcDbLine
 10
85.990602
 20
531.813989
 30
0.0
 11
92.07235
 21
531.813989
 31
0.0
  0
ARC
  5
372
102
{ACAD_REACTORS
330
94
102
}
100
AcDbEntity
  8
M05
100
AcDbCircle
 10
89.031476
 20
516.615204
 30
0.0
 40
15.5
100
AcDbArc
 50
101.313981
 51
126.249321
  0
LINE
  5
373
102
{ACAD_REACTORS
330
96
102
}
100
AcDbEntity
  8
M01
100
AcDbLine
 10
85.031476
 20
559.615204
 30
0.0
 11
85.031476
 21
550.115204
 31
0.0
  0
LINE
  5
374
102
{ACAD_REACTORS
330
94
102
}
100
AcDbEntity
  8
M05
100
AcDbLine
 10
85.031476
 20
550.115204
 30
0.0
 11
85.990602
 21
531.813989
 31
0.0
  0
LINE
  5
375
102
{ACAD_REACTORS
330
94
102
}
100
AcDbEntity
  8
M05
100
AcDbLine
 10
93.031476
 20
550.115204
 30
0.0
 11
92.07235
 21
531.813989
 31
0.0
  0
ARC
  5
376
102
{ACAD_REACTORS
330
94
102
}
100
AcDbEntity
  8
M05
100
AcDbCircle
 10
89.031476
 20
516.615204
 30
0.0
 40
15.5
100
AcDbArc
 50
53.750679
 51
78.686019
  0
LINE
  5
377
102
{ACAD_REACTORS
330
96
102
}
100
AcDbEntity
  8
M01
100
AcDbLine
 10
93.031476
 20
559.615204
 30
0.0
 11
93.031476
 21
550.115204
 31
0.0
  0
LINE
  5
378
100
AcDbEntity
  8
M04
100
AcDbLine
 10
69.031476
 20
531.115204
 30
0.0
 11
69.031476
 21
533.115204
 31
0.0
  0
LINE
  5
379
100
AcDbEntity
  8
M04
100
AcDbLine
 10
69.031476
 20
529.815204
 30
0.0
 11
69.031476
 21
525.115204
 31
0.0
  0
LINE
  5
37A
100
AcDbEntity
  8
M04
100
AcDbLine
 10
109.031476
 20
531.115204
 30
0.0
 11
109.031476
 21
533.115204
 31
0.0
  0
LINE
  5
37B
100
AcDbEntity
  8
M04
100
AcDbLine
 10
109.031476
 20
529.815204
 30
0.0
 11
109.031476
 21
525.115204
 31
0.0
  0
LINE
  5
37C
100
AcDbEntity
  8
M04
100
AcDbLine
 10
109.031476
 20
525.115204
 30
0.0
 11
69.031476
 21
525.115204
 31
0.0
  0
LINE
  5
37D
102
{ACAD_REACTORS
330
94
102
}
100
AcDbEntity
  8
M05
100
AcDbLine
 10
69.531476
 20
531.115204
 30
0.0
 11
69.031476
 21
531.115204
 31
0.0
  0
LINE
  5
37E
102
{ACAD_REACTORS
330
94
102
}
100
AcDbEntity
  8
M05
100
AcDbLine
 10
69.531476
 20
534.115204
 30
0.0
 11
55.731476
 21
534.115204
 31
0.0
  0
LINE
  5
37F
102
{ACAD_REACTORS
330
94
102
}
100
AcDbEntity
  8
M05
100
AcDbLine
 10
69.531476
 20
534.115204
 30
0.0
 11
69.531476
 21
531.115204
 31
0.0
  0
LINE
  5
380
102
{ACAD_REACTORS
330
94
102
}
100
AcDbEntity
  8
M05
100
AcDbLine
 10
108.531476
 20
534.115204
 30
0.0
 11
108.531476
 21
531.115204
 31
0.0
  0
LINE
  5
381
102
{ACAD_REACTORS
330
94
102
}
100
AcDbEntity
  8
M05
100
AcDbLine
 10
109.031476
 20
531.115204
 30
0.0
 11
108.531476
 21
531.115204
 31
0.0
  0
LINE
  5
382
102
{ACAD_REACTORS
330
94
102
}
100
AcDbEntity
  8
M05
100
AcDbLine
 10
69.731476
 20
529.115204
 30
0.0
 11
69.031476
 21
529.815204
 31
0.0
  0
LINE
  5
383
102
{ACAD_REACTORS
330
94
102
}
100
AcDbEntity
  8
M05
100
AcDbLine
 10
108.331476
 20
529.115204
 30
0.0
 11
109.031476
 21
529.815204
 31
0.0
  0
LINE
  5
384
102
{ACAD_REACTORS
330
94
102
}
100
AcDbEntity
  8
M05
100
AcDbLine
 10
108.331476
 20
529.115204
 30
0.0
 11
69.731476
 21
529.115204
 31
0.0
  0
LINE
  5
385
102
{ACAD_REACTORS
330
94
102
}
100
AcDbEntity
  8
M05
100
AcDbLine
 10
69.031476
 20
531.115204
 30
0.0
 11
69.031476
 21
529.815204
 31
0.0
  0
LINE
  5
386
102
{ACAD_REACTORS
330
94
102
}
100
AcDbEntity
  8
M05
100
AcDbLine
 10
109.031476
 20
531.115204
 30
0.0
 11
109.031476
 21
529.815204
 31
0.0
  0
LINE
  5
387
102
{ACAD_REACTORS
330
96
102
}
100
AcDbEntity
  8
M04
100
AcDbLine
 10
79.031476
 20
540.615204
 30
0.0
 11
78.531476
 21
540.115204
 31
0.0
  0
LINE
  5
388
102
{ACAD_REACTORS
330
96
102
}
100
AcDbEntity
  8
M04
100
AcDbLine
 10
99.031476
 20
540.615204
 30
0.0
 11
99.531476
 21
540.115204
 31
0.0
  0
LINE
  5
389
102
{ACAD_REACTORS
330
94
102
}
100
AcDbEntity
  8
M05
100
AcDbLine
 10
55.031476
 20
539.415204
 30
0.0
 11
55.731476
 21
540.115204
 31
0.0
  0
LINE
  5
38A
102
{ACAD_REACTORS
330
94
102
}
100
AcDbEntity
  8
M05
100
AcDbLine
 10
55.031476
 20
539.415204
 30
0.0
 11
55.031476
 21
534.815204
 31
0.0
  0
LINE
  5
38B
102
{ACAD_REACTORS
330
94
102
}
100
AcDbEntity
  8
M05
100
AcDbLine
 10
123.031476
 20
539.415204
 30
0.0
 11
122.331476
 21
540.115204
 31
0.0
  0
LINE
  5
38C
102
{ACAD_REACTORS
330
94
102
}
100
AcDbEntity
  8
M05
100
AcDbLine
 10
123.031476
 20
534.815204
 30
0.0
 11
122.331476
 21
534.115204
 31
0.0
  0
LINE
  5
38D
102
{ACAD_REACTORS
330
24
102
}
100
AcDbEntity
  8
M02
100
AcDbLine
 10
124.031476
 20
540.115204
 30
0.0
 11
124.031476
 21
537.115204
 31
0.0
  0
LINE
  5
38E
102
{ACAD_REACTORS
330
94
102
}
100
AcDbEntity
  8
M05
100
AcDbLine
 10
122.331476
 20
534.115204
 30
0.0
 11
108.531476
 21
534.115204
 31
0.0
  0
LINE
  5
38F
102
{ACAD_REACTORS
330
94
102
}
100
AcDbEntity
  8
M05
100
AcDbLine
 10
123.031476
 20
539.415204
 30
0.0
 11
123.031476
 21
534.815204
 31
0.0
  0
LINE
  5
390
102
{ACAD_REACTORS
330
96
102
}
100
AcDbEntity
  8
M04
100
AcDbLine
 10
79.031476
 20
549.115204
 30
0.0
 11
79.031476
 21
550.115204
 31
0.0
  0
LINE
  5
391
102
{ACAD_REACTORS
330
96
102
}
100
AcDbEntity
  8
M04
100
AcDbLine
 10
80.031476
 20
550.115204
 30
0.0
 11
79.031476
 21
550.115204
 31
0.0
  0
LINE
  5
392
102
{ACAD_REACTORS
330
96
102
}
100
AcDbEntity
  8
M04
100
AcDbLine
 10
99.031476
 20
549.115204
 30
0.0
 11
99.031476
 21
550.115204
 31
0.0
  0
LINE
  5
393
102
{ACAD_REACTORS
330
96
102
}
100
AcDbEntity
  8
M04
100
AcDbLine
 10
98.031476
 20
550.115204
 30
0.0
 11
99.031476
 21
550.115204
 31
0.0
  0
LINE
  5
394
102
{ACAD_REACTORS
330
94
102
}
100
AcDbEntity
  8
M05
100
AcDbLine
 10
98.031476
 20
550.115204
 30
0.0
 11
99.031476
 21
549.115204
 31
0.0
  0
LINE
  5
395
102
{ACAD_REACTORS
330
94
102
}
100
AcDbEntity
  8
M05
100
AcDbLine
 10
79.031476
 20
549.115204
 30
0.0
 11
80.031476
 21
550.115204
 31
0.0
  0
LINE
  5
396
102
{ACAD_REACTORS
330
96
330
94
102
}
100
AcDbEntity
  8
M05
100
AcDbLine
 10
98.031476
 20
550.115204
 30
0.0
 11
80.031476
 21
550.115204
 31
0.0
  0
LINE
  5
397
102
{ACAD_REACTORS
330
96
330
94
102
}
100
AcDbEntity
  8
M05
100
AcDbLine
 10
79.031476
 20
549.115204
 30
0.0
 11
79.031476
 21
540.115204
 31
0.0
  0
LINE
  5
398
102
{ACAD_REACTORS
330
96
330
94
102
}
100
AcDbEntity
  8
M05
100
AcDbLine
 10
99.031476
 20
549.115204
 30
0.0
 11
99.031476
 21
540.115204
 31
0.0
  0
LINE
  5
399
100
AcDbEntity
  8
M04
100
AcDbLine
 10
98.531476
 20
594.115204
 30
0.0
 11
203.031476
 21
594.115204
 31
0.0
  0
LINE
  5
39A
100
AcDbEntity
  8
M02
100
AcDbLine
 10
98.531476
 20
590.115204
 30
0.0
 11
194.031476
 21
590.115204
 31
0.0
  0
LINE
  5
39B
102
{ACAD_REACTORS
330
96
102
}
100
AcDbEntity
  8
M01
100
AcDbLine
 10
98.531476
 20
587.115204
 30
0.0
 11
194.031476
 21
587.115204
 31
0.0
  0
TEXT
  5
39C
100
AcDbEntity
  8
TEXT
100
AcDbText
 10
91.743643
 20
597.75098
 30
0.0
 40
2.0
  1
MA010008
 50
270.0
 41
0.9
100
AcDbText
  0
LINE
  5
39D
100
AcDbEntity
  8
M04
100
AcDbLine
 10
78.031476
 20
598.537853
 30
0.0
 11
79.531476
 21
598.537853
 31
0.0
  0
LINE
  5
39E
100
AcDbEntity
  8
M04
100
AcDbLine
 10
78.031476
 20
598.537853
 30
0.0
 11
78.031476
 21
594.115204
 31
0.0
  0
LINE
  5
39F
100
AcDbEntity
  8
M04
100
AcDbLine
 10
79.031476
 20
599.115204
 30
0.0
 11
78.031476
 21
598.537853
 31
0.0
  0
LINE
  5
3A0
100
AcDbEntity
  8
M04
100
AcDbLine
 10
79.031476
 20
603.115204
 30
0.0
 11
79.031476
 21
604.115204
 31
0.0
  0
LINE
  5
3A1
100
AcDbEntity
  8
M04
100
AcDbLine
 10
80.031476
 20
604.115204
 30
0.0
 11
79.031476
 21
604.115204
 31
0.0
  0
LINE
  5
3A2
102
{ACAD_REACTORS
330
96
102
}
100
AcDbEntity
  8
M04
100
AcDbLine
 10
80.531476
 20
582.115204
 30
0.0
 11
79.531476
 21
582.115204
 31
0.0
  0
LINE
  5
3A3
102
{ACAD_REACTORS
330
96
102
}
100
AcDbEntity
  8
M04
100
AcDbLine
 10
79.531476
 20
583.115204
 30
0.0
 11
79.531476
 21
582.115204
 31
0.0
  0
LINE
  5
3A4
100
AcDbEntity
  8
M04
100
AcDbLine
 10
100.031476
 20
598.537853
 30
0.0
 11
98.531476
 21
598.537853
 31
0.0
  0
LINE
  5
3A5
100
AcDbEntity
  8
M04
100
AcDbLine
 10
100.031476
 20
598.537853
 30
0.0
 11
100.031476
 21
594.115204
 31
0.0
  0
LINE
  5
3A6
100
AcDbEntity
  8
M04
100
AcDbLine
 10
99.031476
 20
599.115204
 30
0.0
 11
100.031476
 21
598.537853
 31
0.0
  0
LINE
  5
3A7
100
AcDbEntity
  8
M04
100
AcDbLine
 10
99.031476
 20
603.115204
 30
0.0
 11
99.031476
 21
604.115204
 31
0.0
  0
LINE
  5
3A8
100
AcDbEntity
  8
M04
100
AcDbLine
 10
98.031476
 20
604.115204
 30
0.0
 11
99.031476
 21
604.115204
 31
0.0
  0
LINE
  5
3A9
102
{ACAD_REACTORS
330
96
102
}
100
AcDbEntity
  8
M04
100
AcDbLine
 10
97.531476
 20
582.115204
 30
0.0
 11
98.531476
 21
582.115204
 31
0.0
  0
LINE
  5
3AA
102
{ACAD_REACTORS
330
96
102
}
100
AcDbEntity
  8
M04
100
AcDbLine
 10
98.531476
 20
583.115204
 30
0.0
 11
98.531476
 21
582.115204
 31
0.0
  0
LINE
  5
3AB
100
AcDbEntity
  8
M02
100
AcDbLine
 10
78.031476
 20
590.115204
 30
0.0
 11
78.031476
 21
587.115204
 31
0.0
  0
LINE
  5
3AC
100
AcDbEntity
  8
M02
100
AcDbLine
 10
100.031476
 20
590.115204
 30
0.0
 11
100.031476
 21
587.115204
 31
0.0
  0
LINE
  5
3AD
100
AcDbEntity
  8
M05
100
AcDbLine
 10
79.531476
 20
583.115204
 30
0.0
 11
98.531476
 21
583.115204
 31
0.0
  0
LINE
  5
3AE
100
AcDbEntity
  8
M05
100
AcDbLine
 10
79.031476
 20
603.115204
 30
0.0
 11
99.031476
 21
603.115204
 31
0.0
  0
LINE
  5
3AF
100
AcDbEntity
  8
M05
100
AcDbLine
 10
80.531476
 20
582.115204
 30
0.0
 11
79.531476
 21
583.115204
 31
0.0
  0
LINE
  5
3B0
100
AcDbEntity
  8
M05
100
AcDbLine
 10
98.531476
 20
583.115204
 30
0.0
 11
97.531476
 21
582.115204
 31
0.0
  0
LINE
  5
3B1
100
AcDbEntity
  8
M05
100
AcDbLine
 10
98.031476
 20
604.115204
 30
0.0
 11
99.031476
 21
603.115204
 31
0.0
  0
LINE
  5
3B2
100
AcDbEntity
  8
M05
100
AcDbLine
 10
79.031476
 20
603.115204
 30
0.0
 11
80.031476
 21
604.115204
 31
0.0
  0
LINE
  5
3B3
100
AcDbEntity
  8
M05
100
AcDbLine
 10
99.031476
 20
603.115204
 30
0.0
 11
99.031476
 21
599.115204
 31
0.0
  0
LINE
  5
3B4
100
AcDbEntity
  8
M05
100
AcDbLine
 10
79.031476
 20
603.115204
 30
0.0
 11
79.031476
 21
599.115204
 31
0.0
  0
LINE
  5
3B5
100
AcDbEntity
  8
M05
100
AcDbLine
 10
99.031476
 20
599.115204
 30
0.0
 11
79.031476
 21
599.115204
 31
0.0
  0
LINE
  5
3B6
100
AcDbEntity
  8
M05
100
AcDbLine
 10
98.031476
 20
604.115204
 30
0.0
 11
80.031476
 21
604.115204
 31
0.0
  0
LINE
  5
3B7
102
{ACAD_REACTORS
330
96
102
}
100
AcDbEntity
  8
M05
100
AcDbLine
 10
79.531476
 20
599.115204
 30
0.0
 11
79.531476
 21
583.115204
 31
0.0
  0
LINE
  5
3B8
102
{ACAD_REACTORS
330
96
102
}
100
AcDbEntity
  8
M05
100
AcDbLine
 10
98.531476
 20
599.115204
 30
0.0
 11
98.531476
 21
583.115204
 31
0.0
  0
LINE
  5
3B9
102
{ACAD_REACTORS
330
96
102
}
100
AcDbEntity
  8
M05
100
AcDbLine
 10
97.531476
 20
582.115204
 30
0.0
 11
80.531476
 21
582.115204
 31
0.0
  0
LINE
  5
3BA
102
{ACAD_REACTORS
330
24
102
}
100
AcDbEntity
  8
M02
100
AcDbLine
 10
-15.968524
 20
537.115204
 30
0.0
 11
0.031476
 21
537.115204
 31
0.0
  0
LINE
  5
3BB
102
{ACAD_REACTORS
330
24
102
}
100
AcDbEntity
  8
M02
100
AcDbLine
 10
194.031476
 20
540.115204
 30
0.0
 11
194.031476
 21
537.115204
 31
0.0
  0
LINE
  5
3BC
102
{ACAD_REACTORS
330
24
102
}
100
AcDbEntity
  8
M02
100
AcDbLine
 10
-15.968524
 20
540.115204
 30
0.0
 11
-15.968524
 21
537.115204
 31
0.0
  0
LINE
  5
3BD
100
AcDbEntity
  8
M02
100
AcDbLine
 10
-15.968524
 20
590.115204
 30
0.0
 11
79.531476
 21
590.115204
 31
0.0
  0
LINE
  5
3BE
100
AcDbEntity
  8
M02
100
AcDbLine
 10
194.031476
 20
587.115204
 30
0.0
 11
194.031476
 21
590.115204
 31
0.0
  0
LINE
  5
3BF
100
AcDbEntity
  8
M02
100
AcDbLine
 10
-15.968524
 20
587.115204
 30
0.0
 11
-15.968524
 21
590.115204
 31
0.0
  0
LINE
  5
3C0
102
{ACAD_REACTORS
330
96
102
}
100
AcDbEntity
  8
M01
100
AcDbLine
 10
196.031476
 20
542.115204
 30
0.0
 11
194.031476
 21
540.115204
 31
0.0
  0
LINE
  5
3C1
102
{ACAD_REACTORS
330
96
102
}
100
AcDbEntity
  8
M01
100
AcDbLine
 10
194.031476
 20
587.115204
 30
0.0
 11
196.031476
 21
585.115204
 31
0.0
  0
LINE
  5
3C2
102
{ACAD_REACTORS
330
96
102
}
100
AcDbEntity
  8
M01
100
AcDbLine
 10
-17.968524
 20
585.115204
 30
0.0
 11
-15.968524
 21
587.115204
 31
0.0
  0
LINE
  5
3C3
102
{ACAD_REACTORS
330
96
102
}
100
AcDbEntity
  8
M01
100
AcDbLine
 10
-15.968524
 20
540.115204
 30
0.0
 11
-17.968524
 21
542.115204
 31
0.0
  0
LINE
  5
3C4
102
{ACAD_REACTORS
330
96
102
}
100
AcDbEntity
  8
M01
100
AcDbLine
 10
196.031476
 20
585.115204
 30
0.0
 11
196.031476
 21
542.115204
 31
0.0
  0
LINE
  5
3C5
102
{ACAD_REACTORS
330
96
102
}
100
AcDbEntity
  8
M01
100
AcDbLine
 10
-17.968524
 20
585.115204
 30
0.0
 11
-17.968524
 21
542.115204
 31
0.0
  0
LINE
  5
3C6
102
{ACAD_REACTORS
330
96
330
94
330
43
330
24
102
}
100
AcDbEntity
  8
M01
100
AcDbLine
 10
-15.968524
 20
540.115204
 30
0.0
 11
79.031476
 21
540.115204
 31
0.0
  0
LINE
  5
3C7
102
{ACAD_REACTORS
330
96
102
}
100
AcDbEntity
  8
M01
100
AcDbLine
 10
-15.968524
 20
587.115204
 30
0.0
 11
79.531476
 21
587.115204
 31
0.0
  0
LINE
  5
3C8
100
AcDbEntity
  8
M04
100
AcDbLine
 10
-24.968524
 20
594.115204
 30
0.0
 11
79.531476
 21
594.115204
 31
0.0
  0
LINE
  5
3C9
102
{ACAD_REACTORS
330
96
102
}
100
AcDbEntity
  8
CENTRE
100
AcDbLine
 10
89.031476
 20
616.471203
 30
0.0
 11
89.031476
 21
496.795261
 31
0.0
  0
LINE
  5
3CA
100
AcDbEntity
  8
M04
100
AcDbLine
 10
203.031476
 20
594.115204
 30
0.0
 11
203.031476
 21
533.115204
 31
0.0
  0
LINE
  5
3CB
100
AcDbEntity
  8
M04
100
AcDbLine
 10
-24.968524
 20
594.115204
 30
0.0
 11
-24.968524
 21
533.115204
 31
0.0
  0
LINE
  5
3CC
102
{ACAD_REACTORS
330
43
102
}
100
AcDbEntity
  8
M04
100
AcDbLine
 10
-42.519306
 20
533.115204
 30
0.0
 11
11.031476
 21
533.115204
 31
0.0
  0
LINE
  5
3CD
100
AcDbEntity
  8
M04
100
AcDbLine
 10
357.944343
 20
861.187955
 30
0.0
 11
367.944343
 21
871.187955
 31
0.0
  0
LINE
  5
3CE
100
AcDbEntity
  8
M04
100
AcDbLine
 10
367.944343
 20
881.859434
 30
0.0
 11
367.944343
 21
871.187955
 31
0.0
  0
LINE
  5
3CF
100
AcDbEntity
  8
M04
100
AcDbLine
 10
403.944343
 20
695.187955
 30
0.0
 11
403.944343
 21
755.187955
 31
0.0
  0
LINE
  5
3D0
100
AcDbEntity
  8
M04
100
AcDbLine
 10
403.944343
 20
695.187955
 30
0.0
 11
412.944343
 21
695.187955
 31
0.0
  0
LINE
  5
3D1
100
AcDbEntity
  8
M04
100
AcDbLine
 10
393.944343
 20
705.187955
 30
0.0
 11
403.944343
 21
695.187955
 31
0.0
  0
LINE
  5
3D2
100
AcDbEntity
  8
M04
100
AcDbLine
 10
324.944343
 20
861.187955
 30
0.0
 11
385.944343
 21
861.187955
 31
0.0
  0
LINE
  5
3D3
100
AcDbEntity
  8
M04
100
AcDbLine
 10
403.944343
 20
755.187955
 30
0.0
 11
412.944343
 21
755.187955
 31
0.0
  0
LINE
  5
3D4
100
AcDbEntity
  8
M04
100
AcDbLine
 10
393.944343
 20
745.187955
 30
0.0
 11
403.944343
 21
755.187955
 31
0.0
  0
LINE
  5
3D5
100
AcDbEntity
  8
M05
100
AcDbLine
 10
387.245558
 20
722.147081
 30
0.0
 11
387.245558
 21
728.228829
 31
0.0
  0
ARC
  5
3D6
102
{ACAD_REACTORS
330
112
102
}
100
AcDbEntity
  8
M05
100
AcDbCircle
 10
402.444343
 20
725.187955
 30
0.0
 40
15.5
100
AcDbArc
 50
191.313981
 51
216.249321
  0
LINE
  5
3D7
100
AcDbEntity
  8
M01
100
AcDbLine
 10
355.444343
 20
721.187955
 30
0.0
 11
368.944343
 21
721.187955
 31
0.0
  0
LINE
  5
3D8
102
{ACAD_REACTORS
330
112
102
}
100
AcDbEntity
  8
M05
100
AcDbLine
 10
368.944343
 20
721.187955
 30
0.0
 11
387.245558
 21
722.147081
 31
0.0
  0
LINE
  5
3D9
102
{ACAD_REACTORS
330
112
102
}
100
AcDbEntity
  8
M05
100
AcDbLine
 10
368.944343
 20
729.187955
 30
0.0
 11
387.245558
 21
728.228829
 31
0.0
  0
ARC
  5
3DA
102
{ACAD_REACTORS
330
112
102
}
100
AcDbEntity
  8
M05
100
AcDbCircle
 10
402.444343
 20
725.187955
 30
0.0
 40
15.5
100
AcDbArc
 50
143.750679
 51
168.686019
  0
LINE
  5
3DB
100
AcDbEntity
  8
M01
100
AcDbLine
 10
355.444343
 20
729.187955
 30
0.0
 11
368.944343
 21
729.187955
 31
0.0
  0
LINE
  5
3DC
100
AcDbEntity
  8
M04
100
AcDbLine
 10
387.944343
 20
705.187955
 30
0.0
 11
385.944343
 21
705.187955
 31
0.0
  0
LINE
  5
3DD
100
AcDbEntity
  8
M04
100
AcDbLine
 10
389.244343
 20
705.187955
 30
0.0
 11
393.944343
 21
705.187955
 31
0.0
  0
LINE
  5
3DE
100
AcDbEntity
  8
M04
100
AcDbLine
 10
387.944343
 20
745.187955
 30
0.0
 11
385.944343
 21
745.187955
 31
0.0
  0
LINE
  5
3DF
100
AcDbEntity
  8
M04
100
AcDbLine
 10
389.244343
 20
745.187955
 30
0.0
 11
393.944343
 21
745.187955
 31
0.0
  0
LINE
  5
3E0
100
AcDbEntity
  8
M04
100
AcDbLine
 10
393.944343
 20
745.187955
 30
0.0
 11
393.944343
 21
705.187955
 31
0.0
  0
LINE
  5
3E1
102
{ACAD_REACTORS
330
112
102
}
100
AcDbEntity
  8
M05
100
AcDbLine
 10
387.944343
 20
705.687955
 30
0.0
 11
387.944343
 21
705.187955
 31
0.0
  0
LINE
  5
3E2
102
{ACAD_REACTORS
330
112
102
}
100
AcDbEntity
  8
M05
100
AcDbLine
 10
384.944343
 20
705.687955
 30
0.0
 11
384.944343
 21
693.187955
 31
0.0
  0
LINE
  5
3E3
102
{ACAD_REACTORS
330
112
102
}
100
AcDbEntity
  8
M05
100
AcDbLine
 10
384.944343
 20
705.687955
 30
0.0
 11
387.944343
 21
705.687955
 31
0.0
  0
LINE
  5
3E4
102
{ACAD_REACTORS
330
112
102
}
100
AcDbEntity
  8
M05
100
AcDbLine
 10
384.944343
 20
744.687955
 30
0.0
 11
387.944343
 21
744.687955
 31
0.0
  0
LINE
  5
3E5
102
{ACAD_REACTORS
330
112
102
}
100
AcDbEntity
  8
M05
100
AcDbLine
 10
387.944343
 20
745.187955
 30
0.0
 11
387.944343
 21
744.687955
 31
0.0
  0
LINE
  5
3E6
100
AcDbEntity
  8
M04
100
AcDbLine
 10
385.944343
 20
705.687955
 30
0.0
 11
385.944343
 21
674.674564
 31
0.0
  0
LINE
  5
3E7
102
{ACAD_REACTORS
330
112
102
}
100
AcDbEntity
  8
M05
100
AcDbLine
 10
389.944343
 20
705.887955
 30
0.0
 11
389.244343
 21
705.187955
 31
0.0
  0
LINE
  5
3E8
102
{ACAD_REACTORS
330
112
102
}
100
AcDbEntity
  8
M05
100
AcDbLine
 10
389.944343
 20
744.487955
 30
0.0
 11
389.244343
 21
745.187955
 31
0.0
  0
LINE
  5
3E9
102
{ACAD_REACTORS
330
112
102
}
100
AcDbEntity
  8
M05
100
AcDbLine
 10
389.944343
 20
744.487955
 30
0.0
 11
389.944343
 21
705.887955
 31
0.0
  0
LINE
  5
3EA
102
{ACAD_REACTORS
330
112
102
}
100
AcDbEntity
  8
M05
100
AcDbLine
 10
387.944343
 20
705.187955
 30
0.0
 11
389.244343
 21
705.187955
 31
0.0
  0
LINE
  5
3EB
102
{ACAD_REACTORS
330
112
102
}
100
AcDbEntity
  8
M05
100
AcDbLine
 10
387.944343
 20
745.187955
 30
0.0
 11
389.244343
 21
745.187955
 31
0.0
  0
LINE
  5
3EC
100
AcDbEntity
  8
M04
100
AcDbLine
 10
378.444343
 20
715.187955
 30
0.0
 11
378.944343
 21
714.687955
 31
0.0
  0
LINE
  5
3ED
102
{ACAD_REACTORS
330
112
102
}
100
AcDbEntity
  8
M01
100
AcDbLine
 10
378.944343
 20
715.187955
 30
0.0
 11
378.944343
 21
695.187955
 31
0.0
  0
LINE
  5
3EE
100
AcDbEntity
  8
M04
100
AcDbLine
 10
378.444343
 20
735.187955
 30
0.0
 11
378.944343
 21
735.687955
 31
0.0
  0
LINE
  5
3EF
102
{ACAD_REACTORS
330
112
102
}
100
AcDbEntity
  8
M05
100
AcDbLine
 10
379.644343
 20
692.487955
 30
0.0
 11
378.944343
 21
693.187955
 31
0.0
  0
LINE
  5
3F0
102
{ACAD_REACTORS
330
112
102
}
100
AcDbEntity
  8
M05
100
AcDbLine
 10
384.244343
 20
692.487955
 30
0.0
 11
384.944343
 21
693.187955
 31
0.0
  0
LINE
  5
3F1
102
{ACAD_REACTORS
330
112
102
}
100
AcDbEntity
  8
M05
100
AcDbLine
 10
379.644343
 20
692.487955
 30
0.0
 11
384.244343
 21
692.487955
 31
0.0
  0
LINE
  5
3F2
102
{ACAD_REACTORS
330
112
102
}
100
AcDbEntity
  8
M05
100
AcDbLine
 10
379.644343
 20
759.187955
 30
0.0
 11
378.944343
 21
758.487955
 31
0.0
  0
LINE
  5
3F3
102
{ACAD_REACTORS
330
112
102
}
100
AcDbEntity
  8
M05
100
AcDbLine
 10
384.244343
 20
759.187955
 30
0.0
 11
384.944343
 21
758.487955
 31
0.0
  0
LINE
  5
3F4
102
{ACAD_REACTORS
330
26C
102
}
100
AcDbEntity
  8
M02
100
AcDbLine
 10
378.944343
 20
760.187955
 30
0.0
 11
381.944343
 21
760.187955
 31
0.0
  0
LINE
  5
3F5
102
{ACAD_REACTORS
330
112
102
}
100
AcDbEntity
  8
M05
100
AcDbLine
 10
384.944343
 20
758.487955
 30
0.0
 11
384.944343
 21
744.687955
 31
0.0
  0
LINE
  5
3F6
102
{ACAD_REACTORS
330
112
102
}
100
AcDbEntity
  8
M05
100
AcDbLine
 10
379.644343
 20
759.187955
 30
0.0
 11
384.244343
 21
759.187955
 31
0.0
  0
LINE
  5
3F7
100
AcDbEntity
  8
M04
100
AcDbLine
 10
369.944343
 20
715.187955
 30
0.0
 11
368.944343
 21
715.187955
 31
0.0
  0
LINE
  5
3F8
100
AcDbEntity
  8
M04
100
AcDbLine
 10
368.944343
 20
716.187955
 30
0.0
 11
368.944343
 21
715.187955
 31
0.0
  0
LINE
  5
3F9
100
AcDbEntity
  8
M04
100
AcDbLine
 10
369.944343
 20
735.187955
 30
0.0
 11
368.944343
 21
735.187955
 31
0.0
  0
LINE
  5
3FA
100
AcDbEntity
  8
M04
100
AcDbLine
 10
368.944343
 20
734.187955
 30
0.0
 11
368.944343
 21
735.187955
 31
0.0
  0
LINE
  5
3FB
102
{ACAD_REACTORS
330
112
102
}
100
AcDbEntity
  8
M05
100
AcDbLine
 10
368.944343
 20
734.187955
 30
0.0
 11
369.944343
 21
735.187955
 31
0.0
  0
LINE
  5
3FC
102
{ACAD_REACTORS
330
112
102
}
100
AcDbEntity
  8
M05
100
AcDbLine
 10
369.944343
 20
715.187955
 30
0.0
 11
368.944343
 21
716.187955
 31
0.0
  0
LINE
  5
3FD
102
{ACAD_REACTORS
330
112
102
}
100
AcDbEntity
  8
M05
100
AcDbLine
 10
368.944343
 20
734.187955
 30
0.0
 11
368.944343
 21
716.187955
 31
0.0
  0
LINE
  5
3FE
102
{ACAD_REACTORS
330
112
102
}
100
AcDbEntity
  8
M05
100
AcDbLine
 10
369.944343
 20
715.187955
 30
0.0
 11
378.944343
 21
715.187955
 31
0.0
  0
LINE
  5
3FF
102
{ACAD_REACTORS
330
112
102
}
100
AcDbEntity
  8
M05
100
AcDbLine
 10
369.944343
 20
735.187955
 30
0.0
 11
378.944343
 21
735.187955
 31
0.0
  0
TEXT
  5
400
100
AcDbEntity
  8
TEXT
100
AcDbText
 10
321.308567
 20
727.900122
 30
0.0
 40
2.0
  1
MA010008
 41
0.9
100
AcDbText
  0
LINE
  5
401
100
AcDbEntity
  8
M04
100
AcDbLine
 10
106.031476
 20
861.187955
 30
0.0
 11
106.031476
 21
881.859434
 31
0.0
  0
LINE
  5
402
100
AcDbEntity
  8
M04
100
AcDbLine
 10
72.031476
 20
861.187955
 30
0.0
 11
72.031476
 21
881.859434
 31
0.0
  0
ARC
  5
403
100
AcDbEntity
  8
M04
100
AcDbCircle
 10
106.031476
 20
846.187955
 30
0.0
 40
15.0
100
AcDbArc
 50
360.0
 51
90.0
  0
ARC
  5
404
100
AcDbEntity
  8
M04
100
AcDbCircle
 10
72.031476
 20
846.187955
 30
0.0
 40
15.0
100
AcDbArc
 50
90.0
 51
180.0
  0
LINE
  5
405
100
AcDbEntity
  8
M04
100
AcDbLine
 10
72.031476
 20
861.187955
 30
0.0
 11
106.031476
 21
861.187955
 31
0.0
  0
LINE
  5
406
100
AcDbEntity
  8
M01
100
AcDbLine
 10
78.531476
 20
846.187955
 30
0.0
 11
79.031476
 21
845.687955
 31
0.0
  0
LINE
  5
407
100
AcDbEntity
  8
M01
100
AcDbLine
 10
75.031476
 20
845.687955
 30
0.0
 11
75.531476
 21
846.187955
 31
0.0
  0
LINE
  5
408
100
AcDbEntity
  8
M01
100
AcDbLine
 10
75.031476
 20
845.687955
 30
0.0
 11
79.031476
 21
845.687955
 31
0.0
  0
LINE
  5
409
100
AcDbEntity
  8
M01
100
AcDbLine
 10
78.531476
 20
846.187955
 30
0.0
 11
78.531476
 21
843.087955
 31
0.0
  0
LINE
  5
40A
100
AcDbEntity
  8
M01
100
AcDbLine
 10
75.531476
 20
846.187955
 30
0.0
 11
75.531476
 21
843.087955
 31
0.0
  0
LINE
  5
40B
100
AcDbEntity
  8
M01
100
AcDbLine
 10
75.031476
 20
845.687955
 30
0.0
 11
75.031476
 21
843.087955
 31
0.0
  0
LINE
  5
40C
100
AcDbEntity
  8
M01
100
AcDbLine
 10
79.031476
 20
845.687955
 30
0.0
 11
79.031476
 21
843.087955
 31
0.0
  0
LINE
  5
40D
100
AcDbEntity
  8
M04
100
AcDbLine
 10
309.634942
 20
795.687955
 30
0.0
 11
311.944343
 21
799.687955
 31
0.0
  0
LINE
  5
40E
100
AcDbEntity
  8
M04
100
AcDbLine
 10
311.944343
 20
791.687955
 30
0.0
 11
309.634942
 21
795.687955
 31
0.0
  0
LINE
  5
40F
100
AcDbEntity
  8
M04
100
AcDbLine
 10
314.944343
 20
791.687955
 30
0.0
 11
311.944343
 21
791.687955
 31
0.0
  0
LINE
  5
410
100
AcDbEntity
  8
M04
100
AcDbLine
 10
311.944343
 20
799.687955
 30
0.0
 11
311.944343
 21
791.687955
 31
0.0
  0
LINE
  5
411
100
AcDbEntity
  8
M04
100
AcDbLine
 10
314.944343
 20
799.687955
 30
0.0
 11
311.944343
 21
799.687955
 31
0.0
  0
ARC
  5
412
100
AcDbEntity
  8
M05
100
AcDbCircle
 10
324.282048
 20
795.687955
 30
0.0
 40
10.837705
100
AcDbArc
 50
161.372238
 51
198.627762
  0
LINE
  5
413
100
AcDbEntity
  8
M05
100
AcDbLine
 10
314.944343
 20
791.687955
 30
0.0
 11
314.01209
 21
792.226192
 31
0.0
  0
LINE
  5
414
100
AcDbEntity
  8
M05
100
AcDbLine
 10
314.01209
 20
799.149719
 30
0.0
 11
314.01209
 21
792.226192
 31
0.0
  0
LINE
  5
415
100
AcDbEntity
  8
M05
100
AcDbLine
 10
314.944343
 20
799.687955
 30
0.0
 11
314.01209
 21
799.149719
 31
0.0
  0
LINE
  5
416
100
AcDbEntity
  8
M05
100
AcDbLine
 10
314.944343
 20
799.687955
 30
0.0
 11
314.944343
 21
791.687955
 31
0.0
  0
LINE
  5
417
100
AcDbEntity
  8
M04
100
AcDbLine
 10
324.944343
 20
791.687955
 30
0.0
 11
324.944343
 21
734.687955
 31
0.0
  0
LINE
  5
418
100
AcDbEntity
  8
M04
100
AcDbLine
 10
324.444343
 20
791.687955
 30
0.0
 11
324.944343
 21
791.187955
 31
0.0
  0
LINE
  5
419
100
AcDbEntity
  8
M04
100
AcDbLine
 10
324.444343
 20
799.687955
 30
0.0
 11
324.944343
 21
800.187955
 31
0.0
  0
ARC
  5
41A
100
AcDbEntity
  8
M05
100
AcDbCircle
 10
323.81101
 20
795.687955
 30
0.0
 40
13.633333
100
AcDbArc
 50
342.938469
 51
17.061531
  0
LINE
  5
41B
100
AcDbEntity
  8
M05
100
AcDbLine
 10
336.844343
 20
799.687955
 30
0.0
 11
336.844343
 21
791.687955
 31
0.0
  0
LINE
  5
41C
100
AcDbEntity
  8
M05
100
AcDbLine
 10
314.944343
 20
791.687955
 30
0.0
 11
336.844343
 21
791.687955
 31
0.0
  0
LINE
  5
41D
100
AcDbEntity
  8
M05
100
AcDbLine
 10
314.944343
 20
799.687955
 30
0.0
 11
336.844343
 21
799.687955
 31
0.0
  0
CIRCLE
  5
41E
100
AcDbEntity
  8
M01
100
AcDbCircle
 10
355.444343
 20
725.187955
 30
0.0
 40
4.0
  0
CIRCLE
  5
41F
100
AcDbEntity
  8
M03
100
AcDbCircle
 10
89.031476
 20
725.187955
 30
0.0
 40
20.0
  0
LINE
  5
420
100
AcDbEntity
  8
M04
100
AcDbLine
 10
320.521694
 20
714.187955
 30
0.0
 11
320.521694
 21
715.687955
 31
0.0
  0
LINE
  5
421
100
AcDbEntity
  8
M04
100
AcDbLine
 10
320.521694
 20
714.187955
 30
0.0
 11
324.944343
 21
714.187955
 31
0.0
  0
LINE
  5
422
100
AcDbEntity
  8
M04
100
AcDbLine
 10
319.944343
 20
715.187955
 30
0.0
 11
320.521694
 21
714.187955
 31
0.0
  0
LINE
  5
423
100
AcDbEntity
  8
M04
100
AcDbLine
 10
315.944343
 20
715.187955
 30
0.0
 11
314.944343
 21
715.187955
 31
0.0
  0
LINE
  5
424
100
AcDbEntity
  8
M04
100
AcDbLine
 10
314.944343
 20
716.187955
 30
0.0
 11
314.944343
 21
715.187955
 31
0.0
  0
LINE
  5
425
100
AcDbEntity
  8
M04
100
AcDbLine
 10
336.944343
 20
716.687955
 30
0.0
 11
336.944343
 21
715.687955
 31
0.0
  0
LINE
  5
426
100
AcDbEntity
  8
M04
100
AcDbLine
 10
335.944343
 20
715.687955
 30
0.0
 11
336.944343
 21
715.687955
 31
0.0
  0
LINE
  5
427
100
AcDbEntity
  8
M04
100
AcDbLine
 10
320.521694
 20
736.187955
 30
0.0
 11
320.521694
 21
734.687955
 31
0.0
  0
LINE
  5
428
100
AcDbEntity
  8
M04
100
AcDbLine
 10
320.521694
 20
736.187955
 30
0.0
 11
324.944343
 21
736.187955
 31
0.0
  0
LINE
  5
429
100
AcDbEntity
  8
M04
100
AcDbLine
 10
319.944343
 20
735.187955
 30
0.0
 11
320.521694
 21
736.187955
 31
0.0
  0
LINE
  5
42A
100
AcDbEntity
  8
M04
100
AcDbLine
 10
315.944343
 20
735.187955
 30
0.0
 11
314.944343
 21
735.187955
 31
0.0
  0
LINE
  5
42B
100
AcDbEntity
  8
M04
100
AcDbLine
 10
314.944343
 20
734.187955
 30
0.0
 11
314.944343
 21
735.187955
 31
0.0
  0
LINE
  5
42C
100
AcDbEntity
  8
M04
100
AcDbLine
 10
336.944343
 20
733.687955
 30
0.0
 11
336.944343
 21
734.687955
 31
0.0
  0
LINE
  5
42D
100
AcDbEntity
  8
M04
100
AcDbLine
 10
335.944343
 20
734.687955
 30
0.0
 11
336.944343
 21
734.687955
 31
0.0
  0
LINE
  5
42E
102
{ACAD_REACTORS
330
26D
102
}
100
AcDbEntity
  8
M02
100
AcDbLine
 10
328.944343
 20
714.187955
 30
0.0
 11
331.944343
 21
714.187955
 31
0.0
  0
LINE
  5
42F
102
{ACAD_REACTORS
330
26D
102
}
100
AcDbEntity
  8
M02
100
AcDbLine
 10
328.944343
 20
736.187955
 30
0.0
 11
331.944343
 21
736.187955
 31
0.0
  0
LINE
  5
430
102
{ACAD_REACTORS
330
26D
102
}
100
AcDbEntity
  8
M01
100
AcDbLine
 10
331.944343
 20
715.687955
 30
0.0
 11
331.944343
 21
695.187955
 31
0.0
  0
LINE
  5
431
102
{ACAD_REACTORS
330
26D
102
}
100
AcDbEntity
  8
M02
100
AcDbLine
 10
328.944343
 20
715.687955
 30
0.0
 11
328.944343
 21
695.187955
 31
0.0
  0
LINE
  5
432
100
AcDbEntity
  8
M04
100
AcDbLine
 10
324.944343
 20
715.687955
 30
0.0
 11
324.944343
 21
686.187955
 31
0.0
  0
LINE
  5
433
100
AcDbEntity
  8
M05
100
AcDbLine
 10
335.944343
 20
715.687955
 30
0.0
 11
335.944343
 21
734.687955
 31
0.0
  0
LINE
  5
434
100
AcDbEntity
  8
M05
100
AcDbLine
 10
315.944343
 20
715.187955
 30
0.0
 11
315.944343
 21
735.187955
 31
0.0
  0
LINE
  5
435
100
AcDbEntity
  8
M05
100
AcDbLine
 10
336.944343
 20
716.687955
 30
0.0
 11
335.944343
 21
715.687955
 31
0.0
  0
LINE
  5
436
100
AcDbEntity
  8
M05
100
AcDbLine
 10
335.944343
 20
734.687955
 30
0.0
 11
336.944343
 21
733.687955
 31
0.0
  0
LINE
  5
437
100
AcDbEntity
  8
M05
100
AcDbLine
 10
314.944343
 20
734.187955
 30
0.0
 11
315.944343
 21
735.187955
 31
0.0
  0
LINE
  5
438
100
AcDbEntity
  8
M05
100
AcDbLine
 10
315.944343
 20
715.187955
 30
0.0
 11
314.944343
 21
716.187955
 31
0.0
  0
LINE
  5
439
100
AcDbEntity
  8
M05
100
AcDbLine
 10
315.944343
 20
735.187955
 30
0.0
 11
319.944343
 21
735.187955
 31
0.0
  0
LINE
  5
43A
100
AcDbEntity
  8
M05
100
AcDbLine
 10
315.944343
 20
715.187955
 30
0.0
 11
319.944343
 21
715.187955
 31
0.0
  0
LINE
  5
43B
100
AcDbEntity
  8
M05
100
AcDbLine
 10
319.944343
 20
735.187955
 30
0.0
 11
319.944343
 21
715.187955
 31
0.0
  0
LINE
  5
43C
100
AcDbEntity
  8
M05
100
AcDbLine
 10
314.944343
 20
734.187955
 30
0.0
 11
314.944343
 21
716.187955
 31
0.0
  0
LINE
  5
43D
100
AcDbEntity
  8
M01
100
AcDbLine
 10
75.531476
 20
846.187955
 30
0.0
 11
78.531476
 21
846.187955
 31
0.0
  0
LINE
  5
43E
100
AcDbEntity
  8
M05
100
AcDbLine
 10
319.944343
 20
715.687955
 30
0.0
 11
335.944343
 21
715.687955
 31
0.0
  0
LINE
  5
43F
100
AcDbEntity
  8
M05
100
AcDbLine
 10
319.944343
 20
734.687955
 30
0.0
 11
335.944343
 21
734.687955
 31
0.0
  0
LINE
  5
440
100
AcDbEntity
  8
CENTRE
100
AcDbLine
 10
309.119421
 20
725.187955
 30
0.0
 11
418.836383
 21
725.187955
 31
0.0
  0
HATCH
  5
441
100
AcDbEntity
  8
M01
 62
     4
100
AcDbHatch
 10
0.0
 20
0.0
 30
0.0
210
0.0
220
0.0
230
1.0
  2
_U
 70
     0
 71
     0
 91
       13
 92
        7
 72
     1
 73
     1
 93
        4
 10
83.03147580398302
 20
732.5534151546628
 42
0.0
 10
83.03147580398292
 20
729.1879552233348
 42
0.0
 10
89.03147580398302
 20
729.1879552233348
 42
0.0
 10
89.03147580398302
 20
734.6879552233348
 42
0.1725804109198133
 97
        0
 92
        7
 72
     1
 73
     1
 93
        4
 10
89.03147580398302
 20
729.1879552233348
 42
0.0
 10
83.03147580398292
 20
729.1879552233348
 42
0.0
 10
83.03147580398302
 20
725.1879552233347
 42
0.0
 10
85.03147580398303
 20
725.1879552233347
 42
-0.4142135623730992
 97
        0
 92
       22
 72
     1
 73
     1
 93
        3
 10
89.03147580398291
 20
729.1879552233348
 42
0.4142135623730909
 10
85.03147580398303
 20
725.1879552233347
 42
0.0
 10
89.03147580398302
 20
725.1879552233347
 42
0.0
 97
        0
 92
        7
 72
     1
 73
     1
 93
        4
 10
83.03147580398292
 20
729.1879552233348
 42
0.0
 10
80.41463183417596
 20
729.1879552233348
 42
0.1090809576248918
 10
79.53147580398303
 20
725.1879552233347
 42
0.0
 10
83.03147580398302
 20
725.1879552233347
 42
0.0
 97
        0
 92
       22
 72
     1
 73
     1
 93
        3
 10
83.03147580398292
 20
732.5534151546628
 42
0.1136360637262233
 10
80.41463183417596
 20
729.1879552233348
 42
0.0
 10
83.03147580398279
 20
729.1879552233348
 42
0.0
 97
        0
 92
        7
 72
     1
 73
     1
 93
        4
 10
79.03147580398303
 20
725.1879552233347
 42
0.0
 10
79.53147580398303
 20
725.1879552233347
 42
-0.1090809576248918
 10
80.41463183417596
 20
729.1879552233348
 42
0.0
 10
79.86632441407135
 20
729.1879552233348
 42
0.1032437171755979
 97
        0
 92
        7
 72
     1
 73
     1
 93
        4
 10
79.86632441407135
 20
729.1879552233348
 42
0.0
 10
80.41463183417596
 20
729.1879552233348
 42
-0.1136360637262264
 10
83.03147580398302
 20
732.5534151546628
 42
0.0
 10
83.03147580398302
 20
733.1879552233348
 42
0.1296640194076911
 97
        0
 92
        7
 72
     1
 73
     1
 93
        4
 10
89.03147580398302
 20
734.6879552233348
 42
0.0
 10
89.03147580398302
 20
735.1879552233348
 42
0.1622776601683798
 10
83.03147580398302
 20
733.1879552233346
 42
0.0
 10
83.03147580398302
 20
732.5534151546629
 42
-0.1725804109198127
 97
        0
 92
       23
 72
     1
 73
     1
 93
        3
 10
89.03147580398302
 20
725.1879552233347
 42
0.0
 10
89.03147580398302
 20
721.1879552233348
 42
0.4142135623730909
 10
93.03147580398302
 20
725.1879552233347
 42
0.0
 97
        0
 92
        7
 72
     1
 73
     1
 93
        4
 10
93.03147580398302
 20
725.1879552233347
 42
-0.4142135623730909
 10
89.03147580398302
 20
721.1879552233348
 42
0.0
 10
97.6483197737901
 20
721.1879552233348
 42
0.1090809576248888
 10
98.53147580398303
 20
725.1879552233347
 42
0.0
 97
        0
 92
       23
 72
     1
 73
     1
 93
        3
 10
89.03147580398302
 20
721.1879552233348
 42
0.0
 10
89.03147580398302
 20
715.6879552233348
 42
0.2919418509678903
 10
97.6483197737901
 20
721.1879552233348
 42
0.0
 97
        0
 92
        7
 72
     1
 73
     1
 93
        4
 10
98.19662719389469
 20
721.1879552233348
 42
0.0
 10
97.6483197737901
 20
721.1879552233348
 42
-0.2919418509678903
 10
89.03147580398302
 20
715.6879552233348
 42
0.0
 10
89.03147580398302
 20
715.1879552233348
 42
0.2982166266986068
 97
        0
 92
        7
 72
     1
 73
     1
 93
        4
 10
99.03147580398304
 20
725.1879552233347
 42
0.0
 10
98.53147580398303
 20
725.1879552233347
 42
-0.1090809576248888
 10
97.6483197737901
 20
721.1879552233348
 42
0.0
 10
98.19662719389469
 20
721.1879552233348
 42
0.1032437171755951
 97
        0
 75
     0
 76
     0
 52
45.0
 41
1.0
 77
     1
 78
     2
 53
45.0
 43
-466.415765
 44
292.628729
 45
-0.7071067811865475
 46
0.7071067811865476
 79
     0
 53
135.0
 43
-466.415765
 44
292.628729
 45
-0.7071067811865476
 46
-0.7071067811865475
 79
     0
 47
0.087843
 98
       13
 10
86.362446
 20
732.003491
 10
84.78062
 20
727.611345
 10
87.768513
 20
727.084287
 10
81.880607
 20
727.084287
 10
82.320003
 20
730.070946
 10
79.595749
 20
727.78703
 10
82.495762
 20
732.442706
 10
85.132137
 20
734.111722
 10
90.756405
 20
724.009784
 10
94.886726
 20
723.219198
 10
92.601868
 20
719.617638
 10
91.547318
 20
715.664706
 10
98.665532
 20
723.307041
  0
CIRCLE
  5
442
100
AcDbEntity
  8
M01
100
AcDbCircle
 10
89.031476
 20
725.187955
 30
0.0
 40
10.0
  0
LINE
  5
443
100
AcDbEntity
  8
M05
100
AcDbLine
 10
336.944343
 20
733.687955
 30
0.0
 11
336.944343
 21
716.687955
 31
0.0
  0
LINE
  5
444
100
AcDbEntity
  8
M01
100
AcDbLine
 10
72.031476
 20
821.187955
 30
0.0
 11
82.031476
 21
821.187955
 31
0.0
  0
LINE
  5
445
100
AcDbEntity
  8
M01
100
AcDbLine
 10
81.531476
 20
833.987955
 30
0.0
 11
81.531476
 21
833.187955
 31
0.0
  0
LINE
  5
446
100
AcDbEntity
  8
M01
100
AcDbLine
 10
72.531476
 20
833.987955
 30
0.0
 11
72.531476
 21
833.187955
 31
0.0
  0
LINE
  5
447
100
AcDbEntity
  8
CENTRE
100
AcDbLine
 10
77.031476
 20
852.348845
 30
0.0
 11
77.031476
 21
788.755413
 31
0.0
  0
LINE
  5
448
100
AcDbEntity
  8
CENTRE
100
AcDbLine
 10
304.598225
 20
795.687955
 30
0.0
 11
342.687925
 21
795.687955
 31
0.0
  0
LINE
  5
449
100
AcDbEntity
  8
M04
100
AcDbLine
 10
385.944343
 20
881.859434
 30
0.0
 11
385.944343
 21
744.687955
 31
0.0
  0
LINE
  5
44A
100
AcDbEntity
  8
M04
100
AcDbLine
 10
121.031476
 20
771.187955
 30
0.0
 11
128.031476
 21
764.187955
 31
0.0
  0
LINE
  5
44B
100
AcDbEntity
  8
M04
100
AcDbLine
 10
50.031476
 20
764.187955
 30
0.0
 11
57.031476
 21
771.187955
 31
0.0
  0
ARC
  5
44C
100
AcDbEntity
  8
M04
100
AcDbCircle
 10
-9.968524
 20
701.187955
 30
0.0
 40
15.0
100
AcDbArc
 50
180.0
 51
270.0
  0
ARC
  5
44D
100
AcDbEntity
  8
M04
100
AcDbCircle
 10
-9.968524
 20
749.187955
 30
0.0
 40
15.0
100
AcDbArc
 50
90.0
 51
180.0
  0
ARC
  5
44E
100
AcDbEntity
  8
M04
100
AcDbCircle
 10
188.031476
 20
749.187955
 30
0.0
 40
15.0
100
AcDbArc
 50
0.0
 51
90.0
  0
ARC
  5
44F
100
AcDbEntity
  8
M04
100
AcDbCircle
 10
188.031476
 20
701.187955
 30
0.0
 40
15.0
100
AcDbArc
 50
270.0
 51
0.0
  0
LINE
  5
450
100
AcDbEntity
  8
M04
100
AcDbLine
 10
-24.968524
 20
749.187955
 30
0.0
 11
-24.968524
 21
701.187955
 31
0.0
  0
LINE
  5
451
100
AcDbEntity
  8
M04
100
AcDbLine
 10
-9.968524
 20
764.187955
 30
0.0
 11
50.031476
 21
764.187955
 31
0.0
  0
LINE
  5
452
100
AcDbEntity
  8
M04
100
AcDbLine
 10
57.031476
 20
846.187955
 30
0.0
 11
57.031476
 21
771.187955
 31
0.0
  0
LINE
  5
453
100
AcDbEntity
  8
M04
100
AcDbLine
 10
121.031476
 20
846.187955
 30
0.0
 11
121.031476
 21
771.187955
 31
0.0
  0
LINE
  5
454
100
AcDbEntity
  8
M04
100
AcDbLine
 10
128.031476
 20
764.187955
 30
0.0
 11
188.031476
 21
764.187955
 31
0.0
  0
LINE
  5
455
100
AcDbEntity
  8
M04
100
AcDbLine
 10
203.031476
 20
749.187955
 30
0.0
 11
203.031476
 21
701.187955
 31
0.0
  0
LINE
  5
456
100
AcDbEntity
  8
M04
100
AcDbLine
 10
-9.968524
 20
686.187955
 30
0.0
 11
188.031476
 21
686.187955
 31
0.0
  0
LINE
  5
457
100
AcDbEntity
  8
M04
100
AcDbLine
 10
324.944343
 20
686.187955
 30
0.0
 11
385.944343
 21
686.187955
 31
0.0
  0
LINE
  5
458
100
AcDbEntity
  8
M04
100
AcDbLine
 10
324.944343
 20
861.187955
 30
0.0
 11
324.944343
 21
799.687955
 31
0.0
  0
CIRCLE
  5
459
100
AcDbEntity
  8
M03
100
AcDbCircle
 10
89.031476
 20
725.187955
 30
0.0
 40
9.5
  0
CIRCLE
  5
45A
100
AcDbEntity
  8
M03
100
AcDbCircle
 10
89.031476
 20
725.187955
 30
0.0
 40
4.0
  0
LINE
  5
45B
100
AcDbEntity
  8
M03
100
AcDbLine
 10
14.031476
 20
721.187955
 30
0.0
 11
164.031476
 21
721.187955
 31
0.0
  0
LINE
  5
45C
100
AcDbEntity
  8
M03
100
AcDbLine
 10
14.031476
 20
729.187955
 30
0.0
 11
164.031476
 21
729.187955
 31
0.0
  0
CIRCLE
  5
45D
100
AcDbEntity
  8
M01
100
AcDbCircle
 10
164.031476
 20
725.187955
 30
0.0
 40
4.0
  0
CIRCLE
  5
45E
100
AcDbEntity
  8
M01
100
AcDbCircle
 10
14.031476
 20
725.187955
 30
0.0
 40
4.0
  0
LINE
  5
45F
102
{ACAD_REACTORS
330
26D
102
}
100
AcDbEntity
  8
M02
100
AcDbLine
 10
331.944343
 20
789.187955
 30
0.0
 11
328.944343
 21
789.187955
 31
0.0
  0
LINE
  5
460
100
AcDbEntity
  8
M01
100
AcDbLine
 10
331.944343
 20
789.187955
 30
0.0
 11
337.944343
 21
789.187955
 31
0.0
  0
LINE
  5
461
100
AcDbEntity
  8
M01
100
AcDbLine
 10
337.944343
 20
801.187955
 30
0.0
 11
337.944343
 21
789.187955
 31
0.0
  0
LINE
  5
462
102
{ACAD_REACTORS
330
26C
102
}
100
AcDbEntity
  8
M02
100
AcDbLine
 10
378.944343
 20
799.187955
 30
0.0
 11
381.944343
 21
799.187955
 31
0.0
  0
LINE
  5
463
102
{ACAD_REACTORS
330
26D
102
}
100
AcDbEntity
  8
M02
100
AcDbLine
 10
331.944343
 20
695.187955
 30
0.0
 11
328.944343
 21
695.187955
 31
0.0
  0
LINE
  5
464
102
{ACAD_REACTORS
330
26C
102
}
100
AcDbEntity
  8
M02
100
AcDbLine
 10
381.944343
 20
799.187955
 30
0.0
 11
381.944343
 21
759.187955
 31
0.0
  0
LINE
  5
465
102
{ACAD_REACTORS
330
26D
102
}
100
AcDbEntity
  8
M02
100
AcDbLine
 10
328.944343
 20
791.687955
 30
0.0
 11
328.944343
 21
734.687955
 31
0.0
  0
LWPOLYLINE
  5
466
100
AcDbEntity
  8
M01
100
AcDbPolyline
 90
        2
 70
     0
 43
4.0
 10
89.031476
 20
797.687955
 42
0.414214
 10
87.031476
 20
795.687955
  0
LWPOLYLINE
  5
467
100
AcDbEntity
  8
M01
100
AcDbPolyline
 90
        2
 70
     0
 43
4.0
 10
89.031476
 20
793.687955
 42
0.414214
 10
91.031476
 20
795.687955
  0
CIRCLE
  5
468
100
AcDbEntity
  8
M01
100
AcDbCircle
 10
89.031476
 20
795.687955
 30
0.0
 40
4.0
  0
LINE
  5
469
100
AcDbEntity
  8
M01
100
AcDbLine
 10
93.031476
 20
793.187955
 30
0.0
 11
93.031476
 21
801.187955
 31
0.0
  0
LINE
  5
46A
100
AcDbEntity
  8
M01
100
AcDbLine
 10
85.031476
 20
793.187955
 30
0.0
 11
85.031476
 21
801.187955
 31
0.0
  0
ARC
  5
46B
100
AcDbEntity
  8
M01
100
AcDbCircle
 10
89.031476
 20
793.187955
 30
0.0
 40
4.0
100
AcDbArc
 50
180.0
 51
0.0
  0
LINE
  5
46C
100
AcDbEntity
  8
M01
100
AcDbLine
 10
378.944343
 20
695.187955
 30
0.0
 11
376.944343
 21
693.187955
 31
0.0
  0
LINE
  5
46D
100
AcDbEntity
  8
M01
100
AcDbLine
 10
376.944343
 20
801.187955
 30
0.0
 11
378.944343
 21
799.187955
 31
0.0
  0
LINE
  5
46E
100
AcDbEntity
  8
M01
100
AcDbLine
 10
332.944343
 20
800.187955
 30
0.0
 11
333.944343
 21
801.187955
 31
0.0
  0
LINE
  5
46F
100
AcDbEntity
  8
M01
100
AcDbLine
 10
333.944343
 20
693.187955
 30
0.0
 11
331.944343
 21
695.187955
 31
0.0
  0
LINE
  5
470
102
{ACAD_REACTORS
330
26C
330
112
102
}
100
AcDbEntity
  8
M01
100
AcDbLine
 10
378.944343
 20
799.187955
 30
0.0
 11
378.944343
 21
754.187955
 31
0.0
  0
LINE
  5
471
100
AcDbEntity
  8
M01
100
AcDbLine
 10
333.944343
 20
693.187955
 30
0.0
 11
376.944343
 21
693.187955
 31
0.0
  0
LINE
  5
472
100
AcDbEntity
  8
M01
100
AcDbLine
 10
333.944343
 20
801.187955
 30
0.0
 11
376.944343
 21
801.187955
 31
0.0
  0
LINE
  5
473
102
{ACAD_REACTORS
330
26D
102
}
100
AcDbEntity
  8
M01
100
AcDbLine
 10
331.944343
 20
791.687955
 30
0.0
 11
331.944343
 21
734.687955
 31
0.0
  0
LINE
  5
474
100
AcDbEntity
  8
M01
100
AcDbLine
 10
109.031476
 20
801.187955
 30
0.0
 11
111.031476
 21
799.187955
 31
0.0
  0
LINE
  5
475
100
AcDbEntity
  8
M01
100
AcDbLine
 10
67.031476
 20
799.187955
 30
0.0
 11
69.031476
 21
801.187955
 31
0.0
  0
LINE
  5
476
100
AcDbEntity
  8
M01
100
AcDbLine
 10
69.031476
 20
801.187955
 30
0.0
 11
109.031476
 21
801.187955
 31
0.0
  0
ARC
  5
477
100
AcDbEntity
  8
M01
100
AcDbCircle
 10
123.031476
 20
769.187955
 30
0.0
 40
12.0
100
AcDbArc
 50
180.0
 51
270.0
  0
ARC
  5
478
100
AcDbEntity
  8
M01
100
AcDbCircle
 10
55.031476
 20
769.187955
 30
0.0
 40
12.0
100
AcDbArc
 50
270.0
 51
0.0
  0
LINE
  5
479
100
AcDbEntity
  8
M01
100
AcDbLine
 10
123.031476
 20
757.187955
 30
0.0
 11
184.031476
 21
757.187955
 31
0.0
  0
LINE
  5
47A
100
AcDbEntity
  8
M01
100
AcDbLine
 10
111.031476
 20
799.187955
 30
0.0
 11
111.031476
 21
769.187955
 31
0.0
  0
LINE
  5
47B
100
AcDbEntity
  8
M01
100
AcDbLine
 10
67.031476
 20
799.187955
 30
0.0
 11
67.031476
 21
769.187955
 31
0.0
  0
LINE
  5
47C
100
AcDbEntity
  8
M01
100
AcDbLine
 10
196.031476
 20
705.187955
 30
0.0
 11
184.031476
 21
693.187955
 31
0.0
  0
LINE
  5
47D
100
AcDbEntity
  8
M01
100
AcDbLine
 10
184.031476
 20
757.187955
 30
0.0
 11
196.031476
 21
745.187955
 31
0.0
  0
LINE
  5
47E
100
AcDbEntity
  8
M01
100
AcDbLine
 10
-17.968524
 20
745.187955
 30
0.0
 11
-5.968524
 21
757.187955
 31
0.0
  0
LINE
  5
47F
100
AcDbEntity
  8
M01
100
AcDbLine
 10
-5.968524
 20
693.187955
 30
0.0
 11
-17.968524
 21
705.187955
 31
0.0
  0
LINE
  5
480
100
AcDbEntity
  8
M01
100
AcDbLine
 10
-5.968524
 20
693.187955
 30
0.0
 11
184.031476
 21
693.187955
 31
0.0
  0
LINE
  5
481
100
AcDbEntity
  8
M01
100
AcDbLine
 10
-5.968524
 20
757.187955
 30
0.0
 11
55.031476
 21
757.187955
 31
0.0
  0
LINE
  5
482
100
AcDbEntity
  8
M01
100
AcDbLine
 10
196.031476
 20
745.187955
 30
0.0
 11
196.031476
 21
705.187955
 31
0.0
  0
LINE
  5
483
100
AcDbEntity
  8
M01
100
AcDbLine
 10
-17.968524
 20
745.187955
 30
0.0
 11
-17.968524
 21
705.187955
 31
0.0
  0
LINE
  5
484
100
AcDbEntity
  8
CENTRE
100
AcDbLine
 10
89.031476
 20
816.187955
 30
0.0
 11
89.031476
 21
678.187955
 31
0.0
  0
LINE
  5
485
100
AcDbEntity
  8
CENTRE
100
AcDbLine
 10
-32.968524
 20
725.187955
 30
0.0
 11
211.031476
 21
725.187955
 31
0.0
  0
ENDSEC
  0
SECTION
  2
OBJECTS
  0
DICTIONARY
  5
1C
100
AcDbDictionary
  3
ACAD_GROUP
350
1A
  3
ACAD_MLINESTYLE
350
1B
  0
DICTIONARY
  5
3
100
AcDbDictionary
280
     1
  3
ACAD_SORTENTS
360
4
  0
DICTIONARY
  5
1A
102
{ACAD_REACTORS
330
1C
102
}
100
AcDbDictionary
  0
DICTIONARY
  5
1B
102
{ACAD_REACTORS
330
1C
102
}
100
AcDbDictionary
  3
STANDARD
350
1E
  0
SORTENTSTABLE
  5
4
102
{ACAD_REACTORS
330
3
102
}
100
AcDbSortentsTable
330
2
  0
MLINESTYLE
  5
1E
102
{ACAD_REACTORS
330
1B
102
}
100
AcDbMlineStyle
  2
STANDARD
 70
     0
  3

 62
   256
 51
90.0
 52
90.0
 71
     2
 49
0.5
 62
   256
  6
BYLAYER
 49
-0.5
 62
   256
  6
BYLAYER
  0
ENDSEC
  0
EOF
