  0
SECTION
  2
HEADER
  9
$ACADVER
  1
AC1014
  9
$ACADMAINTVER
 70
     9
  9
$DWGCODEPAGE
  3
ANSI_1252
  9
$INSBASE
 10
0.0
 20
0.0
 30
0.0
  9
$EXTMIN
 10
28.431046
 20
160.959826
 30
-0.001526
  9
$EXTMAX
 10
1164.543643
 20
793.713249
 30
0.0
  9
$LIMMIN
 10
0.0
 20
0.0
  9
$LIMMAX
 10
1189.0
 20
841.0
  9
$ORTHOMODE
 70
     1
  9
$REGENMODE
 70
     1
  9
$FILLMODE
 70
     1
  9
$QTEXTMODE
 70
     0
  9
$MIRRTEXT
 70
     1
  9
$DRAGMODE
 70
     2
  9
$LTSCALE
 40
8.0
  9
$OSMODE
 70
     0
  9
$ATTMODE
 70
     1
  9
$TEXTSIZE
 40
3.0
  9
$TRACEWID
 40
10.0
  9
$TEXTSTYLE
  7
STANDARD
  9
$CLAYER
  8
HATCH
  9
$CELTYPE
  6
BYLAYER
  9
$CECOLOR
 62
   256
  9
$CELTSCALE
 40
1.0
  9
$DELOBJ
 70
     1
  9
$DISPSILH
 70
     0
  9
$DIMSCALE
 40
1.0
  9
$DIMASZ
 40
3.0
  9
$DIMEXO
 40
1.0
  9
$DIMDLI
 40
10.0
  9
$DIMRND
 40
0.01
  9
$DIMDLE
 40
1.25
  9
$DIMEXE
 40
2.5
  9
$DIMTP
 40
0.05
  9
$DIMTM
 40
0.0
  9
$DIMTXT
 40
3.0
  9
$DIMCEN
 40
-1.7
  9
$DIMTSZ
 40
0.0
  9
$DIMTOL
 70
     0
  9
$DIMLIM
 70
     0
  9
$DIMTIH
 70
     0
  9
$DIMTOH
 70
     0
  9
$DIMSE1
 70
     0
  9
$DIMSE2
 70
     0
  9
$DIMTAD
 70
     3
  9
$DIMZIN
 70
     1
  9
$DIMBLK
  1

  9
$DIMASO
 70
     1
  9
$DIMSHO
 70
     0
  9
$DIMPOST
  1

  9
$DIMAPOST
  1

  9
$DIMALT
 70
     0
  9
$DIMALTD
 70
     2
  9
$DIMALTF
 40
0.039
  9
$DIMLFAC
 40
1.0
  9
$DIMTOFL
 70
     0
  9
$DIMTVP
 40
1.5
  9
$DIMTIX
 70
     0
  9
$DIMSOXD
 70
     0
  9
$DIMSAH
 70
     0
  9
$DIMBLK1
  1

  9
$DIMBLK2
  1

  9
$DIMSTYLE
  2
DIM1
  9
$DIMCLRD
 70
     4
  9
$DIMCLRE
 70
     4
  9
$DIMCLRT
 70
     2
  9
$DIMTFAC
 40
0.7
  9
$DIMGAP
 40
1.5
  9
$DIMJUST
 70
     0
  9
$DIMSD1
 70
     0
  9
$DIMSD2
 70
     0
  9
$DIMTOLJ
 70
     1
  9
$DIMTZIN
 70
     1
  9
$DIMALTZ
 70
     1
  9
$DIMALTTZ
 70
     1
  9
$DIMFIT
 70
     0
  9
$DIMUPT
 70
     1
  9
$DIMUNIT
 70
     2
  9
$DIMDEC
 70
     2
  9
$DIMTDEC
 70
     2
  9
$DIMALTU
 70
     2
  9
$DIMALTTD
 70
     2
  9
$DIMTXSTY
  7
STANDARD
  9
$DIMAUNIT
 70
     0
  9
$LUNITS
 70
     2
  9
$LUPREC
 70
     2
  9
$SKETCHINC
 40
1.0
  9
$FILLETRAD
 40
10.0
  9
$AUNITS
 70
     0
  9
$AUPREC
 70
     3
  9
$MENU
  1
ACAD
  9
$ELEVATION
 40
0.0
  9
$PELEVATION
 40
0.0
  9
$THICKNESS
 40
0.0
  9
$LIMCHECK
 70
     0
  9
$BLIPMODE
 70
     1
  9
$CHAMFERA
 40
0.7
  9
$CHAMFERB
 40
0.7
  9
$CHAMFERC
 40
0.0
  9
$CHAMFERD
 40
0.0
  9
$SKPOLY
 70
     1
  9
$TDCREATE
 40
2449993.725698611
  9
$TDUPDATE
 40
2451970.582478228
  9
$TDINDWG
 40
0.9337152315
  9
$TDUSRTIMER
 40
0.9337152315
  9
$USRTIMER
 70
     1
  9
$ANGBASE
 50
0.0
  9
$ANGDIR
 70
     0
  9
$PDMODE
 70
     3
  9
$PDSIZE
 40
0.0
  9
$PLINEWID
 40
0.0
  9
$COORDS
 70
     2
  9
$SPLFRAME
 70
     0
  9
$SPLINETYPE
 70
     6
  9
$SPLINESEGS
 70
     6
  9
$ATTDIA
 70
     1
  9
$ATTREQ
 70
     1
  9
$HANDLING
 70
     1
  9
$HANDSEED
  5
487
  9
$SURFTAB1
 70
    12
  9
$SURFTAB2
 70
    12
  9
$SURFTYPE
 70
     6
  9
$SURFU
 70
    12
  9
$SURFV
 70
    12
  9
$UCSNAME
  2

  9
$UCSORG
 10
0.0
 20
0.0
 30
0.0
  9
$UCSXDIR
 10
1.0
 20
0.0
 30
0.0
  9
$UCSYDIR
 10
0.0
 20
1.0
 30
0.0
  9
$PUCSNAME
  2

  9
$PUCSORG
 10
0.0
 20
0.0
 30
0.0
  9
$PUCSXDIR
 10
1.0
 20
0.0
 30
0.0
  9
$PUCSYDIR
 10
0.0
 20
1.0
 30
0.0
  9
$USERI1
 70
     0
  9
$USERI2
 70
     0
  9
$USERI3
 70
     0
  9
$USERI4
 70
     0
  9
$USERI5
 70
     0
  9
$USERR1
 40
0.0
  9
$USERR2
 40
0.0
  9
$USERR3
 40
0.0
  9
$USERR4
 40
0.0
  9
$USERR5
 40
0.0
  9
$WORLDVIEW
 70
     0
  9
$SHADEDGE
 70
     3
  9
$SHADEDIF
 70
    70
  9
$TILEMODE
 70
     1
  9
$MAXACTVP
 70
    16
  9
$PINSBASE
 10
0.0
 20
0.0
 30
0.0
  9
$PLIMCHECK
 70
     0
  9
$PEXTMIN
 10
1.000000E+20
 20
1.000000E+20
 30
1.000000E+20
  9
$PEXTMAX
 10
-1.000000E+20
 20
-1.000000E+20
 30
-1.000000E+20
  9
$PLIMMIN
 10
0.0
 20
0.0
  9
$PLIMMAX
 10
12.0
 20
9.0
  9
$UNITMODE
 70
     0
  9
$VISRETAIN
 70
     0
  9
$PLINEGEN
 70
     0
  9
$PSLTSCALE
 70
     0
  9
$TREEDEPTH
 70
  3020
  9
$PICKSTYLE
 70
     1
  9
$CMLSTYLE
  2
STANDARD
  9
$CMLJUST
 70
     0
  9
$CMLSCALE
 40
1.0
  9
$PROXYGRAPHICS
 70
     1
  9
$MEASUREMENT
 70
     0
  0
ENDSEC
  0
SECTION
  2
CLASSES
  0
CLASS
  1
DICTIONARYVAR
  2
AcDbDictionaryVar
  3
"AutoCAD"
 90
        0
280
     0
281
     0
  0
CLASS
  1
LWPOLYLINE
  2
AcDbPolyline
  3
"AutoCAD"
 90
        0
280
     0
281
     1
  0
CLASS
  1
HATCH
  2
AcDbHatch
  3
"ACAD_SEDONA"
 90
        0
280
     0
281
     1
  0
CLASS
  1
SORTENTSTABLE
  2
AcDbSortentsTable
  3
"AutoCAD"
 90
        0
280
     0
281
     0
  0
CLASS
  1
WIPEOUTVARIABLES
  2
AcDbWipeoutVariables
  3
WIPEOUT
 90
        0
280
     0
281
     0
  0
CLASS
  1
WIPEOUT
  2
AcDbWipeout
  3
WIPEOUT
 90
      127
280
     0
281
     1
  0
ENDSEC
  0
SECTION
  2
TABLES
  0
TABLE
  2
VPORT
  5
14
100
AcDbSymbolTable
 70
     2
  0
VPORT
  5
486
100
AcDbSymbolTableRecord
100
AcDbViewportTableRecord
  2
*ACTIVE
 70
     0
 10
0.0
 20
0.0
 11
1.0
 21
1.0
 12
277.948337
 22
582.841833
 13
0.0
 23
0.0
 14
10.0
 24
10.0
 15
0.0
 25
0.0
 16
0.0
 26
0.0
 36
1.0
 17
16.313321
 27
12.779115
 37
0.222949
 40
401.624688
 41
1.494382
 42
50.0
 43
0.0
 44
0.0
 50
0.0
 51
0.0
 71
     0
 72
  2000
 73
     1
 74
     2
 75
     0
 76
     0
 77
     0
 78
     1
  0
ENDTAB
  0
TABLE
  2
LTYPE
  5
F
100
AcDbSymbolTable
 70
     3
  0
LTYPE
  5
10
100
AcDbSymbolTableRecord
100
AcDbLinetypeTableRecord
  2
BYBLOCK
 70
     0
  3

 72
    65
 73
     0
 40
0.0
  0
LTYPE
  5
11
100
AcDbSymbolTableRecord
100
AcDbLinetypeTableRecord
  2
BYLAYER
 70
     0
  3

 72
    65
 73
     0
 40
0.0
  0
LTYPE
  5
7
100
AcDbSymbolTableRecord
100
AcDbLinetypeTableRecord
  2
CONTINUOUS
 70
     0
  3
Solid line
 72
    65
 73
     0
 40
0.0
  0
LTYPE
  5
81
100
AcDbSymbolTableRecord
100
AcDbLinetypeTableRecord
  2
CENTER
 70
     0
  3
Center ____ _ ____ _ ____ _ ____ _ ____ _ ____
 72
    65
 73
     4
 40
2.0
 49
1.25
 74
     0
 49
-0.25
 74
     0
 49
0.25
 74
     0
 49
-0.25
 74
     0
  0
LTYPE
  5
1ED
100
AcDbSymbolTableRecord
100
AcDbLinetypeTableRecord
  2
HIDDEN
 70
     0
  3
Hidden __ __ __ __ __ __ __ __ __ __ __ __ __ _
 72
    65
 73
     2
 40
0.375
 49
0.25
 74
     0
 49
-0.125
 74
     0
  0
ENDTAB
  0
TABLE
  2
LAYER
  5
C
100
AcDbSymbolTable
 70
    11
  0
LAYER
  5
6
100
AcDbSymbolTableRecord
100
AcDbLayerTableRecord
  2
0
 70
     0
 62
     7
  6
CONTINUOUS
  0
LAYER
  5
80
100
AcDbSymbolTableRecord
100
AcDbLayerTableRecord
  2
CENTRE
 70
     0
 62
     3
  6
CENTER
  0
LAYER
  5
21
100
AcDbSymbolTableRecord
100
AcDbLayerTableRecord
  2
M01
 70
     0
 62
     1
  6
CONTINUOUS
  0
LAYER
  5
196
100
AcDbSymbolTableRecord
100
AcDbLayerTableRecord
  2
M02
 70
     0
 62
     2
  6
CONTINUOUS
  0
LAYER
  5
1EC
100
AcDbSymbolTableRecord
100
AcDbLayerTableRecord
  2
M03
 70
     0
 62
     2
  6
HIDDEN
  0
LAYER
  5
64
100
AcDbSymbolTableRecord
100
AcDbLayerTableRecord
  2
M04
 70
     0
 62
     7
  6
CONTINUOUS
  0
LAYER
  5
6A
100
AcDbSymbolTableRecord
100
AcDbLayerTableRecord
  2
M05
 70
     0
 62
     5
  6
CONTINUOUS
  0
LAYER
  5
4B
100
AcDbSymbolTableRecord
100
AcDbLayerTableRecord
  2
DIMS
 70
     0
 62
     4
  6
CONTINUOUS
  0
LAYER
  5
112
100
AcDbSymbolTableRecord
100
AcDbLayerTableRecord
  2
TEXT
 70
     0
 62
     2
  6
CONTINUOUS
  0
LAYER
  5
1D
100
AcDbSymbolTableRecord
100
AcDbLayerTableRecord
  2
HATCH
 70
     0
 62
     4
  6
CONTINUOUS
  0
LAYER
  5
8C
100
AcDbSymbolTableRecord
100
AcDbLayerTableRecord
  2
DEFPOINTS
 70
     0
 62
     7
  6
CONTINUOUS
  0
ENDTAB
  0
TABLE
  2
STYLE
  5
D
100
AcDbSymbolTable
 70
     1
  0
STYLE
  5
E
100
AcDbSymbolTableRecord
100
AcDbTextStyleTableRecord
  2
STANDARD
 70
     0
 40
0.0
 41
1.0
 50
0.0
 71
     0
 42
3.0
  3
SIMPLEX
  4

  0
ENDTAB
  0
TABLE
  2
VIEW
  5
12
100
AcDbSymbolTable
 70
     0
  0
ENDTAB
  0
TABLE
  2
UCS
  5
13
100
AcDbSymbolTable
 70
     0
  0
ENDTAB
  0
TABLE
  2
APPID
  5
16
100
AcDbSymbolTable
 70
     1
  0
APPID
  5
17
100
AcDbSymbolTableRecord
100
AcDbRegAppTableRecord
  2
ACAD
 70
     0
  0
ENDTAB
  0
TABLE
  2
DIMSTYLE
  5
18
100
AcDbSymbolTable
 70
     2
  0
DIMSTYLE
105
1F
102
{ACAD_REACTORS
330
36B
330
35E
330
351
330
344
330
F1
330
E3
330
D5
330
C8
330
BA
330
AC
330
9F
330
91
330
82
102
}
100
AcDbSymbolTableRecord
100
AcDbDimStyleTableRecord
  2
DIM1
 70
     0
  3

  4

  5

  6

  7

 40
1.0
 41
3.0
 42
1.0
 43
10.0
 44
2.5
 45
0.01
 46
1.25
 47
0.05
 48
0.0
140
3.0
141
-1.7
142
0.0
143
0.039
144
0.2
145
1.5
146
0.7
147
1.5
 71
     0
 72
     0
 73
     0
 74
     0
 75
     0
 76
     0
 77
     3
 78
     1
170
     0
171
     2
172
     0
173
     0
174
     0
175
     0
176
     4
177
     4
178
     2
270
     2
271
     2
272
     2
273
     2
274
     2
340
E
275
     0
280
     0
281
     0
282
     0
283
     1
284
     1
285
     1
286
     1
287
     0
288
     0
  0
DIMSTYLE
105
295
100
AcDbSymbolTableRecord
100
AcDbDimStyleTableRecord
  2
DIM1$7
 70
     0
  3

  4

  5

  6

  7

 40
1.0
 41
3.0
 42
1.0
 43
10.0
 44
2.5
 45
0.01
 46
1.25
 47
0.0
 48
0.0
140
3.0
141
-1.7
142
0.0
143
0.039
144
1.0
145
0.0
146
1.0
147
1.5
 71
     0
 72
     0
 73
     0
 74
     0
 75
     0
 76
     0
 77
     0
 78
     1
170
     0
171
     2
172
     0
173
     0
174
     0
175
     0
176
     4
177
     4
178
     2
270
     2
271
     2
272
     2
273
     2
274
     2
340
E
275
     0
280
     0
281
     0
282
     0
283
     1
284
     1
285
     1
286
     1
287
     0
288
     0
  0
ENDTAB
  0
TABLE
  2
BLOCK_RECORD
  5
1
100
AcDbSymbolTable
 70
    13
  0
BLOCK_RECORD
  5
2
102
{ACAD_XDICTIONARY
360
3
102
}
100
AcDbSymbolTableRecord
100
AcDbBlockTableRecord
  2
*MODEL_SPACE
  0
BLOCK_RECORD
  5
9
100
AcDbSymbolTableRecord
100
AcDbBlockTableRecord
  2
*PAPER_SPACE
  0
BLOCK_RECORD
  5
36C
100
AcDbSymbolTableRecord
100
AcDbBlockTableRecord
  2
*D0
  0
BLOCK_RECORD
  5
35F
100
AcDbSymbolTableRecord
100
AcDbBlockTableRecord
  2
*D1
  0
BLOCK_RECORD
  5
352
100
AcDbSymbolTableRecord
100
AcDbBlockTableRecord
  2
*D2
  0
BLOCK_RECORD
  5
345
100
AcDbSymbolTableRecord
100
AcDbBlockTableRecord
  2
*D3
  0
BLOCK_RECORD
  5
F2
100
AcDbSymbolTableRecord
100
AcDbBlockTableRecord
  2
*D4
  0
BLOCK_RECORD
  5
E4
100
AcDbSymbolTableRecord
100
AcDbBlockTableRecord
  2
*D5
  0
BLOCK_RECORD
  5
D6
100
AcDbSymbolTableRecord
100
AcDbBlockTableRecord
  2
*D6
  0
BLOCK_RECORD
  5
C9
100
AcDbSymbolTableRecord
100
AcDbBlockTableRecord
  2
*D7
  0
BLOCK_RECORD
  5
BB
100
AcDbSymbolTableRecord
100
AcDbBlockTableRecord
  2
*D8
  0
BLOCK_RECORD
  5
AD
100
AcDbSymbolTableRecord
100
AcDbBlockTableRecord
  2
*D9
  0
BLOCK_RECORD
  5
A0
100
AcDbSymbolTableRecord
100
AcDbBlockTableRecord
  2
*D10
  0
BLOCK_RECORD
  5
92
100
AcDbSymbolTableRecord
100
AcDbBlockTableRecord
  2
*D11
  0
BLOCK_RECORD
  5
83
100
AcDbSymbolTableRecord
100
AcDbBlockTableRecord
  2
*D12
  0
ENDTAB
  0
ENDSEC
  0
SECTION
  2
BLOCKS
  0
BLOCK
  5
5
100
AcDbEntity
  8
0
100
AcDbBlockBegin
  2
*MODEL_SPACE
 70
     0
 10
0.0
 20
0.0
 30
0.0
  3
*MODEL_SPACE
  1

  0
ENDBLK
  5
8
100
AcDbEntity
  8
0
100
AcDbBlockEnd
  0
BLOCK
  5
A
100
AcDbEntity
 67
     1
  8
0
100
AcDbBlockBegin
  2
*PAPER_SPACE
 70
     0
 10
0.0
 20
0.0
 30
0.0
  3
*PAPER_SPACE
  1

  0
ENDBLK
  5
B
100
AcDbEntity
 67
     1
  8
0
100
AcDbBlockEnd
  0
BLOCK
  5
376
100
AcDbEntity
  8
0
100
AcDbBlockBegin
  2
*D0
 70
     1
 10
0.0
 20
0.0
 30
0.0
  3
*D0
  1

  0
LINE
  5
36D
100
AcDbEntity
  8
0
  6
BYBLOCK
 62
     4
100
AcDbLine
 10
97.481828
 20
619.342967
 30
0.0
 11
97.481828
 21
572.00933
 31
0.0
  0
LINE
  5
36E
100
AcDbEntity
  8
0
  6
BYBLOCK
 62
     4
100
AcDbLine
 10
159.981828
 20
589.041771
 30
0.0
 11
159.981828
 21
572.00933
 31
0.0
  0
LINE
  5
36F
100
AcDbEntity
  8
0
  6
BYBLOCK
 62
     4
100
AcDbLine
 10
100.481828
 20
574.50933
 30
0.0
 11
156.981828
 21
574.50933
 31
0.0
  0
SOLID
  5
370
100
AcDbEntity
  8
0
  6
BYBLOCK
 62
     4
100
AcDbTrace
 10
100.481828
 20
575.00933
 30
0.0
 11
100.481828
 21
574.00933
 31
0.0
 12
97.481828
 22
574.50933
 32
0.0
 13
97.481828
 23
574.50933
 33
0.0
  0
SOLID
  5
371
100
AcDbEntity
  8
0
  6
BYBLOCK
 62
     4
100
AcDbTrace
 10
156.981828
 20
575.00933
 30
0.0
 11
156.981828
 21
574.00933
 31
0.0
 12
159.981828
 22
574.50933
 32
0.0
 13
159.981828
 23
574.50933
 33
0.0
  0
MTEXT
  5
372
100
AcDbEntity
  8
0
  6
BYBLOCK
 62
     2
100
AcDbMText
 10
131.564036
 20
578.295045
 30
0.0
 40
3.0
 41
0.0
 71
     5
 72
     1
  1
\A1;A/2=62.50
  0
POINT
  5
373
100
AcDbEntity
  8
DEFPOINTS
  6
BYBLOCK
 62
     0
100
AcDbPoint
 10
97.481828
 20
620.342967
 30
0.0
  0
POINT
  5
374
100
AcDbEntity
  8
DEFPOINTS
  6
BYBLOCK
 62
     0
100
AcDbPoint
 10
159.981828
 20
590.041771
 30
0.0
  0
POINT
  5
375
100
AcDbEntity
  8
DEFPOINTS
  6
BYBLOCK
 62
     0
100
AcDbPoint
 10
159.981828
 20
574.50933
 30
0.0
  0
ENDBLK
  5
377
100
AcDbEntity
  8
0
100
AcDbBlockEnd
  0
BLOCK
  5
369
100
AcDbEntity
  8
0
100
AcDbBlockBegin
  2
*D1
 70
     1
 10
0.0
 20
0.0
 30
0.0
  3
*D1
  1

  0
LINE
  5
360
100
AcDbEntity
  8
0
  6
BYBLOCK
 62
     4
100
AcDbLine
 10
97.481828
 20
619.342967
 30
0.0
 11
97.481828
 21
561.954598
 31
0.0
  0
LINE
  5
361
100
AcDbEntity
  8
0
  6
BYBLOCK
 62
     4
100
AcDbLine
 10
222.481828
 20
619.328552
 30
0.0
 11
222.481828
 21
561.954598
 31
0.0
  0
LINE
  5
362
100
AcDbEntity
  8
0
  6
BYBLOCK
 62
     4
100
AcDbLine
 10
100.481828
 20
564.454598
 30
0.0
 11
219.481828
 21
564.454598
 31
0.0
  0
SOLID
  5
363
100
AcDbEntity
  8
0
  6
BYBLOCK
 62
     4
100
AcDbTrace
 10
100.481828
 20
564.954598
 30
0.0
 11
100.481828
 21
563.954598
 31
0.0
 12
97.481828
 22
564.454598
 32
0.0
 13
97.481828
 23
564.454598
 33
0.0
  0
SOLID
  5
364
100
AcDbEntity
  8
0
  6
BYBLOCK
 62
     4
100
AcDbTrace
 10
219.481828
 20
564.954598
 30
0.0
 11
219.481828
 21
563.954598
 31
0.0
 12
222.481828
 22
564.454598
 32
0.0
 13
222.481828
 23
564.454598
 33
0.0
  0
MTEXT
  5
365
100
AcDbEntity
  8
0
  6
BYBLOCK
 62
     2
100
AcDbMText
 10
159.981828
 20
567.454598
 30
0.0
 40
3.0
 41
0.0
 71
     5
 72
     1
  1
\A1;A=125.00
  0
POINT
  5
366
100
AcDbEntity
  8
DEFPOINTS
  6
BYBLOCK
 62
     0
100
AcDbPoint
 10
97.481828
 20
620.342967
 30
0.0
  0
POINT
  5
367
100
AcDbEntity
  8
DEFPOINTS
  6
BYBLOCK
 62
     0
100
AcDbPoint
 10
222.481828
 20
620.328552
 30
0.0
  0
POINT
  5
368
100
AcDbEntity
  8
DEFPOINTS
  6
BYBLOCK
 62
     0
100
AcDbPoint
 10
222.481828
 20
564.454598
 30
0.0
  0
ENDBLK
  5
36A
100
AcDbEntity
  8
0
100
AcDbBlockEnd
  0
BLOCK
  5
35C
100
AcDbEntity
  8
0
100
AcDbBlockBegin
  2
*D2
 70
     1
 10
0.0
 20
0.0
 30
0.0
  3
*D2
  1

  0
LINE
  5
353
100
AcDbEntity
  8
0
  6
BYBLOCK
 62
     4
100
AcDbLine
 10
52.981828
 20
616.041771
 30
0.0
 11
52.981828
 21
552.179164
 31
0.0
  0
LINE
  5
354
100
AcDbEntity
  8
0
  6
BYBLOCK
 62
     4
100
AcDbLine
 10
266.981828
 20
616.041771
 30
0.0
 11
266.981828
 21
552.179164
 31
0.0
  0
LINE
  5
355
100
AcDbEntity
  8
0
  6
BYBLOCK
 62
     4
100
AcDbLine
 10
55.981828
 20
554.679164
 30
0.0
 11
263.981828
 21
554.679164
 31
0.0
  0
SOLID
  5
356
100
AcDbEntity
  8
0
  6
BYBLOCK
 62
     4
100
AcDbTrace
 10
55.981828
 20
555.179164
 30
0.0
 11
55.981828
 21
554.179164
 31
0.0
 12
52.981828
 22
554.679164
 32
0.0
 13
52.981828
 23
554.679164
 33
0.0
  0
SOLID
  5
357
100
AcDbEntity
  8
0
  6
BYBLOCK
 62
     4
100
AcDbTrace
 10
263.981828
 20
555.179164
 30
0.0
 11
263.981828
 21
554.179164
 31
0.0
 12
266.981828
 22
554.679164
 32
0.0
 13
266.981828
 23
554.679164
 33
0.0
  0
MTEXT
  5
358
100
AcDbEntity
  8
0
  6
BYBLOCK
 62
     2
100
AcDbMText
 10
159.981828
 20
557.679164
 30
0.0
 40
3.0
 41
0.0
 71
     5
 72
     1
  1
\A1;L=214.00
  0
POINT
  5
359
100
AcDbEntity
  8
DEFPOINTS
  6
BYBLOCK
 62
     0
100
AcDbPoint
 10
52.981828
 20
617.041771
 30
0.0
  0
POINT
  5
35A
100
AcDbEntity
  8
DEFPOINTS
  6
BYBLOCK
 62
     0
100
AcDbPoint
 10
266.981828
 20
617.041771
 30
0.0
  0
POINT
  5
35B
100
AcDbEntity
  8
DEFPOINTS
  6
BYBLOCK
 62
     0
100
AcDbPoint
 10
266.981828
 20
554.679164
 30
0.0
  0
ENDBLK
  5
35D
100
AcDbEntity
  8
0
100
AcDbBlockEnd
  0
BLOCK
  5
34F
100
AcDbEntity
  8
0
100
AcDbBlockBegin
  2
*D3
 70
     1
 10
0.0
 20
0.0
 30
0.0
  3
*D3
  1

  0
LINE
  5
346
100
AcDbEntity
  8
0
  6
BYBLOCK
 62
     4
100
AcDbLine
 10
255.981828
 20
605.041771
 30
0.0
 11
299.238783
 21
605.041771
 31
0.0
  0
LINE
  5
347
100
AcDbEntity
  8
0
  6
BYBLOCK
 62
     4
100
AcDbLine
 10
255.981828
 20
669.041771
 30
0.0
 11
299.238783
 21
669.041771
 31
0.0
  0
LINE
  5
348
100
AcDbEntity
  8
0
  6
BYBLOCK
 62
     4
100
AcDbLine
 10
296.738783
 20
608.041771
 30
0.0
 11
296.738783
 21
666.041771
 31
0.0
  0
SOLID
  5
349
100
AcDbEntity
  8
0
  6
BYBLOCK
 62
     4
100
AcDbTrace
 10
296.238783
 20
608.041771
 30
0.0
 11
297.238783
 21
608.041771
 31
0.0
 12
296.738783
 22
605.041771
 32
0.0
 13
296.738783
 23
605.041771
 33
0.0
  0
SOLID
  5
34A
100
AcDbEntity
  8
0
  6
BYBLOCK
 62
     4
100
AcDbTrace
 10
296.238783
 20
666.041771
 30
0.0
 11
297.238783
 21
666.041771
 31
0.0
 12
296.738783
 22
669.041771
 32
0.0
 13
296.738783
 23
669.041771
 33
0.0
  0
MTEXT
  5
34B
100
AcDbEntity
  8
0
  6
BYBLOCK
 62
     2
100
AcDbMText
 10
293.738783
 20
637.041771
 30
0.0
 40
3.0
 41
0.0
 71
     5
 72
     1
  1
\A1;W=64.00
 11
0.0
 21
1.0
 31
0.0
  0
POINT
  5
34C
100
AcDbEntity
  8
DEFPOINTS
  6
BYBLOCK
 62
     0
100
AcDbPoint
 10
254.981828
 20
605.041771
 30
0.0
  0
POINT
  5
34D
100
AcDbEntity
  8
DEFPOINTS
  6
BYBLOCK
 62
     0
100
AcDbPoint
 10
254.981828
 20
669.041771
 30
0.0
  0
POINT
  5
34E
100
AcDbEntity
  8
DEFPOINTS
  6
BYBLOCK
 62
     0
100
AcDbPoint
 10
296.738783
 20
669.041771
 30
0.0
  0
ENDBLK
  5
350
100
AcDbEntity
  8
0
100
AcDbBlockEnd
  0
BLOCK
  5
FC
100
AcDbEntity
  8
0
100
AcDbBlockBegin
  2
*D4
 70
     1
 10
0.0
 20
0.0
 30
0.0
  3
*D4
  1

  0
LINE
  5
F3
100
AcDbEntity
  8
0
  6
BYBLOCK
 62
     4
100
AcDbLine
 10
402.894695
 20
606.041771
 30
0.0
 11
402.894695
 21
564.262093
 31
0.0
  0
LINE
  5
F4
100
AcDbEntity
  8
0
  6
BYBLOCK
 62
     4
100
AcDbLine
 10
449.894695
 20
604.041771
 30
0.0
 11
449.894695
 21
564.262093
 31
0.0
  0
LINE
  5
F5
100
AcDbEntity
  8
0
  6
BYBLOCK
 62
     4
100
AcDbLine
 10
405.894695
 20
566.762093
 30
0.0
 11
446.894695
 21
566.762093
 31
0.0
  0
SOLID
  5
F6
100
AcDbEntity
  8
0
  6
BYBLOCK
 62
     4
100
AcDbTrace
 10
405.894695
 20
567.262093
 30
0.0
 11
405.894695
 21
566.262093
 31
0.0
 12
402.894695
 22
566.762093
 32
0.0
 13
402.894695
 23
566.762093
 33
0.0
  0
SOLID
  5
F7
100
AcDbEntity
  8
0
  6
BYBLOCK
 62
     4
100
AcDbTrace
 10
446.894695
 20
567.262093
 30
0.0
 11
446.894695
 21
566.262093
 31
0.0
 12
449.894695
 22
566.762093
 32
0.0
 13
449.894695
 23
566.762093
 33
0.0
  0
MTEXT
  5
F8
100
AcDbEntity
  8
0
  6
BYBLOCK
 62
     2
100
AcDbMText
 10
426.394695
 20
569.762093
 30
0.0
 40
3.0
 41
0.0
 71
     5
 72
     1
  1
\A1;47.00
  0
POINT
  5
F9
100
AcDbEntity
  8
DEFPOINTS
  6
BYBLOCK
 62
     0
100
AcDbPoint
 10
402.894695
 20
607.041771
 30
0.0
  0
POINT
  5
FA
100
AcDbEntity
  8
DEFPOINTS
  6
BYBLOCK
 62
     0
100
AcDbPoint
 10
449.894695
 20
605.041771
 30
0.0
  0
POINT
  5
FB
100
AcDbEntity
  8
DEFPOINTS
  6
BYBLOCK
 62
     0
100
AcDbPoint
 10
449.894695
 20
566.762093
 30
0.0
  0
ENDBLK
  5
FD
100
AcDbEntity
  8
0
100
AcDbBlockEnd
  0
BLOCK
  5
EF
100
AcDbEntity
  8
0
100
AcDbBlockBegin
  2
*D5
 70
     1
 10
0.0
 20
0.0
 30
0.0
  3
*D5
  1

  0
LINE
  5
E5
100
AcDbEntity
  8
0
  6
BYBLOCK
 62
     4
100
AcDbLine
 10
449.894695
 20
604.041771
 30
0.0
 11
449.894695
 21
564.262093
 31
0.0
  0
LINE
  5
E6
100
AcDbEntity
  8
0
  6
BYBLOCK
 62
     4
100
AcDbLine
 10
456.894695
 20
585.52838
 30
0.0
 11
456.894695
 21
564.262093
 31
0.0
  0
LINE
  5
E7
100
AcDbEntity
  8
0
  6
BYBLOCK
 62
     4
100
AcDbLine
 10
446.894695
 20
566.762093
 30
0.0
 11
443.894695
 21
566.762093
 31
0.0
  0
LINE
  5
E8
100
AcDbEntity
  8
0
  6
BYBLOCK
 62
     4
100
AcDbLine
 10
459.894695
 20
566.762093
 30
0.0
 11
472.18041
 21
566.762093
 31
0.0
  0
SOLID
  5
E9
100
AcDbEntity
  8
0
  6
BYBLOCK
 62
     4
100
AcDbTrace
 10
446.894695
 20
567.262093
 30
0.0
 11
446.894695
 21
566.262093
 31
0.0
 12
449.894695
 22
566.762093
 32
0.0
 13
449.894695
 23
566.762093
 33
0.0
  0
SOLID
  5
EA
100
AcDbEntity
  8
0
  6
BYBLOCK
 62
     4
100
AcDbTrace
 10
459.894695
 20
567.262093
 30
0.0
 11
459.894695
 21
566.262093
 31
0.0
 12
456.894695
 22
566.762093
 32
0.0
 13
456.894695
 23
566.762093
 33
0.0
  0
MTEXT
  5
EB
100
AcDbEntity
  8
0
  6
BYBLOCK
 62
     2
100
AcDbMText
 10
467.537553
 20
569.762093
 30
0.0
 40
3.0
 41
0.0
 71
     5
 72
     1
  1
\A1;7.0
  0
POINT
  5
EC
100
AcDbEntity
  8
DEFPOINTS
  6
BYBLOCK
 62
     0
100
AcDbPoint
 10
449.894695
 20
605.041771
 30
0.0
  0
POINT
  5
ED
100
AcDbEntity
  8
DEFPOINTS
  6
BYBLOCK
 62
     0
100
AcDbPoint
 10
456.894695
 20
586.52838
 30
0.0
  0
POINT
  5
EE
100
AcDbEntity
  8
DEFPOINTS
  6
BYBLOCK
 62
     0
100
AcDbPoint
 10
456.894695
 20
566.762093
 30
0.0
  0
ENDBLK
  5
F0
100
AcDbEntity
  8
0
100
AcDbBlockEnd
  0
BLOCK
  5
E1
100
AcDbEntity
  8
0
100
AcDbBlockBegin
  2
*D6
 70
     1
 10
0.0
 20
0.0
 30
0.0
  3
*D6
  1

  0
LINE
  5
D7
100
AcDbEntity
  8
0
  6
BYBLOCK
 62
     4
100
AcDbLine
 10
402.894695
 20
606.041771
 30
0.0
 11
402.894695
 21
564.262093
 31
0.0
  0
LINE
  5
D8
100
AcDbEntity
  8
0
  6
BYBLOCK
 62
     4
100
AcDbLine
 10
395.894695
 20
597.041771
 30
0.0
 11
395.894695
 21
564.262093
 31
0.0
  0
LINE
  5
D9
100
AcDbEntity
  8
0
  6
BYBLOCK
 62
     4
100
AcDbLine
 10
405.894695
 20
566.762093
 30
0.0
 11
408.894695
 21
566.762093
 31
0.0
  0
LINE
  5
DA
100
AcDbEntity
  8
0
  6
BYBLOCK
 62
     4
100
AcDbLine
 10
392.894695
 20
566.762093
 30
0.0
 11
380.608981
 21
566.762093
 31
0.0
  0
SOLID
  5
DB
100
AcDbEntity
  8
0
  6
BYBLOCK
 62
     4
100
AcDbTrace
 10
405.894695
 20
567.262093
 30
0.0
 11
405.894695
 21
566.262093
 31
0.0
 12
402.894695
 22
566.762093
 32
0.0
 13
402.894695
 23
566.762093
 33
0.0
  0
SOLID
  5
DC
100
AcDbEntity
  8
0
  6
BYBLOCK
 62
     4
100
AcDbTrace
 10
392.894695
 20
567.262093
 30
0.0
 11
392.894695
 21
566.262093
 31
0.0
 12
395.894695
 22
566.762093
 32
0.0
 13
395.894695
 23
566.762093
 33
0.0
  0
MTEXT
  5
DD
100
AcDbEntity
  8
0
  6
BYBLOCK
 62
     2
100
AcDbMText
 10
385.251838
 20
569.762093
 30
0.0
 40
3.0
 41
0.0
 71
     5
 72
     1
  1
\A1;7.0
  0
POINT
  5
DE
100
AcDbEntity
  8
DEFPOINTS
  6
BYBLOCK
 62
     0
100
AcDbPoint
 10
402.894695
 20
607.041771
 30
0.0
  0
POINT
  5
DF
100
AcDbEntity
  8
DEFPOINTS
  6
BYBLOCK
 62
     0
100
AcDbPoint
 10
395.894695
 20
598.041771
 30
0.0
  0
POINT
  5
E0
100
AcDbEntity
  8
DEFPOINTS
  6
BYBLOCK
 62
     0
100
AcDbPoint
 10
395.894695
 20
566.762093
 30
0.0
  0
ENDBLK
  5
E2
100
AcDbEntity
  8
0
100
AcDbBlockEnd
  0
BLOCK
  5
D3
100
AcDbEntity
  8
0
100
AcDbBlockBegin
  2
*D7
 70
     1
 10
0.0
 20
0.0
 30
0.0
  3
*D7
  1

  0
LINE
  5
CA
100
AcDbEntity
  8
0
  6
BYBLOCK
 62
     4
100
AcDbLine
 10
465.894695
 20
617.041771
 30
0.0
 11
503.709812
 21
617.041771
 31
0.0
  0
LINE
  5
CB
100
AcDbEntity
  8
0
  6
BYBLOCK
 62
     4
100
AcDbLine
 10
465.894695
 20
657.041771
 30
0.0
 11
503.709812
 21
657.041771
 31
0.0
  0
LINE
  5
CC
100
AcDbEntity
  8
0
  6
BYBLOCK
 62
     4
100
AcDbLine
 10
501.209812
 20
620.041771
 30
0.0
 11
501.209812
 21
654.041771
 31
0.0
  0
SOLID
  5
CD
100
AcDbEntity
  8
0
  6
BYBLOCK
 62
     4
100
AcDbTrace
 10
500.709812
 20
620.041771
 30
0.0
 11
501.709812
 21
620.041771
 31
0.0
 12
501.209812
 22
617.041771
 32
0.0
 13
501.209812
 23
617.041771
 33
0.0
  0
SOLID
  5
CE
100
AcDbEntity
  8
0
  6
BYBLOCK
 62
     4
100
AcDbTrace
 10
500.709812
 20
654.041771
 30
0.0
 11
501.709812
 21
654.041771
 31
0.0
 12
501.209812
 22
657.041771
 32
0.0
 13
501.209812
 23
657.041771
 33
0.0
  0
MTEXT
  5
CF
100
AcDbEntity
  8
0
  6
BYBLOCK
 62
     2
100
AcDbMText
 10
498.209812
 20
637.041771
 30
0.0
 40
3.0
 41
0.0
 71
     5
 72
     1
  1
\A1;\U+220540.00 H7
 11
0.0
 21
1.0
 31
0.0
  0
POINT
  5
D0
100
AcDbEntity
  8
DEFPOINTS
  6
BYBLOCK
 62
     0
100
AcDbPoint
 10
464.894695
 20
617.041771
 30
0.0
  0
POINT
  5
D1
100
AcDbEntity
  8
DEFPOINTS
  6
BYBLOCK
 62
     0
100
AcDbPoint
 10
464.894695
 20
657.041771
 30
0.0
  0
POINT
  5
D2
100
AcDbEntity
  8
DEFPOINTS
  6
BYBLOCK
 62
     0
100
AcDbPoint
 10
501.209812
 20
657.041771
 30
0.0
  0
ENDBLK
  5
D4
100
AcDbEntity
  8
0
100
AcDbBlockEnd
  0
BLOCK
  5
C6
100
AcDbEntity
  8
0
100
AcDbBlockBegin
  2
*D8
 70
     1
 10
0.0
 20
0.0
 30
0.0
  3
*D8
  1

  0
LINE
  5
BC
100
AcDbEntity
  8
0
  6
BYBLOCK
 62
     4
100
AcDbLine
 10
402.894695
 20
647.541771
 30
0.0
 11
402.894695
 21
665.828788
 31
0.0
  0
LINE
  5
BD
100
AcDbEntity
  8
0
  6
BYBLOCK
 62
     4
100
AcDbLine
 10
385.894695
 20
648.041771
 30
0.0
 11
385.894695
 21
665.828788
 31
0.0
  0
LINE
  5
BE
100
AcDbEntity
  8
0
  6
BYBLOCK
 62
     4
100
AcDbLine
 10
405.894695
 20
663.328788
 30
0.0
 11
408.894695
 21
663.328788
 31
0.0
  0
LINE
  5
BF
100
AcDbEntity
  8
0
  6
BYBLOCK
 62
     4
100
AcDbLine
 10
382.894695
 20
663.328788
 30
0.0
 11
365.466124
 21
663.328788
 31
0.0
  0
SOLID
  5
C0
100
AcDbEntity
  8
0
  6
BYBLOCK
 62
     4
100
AcDbTrace
 10
405.894695
 20
663.828788
 30
0.0
 11
405.894695
 21
662.828788
 31
0.0
 12
402.894695
 22
663.328788
 32
0.0
 13
402.894695
 23
663.328788
 33
0.0
  0
SOLID
  5
C1
100
AcDbEntity
  8
0
  6
BYBLOCK
 62
     4
100
AcDbTrace
 10
382.894695
 20
663.828788
 30
0.0
 11
382.894695
 21
662.828788
 31
0.0
 12
385.894695
 22
663.328788
 32
0.0
 13
385.894695
 23
663.328788
 33
0.0
  0
MTEXT
  5
C2
100
AcDbEntity
  8
0
  6
BYBLOCK
 62
     2
100
AcDbMText
 10
372.68041
 20
666.328788
 30
0.0
 40
3.0
 41
0.0
 71
     5
 72
     1
  1
\A1;17.00
  0
POINT
  5
C3
100
AcDbEntity
  8
DEFPOINTS
  6
BYBLOCK
 62
     0
100
AcDbPoint
 10
402.894695
 20
646.541771
 30
0.0
  0
POINT
  5
C4
100
AcDbEntity
  8
DEFPOINTS
  6
BYBLOCK
 62
     0
100
AcDbPoint
 10
385.894695
 20
647.041771
 30
0.0
  0
POINT
  5
C5
100
AcDbEntity
  8
DEFPOINTS
  6
BYBLOCK
 62
     0
100
AcDbPoint
 10
385.894695
 20
663.328788
 30
0.0
  0
ENDBLK
  5
C7
100
AcDbEntity
  8
0
100
AcDbBlockEnd
  0
BLOCK
  5
B8
100
AcDbEntity
  8
0
100
AcDbBlockBegin
  2
*D9
 70
     1
 10
0.0
 20
0.0
 30
0.0
  3
*D9
  1

  0
LINE
  5
AE
100
AcDbEntity
  8
0
  6
BYBLOCK
 62
     4
100
AcDbLine
 10
384.894695
 20
647.041771
 30
0.0
 11
365.744881
 21
647.041771
 31
0.0
  0
LINE
  5
AF
100
AcDbEntity
  8
0
  6
BYBLOCK
 62
     4
100
AcDbLine
 10
384.894695
 20
627.041771
 30
0.0
 11
365.744881
 21
627.041771
 31
0.0
  0
LINE
  5
B0
100
AcDbEntity
  8
0
  6
BYBLOCK
 62
     4
100
AcDbLine
 10
368.244881
 20
650.041771
 30
0.0
 11
368.244881
 21
653.041771
 31
0.0
  0
LINE
  5
B1
100
AcDbEntity
  8
0
  6
BYBLOCK
 62
     4
100
AcDbLine
 10
368.244881
 20
624.041771
 30
0.0
 11
368.244881
 21
594.6132
 31
0.0
  0
SOLID
  5
B2
100
AcDbEntity
  8
0
  6
BYBLOCK
 62
     4
100
AcDbTrace
 10
367.744881
 20
650.041771
 30
0.0
 11
368.744881
 21
650.041771
 31
0.0
 12
368.244881
 22
647.041771
 32
0.0
 13
368.244881
 23
647.041771
 33
0.0
  0
SOLID
  5
B3
100
AcDbEntity
  8
0
  6
BYBLOCK
 62
     4
100
AcDbTrace
 10
367.744881
 20
624.041771
 30
0.0
 11
368.744881
 21
624.041771
 31
0.0
 12
368.244881
 22
627.041771
 32
0.0
 13
368.244881
 23
627.041771
 33
0.0
  0
MTEXT
  5
B4
100
AcDbEntity
  8
0
  6
BYBLOCK
 62
     2
100
AcDbMText
 10
365.244881
 20
607.827485
 30
0.0
 40
3.0
 41
0.0
 71
     5
 72
     1
  1
\A1;\U+220520.00 H7
 11
0.0
 21
1.0
 31
0.0
  0
POINT
  5
B5
100
AcDbEntity
  8
DEFPOINTS
  6
BYBLOCK
 62
     0
100
AcDbPoint
 10
385.894695
 20
647.041771
 30
0.0
  0
POINT
  5
B6
100
AcDbEntity
  8
DEFPOINTS
  6
BYBLOCK
 62
     0
100
AcDbPoint
 10
385.894695
 20
627.041771
 30
0.0
  0
POINT
  5
B7
100
AcDbEntity
  8
DEFPOINTS
  6
BYBLOCK
 62
     0
100
AcDbPoint
 10
368.244881
 20
627.041771
 30
0.0
  0
ENDBLK
  5
B9
100
AcDbEntity
  8
0
100
AcDbBlockEnd
  0
BLOCK
  5
AA
100
AcDbEntity
  8
0
100
AcDbBlockBegin
  2
*D10
 70
     1
 10
0.0
 20
0.0
 30
0.0
  3
*D10
  1

  0
LINE
  5
A1
100
AcDbEntity
  8
0
  6
BYBLOCK
 62
     4
100
AcDbLine
 10
390.472046
 20
648.041771
 30
0.0
 11
355.867468
 21
648.041771
 31
0.0
  0
LINE
  5
A2
100
AcDbEntity
  8
0
  6
BYBLOCK
 62
     4
100
AcDbLine
 10
390.472046
 20
626.041771
 30
0.0
 11
355.867468
 21
626.041771
 31
0.0
  0
LINE
  5
A3
100
AcDbEntity
  8
0
  6
BYBLOCK
 62
     4
100
AcDbLine
 10
358.367468
 20
645.041771
 30
0.0
 11
358.367468
 21
629.041771
 31
0.0
  0
SOLID
  5
A4
100
AcDbEntity
  8
0
  6
BYBLOCK
 62
     4
100
AcDbTrace
 10
357.867468
 20
645.041771
 30
0.0
 11
358.867468
 21
645.041771
 31
0.0
 12
358.367468
 22
648.041771
 32
0.0
 13
358.367468
 23
648.041771
 33
0.0
  0
SOLID
  5
A5
100
AcDbEntity
  8
0
  6
BYBLOCK
 62
     4
100
AcDbTrace
 10
357.867468
 20
629.041771
 30
0.0
 11
358.867468
 21
629.041771
 31
0.0
 12
358.367468
 22
626.041771
 32
0.0
 13
358.367468
 23
626.041771
 33
0.0
  0
MTEXT
  5
A6
100
AcDbEntity
  8
0
  6
BYBLOCK
 62
     2
100
AcDbMText
 10
355.367468
 20
637.041771
 30
0.0
 40
3.0
 41
0.0
 71
     5
 72
     1
  1
\A1;22.00
 11
0.0
 21
1.0
 31
0.0
  0
POINT
  5
A7
100
AcDbEntity
  8
DEFPOINTS
  6
BYBLOCK
 62
     0
100
AcDbPoint
 10
391.472046
 20
648.041771
 30
0.0
  0
POINT
  5
A8
100
AcDbEntity
  8
DEFPOINTS
  6
BYBLOCK
 62
     0
100
AcDbPoint
 10
391.472046
 20
626.041771
 30
0.0
  0
POINT
  5
A9
100
AcDbEntity
  8
DEFPOINTS
  6
BYBLOCK
 62
     0
100
AcDbPoint
 10
358.367468
 20
626.041771
 30
0.0
  0
ENDBLK
  5
AB
100
AcDbEntity
  8
0
100
AcDbBlockEnd
  0
BLOCK
  5
9D
100
AcDbEntity
  8
0
100
AcDbBlockBegin
  2
*D11
 70
     1
 10
0.0
 20
0.0
 30
0.0
  3
*D11
  1

  0
LINE
  5
93
100
AcDbEntity
  8
0
  6
BYBLOCK
 62
     4
100
AcDbLine
 10
395.894695
 20
625.041771
 30
0.0
 11
395.894695
 21
601.253749
 31
0.0
  0
LINE
  5
94
100
AcDbEntity
  8
0
  6
BYBLOCK
 62
     4
100
AcDbLine
 10
390.894695
 20
626.041771
 30
0.0
 11
390.894695
 21
601.253749
 31
0.0
  0
LINE
  5
95
100
AcDbEntity
  8
0
  6
BYBLOCK
 62
     4
100
AcDbLine
 10
398.894695
 20
603.753749
 30
0.0
 11
401.894695
 21
603.753749
 31
0.0
  0
LINE
  5
96
100
AcDbEntity
  8
0
  6
BYBLOCK
 62
     4
100
AcDbLine
 10
387.894695
 20
603.753749
 30
0.0
 11
375.608981
 21
603.753749
 31
0.0
  0
SOLID
  5
97
100
AcDbEntity
  8
0
  6
BYBLOCK
 62
     4
100
AcDbTrace
 10
398.894695
 20
604.253749
 30
0.0
 11
398.894695
 21
603.253749
 31
0.0
 12
395.894695
 22
603.753749
 32
0.0
 13
395.894695
 23
603.753749
 33
0.0
  0
SOLID
  5
98
100
AcDbEntity
  8
0
  6
BYBLOCK
 62
     4
100
AcDbTrace
 10
387.894695
 20
604.253749
 30
0.0
 11
387.894695
 21
603.253749
 31
0.0
 12
390.894695
 22
603.753749
 32
0.0
 13
390.894695
 23
603.753749
 33
0.0
  0
MTEXT
  5
99
100
AcDbEntity
  8
0
  6
BYBLOCK
 62
     2
100
AcDbMText
 10
380.251838
 20
606.753749
 30
0.0
 40
3.0
 41
0.0
 71
     5
 72
     1
  1
\A1;5.0
  0
POINT
  5
9A
100
AcDbEntity
  8
DEFPOINTS
  6
BYBLOCK
 62
     0
100
AcDbPoint
 10
395.894695
 20
626.041771
 30
0.0
  0
POINT
  5
9B
100
AcDbEntity
  8
DEFPOINTS
  6
BYBLOCK
 62
     0
100
AcDbPoint
 10
390.894695
 20
627.041771
 30
0.0
  0
POINT
  5
9C
100
AcDbEntity
  8
DEFPOINTS
  6
BYBLOCK
 62
     0
100
AcDbPoint
 10
390.894695
 20
603.753749
 30
0.0
  0
ENDBLK
  5
9E
100
AcDbEntity
  8
0
100
AcDbBlockEnd
  0
BLOCK
  5
8F
100
AcDbEntity
  8
0
100
AcDbBlockBegin
  2
*D12
 70
     1
 10
0.0
 20
0.0
 30
0.0
  3
*D12
  1

  0
LINE
  5
84
100
AcDbEntity
  8
0
  6
BYBLOCK
 62
     4
100
AcDbLine
 10
381.894695
 20
711.541771
 30
0.0
 11
365.71853
 21
711.541771
 31
0.0
  0
LINE
  5
85
100
AcDbEntity
  8
0
  6
BYBLOCK
 62
     4
100
AcDbLine
 10
381.894695
 20
703.541771
 30
0.0
 11
365.71853
 21
703.541771
 31
0.0
  0
LINE
  5
86
100
AcDbEntity
  8
0
  6
BYBLOCK
 62
     4
100
AcDbLine
 10
368.21853
 20
714.541771
 30
0.0
 11
368.21853
 21
717.541771
 31
0.0
  0
LINE
  5
87
100
AcDbEntity
  8
0
  6
BYBLOCK
 62
     4
100
AcDbLine
 10
368.21853
 20
700.541771
 30
0.0
 11
368.21853
 21
673.970343
 31
0.0
  0
SOLID
  5
88
100
AcDbEntity
  8
0
  6
BYBLOCK
 62
     4
100
AcDbTrace
 10
367.71853
 20
714.541771
 30
0.0
 11
368.71853
 21
714.541771
 31
0.0
 12
368.21853
 22
711.541771
 32
0.0
 13
368.21853
 23
711.541771
 33
0.0
  0
SOLID
  5
89
100
AcDbEntity
  8
0
  6
BYBLOCK
 62
     4
100
AcDbTrace
 10
367.71853
 20
700.541771
 30
0.0
 11
368.71853
 21
700.541771
 31
0.0
 12
368.21853
 22
703.541771
 32
0.0
 13
368.21853
 23
703.541771
 33
0.0
  0
MTEXT
  5
8A
100
AcDbEntity
  8
0
  6
BYBLOCK
 62
     2
100
AcDbMText
 10
365.21853
 20
685.756057
 30
0.0
 40
3.0
 41
0.0
 71
     5
 72
     1
  1
\A1;\U+22058.00 H7
 11
0.0
 21
1.0
 31
0.0
  0
POINT
  5
8B
100
AcDbEntity
  8
DEFPOINTS
  6
BYBLOCK
 62
     0
100
AcDbPoint
 10
382.894695
 20
711.541771
 30
0.0
  0
POINT
  5
8D
100
AcDbEntity
  8
DEFPOINTS
  6
BYBLOCK
 62
     0
100
AcDbPoint
 10
382.894695
 20
703.541771
 30
0.0
  0
POINT
  5
8E
100
AcDbEntity
  8
DEFPOINTS
  6
BYBLOCK
 62
     0
100
AcDbPoint
 10
368.21853
 20
703.541771
 30
0.0
  0
ENDBLK
  5
90
100
AcDbEntity
  8
0
100
AcDbBlockEnd
  0
ENDSEC
  0
SECTION
  2
ENTITIES
  0
LINE
  5
20
100
AcDbEntity
  8
M01
100
AcDbLine
 10
443.882707
 20
771.277439
 30
0.0
 11
445.862416
 21
772.484168
 31
0.0
  0
LINE
  5
22
100
AcDbEntity
  8
M01
100
AcDbLine
 10
451.616674
 20
782.730666
 30
0.0
 11
451.616674
 21
791.305478
 31
0.0
  0
LINE
  5
23
100
AcDbEntity
  8
M01
100
AcDbLine
 10
447.616674
 20
782.730666
 30
0.0
 11
447.616674
 21
791.305478
 31
0.0
  0
ARC
  5
24
100
AcDbEntity
  8
M01
100
AcDbCircle
 10
439.616674
 20
782.730666
 30
0.0
 40
12.0
100
AcDbArc
 50
301.364349
 51
0.0
  0
ARC
  5
25
100
AcDbEntity
  8
M01
100
AcDbCircle
 10
439.616674
 20
782.730666
 30
0.0
 40
8.0
100
AcDbArc
 50
308.846454
 51
0.0
  0
LINE
  5
26
100
AcDbEntity
  8
M01
100
AcDbLine
 10
430.251346
 20
767.652986
 30
0.0
 11
440.478759
 21
773.887094
 31
0.0
  0
LINE
  5
27
100
AcDbEntity
  8
M01
100
AcDbLine
 10
432.33326
 20
764.237487
 30
0.0
 11
432.656793
 21
764.434696
 31
0.0
  0
LINE
  5
28
100
AcDbEntity
  8
M01
100
AcDbLine
 10
430.894695
 20
757.235079
 30
0.0
 11
430.894695
 21
756.641771
 31
0.0
  0
LINE
  5
29
100
AcDbEntity
  8
M01
100
AcDbLine
 10
426.894695
 20
761.675862
 30
0.0
 11
426.894695
 21
758.950018
 31
0.0
  0
ARC
  5
2A
100
AcDbEntity
  8
M01
100
AcDbCircle
 10
433.894695
 20
761.675862
 30
0.0
 40
3.0
100
AcDbArc
 50
121.364349
 51
151.672691
  0
ARC
  5
2B
100
AcDbEntity
  8
M01
100
AcDbCircle
 10
433.894695
 20
761.675862
 30
0.0
 40
7.0
100
AcDbArc
 50
121.364349
 51
180.0
  0
ARC
  5
2C
100
AcDbEntity
  8
M01
100
AcDbCircle
 10
433.894695
 20
756.641771
 30
0.0
 40
7.0
100
AcDbArc
 50
202.678679
 51
270.0
  0
ARC
  5
2D
100
AcDbEntity
  8
M01
100
AcDbCircle
 10
433.894695
 20
756.641771
 30
0.0
 40
3.0
100
AcDbArc
 50
180.0
 51
270.0
  0
ARC
  5
2E
100
AcDbEntity
  8
M01
100
AcDbCircle
 10
432.634558
 20
775.458246
 30
0.0
 40
12.0
100
AcDbArc
 50
313.586993
 51
0.0
  0
ARC
  5
2F
100
AcDbEntity
  8
M01
100
AcDbCircle
 10
432.634558
 20
775.458246
 30
0.0
 40
8.0
100
AcDbArc
 50
313.586993
 51
0.0
  0
LINE
  5
30
100
AcDbEntity
  8
M01
100
AcDbLine
 10
433.894695
 20
753.641771
 30
0.0
 11
438.894695
 21
753.641771
 31
0.0
  0
LINE
  5
31
100
AcDbEntity
  8
M01
100
AcDbLine
 10
434.894695
 20
753.641771
 30
0.0
 11
434.894695
 21
749.641771
 31
0.0
  0
LINE
  5
32
100
AcDbEntity
  8
M01
100
AcDbLine
 10
438.894695
 20
753.641771
 30
0.0
 11
438.894695
 21
749.641771
 31
0.0
  0
LINE
  5
33
100
AcDbEntity
  8
M01
100
AcDbLine
 10
403.894695
 20
749.641771
 30
0.0
 11
418.119234
 21
749.641771
 31
0.0
  0
LINE
  5
34
100
AcDbEntity
  8
M01
100
AcDbLine
 10
418.119234
 20
753.641771
 30
0.0
 11
413.894695
 21
753.641771
 31
0.0
  0
ARC
  5
35
100
AcDbEntity
  8
M01
100
AcDbCircle
 10
418.119234
 20
761.641771
 30
0.0
 40
12.0
100
AcDbArc
 50
270.0
 51
313.586993
  0
ARC
  5
36
100
AcDbEntity
  8
M01
100
AcDbCircle
 10
418.119234
 20
761.641771
 30
0.0
 40
8.0
100
AcDbArc
 50
270.0
 51
313.586993
  0
LINE
  5
37
100
AcDbEntity
  8
M01
100
AcDbLine
 10
417.894695
 20
753.641771
 30
0.0
 11
417.894695
 21
749.641771
 31
0.0
  0
LINE
  5
38
100
AcDbEntity
  8
M01
100
AcDbLine
 10
413.894695
 20
753.641771
 30
0.0
 11
413.894695
 21
749.641771
 31
0.0
  0
LINE
  5
39
100
AcDbEntity
  8
M01
100
AcDbLine
 10
440.90802
 20
766.766305
 30
0.0
 11
426.392695
 21
752.94983
 31
0.0
  0
LINE
  5
3A
100
AcDbEntity
  8
M01
100
AcDbLine
 10
438.150199
 20
769.663619
 30
0.0
 11
423.634875
 21
755.847144
 31
0.0
  0
LINE
  5
3B
100
AcDbEntity
  8
M01
100
AcDbLine
 10
444.634558
 20
791.296736
 30
0.0
 11
444.634558
 21
775.458246
 31
0.0
  0
LINE
  5
3C
100
AcDbEntity
  8
M01
100
AcDbLine
 10
440.634558
 20
791.296736
 30
0.0
 11
440.634558
 21
775.458246
 31
0.0
  0
MTEXT
  5
3D
100
AcDbEntity
  8
0
  6
BYBLOCK
 62
     2
100
AcDbMText
 10
200.06451
 20
712.292629
 30
0.0
 40
3.0
 41
0.0
 71
     4
 72
     1
  1
M12 PLATE RETAINING SCREWS SHOULD ALSO BE FITTED.\PMINIMUM 2 PER DROP & ALSO AROUND MANIFOLD POCKET.
  0
LINE
  5
3E
100
AcDbEntity
  8
M01
100
AcDbLine
 10
440.644695
 20
734.985871
 30
0.0
 11
447.144695
 21
734.985871
 31
0.0
  0
LINE
  5
3F
100
AcDbEntity
  8
M01
100
AcDbLine
 10
440.644695
 20
743.097671
 30
0.0
 11
447.144695
 21
743.097671
 31
0.0
  0
LINE
  5
40
100
AcDbEntity
  8
M01
100
AcDbLine
 10
440.644695
 20
734.985871
 30
0.0
 11
440.644695
 21
733.041771
 31
0.0
  0
ARC
  5
41
100
AcDbEntity
  8
M01
100
AcDbCircle
 10
439.394695
 20
736.547121
 30
0.0
 40
2.0
100
AcDbArc
 50
308.682187
 51
0.0
  0
ARC
  5
42
100
AcDbEntity
  8
M01
100
AcDbCircle
 10
439.394695
 20
741.536421
 30
0.0
 40
2.0
100
AcDbArc
 50
0.0
 51
51.317813
  0
LINE
  5
43
100
AcDbEntity
  8
M01
100
AcDbLine
 10
440.644695
 20
745.041771
 30
0.0
 11
440.644695
 21
743.097671
 31
0.0
  0
LINE
  5
44
100
AcDbEntity
  8
M01
100
AcDbLine
 10
441.394695
 20
741.536421
 30
0.0
 11
441.394695
 21
736.547121
 31
0.0
  0
LINE
  5
45
100
AcDbEntity
  8
M01
100
AcDbLine
 10
447.144695
 20
734.985871
 30
0.0
 11
447.144695
 21
733.041771
 31
0.0
  0
ARC
  5
46
100
AcDbEntity
  8
M01
100
AcDbCircle
 10
448.394695
 20
736.547121
 30
0.0
 40
2.0
100
AcDbArc
 50
180.0
 51
231.317813
  0
ARC
  5
47
100
AcDbEntity
  8
M01
100
AcDbCircle
 10
448.394695
 20
741.536421
 30
0.0
 40
2.0
100
AcDbArc
 50
128.682187
 51
180.0
  0
LINE
  5
48
100
AcDbEntity
  8
M01
100
AcDbLine
 10
447.144695
 20
745.041771
 30
0.0
 11
447.144695
 21
743.097671
 31
0.0
  0
LINE
  5
49
100
AcDbEntity
  8
M01
100
AcDbLine
 10
446.394695
 20
741.536421
 30
0.0
 11
446.394695
 21
736.547121
 31
0.0
  0
LINE
  5
4A
100
AcDbEntity
  8
DIMS
 62
     4
100
AcDbLine
 10
426.394695
 20
640.441771
 30
0.0
 11
426.394695
 21
642.741771
 31
0.0
  0
LINE
  5
4C
100
AcDbEntity
  8
DIMS
 62
     4
100
AcDbLine
 10
426.394695
 20
633.641771
 30
0.0
 11
426.394695
 21
631.341771
 31
0.0
  0
LINE
  5
4D
100
AcDbEntity
  8
DIMS
 62
     4
100
AcDbLine
 10
426.394695
 20
635.341771
 30
0.0
 11
426.394695
 21
638.741771
 31
0.0
  0
LINE
  5
4E
100
AcDbEntity
  8
DIMS
 62
     4
100
AcDbLine
 10
445.894695
 20
617.441771
 30
0.0
 11
445.894695
 21
619.741771
 31
0.0
  0
LINE
  5
4F
100
AcDbEntity
  8
DIMS
 62
     4
100
AcDbLine
 10
445.894695
 20
610.641771
 30
0.0
 11
445.894695
 21
608.341771
 31
0.0
  0
LINE
  5
50
100
AcDbEntity
  8
DIMS
 62
     4
100
AcDbLine
 10
449.294695
 20
614.041771
 30
0.0
 11
451.594695
 21
614.041771
 31
0.0
  0
LINE
  5
51
100
AcDbEntity
  8
DIMS
 62
     4
100
AcDbLine
 10
442.494695
 20
614.041771
 30
0.0
 11
440.194695
 21
614.041771
 31
0.0
  0
LINE
  5
52
100
AcDbEntity
  8
DIMS
 62
     4
100
AcDbLine
 10
445.894695
 20
612.341771
 30
0.0
 11
445.894695
 21
615.741771
 31
0.0
  0
LINE
  5
53
100
AcDbEntity
  8
DIMS
 62
     4
100
AcDbLine
 10
444.194695
 20
614.041771
 30
0.0
 11
447.594695
 21
614.041771
 31
0.0
  0
LINE
  5
54
100
AcDbEntity
  8
DIMS
 62
     4
100
AcDbLine
 10
406.894695
 20
617.441771
 30
0.0
 11
406.894695
 21
619.741771
 31
0.0
  0
LINE
  5
55
100
AcDbEntity
  8
DIMS
 62
     4
100
AcDbLine
 10
406.894695
 20
610.641771
 30
0.0
 11
406.894695
 21
608.341771
 31
0.0
  0
LINE
  5
56
100
AcDbEntity
  8
DIMS
 62
     4
100
AcDbLine
 10
410.294695
 20
614.041771
 30
0.0
 11
412.594695
 21
614.041771
 31
0.0
  0
LINE
  5
57
100
AcDbEntity
  8
DIMS
 62
     4
100
AcDbLine
 10
403.494695
 20
614.041771
 30
0.0
 11
401.194695
 21
614.041771
 31
0.0
  0
LINE
  5
58
100
AcDbEntity
  8
DIMS
 62
     4
100
AcDbLine
 10
406.894695
 20
612.341771
 30
0.0
 11
406.894695
 21
615.741771
 31
0.0
  0
LINE
  5
59
100
AcDbEntity
  8
DIMS
 62
     4
100
AcDbLine
 10
405.194695
 20
614.041771
 30
0.0
 11
408.594695
 21
614.041771
 31
0.0
  0
HATCH
  5
5A
100
AcDbEntity
  8
HATCH
100
AcDbHatch
 10
0.0
 20
0.0
 30
0.0
210
0.0
220
0.0
230
1.0
  2
_U
 70
     0
 71
     0
 91
        3
 92
        7
 72
     1
 73
     1
 93
       29
 10
449.8946954587715
 20
711.0417711365678
 42
0.0
 10
447.8946954587716
 20
713.0417711365678
 42
0.0
 10
408.8946954587716
 20
713.0417711365678
 42
0.0
 10
408.8946954587716
 20
701.0417711365678
 42
0.0
 10
402.8946954587717
 20
701.0417711365678
 42
0.0
 10
402.8946954587717
 20
646.5417711365677
 42
0.0
 10
406.8946954587716
 20
646.5417711365678
 42
0.0
 10
407.8946954587716
 20
646.5417711365678
 42
0.0
 10
407.8946954587716
 20
645.5417711365678
 42
0.0
 10
407.8946954587717
 20
637.0417711365678
 42
0.0
 10
422.3946954587715
 20
637.0417711365678
 42
-0.4142135623730951
 10
426.3946954587715
 20
641.0417711365678
 42
0.0
 10
439.8946954587716
 20
641.0417711365678
 42
0.0
 10
439.8946954587716
 20
646.0417711365677
 42
0.0
 10
439.8946954587716
 20
647.0417711365676
 42
0.0
 10
440.8946954587716
 20
647.0417711365676
 42
0.0
 10
449.3946954587716
 20
647.0417711365676
 42
0.0
 10
449.8946954587716
 20
647.5417711365678
 42
0.0
 10
449.8946954587715
 20
660.0417711365679
 42
0.0
 10
442.5946954587714
 20
660.0417711365679
 42
0.0
 10
440.0946954587715
 20
660.0417711365678
 42
0.0
 10
440.0946954587715
 20
660.741771136568
 42
0.0
 10
438.5946954587716
 20
660.7417711365679
 42
0.0
 10
437.2667898396354
 20
663.0417711365678
 42
0.0
 10
438.5946954587715
 20
665.341771136568
 42
0.0
 10
440.0946954587715
 20
665.341771136568
 42
0.0
 10
440.0946954587716
 20
666.041771136568
 42
0.0
 10
442.5946954587713
 20
666.0417711365679
 42
0.0
 10
449.8946954587715
 20
666.0417711365678
 42
0.0
 97
        0
 92
        7
 72
     1
 73
     1
 93
       27
 10
449.8946954587716
 20
610.0417711365678
 42
0.0
 10
445.8946954587715
 20
610.0417711365678
 42
-0.4142135623730951
 10
441.8946954587715
 20
614.0417711365678
 42
-0.4142135623730951
 10
445.8946954587715
 20
618.0417711365678
 42
0.0
 10
449.8946954587715
 20
618.0417711365678
 42
0.0
 10
449.8946954587716
 20
626.541771136568
 42
0.0
 10
449.3946954587717
 20
627.0417711365678
 42
0.0
 10
440.8946954587716
 20
627.0417711365678
 42
0.0
 10
439.8946954587716
 20
627.0417711365681
 42
0.0
 10
439.8946954587716
 20
628.0417711365679
 42
0.0
 10
439.8946954587716
 20
633.0417711365678
 42
0.0
 10
426.3946954587715
 20
633.0417711365678
 42
-0.4142135623730951
 10
422.3946954587715
 20
637.0417711365678
 42
0.0
 10
407.8946954587715
 20
637.0417711365678
 42
0.0
 10
407.8946954587716
 20
628.5417711365678
 42
0.0
 10
407.8946954587716
 20
627.5417711365678
 42
0.0
 10
406.8946954587716
 20
627.5417711365678
 42
0.0
 10
402.8946954587717
 20
627.5417711365678
 42
0.0
 10
402.8946954587717
 20
618.0417711365679
 42
0.0
 10
406.8946954587716
 20
618.0417711365678
 42
-0.4142135623730868
 10
410.8946954587715
 20
614.0417711365678
 42
-0.4142135623730951
 10
406.8946954587715
 20
610.0417711365678
 42
0.0
 10
402.8946954587716
 20
610.0417711365678
 42
0.0
 10
402.8946954587716
 20
607.041771136568
 42
0.0
 10
404.8946954587716
 20
605.0417711365678
 42
0.0
 10
447.8946954587716
 20
605.0417711365678
 42
0.0
 10
449.8946954587716
 20
607.0417711365679
 42
0.0
 97
        0
 92
       24
 93
        4
 72
     1
 10
417.973189
 20
619.885338
 11
432.087475
 21
619.885338
 72
     1
 10
432.087475
 20
619.885338
 11
432.087475
 21
622.885338
 72
     1
 10
432.087475
 20
622.885338
 11
417.973189
 21
622.885338
 72
     1
 10
417.973189
 20
622.885338
 11
417.973189
 21
619.885338
 97
        0
 75
     0
 76
     0
 52
45.0
 41
6.0
 77
     0
 78
     1
 53
45.0
 43
-371.695412
 44
204.482545
 45
-4.242640687119284
 46
4.242640687119285
 79
     0
 47
0.350126
 98
        2
 10
431.112223
 20
679.934002
 10
425.507887
 20
609.908731
  0
HATCH
  5
5B
100
AcDbEntity
  8
HATCH
100
AcDbHatch
 10
0.0
 20
0.0
 30
0.0
210
0.0
220
0.0
230
1.0
  2
_U
 70
     0
 71
     1
 91
        2
 92
        7
 72
     1
 73
     1
 93
        2
 10
410.8946954587715
 20
614.0417711365678
 42
1.0
 10
402.8946954587715
 20
614.0417711365678
 42
1.0
 97
        1
330
61
 92
        7
 72
     1
 73
     1
 93
        2
 10
441.8946954587715
 20
614.0417711365678
 42
1.0
 10
449.8946954587715
 20
614.0417711365678
 42
1.0
 97
        1
330
60
 75
     0
 76
     0
 52
45.0
 41
0.8
 77
     0
 78
     1
 53
45.0
 43
-371.695412
 44
204.482545
 45
-0.565685424949238
 46
0.565685424949238
 79
     0
 47
0.095608
 98
        2
 10
407.028044
 20
613.74113
 10
446.052235
 20
614.888427
  0
LINE
  5
5C
100
AcDbEntity
  8
M01
100
AcDbLine
 10
445.894695
 20
610.041771
 30
0.0
 11
449.894695
 21
610.041771
 31
0.0
  0
LINE
  5
5D
100
AcDbEntity
  8
M01
100
AcDbLine
 10
445.894695
 20
618.041771
 30
0.0
 11
449.894695
 21
618.041771
 31
0.0
  0
LINE
  5
5E
100
AcDbEntity
  8
M01
100
AcDbLine
 10
406.894695
 20
610.041771
 30
0.0
 11
402.894695
 21
610.041771
 31
0.0
  0
LINE
  5
5F
100
AcDbEntity
  8
M01
100
AcDbLine
 10
406.894695
 20
618.041771
 30
0.0
 11
402.894695
 21
618.041771
 31
0.0
  0
CIRCLE
  5
60
102
{ACAD_REACTORS
330
5B
102
}
100
AcDbEntity
  8
M01
100
AcDbCircle
 10
445.894695
 20
614.041771
 30
0.0
 40
4.0
  0
CIRCLE
  5
61
102
{ACAD_REACTORS
330
5B
102
}
100
AcDbEntity
  8
M01
100
AcDbCircle
 10
406.894695
 20
614.041771
 30
0.0
 40
4.0
  0
HATCH
  5
62
100
AcDbEntity
  8
HATCH
100
AcDbHatch
 10
0.0
 20
0.0
 30
0.0
210
0.0
220
0.0
230
1.0
  2
_U
 70
     0
 71
     1
 91
        4
 92
        7
 72
     0
 73
     1
 93
        9
 10
455.8946954587715
 20
668.541771136568
 10
455.8946954587717
 20
670.3417711365679
 10
455.1946954587714
 20
671.041771136568
 10
450.5946954587716
 20
671.041771136568
 10
449.8946954587715
 20
670.341771136568
 10
449.8946954587715
 20
666.7417711365678
 10
451.8946954587715
 20
666.7417711365681
 10
451.8946954587715
 20
668.291771136568
 10
451.8946954587717
 20
668.5417711365678
 97
        9
330
194
330
198
330
193
330
1E5
330
79
330
69
330
7E
330
6C
330
197
 92
        7
 72
     1
 73
     1
 93
       16
 10
449.8946954587716
 20
647.0417711365676
 42
0.0
 10
440.8946954587716
 20
647.0417711365676
 42
0.0
 10
439.8946954587716
 20
646.0417711365677
 42
0.0
 10
439.8946954587717
 20
641.0417711365678
 42
0.0
 10
458.1959098056704
 20
640.0826451344637
 42
-0.1092323044357274
 10
460.8946954587716
 20
646.2069225264794
 42
0.0
 10
460.8946954587717
 20
656.3417711365677
 42
0.0
 10
460.1946954587715
 20
657.0417711365678
 42
0.0
 10
458.8946954587712
 20
657.0417711365678
 42
0.0
 10
458.8946954587715
 20
656.5417711365678
 42
0.0
 10
455.8946954587717
 20
656.5417711365678
 42
0.0
 10
455.8946954587717
 20
657.541771136568
 42
0.0
 10
451.8946954587715
 20
657.541771136568
 42
0.0
 10
451.8946954587715
 20
657.791771136568
 42
0.0
 10
451.8946954587715
 20
659.3417711365678
 42
0.0
 10
449.8946954587716
 20
659.341771136568
 42
0.0
 97
       16
330
189
330
18C
330
186
330
185
330
197
330
6D
330
6B
330
69
330
78
330
68
330
1A1
330
19D
330
19F
330
17A
330
17B
330
18A
 92
        7
 72
     1
 73
     1
 93
       16
 10
449.8946954587716
 20
607.0417711365678
 42
0.0
 10
449.8946954587715
 20
605.0417711365678
 42
0.0
 10
450.5946954587716
 20
604.3417711365678
 42
0.0
 10
455.1946954587717
 20
604.3417711365679
 42
0.0
 10
455.8946954587715
 20
605.0417711365678
 42
0.0
 10
455.8946954587715
 20
617.5417711365678
 42
0.0
 10
458.8946954587719
 20
617.5417711365678
 42
0.0
 10
458.8946954587716
 20
617.0417711365678
 42
0.0
 10
460.194695458772
 20
617.0417711365678
 42
0.0
 10
460.8946954587718
 20
617.7417711365677
 42
0.0
 10
460.8946954587717
 20
627.8766197466561
 42
-0.1092323044357282
 10
458.1959098056704
 20
634.0008971386716
 42
0.0
 10
439.8946954587717
 20
633.0417711365679
 42
0.0
 10
439.8946954587715
 20
628.041771136568
 42
0.0
 10
440.8946954587716
 20
627.0417711365679
 42
0.0
 10
449.8946954587717
 20
627.0417711365678
 42
0.0
 97
       16
330
177
330
179
330
19F
330
19E
330
1A0
330
18E
330
110
330
190
330
192
330
191
330
183
330
184
330
182
330
18B
330
188
330
18A
 92
       24
 93
        4
 72
     1
 10
441.901347
 20
642.363228
 11
456.272776
 21
642.363228
 72
     1
 10
456.272776
 20
642.363228
 11
456.272776
 21
645.363228
 72
     1
 10
456.272776
 20
645.363228
 11
441.901347
 21
645.363228
 72
     1
 10
441.901347
 20
645.363228
 11
441.901347
 21
642.363228
 97
        1
330
16D
 75
     0
 76
     0
 52
135.0
 41
2.5
 77
     0
 78
     1
 53
135.0
 43
-371.695412
 44
204.482545
 45
-1.767766952966368
 46
-1.767766952966368
 79
     0
 47
0.115254
 98
        3
 10
452.720703
 20
669.246855
 10
454.565523
 20
647.348678
 10
454.45022
 20
626.257275
  0
LINE
  5
63
100
AcDbEntity
  8
M04
100
AcDbLine
 10
442.594695
 20
660.041771
 30
0.0
 11
440.094695
 21
660.041771
 31
0.0
  0
LINE
  5
65
100
AcDbEntity
  8
M04
100
AcDbLine
 10
441.894695
 20
660.741771
 30
0.0
 11
438.594695
 21
660.741771
 31
0.0
  0
LINE
  5
66
100
AcDbEntity
  8
M04
100
AcDbLine
 10
442.594695
 20
666.041771
 30
0.0
 11
440.094695
 21
666.041771
 31
0.0
  0
LINE
  5
67
100
AcDbEntity
  8
M04
100
AcDbLine
 10
441.894695
 20
665.341771
 30
0.0
 11
438.594695
 21
665.341771
 31
0.0
  0
LINE
  5
68
102
{ACAD_REACTORS
330
62
102
}
100
AcDbEntity
  8
M01
100
AcDbLine
 10
449.894695
 20
660.041771
 30
0.0
 11
449.894695
 21
647.041771
 31
0.0
  0
LINE
  5
69
102
{ACAD_REACTORS
330
62
102
}
100
AcDbEntity
  8
M05
100
AcDbLine
 10
451.894695
 20
668.291771
 30
0.0
 11
451.894695
 21
657.791771
 31
0.0
  0
LINE
  5
6B
102
{ACAD_REACTORS
330
62
102
}
100
AcDbEntity
  8
M04
100
AcDbLine
 10
451.894695
 20
657.791771
 30
0.0
 11
451.894695
 21
657.541771
 31
0.0
  0
LINE
  5
6C
102
{ACAD_REACTORS
330
62
102
}
100
AcDbEntity
  8
M04
100
AcDbLine
 10
451.894695
 20
668.541771
 30
0.0
 11
455.894695
 21
668.541771
 31
0.0
  0
LINE
  5
6D
102
{ACAD_REACTORS
330
62
102
}
100
AcDbEntity
  8
M04
100
AcDbLine
 10
451.894695
 20
657.541771
 30
0.0
 11
455.894695
 21
657.541771
 31
0.0
  0
LINE
  5
6E
100
AcDbEntity
  8
M05
100
AcDbLine
 10
450.894695
 20
660.041771
 30
0.0
 11
450.894695
 21
666.041771
 31
0.0
  0
LINE
  5
6F
100
AcDbEntity
  8
M04
100
AcDbLine
 10
438.594695
 20
665.341771
 30
0.0
 11
437.26679
 21
663.041771
 31
0.0
  0
LINE
  5
70
100
AcDbEntity
  8
M04
100
AcDbLine
 10
438.594695
 20
660.741771
 30
0.0
 11
437.26679
 21
663.041771
 31
0.0
  0
LINE
  5
71
100
AcDbEntity
  8
M04
100
AcDbLine
 10
438.594695
 20
660.741771
 30
0.0
 11
438.594695
 21
665.341771
 31
0.0
  0
LINE
  5
72
100
AcDbEntity
  8
M04
100
AcDbLine
 10
440.094695
 20
660.041771
 30
0.0
 11
440.094695
 21
666.041771
 31
0.0
  0
ARC
  5
73
100
AcDbEntity
  8
M05
100
AcDbCircle
 10
449.368559
 20
663.041771
 30
0.0
 40
5.826136
100
AcDbArc
 50
295.69541
 51
64.30459
  0
LINE
  5
74
100
AcDbEntity
  8
M05
100
AcDbLine
 10
442.594695
 20
666.041771
 30
0.0
 11
441.894695
 21
665.341771
 31
0.0
  0
LINE
  5
75
100
AcDbEntity
  8
M05
100
AcDbLine
 10
442.594695
 20
660.041771
 30
0.0
 11
441.894695
 21
660.741771
 31
0.0
  0
LINE
  5
76
100
AcDbEntity
  8
M05
100
AcDbLine
 10
442.594695
 20
660.041771
 30
0.0
 11
442.594695
 21
666.041771
 31
0.0
  0
LINE
  5
77
100
AcDbEntity
  8
M05
100
AcDbLine
 10
441.894695
 20
660.741771
 30
0.0
 11
441.894695
 21
665.341771
 31
0.0
  0
LINE
  5
78
102
{ACAD_REACTORS
330
62
102
}
100
AcDbEntity
  8
M04
100
AcDbLine
 10
449.894695
 20
659.341771
 30
0.0
 11
451.894695
 21
659.341771
 31
0.0
  0
LINE
  5
79
102
{ACAD_REACTORS
330
62
102
}
100
AcDbEntity
  8
M04
100
AcDbLine
 10
449.894695
 20
666.741771
 30
0.0
 11
451.894695
 21
666.741771
 31
0.0
  0
LINE
  5
7A
100
AcDbEntity
  8
M05
100
AcDbLine
 10
441.894695
 20
665.341771
 30
0.0
 11
450.894695
 21
665.341771
 31
0.0
  0
LINE
  5
7B
100
AcDbEntity
  8
M05
100
AcDbLine
 10
441.894695
 20
660.741771
 30
0.0
 11
450.894695
 21
660.741771
 31
0.0
  0
LINE
  5
7C
100
AcDbEntity
  8
M05
100
AcDbLine
 10
442.594695
 20
660.041771
 30
0.0
 11
451.894695
 21
660.041771
 31
0.0
  0
LINE
  5
7D
100
AcDbEntity
  8
M05
100
AcDbLine
 10
442.594695
 20
666.041771
 30
0.0
 11
451.894695
 21
666.041771
 31
0.0
  0
LINE
  5
7E
102
{ACAD_REACTORS
330
62
102
}
100
AcDbEntity
  8
M04
100
AcDbLine
 10
451.894695
 20
668.541771
 30
0.0
 11
451.894695
 21
668.291771
 31
0.0
  0
LINE
  5
7F
100
AcDbEntity
  8
CENTRE
100
AcDbLine
 10
434.628195
 20
663.041771
 30
0.0
 11
459.540884
 21
663.041771
 31
0.0
  0
DIMENSION
  5
82
100
AcDbEntity
  8
DIMS
100
AcDbDimension
  2
*D12
 10
368.21853
 20
703.541771
 30
0.0
 11
365.21853
 21
685.756057
 31
0.0
  1
%%c<> H7
  3
DIM1
100
AcDbAlignedDimension
 13
382.894695
 23
711.541771
 33
0.0
 14
382.894695
 24
703.541771
 34
0.0
 50
90.0
100
AcDbRotatedDimension
1001
ACAD
1000
DSTYLE
1002
{
1070
   144
1040
1.0
1002
}
  0
DIMENSION
  5
91
100
AcDbEntity
  8
DIMS
100
AcDbDimension
  2
*D11
 10
390.894695
 20
603.753749
 30
0.0
 11
380.251838
 21
606.753749
 31
0.0
  1
5.0
  3
DIM1
100
AcDbAlignedDimension
 13
395.894695
 23
626.041771
 33
0.0
 14
390.894695
 24
627.041771
 34
0.0
100
AcDbRotatedDimension
1001
ACAD
1000
DSTYLE
1002
{
1070
   144
1040
1.0
1002
}
  0
DIMENSION
  5
9F
100
AcDbEntity
  8
DIMS
100
AcDbDimension
  2
*D10
 10
358.367468
 20
626.041771
 30
0.0
 11
355.367468
 21
637.041771
 31
0.0
  3
DIM1
100
AcDbAlignedDimension
 13
391.472046
 23
648.041771
 33
0.0
 14
391.472046
 24
626.041771
 34
0.0
 50
90.0
100
AcDbRotatedDimension
1001
ACAD
1000
DSTYLE
1002
{
1070
   144
1040
1.0
1002
}
  0
DIMENSION
  5
AC
100
AcDbEntity
  8
DIMS
100
AcDbDimension
  2
*D9
 10
368.244881
 20
627.041771
 30
0.0
 11
365.244881
 21
607.827485
 31
0.0
  1
%%c<> H7
  3
DIM1
100
AcDbAlignedDimension
 13
385.894695
 23
647.041771
 33
0.0
 14
385.894695
 24
627.041771
 34
0.0
 50
90.0
100
AcDbRotatedDimension
1001
ACAD
1000
DSTYLE
1002
{
1070
   144
1040
1.0
1002
}
  0
DIMENSION
  5
BA
100
AcDbEntity
  8
DIMS
100
AcDbDimension
  2
*D8
 10
385.894695
 20
663.328788
 30
0.0
 11
372.68041
 21
663.328788
 31
0.0
 70
   128
  3
DIM1
100
AcDbAlignedDimension
 13
402.894695
 23
646.541771
 33
0.0
 14
385.894695
 24
647.041771
 34
0.0
100
AcDbRotatedDimension
1001
ACAD
1000
DSTYLE
1002
{
1070
   144
1040
1.0
1002
}
  0
DIMENSION
  5
C8
100
AcDbEntity
  8
DIMS
100
AcDbDimension
  2
*D7
 10
501.209812
 20
657.041771
 30
0.0
 11
498.209812
 21
637.041771
 31
0.0
  1
%%c<> H7
  3
DIM1
100
AcDbAlignedDimension
 13
464.894695
 23
617.041771
 33
0.0
 14
464.894695
 24
657.041771
 34
0.0
 50
90.0
100
AcDbRotatedDimension
1001
ACAD
1000
DSTYLE
1002
{
1070
   144
1040
1.0
1002
}
  0
DIMENSION
  5
D5
100
AcDbEntity
  8
DIMS
100
AcDbDimension
  2
*D6
 10
395.894695
 20
566.762093
 30
0.0
 11
385.251838
 21
569.762093
 31
0.0
  1
7.0
  3
DIM1
100
AcDbAlignedDimension
 13
402.894695
 23
607.041771
 33
0.0
 14
395.894695
 24
598.041771
 34
0.0
100
AcDbRotatedDimension
1001
ACAD
1000
DSTYLE
1002
{
1070
   144
1040
1.0
1002
}
  0
DIMENSION
  5
E3
100
AcDbEntity
  8
DIMS
100
AcDbDimension
  2
*D5
 10
456.894695
 20
566.762093
 30
0.0
 11
467.537553
 21
569.762093
 31
0.0
  1
7.0
  3
DIM1
100
AcDbAlignedDimension
 13
449.894695
 23
605.041771
 33
0.0
 14
456.894695
 24
586.52838
 34
0.0
100
AcDbRotatedDimension
1001
ACAD
1000
DSTYLE
1002
{
1070
   144
1040
1.0
1002
}
  0
DIMENSION
  5
F1
100
AcDbEntity
  8
DIMS
100
AcDbDimension
  2
*D4
 10
449.894695
 20
566.762093
 30
0.0
 11
426.394695
 21
569.762093
 31
0.0
  3
DIM1
100
AcDbAlignedDimension
 13
402.894695
 23
607.041771
 33
0.0
 14
449.894695
 24
605.041771
 34
0.0
100
AcDbRotatedDimension
1001
ACAD
1000
DSTYLE
1002
{
1070
   144
1040
1.0
1002
}
  0
LINE
  5
FE
100
AcDbEntity
  8
M01
100
AcDbLine
 10
438.894695
 20
728.041771
 30
0.0
 11
448.894695
 21
728.041771
 31
0.0
  0
LINE
  5
FF
100
AcDbEntity
  8
M01
100
AcDbLine
 10
405.644695
 20
734.985871
 30
0.0
 11
412.144695
 21
734.985871
 31
0.0
  0
LINE
  5
100
100
AcDbEntity
  8
M01
100
AcDbLine
 10
405.644695
 20
743.097671
 30
0.0
 11
412.144695
 21
743.097671
 31
0.0
  0
LINE
  5
101
100
AcDbEntity
  8
M01
100
AcDbLine
 10
405.644695
 20
734.985871
 30
0.0
 11
405.644695
 21
733.041771
 31
0.0
  0
ARC
  5
102
100
AcDbEntity
  8
M01
100
AcDbCircle
 10
404.394695
 20
736.547121
 30
0.0
 40
2.0
100
AcDbArc
 50
308.682187
 51
0.0
  0
ARC
  5
103
100
AcDbEntity
  8
M01
100
AcDbCircle
 10
404.394695
 20
741.536421
 30
0.0
 40
2.0
100
AcDbArc
 50
0.0
 51
51.317813
  0
LINE
  5
104
100
AcDbEntity
  8
M01
100
AcDbLine
 10
405.644695
 20
745.041771
 30
0.0
 11
405.644695
 21
743.097671
 31
0.0
  0
LINE
  5
105
100
AcDbEntity
  8
M01
100
AcDbLine
 10
406.394695
 20
741.536421
 30
0.0
 11
406.394695
 21
736.547121
 31
0.0
  0
LINE
  5
106
100
AcDbEntity
  8
M01
100
AcDbLine
 10
412.144695
 20
734.985871
 30
0.0
 11
412.144695
 21
733.041771
 31
0.0
  0
ARC
  5
107
100
AcDbEntity
  8
M01
100
AcDbCircle
 10
413.394695
 20
736.547121
 30
0.0
 40
2.0
100
AcDbArc
 50
180.0
 51
231.317813
  0
ARC
  5
108
100
AcDbEntity
  8
M01
100
AcDbCircle
 10
413.394695
 20
741.536421
 30
0.0
 40
2.0
100
AcDbArc
 50
128.682187
 51
180.0
  0
LINE
  5
109
100
AcDbEntity
  8
M01
100
AcDbLine
 10
412.144695
 20
745.041771
 30
0.0
 11
412.144695
 21
743.097671
 31
0.0
  0
LINE
  5
10A
100
AcDbEntity
  8
M01
100
AcDbLine
 10
411.394695
 20
741.536421
 30
0.0
 11
411.394695
 21
736.547121
 31
0.0
  0
LINE
  5
10B
100
AcDbEntity
  8
M01
100
AcDbLine
 10
403.894695
 20
728.041771
 30
0.0
 11
413.894695
 21
728.041771
 31
0.0
  0
LINE
  5
10C
100
AcDbEntity
  8
M01
100
AcDbLine
 10
448.894695
 20
733.041771
 30
0.0
 11
448.894695
 21
712.041771
 31
0.0
  0
LINE
  5
10D
100
AcDbEntity
  8
M01
100
AcDbLine
 10
438.894695
 20
733.041771
 30
0.0
 11
438.894695
 21
713.041771
 31
0.0
  0
LINE
  5
10E
100
AcDbEntity
  8
M01
100
AcDbLine
 10
403.894695
 20
733.041771
 30
0.0
 11
403.894695
 21
712.041771
 31
0.0
  0
LINE
  5
10F
100
AcDbEntity
  8
M01
100
AcDbLine
 10
413.894695
 20
733.041771
 30
0.0
 11
413.894695
 21
713.041771
 31
0.0
  0
LINE
  5
110
102
{ACAD_REACTORS
330
62
102
}
100
AcDbEntity
  8
M05
100
AcDbLine
 10
449.894695
 20
605.041771
 30
0.0
 11
449.894695
 21
607.041771
 31
0.0
  0
TEXT
  5
111
100
AcDbEntity
  8
TEXT
100
AcDbText
 10
418.473189
 20
620.385338
 30
0.0
 40
2.0
  1
MM010020
 41
0.9
100
AcDbText
  0
HATCH
  5
113
100
AcDbEntity
  8
HATCH
100
AcDbHatch
 10
0.0
 20
0.0
 30
0.0
210
0.0
220
0.0
230
1.0
  2
_U
 70
     0
 71
     1
 91
        1
 92
        7
 72
     0
 73
     1
 93
        4
 10
452.8946954587715
 20
711.0417711365678
 10
449.8946954587715
 20
711.0417711365678
 10
449.8946954587716
 20
672.041771136568
 10
452.8946954587715
 20
672.0417711365678
 97
        4
330
1DD
330
1E5
330
195
330
1DF
 75
     0
 76
     0
 52
135.0
 41
0.8
 77
     0
 78
     1
 53
135.0
 43
-371.695412
 44
204.482545
 45
-0.5656854249492382
 46
-0.565685424949238
 79
     0
 47
0.167139
 98
        1
 10
451.789738
 20
699.319331
  0
HATCH
  5
114
100
AcDbEntity
  8
HATCH
100
AcDbHatch
 10
0.0
 20
0.0
 30
0.0
210
0.0
220
0.0
230
1.0
  2
_U
 70
     0
 71
     1
 91
        2
 92
        7
 72
     0
 73
     1
 93
        4
 10
399.8946954587717
 20
648.0417711365678
 10
402.8946954587717
 20
648.0417711365678
 10
402.8946954587716
 20
701.0417711365678
 10
399.8946954587714
 20
701.0417711365678
 97
        4
330
1DA
330
1E0
330
1C4
330
1E8
 92
        7
 72
     0
 73
     1
 93
        4
 10
399.8946954587716
 20
607.0417711365678
 10
402.8946954587716
 20
607.0417711365678
 10
402.8946954587718
 20
626.0417711365679
 10
399.8946954587718
 20
626.0417711365678
 97
        4
330
1C3
330
1C6
330
1DE
330
1C5
 75
     0
 76
     0
 52
135.0
 41
0.8
 77
     0
 78
     1
 53
135.0
 43
-371.695412
 44
204.482545
 45
-0.5656854249492382
 46
-0.565685424949238
 79
     0
 47
0.167139
 98
        2
 10
401.292782
 20
696.645099
 10
400.958364
 20
623.438
  0
LINE
  5
115
100
AcDbEntity
  8
M01
100
AcDbLine
 10
440.863607
 20
754.941771
 30
0.0
 11
446.925784
 21
754.941771
 31
0.0
  0
ARC
  5
116
100
AcDbEntity
  8
M01
100
AcDbCircle
 10
446.925784
 20
753.092466
 30
0.0
 40
1.150694
100
AcDbArc
 50
208.592423
 51
331.407577
  0
ARC
  5
117
100
AcDbEntity
  8
M01
100
AcDbCircle
 10
443.894695
 20
755.644549
 30
0.0
 40
3.702778
100
AcDbArc
 50
236.92527
 51
303.07473
  0
ARC
  5
118
100
AcDbEntity
  8
M01
100
AcDbCircle
 10
440.863607
 20
753.092466
 30
0.0
 40
1.150694
100
AcDbArc
 50
208.592423
 51
331.407577
  0
ARC
  5
119
100
AcDbEntity
  8
M01
100
AcDbCircle
 10
446.925784
 20
753.791077
 30
0.0
 40
1.150694
100
AcDbArc
 50
28.592423
 51
151.407577
  0
ARC
  5
11A
100
AcDbEntity
  8
M01
100
AcDbCircle
 10
443.894695
 20
751.238993
 30
0.0
 40
3.702778
100
AcDbArc
 50
56.92527
 51
123.07473
  0
LINE
  5
11B
100
AcDbEntity
  8
M01
100
AcDbLine
 10
445.915421
 20
754.341771
 30
0.0
 11
445.915421
 21
752.541771
 31
0.0
  0
LINE
  5
11C
100
AcDbEntity
  8
M01
100
AcDbLine
 10
447.936147
 20
754.341771
 30
0.0
 11
447.936147
 21
752.541771
 31
0.0
  0
ARC
  5
11D
100
AcDbEntity
  8
M01
100
AcDbCircle
 10
440.863607
 20
753.791077
 30
0.0
 40
1.150694
100
AcDbArc
 50
28.592423
 51
151.407577
  0
LINE
  5
11E
100
AcDbEntity
  8
M01
100
AcDbLine
 10
441.87397
 20
754.341771
 30
0.0
 11
441.87397
 21
752.541771
 31
0.0
  0
LINE
  5
11F
100
AcDbEntity
  8
M01
100
AcDbLine
 10
439.853244
 20
754.341771
 30
0.0
 11
439.853244
 21
752.541771
 31
0.0
  0
LINE
  5
120
100
AcDbEntity
  8
M01
100
AcDbLine
 10
448.894695
 20
749.641771
 30
0.0
 11
448.894695
 21
751.141771
 31
0.0
  0
LINE
  5
121
100
AcDbEntity
  8
M01
100
AcDbLine
 10
438.894695
 20
749.641771
 30
0.0
 11
438.894695
 21
751.141771
 31
0.0
  0
LINE
  5
122
100
AcDbEntity
  8
M01
100
AcDbLine
 10
448.394695
 20
751.141771
 30
0.0
 11
448.394695
 21
751.941771
 31
0.0
  0
LINE
  5
123
100
AcDbEntity
  8
M01
100
AcDbLine
 10
439.394695
 20
751.141771
 30
0.0
 11
439.394695
 21
751.941771
 31
0.0
  0
LINE
  5
124
100
AcDbEntity
  8
M01
100
AcDbLine
 10
439.394695
 20
751.941771
 30
0.0
 11
448.394695
 21
751.941771
 31
0.0
  0
LINE
  5
125
100
AcDbEntity
  8
M01
100
AcDbLine
 10
438.894695
 20
751.141771
 30
0.0
 11
448.894695
 21
751.141771
 31
0.0
  0
LINE
  5
126
100
AcDbEntity
  8
M01
100
AcDbLine
 10
448.394695
 20
748.841771
 30
0.0
 11
448.394695
 21
749.641771
 31
0.0
  0
LINE
  5
127
100
AcDbEntity
  8
M01
100
AcDbLine
 10
439.394695
 20
748.841771
 30
0.0
 11
439.394695
 21
749.641771
 31
0.0
  0
LINE
  5
128
100
AcDbEntity
  8
M01
100
AcDbLine
 10
433.894695
 20
749.641771
 30
0.0
 11
448.894695
 21
749.641771
 31
0.0
  0
ARC
  5
129
100
AcDbEntity
  8
M01
100
AcDbCircle
 10
446.925784
 20
746.992466
 30
0.0
 40
1.150694
100
AcDbArc
 50
208.592423
 51
331.407577
  0
ARC
  5
12A
100
AcDbEntity
  8
M01
100
AcDbCircle
 10
443.894695
 20
749.544549
 30
0.0
 40
3.702778
100
AcDbArc
 50
236.92527
 51
303.07473
  0
ARC
  5
12B
100
AcDbEntity
  8
M01
100
AcDbCircle
 10
440.863607
 20
746.992466
 30
0.0
 40
1.150694
100
AcDbArc
 50
208.592423
 51
331.407577
  0
ARC
  5
12C
100
AcDbEntity
  8
M01
100
AcDbCircle
 10
446.925784
 20
747.691077
 30
0.0
 40
1.150694
100
AcDbArc
 50
28.592423
 51
151.407577
  0
ARC
  5
12D
100
AcDbEntity
  8
M01
100
AcDbCircle
 10
443.894695
 20
745.138993
 30
0.0
 40
3.702778
100
AcDbArc
 50
56.92527
 51
123.07473
  0
LINE
  5
12E
100
AcDbEntity
  8
M01
100
AcDbLine
 10
445.915421
 20
748.241771
 30
0.0
 11
445.915421
 21
746.441771
 31
0.0
  0
LINE
  5
12F
100
AcDbEntity
  8
M01
100
AcDbLine
 10
447.936147
 20
748.241771
 30
0.0
 11
447.936147
 21
746.441771
 31
0.0
  0
ARC
  5
130
100
AcDbEntity
  8
M01
100
AcDbCircle
 10
440.863607
 20
747.691077
 30
0.0
 40
1.150694
100
AcDbArc
 50
28.592423
 51
151.407577
  0
LINE
  5
131
100
AcDbEntity
  8
M01
100
AcDbLine
 10
441.87397
 20
748.241771
 30
0.0
 11
441.87397
 21
746.441771
 31
0.0
  0
LINE
  5
132
100
AcDbEntity
  8
M01
100
AcDbLine
 10
439.853244
 20
748.241771
 30
0.0
 11
439.853244
 21
746.441771
 31
0.0
  0
LINE
  5
133
100
AcDbEntity
  8
M01
100
AcDbLine
 10
439.394695
 20
748.841771
 30
0.0
 11
448.394695
 21
748.841771
 31
0.0
  0
LINE
  5
134
100
AcDbEntity
  8
M01
100
AcDbLine
 10
439.394695
 20
745.841771
 30
0.0
 11
448.394695
 21
745.841771
 31
0.0
  0
LINE
  5
135
100
AcDbEntity
  8
M01
100
AcDbLine
 10
439.394695
 20
745.041771
 30
0.0
 11
448.394695
 21
745.041771
 31
0.0
  0
LINE
  5
136
100
AcDbEntity
  8
M01
100
AcDbLine
 10
445.394695
 20
758.041771
 30
0.0
 11
445.894695
 21
757.541771
 31
0.0
  0
LINE
  5
137
100
AcDbEntity
  8
M01
100
AcDbLine
 10
441.894695
 20
757.541771
 30
0.0
 11
442.394695
 21
758.041771
 31
0.0
  0
LINE
  5
138
100
AcDbEntity
  8
M01
100
AcDbLine
 10
441.894695
 20
757.541771
 30
0.0
 11
445.894695
 21
757.541771
 31
0.0
  0
LINE
  5
139
100
AcDbEntity
  8
M01
100
AcDbLine
 10
445.394695
 20
758.041771
 30
0.0
 11
445.394695
 21
754.941771
 31
0.0
  0
LINE
  5
13A
100
AcDbEntity
  8
M01
100
AcDbLine
 10
442.394695
 20
758.041771
 30
0.0
 11
442.394695
 21
754.941771
 31
0.0
  0
LINE
  5
13B
100
AcDbEntity
  8
M01
100
AcDbLine
 10
441.894695
 20
757.541771
 30
0.0
 11
441.894695
 21
754.941771
 31
0.0
  0
LINE
  5
13C
100
AcDbEntity
  8
M01
100
AcDbLine
 10
445.894695
 20
757.541771
 30
0.0
 11
445.894695
 21
754.941771
 31
0.0
  0
LINE
  5
13D
100
AcDbEntity
  8
M01
100
AcDbLine
 10
442.394695
 20
758.041771
 30
0.0
 11
445.394695
 21
758.041771
 31
0.0
  0
LINE
  5
13E
100
AcDbEntity
  8
M01
100
AcDbLine
 10
438.894695
 20
733.041771
 30
0.0
 11
448.894695
 21
733.041771
 31
0.0
  0
LINE
  5
13F
100
AcDbEntity
  8
M01
100
AcDbLine
 10
448.394695
 20
745.841771
 30
0.0
 11
448.394695
 21
745.041771
 31
0.0
  0
LINE
  5
140
100
AcDbEntity
  8
M01
100
AcDbLine
 10
439.394695
 20
745.841771
 30
0.0
 11
439.394695
 21
745.041771
 31
0.0
  0
LINE
  5
141
100
AcDbEntity
  8
CENTRE
100
AcDbLine
 10
443.894695
 20
764.20266
 30
0.0
 11
443.894695
 21
700.609229
 31
0.0
  0
LINE
  5
142
100
AcDbEntity
  8
M01
100
AcDbLine
 10
411.925784
 20
754.941771
 30
0.0
 11
405.863607
 21
754.941771
 31
0.0
  0
ARC
  5
143
100
AcDbEntity
  8
M01
100
AcDbCircle
 10
405.863607
 20
753.092466
 30
0.0
 40
1.150694
100
AcDbArc
 50
208.592423
 51
331.407577
  0
ARC
  5
144
100
AcDbEntity
  8
M01
100
AcDbCircle
 10
408.894695
 20
755.644549
 30
0.0
 40
3.702778
100
AcDbArc
 50
236.92527
 51
303.07473
  0
ARC
  5
145
100
AcDbEntity
  8
M01
100
AcDbCircle
 10
411.925784
 20
753.092466
 30
0.0
 40
1.150694
100
AcDbArc
 50
208.592423
 51
331.407577
  0
ARC
  5
146
100
AcDbEntity
  8
M01
100
AcDbCircle
 10
405.863607
 20
753.791077
 30
0.0
 40
1.150694
100
AcDbArc
 50
28.592423
 51
151.407577
  0
ARC
  5
147
100
AcDbEntity
  8
M01
100
AcDbCircle
 10
408.894695
 20
751.238993
 30
0.0
 40
3.702778
100
AcDbArc
 50
56.92527
 51
123.07473
  0
LINE
  5
148
100
AcDbEntity
  8
M01
100
AcDbLine
 10
406.87397
 20
754.341771
 30
0.0
 11
406.87397
 21
752.541771
 31
0.0
  0
LINE
  5
149
100
AcDbEntity
  8
M01
100
AcDbLine
 10
404.853244
 20
754.341771
 30
0.0
 11
404.853244
 21
752.541771
 31
0.0
  0
ARC
  5
14A
100
AcDbEntity
  8
M01
100
AcDbCircle
 10
411.925784
 20
753.791077
 30
0.0
 40
1.150694
100
AcDbArc
 50
28.592423
 51
151.407577
  0
LINE
  5
14B
100
AcDbEntity
  8
M01
100
AcDbLine
 10
410.915421
 20
754.341771
 30
0.0
 11
410.915421
 21
752.541771
 31
0.0
  0
LINE
  5
14C
100
AcDbEntity
  8
M01
100
AcDbLine
 10
412.936147
 20
754.341771
 30
0.0
 11
412.936147
 21
752.541771
 31
0.0
  0
LINE
  5
14D
100
AcDbEntity
  8
M01
100
AcDbLine
 10
403.894695
 20
749.641771
 30
0.0
 11
403.894695
 21
751.141771
 31
0.0
  0
LINE
  5
14E
100
AcDbEntity
  8
M01
100
AcDbLine
 10
404.394695
 20
751.141771
 30
0.0
 11
404.394695
 21
751.941771
 31
0.0
  0
LINE
  5
14F
100
AcDbEntity
  8
M01
100
AcDbLine
 10
413.394695
 20
751.141771
 30
0.0
 11
413.394695
 21
751.941771
 31
0.0
  0
LINE
  5
150
100
AcDbEntity
  8
M01
100
AcDbLine
 10
413.394695
 20
751.941771
 30
0.0
 11
404.394695
 21
751.941771
 31
0.0
  0
LINE
  5
151
100
AcDbEntity
  8
M01
100
AcDbLine
 10
413.894695
 20
751.141771
 30
0.0
 11
403.894695
 21
751.141771
 31
0.0
  0
LINE
  5
152
100
AcDbEntity
  8
M01
100
AcDbLine
 10
404.394695
 20
748.841771
 30
0.0
 11
404.394695
 21
749.641771
 31
0.0
  0
LINE
  5
153
100
AcDbEntity
  8
M01
100
AcDbLine
 10
413.394695
 20
748.841771
 30
0.0
 11
413.394695
 21
749.641771
 31
0.0
  0
ARC
  5
154
100
AcDbEntity
  8
M01
100
AcDbCircle
 10
405.863607
 20
746.992466
 30
0.0
 40
1.150694
100
AcDbArc
 50
208.592423
 51
331.407577
  0
ARC
  5
155
100
AcDbEntity
  8
M01
100
AcDbCircle
 10
408.894695
 20
749.544549
 30
0.0
 40
3.702778
100
AcDbArc
 50
236.92527
 51
303.07473
  0
ARC
  5
156
100
AcDbEntity
  8
M01
100
AcDbCircle
 10
411.925784
 20
746.992466
 30
0.0
 40
1.150694
100
AcDbArc
 50
208.592423
 51
331.407577
  0
ARC
  5
157
100
AcDbEntity
  8
M01
100
AcDbCircle
 10
405.863607
 20
747.691077
 30
0.0
 40
1.150694
100
AcDbArc
 50
28.592423
 51
151.407577
  0
ARC
  5
158
100
AcDbEntity
  8
M01
100
AcDbCircle
 10
408.894695
 20
745.138993
 30
0.0
 40
3.702778
100
AcDbArc
 50
56.92527
 51
123.07473
  0
LINE
  5
159
100
AcDbEntity
  8
M01
100
AcDbLine
 10
406.87397
 20
748.241771
 30
0.0
 11
406.87397
 21
746.441771
 31
0.0
  0
LINE
  5
15A
100
AcDbEntity
  8
M01
100
AcDbLine
 10
404.853244
 20
748.241771
 30
0.0
 11
404.853244
 21
746.441771
 31
0.0
  0
ARC
  5
15B
100
AcDbEntity
  8
M01
100
AcDbCircle
 10
411.925784
 20
747.691077
 30
0.0
 40
1.150694
100
AcDbArc
 50
28.592423
 51
151.407577
  0
LINE
  5
15C
100
AcDbEntity
  8
M01
100
AcDbLine
 10
410.915421
 20
748.241771
 30
0.0
 11
410.915421
 21
746.441771
 31
0.0
  0
LINE
  5
15D
100
AcDbEntity
  8
M01
100
AcDbLine
 10
412.936147
 20
748.241771
 30
0.0
 11
412.936147
 21
746.441771
 31
0.0
  0
LINE
  5
15E
100
AcDbEntity
  8
M01
100
AcDbLine
 10
413.394695
 20
748.841771
 30
0.0
 11
404.394695
 21
748.841771
 31
0.0
  0
LINE
  5
15F
100
AcDbEntity
  8
M01
100
AcDbLine
 10
413.394695
 20
745.841771
 30
0.0
 11
404.394695
 21
745.841771
 31
0.0
  0
LINE
  5
160
100
AcDbEntity
  8
M01
100
AcDbLine
 10
413.394695
 20
745.041771
 30
0.0
 11
404.394695
 21
745.041771
 31
0.0
  0
LINE
  5
161
100
AcDbEntity
  8
M01
100
AcDbLine
 10
407.394695
 20
758.041771
 30
0.0
 11
406.894695
 21
757.541771
 31
0.0
  0
LINE
  5
162
100
AcDbEntity
  8
M01
100
AcDbLine
 10
410.894695
 20
757.541771
 30
0.0
 11
410.394695
 21
758.041771
 31
0.0
  0
LINE
  5
163
100
AcDbEntity
  8
M01
100
AcDbLine
 10
410.894695
 20
757.541771
 30
0.0
 11
406.894695
 21
757.541771
 31
0.0
  0
LINE
  5
164
100
AcDbEntity
  8
M01
100
AcDbLine
 10
407.394695
 20
758.041771
 30
0.0
 11
407.394695
 21
754.941771
 31
0.0
  0
LINE
  5
165
100
AcDbEntity
  8
M01
100
AcDbLine
 10
410.394695
 20
758.041771
 30
0.0
 11
410.394695
 21
754.941771
 31
0.0
  0
LINE
  5
166
100
AcDbEntity
  8
M01
100
AcDbLine
 10
410.894695
 20
757.541771
 30
0.0
 11
410.894695
 21
754.941771
 31
0.0
  0
LINE
  5
167
100
AcDbEntity
  8
M01
100
AcDbLine
 10
406.894695
 20
757.541771
 30
0.0
 11
406.894695
 21
754.941771
 31
0.0
  0
LINE
  5
168
100
AcDbEntity
  8
M01
100
AcDbLine
 10
410.394695
 20
758.041771
 30
0.0
 11
407.394695
 21
758.041771
 31
0.0
  0
LINE
  5
169
100
AcDbEntity
  8
M01
100
AcDbLine
 10
413.894695
 20
733.041771
 30
0.0
 11
403.894695
 21
733.041771
 31
0.0
  0
LINE
  5
16A
100
AcDbEntity
  8
M01
100
AcDbLine
 10
404.394695
 20
745.841771
 30
0.0
 11
404.394695
 21
745.041771
 31
0.0
  0
LINE
  5
16B
100
AcDbEntity
  8
M01
100
AcDbLine
 10
413.394695
 20
745.841771
 30
0.0
 11
413.394695
 21
745.041771
 31
0.0
  0
LINE
  5
16C
100
AcDbEntity
  8
CENTRE
100
AcDbLine
 10
408.894695
 20
764.20266
 30
0.0
 11
408.894695
 21
700.609229
 31
0.0
  0
TEXT
  5
16D
102
{ACAD_REACTORS
330
62
102
}
100
AcDbEntity
  8
TEXT
100
AcDbText
 10
442.401347
 20
642.863228
 30
0.0
 40
2.0
  1
MA010000
 41
0.9
100
AcDbText
  0
LINE
  5
16E
100
AcDbEntity
  8
M04
100
AcDbLine
 10
428.894695
 20
773.041771
 30
0.0
 11
438.894695
 21
783.041771
 31
0.0
  0
LINE
  5
16F
100
AcDbEntity
  8
M04
100
AcDbLine
 10
438.894695
 20
793.713249
 30
0.0
 11
438.894695
 21
783.041771
 31
0.0
  0
LINE
  5
170
100
AcDbEntity
  8
M04
100
AcDbLine
 10
474.894695
 20
607.041771
 30
0.0
 11
474.894695
 21
667.041771
 31
0.0
  0
LINE
  5
171
100
AcDbEntity
  8
M04
100
AcDbLine
 10
474.894695
 20
607.041771
 30
0.0
 11
483.894695
 21
607.041771
 31
0.0
  0
LINE
  5
172
100
AcDbEntity
  8
M04
100
AcDbLine
 10
464.894695
 20
617.041771
 30
0.0
 11
474.894695
 21
607.041771
 31
0.0
  0
LINE
  5
173
100
AcDbEntity
  8
M04
100
AcDbLine
 10
395.894695
 20
773.041771
 30
0.0
 11
456.894695
 21
773.041771
 31
0.0
  0
LINE
  5
174
100
AcDbEntity
  8
M04
100
AcDbLine
 10
474.894695
 20
667.041771
 30
0.0
 11
483.894695
 21
667.041771
 31
0.0
  0
LINE
  5
175
100
AcDbEntity
  8
M04
100
AcDbLine
 10
464.894695
 20
657.041771
 30
0.0
 11
474.894695
 21
667.041771
 31
0.0
  0
LINE
  5
176
100
AcDbEntity
  8
M05
100
AcDbLine
 10
458.19591
 20
634.000897
 30
0.0
 11
458.19591
 21
640.082645
 31
0.0
  0
ARC
  5
177
102
{ACAD_REACTORS
330
62
102
}
100
AcDbEntity
  8
M05
100
AcDbCircle
 10
473.394695
 20
637.041771
 30
0.0
 40
15.5
100
AcDbArc
 50
191.313981
 51
216.249321
  0
LINE
  5
178
100
AcDbEntity
  8
M01
100
AcDbLine
 10
426.394695
 20
633.041771
 30
0.0
 11
439.894695
 21
633.041771
 31
0.0
  0
LINE
  5
179
102
{ACAD_REACTORS
330
62
102
}
100
AcDbEntity
  8
M05
100
AcDbLine
 10
439.894695
 20
633.041771
 30
0.0
 11
458.19591
 21
634.000897
 31
0.0
  0
LINE
  5
17A
102
{ACAD_REACTORS
330
62
102
}
100
AcDbEntity
  8
M05
100
AcDbLine
 10
439.894695
 20
641.041771
 30
0.0
 11
458.19591
 21
640.082645
 31
0.0
  0
ARC
  5
17B
102
{ACAD_REACTORS
330
62
102
}
100
AcDbEntity
  8
M05
100
AcDbCircle
 10
473.394695
 20
637.041771
 30
0.0
 40
15.5
100
AcDbArc
 50
143.750679
 51
168.686019
  0
LINE
  5
17C
100
AcDbEntity
  8
M01
100
AcDbLine
 10
426.394695
 20
641.041771
 30
0.0
 11
439.894695
 21
641.041771
 31
0.0
  0
LINE
  5
17D
100
AcDbEntity
  8
M04
100
AcDbLine
 10
458.894695
 20
617.041771
 30
0.0
 11
456.894695
 21
617.041771
 31
0.0
  0
LINE
  5
17E
100
AcDbEntity
  8
M04
100
AcDbLine
 10
460.194695
 20
617.041771
 30
0.0
 11
464.894695
 21
617.041771
 31
0.0
  0
LINE
  5
17F
100
AcDbEntity
  8
M04
100
AcDbLine
 10
458.894695
 20
657.041771
 30
0.0
 11
456.894695
 21
657.041771
 31
0.0
  0
LINE
  5
180
100
AcDbEntity
  8
M04
100
AcDbLine
 10
460.194695
 20
657.041771
 30
0.0
 11
464.894695
 21
657.041771
 31
0.0
  0
LINE
  5
181
100
AcDbEntity
  8
M04
100
AcDbLine
 10
464.894695
 20
657.041771
 30
0.0
 11
464.894695
 21
617.041771
 31
0.0
  0
LINE
  5
182
102
{ACAD_REACTORS
330
62
102
}
100
AcDbEntity
  8
M05
100
AcDbLine
 10
458.894695
 20
617.541771
 30
0.0
 11
458.894695
 21
617.041771
 31
0.0
  0
LINE
  5
183
102
{ACAD_REACTORS
330
62
102
}
100
AcDbEntity
  8
M05
100
AcDbLine
 10
455.894695
 20
617.541771
 30
0.0
 11
455.894695
 21
605.041771
 31
0.0
  0
LINE
  5
184
102
{ACAD_REACTORS
330
62
102
}
100
AcDbEntity
  8
M05
100
AcDbLine
 10
455.894695
 20
617.541771
 30
0.0
 11
458.894695
 21
617.541771
 31
0.0
  0
LINE
  5
185
102
{ACAD_REACTORS
330
62
102
}
100
AcDbEntity
  8
M05
100
AcDbLine
 10
455.894695
 20
656.541771
 30
0.0
 11
458.894695
 21
656.541771
 31
0.0
  0
LINE
  5
186
102
{ACAD_REACTORS
330
62
102
}
100
AcDbEntity
  8
M05
100
AcDbLine
 10
458.894695
 20
657.041771
 30
0.0
 11
458.894695
 21
656.541771
 31
0.0
  0
LINE
  5
187
100
AcDbEntity
  8
M04
100
AcDbLine
 10
456.894695
 20
617.541771
 30
0.0
 11
456.894695
 21
586.52838
 31
0.0
  0
LINE
  5
188
102
{ACAD_REACTORS
330
62
102
}
100
AcDbEntity
  8
M05
100
AcDbLine
 10
460.894695
 20
617.741771
 30
0.0
 11
460.194695
 21
617.041771
 31
0.0
  0
LINE
  5
189
102
{ACAD_REACTORS
330
62
102
}
100
AcDbEntity
  8
M05
100
AcDbLine
 10
460.894695
 20
656.341771
 30
0.0
 11
460.194695
 21
657.041771
 31
0.0
  0
LINE
  5
18A
102
{ACAD_REACTORS
330
62
102
}
100
AcDbEntity
  8
M05
100
AcDbLine
 10
460.894695
 20
656.341771
 30
0.0
 11
460.894695
 21
617.741771
 31
0.0
  0
LINE
  5
18B
102
{ACAD_REACTORS
330
62
102
}
100
AcDbEntity
  8
M05
100
AcDbLine
 10
458.894695
 20
617.041771
 30
0.0
 11
460.194695
 21
617.041771
 31
0.0
  0
LINE
  5
18C
102
{ACAD_REACTORS
330
62
102
}
100
AcDbEntity
  8
M05
100
AcDbLine
 10
458.894695
 20
657.041771
 30
0.0
 11
460.194695
 21
657.041771
 31
0.0
  0
LINE
  5
18D
100
AcDbEntity
  8
M04
100
AcDbLine
 10
449.394695
 20
627.041771
 30
0.0
 11
449.894695
 21
626.541771
 31
0.0
  0
LINE
  5
18E
102
{ACAD_REACTORS
330
62
102
}
100
AcDbEntity
  8
M01
100
AcDbLine
 10
449.894695
 20
627.041771
 30
0.0
 11
449.894695
 21
607.041771
 31
0.0
  0
LINE
  5
18F
100
AcDbEntity
  8
M04
100
AcDbLine
 10
449.394695
 20
647.041771
 30
0.0
 11
449.894695
 21
647.541771
 31
0.0
  0
LINE
  5
190
102
{ACAD_REACTORS
330
62
102
}
100
AcDbEntity
  8
M05
100
AcDbLine
 10
450.594695
 20
604.341771
 30
0.0
 11
449.894695
 21
605.041771
 31
0.0
  0
LINE
  5
191
102
{ACAD_REACTORS
330
62
102
}
100
AcDbEntity
  8
M05
100
AcDbLine
 10
455.194695
 20
604.341771
 30
0.0
 11
455.894695
 21
605.041771
 31
0.0
  0
LINE
  5
192
102
{ACAD_REACTORS
330
62
102
}
100
AcDbEntity
  8
M05
100
AcDbLine
 10
450.594695
 20
604.341771
 30
0.0
 11
455.194695
 21
604.341771
 31
0.0
  0
LINE
  5
193
102
{ACAD_REACTORS
330
62
102
}
100
AcDbEntity
  8
M05
100
AcDbLine
 10
450.594695
 20
671.041771
 30
0.0
 11
449.894695
 21
670.341771
 31
0.0
  0
LINE
  5
194
102
{ACAD_REACTORS
330
62
102
}
100
AcDbEntity
  8
M05
100
AcDbLine
 10
455.194695
 20
671.041771
 30
0.0
 11
455.894695
 21
670.341771
 31
0.0
  0
LINE
  5
195
102
{ACAD_REACTORS
330
113
102
}
100
AcDbEntity
  8
M02
100
AcDbLine
 10
449.894695
 20
672.041771
 30
0.0
 11
452.894695
 21
672.041771
 31
0.0
  0
LINE
  5
197
102
{ACAD_REACTORS
330
62
102
}
100
AcDbEntity
  8
M05
100
AcDbLine
 10
455.894695
 20
670.341771
 30
0.0
 11
455.894695
 21
656.541771
 31
0.0
  0
LINE
  5
198
102
{ACAD_REACTORS
330
62
102
}
100
AcDbEntity
  8
M05
100
AcDbLine
 10
450.594695
 20
671.041771
 30
0.0
 11
455.194695
 21
671.041771
 31
0.0
  0
LINE
  5
199
100
AcDbEntity
  8
M04
100
AcDbLine
 10
440.894695
 20
627.041771
 30
0.0
 11
439.894695
 21
627.041771
 31
0.0
  0
LINE
  5
19A
100
AcDbEntity
  8
M04
100
AcDbLine
 10
439.894695
 20
628.041771
 30
0.0
 11
439.894695
 21
627.041771
 31
0.0
  0
LINE
  5
19B
100
AcDbEntity
  8
M04
100
AcDbLine
 10
440.894695
 20
647.041771
 30
0.0
 11
439.894695
 21
647.041771
 31
0.0
  0
LINE
  5
19C
100
AcDbEntity
  8
M04
100
AcDbLine
 10
439.894695
 20
646.041771
 30
0.0
 11
439.894695
 21
647.041771
 31
0.0
  0
LINE
  5
19D
102
{ACAD_REACTORS
330
62
102
}
100
AcDbEntity
  8
M05
100
AcDbLine
 10
439.894695
 20
646.041771
 30
0.0
 11
440.894695
 21
647.041771
 31
0.0
  0
LINE
  5
19E
102
{ACAD_REACTORS
330
62
102
}
100
AcDbEntity
  8
M05
100
AcDbLine
 10
440.894695
 20
627.041771
 30
0.0
 11
439.894695
 21
628.041771
 31
0.0
  0
LINE
  5
19F
102
{ACAD_REACTORS
330
62
102
}
100
AcDbEntity
  8
M05
100
AcDbLine
 10
439.894695
 20
646.041771
 30
0.0
 11
439.894695
 21
628.041771
 31
0.0
  0
LINE
  5
1A0
102
{ACAD_REACTORS
330
62
102
}
100
AcDbEntity
  8
M05
100
AcDbLine
 10
440.894695
 20
627.041771
 30
0.0
 11
449.894695
 21
627.041771
 31
0.0
  0
LINE
  5
1A1
102
{ACAD_REACTORS
330
62
102
}
100
AcDbEntity
  8
M05
100
AcDbLine
 10
440.894695
 20
647.041771
 30
0.0
 11
449.894695
 21
647.041771
 31
0.0
  0
TEXT
  5
1A2
100
AcDbEntity
  8
TEXT
100
AcDbText
 10
392.258919
 20
639.753938
 30
0.0
 40
2.0
  1
MA010008
 41
0.9
100
AcDbText
  0
LINE
  5
1A3
100
AcDbEntity
  8
M04
100
AcDbLine
 10
380.585294
 20
707.541771
 30
0.0
 11
382.894695
 21
711.541771
 31
0.0
  0
LINE
  5
1A4
100
AcDbEntity
  8
M04
100
AcDbLine
 10
382.894695
 20
703.541771
 30
0.0
 11
380.585294
 21
707.541771
 31
0.0
  0
LINE
  5
1A5
100
AcDbEntity
  8
M04
100
AcDbLine
 10
385.894695
 20
703.541771
 30
0.0
 11
382.894695
 21
703.541771
 31
0.0
  0
LINE
  5
1A6
100
AcDbEntity
  8
M04
100
AcDbLine
 10
382.894695
 20
711.541771
 30
0.0
 11
382.894695
 21
703.541771
 31
0.0
  0
LINE
  5
1A7
100
AcDbEntity
  8
M04
100
AcDbLine
 10
385.894695
 20
711.541771
 30
0.0
 11
382.894695
 21
711.541771
 31
0.0
  0
ARC
  5
1A8
100
AcDbEntity
  8
M05
100
AcDbCircle
 10
395.2324
 20
707.541771
 30
0.0
 40
10.837705
100
AcDbArc
 50
161.372238
 51
198.627762
  0
LINE
  5
1A9
100
AcDbEntity
  8
M05
100
AcDbLine
 10
385.894695
 20
703.541771
 30
0.0
 11
384.962442
 21
704.080008
 31
0.0
  0
LINE
  5
1AA
100
AcDbEntity
  8
M05
100
AcDbLine
 10
384.962442
 20
711.003534
 30
0.0
 11
384.962442
 21
704.080008
 31
0.0
  0
LINE
  5
1AB
100
AcDbEntity
  8
M05
100
AcDbLine
 10
385.894695
 20
711.541771
 30
0.0
 11
384.962442
 21
711.003534
 31
0.0
  0
LINE
  5
1AC
100
AcDbEntity
  8
M05
100
AcDbLine
 10
385.894695
 20
711.541771
 30
0.0
 11
385.894695
 21
703.541771
 31
0.0
  0
LINE
  5
1AD
100
AcDbEntity
  8
M04
100
AcDbLine
 10
395.894695
 20
703.541771
 30
0.0
 11
395.894695
 21
646.541771
 31
0.0
  0
LINE
  5
1AE
100
AcDbEntity
  8
M04
100
AcDbLine
 10
395.394695
 20
703.541771
 30
0.0
 11
395.894695
 21
703.041771
 31
0.0
  0
LINE
  5
1AF
100
AcDbEntity
  8
M04
100
AcDbLine
 10
395.394695
 20
711.541771
 30
0.0
 11
395.894695
 21
712.041771
 31
0.0
  0
ARC
  5
1B0
100
AcDbEntity
  8
M05
100
AcDbCircle
 10
394.761362
 20
707.541771
 30
0.0
 40
13.633333
100
AcDbArc
 50
342.938469
 51
17.061531
  0
LINE
  5
1B1
100
AcDbEntity
  8
M05
100
AcDbLine
 10
407.794695
 20
711.541771
 30
0.0
 11
407.794695
 21
703.541771
 31
0.0
  0
LINE
  5
1B2
100
AcDbEntity
  8
M05
100
AcDbLine
 10
385.894695
 20
703.541771
 30
0.0
 11
407.794695
 21
703.541771
 31
0.0
  0
LINE
  5
1B3
100
AcDbEntity
  8
M05
100
AcDbLine
 10
385.894695
 20
711.541771
 30
0.0
 11
407.794695
 21
711.541771
 31
0.0
  0
CIRCLE
  5
1B4
100
AcDbEntity
  8
M01
100
AcDbCircle
 10
426.394695
 20
637.041771
 30
0.0
 40
4.0
  0
LINE
  5
1B5
100
AcDbEntity
  8
M04
100
AcDbLine
 10
391.472046
 20
626.041771
 30
0.0
 11
391.472046
 21
627.541771
 31
0.0
  0
LINE
  5
1B6
100
AcDbEntity
  8
M04
100
AcDbLine
 10
391.472046
 20
626.041771
 30
0.0
 11
395.894695
 21
626.041771
 31
0.0
  0
LINE
  5
1B7
100
AcDbEntity
  8
M04
100
AcDbLine
 10
390.894695
 20
627.041771
 30
0.0
 11
391.472046
 21
626.041771
 31
0.0
  0
LINE
  5
1B8
100
AcDbEntity
  8
M04
100
AcDbLine
 10
386.894695
 20
627.041771
 30
0.0
 11
385.894695
 21
627.041771
 31
0.0
  0
LINE
  5
1B9
100
AcDbEntity
  8
M04
100
AcDbLine
 10
385.894695
 20
628.041771
 30
0.0
 11
385.894695
 21
627.041771
 31
0.0
  0
LINE
  5
1BA
100
AcDbEntity
  8
M04
100
AcDbLine
 10
407.894695
 20
628.541771
 30
0.0
 11
407.894695
 21
627.541771
 31
0.0
  0
LINE
  5
1BB
100
AcDbEntity
  8
M04
100
AcDbLine
 10
406.894695
 20
627.541771
 30
0.0
 11
407.894695
 21
627.541771
 31
0.0
  0
LINE
  5
1BC
100
AcDbEntity
  8
M04
100
AcDbLine
 10
391.472046
 20
648.041771
 30
0.0
 11
391.472046
 21
646.541771
 31
0.0
  0
LINE
  5
1BD
100
AcDbEntity
  8
M04
100
AcDbLine
 10
391.472046
 20
648.041771
 30
0.0
 11
395.894695
 21
648.041771
 31
0.0
  0
LINE
  5
1BE
100
AcDbEntity
  8
M04
100
AcDbLine
 10
390.894695
 20
647.041771
 30
0.0
 11
391.472046
 21
648.041771
 31
0.0
  0
LINE
  5
1BF
100
AcDbEntity
  8
M04
100
AcDbLine
 10
386.894695
 20
647.041771
 30
0.0
 11
385.894695
 21
647.041771
 31
0.0
  0
LINE
  5
1C0
100
AcDbEntity
  8
M04
100
AcDbLine
 10
385.894695
 20
646.041771
 30
0.0
 11
385.894695
 21
647.041771
 31
0.0
  0
LINE
  5
1C1
100
AcDbEntity
  8
M04
100
AcDbLine
 10
407.894695
 20
645.541771
 30
0.0
 11
407.894695
 21
646.541771
 31
0.0
  0
LINE
  5
1C2
100
AcDbEntity
  8
M04
100
AcDbLine
 10
406.894695
 20
646.541771
 30
0.0
 11
407.894695
 21
646.541771
 31
0.0
  0
LINE
  5
1C3
102
{ACAD_REACTORS
330
114
102
}
100
AcDbEntity
  8
M02
100
AcDbLine
 10
399.894695
 20
626.041771
 30
0.0
 11
402.894695
 21
626.041771
 31
0.0
  0
LINE
  5
1C4
102
{ACAD_REACTORS
330
114
102
}
100
AcDbEntity
  8
M02
100
AcDbLine
 10
399.894695
 20
648.041771
 30
0.0
 11
402.894695
 21
648.041771
 31
0.0
  0
LINE
  5
1C5
102
{ACAD_REACTORS
330
114
102
}
100
AcDbEntity
  8
M01
100
AcDbLine
 10
402.894695
 20
627.541771
 30
0.0
 11
402.894695
 21
607.041771
 31
0.0
  0
LINE
  5
1C6
102
{ACAD_REACTORS
330
114
102
}
100
AcDbEntity
  8
M02
100
AcDbLine
 10
399.894695
 20
627.541771
 30
0.0
 11
399.894695
 21
607.041771
 31
0.0
  0
LINE
  5
1C7
100
AcDbEntity
  8
M04
100
AcDbLine
 10
395.894695
 20
627.541771
 30
0.0
 11
395.894695
 21
598.041771
 31
0.0
  0
LINE
  5
1C8
100
AcDbEntity
  8
M05
100
AcDbLine
 10
406.894695
 20
627.541771
 30
0.0
 11
406.894695
 21
646.541771
 31
0.0
  0
LINE
  5
1C9
100
AcDbEntity
  8
M05
100
AcDbLine
 10
386.894695
 20
627.041771
 30
0.0
 11
386.894695
 21
647.041771
 31
0.0
  0
LINE
  5
1CA
100
AcDbEntity
  8
M05
100
AcDbLine
 10
407.894695
 20
628.541771
 30
0.0
 11
406.894695
 21
627.541771
 31
0.0
  0
LINE
  5
1CB
100
AcDbEntity
  8
M05
100
AcDbLine
 10
406.894695
 20
646.541771
 30
0.0
 11
407.894695
 21
645.541771
 31
0.0
  0
LINE
  5
1CC
100
AcDbEntity
  8
M05
100
AcDbLine
 10
385.894695
 20
646.041771
 30
0.0
 11
386.894695
 21
647.041771
 31
0.0
  0
LINE
  5
1CD
100
AcDbEntity
  8
M05
100
AcDbLine
 10
386.894695
 20
627.041771
 30
0.0
 11
385.894695
 21
628.041771
 31
0.0
  0
LINE
  5
1CE
100
AcDbEntity
  8
M05
100
AcDbLine
 10
386.894695
 20
647.041771
 30
0.0
 11
390.894695
 21
647.041771
 31
0.0
  0
LINE
  5
1CF
100
AcDbEntity
  8
M05
100
AcDbLine
 10
386.894695
 20
627.041771
 30
0.0
 11
390.894695
 21
627.041771
 31
0.0
  0
LINE
  5
1D0
100
AcDbEntity
  8
M05
100
AcDbLine
 10
390.894695
 20
647.041771
 30
0.0
 11
390.894695
 21
627.041771
 31
0.0
  0
LINE
  5
1D1
100
AcDbEntity
  8
M05
100
AcDbLine
 10
385.894695
 20
646.041771
 30
0.0
 11
385.894695
 21
628.041771
 31
0.0
  0
LINE
  5
1D2
100
AcDbEntity
  8
M05
100
AcDbLine
 10
390.894695
 20
627.541771
 30
0.0
 11
406.894695
 21
627.541771
 31
0.0
  0
LINE
  5
1D3
100
AcDbEntity
  8
M05
100
AcDbLine
 10
390.894695
 20
646.541771
 30
0.0
 11
406.894695
 21
646.541771
 31
0.0
  0
LINE
  5
1D4
100
AcDbEntity
  8
CENTRE
100
AcDbLine
 10
380.069773
 20
637.041771
 30
0.0
 11
489.786736
 21
637.041771
 31
0.0
  0
LINE
  5
1D5
100
AcDbEntity
  8
M05
100
AcDbLine
 10
407.894695
 20
645.541771
 30
0.0
 11
407.894695
 21
628.541771
 31
0.0
  0
LINE
  5
1D6
100
AcDbEntity
  8
CENTRE
100
AcDbLine
 10
375.548578
 20
707.541771
 30
0.0
 11
413.638277
 21
707.541771
 31
0.0
  0
LINE
  5
1D7
100
AcDbEntity
  8
M04
100
AcDbLine
 10
456.894695
 20
793.713249
 30
0.0
 11
456.894695
 21
656.541771
 31
0.0
  0
LINE
  5
1D8
100
AcDbEntity
  8
M04
100
AcDbLine
 10
395.894695
 20
598.041771
 30
0.0
 11
456.894695
 21
598.041771
 31
0.0
  0
LINE
  5
1D9
100
AcDbEntity
  8
M04
100
AcDbLine
 10
395.894695
 20
773.041771
 30
0.0
 11
395.894695
 21
711.541771
 31
0.0
  0
LINE
  5
1DA
102
{ACAD_REACTORS
330
114
102
}
100
AcDbEntity
  8
M02
100
AcDbLine
 10
402.894695
 20
701.041771
 30
0.0
 11
399.894695
 21
701.041771
 31
0.0
  0
LINE
  5
1DB
100
AcDbEntity
  8
M01
100
AcDbLine
 10
402.894695
 20
701.041771
 30
0.0
 11
408.894695
 21
701.041771
 31
0.0
  0
LINE
  5
1DC
100
AcDbEntity
  8
M01
100
AcDbLine
 10
408.894695
 20
713.041771
 30
0.0
 11
408.894695
 21
701.041771
 31
0.0
  0
LINE
  5
1DD
102
{ACAD_REACTORS
330
113
102
}
100
AcDbEntity
  8
M02
100
AcDbLine
 10
449.894695
 20
711.041771
 30
0.0
 11
452.894695
 21
711.041771
 31
0.0
  0
LINE
  5
1DE
102
{ACAD_REACTORS
330
114
102
}
100
AcDbEntity
  8
M02
100
AcDbLine
 10
402.894695
 20
607.041771
 30
0.0
 11
399.894695
 21
607.041771
 31
0.0
  0
LINE
  5
1DF
102
{ACAD_REACTORS
330
113
102
}
100
AcDbEntity
  8
M02
100
AcDbLine
 10
452.894695
 20
711.041771
 30
0.0
 11
452.894695
 21
671.041771
 31
0.0
  0
LINE
  5
1E0
102
{ACAD_REACTORS
330
114
102
}
100
AcDbEntity
  8
M02
100
AcDbLine
 10
399.894695
 20
703.541771
 30
0.0
 11
399.894695
 21
646.541771
 31
0.0
  0
LINE
  5
1E1
100
AcDbEntity
  8
M01
100
AcDbLine
 10
449.894695
 20
607.041771
 30
0.0
 11
447.894695
 21
605.041771
 31
0.0
  0
LINE
  5
1E2
100
AcDbEntity
  8
M01
100
AcDbLine
 10
447.894695
 20
713.041771
 30
0.0
 11
449.894695
 21
711.041771
 31
0.0
  0
LINE
  5
1E3
100
AcDbEntity
  8
M01
100
AcDbLine
 10
403.894695
 20
712.041771
 30
0.0
 11
404.894695
 21
713.041771
 31
0.0
  0
LINE
  5
1E4
100
AcDbEntity
  8
M01
100
AcDbLine
 10
404.894695
 20
605.041771
 30
0.0
 11
402.894695
 21
607.041771
 31
0.0
  0
LINE
  5
1E5
102
{ACAD_REACTORS
330
113
330
62
102
}
100
AcDbEntity
  8
M01
100
AcDbLine
 10
449.894695
 20
711.041771
 30
0.0
 11
449.894695
 21
666.041771
 31
0.0
  0
LINE
  5
1E6
100
AcDbEntity
  8
M01
100
AcDbLine
 10
404.894695
 20
605.041771
 30
0.0
 11
447.894695
 21
605.041771
 31
0.0
  0
LINE
  5
1E7
100
AcDbEntity
  8
M01
100
AcDbLine
 10
404.894695
 20
713.041771
 30
0.0
 11
447.894695
 21
713.041771
 31
0.0
  0
LINE
  5
1E8
102
{ACAD_REACTORS
330
114
102
}
100
AcDbEntity
  8
M01
100
AcDbLine
 10
402.894695
 20
703.541771
 30
0.0
 11
402.894695
 21
646.541771
 31
0.0
  0
HATCH
  5
1E9
100
AcDbEntity
  8
HATCH
100
AcDbHatch
 10
0.0
 20
0.0
 30
0.0
210
0.0
220
0.0
230
1.0
  2
_U
 70
     0
 71
     1
 91
        4
 92
        7
 72
     0
 73
     1
 93
        4
 10
82.48182796491528
 20
451.9690195151781
 10
54.98182796491523
 20
451.9690195151781
 10
54.98182796491523
 20
448.9690195151781
 10
82.4818279649151
 20
448.9690195151781
 97
        4
330
440
330
436
330
434
330
319
 92
        7
 72
     0
 73
     1
 93
        4
 10
124.9818279649149
 20
451.9690195151781
 10
112.4818279649151
 20
451.9690195151781
 10
112.4818279649152
 20
448.9690195151781
 10
124.9818279649151
 20
448.9690195151781
 97
        4
330
440
330
318
330
2EC
330
3E5
 92
        7
 72
     0
 73
     1
 93
        4
 10
207.4818279649152
 20
451.9690195151781
 10
194.9818279649155
 20
451.9690195151782
 10
194.9818279649154
 20
448.9690195151781
 10
207.481827964915
 20
448.9690195151781
 97
        4
330
26F
330
407
330
3E3
330
3DC
 92
        7
 72
     0
 73
     1
 93
        4
 10
237.4818279649152
 20
451.9690195151781
 10
237.4818279649152
 20
448.9690195151781
 10
264.9818279649151
 20
448.9690195151781
 10
264.9818279649151
 20
451.969019515178
 97
        4
330
3DB
330
3D0
330
435
330
26F
 75
     0
 76
     0
 52
135.0
 41
0.8
 77
     0
 78
     1
 53
135.0
 43
-395.465413
 44
204.482545
 45
-0.5656854249492382
 46
-0.565685424949238
 79
     0
 47
0.207639
 98
        4
 10
70.972842
 20
450.148203
 10
118.126275
 20
451.394035
 10
201.008298
 20
450.355842
 10
250.238974
 20
450.355842
  0
HATCH
  5
1EA
100
AcDbEntity
  8
HATCH
100
AcDbHatch
 10
0.0
 20
0.0
 30
0.0
210
0.0
220
0.0
230
1.0
  2
_U
 70
     0
 71
     0
 91
        4
 92
        7
 72
     0
 73
     1
 93
        4
 10
79.48182796491517
 20
501.9690195151781
 10
54.98182796491523
 20
501.9690195151781
 10
54.98182796491523
 20
498.9690195151781
 10
79.48182796491522
 20
498.9690195151781
 97
        0
 92
        7
 72
     0
 73
     1
 93
        4
 10
148.9818279649152
 20
501.969019515178
 10
115.481827964915
 20
501.969019515178
 10
115.4818279649152
 20
498.9690195151782
 10
148.9818279649152
 20
498.9690195151781
 97
        0
 92
        7
 72
     0
 73
     1
 93
        4
 10
204.4818279649152
 20
501.9690195151781
 10
170.9818279649152
 20
501.969019515178
 10
170.9818279649152
 20
498.9690195151781
 10
204.4818279649152
 20
498.9690195151781
 97
        0
 92
        7
 72
     0
 73
     1
 93
        4
 10
264.9818279649151
 20
501.9690195151781
 10
240.4818279649152
 20
501.9690195151781
 10
240.4818279649152
 20
498.9690195151781
 10
264.9818279649152
 20
498.9690195151782
 97
        0
 75
     0
 76
     0
 52
135.0
 41
0.8
 77
     0
 78
     1
 53
135.0
 43
-395.465413
 44
204.482545
 45
-0.5656854249492382
 46
-0.565685424949238
 79
     0
 47
0.207639
 98
        4
 10
76.373676
 20
500.604404
 10
122.69621
 20
500.604404
 10
185.013521
 20
499.981488
 10
247.330832
 20
500.812042
  0
HATCH
  5
1EB
100
AcDbEntity
  8
M03
100
AcDbHatch
 10
0.0
 20
0.0
 30
0.0
210
0.0
220
0.0
230
1.0
  2
_U
 70
     0
 71
     0
 91
        1
 92
        7
 72
     0
 73
     1
 93
        4
 10
105.6747651717302
 20
608.9417711365676
 10
66.43630575709483
 20
608.9417711365676
 10
66.43630575709477
 20
607.0417711365676
 10
105.6747651717303
 20
607.0417711365676
 97
        0
 75
     0
 76
     0
 52
330.0
 41
0.7
 77
     0
 78
     1
 53
330.0
 43
-395.465413
 44
204.482545
 45
0.3500000000000003
 46
0.6062177826491069
 79
     0
 47
0.080625
 98
        1
 10
91.365265
 20
608.079233
  0
HATCH
  5
1EE
100
AcDbEntity
  8
M03
100
AcDbHatch
 10
0.0
 20
0.0
 30
0.0
210
0.0
220
0.0
230
1.0
  2
_U
 70
     0
 71
     0
 91
        1
 92
        7
 72
     0
 73
     1
 93
        4
 10
105.6747651717302
 20
608.9417711365675
 10
66.43630575709483
 20
608.9417711365676
 10
66.43630575709488
 20
607.0417711365676
 10
105.6747651717303
 20
607.0417711365676
 97
        0
 75
     0
 76
     0
 52
30.0
 41
0.7
 77
     0
 78
     1
 53
30.0
 43
-395.465413
 44
204.482545
 45
-0.3499999999999999
 46
0.6062177826491072
 79
     0
 47
0.080625
 98
        1
 10
72.813839
 20
607.756733
  0
HATCH
  5
1EF
100
AcDbEntity
  8
HATCH
100
AcDbHatch
 10
0.0
 20
0.0
 30
0.0
210
0.0
220
0.0
230
1.0
  2
_U
 70
     0
 71
     1
 91
        2
 92
        7
 72
     0
 73
     1
 93
       11
 10
89.62294597745813
 20
451.9690195151781
 10
84.18182796491526
 20
451.9690195151781
 10
83.48182796491522
 20
451.2690195151781
 10
83.48182796491533
 20
445.6690195151779
 10
84.18182796491533
 20
444.9690195151781
 10
86.98182796491545
 20
444.9690195151781
 10
87.98182796491522
 20
445.969019515178
 10
89.98182796491482
 20
445.9690195151781
 10
90.98182796491455
 20
444.9690195151781
 10
93.981827964915
 20
444.9690195151781
 10
93.98182796491505
 20
447.610137527721
 97
       10
330
440
330
316
330
31B
330
317
330
446
330
1F3
330
1F5
330
1F4
330
304
330
306
 92
        7
 72
     0
 73
     1
 93
       11
 10
105.3407099523723
 20
451.9690195151781
 10
100.9818279649152
 20
447.610137527721
 10
100.9818279649151
 20
444.969019515178
 10
103.981827964916
 20
444.969019515178
 10
104.9818279649156
 20
445.969019515178
 10
106.9818279649151
 20
445.969019515178
 10
107.9818279649151
 20
444.9690195151781
 10
110.7818279649151
 20
444.9690195151781
 10
111.4818279649151
 20
445.669019515178
 10
111.4818279649152
 20
451.2690195151781
 10
110.7818279649152
 20
451.9690195151781
 97
       10
330
311
330
440
330
308
330
303
330
2EB
330
1F1
330
1F2
330
1F0
330
312
330
313
 75
     0
 76
     0
 52
135.0
 41
1.5
 77
     0
 78
     1
 53
135.0
 43
-402.965413
 44
204.482545
 45
-1.060660171779821
 46
-1.060660171779821
 79
     0
 47
0.040219
 98
        2
 10
88.633611
 20
449.44859
 10
107.101899
 20
449.006178
  0
LINE
  5
1F0
102
{ACAD_REACTORS
330
1EF
102
}
100
AcDbEntity
  8
M05
100
AcDbLine
 10
106.981828
 20
445.96902
 30
0.0
 11
107.981828
 21
444.96902
 31
0.0
  0
LINE
  5
1F1
102
{ACAD_REACTORS
330
1EF
102
}
100
AcDbEntity
  8
M05
100
AcDbLine
 10
104.981828
 20
445.96902
 30
0.0
 11
103.981828
 21
444.96902
 31
0.0
  0
LINE
  5
1F2
102
{ACAD_REACTORS
330
1EF
102
}
100
AcDbEntity
  8
M05
100
AcDbLine
 10
106.981828
 20
445.96902
 30
0.0
 11
104.981828
 21
445.96902
 31
0.0
  0
LINE
  5
1F3
102
{ACAD_REACTORS
330
1EF
102
}
100
AcDbEntity
  8
M05
100
AcDbLine
 10
87.981828
 20
445.96902
 30
0.0
 11
86.981828
 21
444.96902
 31
0.0
  0
LINE
  5
1F4
102
{ACAD_REACTORS
330
1EF
102
}
100
AcDbEntity
  8
M05
100
AcDbLine
 10
89.981828
 20
445.96902
 30
0.0
 11
90.981828
 21
444.96902
 31
0.0
  0
LINE
  5
1F5
102
{ACAD_REACTORS
330
1EF
102
}
100
AcDbEntity
  8
M05
100
AcDbLine
 10
87.981828
 20
445.96902
 30
0.0
 11
89.981828
 21
445.96902
 31
0.0
  0
HATCH
  5
1F6
100
AcDbEntity
  8
HATCH
100
AcDbHatch
 10
0.0
 20
0.0
 30
0.0
210
0.0
220
0.0
230
1.0
  2
_U
 70
     0
 71
     0
 91
        2
 92
        7
 72
     0
 73
     1
 93
       11
 10
214.622945977458
 20
451.9690195151781
 10
209.1818279649154
 20
451.9690195151781
 10
208.4818279649152
 20
451.2690195151781
 10
208.4818279649152
 20
445.669019515178
 10
209.1818279649151
 20
444.9690195151781
 10
211.9818279649153
 20
444.9690195151781
 10
212.9818279649151
 20
445.969019515178
 10
214.9818279649148
 20
445.9690195151781
 10
215.9818279649144
 20
444.9690195151781
 10
218.9818279649151
 20
444.9690195151781
 10
218.9818279649151
 20
447.610137527721
 97
        0
 92
        7
 72
     0
 73
     1
 93
       11
 10
236.4818279649152
 20
451.2690195151781
 10
235.7818279649151
 20
451.969019515178
 10
230.3407099523721
 20
451.969019515178
 10
225.9818279649152
 20
447.610137527721
 10
225.9818279649152
 20
444.969019515178
 10
228.9818279649159
 20
444.969019515178
 10
229.9818279649156
 20
445.969019515178
 10
231.9818279649152
 20
445.969019515178
 10
232.981827964915
 20
444.969019515178
 10
235.7818279649151
 20
444.969019515178
 10
236.481827964915
 20
445.6690195151778
 97
        0
 75
     0
 76
     0
 52
135.0
 41
1.5
 77
     0
 78
     1
 53
135.0
 43
-387.965413
 44
204.482545
 45
-1.060660171779821
 46
-1.060660171779821
 79
     0
 47
0.151518
 98
        2
 10
212.957758
 20
448.653057
 10
231.602169
 20
449.259128
  0
LINE
  5
1F7
100
AcDbEntity
  8
M05
100
AcDbLine
 10
212.981828
 20
445.96902
 30
0.0
 11
211.981828
 21
444.96902
 31
0.0
  0
LINE
  5
1F8
100
AcDbEntity
  8
M05
100
AcDbLine
 10
214.981828
 20
445.96902
 30
0.0
 11
215.981828
 21
444.96902
 31
0.0
  0
LINE
  5
1F9
100
AcDbEntity
  8
M05
100
AcDbLine
 10
212.981828
 20
445.96902
 30
0.0
 11
214.981828
 21
445.96902
 31
0.0
  0
LINE
  5
1FA
100
AcDbEntity
  8
M05
100
AcDbLine
 10
231.981828
 20
445.96902
 30
0.0
 11
232.981828
 21
444.96902
 31
0.0
  0
LINE
  5
1FB
100
AcDbEntity
  8
M05
100
AcDbLine
 10
229.981828
 20
445.96902
 30
0.0
 11
228.981828
 21
444.96902
 31
0.0
  0
LINE
  5
1FC
100
AcDbEntity
  8
M05
100
AcDbLine
 10
231.981828
 20
445.96902
 30
0.0
 11
229.981828
 21
445.96902
 31
0.0
  0
LINE
  5
1FD
100
AcDbEntity
  8
M02
100
AcDbLine
 10
204.481828
 20
498.96902
 30
0.0
 11
204.481828
 21
501.96902
 31
0.0
  0
LINE
  5
1FE
100
AcDbEntity
  8
M02
100
AcDbLine
 10
240.481828
 20
498.96902
 30
0.0
 11
240.481828
 21
501.96902
 31
0.0
  0
LINE
  5
1FF
100
AcDbEntity
  8
M02
100
AcDbLine
 10
115.481828
 20
498.96902
 30
0.0
 11
115.481828
 21
501.96902
 31
0.0
  0
LINE
  5
200
100
AcDbEntity
  8
M02
100
AcDbLine
 10
79.481828
 20
498.96902
 30
0.0
 11
79.481828
 21
501.96902
 31
0.0
  0
TEXT
  5
201
100
AcDbEntity
  8
DIMS
 62
     2
100
AcDbText
 10
302.181884
 20
617.343096
 30
0.0
 40
3.0
  1
(W=50.00 OPTION)
 50
90.0
100
AcDbText
  0
POINT
  5
202
100
AcDbEntity
  8
DEFPOINTS
  6
BYBLOCK
 62
     0
100
AcDbPoint
 10
222.481828
 20
687.041771
 30
0.0
  0
POINT
  5
203
100
AcDbEntity
  8
DEFPOINTS
  6
BYBLOCK
 62
     0
100
AcDbPoint
 10
225.891695
 20
692.575559
 30
0.0
  0
SOLID
  5
204
100
AcDbEntity
  8
0
  6
BYBLOCK
 62
     4
100
AcDbTrace
 10
227.039804
 20
695.391912
 30
0.0
 11
227.891156
 21
694.867317
 31
0.0
 12
225.891695
 22
692.575559
 32
0.0
 13
225.891695
 23
692.575559
 33
0.0
  0
LINE
  5
205
100
AcDbEntity
  8
0
  6
BYBLOCK
 62
     4
100
AcDbLine
 10
227.46548
 20
695.129614
 30
0.0
 11
235.002669
 21
707.062835
 31
0.0
  0
LINE
  5
206
100
AcDbEntity
  8
M01
100
AcDbLine
 10
175.231828
 20
734.985871
 30
0.0
 11
168.731828
 21
734.985871
 31
0.0
  0
LINE
  5
207
100
AcDbEntity
  8
M01
100
AcDbLine
 10
175.231828
 20
743.097671
 30
0.0
 11
168.731828
 21
743.097671
 31
0.0
  0
LINE
  5
208
100
AcDbEntity
  8
M01
100
AcDbLine
 10
175.231828
 20
734.985871
 30
0.0
 11
175.231828
 21
733.041771
 31
0.0
  0
ARC
  5
209
100
AcDbEntity
  8
M01
100
AcDbCircle
 10
176.481828
 20
736.547121
 30
0.0
 40
2.0
100
AcDbArc
 50
180.0
 51
231.317813
  0
ARC
  5
20A
100
AcDbEntity
  8
M01
100
AcDbCircle
 10
176.481828
 20
741.536421
 30
0.0
 40
2.0
100
AcDbArc
 50
128.682187
 51
180.0
  0
LINE
  5
20B
100
AcDbEntity
  8
M01
100
AcDbLine
 10
175.231828
 20
745.041771
 30
0.0
 11
175.231828
 21
743.097671
 31
0.0
  0
LINE
  5
20C
100
AcDbEntity
  8
M01
100
AcDbLine
 10
174.481828
 20
741.536421
 30
0.0
 11
174.481828
 21
736.547121
 31
0.0
  0
LINE
  5
20D
100
AcDbEntity
  8
M01
100
AcDbLine
 10
168.731828
 20
734.985871
 30
0.0
 11
168.731828
 21
733.041771
 31
0.0
  0
ARC
  5
20E
100
AcDbEntity
  8
M01
100
AcDbCircle
 10
167.481828
 20
736.547121
 30
0.0
 40
2.0
100
AcDbArc
 50
308.682187
 51
0.0
  0
ARC
  5
20F
100
AcDbEntity
  8
M01
100
AcDbCircle
 10
167.481828
 20
741.536421
 30
0.0
 40
2.0
100
AcDbArc
 50
0.0
 51
51.317813
  0
LINE
  5
210
100
AcDbEntity
  8
M01
100
AcDbLine
 10
168.731828
 20
745.041771
 30
0.0
 11
168.731828
 21
743.097671
 31
0.0
  0
LINE
  5
211
100
AcDbEntity
  8
M01
100
AcDbLine
 10
169.481828
 20
741.536421
 30
0.0
 11
169.481828
 21
736.547121
 31
0.0
  0
LINE
  5
212
100
AcDbEntity
  8
DIMS
 62
     4
100
AcDbLine
 10
222.481828
 20
690.441771
 30
0.0
 11
222.481828
 21
695.241771
 31
0.0
  0
LINE
  5
213
100
AcDbEntity
  8
DIMS
 62
     4
100
AcDbLine
 10
222.481828
 20
683.641771
 30
0.0
 11
222.481828
 21
678.841771
 31
0.0
  0
LINE
  5
214
100
AcDbEntity
  8
DIMS
 62
     4
100
AcDbLine
 10
225.881828
 20
687.041771
 30
0.0
 11
230.681828
 21
687.041771
 31
0.0
  0
LINE
  5
215
100
AcDbEntity
  8
DIMS
 62
     4
100
AcDbLine
 10
219.081828
 20
687.041771
 30
0.0
 11
214.281828
 21
687.041771
 31
0.0
  0
LINE
  5
216
100
AcDbEntity
  8
DIMS
 62
     4
100
AcDbLine
 10
222.481828
 20
685.341771
 30
0.0
 11
222.481828
 21
688.741771
 31
0.0
  0
LINE
  5
217
100
AcDbEntity
  8
DIMS
 62
     4
100
AcDbLine
 10
220.781828
 20
687.041771
 30
0.0
 11
224.181828
 21
687.041771
 31
0.0
  0
LINE
  5
218
100
AcDbEntity
  8
DIMS
 62
     4
100
AcDbLine
 10
97.481828
 20
690.441771
 30
0.0
 11
97.481828
 21
695.241771
 31
0.0
  0
LINE
  5
219
100
AcDbEntity
  8
DIMS
 62
     4
100
AcDbLine
 10
97.481828
 20
683.641771
 30
0.0
 11
97.481828
 21
678.841771
 31
0.0
  0
LINE
  5
21A
100
AcDbEntity
  8
DIMS
 62
     4
100
AcDbLine
 10
100.881828
 20
687.041771
 30
0.0
 11
105.681828
 21
687.041771
 31
0.0
  0
LINE
  5
21B
100
AcDbEntity
  8
DIMS
 62
     4
100
AcDbLine
 10
94.081828
 20
687.041771
 30
0.0
 11
89.281828
 21
687.041771
 31
0.0
  0
LINE
  5
21C
100
AcDbEntity
  8
DIMS
 62
     4
100
AcDbLine
 10
97.481828
 20
685.341771
 30
0.0
 11
97.481828
 21
688.741771
 31
0.0
  0
LINE
  5
21D
100
AcDbEntity
  8
DIMS
 62
     4
100
AcDbLine
 10
95.781828
 20
687.041771
 30
0.0
 11
99.181828
 21
687.041771
 31
0.0
  0
LINE
  5
21E
100
AcDbEntity
  8
DIMS
 62
     4
100
AcDbLine
 10
97.481828
 20
590.441771
 30
0.0
 11
97.481828
 21
595.241771
 31
0.0
  0
LINE
  5
21F
100
AcDbEntity
  8
DIMS
 62
     4
100
AcDbLine
 10
97.481828
 20
583.641771
 30
0.0
 11
97.481828
 21
578.841771
 31
0.0
  0
LINE
  5
220
100
AcDbEntity
  8
DIMS
 62
     4
100
AcDbLine
 10
100.881828
 20
587.041771
 30
0.0
 11
105.681828
 21
587.041771
 31
0.0
  0
LINE
  5
221
100
AcDbEntity
  8
DIMS
 62
     4
100
AcDbLine
 10
94.081828
 20
587.041771
 30
0.0
 11
89.281828
 21
587.041771
 31
0.0
  0
LINE
  5
222
100
AcDbEntity
  8
DIMS
 62
     4
100
AcDbLine
 10
97.481828
 20
585.341771
 30
0.0
 11
97.481828
 21
588.741771
 31
0.0
  0
LINE
  5
223
100
AcDbEntity
  8
DIMS
 62
     4
100
AcDbLine
 10
95.781828
 20
587.041771
 30
0.0
 11
99.181828
 21
587.041771
 31
0.0
  0
LINE
  5
224
100
AcDbEntity
  8
DIMS
 62
     4
100
AcDbLine
 10
222.481828
 20
590.441771
 30
0.0
 11
222.481828
 21
595.241771
 31
0.0
  0
LINE
  5
225
100
AcDbEntity
  8
DIMS
 62
     4
100
AcDbLine
 10
222.481828
 20
583.641771
 30
0.0
 11
222.481828
 21
578.841771
 31
0.0
  0
LINE
  5
226
100
AcDbEntity
  8
DIMS
 62
     4
100
AcDbLine
 10
225.881828
 20
587.041771
 30
0.0
 11
230.681828
 21
587.041771
 31
0.0
  0
LINE
  5
227
100
AcDbEntity
  8
DIMS
 62
     4
100
AcDbLine
 10
219.081828
 20
587.041771
 30
0.0
 11
214.281828
 21
587.041771
 31
0.0
  0
LINE
  5
228
100
AcDbEntity
  8
DIMS
 62
     4
100
AcDbLine
 10
222.481828
 20
585.341771
 30
0.0
 11
222.481828
 21
588.741771
 31
0.0
  0
LINE
  5
229
100
AcDbEntity
  8
DIMS
 62
     4
100
AcDbLine
 10
220.781828
 20
587.041771
 30
0.0
 11
224.181828
 21
587.041771
 31
0.0
  0
CIRCLE
  5
22A
100
AcDbEntity
  8
M04
100
AcDbCircle
 10
222.481828
 20
587.041771
 30
0.0
 40
6.5
  0
CIRCLE
  5
22B
100
AcDbEntity
  8
M04
100
AcDbCircle
 10
222.481828
 20
687.041771
 30
0.0
 40
6.5
  0
CIRCLE
  5
22C
100
AcDbEntity
  8
M04
100
AcDbCircle
 10
97.481828
 20
587.041771
 30
0.0
 40
6.5
  0
CIRCLE
  5
22D
100
AcDbEntity
  8
M04
100
AcDbCircle
 10
97.481828
 20
687.041771
 30
0.0
 40
6.5
  0
HATCH
  5
22E
100
AcDbEntity
  8
DIMS
100
AcDbHatch
 10
0.0
 20
0.0
 30
0.0
210
0.0
220
0.0
230
1.0
  2
_U
 70
     0
 71
     1
 91
        5
 92
        7
 72
     0
 73
     1
 93
        9
 10
191.4818279649152
 20
449.9690195151779
 10
191.4818279649152
 20
445.969019515178
 10
193.2818279649153
 20
445.9690195151779
 10
193.9818279649154
 20
446.669019515178
 10
193.9818279649154
 20
451.269019515178
 10
193.2818279649153
 20
451.9690195151781
 10
189.6818279649152
 20
451.9690195151781
 10
189.6818279649153
 20
449.969019515178
 10
191.2318279649154
 20
449.969019515178
 97
        9
330
405
330
26F
330
283
330
274
330
288
330
276
330
408
330
406
330
409
 92
        7
 72
     1
 73
     1
 93
       16
 10
179.2818279649153
 20
440.969019515178
 42
0.0
 10
179.9818279649152
 20
441.669019515178
 42
0.0
 10
179.9818279649152
 20
442.9690195151781
 42
0.0
 10
179.4818279649152
 20
442.969019515178
 42
0.0
 10
179.4818279649153
 20
445.969019515178
 42
0.0
 10
180.4818279649153
 20
445.969019515178
 42
0.0
 10
180.4818279649153
 20
449.969019515178
 42
0.0
 10
180.7318279649153
 20
449.969019515178
 42
0.0
 10
182.281827964915
 20
449.969019515178
 42
0.0
 10
182.2818279649153
 20
451.9690195151782
 42
0.0
 10
169.9818279649151
 20
451.9690195151782
 42
0.0
 10
169.9818279649151
 20
460.9690195151778
 42
0.0
 10
168.9818279649152
 20
461.9690195151779
 42
0.0
 10
163.9818279649152
 20
461.969019515178
 42
0.0
 10
163.0227019628111
 20
443.6678051682791
 42
-0.1092323044357263
 10
169.1469793548266
 20
440.9690195151779
 42
0.0
 97
       16
330
408
330
277
330
275
330
274
330
282
330
3E6
330
412
330
40E
330
410
330
3EF
330
3F0
330
3FE
330
3FD
330
400
330
3FB
330
3FA
 92
        7
 72
     1
 73
     1
 93
       16
 10
156.940953967019
 20
443.6678051682791
 42
0.0
 10
155.9818279649152
 20
461.969019515178
 42
0.0
 10
150.9818279649152
 20
461.969019515178
 42
0.0
 10
149.9818279649152
 20
460.9690195151779
 42
0.0
 10
149.9818279649152
 20
451.9690195151781
 42
0.0
 10
137.6818279649151
 20
451.9690195151781
 42
0.0
 10
137.6818279649152
 20
449.969019515178
 42
0.0
 10
139.2318279649151
 20
449.969019515178
 42
0.0
 10
139.4818279649151
 20
449.969019515178
 42
0.0
 10
139.4818279649151
 20
445.9690195151781
 42
0.0
 10
140.4818279649152
 20
445.9690195151781
 42
0.0
 10
140.4818279649152
 20
442.9690195151778
 42
0.0
 10
139.9818279649152
 20
442.9690195151778
 42
0.0
 10
139.9818279649152
 20
441.6690195151777
 42
0.0
 10
140.6818279649152
 20
440.9690195151776
 42
0.0
 10
150.8166765750035
 20
440.9690195151778
 42
-0.1092323044357266
 97
       16
330
410
330
40F
330
411
330
440
330
267
330
259
330
25A
330
25C
330
3F8
330
3F9
330
3F7
330
3FF
330
3FC
330
3FE
330
3EC
330
3EE
 92
        7
 72
     0
 73
     1
 93
        9
 10
128.4818279649152
 20
449.9690195151779
 10
128.731827964915
 20
449.9690195151779
 10
130.2818279649151
 20
449.9690195151779
 10
130.2818279649151
 20
451.9690195151781
 10
126.6818279649151
 20
451.9690195151782
 10
125.9818279649149
 20
451.2690195151781
 10
125.9818279649149
 20
446.669019515178
 10
126.681827964915
 20
445.9690195151781
 10
128.4818279649152
 20
445.9690195151781
 97
        9
330
440
330
403
330
404
330
3E4
330
3F8
330
25B
330
26D
330
259
330
268
 92
       24
 93
        4
 72
     1
 10
164.555909
 20
447.036507
 11
178.927337
 21
447.036507
 72
     1
 10
178.927337
 20
447.036507
 11
178.927337
 21
450.036507
 72
     1
 10
178.927337
 20
450.036507
 11
164.555909
 21
450.036507
 72
     1
 10
164.555909
 20
450.036507
 11
164.555909
 21
447.036507
 97
        1
330
3E0
 75
     0
 76
     0
 52
135.0
 41
2.5
 77
     0
 78
     1
 53
135.0
 43
-395.465413
 44
204.482545
 45
-1.767766952966368
 46
-1.767766952966368
 79
     0
 47
0.085632
 98
        4
 10
192.47879
 20
450.327004
 10
174.831345
 20
444.332774
 10
152.043867
 20
445.531621
 10
127.800048
 20
450.327004
  0
HATCH
  5
22F
100
AcDbEntity
  8
DIMS
100
AcDbHatch
 10
0.0
 20
0.0
 30
0.0
210
0.0
220
0.0
230
1.0
  2
_U
 70
     0
 71
     1
 91
        4
 92
        7
 72
     1
 73
     1
 93
        2
 10
253.9818279649152
 20
494.9690195151783
 42
1.0
 10
261.9818279649152
 20
494.9690195151783
 42
1.0
 97
        1
330
254
 92
        7
 72
     1
 73
     1
 93
        2
 10
253.9818279649152
 20
455.969019515178
 42
1.0
 10
261.9818279649152
 20
455.969019515178
 42
1.0
 97
        1
330
24B
 92
        7
 72
     1
 73
     1
 93
        2
 10
57.98182796491523
 20
455.969019515178
 42
1.0
 10
65.98182796491522
 20
455.969019515178
 42
1.0
 97
        1
330
239
 92
        7
 72
     1
 73
     1
 93
        2
 10
57.98182796491523
 20
494.9690195151783
 42
1.0
 10
65.98182796491522
 20
494.9690195151783
 42
1.0
 97
        1
330
242
 75
     0
 76
     0
 52
45.0
 41
0.8
 77
     0
 78
     1
 53
45.0
 43
-395.465413
 44
204.482545
 45
-0.565685424949238
 46
0.565685424949238
 79
     0
 47
0.21827
 98
        4
 10
257.610473
 20
496.794501
 10
259.357354
 20
457.2876
 10
63.706578
 20
457.06933
 10
63.269858
 20
496.357961
  0
HATCH
  5
230
100
AcDbEntity
  8
DIMS
100
AcDbHatch
 10
0.0
 20
0.0
 30
0.0
210
0.0
220
0.0
230
1.0
  2
_U
 70
     0
 71
     1
 91
       21
 92
        7
 72
     1
 73
     1
 93
       39
 10
93.48182796491522
 20
498.9690195151781
 42
0.0
 10
65.98182796491522
 20
498.9690195151781
 42
0.0
 10
65.98182796491522
 20
494.9690195151783
 42
-1.0
 10
57.98182796491523
 20
494.9690195151783
 42
0.0
 10
57.98182796491523
 20
498.9690195151781
 42
0.0
 10
54.98182796491523
 20
498.9690195151781
 42
0.0
 10
52.98182796491523
 20
496.9690195151781
 42
0.0
 10
52.98182796491523
 20
453.9690195151782
 42
0.0
 10
54.98182796491528
 20
451.9690195151781
 42
0.0
 10
57.98182796491523
 20
451.9690195151781
 42
0.0
 10
57.98182796491523
 20
455.969019515178
 42
-1.0
 10
65.98182796491522
 20
455.969019515178
 42
0.0
 10
65.98182796491522
 20
451.9690195151781
 42
0.0
 10
83.48182796491517
 20
451.969019515178
 42
0.0
 10
83.48182796491528
 20
452.2690195151781
 42
0.0
 10
84.18182796491521
 20
452.969019515178
 42
0.0
 10
110.7818279649151
 20
452.9690195151781
 42
0.0
 10
111.4818279649151
 20
452.2690195151779
 42
0.0
 10
111.4818279649151
 20
451.9690195151781
 42
0.0
 10
130.9818279649152
 20
451.9690195151782
 42
0.0
 10
130.9818279649152
 20
459.2690195151781
 42
0.0
 10
130.9818279649152
 20
461.7690195151779
 42
0.0
 10
131.6818279649152
 20
461.7690195151779
 42
0.0
 10
131.6818279649152
 20
463.269019515178
 42
0.0
 10
133.9818279649152
 20
464.596925134314
 42
0.0
 10
136.2818279649151
 20
463.269019515178
 42
0.0
 10
136.2818279649151
 20
461.7690195151779
 42
0.0
 10
136.9818279649152
 20
461.7690195151779
 42
0.0
 10
136.9818279649152
 20
459.2690195151782
 42
0.0
 10
136.9818279649152
 20
451.9690195151782
 42
0.0
 10
149.4818279649154
 20
451.9690195151782
 42
0.0
 10
149.9818279649152
 20
452.4690195151777
 42
0.0
 10
149.9818279649152
 20
460.969019515178
 42
0.0
 10
149.9818279649154
 20
461.969019515178
 42
0.0
 10
150.9818279649153
 20
461.969019515178
 42
0.0
 10
155.9818279649152
 20
461.9690195151779
 42
0.0
 10
155.9818279649152
 20
471.4690195151781
 42
0.0
 10
97.48182796491523
 20
471.4690195151781
 42
-0.4142135623730951
 10
93.48182796491522
 20
475.469019515178
 42
0.0
 97
       34
330
441
330
240
330
242
330
241
330
43C
330
43F
330
43D
330
440
330
238
330
239
330
237
330
315
330
314
330
31A
330
30F
330
310
330
26C
330
257
330
261
330
258
330
25E
330
25F
330
256
330
255
330
26B
330
401
330
411
330
40A
330
40B
330
410
330
3ED
330
3C4
330
3C7
330
3C6
 92
        7
 72
     0
 73
     1
 93
        8
 10
150.4818279649152
 20
493.9690195151782
 10
150.4818279649152
 20
494.9690195151783
 10
150.4818279649152
 20
498.9690195151781
 10
101.4818279649152
 20
498.9690195151781
 10
101.4818279649152
 20
479.469019515178
 10
159.9818279649151
 20
479.469019515178
 10
159.9818279649151
 20
493.9690195151782
 10
151.4818279649152
 20
493.9690195151782
 97
        8
330
433
330
41C
330
41D
330
431
330
441
330
3C5
330
3CB
330
443
 92
        7
 72
     0
 73
     1
 93
        8
 10
218.4818279649152
 20
479.469019515178
 10
218.4818279649152
 20
498.9690195151781
 10
169.4818279649152
 20
498.9690195151781
 10
169.4818279649152
 20
494.9690195151783
 10
169.4818279649152
 20
493.9690195151782
 10
168.4818279649152
 20
493.9690195151782
 10
159.9818279649152
 20
493.9690195151782
 10
159.9818279649152
 20
479.469019515178
 97
        8
330
415
330
432
330
424
330
423
330
433
330
443
330
3CB
330
3CD
 92
        7
 72
     1
 73
     1
 93
       39
 10
226.4818279649152
 20
498.9690195151781
 42
0.0
 10
226.4818279649152
 20
475.469019515178
 42
-0.4142135623730951
 10
222.4818279649152
 20
471.4690195151781
 42
0.0
 10
163.9818279649151
 20
471.4690195151781
 42
0.0
 10
163.9818279649152
 20
461.9690195151779
 42
0.0
 10
168.9818279649151
 20
461.9690195151779
 42
0.0
 10
169.981827964915
 20
461.9690195151779
 42
0.0
 10
169.9818279649151
 20
460.9690195151779
 42
0.0
 10
169.9818279649151
 20
452.4690195151777
 42
0.0
 10
170.481827964915
 20
451.9690195151781
 42
0.0
 10
182.9818279649152
 20
451.9690195151782
 42
0.0
 10
182.9818279649152
 20
459.2690195151781
 42
0.0
 10
182.9818279649152
 20
461.7690195151779
 42
0.0
 10
183.6818279649152
 20
461.7690195151779
 42
0.0
 10
183.6818279649152
 20
463.269019515178
 42
0.0
 10
185.9818279649152
 20
464.596925134314
 42
0.0
 10
188.2818279649151
 20
463.269019515178
 42
0.0
 10
188.2818279649151
 20
461.7690195151779
 42
0.0
 10
188.9818279649151
 20
461.7690195151779
 42
0.0
 10
188.9818279649152
 20
459.2690195151782
 42
0.0
 10
188.9818279649152
 20
451.9690195151781
 42
0.0
 10
208.4818279649152
 20
451.9690195151781
 42
0.0
 10
208.4818279649152
 20
452.269019515178
 42
0.0
 10
209.1818279649151
 20
452.9690195151781
 42
0.0
 10
235.7818279649151
 20
452.969019515178
 42
0.0
 10
236.4818279649152
 20
452.269019515178
 42
0.0
 10
236.4818279649152
 20
451.969019515178
 42
0.0
 10
253.9818279649152
 20
451.969019515178
 42
0.0
 10
253.9818279649152
 20
455.969019515178
 42
-1.0
 10
261.9818279649152
 20
455.969019515178
 42
0.0
 10
261.9818279649152
 20
451.969019515178
 42
0.0
 10
264.9818279649152
 20
451.969019515178
 42
0.0
 10
266.9818279649152
 20
453.969019515178
 42
0.0
 10
266.9818279649152
 20
496.9690195151781
 42
0.0
 10
264.9818279649152
 20
498.9690195151781
 42
0.0
 10
261.9818279649152
 20
498.9690195151781
 42
0.0
 10
261.9818279649152
 20
494.9690195151783
 42
-1.0
 10
253.9818279649152
 20
494.9690195151783
 42
0.0
 10
253.9818279649152
 20
498.9690195151781
 42
0.0
 97
       35
330
43B
330
415
330
253
330
254
330
252
330
3CE
330
3CF
330
3CC
330
3F1
330
410
330
40D
330
40C
330
412
330
402
330
3E6
330
286
330
270
330
27C
330
271
330
27A
330
279
330
273
330
272
330
287
330
26F
330
3D8
330
3D7
330
3DD
330
3D2
330
3D3
330
249
330
24B
330
24A
330
43A
330
43E
 92
       22
 72
     0
 73
     1
 93
        4
 10
208.4818279649153
 20
451.9690195151781
 10
208.4818279649152
 20
452.269019515178
 10
214.3229459774581
 20
452.269019515178
 10
214.6229459774579
 20
451.969019515178
 97
        4
330
3D1
330
3D8
330
26F
330
339
 92
       22
 72
     0
 73
     1
 93
        4
 10
208.4818279649152
 20
452.269019515178
 10
209.1818279649151
 20
452.9690195151781
 10
213.6229459774579
 20
452.969019515178
 10
214.3229459774582
 20
452.269019515178
 97
        4
330
3DD
330
3D7
330
3D1
330
32D
 92
       23
 72
     0
 73
     1
 93
        4
 10
214.3229459774583
 20
452.269019515178
 10
222.4818279649152
 20
452.269019515178
 10
222.4818279649152
 20
452.969019515178
 10
213.6229459774579
 20
452.9690195151781
 97
        4
330
3DD
330
32D
330
3D1
330
3DF
 92
       23
 72
     0
 73
     1
 93
        4
 10
214.6229459774581
 20
451.9690195151781
 10
222.4818279649152
 20
451.9690195151781
 10
222.4818279649152
 20
452.269019515178
 10
214.3229459774582
 20
452.269019515178
 97
        4
330
3D1
330
339
330
26F
330
3DF
 92
       23
 72
     0
 73
     1
 93
        4
 10
222.4818279649151
 20
452.269019515178
 10
230.6407099523723
 20
452.269019515178
 10
231.3407099523723
 20
452.969019515178
 10
222.4818279649152
 20
452.9690195151781
 97
        4
330
3DD
330
3DF
330
3D1
330
32E
 92
       23
 72
     0
 73
     1
 93
        4
 10
222.4818279649152
 20
451.9690195151781
 10
230.3407099523722
 20
451.9690195151781
 10
230.6407099523722
 20
452.269019515178
 10
222.4818279649152
 20
452.269019515178
 97
        4
330
3D1
330
3DF
330
26F
330
33B
 92
       23
 72
     0
 73
     1
 93
        4
 10
230.6407099523723
 20
452.269019515178
 10
236.4818279649152
 20
452.2690195151782
 10
235.781827964915
 20
452.9690195151781
 10
231.3407099523725
 20
452.9690195151781
 97
        4
330
3DD
330
32E
330
3D1
330
3D2
 92
       23
 72
     0
 73
     1
 93
        4
 10
230.3407099523722
 20
451.9690195151781
 10
236.4818279649152
 20
451.9690195151781
 10
236.4818279649152
 20
452.269019515178
 10
230.6407099523723
 20
452.269019515178
 97
        4
330
3D1
330
33B
330
26F
330
3D3
 92
       22
 72
     0
 73
     1
 93
        4
 10
83.48182796491517
 20
451.9690195151781
 10
83.48182796491522
 20
452.269019515178
 10
89.32294597745817
 20
452.269019515178
 10
89.62294597745824
 20
451.9690195151781
 97
        4
330
30E
330
315
330
440
330
306
 92
       22
 72
     0
 73
     1
 93
        4
 10
83.48182796491517
 20
452.269019515178
 10
84.18182796491526
 20
452.969019515178
 10
88.62294597745806
 20
452.969019515178
 10
89.32294597745807
 20
452.269019515178
 97
        4
330
31A
330
314
330
30E
330
2FB
 92
       23
 72
     0
 73
     1
 93
        4
 10
89.32294597745812
 20
452.269019515178
 10
97.48182796491528
 20
452.269019515178
 10
97.48182796491528
 20
452.9690195151781
 10
88.62294597745806
 20
452.9690195151781
 97
        4
330
31A
330
2FB
330
30E
330
31C
 92
       23
 72
     0
 73
     1
 93
        4
 10
97.48182796491528
 20
452.269019515178
 10
89.32294597745817
 20
452.269019515178
 10
89.62294597745824
 20
451.9690195151781
 10
97.48182796491523
 20
451.9690195151781
 97
        4
330
30E
330
306
330
440
330
31C
 92
       23
 72
     0
 73
     1
 93
        4
 10
97.48182796491517
 20
451.9690195151782
 10
105.3407099523722
 20
451.9690195151781
 10
105.6407099523724
 20
452.269019515178
 10
97.48182796491523
 20
452.269019515178
 97
        4
330
30E
330
31C
330
440
330
308
 92
       23
 72
     0
 73
     1
 93
        4
 10
97.48182796491517
 20
452.269019515178
 10
105.6407099523722
 20
452.269019515178
 10
106.3407099523724
 20
452.9690195151781
 10
97.48182796491523
 20
452.9690195151781
 97
        4
330
31A
330
31C
330
30E
330
2FC
 92
       22
 72
     0
 73
     1
 93
        4
 10
111.4818279649153
 20
452.269019515178
 10
105.6407099523722
 20
452.269019515178
 10
106.3407099523724
 20
452.9690195151781
 10
110.781827964915
 20
452.969019515178
 97
        4
330
31A
330
2FC
330
30E
330
30F
 92
       23
 72
     0
 73
     1
 93
        4
 10
105.3407099523725
 20
451.9690195151781
 10
111.4818279649152
 20
451.9690195151781
 10
111.4818279649151
 20
452.269019515178
 10
105.6407099523722
 20
452.269019515178
 97
        4
330
30E
330
308
330
440
330
310
 92
       24
 93
        4
 72
     1
 10
245.232998
 20
470.096305
 11
259.775855
 21
470.096305
 72
     1
 10
259.775855
 20
470.096305
 11
259.775855
 21
473.096305
 72
     1
 10
259.775855
 20
473.096305
 11
245.232998
 21
473.096305
 72
     1
 10
245.232998
 20
473.096305
 11
245.232998
 21
470.096305
 97
        1
330
2E8
 75
     0
 76
     0
 52
45.0
 41
6.0
 77
     0
 78
     1
 53
45.0
 43
-395.465413
 44
204.482545
 45
-4.242640687119284
 46
4.242640687119285
 79
     0
 47
0.027694
 98
       20
 10
93.40357
 20
481.079048
 10
143.189708
 20
489.155046
 10
179.437507
 20
485.662723
 10
220.925953
 20
479.332888
 10
205.016915
 20
452.100222
 10
205.126821
 20
452.5763
 10
207.80128
 20
452.466434
 10
208.131008
 20
452.063601
 10
216.300926
 20
452.61292
 10
216.191017
 20
452.063601
 10
224.654028
 20
452.503057
 10
224.177751
 20
452.026979
 10
93.14584
 20
452.048206
 10
93.367482
 20
452.519
 10
98.382112
 20
452.60208
 10
98.298997
 20
452.15898
 10
106.194962
 20
452.048206
 10
106.333487
 20
452.546693
 10
114.70044
 20
452.657467
 10
114.063223
 20
452.131287
  0
LINE
  5
231
100
AcDbEntity
  8
DIMS
 62
     4
100
AcDbLine
 10
58.581828
 20
455.96902
 30
0.0
 11
56.281828
 21
455.96902
 31
0.0
  0
LINE
  5
232
100
AcDbEntity
  8
DIMS
 62
     4
100
AcDbLine
 10
65.381828
 20
455.96902
 30
0.0
 11
67.681828
 21
455.96902
 31
0.0
  0
LINE
  5
233
100
AcDbEntity
  8
DIMS
 62
     4
100
AcDbLine
 10
61.981828
 20
459.36902
 30
0.0
 11
61.981828
 21
461.66902
 31
0.0
  0
LINE
  5
234
100
AcDbEntity
  8
DIMS
 62
     4
100
AcDbLine
 10
61.981828
 20
452.56902
 30
0.0
 11
61.981828
 21
450.26902
 31
0.0
  0
LINE
  5
235
100
AcDbEntity
  8
DIMS
 62
     4
100
AcDbLine
 10
63.681828
 20
455.96902
 30
0.0
 11
60.281828
 21
455.96902
 31
0.0
  0
LINE
  5
236
100
AcDbEntity
  8
DIMS
 62
     4
100
AcDbLine
 10
61.981828
 20
454.26902
 30
0.0
 11
61.981828
 21
457.66902
 31
0.0
  0
LINE
  5
237
102
{ACAD_REACTORS
330
230
102
}
100
AcDbEntity
  8
M01
100
AcDbLine
 10
65.981828
 20
455.96902
 30
0.0
 11
65.981828
 21
451.96902
 31
0.0
  0
LINE
  5
238
102
{ACAD_REACTORS
330
230
102
}
100
AcDbEntity
  8
M01
100
AcDbLine
 10
57.981828
 20
455.96902
 30
0.0
 11
57.981828
 21
451.96902
 31
0.0
  0
CIRCLE
  5
239
102
{ACAD_REACTORS
330
230
330
22F
102
}
100
AcDbEntity
  8
M01
100
AcDbCircle
 10
61.981828
 20
455.96902
 30
0.0
 40
4.0
  0
LINE
  5
23A
100
AcDbEntity
  8
DIMS
 62
     4
100
AcDbLine
 10
58.581828
 20
494.96902
 30
0.0
 11
56.281828
 21
494.96902
 31
0.0
  0
LINE
  5
23B
100
AcDbEntity
  8
DIMS
 62
     4
100
AcDbLine
 10
65.381828
 20
494.96902
 30
0.0
 11
67.681828
 21
494.96902
 31
0.0
  0
LINE
  5
23C
100
AcDbEntity
  8
DIMS
 62
     4
100
AcDbLine
 10
61.981828
 20
491.56902
 30
0.0
 11
61.981828
 21
489.26902
 31
0.0
  0
LINE
  5
23D
100
AcDbEntity
  8
DIMS
 62
     4
100
AcDbLine
 10
61.981828
 20
498.36902
 30
0.0
 11
61.981828
 21
500.66902
 31
0.0
  0
LINE
  5
23E
100
AcDbEntity
  8
DIMS
 62
     4
100
AcDbLine
 10
63.681828
 20
494.96902
 30
0.0
 11
60.281828
 21
494.96902
 31
0.0
  0
LINE
  5
23F
100
AcDbEntity
  8
DIMS
 62
     4
100
AcDbLine
 10
61.981828
 20
496.66902
 30
0.0
 11
61.981828
 21
493.26902
 31
0.0
  0
LINE
  5
240
102
{ACAD_REACTORS
330
230
102
}
100
AcDbEntity
  8
M01
100
AcDbLine
 10
65.981828
 20
494.96902
 30
0.0
 11
65.981828
 21
498.96902
 31
0.0
  0
LINE
  5
241
102
{ACAD_REACTORS
330
230
102
}
100
AcDbEntity
  8
M01
100
AcDbLine
 10
57.981828
 20
494.96902
 30
0.0
 11
57.981828
 21
498.96902
 31
0.0
  0
CIRCLE
  5
242
102
{ACAD_REACTORS
330
230
330
22F
102
}
100
AcDbEntity
  8
M01
100
AcDbCircle
 10
61.981828
 20
494.96902
 30
0.0
 40
4.0
  0
LINE
  5
243
100
AcDbEntity
  8
DIMS
 62
     4
100
AcDbLine
 10
261.381828
 20
455.96902
 30
0.0
 11
263.681828
 21
455.96902
 31
0.0
  0
LINE
  5
244
100
AcDbEntity
  8
DIMS
 62
     4
100
AcDbLine
 10
254.581828
 20
455.96902
 30
0.0
 11
252.281828
 21
455.96902
 31
0.0
  0
LINE
  5
245
100
AcDbEntity
  8
DIMS
 62
     4
100
AcDbLine
 10
257.981828
 20
459.36902
 30
0.0
 11
257.981828
 21
461.66902
 31
0.0
  0
LINE
  5
246
100
AcDbEntity
  8
DIMS
 62
     4
100
AcDbLine
 10
257.981828
 20
452.56902
 30
0.0
 11
257.981828
 21
450.26902
 31
0.0
  0
LINE
  5
247
100
AcDbEntity
  8
DIMS
 62
     4
100
AcDbLine
 10
256.281828
 20
455.96902
 30
0.0
 11
259.681828
 21
455.96902
 31
0.0
  0
LINE
  5
248
100
AcDbEntity
  8
DIMS
 62
     4
100
AcDbLine
 10
257.981828
 20
454.26902
 30
0.0
 11
257.981828
 21
457.66902
 31
0.0
  0
LINE
  5
249
102
{ACAD_REACTORS
330
230
102
}
100
AcDbEntity
  8
M01
100
AcDbLine
 10
253.981828
 20
455.96902
 30
0.0
 11
253.981828
 21
451.96902
 31
0.0
  0
LINE
  5
24A
102
{ACAD_REACTORS
330
230
102
}
100
AcDbEntity
  8
M01
100
AcDbLine
 10
261.981828
 20
455.96902
 30
0.0
 11
261.981828
 21
451.96902
 31
0.0
  0
CIRCLE
  5
24B
102
{ACAD_REACTORS
330
230
330
22F
102
}
100
AcDbEntity
  8
M01
100
AcDbCircle
 10
257.981828
 20
455.96902
 30
0.0
 40
4.0
  0
LINE
  5
24C
100
AcDbEntity
  8
DIMS
 62
     4
100
AcDbLine
 10
261.381828
 20
494.96902
 30
0.0
 11
263.681828
 21
494.96902
 31
0.0
  0
LINE
  5
24D
100
AcDbEntity
  8
DIMS
 62
     4
100
AcDbLine
 10
254.581828
 20
494.96902
 30
0.0
 11
252.281828
 21
494.96902
 31
0.0
  0
LINE
  5
24E
100
AcDbEntity
  8
DIMS
 62
     4
100
AcDbLine
 10
257.981828
 20
491.56902
 30
0.0
 11
257.981828
 21
489.26902
 31
0.0
  0
LINE
  5
24F
100
AcDbEntity
  8
DIMS
 62
     4
100
AcDbLine
 10
257.981828
 20
498.36902
 30
0.0
 11
257.981828
 21
500.66902
 31
0.0
  0
LINE
  5
250
100
AcDbEntity
  8
DIMS
 62
     4
100
AcDbLine
 10
256.281828
 20
494.96902
 30
0.0
 11
259.681828
 21
494.96902
 31
0.0
  0
LINE
  5
251
100
AcDbEntity
  8
DIMS
 62
     4
100
AcDbLine
 10
257.981828
 20
496.66902
 30
0.0
 11
257.981828
 21
493.26902
 31
0.0
  0
LINE
  5
252
102
{ACAD_REACTORS
330
230
102
}
100
AcDbEntity
  8
M01
100
AcDbLine
 10
253.981828
 20
494.96902
 30
0.0
 11
253.981828
 21
498.96902
 31
0.0
  0
LINE
  5
253
102
{ACAD_REACTORS
330
230
102
}
100
AcDbEntity
  8
M01
100
AcDbLine
 10
261.981828
 20
494.96902
 30
0.0
 11
261.981828
 21
498.96902
 31
0.0
  0
CIRCLE
  5
254
102
{ACAD_REACTORS
330
230
330
22F
102
}
100
AcDbEntity
  8
M01
100
AcDbCircle
 10
257.981828
 20
494.96902
 30
0.0
 40
4.0
  0
LINE
  5
255
102
{ACAD_REACTORS
330
230
102
}
100
AcDbEntity
  8
M04
100
AcDbLine
 10
136.981828
 20
459.26902
 30
0.0
 11
136.981828
 21
461.76902
 31
0.0
  0
LINE
  5
256
102
{ACAD_REACTORS
330
230
102
}
100
AcDbEntity
  8
M04
100
AcDbLine
 10
136.281828
 20
459.96902
 30
0.0
 11
136.281828
 21
463.26902
 31
0.0
  0
LINE
  5
257
102
{ACAD_REACTORS
330
230
102
}
100
AcDbEntity
  8
M04
100
AcDbLine
 10
130.981828
 20
459.26902
 30
0.0
 11
130.981828
 21
461.76902
 31
0.0
  0
LINE
  5
258
102
{ACAD_REACTORS
330
230
102
}
100
AcDbEntity
  8
M04
100
AcDbLine
 10
131.681828
 20
459.96902
 30
0.0
 11
131.681828
 21
463.26902
 31
0.0
  0
LINE
  5
259
102
{ACAD_REACTORS
330
22E
102
}
100
AcDbEntity
  8
M05
100
AcDbLine
 10
128.731828
 20
449.96902
 30
0.0
 11
139.231828
 21
449.96902
 31
0.0
  0
LINE
  5
25A
102
{ACAD_REACTORS
330
22E
102
}
100
AcDbEntity
  8
M04
100
AcDbLine
 10
139.231828
 20
449.96902
 30
0.0
 11
139.481828
 21
449.96902
 31
0.0
  0
LINE
  5
25B
102
{ACAD_REACTORS
330
22E
102
}
100
AcDbEntity
  8
M04
100
AcDbLine
 10
128.481828
 20
449.96902
 30
0.0
 11
128.481828
 21
445.96902
 31
0.0
  0
LINE
  5
25C
102
{ACAD_REACTORS
330
22E
102
}
100
AcDbEntity
  8
M04
100
AcDbLine
 10
139.481828
 20
449.96902
 30
0.0
 11
139.481828
 21
445.96902
 31
0.0
  0
LINE
  5
25D
100
AcDbEntity
  8
M05
100
AcDbLine
 10
136.981828
 20
450.96902
 30
0.0
 11
130.981828
 21
450.96902
 31
0.0
  0
LINE
  5
25E
102
{ACAD_REACTORS
330
230
102
}
100
AcDbEntity
  8
M04
100
AcDbLine
 10
131.681828
 20
463.26902
 30
0.0
 11
133.981828
 21
464.596925
 31
0.0
  0
LINE
  5
25F
102
{ACAD_REACTORS
330
230
102
}
100
AcDbEntity
  8
M04
100
AcDbLine
 10
136.281828
 20
463.26902
 30
0.0
 11
133.981828
 21
464.596925
 31
0.0
  0
LINE
  5
260
100
AcDbEntity
  8
M04
100
AcDbLine
 10
136.281828
 20
463.26902
 30
0.0
 11
131.681828
 21
463.26902
 31
0.0
  0
LINE
  5
261
102
{ACAD_REACTORS
330
230
102
}
100
AcDbEntity
  8
M04
100
AcDbLine
 10
136.981828
 20
461.76902
 30
0.0
 11
130.981828
 21
461.76902
 31
0.0
  0
ARC
  5
262
100
AcDbEntity
  8
M05
100
AcDbCircle
 10
133.981828
 20
452.495156
 30
0.0
 40
5.826136
100
AcDbArc
 50
205.69541
 51
334.30459
  0
LINE
  5
263
100
AcDbEntity
  8
M05
100
AcDbLine
 10
130.981828
 20
459.26902
 30
0.0
 11
131.681828
 21
459.96902
 31
0.0
  0
LINE
  5
264
100
AcDbEntity
  8
M05
100
AcDbLine
 10
136.981828
 20
459.26902
 30
0.0
 11
136.281828
 21
459.96902
 31
0.0
  0
LINE
  5
265
100
AcDbEntity
  8
M05
100
AcDbLine
 10
136.981828
 20
459.26902
 30
0.0
 11
130.981828
 21
459.26902
 31
0.0
  0
LINE
  5
266
100
AcDbEntity
  8
M05
100
AcDbLine
 10
136.281828
 20
459.96902
 30
0.0
 11
131.681828
 21
459.96902
 31
0.0
  0
LINE
  5
267
102
{ACAD_REACTORS
330
22E
102
}
100
AcDbEntity
  8
M04
100
AcDbLine
 10
137.681828
 20
451.96902
 30
0.0
 11
137.681828
 21
449.96902
 31
0.0
  0
LINE
  5
268
102
{ACAD_REACTORS
330
22E
102
}
100
AcDbEntity
  8
M04
100
AcDbLine
 10
130.281828
 20
451.96902
 30
0.0
 11
130.281828
 21
449.96902
 31
0.0
  0
LINE
  5
269
100
AcDbEntity
  8
M05
100
AcDbLine
 10
131.681828
 20
459.96902
 30
0.0
 11
131.681828
 21
450.96902
 31
0.0
  0
LINE
  5
26A
100
AcDbEntity
  8
M05
100
AcDbLine
 10
136.281828
 20
459.96902
 30
0.0
 11
136.281828
 21
450.96902
 31
0.0
  0
LINE
  5
26B
102
{ACAD_REACTORS
330
230
102
}
100
AcDbEntity
  8
M05
100
AcDbLine
 10
136.981828
 20
459.26902
 30
0.0
 11
136.981828
 21
449.96902
 31
0.0
  0
LINE
  5
26C
102
{ACAD_REACTORS
330
230
102
}
100
AcDbEntity
  8
M05
100
AcDbLine
 10
130.981828
 20
459.26902
 30
0.0
 11
130.981828
 21
449.96902
 31
0.0
  0
LINE
  5
26D
102
{ACAD_REACTORS
330
22E
102
}
100
AcDbEntity
  8
M04
100
AcDbLine
 10
128.481828
 20
449.96902
 30
0.0
 11
128.731828
 21
449.96902
 31
0.0
  0
LINE
  5
26E
100
AcDbEntity
  8
CENTRE
100
AcDbLine
 10
133.981828
 20
467.23552
 30
0.0
 11
133.981828
 21
442.322831
 31
0.0
  0
LINE
  5
26F
102
{ACAD_REACTORS
330
230
330
22E
330
1E9
102
}
100
AcDbEntity
  8
M01
100
AcDbLine
 10
188.981828
 20
451.96902
 30
0.0
 11
264.981828
 21
451.96902
 31
0.0
  0
LINE
  5
270
102
{ACAD_REACTORS
330
230
102
}
100
AcDbEntity
  8
M04
100
AcDbLine
 10
182.981828
 20
459.26902
 30
0.0
 11
182.981828
 21
461.76902
 31
0.0
  0
LINE
  5
271
102
{ACAD_REACTORS
330
230
102
}
100
AcDbEntity
  8
M04
100
AcDbLine
 10
183.681828
 20
459.96902
 30
0.0
 11
183.681828
 21
463.26902
 31
0.0
  0
LINE
  5
272
102
{ACAD_REACTORS
330
230
102
}
100
AcDbEntity
  8
M04
100
AcDbLine
 10
188.981828
 20
459.26902
 30
0.0
 11
188.981828
 21
461.76902
 31
0.0
  0
LINE
  5
273
102
{ACAD_REACTORS
330
230
102
}
100
AcDbEntity
  8
M04
100
AcDbLine
 10
188.281828
 20
459.96902
 30
0.0
 11
188.281828
 21
463.26902
 31
0.0
  0
LINE
  5
274
102
{ACAD_REACTORS
330
22E
102
}
100
AcDbEntity
  8
M05
100
AcDbLine
 10
191.231828
 20
449.96902
 30
0.0
 11
180.731828
 21
449.96902
 31
0.0
  0
LINE
  5
275
102
{ACAD_REACTORS
330
22E
102
}
100
AcDbEntity
  8
M04
100
AcDbLine
 10
180.731828
 20
449.96902
 30
0.0
 11
180.481828
 21
449.96902
 31
0.0
  0
LINE
  5
276
102
{ACAD_REACTORS
330
22E
102
}
100
AcDbEntity
  8
M04
100
AcDbLine
 10
191.481828
 20
449.96902
 30
0.0
 11
191.481828
 21
445.96902
 31
0.0
  0
LINE
  5
277
102
{ACAD_REACTORS
330
22E
102
}
100
AcDbEntity
  8
M04
100
AcDbLine
 10
180.481828
 20
449.96902
 30
0.0
 11
180.481828
 21
445.96902
 31
0.0
  0
LINE
  5
278
100
AcDbEntity
  8
M05
100
AcDbLine
 10
182.981828
 20
450.96902
 30
0.0
 11
188.981828
 21
450.96902
 31
0.0
  0
LINE
  5
279
102
{ACAD_REACTORS
330
230
102
}
100
AcDbEntity
  8
M04
100
AcDbLine
 10
188.281828
 20
463.26902
 30
0.0
 11
185.981828
 21
464.596925
 31
0.0
  0
LINE
  5
27A
102
{ACAD_REACTORS
330
230
102
}
100
AcDbEntity
  8
M04
100
AcDbLine
 10
183.681828
 20
463.26902
 30
0.0
 11
185.981828
 21
464.596925
 31
0.0
  0
LINE
  5
27B
100
AcDbEntity
  8
M04
100
AcDbLine
 10
183.681828
 20
463.26902
 30
0.0
 11
188.281828
 21
463.26902
 31
0.0
  0
LINE
  5
27C
102
{ACAD_REACTORS
330
230
102
}
100
AcDbEntity
  8
M04
100
AcDbLine
 10
182.981828
 20
461.76902
 30
0.0
 11
188.981828
 21
461.76902
 31
0.0
  0
ARC
  5
27D
100
AcDbEntity
  8
M05
100
AcDbCircle
 10
185.981828
 20
452.495156
 30
0.0
 40
5.826136
100
AcDbArc
 50
205.69541
 51
334.30459
  0
LINE
  5
27E
100
AcDbEntity
  8
M05
100
AcDbLine
 10
188.981828
 20
459.26902
 30
0.0
 11
188.281828
 21
459.96902
 31
0.0
  0
LINE
  5
27F
100
AcDbEntity
  8
M05
100
AcDbLine
 10
182.981828
 20
459.26902
 30
0.0
 11
183.681828
 21
459.96902
 31
0.0
  0
LINE
  5
280
100
AcDbEntity
  8
M05
100
AcDbLine
 10
182.981828
 20
459.26902
 30
0.0
 11
188.981828
 21
459.26902
 31
0.0
  0
LINE
  5
281
100
AcDbEntity
  8
M05
100
AcDbLine
 10
183.681828
 20
459.96902
 30
0.0
 11
188.281828
 21
459.96902
 31
0.0
  0
LINE
  5
282
102
{ACAD_REACTORS
330
22E
102
}
100
AcDbEntity
  8
M04
100
AcDbLine
 10
182.281828
 20
451.96902
 30
0.0
 11
182.281828
 21
449.96902
 31
0.0
  0
LINE
  5
283
102
{ACAD_REACTORS
330
22E
102
}
100
AcDbEntity
  8
M04
100
AcDbLine
 10
189.681828
 20
451.96902
 30
0.0
 11
189.681828
 21
449.96902
 31
0.0
  0
LINE
  5
284
100
AcDbEntity
  8
M05
100
AcDbLine
 10
188.281828
 20
459.96902
 30
0.0
 11
188.281828
 21
450.96902
 31
0.0
  0
LINE
  5
285
100
AcDbEntity
  8
M05
100
AcDbLine
 10
183.681828
 20
459.96902
 30
0.0
 11
183.681828
 21
450.96902
 31
0.0
  0
LINE
  5
286
102
{ACAD_REACTORS
330
230
102
}
100
AcDbEntity
  8
M05
100
AcDbLine
 10
182.981828
 20
459.26902
 30
0.0
 11
182.981828
 21
449.96902
 31
0.0
  0
LINE
  5
287
102
{ACAD_REACTORS
330
230
102
}
100
AcDbEntity
  8
M05
100
AcDbLine
 10
188.981828
 20
459.26902
 30
0.0
 11
188.981828
 21
449.96902
 31
0.0
  0
LINE
  5
288
102
{ACAD_REACTORS
330
22E
102
}
100
AcDbEntity
  8
M04
100
AcDbLine
 10
191.481828
 20
449.96902
 30
0.0
 11
191.231828
 21
449.96902
 31
0.0
  0
LINE
  5
289
100
AcDbEntity
  8
CENTRE
100
AcDbLine
 10
185.981828
 20
467.23552
 30
0.0
 11
185.981828
 21
442.322831
 31
0.0
  0
LINE
  5
28A
100
AcDbEntity
  8
DIMS
 62
     4
100
AcDbLine
 10
133.981828
 20
640.441771
 30
0.0
 11
133.981828
 21
644.241771
 31
0.0
  0
LINE
  5
28B
100
AcDbEntity
  8
DIMS
 62
     4
100
AcDbLine
 10
133.981828
 20
633.641771
 30
0.0
 11
133.981828
 21
629.841771
 31
0.0
  0
LINE
  5
28C
100
AcDbEntity
  8
DIMS
 62
     4
100
AcDbLine
 10
133.981828
 20
635.341771
 30
0.0
 11
133.981828
 21
638.741771
 31
0.0
  0
LINE
  5
28D
100
AcDbEntity
  8
DIMS
 62
     4
100
AcDbLine
 10
185.981828
 20
640.441771
 30
0.0
 11
185.981828
 21
644.241771
 31
0.0
  0
LINE
  5
28E
100
AcDbEntity
  8
DIMS
 62
     4
100
AcDbLine
 10
185.981828
 20
633.641771
 30
0.0
 11
185.981828
 21
629.841771
 31
0.0
  0
LINE
  5
28F
100
AcDbEntity
  8
DIMS
 62
     4
100
AcDbLine
 10
185.981828
 20
635.341771
 30
0.0
 11
185.981828
 21
638.741771
 31
0.0
  0
LINE
  5
290
100
AcDbEntity
  8
DIMS
 62
     4
100
AcDbLine
 10
163.381828
 20
663.041771
 30
0.0
 11
167.181828
 21
663.041771
 31
0.0
  0
LINE
  5
291
100
AcDbEntity
  8
DIMS
 62
     4
100
AcDbLine
 10
156.581828
 20
663.041771
 30
0.0
 11
152.781828
 21
663.041771
 31
0.0
  0
LINE
  5
292
100
AcDbEntity
  8
DIMS
 62
     4
100
AcDbLine
 10
158.281828
 20
663.041771
 30
0.0
 11
161.681828
 21
663.041771
 31
0.0
  0
MTEXT
  5
293
102
{ACAD_REACTORS
330
294
102
}
100
AcDbEntity
  8
DIMS
 62
     2
100
AcDbMText
 10
79.094987
 20
585.603397
 30
0.0
 40
3.0
 41
0.0
 71
     9
 72
     5
  1
HGX10037
  0
LEADER
  5
294
100
AcDbEntity
  8
DIMS
 62
     4
100
AcDbLeader
  3
DIM1$7
 73
     0
 75
     1
 40
3.0
 41
21.857143
 76
     3
 10
96.165438
 20
607.456535
 30
0.0
 10
83.594987
 20
587.103397
 30
0.0
 10
80.594987
 20
587.103397
 30
0.0
 77
   256
340
293
213
0.0
223
1.5
233
0.0
1001
ACAD
1000
DSTYLE
1002
{
1070
   288
1070
     1
1070
   144
1040
1.0
1002
}
  0
CIRCLE
  5
296
100
AcDbEntity
  8
M03
100
AcDbCircle
 10
185.981828
 20
637.041771
 30
0.0
 40
2.3
  0
ARC
  5
297
100
AcDbEntity
  8
M03
100
AcDbCircle
 10
185.981828
 20
637.041771
 30
0.0
 40
3.0
100
AcDbArc
 50
167.784636
 51
96.923103
  0
CIRCLE
  5
298
100
AcDbEntity
  8
M03
100
AcDbCircle
 10
185.981828
 20
637.041771
 30
0.0
 40
5.5
  0
CIRCLE
  5
299
100
AcDbEntity
  8
M03
100
AcDbCircle
 10
133.981828
 20
637.041771
 30
0.0
 40
2.3
  0
ARC
  5
29A
100
AcDbEntity
  8
M03
100
AcDbCircle
 10
133.981828
 20
637.041771
 30
0.0
 40
3.0
100
AcDbArc
 50
167.784636
 51
96.923103
  0
CIRCLE
  5
29B
100
AcDbEntity
  8
M03
100
AcDbCircle
 10
133.981828
 20
637.041771
 30
0.0
 40
5.5
  0
CIRCLE
  5
29C
100
AcDbEntity
  8
M03
100
AcDbCircle
 10
159.981828
 20
663.041771
 30
0.0
 40
2.3
  0
ARC
  5
29D
100
AcDbEntity
  8
M03
100
AcDbCircle
 10
159.981828
 20
663.041771
 30
0.0
 40
3.0
100
AcDbArc
 50
167.784636
 51
96.923103
  0
CIRCLE
  5
29E
100
AcDbEntity
  8
M03
100
AcDbCircle
 10
159.981828
 20
663.041771
 30
0.0
 40
5.5
  0
LINE
  5
29F
100
AcDbEntity
  8
M03
100
AcDbLine
 10
122.281828
 20
622.541771
 30
0.0
 11
119.981828
 21
623.869677
 31
0.0
  0
LINE
  5
2A0
100
AcDbEntity
  8
M03
100
AcDbLine
 10
117.681828
 20
622.541771
 30
0.0
 11
119.981828
 21
623.869677
 31
0.0
  0
LINE
  5
2A1
100
AcDbEntity
  8
M03
100
AcDbLine
 10
117.681828
 20
622.541771
 30
0.0
 11
122.281828
 21
622.541771
 31
0.0
  0
LINE
  5
2A2
100
AcDbEntity
  8
M03
100
AcDbLine
 10
116.981828
 20
621.041771
 30
0.0
 11
122.981828
 21
621.041771
 31
0.0
  0
LINE
  5
2A3
100
AcDbEntity
  8
M03
100
AcDbLine
 10
105.674765
 20
608.941771
 30
0.0
 11
66.436306
 21
608.941771
 31
0.0
  0
LINE
  5
2A4
100
AcDbEntity
  8
M03
100
AcDbLine
 10
105.674765
 20
607.041771
 30
0.0
 11
66.436306
 21
607.041771
 31
0.0
  0
LINE
  5
2A5
100
AcDbEntity
  8
M03
100
AcDbLine
 10
112.674765
 20
609.241771
 30
0.0
 11
126.981828
 21
609.241771
 31
0.0
  0
LINE
  5
2A6
100
AcDbEntity
  8
M03
100
AcDbLine
 10
111.630001
 20
610.041771
 30
0.0
 11
111.630001
 21
609.241771
 31
0.0
  0
LINE
  5
2A7
100
AcDbEntity
  8
M03
100
AcDbLine
 10
105.674765
 20
609.241771
 30
0.0
 11
105.674765
 21
606.741771
 31
0.0
  0
LINE
  5
2A8
100
AcDbEntity
  8
M03
100
AcDbLine
 10
105.674765
 20
606.741771
 30
0.0
 11
112.674765
 21
606.741771
 31
0.0
  0
LINE
  5
2A9
100
AcDbEntity
  8
M03
100
AcDbLine
 10
112.674765
 20
609.241771
 30
0.0
 11
112.674765
 21
606.741771
 31
0.0
  0
LINE
  5
2AA
100
AcDbEntity
  8
M03
100
AcDbLine
 10
126.981828
 20
610.041771
 30
0.0
 11
126.981828
 21
609.241771
 31
0.0
  0
ARC
  5
2AB
100
AcDbEntity
  8
M03
100
AcDbCircle
 10
119.981828
 20
611.767908
 30
0.0
 40
5.826136
100
AcDbArc
 50
205.69541
 51
334.30459
  0
LINE
  5
2AC
100
AcDbEntity
  8
M03
100
AcDbLine
 10
122.981828
 20
618.541771
 30
0.0
 11
122.281828
 21
619.241771
 31
0.0
  0
LINE
  5
2AD
100
AcDbEntity
  8
M03
100
AcDbLine
 10
116.981828
 20
618.541771
 30
0.0
 11
117.681828
 21
619.241771
 31
0.0
  0
LINE
  5
2AE
100
AcDbEntity
  8
M03
100
AcDbLine
 10
116.981828
 20
618.541771
 30
0.0
 11
122.981828
 21
618.541771
 31
0.0
  0
LINE
  5
2AF
100
AcDbEntity
  8
M03
100
AcDbLine
 10
117.681828
 20
619.241771
 30
0.0
 11
122.281828
 21
619.241771
 31
0.0
  0
LINE
  5
2B0
100
AcDbEntity
  8
M03
100
AcDbLine
 10
122.981828
 20
610.041771
 30
0.0
 11
129.981828
 21
610.041771
 31
0.0
  0
LINE
  5
2B1
100
AcDbEntity
  8
M03
100
AcDbLine
 10
106.281828
 20
610.041771
 30
0.0
 11
106.281828
 21
609.241771
 31
0.0
  0
LINE
  5
2B2
100
AcDbEntity
  8
M03
100
AcDbLine
 10
123.681828
 20
610.041771
 30
0.0
 11
123.681828
 21
609.241771
 31
0.0
  0
LINE
  5
2B3
100
AcDbEntity
  8
M03
100
AcDbLine
 10
122.281828
 20
622.541771
 30
0.0
 11
122.281828
 21
609.241771
 31
0.0
  0
LINE
  5
2B4
100
AcDbEntity
  8
M03
100
AcDbLine
 10
117.681828
 20
622.541771
 30
0.0
 11
117.681828
 21
609.241771
 31
0.0
  0
LINE
  5
2B5
100
AcDbEntity
  8
M03
100
AcDbLine
 10
116.981828
 20
621.041771
 30
0.0
 11
116.981828
 21
609.241771
 31
0.0
  0
LINE
  5
2B6
100
AcDbEntity
  8
M03
100
AcDbLine
 10
122.981828
 20
621.041771
 30
0.0
 11
122.981828
 21
609.241771
 31
0.0
  0
LINE
  5
2B7
100
AcDbEntity
  8
M03
100
AcDbLine
 10
105.674765
 20
609.241771
 30
0.0
 11
111.630001
 21
609.241771
 31
0.0
  0
LINE
  5
2B8
100
AcDbEntity
  8
M03
100
AcDbLine
 10
129.981828
 20
610.041771
 30
0.0
 11
129.981828
 21
605.041771
 31
0.0
  0
LINE
  5
2B9
100
AcDbEntity
  8
M03
100
AcDbLine
 10
59.981828
 20
610.041771
 30
0.0
 11
116.981828
 21
610.041771
 31
0.0
  0
LINE
  5
2BA
100
AcDbEntity
  8
CENTRE
100
AcDbLine
 10
119.981828
 20
628.240444
 30
0.0
 11
119.981828
 21
601.080294
 31
0.0
  0
CIRCLE
  5
2BB
100
AcDbEntity
  8
M03
100
AcDbCircle
 10
97.481828
 20
637.041771
 30
0.0
 40
2.3
  0
ARC
  5
2BC
100
AcDbEntity
  8
M03
100
AcDbCircle
 10
97.481828
 20
637.041771
 30
0.0
 40
3.0
100
AcDbArc
 50
167.784636
 51
96.923103
  0
CIRCLE
  5
2BD
100
AcDbEntity
  8
M03
100
AcDbCircle
 10
222.481828
 20
637.041771
 30
0.0
 40
2.3
  0
ARC
  5
2BE
100
AcDbEntity
  8
M03
100
AcDbCircle
 10
222.481828
 20
637.041771
 30
0.0
 40
3.0
100
AcDbArc
 50
167.784636
 51
96.923103
  0
LINE
  5
2BF
100
AcDbEntity
  8
DIMS
 62
     4
100
AcDbLine
 10
97.481828
 20
640.441771
 30
0.0
 11
97.481828
 21
653.741771
 31
0.0
  0
LINE
  5
2C0
100
AcDbEntity
  8
DIMS
 62
     4
100
AcDbLine
 10
97.481828
 20
633.641771
 30
0.0
 11
97.481828
 21
620.341771
 31
0.0
  0
LINE
  5
2C1
100
AcDbEntity
  8
DIMS
 62
     4
100
AcDbLine
 10
97.481828
 20
635.341771
 30
0.0
 11
97.481828
 21
638.741771
 31
0.0
  0
LINE
  5
2C2
100
AcDbEntity
  8
DIMS
 62
     4
100
AcDbLine
 10
222.481828
 20
640.441771
 30
0.0
 11
222.481828
 21
653.741771
 31
0.0
  0
LINE
  5
2C3
100
AcDbEntity
  8
DIMS
 62
     4
100
AcDbLine
 10
222.481828
 20
633.641771
 30
0.0
 11
222.481828
 21
620.341771
 31
0.0
  0
LINE
  5
2C4
100
AcDbEntity
  8
DIMS
 62
     4
100
AcDbLine
 10
222.481828
 20
635.341771
 30
0.0
 11
222.481828
 21
638.741771
 31
0.0
  0
LINE
  5
2C5
100
AcDbEntity
  8
M03
100
AcDbLine
 10
223.031828
 20
631.067033
 30
0.0
 11
223.031828
 21
643.01651
 31
0.0
  0
LINE
  5
2C6
100
AcDbEntity
  8
M03
100
AcDbLine
 10
221.931828
 20
631.067033
 30
0.0
 11
221.931828
 21
643.01651
 31
0.0
  0
CIRCLE
  5
2C7
100
AcDbEntity
  8
M03
100
AcDbCircle
 10
222.481828
 20
637.041771
 30
0.0
 40
15.0
  0
CIRCLE
  5
2C8
100
AcDbEntity
  8
M03
100
AcDbCircle
 10
222.481828
 20
637.041771
 30
0.0
 40
14.0
  0
CIRCLE
  5
2C9
100
AcDbEntity
  8
M03
100
AcDbCircle
 10
222.481828
 20
637.041771
 30
0.0
 40
7.858882
  0
CIRCLE
  5
2CA
100
AcDbEntity
  8
M03
100
AcDbCircle
 10
222.481828
 20
637.041771
 30
0.0
 40
6.0
  0
LINE
  5
2CB
100
AcDbEntity
  8
M03
100
AcDbLine
 10
96.931828
 20
631.067033
 30
0.0
 11
96.931828
 21
643.01651
 31
0.0
  0
LINE
  5
2CC
100
AcDbEntity
  8
M03
100
AcDbLine
 10
98.031828
 20
631.067033
 30
0.0
 11
98.031828
 21
643.01651
 31
0.0
  0
CIRCLE
  5
2CD
100
AcDbEntity
  8
M03
100
AcDbCircle
 10
97.481828
 20
637.041771
 30
0.0
 40
15.0
  0
CIRCLE
  5
2CE
100
AcDbEntity
  8
M03
100
AcDbCircle
 10
97.481828
 20
637.041771
 30
0.0
 40
14.0
  0
CIRCLE
  5
2CF
100
AcDbEntity
  8
M03
100
AcDbCircle
 10
97.481828
 20
637.041771
 30
0.0
 40
7.858882
  0
CIRCLE
  5
2D0
100
AcDbEntity
  8
M03
100
AcDbCircle
 10
97.481828
 20
637.041771
 30
0.0
 40
6.0
  0
LINE
  5
2D1
100
AcDbEntity
  8
M01
100
AcDbLine
 10
167.481828
 20
745.041771
 30
0.0
 11
176.481828
 21
745.041771
 31
0.0
  0
LINE
  5
2D2
100
AcDbEntity
  8
M01
100
AcDbLine
 10
176.481828
 20
745.841771
 30
0.0
 11
176.481828
 21
745.041771
 31
0.0
  0
LINE
  5
2D3
100
AcDbEntity
  8
M01
100
AcDbLine
 10
167.481828
 20
745.841771
 30
0.0
 11
167.481828
 21
745.041771
 31
0.0
  0
LINE
  5
2D4
100
AcDbEntity
  8
M01
100
AcDbLine
 10
144.731828
 20
734.985871
 30
0.0
 11
151.231828
 21
734.985871
 31
0.0
  0
LINE
  5
2D5
100
AcDbEntity
  8
M01
100
AcDbLine
 10
144.731828
 20
743.097671
 30
0.0
 11
151.231828
 21
743.097671
 31
0.0
  0
LINE
  5
2D6
100
AcDbEntity
  8
M01
100
AcDbLine
 10
144.731828
 20
734.985871
 30
0.0
 11
144.731828
 21
733.041771
 31
0.0
  0
ARC
  5
2D7
100
AcDbEntity
  8
M01
100
AcDbCircle
 10
143.481828
 20
736.547121
 30
0.0
 40
2.0
100
AcDbArc
 50
308.682187
 51
0.0
  0
ARC
  5
2D8
100
AcDbEntity
  8
M01
100
AcDbCircle
 10
143.481828
 20
741.536421
 30
0.0
 40
2.0
100
AcDbArc
 50
0.0
 51
51.317813
  0
LINE
  5
2D9
100
AcDbEntity
  8
M01
100
AcDbLine
 10
144.731828
 20
745.041771
 30
0.0
 11
144.731828
 21
743.097671
 31
0.0
  0
LINE
  5
2DA
100
AcDbEntity
  8
M01
100
AcDbLine
 10
145.481828
 20
741.536421
 30
0.0
 11
145.481828
 21
736.547121
 31
0.0
  0
LINE
  5
2DB
100
AcDbEntity
  8
M01
100
AcDbLine
 10
151.231828
 20
734.985871
 30
0.0
 11
151.231828
 21
733.041771
 31
0.0
  0
ARC
  5
2DC
100
AcDbEntity
  8
M01
100
AcDbCircle
 10
152.481828
 20
736.547121
 30
0.0
 40
2.0
100
AcDbArc
 50
180.0
 51
231.317813
  0
ARC
  5
2DD
100
AcDbEntity
  8
M01
100
AcDbCircle
 10
152.481828
 20
741.536421
 30
0.0
 40
2.0
100
AcDbArc
 50
128.682187
 51
180.0
  0
LINE
  5
2DE
100
AcDbEntity
  8
M01
100
AcDbLine
 10
151.231828
 20
745.041771
 30
0.0
 11
151.231828
 21
743.097671
 31
0.0
  0
LINE
  5
2DF
100
AcDbEntity
  8
M01
100
AcDbLine
 10
150.481828
 20
741.536421
 30
0.0
 11
150.481828
 21
736.547121
 31
0.0
  0
LINE
  5
2E0
100
AcDbEntity
  8
M01
100
AcDbLine
 10
176.981828
 20
728.041771
 30
0.0
 11
166.981828
 21
728.041771
 31
0.0
  0
LINE
  5
2E1
100
AcDbEntity
  8
M01
100
AcDbLine
 10
142.981828
 20
728.041771
 30
0.0
 11
152.981828
 21
728.041771
 31
0.0
  0
LINE
  5
2E2
100
AcDbEntity
  8
M01
100
AcDbLine
 10
142.981828
 20
733.041771
 30
0.0
 11
142.981828
 21
713.041771
 31
0.0
  0
LINE
  5
2E3
100
AcDbEntity
  8
M01
100
AcDbLine
 10
152.981828
 20
733.041771
 30
0.0
 11
152.981828
 21
713.041771
 31
0.0
  0
LINE
  5
2E4
100
AcDbEntity
  8
M01
100
AcDbLine
 10
166.981828
 20
733.041771
 30
0.0
 11
166.981828
 21
713.041771
 31
0.0
  0
LINE
  5
2E5
100
AcDbEntity
  8
M01
100
AcDbLine
 10
176.981828
 20
733.041771
 30
0.0
 11
176.981828
 21
713.041771
 31
0.0
  0
LINE
  5
2E6
100
AcDbEntity
  8
CENTRE
100
AcDbLine
 10
89.481828
 20
475.46902
 30
0.0
 11
230.481828
 21
475.46902
 31
0.0
  0
ARC
  5
2E7
100
AcDbEntity
  8
M03
100
AcDbCircle
 10
159.981828
 20
637.041771
 30
0.0
 40
34.0
100
AcDbArc
 50
289.749923
 51
250.250077
  0
TEXT
  5
2E8
102
{ACAD_REACTORS
330
230
102
}
100
AcDbEntity
  8
TEXT
100
AcDbText
 10
245.732998
 20
470.596305
 30
0.0
 40
2.0
  1
MM010020
 41
0.9
100
AcDbText
  0
MTEXT
  5
2E9
102
{ACAD_REACTORS
330
2EA
102
}
100
AcDbEntity
  8
HATCH
 62
     2
100
AcDbMText
 10
246.122008
 20
434.127793
 30
0.0
 40
3.0
 41
0.0
 71
     1
 72
     5
  1
MA010006 (x2)
  0
LEADER
  5
2EA
100
AcDbEntity
  8
HATCH
 62
     4
100
AcDbLeader
  3
DIM1$7
 73
     0
 74
     0
 75
     1
 40
4.571429
 41
34.142857
 76
     3
 10
232.199182
 20
446.599733
 30
0.0
 10
241.622008
 20
432.627793
 30
0.0
 10
244.622008
 20
432.627793
 30
0.0
 77
   256
340
2E9
213
0.0
223
-1.5
233
0.0
1001
ACAD
1000
DSTYLE
1002
{
1070
   144
1040
1.0
1002
}
  0
LINE
  5
2EB
102
{ACAD_REACTORS
330
1EF
102
}
100
AcDbEntity
  8
M04
100
AcDbLine
 10
100.481828
 20
444.96902
 30
0.0
 11
140.481828
 21
444.96902
 31
0.0
  0
LINE
  5
2EC
102
{ACAD_REACTORS
330
1E9
102
}
100
AcDbEntity
  8
M02
100
AcDbLine
 10
111.481828
 20
448.96902
 30
0.0
 11
125.981828
 21
448.96902
 31
0.0
  0
LINE
  5
2ED
100
AcDbEntity
  8
M04
100
AcDbLine
 10
97.481828
 20
427.141114
 30
0.0
 11
99.781828
 21
428.46902
 31
0.0
  0
LINE
  5
2EE
100
AcDbEntity
  8
M04
100
AcDbLine
 10
95.181828
 20
428.46902
 30
0.0
 11
97.481828
 21
427.141114
 31
0.0
  0
LINE
  5
2EF
100
AcDbEntity
  8
M04
100
AcDbLine
 10
95.181828
 20
428.46902
 30
0.0
 11
99.781828
 21
428.46902
 31
0.0
  0
LINE
  5
2F0
100
AcDbEntity
  8
M04
100
AcDbLine
 10
94.481828
 20
433.530138
 30
0.0
 11
94.481828
 21
429.96902
 31
0.0
  0
LINE
  5
2F1
100
AcDbEntity
  8
M04
100
AcDbLine
 10
95.181828
 20
432.830138
 30
0.0
 11
95.181828
 21
428.46902
 31
0.0
  0
LINE
  5
2F2
100
AcDbEntity
  8
M04
100
AcDbLine
 10
100.481828
 20
433.530138
 30
0.0
 11
100.481828
 21
429.96902
 31
0.0
  0
LINE
  5
2F3
100
AcDbEntity
  8
M04
100
AcDbLine
 10
99.781828
 20
432.830138
 30
0.0
 11
99.781828
 21
428.46902
 31
0.0
  0
LINE
  5
2F4
100
AcDbEntity
  8
M05
100
AcDbLine
 10
99.781828
 20
432.830138
 30
0.0
 11
100.481828
 21
433.530138
 31
0.0
  0
LINE
  5
2F5
100
AcDbEntity
  8
M05
100
AcDbLine
 10
94.481828
 20
433.530138
 30
0.0
 11
95.181828
 21
432.830138
 31
0.0
  0
LINE
  5
2F6
100
AcDbEntity
  8
M05
100
AcDbLine
 10
99.781828
 20
445.610138
 30
0.0
 11
99.781828
 21
432.830138
 31
0.0
  0
LINE
  5
2F7
100
AcDbEntity
  8
M05
100
AcDbLine
 10
95.181828
 20
445.610138
 30
0.0
 11
95.181828
 21
432.830138
 31
0.0
  0
LINE
  5
2F8
100
AcDbEntity
  8
M05
100
AcDbLine
 10
94.481828
 20
433.530138
 30
0.0
 11
100.481828
 21
433.530138
 31
0.0
  0
LINE
  5
2F9
100
AcDbEntity
  8
M04
100
AcDbLine
 10
94.481828
 20
429.96902
 30
0.0
 11
100.481828
 21
429.96902
 31
0.0
  0
LINE
  5
2FA
100
AcDbEntity
  8
M05
100
AcDbLine
 10
95.181828
 20
432.830138
 30
0.0
 11
99.781828
 21
432.830138
 31
0.0
  0
LINE
  5
2FB
102
{ACAD_REACTORS
330
230
102
}
100
AcDbEntity
  8
M05
  6
HIDDEN
100
AcDbLine
 10
89.322946
 20
452.26902
 30
0.0
 11
88.622946
 21
452.96902
 31
0.0
  0
LINE
  5
2FC
102
{ACAD_REACTORS
330
230
102
}
100
AcDbEntity
  8
M05
  6
HIDDEN
100
AcDbLine
 10
105.64071
 20
452.26902
 30
0.0
 11
106.34071
 21
452.96902
 31
0.0
  0
LINE
  5
2FD
100
AcDbEntity
  8
M05
100
AcDbLine
 10
94.481828
 20
445.610138
 30
0.0
 11
100.481828
 21
445.610138
 31
0.0
  0
LINE
  5
2FE
100
AcDbEntity
  8
M05
100
AcDbLine
 10
98.031828
 20
450.110138
 30
0.0
 11
103.481828
 21
450.110138
 31
0.0
  0
LINE
  5
2FF
100
AcDbEntity
  8
M05
100
AcDbLine
 10
98.031828
 20
450.830138
 30
0.0
 11
103.481828
 21
450.830138
 31
0.0
  0
LINE
  5
300
100
AcDbEntity
  8
M05
100
AcDbLine
 10
98.031828
 20
450.830138
 30
0.0
 11
98.031828
 21
449.330138
 31
0.0
  0
LINE
  5
301
100
AcDbEntity
  8
M05
100
AcDbLine
 10
96.931828
 20
450.830138
 30
0.0
 11
96.931828
 21
449.330138
 31
0.0
  0
LINE
  5
302
100
AcDbEntity
  8
M05
100
AcDbLine
 10
96.931828
 20
449.330138
 30
0.0
 11
98.031828
 21
449.330138
 31
0.0
  0
LINE
  5
303
102
{ACAD_REACTORS
330
1EF
102
}
100
AcDbEntity
  8
M05
100
AcDbLine
 10
100.981828
 20
447.610138
 30
0.0
 11
100.981828
 21
444.96902
 31
0.0
  0
LINE
  5
304
102
{ACAD_REACTORS
330
1EF
102
}
100
AcDbEntity
  8
M05
100
AcDbLine
 10
93.981828
 20
447.610138
 30
0.0
 11
93.981828
 21
444.96902
 31
0.0
  0
LINE
  5
305
100
AcDbEntity
  8
M05
100
AcDbLine
 10
91.481828
 20
450.110138
 30
0.0
 11
96.931828
 21
450.110138
 31
0.0
  0
LINE
  5
306
102
{ACAD_REACTORS
330
230
330
1EF
102
}
100
AcDbEntity
  8
M05
100
AcDbLine
 10
94.481828
 20
447.110138
 30
0.0
 11
89.322946
 21
452.26902
 31
0.0
  0
LINE
  5
307
100
AcDbEntity
  8
M05
100
AcDbLine
 10
91.481828
 20
450.830138
 30
0.0
 11
91.481828
 21
450.110138
 31
0.0
  0
LINE
  5
308
102
{ACAD_REACTORS
330
230
330
1EF
102
}
100
AcDbEntity
  8
M05
100
AcDbLine
 10
100.481828
 20
447.110138
 30
0.0
 11
105.64071
 21
452.26902
 31
0.0
  0
LINE
  5
309
100
AcDbEntity
  8
M05
100
AcDbLine
 10
94.481828
 20
447.110138
 30
0.0
 11
100.481828
 21
447.110138
 31
0.0
  0
LINE
  5
30A
100
AcDbEntity
  8
M05
100
AcDbLine
 10
94.481828
 20
447.110138
 30
0.0
 11
94.481828
 21
433.530138
 31
0.0
  0
LINE
  5
30B
100
AcDbEntity
  8
M05
100
AcDbLine
 10
100.481828
 20
447.110138
 30
0.0
 11
100.481828
 21
433.530138
 31
0.0
  0
LINE
  5
30C
100
AcDbEntity
  8
M05
100
AcDbLine
 10
103.481828
 20
450.830138
 30
0.0
 11
103.481828
 21
450.110138
 31
0.0
  0
LINE
  5
30D
100
AcDbEntity
  8
M05
100
AcDbLine
 10
91.481828
 20
450.830138
 30
0.0
 11
96.931828
 21
450.830138
 31
0.0
  0
LINE
  5
30E
102
{ACAD_REACTORS
330
230
102
}
100
AcDbEntity
  8
M05
  6
HIDDEN
100
AcDbLine
 10
83.481828
 20
452.26902
 30
0.0
 11
111.481828
 21
452.26902
 31
0.0
  0
LINE
  5
30F
102
{ACAD_REACTORS
330
230
102
}
100
AcDbEntity
  8
M05
  6
HIDDEN
100
AcDbLine
 10
111.481828
 20
452.26902
 30
0.0
 11
110.781828
 21
452.96902
 31
0.0
  0
LINE
  5
310
102
{ACAD_REACTORS
330
230
102
}
100
AcDbEntity
  8
M05
  6
HIDDEN
100
AcDbLine
 10
111.481828
 20
451.26902
 30
0.0
 11
111.481828
 21
452.26902
 31
0.0
  0
LINE
  5
311
102
{ACAD_REACTORS
330
1EF
102
}
100
AcDbEntity
  8
M05
100
AcDbLine
 10
111.481828
 20
451.26902
 30
0.0
 11
110.781828
 21
451.96902
 31
0.0
  0
LINE
  5
312
102
{ACAD_REACTORS
330
1EF
102
}
100
AcDbEntity
  8
M05
100
AcDbLine
 10
111.481828
 20
445.66902
 30
0.0
 11
110.781828
 21
444.96902
 31
0.0
  0
LINE
  5
313
102
{ACAD_REACTORS
330
1EF
102
}
100
AcDbEntity
  8
M05
100
AcDbLine
 10
111.481828
 20
451.26902
 30
0.0
 11
111.481828
 21
445.66902
 31
0.0
  0
LINE
  5
314
102
{ACAD_REACTORS
330
230
102
}
100
AcDbEntity
  8
M05
  6
HIDDEN
100
AcDbLine
 10
83.481828
 20
452.26902
 30
0.0
 11
84.181828
 21
452.96902
 31
0.0
  0
LINE
  5
315
102
{ACAD_REACTORS
330
230
102
}
100
AcDbEntity
  8
M05
  6
HIDDEN
100
AcDbLine
 10
83.481828
 20
451.26902
 30
0.0
 11
83.481828
 21
452.26902
 31
0.0
  0
LINE
  5
316
102
{ACAD_REACTORS
330
1EF
102
}
100
AcDbEntity
  8
M05
100
AcDbLine
 10
83.481828
 20
451.26902
 30
0.0
 11
84.181828
 21
451.96902
 31
0.0
  0
LINE
  5
317
102
{ACAD_REACTORS
330
1EF
102
}
100
AcDbEntity
  8
M05
100
AcDbLine
 10
83.481828
 20
445.66902
 30
0.0
 11
84.181828
 21
444.96902
 31
0.0
  0
LINE
  5
318
102
{ACAD_REACTORS
330
1E9
102
}
100
AcDbEntity
  8
M02
100
AcDbLine
 10
112.481828
 20
451.96902
 30
0.0
 11
112.481828
 21
448.96902
 31
0.0
  0
LINE
  5
319
102
{ACAD_REACTORS
330
1E9
102
}
100
AcDbEntity
  8
M02
100
AcDbLine
 10
82.481828
 20
451.96902
 30
0.0
 11
82.481828
 21
448.96902
 31
0.0
  0
LINE
  5
31A
102
{ACAD_REACTORS
330
230
102
}
100
AcDbEntity
  8
M05
  6
HIDDEN
100
AcDbLine
 10
84.181828
 20
452.96902
 30
0.0
 11
110.781828
 21
452.96902
 31
0.0
  0
LINE
  5
31B
102
{ACAD_REACTORS
330
1EF
102
}
100
AcDbEntity
  8
M05
100
AcDbLine
 10
83.481828
 20
451.26902
 30
0.0
 11
83.481828
 21
445.66902
 31
0.0
  0
LINE
  5
31C
102
{ACAD_REACTORS
330
230
102
}
100
AcDbEntity
  8
CENTRE
100
AcDbLine
 10
97.481828
 20
457.47813
 30
0.0
 11
97.481828
 21
424.399792
 31
0.0
  0
LINE
  5
31D
100
AcDbEntity
  8
CENTRE
100
AcDbLine
 10
222.481828
 20
467.352261
 30
0.0
 11
222.481828
 21
509.317317
 31
0.0
  0
LINE
  5
31E
100
AcDbEntity
  8
CENTRE
100
AcDbLine
 10
97.481828
 20
467.352261
 30
0.0
 11
97.481828
 21
509.317317
 31
0.0
  0
LINE
  5
31F
100
AcDbEntity
  8
M04
100
AcDbLine
 10
222.481828
 20
427.141114
 30
0.0
 11
224.781828
 21
428.46902
 31
0.0
  0
LINE
  5
320
100
AcDbEntity
  8
M04
100
AcDbLine
 10
220.181828
 20
428.46902
 30
0.0
 11
222.481828
 21
427.141114
 31
0.0
  0
LINE
  5
321
100
AcDbEntity
  8
M04
100
AcDbLine
 10
220.181828
 20
428.46902
 30
0.0
 11
224.781828
 21
428.46902
 31
0.0
  0
LINE
  5
322
100
AcDbEntity
  8
M04
100
AcDbLine
 10
219.481828
 20
433.530138
 30
0.0
 11
219.481828
 21
429.96902
 31
0.0
  0
LINE
  5
323
100
AcDbEntity
  8
M04
100
AcDbLine
 10
220.181828
 20
432.830138
 30
0.0
 11
220.181828
 21
428.46902
 31
0.0
  0
LINE
  5
324
100
AcDbEntity
  8
M04
100
AcDbLine
 10
225.481828
 20
433.530138
 30
0.0
 11
225.481828
 21
429.96902
 31
0.0
  0
LINE
  5
325
100
AcDbEntity
  8
M04
100
AcDbLine
 10
224.781828
 20
432.830138
 30
0.0
 11
224.781828
 21
428.46902
 31
0.0
  0
LINE
  5
326
100
AcDbEntity
  8
M05
100
AcDbLine
 10
224.781828
 20
432.830138
 30
0.0
 11
225.481828
 21
433.530138
 31
0.0
  0
LINE
  5
327
100
AcDbEntity
  8
M05
100
AcDbLine
 10
219.481828
 20
433.530138
 30
0.0
 11
220.181828
 21
432.830138
 31
0.0
  0
LINE
  5
328
100
AcDbEntity
  8
M05
100
AcDbLine
 10
224.781828
 20
445.610138
 30
0.0
 11
224.781828
 21
432.830138
 31
0.0
  0
LINE
  5
329
100
AcDbEntity
  8
M05
100
AcDbLine
 10
220.181828
 20
445.610138
 30
0.0
 11
220.181828
 21
432.830138
 31
0.0
  0
LINE
  5
32A
100
AcDbEntity
  8
M05
100
AcDbLine
 10
219.481828
 20
433.530138
 30
0.0
 11
225.481828
 21
433.530138
 31
0.0
  0
LINE
  5
32B
100
AcDbEntity
  8
M04
100
AcDbLine
 10
219.481828
 20
429.96902
 30
0.0
 11
225.481828
 21
429.96902
 31
0.0
  0
LINE
  5
32C
100
AcDbEntity
  8
M05
100
AcDbLine
 10
220.181828
 20
432.830138
 30
0.0
 11
224.781828
 21
432.830138
 31
0.0
  0
LINE
  5
32D
102
{ACAD_REACTORS
330
230
102
}
100
AcDbEntity
  8
M05
  6
HIDDEN
100
AcDbLine
 10
214.322946
 20
452.26902
 30
0.0
 11
213.622946
 21
452.96902
 31
0.0
  0
LINE
  5
32E
102
{ACAD_REACTORS
330
230
102
}
100
AcDbEntity
  8
M05
  6
HIDDEN
100
AcDbLine
 10
230.64071
 20
452.26902
 30
0.0
 11
231.34071
 21
452.96902
 31
0.0
  0
LINE
  5
32F
100
AcDbEntity
  8
M04
100
AcDbLine
 10
225.481828
 20
444.96902
 30
0.0
 11
291.53261
 21
444.96902
 31
0.0
  0
LINE
  5
330
100
AcDbEntity
  8
M05
100
AcDbLine
 10
219.481828
 20
445.610138
 30
0.0
 11
225.481828
 21
445.610138
 31
0.0
  0
LINE
  5
331
100
AcDbEntity
  8
M05
100
AcDbLine
 10
223.031828
 20
450.110138
 30
0.0
 11
228.481828
 21
450.110138
 31
0.0
  0
LINE
  5
332
100
AcDbEntity
  8
M05
100
AcDbLine
 10
223.031828
 20
450.830138
 30
0.0
 11
228.481828
 21
450.830138
 31
0.0
  0
LINE
  5
333
100
AcDbEntity
  8
M05
100
AcDbLine
 10
223.031828
 20
450.830138
 30
0.0
 11
223.031828
 21
449.330138
 31
0.0
  0
LINE
  5
334
100
AcDbEntity
  8
M05
100
AcDbLine
 10
221.931828
 20
450.830138
 30
0.0
 11
221.931828
 21
449.330138
 31
0.0
  0
LINE
  5
335
100
AcDbEntity
  8
M05
100
AcDbLine
 10
221.931828
 20
449.330138
 30
0.0
 11
223.031828
 21
449.330138
 31
0.0
  0
LINE
  5
336
100
AcDbEntity
  8
M05
100
AcDbLine
 10
225.981828
 20
447.610138
 30
0.0
 11
225.981828
 21
444.96902
 31
0.0
  0
LINE
  5
337
100
AcDbEntity
  8
M05
100
AcDbLine
 10
218.981828
 20
447.610138
 30
0.0
 11
218.981828
 21
444.96902
 31
0.0
  0
LINE
  5
338
100
AcDbEntity
  8
M05
100
AcDbLine
 10
216.481828
 20
450.110138
 30
0.0
 11
221.931828
 21
450.110138
 31
0.0
  0
LINE
  5
339
102
{ACAD_REACTORS
330
230
102
}
100
AcDbEntity
  8
M05
100
AcDbLine
 10
219.481828
 20
447.110138
 30
0.0
 11
214.322946
 21
452.26902
 31
0.0
  0
LINE
  5
33A
100
AcDbEntity
  8
M05
100
AcDbLine
 10
216.481828
 20
450.830138
 30
0.0
 11
216.481828
 21
450.110138
 31
0.0
  0
LINE
  5
33B
102
{ACAD_REACTORS
330
230
102
}
100
AcDbEntity
  8
M05
100
AcDbLine
 10
225.481828
 20
447.110138
 30
0.0
 11
230.64071
 21
452.26902
 31
0.0
  0
LINE
  5
33C
100
AcDbEntity
  8
M05
100
AcDbLine
 10
219.481828
 20
447.110138
 30
0.0
 11
225.481828
 21
447.110138
 31
0.0
  0
LINE
  5
33D
100
AcDbEntity
  8
M05
100
AcDbLine
 10
219.481828
 20
447.110138
 30
0.0
 11
219.481828
 21
433.530138
 31
0.0
  0
LINE
  5
33E
100
AcDbEntity
  8
M05
100
AcDbLine
 10
225.481828
 20
447.110138
 30
0.0
 11
225.481828
 21
433.530138
 31
0.0
  0
LINE
  5
33F
100
AcDbEntity
  8
M05
100
AcDbLine
 10
228.481828
 20
450.830138
 30
0.0
 11
228.481828
 21
450.110138
 31
0.0
  0
LINE
  5
340
100
AcDbEntity
  8
M05
100
AcDbLine
 10
216.481828
 20
450.830138
 30
0.0
 11
221.931828
 21
450.830138
 31
0.0
  0
LINE
  5
341
100
AcDbEntity
  8
DIMS
 62
     4
100
AcDbLine
 10
163.381828
 20
707.541771
 30
0.0
 11
165.681828
 21
707.541771
 31
0.0
  0
LINE
  5
342
100
AcDbEntity
  8
DIMS
 62
     4
100
AcDbLine
 10
156.581828
 20
707.541771
 30
0.0
 11
154.281828
 21
707.541771
 31
0.0
  0
LINE
  5
343
100
AcDbEntity
  8
DIMS
 62
     4
100
AcDbLine
 10
158.281828
 20
707.541771
 30
0.0
 11
161.681828
 21
707.541771
 31
0.0
  0
DIMENSION
  5
344
100
AcDbEntity
  8
DIMS
100
AcDbDimension
  2
*D3
 10
296.738783
 20
669.041771
 30
0.0
 11
293.738783
 21
637.041771
 31
0.0
  1
W=<>
  3
DIM1
100
AcDbAlignedDimension
 13
254.981828
 23
605.041771
 33
0.0
 14
254.981828
 24
669.041771
 34
0.0
 50
90.0
100
AcDbRotatedDimension
1001
ACAD
1000
DSTYLE
1002
{
1070
   144
1040
1.0
1002
}
  0
DIMENSION
  5
351
100
AcDbEntity
  8
DIMS
100
AcDbDimension
  2
*D2
 10
266.981828
 20
554.679164
 30
0.0
 11
159.981828
 21
557.679164
 31
0.0
  1
L=<>
  3
DIM1
100
AcDbAlignedDimension
 13
52.981828
 23
617.041771
 33
0.0
 14
266.981828
 24
617.041771
 34
0.0
100
AcDbRotatedDimension
1001
ACAD
1000
DSTYLE
1002
{
1070
   144
1040
1.0
1002
}
  0
DIMENSION
  5
35E
100
AcDbEntity
  8
DIMS
100
AcDbDimension
  2
*D1
 10
222.481828
 20
564.454598
 30
0.0
 11
159.981828
 21
564.454598
 31
0.0
 70
   128
  1
A=<>
  3
DIM1
100
AcDbAlignedDimension
 13
97.481828
 23
620.342967
 33
0.0
 14
222.481828
 24
620.328552
 34
0.0
100
AcDbRotatedDimension
1001
ACAD
1000
DSTYLE
1002
{
1070
   144
1040
1.0
1002
}
  0
DIMENSION
  5
36B
100
AcDbEntity
  8
DIMS
100
AcDbDimension
  2
*D0
 10
159.981828
 20
574.50933
 30
0.0
 11
131.564036
 21
574.50933
 31
0.0
 70
   128
  1
A/2=<>
  3
DIM1
100
AcDbAlignedDimension
 13
97.481828
 23
620.342967
 33
0.0
 14
159.981828
 24
590.041771
 34
0.0
100
AcDbRotatedDimension
1001
ACAD
1000
DSTYLE
1002
{
1070
   144
1040
1.0
1002
}
  0
LINE
  5
378
100
AcDbEntity
  8
M01
100
AcDbLine
 10
175.012917
 20
754.941771
 30
0.0
 11
168.950739
 21
754.941771
 31
0.0
  0
ARC
  5
379
100
AcDbEntity
  8
M01
100
AcDbCircle
 10
168.950739
 20
753.092466
 30
0.0
 40
1.150694
100
AcDbArc
 50
208.592423
 51
331.407577
  0
ARC
  5
37A
100
AcDbEntity
  8
M01
100
AcDbCircle
 10
171.981828
 20
755.644549
 30
0.0
 40
3.702778
100
AcDbArc
 50
236.92527
 51
303.07473
  0
ARC
  5
37B
100
AcDbEntity
  8
M01
100
AcDbCircle
 10
175.012917
 20
753.092466
 30
0.0
 40
1.150694
100
AcDbArc
 50
208.592423
 51
331.407577
  0
ARC
  5
37C
100
AcDbEntity
  8
M01
100
AcDbCircle
 10
168.950739
 20
753.791077
 30
0.0
 40
1.150694
100
AcDbArc
 50
28.592423
 51
151.407577
  0
ARC
  5
37D
100
AcDbEntity
  8
M01
100
AcDbCircle
 10
171.981828
 20
751.238993
 30
0.0
 40
3.702778
100
AcDbArc
 50
56.92527
 51
123.07473
  0
LINE
  5
37E
100
AcDbEntity
  8
M01
100
AcDbLine
 10
169.961102
 20
754.341771
 30
0.0
 11
169.961102
 21
752.541771
 31
0.0
  0
LINE
  5
37F
100
AcDbEntity
  8
M01
100
AcDbLine
 10
167.940376
 20
754.341771
 30
0.0
 11
167.940376
 21
752.541771
 31
0.0
  0
ARC
  5
380
100
AcDbEntity
  8
M01
100
AcDbCircle
 10
175.012917
 20
753.791077
 30
0.0
 40
1.150694
100
AcDbArc
 50
28.592423
 51
151.407577
  0
LINE
  5
381
100
AcDbEntity
  8
M01
100
AcDbLine
 10
174.002554
 20
754.341771
 30
0.0
 11
174.002554
 21
752.541771
 31
0.0
  0
LINE
  5
382
100
AcDbEntity
  8
M01
100
AcDbLine
 10
176.02328
 20
754.341771
 30
0.0
 11
176.02328
 21
752.541771
 31
0.0
  0
LINE
  5
383
100
AcDbEntity
  8
M01
100
AcDbLine
 10
166.981828
 20
749.641771
 30
0.0
 11
166.981828
 21
751.141771
 31
0.0
  0
LINE
  5
384
100
AcDbEntity
  8
M01
100
AcDbLine
 10
176.981828
 20
749.641771
 30
0.0
 11
176.981828
 21
751.141771
 31
0.0
  0
LINE
  5
385
100
AcDbEntity
  8
M01
100
AcDbLine
 10
167.481828
 20
751.141771
 30
0.0
 11
167.481828
 21
751.941771
 31
0.0
  0
LINE
  5
386
100
AcDbEntity
  8
M01
100
AcDbLine
 10
176.481828
 20
751.141771
 30
0.0
 11
176.481828
 21
751.941771
 31
0.0
  0
LINE
  5
387
100
AcDbEntity
  8
M01
100
AcDbLine
 10
176.481828
 20
751.941771
 30
0.0
 11
167.481828
 21
751.941771
 31
0.0
  0
LINE
  5
388
100
AcDbEntity
  8
M01
100
AcDbLine
 10
176.981828
 20
751.141771
 30
0.0
 11
166.981828
 21
751.141771
 31
0.0
  0
LINE
  5
389
100
AcDbEntity
  8
M01
100
AcDbLine
 10
167.481828
 20
748.841771
 30
0.0
 11
167.481828
 21
749.641771
 31
0.0
  0
LINE
  5
38A
100
AcDbEntity
  8
M01
100
AcDbLine
 10
176.481828
 20
748.841771
 30
0.0
 11
176.481828
 21
749.641771
 31
0.0
  0
LINE
  5
38B
100
AcDbEntity
  8
M01
100
AcDbLine
 10
176.981828
 20
749.641771
 30
0.0
 11
166.981828
 21
749.641771
 31
0.0
  0
ARC
  5
38C
100
AcDbEntity
  8
M01
100
AcDbCircle
 10
168.950739
 20
746.992466
 30
0.0
 40
1.150694
100
AcDbArc
 50
208.592423
 51
331.407577
  0
ARC
  5
38D
100
AcDbEntity
  8
M01
100
AcDbCircle
 10
171.981828
 20
749.544549
 30
0.0
 40
3.702778
100
AcDbArc
 50
236.92527
 51
303.07473
  0
ARC
  5
38E
100
AcDbEntity
  8
M01
100
AcDbCircle
 10
175.012917
 20
746.992466
 30
0.0
 40
1.150694
100
AcDbArc
 50
208.592423
 51
331.407577
  0
ARC
  5
38F
100
AcDbEntity
  8
M01
100
AcDbCircle
 10
168.950739
 20
747.691077
 30
0.0
 40
1.150694
100
AcDbArc
 50
28.592423
 51
151.407577
  0
ARC
  5
390
100
AcDbEntity
  8
M01
100
AcDbCircle
 10
171.981828
 20
745.138993
 30
0.0
 40
3.702778
100
AcDbArc
 50
56.92527
 51
123.07473
  0
LINE
  5
391
100
AcDbEntity
  8
M01
100
AcDbLine
 10
169.961102
 20
748.241771
 30
0.0
 11
169.961102
 21
746.441771
 31
0.0
  0
LINE
  5
392
100
AcDbEntity
  8
M01
100
AcDbLine
 10
167.940376
 20
748.241771
 30
0.0
 11
167.940376
 21
746.441771
 31
0.0
  0
ARC
  5
393
100
AcDbEntity
  8
M01
100
AcDbCircle
 10
175.012917
 20
747.691077
 30
0.0
 40
1.150694
100
AcDbArc
 50
28.592423
 51
151.407577
  0
LINE
  5
394
100
AcDbEntity
  8
M01
100
AcDbLine
 10
174.002554
 20
748.241771
 30
0.0
 11
174.002554
 21
746.441771
 31
0.0
  0
LINE
  5
395
100
AcDbEntity
  8
M01
100
AcDbLine
 10
176.02328
 20
748.241771
 30
0.0
 11
176.02328
 21
746.441771
 31
0.0
  0
LINE
  5
396
100
AcDbEntity
  8
M01
100
AcDbLine
 10
176.481828
 20
748.841771
 30
0.0
 11
167.481828
 21
748.841771
 31
0.0
  0
LINE
  5
397
100
AcDbEntity
  8
M01
100
AcDbLine
 10
176.481828
 20
745.841771
 30
0.0
 11
167.481828
 21
745.841771
 31
0.0
  0
LINE
  5
398
100
AcDbEntity
  8
M01
100
AcDbLine
 10
170.481828
 20
758.041771
 30
0.0
 11
169.981828
 21
757.541771
 31
0.0
  0
LINE
  5
399
100
AcDbEntity
  8
M01
100
AcDbLine
 10
173.981828
 20
757.541771
 30
0.0
 11
173.481828
 21
758.041771
 31
0.0
  0
LINE
  5
39A
100
AcDbEntity
  8
M01
100
AcDbLine
 10
173.981828
 20
757.541771
 30
0.0
 11
169.981828
 21
757.541771
 31
0.0
  0
LINE
  5
39B
100
AcDbEntity
  8
M01
100
AcDbLine
 10
170.481828
 20
758.041771
 30
0.0
 11
170.481828
 21
754.941771
 31
0.0
  0
LINE
  5
39C
100
AcDbEntity
  8
M01
100
AcDbLine
 10
173.481828
 20
758.041771
 30
0.0
 11
173.481828
 21
754.941771
 31
0.0
  0
LINE
  5
39D
100
AcDbEntity
  8
M01
100
AcDbLine
 10
173.981828
 20
757.541771
 30
0.0
 11
173.981828
 21
754.941771
 31
0.0
  0
LINE
  5
39E
100
AcDbEntity
  8
M01
100
AcDbLine
 10
169.981828
 20
757.541771
 30
0.0
 11
169.981828
 21
754.941771
 31
0.0
  0
LINE
  5
39F
100
AcDbEntity
  8
M01
100
AcDbLine
 10
173.481828
 20
758.041771
 30
0.0
 11
170.481828
 21
758.041771
 31
0.0
  0
LINE
  5
3A0
100
AcDbEntity
  8
M01
100
AcDbLine
 10
176.981828
 20
733.041771
 30
0.0
 11
166.981828
 21
733.041771
 31
0.0
  0
LINE
  5
3A1
100
AcDbEntity
  8
CENTRE
100
AcDbLine
 10
171.981828
 20
764.20266
 30
0.0
 11
171.981828
 21
700.609229
 31
0.0
  0
LINE
  5
3A2
100
AcDbEntity
  8
M01
100
AcDbLine
 10
144.950739
 20
754.941771
 30
0.0
 11
151.012917
 21
754.941771
 31
0.0
  0
ARC
  5
3A3
100
AcDbEntity
  8
M01
100
AcDbCircle
 10
151.012917
 20
753.092466
 30
0.0
 40
1.150694
100
AcDbArc
 50
208.592423
 51
331.407577
  0
ARC
  5
3A4
100
AcDbEntity
  8
M01
100
AcDbCircle
 10
147.981828
 20
755.644549
 30
0.0
 40
3.702778
100
AcDbArc
 50
236.92527
 51
303.07473
  0
ARC
  5
3A5
100
AcDbEntity
  8
M01
100
AcDbCircle
 10
144.950739
 20
753.092466
 30
0.0
 40
1.150694
100
AcDbArc
 50
208.592423
 51
331.407577
  0
ARC
  5
3A6
100
AcDbEntity
  8
M01
100
AcDbCircle
 10
151.012917
 20
753.791077
 30
0.0
 40
1.150694
100
AcDbArc
 50
28.592423
 51
151.407577
  0
ARC
  5
3A7
100
AcDbEntity
  8
M01
100
AcDbCircle
 10
147.981828
 20
751.238993
 30
0.0
 40
3.702778
100
AcDbArc
 50
56.92527
 51
123.07473
  0
LINE
  5
3A8
100
AcDbEntity
  8
M01
100
AcDbLine
 10
150.002554
 20
754.341771
 30
0.0
 11
150.002554
 21
752.541771
 31
0.0
  0
LINE
  5
3A9
100
AcDbEntity
  8
M01
100
AcDbLine
 10
152.02328
 20
754.341771
 30
0.0
 11
152.02328
 21
752.541771
 31
0.0
  0
ARC
  5
3AA
100
AcDbEntity
  8
M01
100
AcDbCircle
 10
144.950739
 20
753.791077
 30
0.0
 40
1.150694
100
AcDbArc
 50
28.592423
 51
151.407577
  0
LINE
  5
3AB
100
AcDbEntity
  8
M01
100
AcDbLine
 10
145.961102
 20
754.341771
 30
0.0
 11
145.961102
 21
752.541771
 31
0.0
  0
LINE
  5
3AC
100
AcDbEntity
  8
M01
100
AcDbLine
 10
143.940376
 20
754.341771
 30
0.0
 11
143.940376
 21
752.541771
 31
0.0
  0
LINE
  5
3AD
100
AcDbEntity
  8
M01
100
AcDbLine
 10
152.981828
 20
749.641771
 30
0.0
 11
152.981828
 21
751.141771
 31
0.0
  0
LINE
  5
3AE
100
AcDbEntity
  8
M01
100
AcDbLine
 10
142.981828
 20
749.641771
 30
0.0
 11
142.981828
 21
751.141771
 31
0.0
  0
LINE
  5
3AF
100
AcDbEntity
  8
M01
100
AcDbLine
 10
152.481828
 20
751.141771
 30
0.0
 11
152.481828
 21
751.941771
 31
0.0
  0
LINE
  5
3B0
100
AcDbEntity
  8
M01
100
AcDbLine
 10
143.481828
 20
751.141771
 30
0.0
 11
143.481828
 21
751.941771
 31
0.0
  0
LINE
  5
3B1
100
AcDbEntity
  8
M01
100
AcDbLine
 10
143.481828
 20
751.941771
 30
0.0
 11
152.481828
 21
751.941771
 31
0.0
  0
LINE
  5
3B2
100
AcDbEntity
  8
M01
100
AcDbLine
 10
142.981828
 20
751.141771
 30
0.0
 11
152.981828
 21
751.141771
 31
0.0
  0
LINE
  5
3B3
100
AcDbEntity
  8
M01
100
AcDbLine
 10
152.481828
 20
748.841771
 30
0.0
 11
152.481828
 21
749.641771
 31
0.0
  0
LINE
  5
3B4
100
AcDbEntity
  8
M01
100
AcDbLine
 10
143.481828
 20
748.841771
 30
0.0
 11
143.481828
 21
749.641771
 31
0.0
  0
LINE
  5
3B5
100
AcDbEntity
  8
M01
100
AcDbLine
 10
142.981828
 20
749.641771
 30
0.0
 11
152.981828
 21
749.641771
 31
0.0
  0
ARC
  5
3B6
100
AcDbEntity
  8
M01
100
AcDbCircle
 10
151.012917
 20
746.992466
 30
0.0
 40
1.150694
100
AcDbArc
 50
208.592423
 51
331.407577
  0
ARC
  5
3B7
100
AcDbEntity
  8
M01
100
AcDbCircle
 10
147.981828
 20
749.544549
 30
0.0
 40
3.702778
100
AcDbArc
 50
236.92527
 51
303.07473
  0
ARC
  5
3B8
100
AcDbEntity
  8
M01
100
AcDbCircle
 10
144.950739
 20
746.992466
 30
0.0
 40
1.150694
100
AcDbArc
 50
208.592423
 51
331.407577
  0
ARC
  5
3B9
100
AcDbEntity
  8
M01
100
AcDbCircle
 10
151.012917
 20
747.691077
 30
0.0
 40
1.150694
100
AcDbArc
 50
28.592423
 51
151.407577
  0
ARC
  5
3BA
100
AcDbEntity
  8
M01
100
AcDbCircle
 10
147.981828
 20
745.138993
 30
0.0
 40
3.702778
100
AcDbArc
 50
56.92527
 51
123.07473
  0
LINE
  5
3BB
100
AcDbEntity
  8
M01
100
AcDbLine
 10
150.002554
 20
748.241771
 30
0.0
 11
150.002554
 21
746.441771
 31
0.0
  0
LINE
  5
3BC
100
AcDbEntity
  8
M01
100
AcDbLine
 10
152.02328
 20
748.241771
 30
0.0
 11
152.02328
 21
746.441771
 31
0.0
  0
ARC
  5
3BD
100
AcDbEntity
  8
M01
100
AcDbCircle
 10
144.950739
 20
747.691077
 30
0.0
 40
1.150694
100
AcDbArc
 50
28.592423
 51
151.407577
  0
LINE
  5
3BE
100
AcDbEntity
  8
M01
100
AcDbLine
 10
145.961102
 20
748.241771
 30
0.0
 11
145.961102
 21
746.441771
 31
0.0
  0
LINE
  5
3BF
100
AcDbEntity
  8
M01
100
AcDbLine
 10
143.940376
 20
748.241771
 30
0.0
 11
143.940376
 21
746.441771
 31
0.0
  0
LINE
  5
3C0
100
AcDbEntity
  8
M01
100
AcDbLine
 10
143.481828
 20
748.841771
 30
0.0
 11
152.481828
 21
748.841771
 31
0.0
  0
LINE
  5
3C1
100
AcDbEntity
  8
M01
100
AcDbLine
 10
143.481828
 20
745.841771
 30
0.0
 11
152.481828
 21
745.841771
 31
0.0
  0
LINE
  5
3C2
100
AcDbEntity
  8
M01
100
AcDbLine
 10
143.481828
 20
745.041771
 30
0.0
 11
152.481828
 21
745.041771
 31
0.0
  0
LINE
  5
3C3
100
AcDbEntity
  8
M01
100
AcDbLine
 10
101.481828
 20
479.46902
 30
0.0
 11
97.481828
 21
475.46902
 31
0.0
  0
LINE
  5
3C4
102
{ACAD_REACTORS
330
230
102
}
100
AcDbEntity
  8
M01
100
AcDbLine
 10
155.981828
 20
471.46902
 30
0.0
 11
97.481828
 21
471.46902
 31
0.0
  0
LINE
  5
3C5
102
{ACAD_REACTORS
330
230
102
}
100
AcDbEntity
  8
M01
100
AcDbLine
 10
101.481828
 20
479.46902
 30
0.0
 11
101.481828
 21
498.96902
 31
0.0
  0
LINE
  5
3C6
102
{ACAD_REACTORS
330
230
102
}
100
AcDbEntity
  8
M01
100
AcDbLine
 10
93.481828
 20
475.46902
 30
0.0
 11
93.481828
 21
498.96902
 31
0.0
  0
ARC
  5
3C7
102
{ACAD_REACTORS
330
230
102
}
100
AcDbEntity
  8
M01
100
AcDbCircle
 10
97.481828
 20
475.46902
 30
0.0
 40
4.0
100
AcDbArc
 50
180.0
 51
270.0
  0
LINE
  5
3C8
100
AcDbEntity
  8
M01
100
AcDbLine
 10
155.981828
 20
471.46902
 30
0.0
 11
159.981828
 21
475.46902
 31
0.0
  0
LINE
  5
3C9
100
AcDbEntity
  8
M01
100
AcDbLine
 10
163.981828
 20
471.46902
 30
0.0
 11
159.981828
 21
475.46902
 31
0.0
  0
LINE
  5
3CA
100
AcDbEntity
  8
M01
100
AcDbLine
 10
218.481828
 20
479.46902
 30
0.0
 11
222.481828
 21
475.46902
 31
0.0
  0
LINE
  5
3CB
102
{ACAD_REACTORS
330
230
102
}
100
AcDbEntity
  8
M01
100
AcDbLine
 10
101.481828
 20
479.46902
 30
0.0
 11
218.481828
 21
479.46902
 31
0.0
  0
LINE
  5
3CC
102
{ACAD_REACTORS
330
230
102
}
100
AcDbEntity
  8
M01
100
AcDbLine
 10
163.981828
 20
471.46902
 30
0.0
 11
222.481828
 21
471.46902
 31
0.0
  0
LINE
  5
3CD
102
{ACAD_REACTORS
330
230
102
}
100
AcDbEntity
  8
M01
100
AcDbLine
 10
218.481828
 20
479.46902
 30
0.0
 11
218.481828
 21
498.96902
 31
0.0
  0
LINE
  5
3CE
102
{ACAD_REACTORS
330
230
102
}
100
AcDbEntity
  8
M01
100
AcDbLine
 10
226.481828
 20
475.46902
 30
0.0
 11
226.481828
 21
498.96902
 31
0.0
  0
ARC
  5
3CF
102
{ACAD_REACTORS
330
230
102
}
100
AcDbEntity
  8
M01
100
AcDbCircle
 10
222.481828
 20
475.46902
 30
0.0
 40
4.0
100
AcDbArc
 50
270.0
 51
0.0
  0
LINE
  5
3D0
102
{ACAD_REACTORS
330
1E9
102
}
100
AcDbEntity
  8
M02
100
AcDbLine
 10
236.481828
 20
448.96902
 30
0.0
 11
264.981828
 21
448.96902
 31
0.0
  0
LINE
  5
3D1
102
{ACAD_REACTORS
330
230
102
}
100
AcDbEntity
  8
M05
  6
HIDDEN
100
AcDbLine
 10
208.481828
 20
452.26902
 30
0.0
 11
236.481828
 21
452.26902
 31
0.0
  0
LINE
  5
3D2
102
{ACAD_REACTORS
330
230
102
}
100
AcDbEntity
  8
M05
  6
HIDDEN
100
AcDbLine
 10
236.481828
 20
452.26902
 30
0.0
 11
235.781828
 21
452.96902
 31
0.0
  0
LINE
  5
3D3
102
{ACAD_REACTORS
330
230
102
}
100
AcDbEntity
  8
M05
  6
HIDDEN
100
AcDbLine
 10
236.481828
 20
451.26902
 30
0.0
 11
236.481828
 21
452.26902
 31
0.0
  0
LINE
  5
3D4
100
AcDbEntity
  8
M05
100
AcDbLine
 10
236.481828
 20
451.26902
 30
0.0
 11
235.781828
 21
451.96902
 31
0.0
  0
LINE
  5
3D5
100
AcDbEntity
  8
M05
100
AcDbLine
 10
236.481828
 20
445.66902
 30
0.0
 11
235.781828
 21
444.96902
 31
0.0
  0
LINE
  5
3D6
100
AcDbEntity
  8
M05
100
AcDbLine
 10
236.481828
 20
451.26902
 30
0.0
 11
236.481828
 21
445.66902
 31
0.0
  0
LINE
  5
3D7
102
{ACAD_REACTORS
330
230
102
}
100
AcDbEntity
  8
M05
  6
HIDDEN
100
AcDbLine
 10
208.481828
 20
452.26902
 30
0.0
 11
209.181828
 21
452.96902
 31
0.0
  0
LINE
  5
3D8
102
{ACAD_REACTORS
330
230
102
}
100
AcDbEntity
  8
M05
  6
HIDDEN
100
AcDbLine
 10
208.481828
 20
451.26902
 30
0.0
 11
208.481828
 21
452.26902
 31
0.0
  0
LINE
  5
3D9
100
AcDbEntity
  8
M05
100
AcDbLine
 10
208.481828
 20
451.26902
 30
0.0
 11
209.181828
 21
451.96902
 31
0.0
  0
LINE
  5
3DA
100
AcDbEntity
  8
M05
100
AcDbLine
 10
208.481828
 20
445.66902
 30
0.0
 11
209.181828
 21
444.96902
 31
0.0
  0
LINE
  5
3DB
102
{ACAD_REACTORS
330
1E9
102
}
100
AcDbEntity
  8
M02
100
AcDbLine
 10
237.481828
 20
451.96902
 30
0.0
 11
237.481828
 21
448.96902
 31
0.0
  0
LINE
  5
3DC
102
{ACAD_REACTORS
330
1E9
102
}
100
AcDbEntity
  8
M02
100
AcDbLine
 10
207.481828
 20
451.96902
 30
0.0
 11
207.481828
 21
448.96902
 31
0.0
  0
LINE
  5
3DD
102
{ACAD_REACTORS
330
230
102
}
100
AcDbEntity
  8
M05
  6
HIDDEN
100
AcDbLine
 10
209.181828
 20
452.96902
 30
0.0
 11
235.781828
 21
452.96902
 31
0.0
  0
LINE
  5
3DE
100
AcDbEntity
  8
M05
100
AcDbLine
 10
208.481828
 20
451.26902
 30
0.0
 11
208.481828
 21
445.66902
 31
0.0
  0
LINE
  5
3DF
102
{ACAD_REACTORS
330
230
102
}
100
AcDbEntity
  8
CENTRE
100
AcDbLine
 10
222.481828
 20
457.47813
 30
0.0
 11
222.481828
 21
424.399792
 31
0.0
  0
TEXT
  5
3E0
102
{ACAD_REACTORS
330
22E
102
}
100
AcDbEntity
  8
TEXT
100
AcDbText
 10
165.055909
 20
447.536507
 30
0.0
 40
2.0
  1
MA010000
 41
0.9
100
AcDbText
  0
LINE
  5
3E1
100
AcDbEntity
  8
M04
100
AcDbLine
 10
129.981828
 20
426.96902
 30
0.0
 11
129.981828
 21
417.96902
 31
0.0
  0
LINE
  5
3E2
100
AcDbEntity
  8
M04
100
AcDbLine
 10
179.481828
 20
444.96902
 30
0.0
 11
219.481828
 21
444.96902
 31
0.0
  0
LINE
  5
3E3
102
{ACAD_REACTORS
330
1E9
102
}
100
AcDbEntity
  8
M02
100
AcDbLine
 10
193.981828
 20
448.96902
 30
0.0
 11
208.481828
 21
448.96902
 31
0.0
  0
LINE
  5
3E4
102
{ACAD_REACTORS
330
22E
102
}
100
AcDbEntity
  8
M05
100
AcDbLine
 10
125.981828
 20
446.66902
 30
0.0
 11
126.681828
 21
445.96902
 31
0.0
  0
LINE
  5
3E5
102
{ACAD_REACTORS
330
1E9
102
}
100
AcDbEntity
  8
M02
100
AcDbLine
 10
124.981828
 20
451.96902
 30
0.0
 11
124.981828
 21
448.96902
 31
0.0
  0
LINE
  5
3E6
102
{ACAD_REACTORS
330
230
330
22E
102
}
100
AcDbEntity
  8
M01
100
AcDbLine
 10
169.981828
 20
451.96902
 30
0.0
 11
182.981828
 21
451.96902
 31
0.0
  0
LINE
  5
3E7
100
AcDbEntity
  8
M04
100
AcDbLine
 10
129.981828
 20
426.96902
 30
0.0
 11
189.981828
 21
426.96902
 31
0.0
  0
LINE
  5
3E8
100
AcDbEntity
  8
M04
100
AcDbLine
 10
139.981828
 20
436.96902
 30
0.0
 11
129.981828
 21
426.96902
 31
0.0
  0
LINE
  5
3E9
100
AcDbEntity
  8
M04
100
AcDbLine
 10
189.981828
 20
426.96902
 30
0.0
 11
189.981828
 21
417.96902
 31
0.0
  0
LINE
  5
3EA
100
AcDbEntity
  8
M04
100
AcDbLine
 10
179.981828
 20
436.96902
 30
0.0
 11
189.981828
 21
426.96902
 31
0.0
  0
LINE
  5
3EB
100
AcDbEntity
  8
M05
100
AcDbLine
 10
156.940954
 20
443.667805
 30
0.0
 11
163.022702
 21
443.667805
 31
0.0
  0
ARC
  5
3EC
102
{ACAD_REACTORS
330
22E
102
}
100
AcDbEntity
  8
M05
100
AcDbCircle
 10
159.981828
 20
428.46902
 30
0.0
 40
15.5
100
AcDbArc
 50
101.313981
 51
126.249321
  0
LINE
  5
3ED
102
{ACAD_REACTORS
330
230
102
}
100
AcDbEntity
  8
M01
100
AcDbLine
 10
155.981828
 20
471.46902
 30
0.0
 11
155.981828
 21
461.96902
 31
0.0
  0
LINE
  5
3EE
102
{ACAD_REACTORS
330
22E
102
}
100
AcDbEntity
  8
M05
100
AcDbLine
 10
155.981828
 20
461.96902
 30
0.0
 11
156.940954
 21
443.667805
 31
0.0
  0
LINE
  5
3EF
102
{ACAD_REACTORS
330
22E
102
}
100
AcDbEntity
  8
M05
100
AcDbLine
 10
163.981828
 20
461.96902
 30
0.0
 11
163.022702
 21
443.667805
 31
0.0
  0
ARC
  5
3F0
102
{ACAD_REACTORS
330
22E
102
}
100
AcDbEntity
  8
M05
100
AcDbCircle
 10
159.981828
 20
428.46902
 30
0.0
 40
15.5
100
AcDbArc
 50
53.750679
 51
78.686019
  0
LINE
  5
3F1
102
{ACAD_REACTORS
330
230
102
}
100
AcDbEntity
  8
M01
100
AcDbLine
 10
163.981828
 20
471.46902
 30
0.0
 11
163.981828
 21
461.96902
 31
0.0
  0
LINE
  5
3F2
100
AcDbEntity
  8
M04
100
AcDbLine
 10
139.981828
 20
442.96902
 30
0.0
 11
139.981828
 21
444.96902
 31
0.0
  0
LINE
  5
3F3
100
AcDbEntity
  8
M04
100
AcDbLine
 10
139.981828
 20
441.66902
 30
0.0
 11
139.981828
 21
436.96902
 31
0.0
  0
LINE
  5
3F4
100
AcDbEntity
  8
M04
100
AcDbLine
 10
179.981828
 20
442.96902
 30
0.0
 11
179.981828
 21
444.96902
 31
0.0
  0
LINE
  5
3F5
100
AcDbEntity
  8
M04
100
AcDbLine
 10
179.981828
 20
441.66902
 30
0.0
 11
179.981828
 21
436.96902
 31
0.0
  0
LINE
  5
3F6
100
AcDbEntity
  8
M04
100
AcDbLine
 10
179.981828
 20
436.96902
 30
0.0
 11
139.981828
 21
436.96902
 31
0.0
  0
LINE
  5
3F7
102
{ACAD_REACTORS
330
22E
102
}
100
AcDbEntity
  8
M05
100
AcDbLine
 10
140.481828
 20
442.96902
 30
0.0
 11
139.981828
 21
442.96902
 31
0.0
  0
LINE
  5
3F8
102
{ACAD_REACTORS
330
22E
102
}
100
AcDbEntity
  8
M05
100
AcDbLine
 10
140.481828
 20
445.96902
 30
0.0
 11
126.681828
 21
445.96902
 31
0.0
  0
LINE
  5
3F9
102
{ACAD_REACTORS
330
22E
102
}
100
AcDbEntity
  8
M05
100
AcDbLine
 10
140.481828
 20
445.96902
 30
0.0
 11
140.481828
 21
442.96902
 31
0.0
  0
LINE
  5
3FA
102
{ACAD_REACTORS
330
22E
102
}
100
AcDbEntity
  8
M05
100
AcDbLine
 10
179.481828
 20
445.96902
 30
0.0
 11
179.481828
 21
442.96902
 31
0.0
  0
LINE
  5
3FB
102
{ACAD_REACTORS
330
22E
102
}
100
AcDbEntity
  8
M05
100
AcDbLine
 10
179.981828
 20
442.96902
 30
0.0
 11
179.481828
 21
442.96902
 31
0.0
  0
LINE
  5
3FC
102
{ACAD_REACTORS
330
22E
102
}
100
AcDbEntity
  8
M05
100
AcDbLine
 10
140.681828
 20
440.96902
 30
0.0
 11
139.981828
 21
441.66902
 31
0.0
  0
LINE
  5
3FD
102
{ACAD_REACTORS
330
22E
102
}
100
AcDbEntity
  8
M05
100
AcDbLine
 10
179.281828
 20
440.96902
 30
0.0
 11
179.981828
 21
441.66902
 31
0.0
  0
LINE
  5
3FE
102
{ACAD_REACTORS
330
22E
102
}
100
AcDbEntity
  8
M05
100
AcDbLine
 10
179.281828
 20
440.96902
 30
0.0
 11
140.681828
 21
440.96902
 31
0.0
  0
LINE
  5
3FF
102
{ACAD_REACTORS
330
22E
102
}
100
AcDbEntity
  8
M05
100
AcDbLine
 10
139.981828
 20
442.96902
 30
0.0
 11
139.981828
 21
441.66902
 31
0.0
  0
LINE
  5
400
102
{ACAD_REACTORS
330
22E
102
}
100
AcDbEntity
  8
M05
100
AcDbLine
 10
179.981828
 20
442.96902
 30
0.0
 11
179.981828
 21
441.66902
 31
0.0
  0
LINE
  5
401
102
{ACAD_REACTORS
330
230
102
}
100
AcDbEntity
  8
M04
100
AcDbLine
 10
149.981828
 20
452.46902
 30
0.0
 11
149.481828
 21
451.96902
 31
0.0
  0
LINE
  5
402
102
{ACAD_REACTORS
330
230
102
}
100
AcDbEntity
  8
M04
100
AcDbLine
 10
169.981828
 20
452.46902
 30
0.0
 11
170.481828
 21
451.96902
 31
0.0
  0
LINE
  5
403
102
{ACAD_REACTORS
330
22E
102
}
100
AcDbEntity
  8
M05
100
AcDbLine
 10
125.981828
 20
451.26902
 30
0.0
 11
126.681828
 21
451.96902
 31
0.0
  0
LINE
  5
404
102
{ACAD_REACTORS
330
22E
102
}
100
AcDbEntity
  8
M05
100
AcDbLine
 10
125.981828
 20
451.26902
 30
0.0
 11
125.981828
 21
446.66902
 31
0.0
  0
LINE
  5
405
102
{ACAD_REACTORS
330
22E
102
}
100
AcDbEntity
  8
M05
100
AcDbLine
 10
193.981828
 20
451.26902
 30
0.0
 11
193.281828
 21
451.96902
 31
0.0
  0
LINE
  5
406
102
{ACAD_REACTORS
330
22E
102
}
100
AcDbEntity
  8
M05
100
AcDbLine
 10
193.981828
 20
446.66902
 30
0.0
 11
193.281828
 21
445.96902
 31
0.0
  0
LINE
  5
407
102
{ACAD_REACTORS
330
1E9
102
}
100
AcDbEntity
  8
M02
100
AcDbLine
 10
194.981828
 20
451.96902
 30
0.0
 11
194.981828
 21
448.96902
 31
0.0
  0
LINE
  5
408
102
{ACAD_REACTORS
330
22E
102
}
100
AcDbEntity
  8
M05
100
AcDbLine
 10
193.281828
 20
445.96902
 30
0.0
 11
179.481828
 21
445.96902
 31
0.0
  0
LINE
  5
409
102
{ACAD_REACTORS
330
22E
102
}
100
AcDbEntity
  8
M05
100
AcDbLine
 10
193.981828
 20
451.26902
 30
0.0
 11
193.981828
 21
446.66902
 31
0.0
  0
LINE
  5
40A
102
{ACAD_REACTORS
330
230
102
}
100
AcDbEntity
  8
M04
100
AcDbLine
 10
149.981828
 20
460.96902
 30
0.0
 11
149.981828
 21
461.96902
 31
0.0
  0
LINE
  5
40B
102
{ACAD_REACTORS
330
230
102
}
100
AcDbEntity
  8
M04
100
AcDbLine
 10
150.981828
 20
461.96902
 30
0.0
 11
149.981828
 21
461.96902
 31
0.0
  0
LINE
  5
40C
102
{ACAD_REACTORS
330
230
102
}
100
AcDbEntity
  8
M04
100
AcDbLine
 10
169.981828
 20
460.96902
 30
0.0
 11
169.981828
 21
461.96902
 31
0.0
  0
LINE
  5
40D
102
{ACAD_REACTORS
330
230
102
}
100
AcDbEntity
  8
M04
100
AcDbLine
 10
168.981828
 20
461.96902
 30
0.0
 11
169.981828
 21
461.96902
 31
0.0
  0
LINE
  5
40E
102
{ACAD_REACTORS
330
22E
102
}
100
AcDbEntity
  8
M05
100
AcDbLine
 10
168.981828
 20
461.96902
 30
0.0
 11
169.981828
 21
460.96902
 31
0.0
  0
LINE
  5
40F
102
{ACAD_REACTORS
330
22E
102
}
100
AcDbEntity
  8
M05
100
AcDbLine
 10
149.981828
 20
460.96902
 30
0.0
 11
150.981828
 21
461.96902
 31
0.0
  0
LINE
  5
410
102
{ACAD_REACTORS
330
230
330
22E
102
}
100
AcDbEntity
  8
M05
100
AcDbLine
 10
168.981828
 20
461.96902
 30
0.0
 11
150.981828
 21
461.96902
 31
0.0
  0
LINE
  5
411
102
{ACAD_REACTORS
330
230
330
22E
102
}
100
AcDbEntity
  8
M05
100
AcDbLine
 10
149.981828
 20
460.96902
 30
0.0
 11
149.981828
 21
451.96902
 31
0.0
  0
LINE
  5
412
102
{ACAD_REACTORS
330
230
330
22E
102
}
100
AcDbEntity
  8
M05
100
AcDbLine
 10
169.981828
 20
460.96902
 30
0.0
 11
169.981828
 21
451.96902
 31
0.0
  0
LINE
  5
413
100
AcDbEntity
  8
M04
100
AcDbLine
 10
169.481828
 20
505.96902
 30
0.0
 11
273.981828
 21
505.96902
 31
0.0
  0
LINE
  5
414
100
AcDbEntity
  8
M02
100
AcDbLine
 10
169.481828
 20
501.96902
 30
0.0
 11
264.981828
 21
501.96902
 31
0.0
  0
LINE
  5
415
102
{ACAD_REACTORS
330
230
102
}
100
AcDbEntity
  8
M01
100
AcDbLine
 10
169.481828
 20
498.96902
 30
0.0
 11
264.981828
 21
498.96902
 31
0.0
  0
TEXT
  5
416
100
AcDbEntity
  8
TEXT
100
AcDbText
 10
162.693995
 20
509.604796
 30
0.0
 40
2.0
  1
MA010008
 50
270.0
 41
0.9
100
AcDbText
  0
LINE
  5
417
100
AcDbEntity
  8
M04
100
AcDbLine
 10
148.981828
 20
510.391669
 30
0.0
 11
150.481828
 21
510.391669
 31
0.0
  0
LINE
  5
418
100
AcDbEntity
  8
M04
100
AcDbLine
 10
148.981828
 20
510.391669
 30
0.0
 11
148.981828
 21
505.96902
 31
0.0
  0
LINE
  5
419
100
AcDbEntity
  8
M04
100
AcDbLine
 10
149.981828
 20
510.96902
 30
0.0
 11
148.981828
 21
510.391669
 31
0.0
  0
LINE
  5
41A
100
AcDbEntity
  8
M04
100
AcDbLine
 10
149.981828
 20
514.96902
 30
0.0
 11
149.981828
 21
515.96902
 31
0.0
  0
LINE
  5
41B
100
AcDbEntity
  8
M04
100
AcDbLine
 10
150.981828
 20
515.96902
 30
0.0
 11
149.981828
 21
515.96902
 31
0.0
  0
LINE
  5
41C
102
{ACAD_REACTORS
330
230
102
}
100
AcDbEntity
  8
M04
100
AcDbLine
 10
151.481828
 20
493.96902
 30
0.0
 11
150.481828
 21
493.96902
 31
0.0
  0
LINE
  5
41D
102
{ACAD_REACTORS
330
230
102
}
100
AcDbEntity
  8
M04
100
AcDbLine
 10
150.481828
 20
494.96902
 30
0.0
 11
150.481828
 21
493.96902
 31
0.0
  0
LINE
  5
41E
100
AcDbEntity
  8
M04
100
AcDbLine
 10
170.981828
 20
510.391669
 30
0.0
 11
169.481828
 21
510.391669
 31
0.0
  0
LINE
  5
41F
100
AcDbEntity
  8
M04
100
AcDbLine
 10
170.981828
 20
510.391669
 30
0.0
 11
170.981828
 21
505.96902
 31
0.0
  0
LINE
  5
420
100
AcDbEntity
  8
M04
100
AcDbLine
 10
169.981828
 20
510.96902
 30
0.0
 11
170.981828
 21
510.391669
 31
0.0
  0
LINE
  5
421
100
AcDbEntity
  8
M04
100
AcDbLine
 10
169.981828
 20
514.96902
 30
0.0
 11
169.981828
 21
515.96902
 31
0.0
  0
LINE
  5
422
100
AcDbEntity
  8
M04
100
AcDbLine
 10
168.981828
 20
515.96902
 30
0.0
 11
169.981828
 21
515.96902
 31
0.0
  0
LINE
  5
423
102
{ACAD_REACTORS
330
230
102
}
100
AcDbEntity
  8
M04
100
AcDbLine
 10
168.481828
 20
493.96902
 30
0.0
 11
169.481828
 21
493.96902
 31
0.0
  0
LINE
  5
424
102
{ACAD_REACTORS
330
230
102
}
100
AcDbEntity
  8
M04
100
AcDbLine
 10
169.481828
 20
494.96902
 30
0.0
 11
169.481828
 21
493.96902
 31
0.0
  0
LINE
  5
425
100
AcDbEntity
  8
M02
100
AcDbLine
 10
148.981828
 20
501.96902
 30
0.0
 11
148.981828
 21
498.96902
 31
0.0
  0
LINE
  5
426
100
AcDbEntity
  8
M02
100
AcDbLine
 10
170.981828
 20
501.96902
 30
0.0
 11
170.981828
 21
498.96902
 31
0.0
  0
LINE
  5
427
100
AcDbEntity
  8
M05
100
AcDbLine
 10
150.481828
 20
494.96902
 30
0.0
 11
169.481828
 21
494.96902
 31
0.0
  0
LINE
  5
428
100
AcDbEntity
  8
M05
100
AcDbLine
 10
149.981828
 20
514.96902
 30
0.0
 11
169.981828
 21
514.96902
 31
0.0
  0
LINE
  5
429
100
AcDbEntity
  8
M05
100
AcDbLine
 10
151.481828
 20
493.96902
 30
0.0
 11
150.481828
 21
494.96902
 31
0.0
  0
LINE
  5
42A
100
AcDbEntity
  8
M05
100
AcDbLine
 10
169.481828
 20
494.96902
 30
0.0
 11
168.481828
 21
493.96902
 31
0.0
  0
LINE
  5
42B
100
AcDbEntity
  8
M05
100
AcDbLine
 10
168.981828
 20
515.96902
 30
0.0
 11
169.981828
 21
514.96902
 31
0.0
  0
LINE
  5
42C
100
AcDbEntity
  8
M05
100
AcDbLine
 10
149.981828
 20
514.96902
 30
0.0
 11
150.981828
 21
515.96902
 31
0.0
  0
LINE
  5
42D
100
AcDbEntity
  8
M05
100
AcDbLine
 10
169.981828
 20
514.96902
 30
0.0
 11
169.981828
 21
510.96902
 31
0.0
  0
LINE
  5
42E
100
AcDbEntity
  8
M05
100
AcDbLine
 10
149.981828
 20
514.96902
 30
0.0
 11
149.981828
 21
510.96902
 31
0.0
  0
LINE
  5
42F
100
AcDbEntity
  8
M05
100
AcDbLine
 10
169.981828
 20
510.96902
 30
0.0
 11
149.981828
 21
510.96902
 31
0.0
  0
LINE
  5
430
100
AcDbEntity
  8
M05
100
AcDbLine
 10
168.981828
 20
515.96902
 30
0.0
 11
150.981828
 21
515.96902
 31
0.0
  0
LINE
  5
431
102
{ACAD_REACTORS
330
230
102
}
100
AcDbEntity
  8
M05
100
AcDbLine
 10
150.481828
 20
510.96902
 30
0.0
 11
150.481828
 21
494.96902
 31
0.0
  0
LINE
  5
432
102
{ACAD_REACTORS
330
230
102
}
100
AcDbEntity
  8
M05
100
AcDbLine
 10
169.481828
 20
510.96902
 30
0.0
 11
169.481828
 21
494.96902
 31
0.0
  0
LINE
  5
433
102
{ACAD_REACTORS
330
230
102
}
100
AcDbEntity
  8
M05
100
AcDbLine
 10
168.481828
 20
493.96902
 30
0.0
 11
151.481828
 21
493.96902
 31
0.0
  0
LINE
  5
434
102
{ACAD_REACTORS
330
1E9
102
}
100
AcDbEntity
  8
M02
100
AcDbLine
 10
54.981828
 20
448.96902
 30
0.0
 11
83.481828
 21
448.96902
 31
0.0
  0
LINE
  5
435
102
{ACAD_REACTORS
330
1E9
102
}
100
AcDbEntity
  8
M02
100
AcDbLine
 10
264.981828
 20
451.96902
 30
0.0
 11
264.981828
 21
448.96902
 31
0.0
  0
LINE
  5
436
102
{ACAD_REACTORS
330
1E9
102
}
100
AcDbEntity
  8
M02
100
AcDbLine
 10
54.981828
 20
451.96902
 30
0.0
 11
54.981828
 21
448.96902
 31
0.0
  0
LINE
  5
437
100
AcDbEntity
  8
M02
100
AcDbLine
 10
54.981828
 20
501.96902
 30
0.0
 11
150.481828
 21
501.96902
 31
0.0
  0
LINE
  5
438
100
AcDbEntity
  8
M02
100
AcDbLine
 10
264.981828
 20
498.96902
 30
0.0
 11
264.981828
 21
501.96902
 31
0.0
  0
LINE
  5
439
100
AcDbEntity
  8
M02
100
AcDbLine
 10
54.981828
 20
498.96902
 30
0.0
 11
54.981828
 21
501.96902
 31
0.0
  0
LINE
  5
43A
102
{ACAD_REACTORS
330
230
102
}
100
AcDbEntity
  8
M01
100
AcDbLine
 10
266.981828
 20
453.96902
 30
0.0
 11
264.981828
 21
451.96902
 31
0.0
  0
LINE
  5
43B
102
{ACAD_REACTORS
330
230
102
}
100
AcDbEntity
  8
M01
100
AcDbLine
 10
264.981828
 20
498.96902
 30
0.0
 11
266.981828
 21
496.96902
 31
0.0
  0
LINE
  5
43C
102
{ACAD_REACTORS
330
230
102
}
100
AcDbEntity
  8
M01
100
AcDbLine
 10
52.981828
 20
496.96902
 30
0.0
 11
54.981828
 21
498.96902
 31
0.0
  0
LINE
  5
43D
102
{ACAD_REACTORS
330
230
102
}
100
AcDbEntity
  8
M01
100
AcDbLine
 10
54.981828
 20
451.96902
 30
0.0
 11
52.981828
 21
453.96902
 31
0.0
  0
LINE
  5
43E
102
{ACAD_REACTORS
330
230
102
}
100
AcDbEntity
  8
M01
100
AcDbLine
 10
266.981828
 20
496.96902
 30
0.0
 11
266.981828
 21
453.96902
 31
0.0
  0
LINE
  5
43F
102
{ACAD_REACTORS
330
230
102
}
100
AcDbEntity
  8
M01
100
AcDbLine
 10
52.981828
 20
496.96902
 30
0.0
 11
52.981828
 21
453.96902
 31
0.0
  0
LINE
  5
440
102
{ACAD_REACTORS
330
230
330
22E
330
1EF
330
1E9
102
}
100
AcDbEntity
  8
M01
100
AcDbLine
 10
54.981828
 20
451.96902
 30
0.0
 11
149.981828
 21
451.96902
 31
0.0
  0
LINE
  5
441
102
{ACAD_REACTORS
330
230
102
}
100
AcDbEntity
  8
M01
100
AcDbLine
 10
54.981828
 20
498.96902
 30
0.0
 11
150.481828
 21
498.96902
 31
0.0
  0
LINE
  5
442
100
AcDbEntity
  8
M04
100
AcDbLine
 10
45.981828
 20
505.96902
 30
0.0
 11
150.481828
 21
505.96902
 31
0.0
  0
LINE
  5
443
102
{ACAD_REACTORS
330
230
102
}
100
AcDbEntity
  8
CENTRE
100
AcDbLine
 10
159.981828
 20
528.325019
 30
0.0
 11
159.981828
 21
408.649077
 31
0.0
  0
LINE
  5
444
100
AcDbEntity
  8
M04
100
AcDbLine
 10
273.981828
 20
505.96902
 30
0.0
 11
273.981828
 21
444.96902
 31
0.0
  0
LINE
  5
445
100
AcDbEntity
  8
M04
100
AcDbLine
 10
45.981828
 20
505.96902
 30
0.0
 11
45.981828
 21
444.96902
 31
0.0
  0
LINE
  5
446
102
{ACAD_REACTORS
330
1EF
102
}
100
AcDbEntity
  8
M04
100
AcDbLine
 10
28.431046
 20
444.96902
 30
0.0
 11
94.481828
 21
444.96902
 31
0.0
  0
LINE
  5
447
100
AcDbEntity
  8
M04
100
AcDbLine
 10
176.981828
 20
773.041771
 30
0.0
 11
176.981828
 21
793.713249
 31
0.0
  0
LINE
  5
448
100
AcDbEntity
  8
M04
100
AcDbLine
 10
142.981828
 20
773.041771
 30
0.0
 11
142.981828
 21
793.713249
 31
0.0
  0
ARC
  5
449
100
AcDbEntity
  8
M04
100
AcDbCircle
 10
176.981828
 20
758.041771
 30
0.0
 40
15.0
100
AcDbArc
 50
360.0
 51
90.0
  0
ARC
  5
44A
100
AcDbEntity
  8
M04
100
AcDbCircle
 10
142.981828
 20
758.041771
 30
0.0
 40
15.0
100
AcDbArc
 50
90.0
 51
180.0
  0
LINE
  5
44B
100
AcDbEntity
  8
M04
100
AcDbLine
 10
142.981828
 20
773.041771
 30
0.0
 11
176.981828
 21
773.041771
 31
0.0
  0
LINE
  5
44C
100
AcDbEntity
  8
M01
100
AcDbLine
 10
149.481828
 20
758.041771
 30
0.0
 11
149.981828
 21
757.541771
 31
0.0
  0
LINE
  5
44D
100
AcDbEntity
  8
M01
100
AcDbLine
 10
145.981828
 20
757.541771
 30
0.0
 11
146.481828
 21
758.041771
 31
0.0
  0
LINE
  5
44E
100
AcDbEntity
  8
M01
100
AcDbLine
 10
145.981828
 20
757.541771
 30
0.0
 11
149.981828
 21
757.541771
 31
0.0
  0
LINE
  5
44F
100
AcDbEntity
  8
M01
100
AcDbLine
 10
149.481828
 20
758.041771
 30
0.0
 11
149.481828
 21
754.941771
 31
0.0
  0
LINE
  5
450
100
AcDbEntity
  8
M01
100
AcDbLine
 10
146.481828
 20
758.041771
 30
0.0
 11
146.481828
 21
754.941771
 31
0.0
  0
LINE
  5
451
100
AcDbEntity
  8
M01
100
AcDbLine
 10
145.981828
 20
757.541771
 30
0.0
 11
145.981828
 21
754.941771
 31
0.0
  0
LINE
  5
452
100
AcDbEntity
  8
M01
100
AcDbLine
 10
149.981828
 20
757.541771
 30
0.0
 11
149.981828
 21
754.941771
 31
0.0
  0
CIRCLE
  5
453
100
AcDbEntity
  8
M03
100
AcDbCircle
 10
159.981828
 20
637.041771
 30
0.0
 40
20.0
  0
LINE
  5
454
100
AcDbEntity
  8
M01
100
AcDbLine
 10
146.481828
 20
758.041771
 30
0.0
 11
149.481828
 21
758.041771
 31
0.0
  0
HATCH
  5
455
100
AcDbEntity
  8
M01
 62
     4
100
AcDbHatch
 10
0.0
 20
0.0
 30
0.0
210
0.0
220
0.0
230
1.0
  2
_U
 70
     0
 71
     0
 91
       13
 92
        7
 72
     1
 73
     1
 93
        4
 10
153.9818279649152
 20
644.407231067896
 42
0.0
 10
153.9818279649151
 20
641.0417711365679
 42
0.0
 10
159.9818279649152
 20
641.0417711365679
 42
0.0
 10
159.9818279649152
 20
646.5417711365679
 42
0.1725804109198133
 97
        0
 92
        7
 72
     1
 73
     1
 93
        4
 10
159.9818279649152
 20
641.0417711365679
 42
0.0
 10
153.9818279649151
 20
641.0417711365679
 42
0.0
 10
153.9818279649152
 20
637.0417711365678
 42
0.0
 10
155.9818279649152
 20
637.0417711365678
 42
-0.4142135623730992
 97
        0
 92
       22
 72
     1
 73
     1
 93
        3
 10
159.9818279649151
 20
641.0417711365679
 42
0.4142135623730909
 10
155.9818279649152
 20
637.0417711365678
 42
0.0
 10
159.9818279649152
 20
637.0417711365678
 42
0.0
 97
        0
 92
        7
 72
     1
 73
     1
 93
        4
 10
153.9818279649151
 20
641.0417711365679
 42
0.0
 10
151.3649839951081
 20
641.0417711365679
 42
0.1090809576248918
 10
150.4818279649152
 20
637.0417711365678
 42
0.0
 10
153.9818279649152
 20
637.0417711365678
 42
0.0
 97
        0
 92
       22
 72
     1
 73
     1
 93
        3
 10
153.9818279649151
 20
644.407231067896
 42
0.1136360637262233
 10
151.3649839951081
 20
641.0417711365679
 42
0.0
 10
153.9818279649149
 20
641.0417711365679
 42
0.0
 97
        0
 92
        7
 72
     1
 73
     1
 93
        4
 10
149.9818279649152
 20
637.0417711365678
 42
0.0
 10
150.4818279649152
 20
637.0417711365678
 42
-0.1090809576248918
 10
151.3649839951081
 20
641.0417711365679
 42
0.0
 10
150.8166765750035
 20
641.0417711365679
 42
0.1032437171755979
 97
        0
 92
        7
 72
     1
 73
     1
 93
        4
 10
150.8166765750035
 20
641.0417711365679
 42
0.0
 10
151.3649839951081
 20
641.0417711365679
 42
-0.1136360637262264
 10
153.9818279649152
 20
644.407231067896
 42
0.0
 10
153.9818279649152
 20
645.0417711365679
 42
0.1296640194076911
 97
        0
 92
        7
 72
     1
 73
     1
 93
        4
 10
159.9818279649152
 20
646.5417711365679
 42
0.0
 10
159.9818279649152
 20
647.0417711365679
 42
0.1622776601683798
 10
153.9818279649152
 20
645.0417711365678
 42
0.0
 10
153.9818279649152
 20
644.4072310678961
 42
-0.1725804109198127
 97
        0
 92
       23
 72
     1
 73
     1
 93
        3
 10
159.9818279649152
 20
637.0417711365678
 42
0.0
 10
159.9818279649152
 20
633.0417711365679
 42
0.4142135623730909
 10
163.9818279649152
 20
637.0417711365678
 42
0.0
 97
        0
 92
        7
 72
     1
 73
     1
 93
        4
 10
163.9818279649152
 20
637.0417711365678
 42
-0.4142135623730909
 10
159.9818279649152
 20
633.0417711365679
 42
0.0
 10
168.5986719347222
 20
633.0417711365679
 42
0.1090809576248888
 10
169.4818279649152
 20
637.0417711365678
 42
0.0
 97
        0
 92
       23
 72
     1
 73
     1
 93
        3
 10
159.9818279649152
 20
633.0417711365679
 42
0.0
 10
159.9818279649152
 20
627.5417711365679
 42
0.2919418509678903
 10
168.5986719347222
 20
633.0417711365679
 42
0.0
 97
        0
 92
        7
 72
     1
 73
     1
 93
        4
 10
169.1469793548268
 20
633.0417711365679
 42
0.0
 10
168.5986719347222
 20
633.0417711365679
 42
-0.2919418509678903
 10
159.9818279649152
 20
627.5417711365679
 42
0.0
 10
159.9818279649152
 20
627.0417711365679
 42
0.2982166266986068
 97
        0
 92
        7
 72
     1
 73
     1
 93
        4
 10
169.9818279649152
 20
637.0417711365678
 42
0.0
 10
169.4818279649152
 20
637.0417711365678
 42
-0.1090809576248888
 10
168.5986719347222
 20
633.0417711365679
 42
0.0
 10
169.1469793548268
 20
633.0417711365679
 42
0.1032437171755951
 97
        0
 75
     0
 76
     0
 52
45.0
 41
1.0
 77
     1
 78
     2
 53
45.0
 43
-395.465413
 44
204.482545
 45
-0.7071067811865475
 46
0.7071067811865476
 79
     0
 53
135.0
 43
-395.465413
 44
204.482545
 45
-0.7071067811865476
 46
-0.7071067811865475
 79
     0
 47
0.087843
 98
       13
 10
157.312798
 20
643.857307
 10
155.730972
 20
639.465161
 10
158.718865
 20
638.938103
 10
152.830959
 20
638.938103
 10
153.270356
 20
641.924762
 10
150.546101
 20
639.640846
 10
153.446114
 20
644.296522
 10
156.082489
 20
645.965537
 10
161.706757
 20
635.8636
 10
165.837079
 20
635.073014
 10
163.55222
 20
631.471454
 10
162.49767
 20
627.518522
 10
169.615884
 20
635.160857
  0
CIRCLE
  5
456
100
AcDbEntity
  8
M01
100
AcDbCircle
 10
159.981828
 20
637.041771
 30
0.0
 40
10.0
  0
LINE
  5
457
100
AcDbEntity
  8
M01
100
AcDbLine
 10
142.981828
 20
733.041771
 30
0.0
 11
152.981828
 21
733.041771
 31
0.0
  0
LINE
  5
458
100
AcDbEntity
  8
M01
100
AcDbLine
 10
152.481828
 20
745.841771
 30
0.0
 11
152.481828
 21
745.041771
 31
0.0
  0
LINE
  5
459
100
AcDbEntity
  8
M01
100
AcDbLine
 10
143.481828
 20
745.841771
 30
0.0
 11
143.481828
 21
745.041771
 31
0.0
  0
LINE
  5
45A
100
AcDbEntity
  8
CENTRE
100
AcDbLine
 10
147.981828
 20
764.20266
 30
0.0
 11
147.981828
 21
700.609229
 31
0.0
  0
LINE
  5
45B
100
AcDbEntity
  8
M04
100
AcDbLine
 10
191.981828
 20
683.041771
 30
0.0
 11
198.981828
 21
676.041771
 31
0.0
  0
LINE
  5
45C
100
AcDbEntity
  8
M04
100
AcDbLine
 10
120.981828
 20
676.041771
 30
0.0
 11
127.981828
 21
683.041771
 31
0.0
  0
ARC
  5
45D
100
AcDbEntity
  8
M04
100
AcDbCircle
 10
60.981828
 20
613.041771
 30
0.0
 40
15.0
100
AcDbArc
 50
180.0
 51
270.0
  0
ARC
  5
45E
100
AcDbEntity
  8
M04
100
AcDbCircle
 10
60.981828
 20
661.041771
 30
0.0
 40
15.0
100
AcDbArc
 50
90.0
 51
180.0
  0
ARC
  5
45F
100
AcDbEntity
  8
M04
100
AcDbCircle
 10
258.981828
 20
661.041771
 30
0.0
 40
15.0
100
AcDbArc
 50
0.0
 51
90.0
  0
ARC
  5
460
100
AcDbEntity
  8
M04
100
AcDbCircle
 10
258.981828
 20
613.041771
 30
0.0
 40
15.0
100
AcDbArc
 50
270.0
 51
0.0
  0
LINE
  5
461
100
AcDbEntity
  8
M04
100
AcDbLine
 10
45.981828
 20
661.041771
 30
0.0
 11
45.981828
 21
613.041771
 31
0.0
  0
LINE
  5
462
100
AcDbEntity
  8
M04
100
AcDbLine
 10
60.981828
 20
676.041771
 30
0.0
 11
120.981828
 21
676.041771
 31
0.0
  0
LINE
  5
463
100
AcDbEntity
  8
M04
100
AcDbLine
 10
127.981828
 20
758.041771
 30
0.0
 11
127.981828
 21
683.041771
 31
0.0
  0
LINE
  5
464
100
AcDbEntity
  8
M04
100
AcDbLine
 10
191.981828
 20
758.041771
 30
0.0
 11
191.981828
 21
683.041771
 31
0.0
  0
LINE
  5
465
100
AcDbEntity
  8
M04
100
AcDbLine
 10
198.981828
 20
676.041771
 30
0.0
 11
258.981828
 21
676.041771
 31
0.0
  0
LINE
  5
466
100
AcDbEntity
  8
M04
100
AcDbLine
 10
273.981828
 20
661.041771
 30
0.0
 11
273.981828
 21
613.041771
 31
0.0
  0
LINE
  5
467
100
AcDbEntity
  8
M04
100
AcDbLine
 10
60.981828
 20
598.041771
 30
0.0
 11
258.981828
 21
598.041771
 31
0.0
  0
CIRCLE
  5
468
100
AcDbEntity
  8
M03
100
AcDbCircle
 10
159.981828
 20
637.041771
 30
0.0
 40
9.5
  0
CIRCLE
  5
469
100
AcDbEntity
  8
M03
100
AcDbCircle
 10
159.981828
 20
637.041771
 30
0.0
 40
4.0
  0
LINE
  5
46A
100
AcDbEntity
  8
M03
100
AcDbLine
 10
97.481828
 20
633.041771
 30
0.0
 11
222.481828
 21
633.041771
 31
0.0
  0
LINE
  5
46B
100
AcDbEntity
  8
M03
100
AcDbLine
 10
97.481828
 20
641.041771
 30
0.0
 11
222.481828
 21
641.041771
 31
0.0
  0
CIRCLE
  5
46C
100
AcDbEntity
  8
M01
100
AcDbCircle
 10
222.481828
 20
637.041771
 30
0.0
 40
4.0
  0
CIRCLE
  5
46D
100
AcDbEntity
  8
M01
100
AcDbCircle
 10
97.481828
 20
637.041771
 30
0.0
 40
4.0
  0
LWPOLYLINE
  5
46E
100
AcDbEntity
  8
M01
100
AcDbPolyline
 90
        2
 70
     0
 43
4.0
 10
159.981828
 20
709.541771
 42
0.414214
 10
157.981828
 20
707.541771
  0
LWPOLYLINE
  5
46F
100
AcDbEntity
  8
M01
100
AcDbPolyline
 90
        2
 70
     0
 43
4.0
 10
159.981828
 20
705.541771
 42
0.414214
 10
161.981828
 20
707.541771
  0
CIRCLE
  5
470
100
AcDbEntity
  8
M01
100
AcDbCircle
 10
159.981828
 20
707.541771
 30
0.0
 40
4.0
  0
LINE
  5
471
100
AcDbEntity
  8
M01
100
AcDbLine
 10
163.981828
 20
705.041771
 30
0.0
 11
163.981828
 21
713.041771
 31
0.0
  0
LINE
  5
472
100
AcDbEntity
  8
M01
100
AcDbLine
 10
155.981828
 20
705.041771
 30
0.0
 11
155.981828
 21
713.041771
 31
0.0
  0
ARC
  5
473
100
AcDbEntity
  8
M01
100
AcDbCircle
 10
159.981828
 20
705.041771
 30
0.0
 40
4.0
100
AcDbArc
 50
180.0
 51
0.0
  0
LINE
  5
474
100
AcDbEntity
  8
M01
100
AcDbLine
 10
179.981828
 20
713.041771
 30
0.0
 11
181.981828
 21
711.041771
 31
0.0
  0
LINE
  5
475
100
AcDbEntity
  8
M01
100
AcDbLine
 10
137.981828
 20
711.041771
 30
0.0
 11
139.981828
 21
713.041771
 31
0.0
  0
LINE
  5
476
100
AcDbEntity
  8
M01
100
AcDbLine
 10
139.981828
 20
713.041771
 30
0.0
 11
179.981828
 21
713.041771
 31
0.0
  0
ARC
  5
477
100
AcDbEntity
  8
M01
100
AcDbCircle
 10
193.981828
 20
681.041771
 30
0.0
 40
12.0
100
AcDbArc
 50
180.0
 51
270.0
  0
ARC
  5
478
100
AcDbEntity
  8
M01
100
AcDbCircle
 10
125.981828
 20
681.041771
 30
0.0
 40
12.0
100
AcDbArc
 50
270.0
 51
0.0
  0
LINE
  5
479
100
AcDbEntity
  8
M01
100
AcDbLine
 10
193.981828
 20
669.041771
 30
0.0
 11
254.981828
 21
669.041771
 31
0.0
  0
LINE
  5
47A
100
AcDbEntity
  8
M01
100
AcDbLine
 10
181.981828
 20
711.041771
 30
0.0
 11
181.981828
 21
681.041771
 31
0.0
  0
LINE
  5
47B
100
AcDbEntity
  8
M01
100
AcDbLine
 10
137.981828
 20
711.041771
 30
0.0
 11
137.981828
 21
681.041771
 31
0.0
  0
LINE
  5
47C
100
AcDbEntity
  8
M01
100
AcDbLine
 10
266.981828
 20
617.041771
 30
0.0
 11
254.981828
 21
605.041771
 31
0.0
  0
LINE
  5
47D
100
AcDbEntity
  8
M01
100
AcDbLine
 10
254.981828
 20
669.041771
 30
0.0
 11
266.981828
 21
657.041771
 31
0.0
  0
LINE
  5
47E
100
AcDbEntity
  8
M01
100
AcDbLine
 10
52.981828
 20
657.041771
 30
0.0
 11
64.981828
 21
669.041771
 31
0.0
  0
LINE
  5
47F
100
AcDbEntity
  8
M01
100
AcDbLine
 10
64.981828
 20
605.041771
 30
0.0
 11
52.981828
 21
617.041771
 31
0.0
  0
LINE
  5
480
100
AcDbEntity
  8
M01
100
AcDbLine
 10
64.981828
 20
605.041771
 30
0.0
 11
254.981828
 21
605.041771
 31
0.0
  0
LINE
  5
481
100
AcDbEntity
  8
M01
100
AcDbLine
 10
64.981828
 20
669.041771
 30
0.0
 11
125.981828
 21
669.041771
 31
0.0
  0
LINE
  5
482
100
AcDbEntity
  8
M01
100
AcDbLine
 10
266.981828
 20
657.041771
 30
0.0
 11
266.981828
 21
617.041771
 31
0.0
  0
LINE
  5
483
100
AcDbEntity
  8
M01
100
AcDbLine
 10
52.981828
 20
657.041771
 30
0.0
 11
52.981828
 21
617.041771
 31
0.0
  0
LINE
  5
484
100
AcDbEntity
  8
CENTRE
100
AcDbLine
 10
159.981828
 20
728.041771
 30
0.0
 11
159.981828
 21
590.041771
 31
0.0
  0
LINE
  5
485
100
AcDbEntity
  8
CENTRE
100
AcDbLine
 10
37.981828
 20
637.041771
 30
0.0
 11
281.981828
 21
637.041771
 31
0.0
  0
ENDSEC
  0
SECTION
  2
OBJECTS
  0
DICTIONARY
  5
1C
100
AcDbDictionary
  3
ACAD_GROUP
350
1A
  3
ACAD_MLINESTYLE
350
1B
  0
DICTIONARY
  5
3
100
AcDbDictionary
280
     1
  3
ACAD_SORTENTS
360
4
  0
DICTIONARY
  5
1A
102
{ACAD_REACTORS
330
1C
102
}
100
AcDbDictionary
  0
DICTIONARY
  5
1B
102
{ACAD_REACTORS
330
1C
102
}
100
AcDbDictionary
  3
STANDARD
350
1E
  0
SORTENTSTABLE
  5
4
102
{ACAD_REACTORS
330
3
102
}
100
AcDbSortentsTable
330
2
  0
MLINESTYLE
  5
1E
102
{ACAD_REACTORS
330
1B
102
}
100
AcDbMlineStyle
  2
STANDARD
 70
     0
  3

 62
   256
 51
90.0
 52
90.0
 71
     2
 49
0.5
 62
   256
  6
BYLAYER
 49
-0.5
 62
   256
  6
BYLAYER
  0
ENDSEC
  0
EOF
