  0
SECTION
  2
HEADER
  9
$ACADVER
  1
AC1014
  9
$ACADMAINTVER
 70
     9
  9
$DWGCODEPAGE
  3
ANSI_1252
  9
$INSBASE
 10
0.0
 20
0.0
 30
0.0
  9
$EXTMIN
 10
423.896459
 20
161.00006
 30
0.0
  9
$EXTMAX
 10
1164.519848
 20
589.230704
 30
0.0
  9
$LIMMIN
 10
0.0
 20
0.0
  9
$LIMMAX
 10
1189.0
 20
841.0
  9
$ORTHOMODE
 70
     1
  9
$REGENMODE
 70
     1
  9
$FILLMODE
 70
     1
  9
$QTEXTMODE
 70
     0
  9
$MIRRTEXT
 70
     1
  9
$DRAGMODE
 70
     2
  9
$LTSCALE
 40
8.0
  9
$OSMODE
 70
     0
  9
$ATTMODE
 70
     1
  9
$TEXTSIZE
 40
3.0
  9
$TRACEWID
 40
10.0
  9
$TEXTSTYLE
  7
STANDARD
  9
$CLAYER
  8
M03
  9
$CELTYPE
  6
BYLAYER
  9
$CECOLOR
 62
   256
  9
$CELTSCALE
 40
1.0
  9
$DELOBJ
 70
     1
  9
$DISPSILH
 70
     0
  9
$DIMSCALE
 40
1.0
  9
$DIMASZ
 40
3.0
  9
$DIMEXO
 40
1.0
  9
$DIMDLI
 40
10.0
  9
$DIMRND
 40
0.01
  9
$DIMDLE
 40
1.25
  9
$DIMEXE
 40
2.5
  9
$DIMTP
 40
0.05
  9
$DIMTM
 40
0.0
  9
$DIMTXT
 40
3.0
  9
$DIMCEN
 40
-1.7
  9
$DIMTSZ
 40
0.0
  9
$DIMTOL
 70
     0
  9
$DIMLIM
 70
     0
  9
$DIMTIH
 70
     0
  9
$DIMTOH
 70
     0
  9
$DIMSE1
 70
     0
  9
$DIMSE2
 70
     0
  9
$DIMTAD
 70
     3
  9
$DIMZIN
 70
     1
  9
$DIMBLK
  1

  9
$DIMASO
 70
     1
  9
$DIMSHO
 70
     0
  9
$DIMPOST
  1

  9
$DIMAPOST
  1

  9
$DIMALT
 70
     0
  9
$DIMALTD
 70
     2
  9
$DIMALTF
 40
0.039
  9
$DIMLFAC
 40
1.0
  9
$DIMTOFL
 70
     0
  9
$DIMTVP
 40
1.5
  9
$DIMTIX
 70
     0
  9
$DIMSOXD
 70
     0
  9
$DIMSAH
 70
     0
  9
$DIMBLK1
  1

  9
$DIMBLK2
  1

  9
$DIMSTYLE
  2
DIM1
  9
$DIMCLRD
 70
     4
  9
$DIMCLRE
 70
     4
  9
$DIMCLRT
 70
     2
  9
$DIMTFAC
 40
0.7
  9
$DIMGAP
 40
1.5
  9
$DIMJUST
 70
     0
  9
$DIMSD1
 70
     0
  9
$DIMSD2
 70
     0
  9
$DIMTOLJ
 70
     1
  9
$DIMTZIN
 70
     1
  9
$DIMALTZ
 70
     1
  9
$DIMALTTZ
 70
     1
  9
$DIMFIT
 70
     0
  9
$DIMUPT
 70
     1
  9
$DIMUNIT
 70
     2
  9
$DIMDEC
 70
     2
  9
$DIMTDEC
 70
     2
  9
$DIMALTU
 70
     2
  9
$DIMALTTD
 70
     2
  9
$DIMTXSTY
  7
STANDARD
  9
$DIMAUNIT
 70
     0
  9
$LUNITS
 70
     2
  9
$LUPREC
 70
     2
  9
$SKETCHINC
 40
1.0
  9
$FILLETRAD
 40
10.0
  9
$AUNITS
 70
     0
  9
$AUPREC
 70
     3
  9
$MENU
  1
ACAD
  9
$ELEVATION
 40
0.0
  9
$PELEVATION
 40
0.0
  9
$THICKNESS
 40
0.0
  9
$LIMCHECK
 70
     0
  9
$BLIPMODE
 70
     1
  9
$CHAMFERA
 40
0.7
  9
$CHAMFERB
 40
0.7
  9
$CHAMFERC
 40
0.0
  9
$CHAMFERD
 40
0.0
  9
$SKPOLY
 70
     1
  9
$TDCREATE
 40
2449993.725698611
  9
$TDUPDATE
 40
2451970.546778738
  9
$TDINDWG
 40
0.9009579282
  9
$TDUSRTIMER
 40
0.9009579282
  9
$USRTIMER
 70
     1
  9
$ANGBASE
 50
0.0
  9
$ANGDIR
 70
     0
  9
$PDMODE
 70
     3
  9
$PDSIZE
 40
0.0
  9
$PLINEWID
 40
0.0
  9
$COORDS
 70
     2
  9
$SPLFRAME
 70
     0
  9
$SPLINETYPE
 70
     6
  9
$SPLINESEGS
 70
     6
  9
$ATTDIA
 70
     1
  9
$ATTREQ
 70
     1
  9
$HANDLING
 70
     1
  9
$HANDSEED
  5
48F
  9
$SURFTAB1
 70
    12
  9
$SURFTAB2
 70
    12
  9
$SURFTYPE
 70
     6
  9
$SURFU
 70
    12
  9
$SURFV
 70
    12
  9
$UCSNAME
  2

  9
$UCSORG
 10
0.0
 20
0.0
 30
0.0
  9
$UCSXDIR
 10
1.0
 20
0.0
 30
0.0
  9
$UCSYDIR
 10
0.0
 20
1.0
 30
0.0
  9
$PUCSNAME
  2

  9
$PUCSORG
 10
0.0
 20
0.0
 30
0.0
  9
$PUCSXDIR
 10
1.0
 20
0.0
 30
0.0
  9
$PUCSYDIR
 10
0.0
 20
1.0
 30
0.0
  9
$USERI1
 70
     0
  9
$USERI2
 70
     0
  9
$USERI3
 70
     0
  9
$USERI4
 70
     0
  9
$USERI5
 70
     0
  9
$USERR1
 40
0.0
  9
$USERR2
 40
0.0
  9
$USERR3
 40
0.0
  9
$USERR4
 40
0.0
  9
$USERR5
 40
0.0
  9
$WORLDVIEW
 70
     0
  9
$SHADEDGE
 70
     3
  9
$SHADEDIF
 70
    70
  9
$TILEMODE
 70
     1
  9
$MAXACTVP
 70
    16
  9
$PINSBASE
 10
0.0
 20
0.0
 30
0.0
  9
$PLIMCHECK
 70
     0
  9
$PEXTMIN
 10
1.000000E+20
 20
1.000000E+20
 30
1.000000E+20
  9
$PEXTMAX
 10
-1.000000E+20
 20
-1.000000E+20
 30
-1.000000E+20
  9
$PLIMMIN
 10
0.0
 20
0.0
  9
$PLIMMAX
 10
12.0
 20
9.0
  9
$UNITMODE
 70
     0
  9
$VISRETAIN
 70
     0
  9
$PLINEGEN
 70
     0
  9
$PSLTSCALE
 70
     0
  9
$TREEDEPTH
 70
  3020
  9
$PICKSTYLE
 70
     1
  9
$CMLSTYLE
  2
STANDARD
  9
$CMLJUST
 70
     0
  9
$CMLSCALE
 40
1.0
  9
$PROXYGRAPHICS
 70
     1
  9
$MEASUREMENT
 70
     0
  0
ENDSEC
  0
SECTION
  2
CLASSES
  0
CLASS
  1
DICTIONARYVAR
  2
AcDbDictionaryVar
  3
"AutoCAD"
 90
        0
280
     0
281
     0
  0
CLASS
  1
LWPOLYLINE
  2
AcDbPolyline
  3
"AutoCAD"
 90
        0
280
     0
281
     1
  0
CLASS
  1
HATCH
  2
AcDbHatch
  3
"ACAD_SEDONA"
 90
        0
280
     0
281
     1
  0
CLASS
  1
SORTENTSTABLE
  2
AcDbSortentsTable
  3
"AutoCAD"
 90
        0
280
     0
281
     0
  0
CLASS
  1
WIPEOUTVARIABLES
  2
AcDbWipeoutVariables
  3
WIPEOUT
 90
        0
280
     0
281
     0
  0
CLASS
  1
WIPEOUT
  2
AcDbWipeout
  3
WIPEOUT
 90
      127
280
     0
281
     1
  0
ENDSEC
  0
SECTION
  2
TABLES
  0
TABLE
  2
VPORT
  5
14
100
AcDbSymbolTable
 70
     2
  0
VPORT
  5
48E
100
AcDbSymbolTableRecord
100
AcDbViewportTableRecord
  2
*ACTIVE
 70
     0
 10
0.0
 20
0.0
 11
1.0
 21
1.0
 12
652.544275
 22
390.102097
 13
0.0
 23
0.0
 14
10.0
 24
10.0
 15
0.0
 25
0.0
 16
0.0
 26
0.0
 36
1.0
 17
16.313321
 27
12.779115
 37
0.222949
 40
400.344629
 41
1.494382
 42
50.0
 43
0.0
 44
0.0
 50
0.0
 51
0.0
 71
     0
 72
  2000
 73
     1
 74
     2
 75
     0
 76
     0
 77
     0
 78
     1
  0
ENDTAB
  0
TABLE
  2
LTYPE
  5
F
100
AcDbSymbolTable
 70
     3
  0
LTYPE
  5
10
100
AcDbSymbolTableRecord
100
AcDbLinetypeTableRecord
  2
BYBLOCK
 70
     0
  3

 72
    65
 73
     0
 40
0.0
  0
LTYPE
  5
11
100
AcDbSymbolTableRecord
100
AcDbLinetypeTableRecord
  2
BYLAYER
 70
     0
  3

 72
    65
 73
     0
 40
0.0
  0
LTYPE
  5
7
100
AcDbSymbolTableRecord
100
AcDbLinetypeTableRecord
  2
CONTINUOUS
 70
     0
  3
Solid line
 72
    65
 73
     0
 40
0.0
  0
LTYPE
  5
D5
100
AcDbSymbolTableRecord
100
AcDbLinetypeTableRecord
  2
CENTER
 70
     0
  3
Center ____ _ ____ _ ____ _ ____ _ ____ _ ____
 72
    65
 73
     4
 40
2.0
 49
1.25
 74
     0
 49
-0.25
 74
     0
 49
0.25
 74
     0
 49
-0.25
 74
     0
  0
LTYPE
  5
1E
100
AcDbSymbolTableRecord
100
AcDbLinetypeTableRecord
  2
HIDDEN
 70
     0
  3
Hidden __ __ __ __ __ __ __ __ __ __ __ __ __ _
 72
    65
 73
     2
 40
0.375
 49
0.25
 74
     0
 49
-0.125
 74
     0
  0
ENDTAB
  0
TABLE
  2
LAYER
  5
C
100
AcDbSymbolTable
 70
    11
  0
LAYER
  5
6
100
AcDbSymbolTableRecord
100
AcDbLayerTableRecord
  2
0
 70
     0
 62
     7
  6
CONTINUOUS
  0
LAYER
  5
D4
100
AcDbSymbolTableRecord
100
AcDbLayerTableRecord
  2
CENTRE
 70
     0
 62
     3
  6
CENTER
  0
LAYER
  5
26
100
AcDbSymbolTableRecord
100
AcDbLayerTableRecord
  2
M01
 70
     0
 62
     1
  6
CONTINUOUS
  0
LAYER
  5
52
100
AcDbSymbolTableRecord
100
AcDbLayerTableRecord
  2
M02
 70
     0
 62
     2
  6
CONTINUOUS
  0
LAYER
  5
1D
100
AcDbSymbolTableRecord
100
AcDbLayerTableRecord
  2
M03
 70
     0
 62
     2
  6
HIDDEN
  0
LAYER
  5
8F
100
AcDbSymbolTableRecord
100
AcDbLayerTableRecord
  2
M04
 70
     0
 62
     7
  6
CONTINUOUS
  0
LAYER
  5
44
100
AcDbSymbolTableRecord
100
AcDbLayerTableRecord
  2
M05
 70
     0
 62
     5
  6
CONTINUOUS
  0
LAYER
  5
57
100
AcDbSymbolTableRecord
100
AcDbLayerTableRecord
  2
DIMS
 70
     0
 62
     4
  6
CONTINUOUS
  0
LAYER
  5
211
100
AcDbSymbolTableRecord
100
AcDbLayerTableRecord
  2
TEXT
 70
     0
 62
     2
  6
CONTINUOUS
  0
LAYER
  5
24
100
AcDbSymbolTableRecord
100
AcDbLayerTableRecord
  2
HATCH
 70
     0
 62
     4
  6
CONTINUOUS
  0
LAYER
  5
59
100
AcDbSymbolTableRecord
100
AcDbLayerTableRecord
  2
DEFPOINTS
 70
     0
 62
     7
  6
CONTINUOUS
  0
ENDTAB
  0
TABLE
  2
STYLE
  5
D
100
AcDbSymbolTable
 70
     1
  0
STYLE
  5
E
100
AcDbSymbolTableRecord
100
AcDbTextStyleTableRecord
  2
STANDARD
 70
     0
 40
0.0
 41
1.0
 50
0.0
 71
     0
 42
3.0
  3
SIMPLEX
  4

  0
ENDTAB
  0
TABLE
  2
VIEW
  5
12
100
AcDbSymbolTable
 70
     0
  0
ENDTAB
  0
TABLE
  2
UCS
  5
13
100
AcDbSymbolTable
 70
     0
  0
ENDTAB
  0
TABLE
  2
APPID
  5
16
100
AcDbSymbolTable
 70
     1
  0
APPID
  5
17
100
AcDbSymbolTableRecord
100
AcDbRegAppTableRecord
  2
ACAD
 70
     0
  0
ENDTAB
  0
TABLE
  2
DIMSTYLE
  5
18
100
AcDbSymbolTable
 70
     2
  0
DIMSTYLE
105
20
102
{ACAD_REACTORS
330
155
330
179
330
187
330
194
330
1A2
330
1B0
330
1BD
330
1CB
330
1D9
330
273
330
280
330
28D
330
29A
102
}
100
AcDbSymbolTableRecord
100
AcDbDimStyleTableRecord
  2
DIM1
 70
     0
  3

  4

  5

  6

  7

 40
1.0
 41
3.0
 42
1.0
 43
10.0
 44
2.5
 45
0.01
 46
1.25
 47
0.05
 48
0.0
140
3.0
141
-1.7
142
0.0
143
0.039
144
0.2
145
1.5
146
0.7
147
1.5
 71
     0
 72
     0
 73
     0
 74
     0
 75
     0
 76
     0
 77
     3
 78
     1
170
     0
171
     2
172
     0
173
     0
174
     0
175
     0
176
     4
177
     4
178
     2
270
     2
271
     2
272
     2
273
     2
274
     2
340
E
275
     0
280
     0
281
     0
282
     0
283
     1
284
     1
285
     1
286
     1
287
     0
288
     0
  0
DIMSTYLE
105
12F
100
AcDbSymbolTableRecord
100
AcDbDimStyleTableRecord
  2
DIM1$7
 70
     0
  3

  4

  5

  6

  7

 40
1.0
 41
3.0
 42
1.0
 43
10.0
 44
2.5
 45
0.01
 46
1.25
 47
0.0
 48
0.0
140
3.0
141
-1.7
142
0.0
143
0.039
144
1.0
145
0.0
146
1.0
147
1.5
 71
     0
 72
     0
 73
     0
 74
     0
 75
     0
 76
     0
 77
     0
 78
     1
170
     0
171
     2
172
     0
173
     0
174
     0
175
     0
176
     4
177
     4
178
     2
270
     2
271
     2
272
     2
273
     2
274
     2
340
E
275
     0
280
     0
281
     0
282
     0
283
     1
284
     1
285
     1
286
     1
287
     0
288
     0
  0
ENDTAB
  0
TABLE
  2
BLOCK_RECORD
  5
1
100
AcDbSymbolTable
 70
    13
  0
BLOCK_RECORD
  5
2
102
{ACAD_XDICTIONARY
360
3
102
}
100
AcDbSymbolTableRecord
100
AcDbBlockTableRecord
  2
*MODEL_SPACE
  0
BLOCK_RECORD
  5
9
100
AcDbSymbolTableRecord
100
AcDbBlockTableRecord
  2
*PAPER_SPACE
  0
BLOCK_RECORD
  5
156
100
AcDbSymbolTableRecord
100
AcDbBlockTableRecord
  2
*D0
  0
BLOCK_RECORD
  5
17A
100
AcDbSymbolTableRecord
100
AcDbBlockTableRecord
  2
*D1
  0
BLOCK_RECORD
  5
188
100
AcDbSymbolTableRecord
100
AcDbBlockTableRecord
  2
*D2
  0
BLOCK_RECORD
  5
195
100
AcDbSymbolTableRecord
100
AcDbBlockTableRecord
  2
*D3
  0
BLOCK_RECORD
  5
1A3
100
AcDbSymbolTableRecord
100
AcDbBlockTableRecord
  2
*D4
  0
BLOCK_RECORD
  5
1B1
100
AcDbSymbolTableRecord
100
AcDbBlockTableRecord
  2
*D5
  0
BLOCK_RECORD
  5
1BE
100
AcDbSymbolTableRecord
100
AcDbBlockTableRecord
  2
*D6
  0
BLOCK_RECORD
  5
1CC
100
AcDbSymbolTableRecord
100
AcDbBlockTableRecord
  2
*D7
  0
BLOCK_RECORD
  5
1DA
100
AcDbSymbolTableRecord
100
AcDbBlockTableRecord
  2
*D8
  0
BLOCK_RECORD
  5
274
100
AcDbSymbolTableRecord
100
AcDbBlockTableRecord
  2
*D9
  0
BLOCK_RECORD
  5
281
100
AcDbSymbolTableRecord
100
AcDbBlockTableRecord
  2
*D10
  0
BLOCK_RECORD
  5
28E
100
AcDbSymbolTableRecord
100
AcDbBlockTableRecord
  2
*D11
  0
BLOCK_RECORD
  5
29B
100
AcDbSymbolTableRecord
100
AcDbBlockTableRecord
  2
*D12
  0
ENDTAB
  0
ENDSEC
  0
SECTION
  2
BLOCKS
  0
BLOCK
  5
5
100
AcDbEntity
  8
0
100
AcDbBlockBegin
  2
*MODEL_SPACE
 70
     0
 10
0.0
 20
0.0
 30
0.0
  3
*MODEL_SPACE
  1

  0
ENDBLK
  5
8
100
AcDbEntity
  8
0
100
AcDbBlockEnd
  0
BLOCK
  5
A
100
AcDbEntity
 67
     1
  8
0
100
AcDbBlockBegin
  2
*PAPER_SPACE
 70
     0
 10
0.0
 20
0.0
 30
0.0
  3
*PAPER_SPACE
  1

  0
ENDBLK
  5
B
100
AcDbEntity
 67
     1
  8
0
100
AcDbBlockEnd
  0
BLOCK
  5
161
100
AcDbEntity
  8
0
100
AcDbBlockBegin
  2
*D0
 70
     1
 10
0.0
 20
0.0
 30
0.0
  3
*D0
  1

  0
LINE
  5
157
100
AcDbEntity
  8
0
  6
BYBLOCK
 62
     4
100
AcDbLine
 10
777.360108
 20
507.059226
 30
0.0
 11
761.183943
 21
507.059226
 31
0.0
  0
LINE
  5
158
100
AcDbEntity
  8
0
  6
BYBLOCK
 62
     4
100
AcDbLine
 10
777.360108
 20
499.059226
 30
0.0
 11
761.183943
 21
499.059226
 31
0.0
  0
LINE
  5
159
100
AcDbEntity
  8
0
  6
BYBLOCK
 62
     4
100
AcDbLine
 10
763.683943
 20
510.059226
 30
0.0
 11
763.683943
 21
513.059226
 31
0.0
  0
LINE
  5
15A
100
AcDbEntity
  8
0
  6
BYBLOCK
 62
     4
100
AcDbLine
 10
763.683943
 20
496.059226
 30
0.0
 11
763.683943
 21
469.487798
 31
0.0
  0
SOLID
  5
15B
100
AcDbEntity
  8
0
  6
BYBLOCK
 62
     4
100
AcDbTrace
 10
763.183943
 20
510.059226
 30
0.0
 11
764.183943
 21
510.059226
 31
0.0
 12
763.683943
 22
507.059226
 32
0.0
 13
763.683943
 23
507.059226
 33
0.0
  0
SOLID
  5
15C
100
AcDbEntity
  8
0
  6
BYBLOCK
 62
     4
100
AcDbTrace
 10
763.183943
 20
496.059226
 30
0.0
 11
764.183943
 21
496.059226
 31
0.0
 12
763.683943
 22
499.059226
 32
0.0
 13
763.683943
 23
499.059226
 33
0.0
  0
MTEXT
  5
15D
100
AcDbEntity
  8
0
  6
BYBLOCK
 62
     2
100
AcDbMText
 10
760.683943
 20
481.273512
 30
0.0
 40
3.0
 41
0.0
 71
     5
 72
     1
  1
\A1;\U+22058.00 H7
 11
0.0
 21
1.0
 31
0.0
  0
POINT
  5
15E
100
AcDbEntity
  8
DEFPOINTS
  6
BYBLOCK
 62
     0
100
AcDbPoint
 10
778.360108
 20
507.059226
 30
0.0
  0
POINT
  5
15F
100
AcDbEntity
  8
DEFPOINTS
  6
BYBLOCK
 62
     0
100
AcDbPoint
 10
778.360108
 20
499.059226
 30
0.0
  0
POINT
  5
160
100
AcDbEntity
  8
DEFPOINTS
  6
BYBLOCK
 62
     0
100
AcDbPoint
 10
763.683943
 20
499.059226
 30
0.0
  0
ENDBLK
  5
162
100
AcDbEntity
  8
0
100
AcDbBlockEnd
  0
BLOCK
  5
185
100
AcDbEntity
  8
0
100
AcDbBlockBegin
  2
*D1
 70
     1
 10
0.0
 20
0.0
 30
0.0
  3
*D1
  1

  0
LINE
  5
17B
100
AcDbEntity
  8
0
  6
BYBLOCK
 62
     4
100
AcDbLine
 10
791.360108
 20
420.559226
 30
0.0
 11
791.360108
 21
396.771204
 31
0.0
  0
LINE
  5
17C
100
AcDbEntity
  8
0
  6
BYBLOCK
 62
     4
100
AcDbLine
 10
786.360108
 20
421.559226
 30
0.0
 11
786.360108
 21
396.771204
 31
0.0
  0
LINE
  5
17D
100
AcDbEntity
  8
0
  6
BYBLOCK
 62
     4
100
AcDbLine
 10
794.360108
 20
399.271204
 30
0.0
 11
797.360108
 21
399.271204
 31
0.0
  0
LINE
  5
17E
100
AcDbEntity
  8
0
  6
BYBLOCK
 62
     4
100
AcDbLine
 10
783.360108
 20
399.271204
 30
0.0
 11
771.074394
 21
399.271204
 31
0.0
  0
SOLID
  5
17F
100
AcDbEntity
  8
0
  6
BYBLOCK
 62
     4
100
AcDbTrace
 10
794.360108
 20
399.771204
 30
0.0
 11
794.360108
 21
398.771204
 31
0.0
 12
791.360108
 22
399.271204
 32
0.0
 13
791.360108
 23
399.271204
 33
0.0
  0
SOLID
  5
180
100
AcDbEntity
  8
0
  6
BYBLOCK
 62
     4
100
AcDbTrace
 10
783.360108
 20
399.771204
 30
0.0
 11
783.360108
 21
398.771204
 31
0.0
 12
786.360108
 22
399.271204
 32
0.0
 13
786.360108
 23
399.271204
 33
0.0
  0
MTEXT
  5
181
100
AcDbEntity
  8
0
  6
BYBLOCK
 62
     2
100
AcDbMText
 10
775.717251
 20
402.271204
 30
0.0
 40
3.0
 41
0.0
 71
     5
 72
     1
  1
\A1;5.0
  0
POINT
  5
182
100
AcDbEntity
  8
DEFPOINTS
  6
BYBLOCK
 62
     0
100
AcDbPoint
 10
791.360108
 20
421.559226
 30
0.0
  0
POINT
  5
183
100
AcDbEntity
  8
DEFPOINTS
  6
BYBLOCK
 62
     0
100
AcDbPoint
 10
786.360108
 20
422.559226
 30
0.0
  0
POINT
  5
184
100
AcDbEntity
  8
DEFPOINTS
  6
BYBLOCK
 62
     0
100
AcDbPoint
 10
786.360108
 20
399.271204
 30
0.0
  0
ENDBLK
  5
186
100
AcDbEntity
  8
0
100
AcDbBlockEnd
  0
BLOCK
  5
192
100
AcDbEntity
  8
0
100
AcDbBlockBegin
  2
*D2
 70
     1
 10
0.0
 20
0.0
 30
0.0
  3
*D2
  1

  0
LINE
  5
189
100
AcDbEntity
  8
0
  6
BYBLOCK
 62
     4
100
AcDbLine
 10
785.937458
 20
443.559226
 30
0.0
 11
751.33288
 21
443.559226
 31
0.0
  0
LINE
  5
18A
100
AcDbEntity
  8
0
  6
BYBLOCK
 62
     4
100
AcDbLine
 10
785.937458
 20
421.559226
 30
0.0
 11
751.33288
 21
421.559226
 31
0.0
  0
LINE
  5
18B
100
AcDbEntity
  8
0
  6
BYBLOCK
 62
     4
100
AcDbLine
 10
753.83288
 20
440.559226
 30
0.0
 11
753.83288
 21
424.559226
 31
0.0
  0
SOLID
  5
18C
100
AcDbEntity
  8
0
  6
BYBLOCK
 62
     4
100
AcDbTrace
 10
753.33288
 20
440.559226
 30
0.0
 11
754.33288
 21
440.559226
 31
0.0
 12
753.83288
 22
443.559226
 32
0.0
 13
753.83288
 23
443.559226
 33
0.0
  0
SOLID
  5
18D
100
AcDbEntity
  8
0
  6
BYBLOCK
 62
     4
100
AcDbTrace
 10
753.33288
 20
424.559226
 30
0.0
 11
754.33288
 21
424.559226
 31
0.0
 12
753.83288
 22
421.559226
 32
0.0
 13
753.83288
 23
421.559226
 33
0.0
  0
MTEXT
  5
18E
100
AcDbEntity
  8
0
  6
BYBLOCK
 62
     2
100
AcDbMText
 10
750.83288
 20
432.559226
 30
0.0
 40
3.0
 41
0.0
 71
     5
 72
     1
  1
\A1;22.00
 11
0.0
 21
1.0
 31
0.0
  0
POINT
  5
18F
100
AcDbEntity
  8
DEFPOINTS
  6
BYBLOCK
 62
     0
100
AcDbPoint
 10
786.937458
 20
443.559226
 30
0.0
  0
POINT
  5
190
100
AcDbEntity
  8
DEFPOINTS
  6
BYBLOCK
 62
     0
100
AcDbPoint
 10
786.937458
 20
421.559226
 30
0.0
  0
POINT
  5
191
100
AcDbEntity
  8
DEFPOINTS
  6
BYBLOCK
 62
     0
100
AcDbPoint
 10
753.83288
 20
421.559226
 30
0.0
  0
ENDBLK
  5
193
100
AcDbEntity
  8
0
100
AcDbBlockEnd
  0
BLOCK
  5
1A0
100
AcDbEntity
  8
0
100
AcDbBlockBegin
  2
*D3
 70
     1
 10
0.0
 20
0.0
 30
0.0
  3
*D3
  1

  0
LINE
  5
196
100
AcDbEntity
  8
0
  6
BYBLOCK
 62
     4
100
AcDbLine
 10
780.360108
 20
442.559226
 30
0.0
 11
761.210293
 21
442.559226
 31
0.0
  0
LINE
  5
197
100
AcDbEntity
  8
0
  6
BYBLOCK
 62
     4
100
AcDbLine
 10
780.360108
 20
422.559226
 30
0.0
 11
761.210293
 21
422.559226
 31
0.0
  0
LINE
  5
198
100
AcDbEntity
  8
0
  6
BYBLOCK
 62
     4
100
AcDbLine
 10
763.710293
 20
445.559226
 30
0.0
 11
763.710293
 21
448.559226
 31
0.0
  0
LINE
  5
199
100
AcDbEntity
  8
0
  6
BYBLOCK
 62
     4
100
AcDbLine
 10
763.710293
 20
419.559226
 30
0.0
 11
763.710293
 21
390.130655
 31
0.0
  0
SOLID
  5
19A
100
AcDbEntity
  8
0
  6
BYBLOCK
 62
     4
100
AcDbTrace
 10
763.210293
 20
445.559226
 30
0.0
 11
764.210293
 21
445.559226
 31
0.0
 12
763.710293
 22
442.559226
 32
0.0
 13
763.710293
 23
442.559226
 33
0.0
  0
SOLID
  5
19B
100
AcDbEntity
  8
0
  6
BYBLOCK
 62
     4
100
AcDbTrace
 10
763.210293
 20
419.559226
 30
0.0
 11
764.210293
 21
419.559226
 31
0.0
 12
763.710293
 22
422.559226
 32
0.0
 13
763.710293
 23
422.559226
 33
0.0
  0
MTEXT
  5
19C
100
AcDbEntity
  8
0
  6
BYBLOCK
 62
     2
100
AcDbMText
 10
760.710293
 20
403.34494
 30
0.0
 40
3.0
 41
0.0
 71
     5
 72
     1
  1
\A1;\U+220520.00 H7
 11
0.0
 21
1.0
 31
0.0
  0
POINT
  5
19D
100
AcDbEntity
  8
DEFPOINTS
  6
BYBLOCK
 62
     0
100
AcDbPoint
 10
781.360108
 20
442.559226
 30
0.0
  0
POINT
  5
19E
100
AcDbEntity
  8
DEFPOINTS
  6
BYBLOCK
 62
     0
100
AcDbPoint
 10
781.360108
 20
422.559226
 30
0.0
  0
POINT
  5
19F
100
AcDbEntity
  8
DEFPOINTS
  6
BYBLOCK
 62
     0
100
AcDbPoint
 10
763.710293
 20
422.559226
 30
0.0
  0
ENDBLK
  5
1A1
100
AcDbEntity
  8
0
100
AcDbBlockEnd
  0
BLOCK
  5
1AE
100
AcDbEntity
  8
0
100
AcDbBlockBegin
  2
*D4
 70
     1
 10
0.0
 20
0.0
 30
0.0
  3
*D4
  1

  0
LINE
  5
1A4
100
AcDbEntity
  8
0
  6
BYBLOCK
 62
     4
100
AcDbLine
 10
798.360108
 20
443.059226
 30
0.0
 11
798.360108
 21
461.346243
 31
0.0
  0
LINE
  5
1A5
100
AcDbEntity
  8
0
  6
BYBLOCK
 62
     4
100
AcDbLine
 10
781.360108
 20
443.559226
 30
0.0
 11
781.360108
 21
461.346243
 31
0.0
  0
LINE
  5
1A6
100
AcDbEntity
  8
0
  6
BYBLOCK
 62
     4
100
AcDbLine
 10
801.360108
 20
458.846243
 30
0.0
 11
804.360108
 21
458.846243
 31
0.0
  0
LINE
  5
1A7
100
AcDbEntity
  8
0
  6
BYBLOCK
 62
     4
100
AcDbLine
 10
778.360108
 20
458.846243
 30
0.0
 11
760.931537
 21
458.846243
 31
0.0
  0
SOLID
  5
1A8
100
AcDbEntity
  8
0
  6
BYBLOCK
 62
     4
100
AcDbTrace
 10
801.360108
 20
459.346243
 30
0.0
 11
801.360108
 21
458.346243
 31
0.0
 12
798.360108
 22
458.846243
 32
0.0
 13
798.360108
 23
458.846243
 33
0.0
  0
SOLID
  5
1A9
100
AcDbEntity
  8
0
  6
BYBLOCK
 62
     4
100
AcDbTrace
 10
778.360108
 20
459.346243
 30
0.0
 11
778.360108
 21
458.346243
 31
0.0
 12
781.360108
 22
458.846243
 32
0.0
 13
781.360108
 23
458.846243
 33
0.0
  0
MTEXT
  5
1AA
100
AcDbEntity
  8
0
  6
BYBLOCK
 62
     2
100
AcDbMText
 10
768.145822
 20
461.846243
 30
0.0
 40
3.0
 41
0.0
 71
     5
 72
     1
  1
\A1;17.00
  0
POINT
  5
1AB
100
AcDbEntity
  8
DEFPOINTS
  6
BYBLOCK
 62
     0
100
AcDbPoint
 10
798.360108
 20
442.059226
 30
0.0
  0
POINT
  5
1AC
100
AcDbEntity
  8
DEFPOINTS
  6
BYBLOCK
 62
     0
100
AcDbPoint
 10
781.360108
 20
442.559226
 30
0.0
  0
POINT
  5
1AD
100
AcDbEntity
  8
DEFPOINTS
  6
BYBLOCK
 62
     0
100
AcDbPoint
 10
781.360108
 20
458.846243
 30
0.0
  0
ENDBLK
  5
1AF
100
AcDbEntity
  8
0
100
AcDbBlockEnd
  0
BLOCK
  5
1BB
100
AcDbEntity
  8
0
100
AcDbBlockBegin
  2
*D5
 70
     1
 10
0.0
 20
0.0
 30
0.0
  3
*D5
  1

  0
LINE
  5
1B2
100
AcDbEntity
  8
0
  6
BYBLOCK
 62
     4
100
AcDbLine
 10
861.360108
 20
412.559226
 30
0.0
 11
899.175225
 21
412.559226
 31
0.0
  0
LINE
  5
1B3
100
AcDbEntity
  8
0
  6
BYBLOCK
 62
     4
100
AcDbLine
 10
861.360108
 20
452.559226
 30
0.0
 11
899.175225
 21
452.559226
 31
0.0
  0
LINE
  5
1B4
100
AcDbEntity
  8
0
  6
BYBLOCK
 62
     4
100
AcDbLine
 10
896.675225
 20
415.559226
 30
0.0
 11
896.675225
 21
449.559226
 31
0.0
  0
SOLID
  5
1B5
100
AcDbEntity
  8
0
  6
BYBLOCK
 62
     4
100
AcDbTrace
 10
896.175225
 20
415.559226
 30
0.0
 11
897.175225
 21
415.559226
 31
0.0
 12
896.675225
 22
412.559226
 32
0.0
 13
896.675225
 23
412.559226
 33
0.0
  0
SOLID
  5
1B6
100
AcDbEntity
  8
0
  6
BYBLOCK
 62
     4
100
AcDbTrace
 10
896.175225
 20
449.559226
 30
0.0
 11
897.175225
 21
449.559226
 31
0.0
 12
896.675225
 22
452.559226
 32
0.0
 13
896.675225
 23
452.559226
 33
0.0
  0
MTEXT
  5
1B7
100
AcDbEntity
  8
0
  6
BYBLOCK
 62
     2
100
AcDbMText
 10
893.675225
 20
432.559226
 30
0.0
 40
3.0
 41
0.0
 71
     5
 72
     1
  1
\A1;\U+220540.00 H7
 11
0.0
 21
1.0
 31
0.0
  0
POINT
  5
1B8
100
AcDbEntity
  8
DEFPOINTS
  6
BYBLOCK
 62
     0
100
AcDbPoint
 10
860.360108
 20
412.559226
 30
0.0
  0
POINT
  5
1B9
100
AcDbEntity
  8
DEFPOINTS
  6
BYBLOCK
 62
     0
100
AcDbPoint
 10
860.360108
 20
452.559226
 30
0.0
  0
POINT
  5
1BA
100
AcDbEntity
  8
DEFPOINTS
  6
BYBLOCK
 62
     0
100
AcDbPoint
 10
896.675225
 20
452.559226
 30
0.0
  0
ENDBLK
  5
1BC
100
AcDbEntity
  8
0
100
AcDbBlockEnd
  0
BLOCK
  5
1C9
100
AcDbEntity
  8
0
100
AcDbBlockBegin
  2
*D6
 70
     1
 10
0.0
 20
0.0
 30
0.0
  3
*D6
  1

  0
LINE
  5
1BF
100
AcDbEntity
  8
0
  6
BYBLOCK
 62
     4
100
AcDbLine
 10
798.360108
 20
401.559226
 30
0.0
 11
798.360108
 21
359.779548
 31
0.0
  0
LINE
  5
1C0
100
AcDbEntity
  8
0
  6
BYBLOCK
 62
     4
100
AcDbLine
 10
791.360108
 20
392.559226
 30
0.0
 11
791.360108
 21
359.779548
 31
0.0
  0
LINE
  5
1C1
100
AcDbEntity
  8
0
  6
BYBLOCK
 62
     4
100
AcDbLine
 10
801.360108
 20
362.279548
 30
0.0
 11
804.360108
 21
362.279548
 31
0.0
  0
LINE
  5
1C2
100
AcDbEntity
  8
0
  6
BYBLOCK
 62
     4
100
AcDbLine
 10
788.360108
 20
362.279548
 30
0.0
 11
776.074394
 21
362.279548
 31
0.0
  0
SOLID
  5
1C3
100
AcDbEntity
  8
0
  6
BYBLOCK
 62
     4
100
AcDbTrace
 10
801.360108
 20
362.779548
 30
0.0
 11
801.360108
 21
361.779548
 31
0.0
 12
798.360108
 22
362.279548
 32
0.0
 13
798.360108
 23
362.279548
 33
0.0
  0
SOLID
  5
1C4
100
AcDbEntity
  8
0
  6
BYBLOCK
 62
     4
100
AcDbTrace
 10
788.360108
 20
362.779548
 30
0.0
 11
788.360108
 21
361.779548
 31
0.0
 12
791.360108
 22
362.279548
 32
0.0
 13
791.360108
 23
362.279548
 33
0.0
  0
MTEXT
  5
1C5
100
AcDbEntity
  8
0
  6
BYBLOCK
 62
     2
100
AcDbMText
 10
780.717251
 20
365.279548
 30
0.0
 40
3.0
 41
0.0
 71
     5
 72
     1
  1
\A1;7.0
  0
POINT
  5
1C6
100
AcDbEntity
  8
DEFPOINTS
  6
BYBLOCK
 62
     0
100
AcDbPoint
 10
798.360108
 20
402.559226
 30
0.0
  0
POINT
  5
1C7
100
AcDbEntity
  8
DEFPOINTS
  6
BYBLOCK
 62
     0
100
AcDbPoint
 10
791.360108
 20
393.559226
 30
0.0
  0
POINT
  5
1C8
100
AcDbEntity
  8
DEFPOINTS
  6
BYBLOCK
 62
     0
100
AcDbPoint
 10
791.360108
 20
362.279548
 30
0.0
  0
ENDBLK
  5
1CA
100
AcDbEntity
  8
0
100
AcDbBlockEnd
  0
BLOCK
  5
1D7
100
AcDbEntity
  8
0
100
AcDbBlockBegin
  2
*D7
 70
     1
 10
0.0
 20
0.0
 30
0.0
  3
*D7
  1

  0
LINE
  5
1CD
100
AcDbEntity
  8
0
  6
BYBLOCK
 62
     4
100
AcDbLine
 10
845.360108
 20
399.559226
 30
0.0
 11
845.360108
 21
359.779548
 31
0.0
  0
LINE
  5
1CE
100
AcDbEntity
  8
0
  6
BYBLOCK
 62
     4
100
AcDbLine
 10
852.360108
 20
381.045835
 30
0.0
 11
852.360108
 21
359.779548
 31
0.0
  0
LINE
  5
1CF
100
AcDbEntity
  8
0
  6
BYBLOCK
 62
     4
100
AcDbLine
 10
842.360108
 20
362.279548
 30
0.0
 11
839.360108
 21
362.279548
 31
0.0
  0
LINE
  5
1D0
100
AcDbEntity
  8
0
  6
BYBLOCK
 62
     4
100
AcDbLine
 10
855.360108
 20
362.279548
 30
0.0
 11
867.645822
 21
362.279548
 31
0.0
  0
SOLID
  5
1D1
100
AcDbEntity
  8
0
  6
BYBLOCK
 62
     4
100
AcDbTrace
 10
842.360108
 20
362.779548
 30
0.0
 11
842.360108
 21
361.779548
 31
0.0
 12
845.360108
 22
362.279548
 32
0.0
 13
845.360108
 23
362.279548
 33
0.0
  0
SOLID
  5
1D2
100
AcDbEntity
  8
0
  6
BYBLOCK
 62
     4
100
AcDbTrace
 10
855.360108
 20
362.779548
 30
0.0
 11
855.360108
 21
361.779548
 31
0.0
 12
852.360108
 22
362.279548
 32
0.0
 13
852.360108
 23
362.279548
 33
0.0
  0
MTEXT
  5
1D3
100
AcDbEntity
  8
0
  6
BYBLOCK
 62
     2
100
AcDbMText
 10
863.002965
 20
365.279548
 30
0.0
 40
3.0
 41
0.0
 71
     5
 72
     1
  1
\A1;7.0
  0
POINT
  5
1D4
100
AcDbEntity
  8
DEFPOINTS
  6
BYBLOCK
 62
     0
100
AcDbPoint
 10
845.360108
 20
400.559226
 30
0.0
  0
POINT
  5
1D5
100
AcDbEntity
  8
DEFPOINTS
  6
BYBLOCK
 62
     0
100
AcDbPoint
 10
852.360108
 20
382.045835
 30
0.0
  0
POINT
  5
1D6
100
AcDbEntity
  8
DEFPOINTS
  6
BYBLOCK
 62
     0
100
AcDbPoint
 10
852.360108
 20
362.279548
 30
0.0
  0
ENDBLK
  5
1D8
100
AcDbEntity
  8
0
100
AcDbBlockEnd
  0
BLOCK
  5
1E4
100
AcDbEntity
  8
0
100
AcDbBlockBegin
  2
*D8
 70
     1
 10
0.0
 20
0.0
 30
0.0
  3
*D8
  1

  0
LINE
  5
1DB
100
AcDbEntity
  8
0
  6
BYBLOCK
 62
     4
100
AcDbLine
 10
798.360108
 20
401.559226
 30
0.0
 11
798.360108
 21
359.779548
 31
0.0
  0
LINE
  5
1DC
100
AcDbEntity
  8
0
  6
BYBLOCK
 62
     4
100
AcDbLine
 10
845.360108
 20
399.559226
 30
0.0
 11
845.360108
 21
359.779548
 31
0.0
  0
LINE
  5
1DD
100
AcDbEntity
  8
0
  6
BYBLOCK
 62
     4
100
AcDbLine
 10
801.360108
 20
362.279548
 30
0.0
 11
842.360108
 21
362.279548
 31
0.0
  0
SOLID
  5
1DE
100
AcDbEntity
  8
0
  6
BYBLOCK
 62
     4
100
AcDbTrace
 10
801.360108
 20
362.779548
 30
0.0
 11
801.360108
 21
361.779548
 31
0.0
 12
798.360108
 22
362.279548
 32
0.0
 13
798.360108
 23
362.279548
 33
0.0
  0
SOLID
  5
1DF
100
AcDbEntity
  8
0
  6
BYBLOCK
 62
     4
100
AcDbTrace
 10
842.360108
 20
362.779548
 30
0.0
 11
842.360108
 21
361.779548
 31
0.0
 12
845.360108
 22
362.279548
 32
0.0
 13
845.360108
 23
362.279548
 33
0.0
  0
MTEXT
  5
1E0
100
AcDbEntity
  8
0
  6
BYBLOCK
 62
     2
100
AcDbMText
 10
821.860108
 20
365.279548
 30
0.0
 40
3.0
 41
0.0
 71
     5
 72
     1
  1
\A1;47.00
  0
POINT
  5
1E1
100
AcDbEntity
  8
DEFPOINTS
  6
BYBLOCK
 62
     0
100
AcDbPoint
 10
798.360108
 20
402.559226
 30
0.0
  0
POINT
  5
1E2
100
AcDbEntity
  8
DEFPOINTS
  6
BYBLOCK
 62
     0
100
AcDbPoint
 10
845.360108
 20
400.559226
 30
0.0
  0
POINT
  5
1E3
100
AcDbEntity
  8
DEFPOINTS
  6
BYBLOCK
 62
     0
100
AcDbPoint
 10
845.360108
 20
362.279548
 30
0.0
  0
ENDBLK
  5
1E5
100
AcDbEntity
  8
0
100
AcDbBlockEnd
  0
BLOCK
  5
27E
100
AcDbEntity
  8
0
100
AcDbBlockBegin
  2
*D9
 70
     1
 10
0.0
 20
0.0
 30
0.0
  3
*D9
  1

  0
LINE
  5
275
100
AcDbEntity
  8
0
  6
BYBLOCK
 62
     4
100
AcDbLine
 10
651.447241
 20
400.559226
 30
0.0
 11
694.704196
 21
400.559226
 31
0.0
  0
LINE
  5
276
100
AcDbEntity
  8
0
  6
BYBLOCK
 62
     4
100
AcDbLine
 10
651.447241
 20
464.559226
 30
0.0
 11
694.704196
 21
464.559226
 31
0.0
  0
LINE
  5
277
100
AcDbEntity
  8
0
  6
BYBLOCK
 62
     4
100
AcDbLine
 10
692.204196
 20
403.559226
 30
0.0
 11
692.204196
 21
461.559226
 31
0.0
  0
SOLID
  5
278
100
AcDbEntity
  8
0
  6
BYBLOCK
 62
     4
100
AcDbTrace
 10
691.704196
 20
403.559226
 30
0.0
 11
692.704196
 21
403.559226
 31
0.0
 12
692.204196
 22
400.559226
 32
0.0
 13
692.204196
 23
400.559226
 33
0.0
  0
SOLID
  5
279
100
AcDbEntity
  8
0
  6
BYBLOCK
 62
     4
100
AcDbTrace
 10
691.704196
 20
461.559226
 30
0.0
 11
692.704196
 21
461.559226
 31
0.0
 12
692.204196
 22
464.559226
 32
0.0
 13
692.204196
 23
464.559226
 33
0.0
  0
MTEXT
  5
27A
100
AcDbEntity
  8
0
  6
BYBLOCK
 62
     2
100
AcDbMText
 10
689.204196
 20
432.559226
 30
0.0
 40
3.0
 41
0.0
 71
     5
 72
     1
  1
\A1;W=64.00
 11
0.0
 21
1.0
 31
0.0
  0
POINT
  5
27B
100
AcDbEntity
  8
DEFPOINTS
  6
BYBLOCK
 62
     0
100
AcDbPoint
 10
650.447241
 20
400.559226
 30
0.0
  0
POINT
  5
27C
100
AcDbEntity
  8
DEFPOINTS
  6
BYBLOCK
 62
     0
100
AcDbPoint
 10
650.447241
 20
464.559226
 30
0.0
  0
POINT
  5
27D
100
AcDbEntity
  8
DEFPOINTS
  6
BYBLOCK
 62
     0
100
AcDbPoint
 10
692.204196
 20
464.559226
 30
0.0
  0
ENDBLK
  5
27F
100
AcDbEntity
  8
0
100
AcDbBlockEnd
  0
BLOCK
  5
28B
100
AcDbEntity
  8
0
100
AcDbBlockBegin
  2
*D10
 70
     1
 10
0.0
 20
0.0
 30
0.0
  3
*D10
  1

  0
LINE
  5
282
100
AcDbEntity
  8
0
  6
BYBLOCK
 62
     4
100
AcDbLine
 10
448.447241
 20
411.559226
 30
0.0
 11
448.447241
 21
347.696619
 31
0.0
  0
LINE
  5
283
100
AcDbEntity
  8
0
  6
BYBLOCK
 62
     4
100
AcDbLine
 10
662.447241
 20
411.559226
 30
0.0
 11
662.447241
 21
347.696619
 31
0.0
  0
LINE
  5
284
100
AcDbEntity
  8
0
  6
BYBLOCK
 62
     4
100
AcDbLine
 10
451.447241
 20
350.196619
 30
0.0
 11
659.447241
 21
350.196619
 31
0.0
  0
SOLID
  5
285
100
AcDbEntity
  8
0
  6
BYBLOCK
 62
     4
100
AcDbTrace
 10
451.447241
 20
350.696619
 30
0.0
 11
451.447241
 21
349.696619
 31
0.0
 12
448.447241
 22
350.196619
 32
0.0
 13
448.447241
 23
350.196619
 33
0.0
  0
SOLID
  5
286
100
AcDbEntity
  8
0
  6
BYBLOCK
 62
     4
100
AcDbTrace
 10
659.447241
 20
350.696619
 30
0.0
 11
659.447241
 21
349.696619
 31
0.0
 12
662.447241
 22
350.196619
 32
0.0
 13
662.447241
 23
350.196619
 33
0.0
  0
MTEXT
  5
287
100
AcDbEntity
  8
0
  6
BYBLOCK
 62
     2
100
AcDbMText
 10
555.447241
 20
353.196619
 30
0.0
 40
3.0
 41
0.0
 71
     5
 72
     1
  1
\A1;L=214.00
  0
POINT
  5
288
100
AcDbEntity
  8
DEFPOINTS
  6
BYBLOCK
 62
     0
100
AcDbPoint
 10
448.447241
 20
412.559226
 30
0.0
  0
POINT
  5
289
100
AcDbEntity
  8
DEFPOINTS
  6
BYBLOCK
 62
     0
100
AcDbPoint
 10
662.447241
 20
412.559226
 30
0.0
  0
POINT
  5
28A
100
AcDbEntity
  8
DEFPOINTS
  6
BYBLOCK
 62
     0
100
AcDbPoint
 10
662.447241
 20
350.196619
 30
0.0
  0
ENDBLK
  5
28C
100
AcDbEntity
  8
0
100
AcDbBlockEnd
  0
BLOCK
  5
298
100
AcDbEntity
  8
0
100
AcDbBlockBegin
  2
*D11
 70
     1
 10
0.0
 20
0.0
 30
0.0
  3
*D11
  1

  0
LINE
  5
28F
100
AcDbEntity
  8
0
  6
BYBLOCK
 62
     4
100
AcDbLine
 10
505.447241
 20
425.859226
 30
0.0
 11
505.447241
 21
357.472053
 31
0.0
  0
LINE
  5
290
100
AcDbEntity
  8
0
  6
BYBLOCK
 62
     4
100
AcDbLine
 10
605.447241
 20
425.859226
 30
0.0
 11
605.447241
 21
357.472053
 31
0.0
  0
LINE
  5
291
100
AcDbEntity
  8
0
  6
BYBLOCK
 62
     4
100
AcDbLine
 10
508.447241
 20
359.972053
 30
0.0
 11
602.447241
 21
359.972053
 31
0.0
  0
SOLID
  5
292
100
AcDbEntity
  8
0
  6
BYBLOCK
 62
     4
100
AcDbTrace
 10
508.447241
 20
360.472053
 30
0.0
 11
508.447241
 21
359.472053
 31
0.0
 12
505.447241
 22
359.972053
 32
0.0
 13
505.447241
 23
359.972053
 33
0.0
  0
SOLID
  5
293
100
AcDbEntity
  8
0
  6
BYBLOCK
 62
     4
100
AcDbTrace
 10
602.447241
 20
360.472053
 30
0.0
 11
602.447241
 21
359.472053
 31
0.0
 12
605.447241
 22
359.972053
 32
0.0
 13
605.447241
 23
359.972053
 33
0.0
  0
MTEXT
  5
294
100
AcDbEntity
  8
0
  6
BYBLOCK
 62
     2
100
AcDbMText
 10
555.447241
 20
362.972053
 30
0.0
 40
3.0
 41
0.0
 71
     5
 72
     1
  1
\A1;A=100.00
  0
POINT
  5
295
100
AcDbEntity
  8
DEFPOINTS
  6
BYBLOCK
 62
     0
100
AcDbPoint
 10
505.447241
 20
426.859226
 30
0.0
  0
POINT
  5
296
100
AcDbEntity
  8
DEFPOINTS
  6
BYBLOCK
 62
     0
100
AcDbPoint
 10
605.447241
 20
426.859226
 30
0.0
  0
POINT
  5
297
100
AcDbEntity
  8
DEFPOINTS
  6
BYBLOCK
 62
     0
100
AcDbPoint
 10
605.447241
 20
359.972053
 30
0.0
  0
ENDBLK
  5
299
100
AcDbEntity
  8
0
100
AcDbBlockEnd
  0
BLOCK
  5
2A5
100
AcDbEntity
  8
0
100
AcDbBlockBegin
  2
*D12
 70
     1
 10
0.0
 20
0.0
 30
0.0
  3
*D12
  1

  0
LINE
  5
29C
100
AcDbEntity
  8
0
  6
BYBLOCK
 62
     4
100
AcDbLine
 10
505.447241
 20
425.859226
 30
0.0
 11
505.447241
 21
367.526785
 31
0.0
  0
LINE
  5
29D
100
AcDbEntity
  8
0
  6
BYBLOCK
 62
     4
100
AcDbLine
 10
555.447241
 20
384.559226
 30
0.0
 11
555.447241
 21
367.526785
 31
0.0
  0
LINE
  5
29E
100
AcDbEntity
  8
0
  6
BYBLOCK
 62
     4
100
AcDbLine
 10
508.447241
 20
370.026785
 30
0.0
 11
552.447241
 21
370.026785
 31
0.0
  0
SOLID
  5
29F
100
AcDbEntity
  8
0
  6
BYBLOCK
 62
     4
100
AcDbTrace
 10
508.447241
 20
370.526785
 30
0.0
 11
508.447241
 21
369.526785
 31
0.0
 12
505.447241
 22
370.026785
 32
0.0
 13
505.447241
 23
370.026785
 33
0.0
  0
SOLID
  5
2A0
100
AcDbEntity
  8
0
  6
BYBLOCK
 62
     4
100
AcDbTrace
 10
552.447241
 20
370.526785
 30
0.0
 11
552.447241
 21
369.526785
 31
0.0
 12
555.447241
 22
370.026785
 32
0.0
 13
555.447241
 23
370.026785
 33
0.0
  0
MTEXT
  5
2A1
100
AcDbEntity
  8
0
  6
BYBLOCK
 62
     2
100
AcDbMText
 10
530.311147
 20
373.812499
 30
0.0
 40
3.0
 41
0.0
 71
     5
 72
     1
  1
\A1;A/2=50.00
  0
POINT
  5
2A2
100
AcDbEntity
  8
DEFPOINTS
  6
BYBLOCK
 62
     0
100
AcDbPoint
 10
505.447241
 20
426.859226
 30
0.0
  0
POINT
  5
2A3
100
AcDbEntity
  8
DEFPOINTS
  6
BYBLOCK
 62
     0
100
AcDbPoint
 10
555.447241
 20
385.559226
 30
0.0
  0
POINT
  5
2A4
100
AcDbEntity
  8
DEFPOINTS
  6
BYBLOCK
 62
     0
100
AcDbPoint
 10
555.447241
 20
370.026785
 30
0.0
  0
ENDBLK
  5
2A6
100
AcDbEntity
  8
0
100
AcDbBlockEnd
  0
ENDSEC
  0
SECTION
  2
ENTITIES
  0
HATCH
  5
21
100
AcDbEntity
  8
M03
100
AcDbHatch
 10
0.0
 20
0.0
 30
0.0
210
0.0
220
0.0
230
1.0
  2
_U
 70
     0
 71
     0
 91
        1
 92
        7
 72
     0
 73
     1
 93
        4
 10
501.1401777820804
 20
404.4592260810629
 10
461.901718367445
 20
404.4592260810629
 10
461.9017183674449
 20
402.5592260810628
 10
501.1401777820804
 20
402.5592260810629
 97
        0
 75
     0
 76
     0
 52
330.0
 41
0.7
 77
     0
 78
     1
 53
330.0
 43
0.0
 44
0.0
 45
0.3500000000000003
 46
0.6062177826491069
 79
     0
 47
0.080625
 98
        1
 10
486.830678
 20
403.596688
  0
HATCH
  5
22
100
AcDbEntity
  8
M03
100
AcDbHatch
 10
0.0
 20
0.0
 30
0.0
210
0.0
220
0.0
230
1.0
  2
_U
 70
     0
 71
     0
 91
        1
 92
        7
 72
     0
 73
     1
 93
        4
 10
501.1401777820803
 20
404.4592260810628
 10
461.901718367445
 20
404.4592260810629
 10
461.901718367445
 20
402.5592260810629
 10
501.1401777820804
 20
402.5592260810629
 97
        0
 75
     0
 76
     0
 52
30.0
 41
0.7
 77
     0
 78
     1
 53
30.0
 43
0.0
 44
0.0
 45
-0.3499999999999999
 46
0.6062177826491072
 79
     0
 47
0.080625
 98
        1
 10
468.279252
 20
403.274188
  0
HATCH
  5
23
100
AcDbEntity
  8
HATCH
100
AcDbHatch
 10
0.0
 20
0.0
 30
0.0
210
0.0
220
0.0
230
1.0
  2
_U
 70
     0
 71
     0
 91
        4
 92
        7
 72
     0
 73
     1
 93
        4
 10
487.4472405752652
 20
297.4864744596733
 10
450.4472405752653
 20
297.4864744596733
 10
450.4472405752653
 20
294.4864744596734
 10
487.4472405752653
 20
294.4864744596734
 97
        0
 92
        7
 72
     0
 73
     1
 93
        4
 10
544.4472405752654
 20
297.4864744596734
 10
523.4472405752653
 20
297.4864744596734
 10
523.4472405752653
 20
294.4864744596734
 10
544.4472405752653
 20
294.4864744596734
 97
        0
 92
        7
 72
     0
 73
     1
 93
        4
 10
587.4472405752654
 20
297.4864744596734
 10
566.4472405752653
 20
297.4864744596734
 10
566.4472405752653
 20
294.4864744596734
 10
587.4472405752653
 20
294.4864744596734
 97
        0
 92
        7
 72
     0
 73
     1
 93
        4
 10
660.4472405752652
 20
297.4864744596734
 10
623.4472405752653
 20
297.4864744596734
 10
623.4472405752653
 20
294.4864744596734
 10
660.4472405752654
 20
294.4864744596734
 97
        0
 75
     0
 76
     0
 52
135.0
 41
0.8
 77
     0
 78
     1
 53
135.0
 43
0.0
 44
0.0
 45
-0.5656854249492382
 46
-0.565685424949238
 79
     0
 47
0.238123
 98
        4
 10
482.409727
 20
296.027817
 10
526.71889
 20
295.55157
 10
574.839591
 20
296.504063
 10
632.012702
 20
296.26594
  0
LINE
  5
25
100
AcDbEntity
  8
M01
100
AcDbLine
 10
839.34812
 20
566.794894
 30
0.0
 11
841.327828
 21
568.001623
 31
0.0
  0
LINE
  5
27
100
AcDbEntity
  8
M01
100
AcDbLine
 10
847.082087
 20
578.248121
 30
0.0
 11
847.082087
 21
586.822933
 31
0.0
  0
LINE
  5
28
100
AcDbEntity
  8
M01
100
AcDbLine
 10
843.082087
 20
578.248121
 30
0.0
 11
843.082087
 21
586.822933
 31
0.0
  0
ARC
  5
29
100
AcDbEntity
  8
M01
100
AcDbCircle
 10
835.082087
 20
578.248121
 30
0.0
 40
12.0
100
AcDbArc
 50
301.364349
 51
0.0
  0
ARC
  5
2A
100
AcDbEntity
  8
M01
100
AcDbCircle
 10
835.082087
 20
578.248121
 30
0.0
 40
8.0
100
AcDbArc
 50
308.846454
 51
0.0
  0
LINE
  5
2B
100
AcDbEntity
  8
M01
100
AcDbLine
 10
825.716759
 20
563.170441
 30
0.0
 11
835.944171
 21
569.404549
 31
0.0
  0
LINE
  5
2C
100
AcDbEntity
  8
M01
100
AcDbLine
 10
827.798673
 20
559.754942
 30
0.0
 11
828.122205
 21
559.952151
 31
0.0
  0
LINE
  5
2D
100
AcDbEntity
  8
M01
100
AcDbLine
 10
826.360108
 20
552.752534
 30
0.0
 11
826.360108
 21
552.159226
 31
0.0
  0
LINE
  5
2E
100
AcDbEntity
  8
M01
100
AcDbLine
 10
822.360108
 20
557.193317
 30
0.0
 11
822.360108
 21
554.467473
 31
0.0
  0
ARC
  5
2F
100
AcDbEntity
  8
M01
100
AcDbCircle
 10
829.360108
 20
557.193317
 30
0.0
 40
3.0
100
AcDbArc
 50
121.364349
 51
151.672691
  0
ARC
  5
30
100
AcDbEntity
  8
M01
100
AcDbCircle
 10
829.360108
 20
557.193317
 30
0.0
 40
7.0
100
AcDbArc
 50
121.364349
 51
180.0
  0
ARC
  5
31
100
AcDbEntity
  8
M01
100
AcDbCircle
 10
829.360108
 20
552.159226
 30
0.0
 40
7.0
100
AcDbArc
 50
202.678679
 51
270.0
  0
ARC
  5
32
100
AcDbEntity
  8
M01
100
AcDbCircle
 10
829.360108
 20
552.159226
 30
0.0
 40
3.0
100
AcDbArc
 50
180.0
 51
270.0
  0
ARC
  5
33
100
AcDbEntity
  8
M01
100
AcDbCircle
 10
828.099971
 20
570.975701
 30
0.0
 40
12.0
100
AcDbArc
 50
313.586993
 51
0.0
  0
ARC
  5
34
100
AcDbEntity
  8
M01
100
AcDbCircle
 10
828.099971
 20
570.975701
 30
0.0
 40
8.0
100
AcDbArc
 50
313.586993
 51
0.0
  0
LINE
  5
35
100
AcDbEntity
  8
M01
100
AcDbLine
 10
829.360108
 20
549.159226
 30
0.0
 11
834.360108
 21
549.159226
 31
0.0
  0
LINE
  5
36
100
AcDbEntity
  8
M01
100
AcDbLine
 10
830.360108
 20
549.159226
 30
0.0
 11
830.360108
 21
545.159226
 31
0.0
  0
LINE
  5
37
100
AcDbEntity
  8
M01
100
AcDbLine
 10
834.360108
 20
549.159226
 30
0.0
 11
834.360108
 21
545.159226
 31
0.0
  0
LINE
  5
38
100
AcDbEntity
  8
M01
100
AcDbLine
 10
799.360108
 20
545.159226
 30
0.0
 11
813.584646
 21
545.159226
 31
0.0
  0
LINE
  5
39
100
AcDbEntity
  8
M01
100
AcDbLine
 10
813.584646
 20
549.159226
 30
0.0
 11
809.360108
 21
549.159226
 31
0.0
  0
ARC
  5
3A
100
AcDbEntity
  8
M01
100
AcDbCircle
 10
813.584646
 20
557.159226
 30
0.0
 40
12.0
100
AcDbArc
 50
270.0
 51
313.586993
  0
ARC
  5
3B
100
AcDbEntity
  8
M01
100
AcDbCircle
 10
813.584646
 20
557.159226
 30
0.0
 40
8.0
100
AcDbArc
 50
270.0
 51
313.586993
  0
LINE
  5
3C
100
AcDbEntity
  8
M01
100
AcDbLine
 10
813.360108
 20
549.159226
 30
0.0
 11
813.360108
 21
545.159226
 31
0.0
  0
LINE
  5
3D
100
AcDbEntity
  8
M01
100
AcDbLine
 10
809.360108
 20
549.159226
 30
0.0
 11
809.360108
 21
545.159226
 31
0.0
  0
LINE
  5
3E
100
AcDbEntity
  8
M01
100
AcDbLine
 10
836.373432
 20
562.28376
 30
0.0
 11
821.858108
 21
548.467285
 31
0.0
  0
LINE
  5
3F
100
AcDbEntity
  8
M01
100
AcDbLine
 10
833.615612
 20
565.181074
 30
0.0
 11
819.100287
 21
551.364599
 31
0.0
  0
LINE
  5
40
100
AcDbEntity
  8
M01
100
AcDbLine
 10
840.099971
 20
586.814191
 30
0.0
 11
840.099971
 21
570.975701
 31
0.0
  0
LINE
  5
41
100
AcDbEntity
  8
M01
100
AcDbLine
 10
836.099971
 20
586.814191
 30
0.0
 11
836.099971
 21
570.975701
 31
0.0
  0
HATCH
  5
42
100
AcDbEntity
  8
HATCH
100
AcDbHatch
 10
0.0
 20
0.0
 30
0.0
210
0.0
220
0.0
230
1.0
  2
_U
 70
     0
 71
     1
 91
        2
 92
        7
 72
     0
 73
     1
 93
       11
 10
492.5883585878082
 20
247.4864744596734
 10
487.1472405752654
 20
247.4864744596734
 10
486.4472405752654
 20
246.7864744596735
 10
486.4472405752654
 20
241.1864744596733
 10
487.1472405752653
 20
240.4864744596733
 10
489.9472405752655
 20
240.4864744596733
 10
490.9472405752653
 20
241.4864744596732
 10
492.9472405752649
 20
241.4864744596733
 10
493.9472405752648
 20
240.4864744596734
 10
496.9472405752652
 20
240.4864744596733
 10
496.9472405752653
 20
243.1275924722164
 97
       10
330
3CE
330
243
330
248
330
244
330
3D4
330
47
330
49
330
48
330
231
330
233
 92
        7
 72
     0
 73
     1
 93
       11
 10
508.3061225627225
 20
247.4864744596734
 10
503.9472405752654
 20
243.1275924722163
 10
503.9472405752652
 20
240.4864744596733
 10
506.9472405752661
 20
240.4864744596733
 10
507.9472405752658
 20
241.4864744596733
 10
509.9472405752652
 20
241.4864744596732
 10
510.9472405752653
 20
240.4864744596733
 10
513.7472405752653
 20
240.4864744596733
 10
514.4472405752651
 20
241.1864744596731
 10
514.4472405752654
 20
246.7864744596734
 10
513.7472405752653
 20
247.4864744596734
 97
       10
330
23E
330
3CE
330
235
330
230
330
217
330
45
330
46
330
43
330
23F
330
240
 75
     0
 76
     0
 52
135.0
 41
1.5
 77
     0
 78
     1
 53
135.0
 43
0.0
 44
0.0
 45
-1.060660171779821
 46
-1.060660171779821
 79
     0
 47
0.040219
 98
        2
 10
491.599024
 20
244.966045
 10
510.067312
 20
244.523632
  0
LINE
  5
43
102
{ACAD_REACTORS
330
42
102
}
100
AcDbEntity
  8
M05
100
AcDbLine
 10
509.947241
 20
241.486474
 30
0.0
 11
510.947241
 21
240.486474
 31
0.0
  0
LINE
  5
45
102
{ACAD_REACTORS
330
42
102
}
100
AcDbEntity
  8
M05
100
AcDbLine
 10
507.947241
 20
241.486474
 30
0.0
 11
506.947241
 21
240.486474
 31
0.0
  0
LINE
  5
46
102
{ACAD_REACTORS
330
42
102
}
100
AcDbEntity
  8
M05
100
AcDbLine
 10
509.947241
 20
241.486474
 30
0.0
 11
507.947241
 21
241.486474
 31
0.0
  0
LINE
  5
47
102
{ACAD_REACTORS
330
42
102
}
100
AcDbEntity
  8
M05
100
AcDbLine
 10
490.947241
 20
241.486474
 30
0.0
 11
489.947241
 21
240.486474
 31
0.0
  0
LINE
  5
48
102
{ACAD_REACTORS
330
42
102
}
100
AcDbEntity
  8
M05
100
AcDbLine
 10
492.947241
 20
241.486474
 30
0.0
 11
493.947241
 21
240.486474
 31
0.0
  0
LINE
  5
49
102
{ACAD_REACTORS
330
42
102
}
100
AcDbEntity
  8
M05
100
AcDbLine
 10
490.947241
 20
241.486474
 30
0.0
 11
492.947241
 21
241.486474
 31
0.0
  0
HATCH
  5
4A
100
AcDbEntity
  8
HATCH
100
AcDbHatch
 10
0.0
 20
0.0
 30
0.0
210
0.0
220
0.0
230
1.0
  2
_U
 70
     0
 71
     0
 91
        2
 92
        7
 72
     0
 73
     1
 93
       11
 10
602.5883585878082
 20
247.4864744596734
 10
597.1472405752655
 20
247.4864744596734
 10
596.4472405752653
 20
246.7864744596734
 10
596.4472405752653
 20
241.1864744596732
 10
597.1472405752653
 20
240.4864744596733
 10
599.9472405752655
 20
240.4864744596733
 10
600.9472405752652
 20
241.4864744596732
 10
602.947240575265
 20
241.4864744596733
 10
603.9472405752645
 20
240.4864744596733
 10
606.9472405752653
 20
240.4864744596733
 10
606.9472405752653
 20
243.1275924722164
 97
        0
 92
        7
 72
     0
 73
     1
 93
       11
 10
624.4472405752653
 20
246.7864744596734
 10
623.7472405752653
 20
247.4864744596733
 10
618.3061225627223
 20
247.4864744596733
 10
613.9472405752654
 20
243.1275924722163
 10
613.9472405752654
 20
240.4864744596733
 10
616.947240575266
 20
240.4864744596733
 10
617.9472405752658
 20
241.4864744596733
 10
619.9472405752653
 20
241.4864744596732
 10
620.9472405752651
 20
240.4864744596733
 10
623.7472405752653
 20
240.4864744596733
 10
624.4472405752651
 20
241.1864744596731
 97
        0
 75
     0
 76
     0
 52
135.0
 41
1.5
 77
     0
 78
     1
 53
135.0
 43
0.0
 44
0.0
 45
-1.060660171779821
 46
-1.060660171779821
 79
     0
 47
0.151518
 98
        2
 10
600.923171
 20
244.170512
 10
619.567581
 20
244.776583
  0
LINE
  5
4B
100
AcDbEntity
  8
M05
100
AcDbLine
 10
600.947241
 20
241.486474
 30
0.0
 11
599.947241
 21
240.486474
 31
0.0
  0
LINE
  5
4C
100
AcDbEntity
  8
M05
100
AcDbLine
 10
602.947241
 20
241.486474
 30
0.0
 11
603.947241
 21
240.486474
 31
0.0
  0
LINE
  5
4D
100
AcDbEntity
  8
M05
100
AcDbLine
 10
600.947241
 20
241.486474
 30
0.0
 11
602.947241
 21
241.486474
 31
0.0
  0
LINE
  5
4E
100
AcDbEntity
  8
M05
100
AcDbLine
 10
619.947241
 20
241.486474
 30
0.0
 11
620.947241
 21
240.486474
 31
0.0
  0
LINE
  5
4F
100
AcDbEntity
  8
M05
100
AcDbLine
 10
617.947241
 20
241.486474
 30
0.0
 11
616.947241
 21
240.486474
 31
0.0
  0
LINE
  5
50
100
AcDbEntity
  8
M05
100
AcDbLine
 10
619.947241
 20
241.486474
 30
0.0
 11
617.947241
 21
241.486474
 31
0.0
  0
LINE
  5
51
100
AcDbEntity
  8
M02
100
AcDbLine
 10
587.447241
 20
294.486474
 30
0.0
 11
587.447241
 21
297.486474
 31
0.0
  0
LINE
  5
53
100
AcDbEntity
  8
M02
100
AcDbLine
 10
623.447241
 20
294.486474
 30
0.0
 11
623.447241
 21
297.486474
 31
0.0
  0
LINE
  5
54
100
AcDbEntity
  8
M02
100
AcDbLine
 10
523.447241
 20
294.486474
 30
0.0
 11
523.447241
 21
297.486474
 31
0.0
  0
LINE
  5
55
100
AcDbEntity
  8
M02
100
AcDbLine
 10
487.447241
 20
294.486474
 30
0.0
 11
487.447241
 21
297.486474
 31
0.0
  0
TEXT
  5
56
100
AcDbEntity
  8
DIMS
 62
     2
100
AcDbText
 10
697.647296
 20
412.860551
 30
0.0
 40
3.0
  1
(W=50.00 OPTION)
 50
90.0
100
AcDbText
  0
POINT
  5
58
100
AcDbEntity
  8
DEFPOINTS
  6
BYBLOCK
 62
     0
100
AcDbPoint
 10
605.447241
 20
482.559226
 30
0.0
  0
POINT
  5
5A
100
AcDbEntity
  8
DEFPOINTS
  6
BYBLOCK
 62
     0
100
AcDbPoint
 10
608.857108
 20
488.093014
 30
0.0
  0
MTEXT
  5
5B
100
AcDbEntity
  8
0
  6
BYBLOCK
 62
     2
100
AcDbMText
 10
595.529922
 20
507.810084
 30
0.0
 40
3.0
 41
0.0
 71
     4
 72
     1
  1
M12 PLATE RETAINING SCREWS SHOULD ALSO BE FITTED.\PMINIMUM 2 PER DROP & ALSO AROUND MANIFOLD POCKET.
  0
SOLID
  5
5C
100
AcDbEntity
  8
0
  6
BYBLOCK
 62
     4
100
AcDbTrace
 10
610.005217
 20
490.909367
 30
0.0
 11
610.856569
 21
490.384772
 31
0.0
 12
608.857108
 22
488.093014
 32
0.0
 13
608.857108
 23
488.093014
 33
0.0
  0
LINE
  5
5D
100
AcDbEntity
  8
0
  6
BYBLOCK
 62
     4
100
AcDbLine
 10
610.430893
 20
490.647069
 30
0.0
 11
617.968082
 21
502.580289
 31
0.0
  0
LINE
  5
5E
100
AcDbEntity
  8
M01
100
AcDbLine
 10
836.110108
 20
530.503326
 30
0.0
 11
842.610108
 21
530.503326
 31
0.0
  0
LINE
  5
5F
100
AcDbEntity
  8
M01
100
AcDbLine
 10
836.110108
 20
538.615126
 30
0.0
 11
842.610108
 21
538.615126
 31
0.0
  0
LINE
  5
60
100
AcDbEntity
  8
M01
100
AcDbLine
 10
836.110108
 20
530.503326
 30
0.0
 11
836.110108
 21
528.559226
 31
0.0
  0
ARC
  5
61
100
AcDbEntity
  8
M01
100
AcDbCircle
 10
834.860108
 20
532.064576
 30
0.0
 40
2.0
100
AcDbArc
 50
308.682187
 51
0.0
  0
ARC
  5
62
100
AcDbEntity
  8
M01
100
AcDbCircle
 10
834.860108
 20
537.053876
 30
0.0
 40
2.0
100
AcDbArc
 50
0.0
 51
51.317813
  0
LINE
  5
63
100
AcDbEntity
  8
M01
100
AcDbLine
 10
836.110108
 20
540.559226
 30
0.0
 11
836.110108
 21
538.615126
 31
0.0
  0
LINE
  5
64
100
AcDbEntity
  8
M01
100
AcDbLine
 10
836.860108
 20
537.053876
 30
0.0
 11
836.860108
 21
532.064576
 31
0.0
  0
LINE
  5
65
100
AcDbEntity
  8
M01
100
AcDbLine
 10
842.610108
 20
530.503326
 30
0.0
 11
842.610108
 21
528.559226
 31
0.0
  0
ARC
  5
66
100
AcDbEntity
  8
M01
100
AcDbCircle
 10
843.860108
 20
532.064576
 30
0.0
 40
2.0
100
AcDbArc
 50
180.0
 51
231.317813
  0
ARC
  5
67
100
AcDbEntity
  8
M01
100
AcDbCircle
 10
843.860108
 20
537.053876
 30
0.0
 40
2.0
100
AcDbArc
 50
128.682187
 51
180.0
  0
LINE
  5
68
100
AcDbEntity
  8
M01
100
AcDbLine
 10
842.610108
 20
540.559226
 30
0.0
 11
842.610108
 21
538.615126
 31
0.0
  0
LINE
  5
69
100
AcDbEntity
  8
M01
100
AcDbLine
 10
841.860108
 20
537.053876
 30
0.0
 11
841.860108
 21
532.064576
 31
0.0
  0
LINE
  5
6A
100
AcDbEntity
  8
M01
100
AcDbLine
 10
570.697241
 20
530.503326
 30
0.0
 11
564.197241
 21
530.503326
 31
0.0
  0
LINE
  5
6B
100
AcDbEntity
  8
M01
100
AcDbLine
 10
570.697241
 20
538.615126
 30
0.0
 11
564.197241
 21
538.615126
 31
0.0
  0
LINE
  5
6C
100
AcDbEntity
  8
M01
100
AcDbLine
 10
570.697241
 20
530.503326
 30
0.0
 11
570.697241
 21
528.559226
 31
0.0
  0
ARC
  5
6D
100
AcDbEntity
  8
M01
100
AcDbCircle
 10
571.947241
 20
532.064576
 30
0.0
 40
2.0
100
AcDbArc
 50
180.0
 51
231.317813
  0
ARC
  5
6E
100
AcDbEntity
  8
M01
100
AcDbCircle
 10
571.947241
 20
537.053876
 30
0.0
 40
2.0
100
AcDbArc
 50
128.682187
 51
180.0
  0
LINE
  5
6F
100
AcDbEntity
  8
M01
100
AcDbLine
 10
570.697241
 20
540.559226
 30
0.0
 11
570.697241
 21
538.615126
 31
0.0
  0
LINE
  5
70
100
AcDbEntity
  8
M01
100
AcDbLine
 10
569.947241
 20
537.053876
 30
0.0
 11
569.947241
 21
532.064576
 31
0.0
  0
LINE
  5
71
100
AcDbEntity
  8
M01
100
AcDbLine
 10
564.197241
 20
530.503326
 30
0.0
 11
564.197241
 21
528.559226
 31
0.0
  0
ARC
  5
72
100
AcDbEntity
  8
M01
100
AcDbCircle
 10
562.947241
 20
532.064576
 30
0.0
 40
2.0
100
AcDbArc
 50
308.682187
 51
0.0
  0
ARC
  5
73
100
AcDbEntity
  8
M01
100
AcDbCircle
 10
562.947241
 20
537.053876
 30
0.0
 40
2.0
100
AcDbArc
 50
0.0
 51
51.317813
  0
LINE
  5
74
100
AcDbEntity
  8
M01
100
AcDbLine
 10
564.197241
 20
540.559226
 30
0.0
 11
564.197241
 21
538.615126
 31
0.0
  0
LINE
  5
75
100
AcDbEntity
  8
M01
100
AcDbLine
 10
564.947241
 20
537.053876
 30
0.0
 11
564.947241
 21
532.064576
 31
0.0
  0
LINE
  5
76
100
AcDbEntity
  8
DIMS
 62
     4
100
AcDbLine
 10
605.447241
 20
485.959226
 30
0.0
 11
605.447241
 21
490.759226
 31
0.0
  0
LINE
  5
77
100
AcDbEntity
  8
DIMS
 62
     4
100
AcDbLine
 10
605.447241
 20
479.159226
 30
0.0
 11
605.447241
 21
474.359226
 31
0.0
  0
LINE
  5
78
100
AcDbEntity
  8
DIMS
 62
     4
100
AcDbLine
 10
608.847241
 20
482.559226
 30
0.0
 11
613.647241
 21
482.559226
 31
0.0
  0
LINE
  5
79
100
AcDbEntity
  8
DIMS
 62
     4
100
AcDbLine
 10
602.047241
 20
482.559226
 30
0.0
 11
597.247241
 21
482.559226
 31
0.0
  0
LINE
  5
7A
100
AcDbEntity
  8
DIMS
 62
     4
100
AcDbLine
 10
605.447241
 20
480.859226
 30
0.0
 11
605.447241
 21
484.259226
 31
0.0
  0
LINE
  5
7B
100
AcDbEntity
  8
DIMS
 62
     4
100
AcDbLine
 10
603.747241
 20
482.559226
 30
0.0
 11
607.147241
 21
482.559226
 31
0.0
  0
LINE
  5
7C
100
AcDbEntity
  8
DIMS
 62
     4
100
AcDbLine
 10
505.447241
 20
485.959226
 30
0.0
 11
505.447241
 21
490.759226
 31
0.0
  0
LINE
  5
7D
100
AcDbEntity
  8
DIMS
 62
     4
100
AcDbLine
 10
505.447241
 20
479.159226
 30
0.0
 11
505.447241
 21
474.359226
 31
0.0
  0
LINE
  5
7E
100
AcDbEntity
  8
DIMS
 62
     4
100
AcDbLine
 10
508.847241
 20
482.559226
 30
0.0
 11
513.647241
 21
482.559226
 31
0.0
  0
LINE
  5
7F
100
AcDbEntity
  8
DIMS
 62
     4
100
AcDbLine
 10
502.047241
 20
482.559226
 30
0.0
 11
497.247241
 21
482.559226
 31
0.0
  0
LINE
  5
80
100
AcDbEntity
  8
DIMS
 62
     4
100
AcDbLine
 10
505.447241
 20
480.859226
 30
0.0
 11
505.447241
 21
484.259226
 31
0.0
  0
LINE
  5
81
100
AcDbEntity
  8
DIMS
 62
     4
100
AcDbLine
 10
503.747241
 20
482.559226
 30
0.0
 11
507.147241
 21
482.559226
 31
0.0
  0
LINE
  5
82
100
AcDbEntity
  8
DIMS
 62
     4
100
AcDbLine
 10
505.447241
 20
385.959226
 30
0.0
 11
505.447241
 21
390.759226
 31
0.0
  0
LINE
  5
83
100
AcDbEntity
  8
DIMS
 62
     4
100
AcDbLine
 10
505.447241
 20
379.159226
 30
0.0
 11
505.447241
 21
374.359226
 31
0.0
  0
LINE
  5
84
100
AcDbEntity
  8
DIMS
 62
     4
100
AcDbLine
 10
508.847241
 20
382.559226
 30
0.0
 11
513.647241
 21
382.559226
 31
0.0
  0
LINE
  5
85
100
AcDbEntity
  8
DIMS
 62
     4
100
AcDbLine
 10
502.047241
 20
382.559226
 30
0.0
 11
497.247241
 21
382.559226
 31
0.0
  0
LINE
  5
86
100
AcDbEntity
  8
DIMS
 62
     4
100
AcDbLine
 10
505.447241
 20
380.859226
 30
0.0
 11
505.447241
 21
384.259226
 31
0.0
  0
LINE
  5
87
100
AcDbEntity
  8
DIMS
 62
     4
100
AcDbLine
 10
503.747241
 20
382.559226
 30
0.0
 11
507.147241
 21
382.559226
 31
0.0
  0
LINE
  5
88
100
AcDbEntity
  8
DIMS
 62
     4
100
AcDbLine
 10
605.447241
 20
385.959226
 30
0.0
 11
605.447241
 21
390.759226
 31
0.0
  0
LINE
  5
89
100
AcDbEntity
  8
DIMS
 62
     4
100
AcDbLine
 10
605.447241
 20
379.159226
 30
0.0
 11
605.447241
 21
374.359226
 31
0.0
  0
LINE
  5
8A
100
AcDbEntity
  8
DIMS
 62
     4
100
AcDbLine
 10
608.847241
 20
382.559226
 30
0.0
 11
613.647241
 21
382.559226
 31
0.0
  0
LINE
  5
8B
100
AcDbEntity
  8
DIMS
 62
     4
100
AcDbLine
 10
602.047241
 20
382.559226
 30
0.0
 11
597.247241
 21
382.559226
 31
0.0
  0
LINE
  5
8C
100
AcDbEntity
  8
DIMS
 62
     4
100
AcDbLine
 10
605.447241
 20
380.859226
 30
0.0
 11
605.447241
 21
384.259226
 31
0.0
  0
LINE
  5
8D
100
AcDbEntity
  8
DIMS
 62
     4
100
AcDbLine
 10
603.747241
 20
382.559226
 30
0.0
 11
607.147241
 21
382.559226
 31
0.0
  0
CIRCLE
  5
8E
100
AcDbEntity
  8
M04
100
AcDbCircle
 10
605.447241
 20
382.559226
 30
0.0
 40
6.5
  0
CIRCLE
  5
90
100
AcDbEntity
  8
M04
100
AcDbCircle
 10
605.447241
 20
482.559226
 30
0.0
 40
6.5
  0
CIRCLE
  5
91
100
AcDbEntity
  8
M04
100
AcDbCircle
 10
505.447241
 20
382.559226
 30
0.0
 40
6.5
  0
CIRCLE
  5
92
100
AcDbEntity
  8
M04
100
AcDbCircle
 10
505.447241
 20
482.559226
 30
0.0
 40
6.5
  0
HATCH
  5
93
100
AcDbEntity
  8
DIMS
100
AcDbHatch
 10
0.0
 20
0.0
 30
0.0
210
0.0
220
0.0
230
1.0
  2
_U
 70
     0
 71
     1
 91
        5
 92
        7
 72
     0
 73
     1
 93
        9
 10
586.9472405752653
 20
245.4864744596732
 10
586.9472405752653
 20
241.4864744596733
 10
588.7472405752654
 20
241.4864744596732
 10
589.4472405752655
 20
242.1864744596733
 10
589.4472405752655
 20
246.7864744596732
 10
588.7472405752654
 20
247.4864744596734
 10
585.1472405752653
 20
247.4864744596734
 10
585.1472405752655
 20
245.4864744596733
 10
586.6972405752655
 20
245.4864744596733
 97
        9
330
393
330
D6
330
EA
330
DB
330
EF
330
DD
330
396
330
394
330
397
 92
        7
 72
     1
 73
     1
 93
       16
 10
574.7472405752654
 20
236.4864744596733
 42
0.0
 10
575.4472405752653
 20
237.1864744596733
 42
0.0
 10
575.4472405752653
 20
238.4864744596734
 42
0.0
 10
574.9472405752653
 20
238.4864744596733
 42
0.0
 10
574.9472405752654
 20
241.4864744596733
 42
0.0
 10
575.9472405752655
 20
241.4864744596733
 42
0.0
 10
575.9472405752655
 20
245.4864744596733
 42
0.0
 10
576.1972405752654
 20
245.4864744596733
 42
0.0
 10
577.7472405752652
 20
245.4864744596733
 42
0.0
 10
577.7472405752654
 20
247.4864744596735
 42
0.0
 10
565.4472405752652
 20
247.4864744596735
 42
0.0
 10
565.4472405752652
 20
256.4864744596731
 42
0.0
 10
564.4472405752654
 20
257.4864744596732
 42
0.0
 10
559.4472405752653
 20
257.4864744596732
 42
0.0
 10
558.4881145731612
 20
239.1852601127745
 42
-0.1092323044357263
 10
564.6123919651768
 20
236.4864744596732
 42
0.0
 97
       16
330
396
330
DE
330
DC
330
DB
330
E9
330
374
330
3A0
330
39C
330
39E
330
37D
330
37E
330
38C
330
38B
330
38E
330
389
330
388
 92
        7
 72
     1
 73
     1
 93
       16
 10
552.4063665773692
 20
239.1852601127744
 42
0.0
 10
551.4472405752654
 20
257.4864744596733
 42
0.0
 10
546.4472405752653
 20
257.4864744596733
 42
0.0
 10
545.4472405752653
 20
256.4864744596732
 42
0.0
 10
545.4472405752653
 20
247.4864744596734
 42
0.0
 10
533.1472405752653
 20
247.4864744596734
 42
0.0
 10
533.1472405752654
 20
245.4864744596733
 42
0.0
 10
534.6972405752652
 20
245.4864744596733
 42
0.0
 10
534.9472405752652
 20
245.4864744596733
 42
0.0
 10
534.9472405752652
 20
241.4864744596734
 42
0.0
 10
535.9472405752653
 20
241.4864744596734
 42
0.0
 10
535.9472405752653
 20
238.4864744596731
 42
0.0
 10
535.4472405752654
 20
238.486474459673
 42
0.0
 10
535.4472405752654
 20
237.186474459673
 42
0.0
 10
536.1472405752654
 20
236.4864744596729
 42
0.0
 10
546.2820891853537
 20
236.486474459673
 42
-0.1092323044357266
 97
       16
330
39E
330
39D
330
39F
330
3CE
330
CC
330
BE
330
BF
330
C1
330
386
330
387
330
385
330
38D
330
38A
330
38C
330
37A
330
37C
 92
        7
 72
     0
 73
     1
 93
        9
 10
523.9472405752653
 20
245.4864744596732
 10
524.1972405752651
 20
245.4864744596732
 10
525.7472405752653
 20
245.4864744596732
 10
525.7472405752653
 20
247.4864744596734
 10
522.1472405752653
 20
247.4864744596735
 10
521.4472405752651
 20
246.7864744596734
 10
521.4472405752651
 20
242.1864744596733
 10
522.1472405752652
 20
241.4864744596734
 10
523.9472405752653
 20
241.4864744596734
 97
        9
330
3CE
330
391
330
392
330
372
330
386
330
C0
330
D2
330
BE
330
CD
 92
       24
 93
        4
 72
     1
 10
560.021321
 20
242.553962
 11
574.39275
 21
242.553962
 72
     1
 10
574.39275
 20
242.553962
 11
574.39275
 21
245.553962
 72
     1
 10
574.39275
 20
245.553962
 11
560.021321
 21
245.553962
 72
     1
 10
560.021321
 20
245.553962
 11
560.021321
 21
242.553962
 97
        1
330
36D
 75
     0
 76
     0
 52
135.0
 41
2.5
 77
     0
 78
     1
 53
135.0
 43
0.0
 44
0.0
 45
-1.767766952966368
 46
-1.767766952966368
 79
     0
 47
0.085632
 98
        4
 10
587.944203
 20
245.844459
 10
570.296758
 20
239.850229
 10
547.509279
 20
241.049076
 10
523.26546
 20
245.844459
  0
HATCH
  5
94
100
AcDbEntity
  8
DIMS
100
AcDbHatch
 10
0.0
 20
0.0
 30
0.0
210
0.0
220
0.0
230
1.0
  2
_U
 70
     0
 71
     1
 91
        4
 92
        7
 72
     1
 73
     1
 93
        2
 10
649.4472405752653
 20
290.4864744596735
 42
1.0
 10
657.4472405752653
 20
290.4864744596735
 42
1.0
 97
        1
330
B9
 92
        7
 72
     1
 73
     1
 93
        2
 10
649.4472405752653
 20
251.4864744596733
 42
1.0
 10
657.4472405752653
 20
251.4864744596733
 42
1.0
 97
        1
330
B0
 92
        7
 72
     1
 73
     1
 93
        2
 10
453.4472405752653
 20
251.4864744596733
 42
1.0
 10
461.4472405752653
 20
251.4864744596733
 42
1.0
 97
        1
330
9E
 92
        7
 72
     1
 73
     1
 93
        2
 10
453.4472405752653
 20
290.4864744596735
 42
1.0
 10
461.4472405752653
 20
290.4864744596735
 42
1.0
 97
        1
330
A7
 75
     0
 76
     0
 52
45.0
 41
0.8
 77
     0
 78
     1
 53
45.0
 43
0.0
 44
0.0
 45
-0.565685424949238
 46
0.565685424949238
 79
     0
 47
0.21827
 98
        4
 10
653.075886
 20
292.311956
 10
654.822767
 20
252.805055
 10
459.17199
 20
252.586785
 10
458.73527
 20
291.875416
  0
HATCH
  5
95
100
AcDbEntity
  8
DIMS
100
AcDbHatch
 10
0.0
 20
0.0
 30
0.0
210
0.0
220
0.0
230
1.0
  2
_U
 70
     0
 71
     1
 91
       21
 92
        7
 72
     1
 73
     1
 93
       39
 10
501.4472405752655
 20
294.4864744596734
 42
0.0
 10
461.4472405752652
 20
294.4864744596734
 42
0.0
 10
461.4472405752653
 20
290.4864744596736
 42
-1.0
 10
453.4472405752653
 20
290.4864744596735
 42
0.0
 10
453.4472405752653
 20
294.4864744596734
 42
0.0
 10
450.4472405752653
 20
294.4864744596734
 42
0.0
 10
448.4472405752653
 20
292.4864744596734
 42
0.0
 10
448.4472405752653
 20
249.4864744596734
 42
0.0
 10
450.4472405752654
 20
247.4864744596734
 42
0.0
 10
453.4472405752653
 20
247.4864744596734
 42
0.0
 10
453.4472405752653
 20
251.4864744596733
 42
-1.0
 10
461.4472405752653
 20
251.4864744596733
 42
0.0
 10
461.4472405752653
 20
247.4864744596734
 42
0.0
 10
486.4472405752654
 20
247.4864744596733
 42
0.0
 10
486.4472405752653
 20
247.7864744596733
 42
0.0
 10
487.1472405752654
 20
248.4864744596733
 42
0.0
 10
513.7472405752653
 20
248.4864744596734
 42
0.0
 10
514.4472405752654
 20
247.7864744596734
 42
0.0
 10
514.4472405752654
 20
247.4864744596734
 42
0.0
 10
526.4472405752654
 20
247.4864744596735
 42
0.0
 10
526.4472405752654
 20
254.7864744596734
 42
0.0
 10
526.4472405752654
 20
257.2864744596732
 42
0.0
 10
527.1472405752653
 20
257.2864744596732
 42
0.0
 10
527.1472405752653
 20
258.7864744596732
 42
0.0
 10
529.4472405752653
 20
260.1143800788094
 42
0.0
 10
531.7472405752653
 20
258.7864744596732
 42
0.0
 10
531.7472405752653
 20
257.2864744596732
 42
0.0
 10
532.4472405752653
 20
257.2864744596732
 42
0.0
 10
532.4472405752653
 20
254.7864744596735
 42
0.0
 10
532.4472405752653
 20
247.4864744596735
 42
0.0
 10
544.9472405752656
 20
247.4864744596735
 42
0.0
 10
545.4472405752653
 20
247.986474459673
 42
0.0
 10
545.4472405752653
 20
256.4864744596733
 42
0.0
 10
545.4472405752656
 20
257.4864744596733
 42
0.0
 10
546.4472405752655
 20
257.4864744596733
 42
0.0
 10
551.4472405752654
 20
257.4864744596732
 42
0.0
 10
551.4472405752654
 20
266.9864744596733
 42
0.0
 10
505.4472405752654
 20
266.9864744596733
 42
-0.4142135623730951
 10
501.4472405752654
 20
270.9864744596733
 42
0.0
 97
       34
330
3CF
330
A5
330
A7
330
A6
330
3CA
330
3CD
330
3CB
330
3CE
330
9D
330
9E
330
9C
330
242
330
241
330
247
330
23C
330
23D
330
D1
330
BC
330
C6
330
BD
330
C3
330
C4
330
BB
330
BA
330
D0
330
38F
330
39F
330
398
330
399
330
39E
330
37B
330
351
330
354
330
353
 92
        7
 72
     0
 73
     1
 93
        8
 10
545.9472405752653
 20
289.4864744596735
 10
545.9472405752653
 20
290.4864744596735
 10
545.9472405752653
 20
294.4864744596734
 10
509.4472405752653
 20
294.4864744596734
 10
509.4472405752653
 20
274.9864744596733
 10
555.4472405752652
 20
274.9864744596733
 10
555.4472405752652
 20
289.4864744596735
 10
546.9472405752653
 20
289.4864744596735
 97
        8
330
3C1
330
3AA
330
3AB
330
3BF
330
3CF
330
352
330
358
330
3D1
 92
        7
 72
     0
 73
     1
 93
        8
 10
601.4472405752654
 20
274.9864744596733
 10
601.4472405752654
 20
294.4864744596734
 10
564.9472405752653
 20
294.4864744596734
 10
564.9472405752653
 20
290.4864744596735
 10
564.9472405752653
 20
289.4864744596735
 10
563.9472405752654
 20
289.4864744596735
 10
555.4472405752654
 20
289.4864744596735
 10
555.4472405752654
 20
274.9864744596733
 97
        8
330
3A3
330
3C0
330
3B2
330
3B1
330
3C1
330
3D1
330
358
330
35A
 92
        7
 72
     1
 73
     1
 93
       39
 10
609.4472405752654
 20
270.9864744596733
 42
-0.4142135623730951
 10
605.4472405752654
 20
266.9864744596733
 42
0.0
 10
559.4472405752653
 20
266.9864744596733
 42
0.0
 10
559.4472405752653
 20
257.4864744596732
 42
0.0
 10
564.4472405752652
 20
257.4864744596732
 42
0.0
 10
565.4472405752651
 20
257.4864744596732
 42
0.0
 10
565.4472405752652
 20
256.4864744596732
 42
0.0
 10
565.4472405752652
 20
247.9864744596731
 42
0.0
 10
565.9472405752651
 20
247.4864744596734
 42
0.0
 10
578.4472405752653
 20
247.4864744596735
 42
0.0
 10
578.4472405752653
 20
254.7864744596734
 42
0.0
 10
578.4472405752653
 20
257.2864744596732
 42
0.0
 10
579.1472405752654
 20
257.2864744596732
 42
0.0
 10
579.1472405752654
 20
258.7864744596732
 42
0.0
 10
581.4472405752654
 20
260.1143800788094
 42
0.0
 10
583.7472405752653
 20
258.7864744596732
 42
0.0
 10
583.7472405752653
 20
257.2864744596732
 42
0.0
 10
584.4472405752652
 20
257.2864744596732
 42
0.0
 10
584.4472405752653
 20
254.7864744596735
 42
0.0
 10
584.4472405752653
 20
247.4864744596734
 42
0.0
 10
596.4472405752653
 20
247.4864744596734
 42
0.0
 10
596.4472405752653
 20
247.7864744596734
 42
0.0
 10
597.1472405752655
 20
248.4864744596734
 42
0.0
 10
623.7472405752653
 20
248.4864744596734
 42
0.0
 10
624.4472405752653
 20
247.7864744596734
 42
0.0
 10
624.4472405752653
 20
247.4864744596733
 42
0.0
 10
649.4472405752653
 20
247.4864744596734
 42
0.0
 10
649.4472405752653
 20
251.4864744596733
 42
-1.0
 10
657.4472405752653
 20
251.4864744596733
 42
0.0
 10
657.4472405752653
 20
247.4864744596733
 42
0.0
 10
660.4472405752654
 20
247.4864744596733
 42
0.0
 10
662.4472405752653
 20
249.4864744596732
 42
0.0
 10
662.4472405752653
 20
292.4864744596734
 42
0.0
 10
660.4472405752654
 20
294.4864744596734
 42
0.0
 10
657.4472405752653
 20
294.4864744596734
 42
0.0
 10
657.4472405752653
 20
290.4864744596735
 42
-1.0
 10
649.4472405752653
 20
290.4864744596735
 42
0.0
 10
649.4472405752653
 20
294.4864744596734
 42
0.0
 10
609.4472405752655
 20
294.4864744596734
 42
0.0
 97
       35
330
3C9
330
3A3
330
B8
330
B9
330
B7
330
35B
330
35C
330
359
330
37F
330
39E
330
39B
330
39A
330
3A0
330
390
330
374
330
ED
330
D7
330
E3
330
D8
330
E1
330
E0
330
DA
330
D9
330
EE
330
D6
330
365
330
364
330
36A
330
35F
330
360
330
AE
330
B0
330
AF
330
3C8
330
3CC
 92
       23
 72
     0
 73
     1
 93
        4
 10
602.5883585878084
 20
247.4864744596733
 10
602.2883585878084
 20
247.7864744596733
 10
596.4472405752653
 20
247.7864744596733
 10
596.4472405752653
 20
247.4864744596734
 97
        4
330
35E
330
365
330
D6
330
266
 92
       23
 72
     0
 73
     1
 93
        4
 10
602.2883585878083
 20
247.7864744596734
 10
601.588358587808
 20
248.4864744596733
 10
597.1472405752654
 20
248.4864744596734
 10
596.4472405752653
 20
247.7864744596734
 97
        4
330
36A
330
364
330
35E
330
25A
 92
       23
 72
     0
 73
     1
 93
        4
 10
610.4472405752652
 20
247.7864744596733
 10
610.4472405752652
 20
248.4864744596734
 10
601.588358587808
 20
248.4864744596734
 10
602.2883585878083
 20
247.7864744596734
 97
        4
330
36A
330
25A
330
35E
330
36C
 92
       23
 72
     0
 73
     1
 93
        4
 10
610.4472405752654
 20
247.4864744596733
 10
610.4472405752654
 20
247.7864744596734
 10
602.2883585878083
 20
247.7864744596734
 10
602.5883585878081
 20
247.4864744596734
 97
        4
330
35E
330
266
330
D6
330
36C
 92
       23
 72
     0
 73
     1
 93
        4
 10
618.6061225627225
 20
247.7864744596734
 10
619.3061225627224
 20
248.4864744596734
 10
610.4472405752654
 20
248.4864744596734
 10
610.4472405752654
 20
247.7864744596733
 97
        4
330
36A
330
36C
330
35E
330
25B
 92
       23
 72
     0
 73
     1
 93
        4
 10
618.3061225627223
 20
247.4864744596734
 10
618.6061225627224
 20
247.7864744596734
 10
610.4472405752654
 20
247.7864744596734
 10
610.4472405752654
 20
247.4864744596734
 97
        4
330
35E
330
36C
330
D6
330
268
 92
       22
 72
     0
 73
     1
 93
        4
 10
624.4472405752654
 20
247.7864744596734
 10
623.7472405752655
 20
248.4864744596734
 10
619.3061225627225
 20
248.4864744596734
 10
618.6061225627224
 20
247.7864744596734
 97
        4
330
36A
330
25B
330
35E
330
35F
 92
       22
 72
     0
 73
     1
 93
        4
 10
624.4472405752653
 20
247.4864744596733
 10
624.4472405752653
 20
247.7864744596733
 10
618.6061225627224
 20
247.7864744596734
 10
618.3061225627223
 20
247.4864744596734
 97
        4
330
35E
330
268
330
D6
330
360
 92
       23
 72
     0
 73
     1
 93
        4
 10
492.5883585878082
 20
247.4864744596734
 10
492.2883585878083
 20
247.7864744596734
 10
486.4472405752653
 20
247.7864744596733
 10
486.4472405752654
 20
247.4864744596734
 97
        4
330
23B
330
242
330
3CE
330
233
 92
       23
 72
     0
 73
     1
 93
        4
 10
492.2883585878083
 20
247.7864744596733
 10
491.5883585878082
 20
248.4864744596733
 10
487.1472405752653
 20
248.4864744596733
 10
486.4472405752654
 20
247.7864744596733
 97
        4
330
247
330
241
330
23B
330
228
 92
       23
 72
     0
 73
     1
 93
        4
 10
500.4472405752654
 20
247.7864744596733
 10
500.4472405752653
 20
248.4864744596734
 10
491.5883585878082
 20
248.4864744596733
 10
492.2883585878082
 20
247.7864744596733
 97
        4
330
247
330
228
330
23B
330
249
 92
       23
 72
     0
 73
     1
 93
        4
 10
492.2883585878083
 20
247.7864744596733
 10
492.5883585878081
 20
247.4864744596734
 10
500.4472405752653
 20
247.4864744596734
 10
500.4472405752653
 20
247.7864744596733
 97
        4
330
23B
330
233
330
3CE
330
249
 92
       23
 72
     0
 73
     1
 93
        4
 10
508.3061225627224
 20
247.4864744596734
 10
508.6061225627224
 20
247.7864744596734
 10
500.4472405752653
 20
247.7864744596733
 10
500.4472405752653
 20
247.4864744596734
 97
        4
330
23B
330
249
330
3CE
330
235
 92
       23
 72
     0
 73
     1
 93
        4
 10
508.6061225627225
 20
247.7864744596733
 10
509.3061225627224
 20
248.4864744596733
 10
500.4472405752654
 20
248.4864744596734
 10
500.4472405752654
 20
247.7864744596733
 97
        4
330
247
330
249
330
23B
330
229
 92
       23
 72
     0
 73
     1
 93
        4
 10
509.3061225627224
 20
248.4864744596733
 10
508.6061225627225
 20
247.7864744596733
 10
514.4472405752654
 20
247.7864744596733
 10
513.7472405752652
 20
248.4864744596733
 97
        4
330
247
330
229
330
23B
330
23C
 92
       23
 72
     0
 73
     1
 93
        4
 10
508.6061225627225
 20
247.7864744596733
 10
508.3061225627225
 20
247.4864744596734
 10
514.4472405752654
 20
247.4864744596734
 10
514.4472405752654
 20
247.7864744596733
 97
        4
330
23B
330
235
330
3CE
330
23D
 92
       24
 93
        4
 72
     1
 10
640.69841
 20
265.61376
 11
654.89841
 21
265.61376
 72
     1
 10
654.89841
 20
265.61376
 11
654.89841
 21
268.61376
 72
     1
 10
654.89841
 20
268.61376
 11
640.69841
 21
268.61376
 72
     1
 10
640.69841
 20
268.61376
 11
640.69841
 21
265.61376
 97
        1
330
212
 75
     0
 76
     0
 52
45.0
 41
6.0
 77
     0
 78
     1
 53
45.0
 43
0.0
 44
0.0
 45
-4.242640687119284
 46
4.242640687119285
 79
     0
 47
0.027694
 98
       20
 10
488.868983
 20
276.596503
 10
538.65512
 20
284.672501
 10
574.90292
 20
281.180178
 10
616.391366
 20
274.850343
 10
600.482328
 20
247.617676
 10
600.592234
 20
248.093755
 10
603.266693
 20
247.983889
 10
603.596421
 20
247.581056
 10
611.766339
 20
248.130375
 10
611.656429
 20
247.581056
 10
620.11944
 20
248.020512
 10
619.643164
 20
247.544434
 10
488.611252
 20
247.565661
 10
488.832894
 20
248.036455
 10
493.847524
 20
248.119535
 10
493.76441
 20
247.676435
 10
501.660375
 20
247.565661
 10
501.798899
 20
248.064148
 10
510.165853
 20
248.174922
 10
509.528635
 20
247.648742
  0
LINE
  5
96
100
AcDbEntity
  8
DIMS
 62
     4
100
AcDbLine
 10
454.047241
 20
251.486474
 30
0.0
 11
451.747241
 21
251.486474
 31
0.0
  0
LINE
  5
97
100
AcDbEntity
  8
DIMS
 62
     4
100
AcDbLine
 10
460.847241
 20
251.486474
 30
0.0
 11
463.147241
 21
251.486474
 31
0.0
  0
LINE
  5
98
100
AcDbEntity
  8
DIMS
 62
     4
100
AcDbLine
 10
457.447241
 20
254.886474
 30
0.0
 11
457.447241
 21
257.186474
 31
0.0
  0
LINE
  5
99
100
AcDbEntity
  8
DIMS
 62
     4
100
AcDbLine
 10
457.447241
 20
248.086474
 30
0.0
 11
457.447241
 21
245.786474
 31
0.0
  0
LINE
  5
9A
100
AcDbEntity
  8
DIMS
 62
     4
100
AcDbLine
 10
459.147241
 20
251.486474
 30
0.0
 11
455.747241
 21
251.486474
 31
0.0
  0
LINE
  5
9B
100
AcDbEntity
  8
DIMS
 62
     4
100
AcDbLine
 10
457.447241
 20
249.786474
 30
0.0
 11
457.447241
 21
253.186474
 31
0.0
  0
LINE
  5
9C
102
{ACAD_REACTORS
330
95
102
}
100
AcDbEntity
  8
M01
100
AcDbLine
 10
461.447241
 20
251.486474
 30
0.0
 11
461.447241
 21
247.486474
 31
0.0
  0
LINE
  5
9D
102
{ACAD_REACTORS
330
95
102
}
100
AcDbEntity
  8
M01
100
AcDbLine
 10
453.447241
 20
251.486474
 30
0.0
 11
453.447241
 21
247.486474
 31
0.0
  0
CIRCLE
  5
9E
102
{ACAD_REACTORS
330
95
330
94
102
}
100
AcDbEntity
  8
M01
100
AcDbCircle
 10
457.447241
 20
251.486474
 30
0.0
 40
4.0
  0
LINE
  5
9F
100
AcDbEntity
  8
DIMS
 62
     4
100
AcDbLine
 10
454.047241
 20
290.486474
 30
0.0
 11
451.747241
 21
290.486474
 31
0.0
  0
LINE
  5
A0
100
AcDbEntity
  8
DIMS
 62
     4
100
AcDbLine
 10
460.847241
 20
290.486474
 30
0.0
 11
463.147241
 21
290.486474
 31
0.0
  0
LINE
  5
A1
100
AcDbEntity
  8
DIMS
 62
     4
100
AcDbLine
 10
457.447241
 20
287.086474
 30
0.0
 11
457.447241
 21
284.786474
 31
0.0
  0
LINE
  5
A2
100
AcDbEntity
  8
DIMS
 62
     4
100
AcDbLine
 10
457.447241
 20
293.886474
 30
0.0
 11
457.447241
 21
296.186474
 31
0.0
  0
LINE
  5
A3
100
AcDbEntity
  8
DIMS
 62
     4
100
AcDbLine
 10
459.147241
 20
290.486474
 30
0.0
 11
455.747241
 21
290.486474
 31
0.0
  0
LINE
  5
A4
100
AcDbEntity
  8
DIMS
 62
     4
100
AcDbLine
 10
457.447241
 20
292.186474
 30
0.0
 11
457.447241
 21
288.786474
 31
0.0
  0
LINE
  5
A5
102
{ACAD_REACTORS
330
95
102
}
100
AcDbEntity
  8
M01
100
AcDbLine
 10
461.447241
 20
290.486474
 30
0.0
 11
461.447241
 21
294.486474
 31
0.0
  0
LINE
  5
A6
102
{ACAD_REACTORS
330
95
102
}
100
AcDbEntity
  8
M01
100
AcDbLine
 10
453.447241
 20
290.486474
 30
0.0
 11
453.447241
 21
294.486474
 31
0.0
  0
CIRCLE
  5
A7
102
{ACAD_REACTORS
330
95
330
94
102
}
100
AcDbEntity
  8
M01
100
AcDbCircle
 10
457.447241
 20
290.486474
 30
0.0
 40
4.0
  0
LINE
  5
A8
100
AcDbEntity
  8
DIMS
 62
     4
100
AcDbLine
 10
656.847241
 20
251.486474
 30
0.0
 11
659.147241
 21
251.486474
 31
0.0
  0
LINE
  5
A9
100
AcDbEntity
  8
DIMS
 62
     4
100
AcDbLine
 10
650.047241
 20
251.486474
 30
0.0
 11
647.747241
 21
251.486474
 31
0.0
  0
LINE
  5
AA
100
AcDbEntity
  8
DIMS
 62
     4
100
AcDbLine
 10
653.447241
 20
254.886474
 30
0.0
 11
653.447241
 21
257.186474
 31
0.0
  0
LINE
  5
AB
100
AcDbEntity
  8
DIMS
 62
     4
100
AcDbLine
 10
653.447241
 20
248.086474
 30
0.0
 11
653.447241
 21
245.786474
 31
0.0
  0
LINE
  5
AC
100
AcDbEntity
  8
DIMS
 62
     4
100
AcDbLine
 10
651.747241
 20
251.486474
 30
0.0
 11
655.147241
 21
251.486474
 31
0.0
  0
LINE
  5
AD
100
AcDbEntity
  8
DIMS
 62
     4
100
AcDbLine
 10
653.447241
 20
249.786474
 30
0.0
 11
653.447241
 21
253.186474
 31
0.0
  0
LINE
  5
AE
102
{ACAD_REACTORS
330
95
102
}
100
AcDbEntity
  8
M01
100
AcDbLine
 10
649.447241
 20
251.486474
 30
0.0
 11
649.447241
 21
247.486474
 31
0.0
  0
LINE
  5
AF
102
{ACAD_REACTORS
330
95
102
}
100
AcDbEntity
  8
M01
100
AcDbLine
 10
657.447241
 20
251.486474
 30
0.0
 11
657.447241
 21
247.486474
 31
0.0
  0
CIRCLE
  5
B0
102
{ACAD_REACTORS
330
95
330
94
102
}
100
AcDbEntity
  8
M01
100
AcDbCircle
 10
653.447241
 20
251.486474
 30
0.0
 40
4.0
  0
LINE
  5
B1
100
AcDbEntity
  8
DIMS
 62
     4
100
AcDbLine
 10
656.847241
 20
290.486474
 30
0.0
 11
659.147241
 21
290.486474
 31
0.0
  0
LINE
  5
B2
100
AcDbEntity
  8
DIMS
 62
     4
100
AcDbLine
 10
650.047241
 20
290.486474
 30
0.0
 11
647.747241
 21
290.486474
 31
0.0
  0
LINE
  5
B3
100
AcDbEntity
  8
DIMS
 62
     4
100
AcDbLine
 10
653.447241
 20
287.086474
 30
0.0
 11
653.447241
 21
284.786474
 31
0.0
  0
LINE
  5
B4
100
AcDbEntity
  8
DIMS
 62
     4
100
AcDbLine
 10
653.447241
 20
293.886474
 30
0.0
 11
653.447241
 21
296.186474
 31
0.0
  0
LINE
  5
B5
100
AcDbEntity
  8
DIMS
 62
     4
100
AcDbLine
 10
651.747241
 20
290.486474
 30
0.0
 11
655.147241
 21
290.486474
 31
0.0
  0
LINE
  5
B6
100
AcDbEntity
  8
DIMS
 62
     4
100
AcDbLine
 10
653.447241
 20
292.186474
 30
0.0
 11
653.447241
 21
288.786474
 31
0.0
  0
LINE
  5
B7
102
{ACAD_REACTORS
330
95
102
}
100
AcDbEntity
  8
M01
100
AcDbLine
 10
649.447241
 20
290.486474
 30
0.0
 11
649.447241
 21
294.486474
 31
0.0
  0
LINE
  5
B8
102
{ACAD_REACTORS
330
95
102
}
100
AcDbEntity
  8
M01
100
AcDbLine
 10
657.447241
 20
290.486474
 30
0.0
 11
657.447241
 21
294.486474
 31
0.0
  0
CIRCLE
  5
B9
102
{ACAD_REACTORS
330
95
330
94
102
}
100
AcDbEntity
  8
M01
100
AcDbCircle
 10
653.447241
 20
290.486474
 30
0.0
 40
4.0
  0
LINE
  5
BA
102
{ACAD_REACTORS
330
95
102
}
100
AcDbEntity
  8
M04
100
AcDbLine
 10
532.447241
 20
254.786474
 30
0.0
 11
532.447241
 21
257.286474
 31
0.0
  0
LINE
  5
BB
102
{ACAD_REACTORS
330
95
102
}
100
AcDbEntity
  8
M04
100
AcDbLine
 10
531.747241
 20
255.486474
 30
0.0
 11
531.747241
 21
258.786474
 31
0.0
  0
LINE
  5
BC
102
{ACAD_REACTORS
330
95
102
}
100
AcDbEntity
  8
M04
100
AcDbLine
 10
526.447241
 20
254.786474
 30
0.0
 11
526.447241
 21
257.286474
 31
0.0
  0
LINE
  5
BD
102
{ACAD_REACTORS
330
95
102
}
100
AcDbEntity
  8
M04
100
AcDbLine
 10
527.147241
 20
255.486474
 30
0.0
 11
527.147241
 21
258.786474
 31
0.0
  0
LINE
  5
BE
102
{ACAD_REACTORS
330
93
102
}
100
AcDbEntity
  8
M05
100
AcDbLine
 10
524.197241
 20
245.486474
 30
0.0
 11
534.697241
 21
245.486474
 31
0.0
  0
LINE
  5
BF
102
{ACAD_REACTORS
330
93
102
}
100
AcDbEntity
  8
M04
100
AcDbLine
 10
534.697241
 20
245.486474
 30
0.0
 11
534.947241
 21
245.486474
 31
0.0
  0
LINE
  5
C0
102
{ACAD_REACTORS
330
93
102
}
100
AcDbEntity
  8
M04
100
AcDbLine
 10
523.947241
 20
245.486474
 30
0.0
 11
523.947241
 21
241.486474
 31
0.0
  0
LINE
  5
C1
102
{ACAD_REACTORS
330
93
102
}
100
AcDbEntity
  8
M04
100
AcDbLine
 10
534.947241
 20
245.486474
 30
0.0
 11
534.947241
 21
241.486474
 31
0.0
  0
LINE
  5
C2
100
AcDbEntity
  8
M05
100
AcDbLine
 10
532.447241
 20
246.486474
 30
0.0
 11
526.447241
 21
246.486474
 31
0.0
  0
LINE
  5
C3
102
{ACAD_REACTORS
330
95
102
}
100
AcDbEntity
  8
M04
100
AcDbLine
 10
527.147241
 20
258.786474
 30
0.0
 11
529.447241
 21
260.11438
 31
0.0
  0
LINE
  5
C4
102
{ACAD_REACTORS
330
95
102
}
100
AcDbEntity
  8
M04
100
AcDbLine
 10
531.747241
 20
258.786474
 30
0.0
 11
529.447241
 21
260.11438
 31
0.0
  0
LINE
  5
C5
100
AcDbEntity
  8
M04
100
AcDbLine
 10
531.747241
 20
258.786474
 30
0.0
 11
527.147241
 21
258.786474
 31
0.0
  0
LINE
  5
C6
102
{ACAD_REACTORS
330
95
102
}
100
AcDbEntity
  8
M04
100
AcDbLine
 10
532.447241
 20
257.286474
 30
0.0
 11
526.447241
 21
257.286474
 31
0.0
  0
ARC
  5
C7
100
AcDbEntity
  8
M05
100
AcDbCircle
 10
529.447241
 20
248.012611
 30
0.0
 40
5.826136
100
AcDbArc
 50
205.69541
 51
334.30459
  0
LINE
  5
C8
100
AcDbEntity
  8
M05
100
AcDbLine
 10
526.447241
 20
254.786474
 30
0.0
 11
527.147241
 21
255.486474
 31
0.0
  0
LINE
  5
C9
100
AcDbEntity
  8
M05
100
AcDbLine
 10
532.447241
 20
254.786474
 30
0.0
 11
531.747241
 21
255.486474
 31
0.0
  0
LINE
  5
CA
100
AcDbEntity
  8
M05
100
AcDbLine
 10
532.447241
 20
254.786474
 30
0.0
 11
526.447241
 21
254.786474
 31
0.0
  0
LINE
  5
CB
100
AcDbEntity
  8
M05
100
AcDbLine
 10
531.747241
 20
255.486474
 30
0.0
 11
527.147241
 21
255.486474
 31
0.0
  0
LINE
  5
CC
102
{ACAD_REACTORS
330
93
102
}
100
AcDbEntity
  8
M04
100
AcDbLine
 10
533.147241
 20
247.486474
 30
0.0
 11
533.147241
 21
245.486474
 31
0.0
  0
LINE
  5
CD
102
{ACAD_REACTORS
330
93
102
}
100
AcDbEntity
  8
M04
100
AcDbLine
 10
525.747241
 20
247.486474
 30
0.0
 11
525.747241
 21
245.486474
 31
0.0
  0
LINE
  5
CE
100
AcDbEntity
  8
M05
100
AcDbLine
 10
527.147241
 20
255.486474
 30
0.0
 11
527.147241
 21
246.486474
 31
0.0
  0
LINE
  5
CF
100
AcDbEntity
  8
M05
100
AcDbLine
 10
531.747241
 20
255.486474
 30
0.0
 11
531.747241
 21
246.486474
 31
0.0
  0
LINE
  5
D0
102
{ACAD_REACTORS
330
95
102
}
100
AcDbEntity
  8
M05
100
AcDbLine
 10
532.447241
 20
254.786474
 30
0.0
 11
532.447241
 21
245.486474
 31
0.0
  0
LINE
  5
D1
102
{ACAD_REACTORS
330
95
102
}
100
AcDbEntity
  8
M05
100
AcDbLine
 10
526.447241
 20
254.786474
 30
0.0
 11
526.447241
 21
245.486474
 31
0.0
  0
LINE
  5
D2
102
{ACAD_REACTORS
330
93
102
}
100
AcDbEntity
  8
M04
100
AcDbLine
 10
523.947241
 20
245.486474
 30
0.0
 11
524.197241
 21
245.486474
 31
0.0
  0
LINE
  5
D3
100
AcDbEntity
  8
CENTRE
100
AcDbLine
 10
529.447241
 20
262.752975
 30
0.0
 11
529.447241
 21
237.840286
 31
0.0
  0
LINE
  5
D6
102
{ACAD_REACTORS
330
95
330
93
102
}
100
AcDbEntity
  8
M01
100
AcDbLine
 10
584.447241
 20
247.486474
 30
0.0
 11
660.447241
 21
247.486474
 31
0.0
  0
LINE
  5
D7
102
{ACAD_REACTORS
330
95
102
}
100
AcDbEntity
  8
M04
100
AcDbLine
 10
578.447241
 20
254.786474
 30
0.0
 11
578.447241
 21
257.286474
 31
0.0
  0
LINE
  5
D8
102
{ACAD_REACTORS
330
95
102
}
100
AcDbEntity
  8
M04
100
AcDbLine
 10
579.147241
 20
255.486474
 30
0.0
 11
579.147241
 21
258.786474
 31
0.0
  0
LINE
  5
D9
102
{ACAD_REACTORS
330
95
102
}
100
AcDbEntity
  8
M04
100
AcDbLine
 10
584.447241
 20
254.786474
 30
0.0
 11
584.447241
 21
257.286474
 31
0.0
  0
LINE
  5
DA
102
{ACAD_REACTORS
330
95
102
}
100
AcDbEntity
  8
M04
100
AcDbLine
 10
583.747241
 20
255.486474
 30
0.0
 11
583.747241
 21
258.786474
 31
0.0
  0
LINE
  5
DB
102
{ACAD_REACTORS
330
93
102
}
100
AcDbEntity
  8
M05
100
AcDbLine
 10
586.697241
 20
245.486474
 30
0.0
 11
576.197241
 21
245.486474
 31
0.0
  0
LINE
  5
DC
102
{ACAD_REACTORS
330
93
102
}
100
AcDbEntity
  8
M04
100
AcDbLine
 10
576.197241
 20
245.486474
 30
0.0
 11
575.947241
 21
245.486474
 31
0.0
  0
LINE
  5
DD
102
{ACAD_REACTORS
330
93
102
}
100
AcDbEntity
  8
M04
100
AcDbLine
 10
586.947241
 20
245.486474
 30
0.0
 11
586.947241
 21
241.486474
 31
0.0
  0
LINE
  5
DE
102
{ACAD_REACTORS
330
93
102
}
100
AcDbEntity
  8
M04
100
AcDbLine
 10
575.947241
 20
245.486474
 30
0.0
 11
575.947241
 21
241.486474
 31
0.0
  0
LINE
  5
DF
100
AcDbEntity
  8
M05
100
AcDbLine
 10
578.447241
 20
246.486474
 30
0.0
 11
584.447241
 21
246.486474
 31
0.0
  0
LINE
  5
E0
102
{ACAD_REACTORS
330
95
102
}
100
AcDbEntity
  8
M04
100
AcDbLine
 10
583.747241
 20
258.786474
 30
0.0
 11
581.447241
 21
260.11438
 31
0.0
  0
LINE
  5
E1
102
{ACAD_REACTORS
330
95
102
}
100
AcDbEntity
  8
M04
100
AcDbLine
 10
579.147241
 20
258.786474
 30
0.0
 11
581.447241
 21
260.11438
 31
0.0
  0
LINE
  5
E2
100
AcDbEntity
  8
M04
100
AcDbLine
 10
579.147241
 20
258.786474
 30
0.0
 11
583.747241
 21
258.786474
 31
0.0
  0
LINE
  5
E3
102
{ACAD_REACTORS
330
95
102
}
100
AcDbEntity
  8
M04
100
AcDbLine
 10
578.447241
 20
257.286474
 30
0.0
 11
584.447241
 21
257.286474
 31
0.0
  0
ARC
  5
E4
100
AcDbEntity
  8
M05
100
AcDbCircle
 10
581.447241
 20
248.012611
 30
0.0
 40
5.826136
100
AcDbArc
 50
205.69541
 51
334.30459
  0
LINE
  5
E5
100
AcDbEntity
  8
M05
100
AcDbLine
 10
584.447241
 20
254.786474
 30
0.0
 11
583.747241
 21
255.486474
 31
0.0
  0
LINE
  5
E6
100
AcDbEntity
  8
M05
100
AcDbLine
 10
578.447241
 20
254.786474
 30
0.0
 11
579.147241
 21
255.486474
 31
0.0
  0
LINE
  5
E7
100
AcDbEntity
  8
M05
100
AcDbLine
 10
578.447241
 20
254.786474
 30
0.0
 11
584.447241
 21
254.786474
 31
0.0
  0
LINE
  5
E8
100
AcDbEntity
  8
M05
100
AcDbLine
 10
579.147241
 20
255.486474
 30
0.0
 11
583.747241
 21
255.486474
 31
0.0
  0
LINE
  5
E9
102
{ACAD_REACTORS
330
93
102
}
100
AcDbEntity
  8
M04
100
AcDbLine
 10
577.747241
 20
247.486474
 30
0.0
 11
577.747241
 21
245.486474
 31
0.0
  0
LINE
  5
EA
102
{ACAD_REACTORS
330
93
102
}
100
AcDbEntity
  8
M04
100
AcDbLine
 10
585.147241
 20
247.486474
 30
0.0
 11
585.147241
 21
245.486474
 31
0.0
  0
LINE
  5
EB
100
AcDbEntity
  8
M05
100
AcDbLine
 10
583.747241
 20
255.486474
 30
0.0
 11
583.747241
 21
246.486474
 31
0.0
  0
LINE
  5
EC
100
AcDbEntity
  8
M05
100
AcDbLine
 10
579.147241
 20
255.486474
 30
0.0
 11
579.147241
 21
246.486474
 31
0.0
  0
LINE
  5
ED
102
{ACAD_REACTORS
330
95
102
}
100
AcDbEntity
  8
M05
100
AcDbLine
 10
578.447241
 20
254.786474
 30
0.0
 11
578.447241
 21
245.486474
 31
0.0
  0
LINE
  5
EE
102
{ACAD_REACTORS
330
95
102
}
100
AcDbEntity
  8
M05
100
AcDbLine
 10
584.447241
 20
254.786474
 30
0.0
 11
584.447241
 21
245.486474
 31
0.0
  0
LINE
  5
EF
102
{ACAD_REACTORS
330
93
102
}
100
AcDbEntity
  8
M04
100
AcDbLine
 10
586.947241
 20
245.486474
 30
0.0
 11
586.697241
 21
245.486474
 31
0.0
  0
LINE
  5
F0
100
AcDbEntity
  8
CENTRE
100
AcDbLine
 10
581.447241
 20
262.752975
 30
0.0
 11
581.447241
 21
237.840286
 31
0.0
  0
LINE
  5
F1
100
AcDbEntity
  8
DIMS
 62
     4
100
AcDbLine
 10
821.860108
 20
435.959226
 30
0.0
 11
821.860108
 21
438.259226
 31
0.0
  0
LINE
  5
F2
100
AcDbEntity
  8
DIMS
 62
     4
100
AcDbLine
 10
821.860108
 20
429.159226
 30
0.0
 11
821.860108
 21
426.859226
 31
0.0
  0
LINE
  5
F3
100
AcDbEntity
  8
DIMS
 62
     4
100
AcDbLine
 10
821.860108
 20
430.859226
 30
0.0
 11
821.860108
 21
434.259226
 31
0.0
  0
LINE
  5
F4
100
AcDbEntity
  8
DIMS
 62
     4
100
AcDbLine
 10
841.360108
 20
412.959226
 30
0.0
 11
841.360108
 21
415.259226
 31
0.0
  0
LINE
  5
F5
100
AcDbEntity
  8
DIMS
 62
     4
100
AcDbLine
 10
841.360108
 20
406.159226
 30
0.0
 11
841.360108
 21
403.859226
 31
0.0
  0
LINE
  5
F6
100
AcDbEntity
  8
DIMS
 62
     4
100
AcDbLine
 10
844.760108
 20
409.559226
 30
0.0
 11
847.060108
 21
409.559226
 31
0.0
  0
LINE
  5
F7
100
AcDbEntity
  8
DIMS
 62
     4
100
AcDbLine
 10
837.960108
 20
409.559226
 30
0.0
 11
835.660108
 21
409.559226
 31
0.0
  0
LINE
  5
F8
100
AcDbEntity
  8
DIMS
 62
     4
100
AcDbLine
 10
841.360108
 20
407.859226
 30
0.0
 11
841.360108
 21
411.259226
 31
0.0
  0
LINE
  5
F9
100
AcDbEntity
  8
DIMS
 62
     4
100
AcDbLine
 10
839.660108
 20
409.559226
 30
0.0
 11
843.060108
 21
409.559226
 31
0.0
  0
LINE
  5
FA
100
AcDbEntity
  8
DIMS
 62
     4
100
AcDbLine
 10
802.360108
 20
412.959226
 30
0.0
 11
802.360108
 21
415.259226
 31
0.0
  0
LINE
  5
FB
100
AcDbEntity
  8
DIMS
 62
     4
100
AcDbLine
 10
802.360108
 20
406.159226
 30
0.0
 11
802.360108
 21
403.859226
 31
0.0
  0
LINE
  5
FC
100
AcDbEntity
  8
DIMS
 62
     4
100
AcDbLine
 10
805.760108
 20
409.559226
 30
0.0
 11
808.060108
 21
409.559226
 31
0.0
  0
LINE
  5
FD
100
AcDbEntity
  8
DIMS
 62
     4
100
AcDbLine
 10
798.960108
 20
409.559226
 30
0.0
 11
796.660108
 21
409.559226
 31
0.0
  0
LINE
  5
FE
100
AcDbEntity
  8
DIMS
 62
     4
100
AcDbLine
 10
802.360108
 20
407.859226
 30
0.0
 11
802.360108
 21
411.259226
 31
0.0
  0
LINE
  5
FF
100
AcDbEntity
  8
DIMS
 62
     4
100
AcDbLine
 10
800.660108
 20
409.559226
 30
0.0
 11
804.060108
 21
409.559226
 31
0.0
  0
HATCH
  5
100
100
AcDbEntity
  8
HATCH
100
AcDbHatch
 10
0.0
 20
0.0
 30
0.0
210
0.0
220
0.0
230
1.0
  2
_U
 70
     0
 71
     0
 91
        3
 92
        7
 72
     1
 73
     1
 93
       29
 10
845.3601080691216
 20
506.559226081063
 42
0.0
 10
843.3601080691218
 20
508.5592260810631
 42
0.0
 10
804.3601080691217
 20
508.5592260810631
 42
0.0
 10
804.3601080691217
 20
496.559226081063
 42
0.0
 10
798.3601080691219
 20
496.559226081063
 42
0.0
 10
798.3601080691219
 20
442.059226081063
 42
0.0
 10
802.3601080691218
 20
442.059226081063
 42
0.0
 10
803.3601080691218
 20
442.059226081063
 42
0.0
 10
803.3601080691218
 20
441.059226081063
 42
0.0
 10
803.3601080691219
 20
432.5592260810631
 42
0.0
 10
817.8601080691217
 20
432.5592260810631
 42
-0.4142135623730951
 10
821.8601080691216
 20
436.5592260810631
 42
0.0
 10
835.3601080691218
 20
436.559226081063
 42
0.0
 10
835.3601080691218
 20
441.559226081063
 42
0.0
 10
835.3601080691218
 20
442.5592260810629
 42
0.0
 10
836.3601080691218
 20
442.5592260810629
 42
0.0
 10
844.8601080691217
 20
442.5592260810629
 42
0.0
 10
845.3601080691218
 20
443.059226081063
 42
0.0
 10
845.3601080691216
 20
455.5592260810632
 42
0.0
 10
838.0601080691215
 20
455.5592260810632
 42
0.0
 10
835.5601080691217
 20
455.5592260810631
 42
0.0
 10
835.5601080691217
 20
456.2592260810633
 42
0.0
 10
834.0601080691216
 20
456.2592260810632
 42
0.0
 10
832.7322024499856
 20
458.559226081063
 42
0.0
 10
834.0601080691216
 20
460.8592260810632
 42
0.0
 10
835.5601080691217
 20
460.8592260810633
 42
0.0
 10
835.5601080691219
 20
461.5592260810633
 42
0.0
 10
838.0601080691215
 20
461.5592260810632
 42
0.0
 10
845.3601080691216
 20
461.5592260810632
 42
0.0
 97
        0
 92
        7
 72
     1
 73
     1
 93
       27
 10
845.3601080691218
 20
405.5592260810631
 42
0.0
 10
841.3601080691217
 20
405.5592260810631
 42
-0.4142135623730951
 10
837.3601080691216
 20
409.5592260810631
 42
-0.4142135623730951
 10
841.3601080691217
 20
413.559226081063
 42
0.0
 10
845.3601080691216
 20
413.559226081063
 42
0.0
 10
845.3601080691218
 20
422.0592260810632
 42
0.0
 10
844.8601080691219
 20
422.5592260810631
 42
0.0
 10
836.3601080691218
 20
422.5592260810631
 42
0.0
 10
835.3601080691218
 20
422.5592260810633
 42
0.0
 10
835.3601080691218
 20
423.5592260810632
 42
0.0
 10
835.3601080691218
 20
428.5592260810631
 42
0.0
 10
821.8601080691216
 20
428.5592260810631
 42
-0.4142135623730951
 10
817.8601080691217
 20
432.5592260810631
 42
0.0
 10
803.3601080691216
 20
432.5592260810632
 42
0.0
 10
803.3601080691218
 20
424.0592260810632
 42
0.0
 10
803.3601080691218
 20
423.0592260810631
 42
0.0
 10
802.3601080691218
 20
423.0592260810631
 42
0.0
 10
798.3601080691219
 20
423.0592260810631
 42
0.0
 10
798.3601080691219
 20
413.5592260810632
 42
0.0
 10
802.3601080691218
 20
413.559226081063
 42
-0.4142135623730868
 10
806.3601080691217
 20
409.5592260810631
 42
-0.4142135623730951
 10
802.3601080691216
 20
405.5592260810631
 42
0.0
 10
798.3601080691218
 20
405.5592260810631
 42
0.0
 10
798.3601080691218
 20
402.5592260810633
 42
0.0
 10
800.3601080691218
 20
400.5592260810631
 42
0.0
 10
843.3601080691218
 20
400.559226081063
 42
0.0
 10
845.3601080691218
 20
402.5592260810632
 42
0.0
 97
        0
 92
       24
 93
        4
 72
     1
 10
813.438602
 20
415.402793
 11
827.552887
 21
415.402793
 72
     1
 10
827.552887
 20
415.402793
 11
827.552887
 21
418.402793
 72
     1
 10
827.552887
 20
418.402793
 11
813.438602
 21
418.402793
 72
     1
 10
813.438602
 20
418.402793
 11
813.438602
 21
415.402793
 97
        0
 75
     0
 76
     0
 52
45.0
 41
6.0
 77
     0
 78
     1
 53
45.0
 43
23.770001
 44
0.0
 45
-4.242640687119284
 46
4.242640687119285
 79
     0
 47
0.350126
 98
        2
 10
826.577636
 20
475.451457
 10
820.9733
 20
405.426186
  0
HATCH
  5
101
100
AcDbEntity
  8
HATCH
100
AcDbHatch
 10
0.0
 20
0.0
 30
0.0
210
0.0
220
0.0
230
1.0
  2
_U
 70
     0
 71
     1
 91
        2
 92
        7
 72
     1
 73
     1
 93
        2
 10
806.3601080691217
 20
409.5592260810631
 42
1.0
 10
798.3601080691216
 20
409.5592260810631
 42
1.0
 97
        1
330
107
 92
        7
 72
     1
 73
     1
 93
        2
 10
837.3601080691216
 20
409.5592260810631
 42
1.0
 10
845.3601080691216
 20
409.5592260810631
 42
1.0
 97
        1
330
106
 75
     0
 76
     0
 52
45.0
 41
0.8
 77
     0
 78
     1
 53
45.0
 43
23.770001
 44
0.0
 45
-0.565685424949238
 46
0.565685424949238
 79
     0
 47
0.095608
 98
        2
 10
802.493456
 20
409.258585
 10
841.517647
 20
410.405882
  0
LINE
  5
102
100
AcDbEntity
  8
M01
100
AcDbLine
 10
841.360108
 20
405.559226
 30
0.0
 11
845.360108
 21
405.559226
 31
0.0
  0
LINE
  5
103
100
AcDbEntity
  8
M01
100
AcDbLine
 10
841.360108
 20
413.559226
 30
0.0
 11
845.360108
 21
413.559226
 31
0.0
  0
LINE
  5
104
100
AcDbEntity
  8
M01
100
AcDbLine
 10
802.360108
 20
405.559226
 30
0.0
 11
798.360108
 21
405.559226
 31
0.0
  0
LINE
  5
105
100
AcDbEntity
  8
M01
100
AcDbLine
 10
802.360108
 20
413.559226
 30
0.0
 11
798.360108
 21
413.559226
 31
0.0
  0
CIRCLE
  5
106
102
{ACAD_REACTORS
330
101
102
}
100
AcDbEntity
  8
M01
100
AcDbCircle
 10
841.360108
 20
409.559226
 30
0.0
 40
4.0
  0
CIRCLE
  5
107
102
{ACAD_REACTORS
330
101
102
}
100
AcDbEntity
  8
M01
100
AcDbCircle
 10
802.360108
 20
409.559226
 30
0.0
 40
4.0
  0
LINE
  5
108
100
AcDbEntity
  8
DIMS
 62
     4
100
AcDbLine
 10
529.447241
 20
435.959226
 30
0.0
 11
529.447241
 21
439.759226
 31
0.0
  0
LINE
  5
109
100
AcDbEntity
  8
DIMS
 62
     4
100
AcDbLine
 10
529.447241
 20
429.159226
 30
0.0
 11
529.447241
 21
425.359226
 31
0.0
  0
LINE
  5
10A
100
AcDbEntity
  8
DIMS
 62
     4
100
AcDbLine
 10
529.447241
 20
430.859226
 30
0.0
 11
529.447241
 21
434.259226
 31
0.0
  0
LINE
  5
10B
100
AcDbEntity
  8
DIMS
 62
     4
100
AcDbLine
 10
581.447241
 20
435.959226
 30
0.0
 11
581.447241
 21
439.759226
 31
0.0
  0
LINE
  5
10C
100
AcDbEntity
  8
DIMS
 62
     4
100
AcDbLine
 10
581.447241
 20
429.159226
 30
0.0
 11
581.447241
 21
425.359226
 31
0.0
  0
LINE
  5
10D
100
AcDbEntity
  8
DIMS
 62
     4
100
AcDbLine
 10
581.447241
 20
430.859226
 30
0.0
 11
581.447241
 21
434.259226
 31
0.0
  0
LINE
  5
10E
100
AcDbEntity
  8
DIMS
 62
     4
100
AcDbLine
 10
558.847241
 20
458.559226
 30
0.0
 11
562.647241
 21
458.559226
 31
0.0
  0
LINE
  5
10F
100
AcDbEntity
  8
DIMS
 62
     4
100
AcDbLine
 10
552.047241
 20
458.559226
 30
0.0
 11
548.247241
 21
458.559226
 31
0.0
  0
LINE
  5
110
100
AcDbEntity
  8
DIMS
 62
     4
100
AcDbLine
 10
553.747241
 20
458.559226
 30
0.0
 11
557.147241
 21
458.559226
 31
0.0
  0
HATCH
  5
111
100
AcDbEntity
  8
HATCH
100
AcDbHatch
 10
0.0
 20
0.0
 30
0.0
210
0.0
220
0.0
230
1.0
  2
_U
 70
     0
 71
     1
 91
        4
 92
        7
 72
     0
 73
     1
 93
        9
 10
851.3601080691216
 20
464.0592260810633
 10
851.3601080691218
 20
465.8592260810632
 10
850.6601080691217
 20
466.5592260810632
 10
846.0601080691217
 20
466.5592260810633
 10
845.3601080691216
 20
465.8592260810634
 10
845.3601080691216
 20
462.2592260810631
 10
847.3601080691217
 20
462.2592260810633
 10
847.3601080691217
 20
463.8092260810633
 10
847.3601080691217
 20
464.0592260810631
 97
        9
330
3FB
330
3FE
330
3FA
330
478
330
126
330
117
330
12B
330
119
330
3FD
 92
        7
 72
     1
 73
     1
 93
       16
 10
845.3601080691218
 20
442.5592260810629
 42
0.0
 10
836.3601080691218
 20
442.5592260810629
 42
0.0
 10
835.3601080691218
 20
441.559226081063
 42
0.0
 10
835.3601080691218
 20
436.5592260810631
 42
0.0
 10
853.6613224160205
 20
435.600100078959
 42
-0.1092323044357274
 10
856.3601080691217
 20
441.7243774709747
 42
0.0
 10
856.3601080691219
 20
451.8592260810629
 42
0.0
 10
855.6601080691216
 20
452.559226081063
 42
0.0
 10
854.3601080691214
 20
452.559226081063
 42
0.0
 10
854.3601080691216
 20
452.059226081063
 42
0.0
 10
851.3601080691218
 20
452.059226081063
 42
0.0
 10
851.3601080691218
 20
453.0592260810633
 42
0.0
 10
847.3601080691217
 20
453.0592260810633
 42
0.0
 10
847.3601080691217
 20
453.3092260810632
 42
0.0
 10
847.3601080691217
 20
454.8592260810631
 42
0.0
 10
845.3601080691218
 20
454.8592260810632
 42
0.0
 97
       16
330
3F0
330
3F3
330
3ED
330
3EC
330
3FD
330
11A
330
118
330
117
330
125
330
116
330
407
330
403
330
405
330
3E1
330
3E2
330
3F1
 92
        7
 72
     1
 73
     1
 93
       16
 10
845.3601080691218
 20
402.5592260810631
 42
0.0
 10
845.3601080691216
 20
400.559226081063
 42
0.0
 10
846.0601080691217
 20
399.859226081063
 42
0.0
 10
850.6601080691218
 20
399.8592260810632
 42
0.0
 10
851.3601080691216
 20
400.559226081063
 42
0.0
 10
851.3601080691216
 20
413.059226081063
 42
0.0
 10
854.3601080691221
 20
413.0592260810631
 42
0.0
 10
854.3601080691217
 20
412.5592260810631
 42
0.0
 10
855.6601080691221
 20
412.5592260810631
 42
0.0
 10
856.3601080691221
 20
413.259226081063
 42
0.0
 10
856.3601080691219
 20
423.3940746911513
 42
-0.1092323044357282
 10
853.6613224160205
 20
429.5183520831669
 42
0.0
 10
835.3601080691218
 20
428.5592260810632
 42
0.0
 10
835.3601080691216
 20
423.5592260810633
 42
0.0
 10
836.3601080691218
 20
422.5592260810632
 42
0.0
 10
845.3601080691219
 20
422.5592260810631
 42
0.0
 97
       16
330
3DE
330
3E0
330
405
330
404
330
406
330
3F5
330
20F
330
3F7
330
3F9
330
3F8
330
3EA
330
3EB
330
3E9
330
3F2
330
3EF
330
3F1
 92
       24
 93
        4
 72
     1
 10
837.36676
 20
437.880683
 11
851.738188
 21
437.880683
 72
     1
 10
851.738188
 20
437.880683
 11
851.738188
 21
440.880683
 72
     1
 10
851.738188
 20
440.880683
 11
837.36676
 21
440.880683
 72
     1
 10
837.36676
 20
440.880683
 11
837.36676
 21
437.880683
 97
        1
330
36E
 75
     0
 76
     0
 52
135.0
 41
2.5
 77
     0
 78
     1
 53
135.0
 43
23.770001
 44
0.0
 45
-1.767766952966368
 46
-1.767766952966368
 79
     0
 47
0.115254
 98
        3
 10
848.186116
 20
464.76431
 10
850.030935
 20
442.866133
 10
849.915633
 20
421.77473
  0
LINE
  5
112
100
AcDbEntity
  8
M04
100
AcDbLine
 10
838.060108
 20
455.559226
 30
0.0
 11
835.560108
 21
455.559226
 31
0.0
  0
LINE
  5
113
100
AcDbEntity
  8
M04
100
AcDbLine
 10
837.360108
 20
456.259226
 30
0.0
 11
834.060108
 21
456.259226
 31
0.0
  0
LINE
  5
114
100
AcDbEntity
  8
M04
100
AcDbLine
 10
838.060108
 20
461.559226
 30
0.0
 11
835.560108
 21
461.559226
 31
0.0
  0
LINE
  5
115
100
AcDbEntity
  8
M04
100
AcDbLine
 10
837.360108
 20
460.859226
 30
0.0
 11
834.060108
 21
460.859226
 31
0.0
  0
LINE
  5
116
102
{ACAD_REACTORS
330
111
102
}
100
AcDbEntity
  8
M01
100
AcDbLine
 10
845.360108
 20
455.559226
 30
0.0
 11
845.360108
 21
442.559226
 31
0.0
  0
LINE
  5
117
102
{ACAD_REACTORS
330
111
102
}
100
AcDbEntity
  8
M05
100
AcDbLine
 10
847.360108
 20
463.809226
 30
0.0
 11
847.360108
 21
453.309226
 31
0.0
  0
LINE
  5
118
102
{ACAD_REACTORS
330
111
102
}
100
AcDbEntity
  8
M04
100
AcDbLine
 10
847.360108
 20
453.309226
 30
0.0
 11
847.360108
 21
453.059226
 31
0.0
  0
LINE
  5
119
102
{ACAD_REACTORS
330
111
102
}
100
AcDbEntity
  8
M04
100
AcDbLine
 10
847.360108
 20
464.059226
 30
0.0
 11
851.360108
 21
464.059226
 31
0.0
  0
LINE
  5
11A
102
{ACAD_REACTORS
330
111
102
}
100
AcDbEntity
  8
M04
100
AcDbLine
 10
847.360108
 20
453.059226
 30
0.0
 11
851.360108
 21
453.059226
 31
0.0
  0
LINE
  5
11B
100
AcDbEntity
  8
M05
100
AcDbLine
 10
846.360108
 20
455.559226
 30
0.0
 11
846.360108
 21
461.559226
 31
0.0
  0
LINE
  5
11C
100
AcDbEntity
  8
M04
100
AcDbLine
 10
834.060108
 20
460.859226
 30
0.0
 11
832.732202
 21
458.559226
 31
0.0
  0
LINE
  5
11D
100
AcDbEntity
  8
M04
100
AcDbLine
 10
834.060108
 20
456.259226
 30
0.0
 11
832.732202
 21
458.559226
 31
0.0
  0
LINE
  5
11E
100
AcDbEntity
  8
M04
100
AcDbLine
 10
834.060108
 20
456.259226
 30
0.0
 11
834.060108
 21
460.859226
 31
0.0
  0
LINE
  5
11F
100
AcDbEntity
  8
M04
100
AcDbLine
 10
835.560108
 20
455.559226
 30
0.0
 11
835.560108
 21
461.559226
 31
0.0
  0
ARC
  5
120
100
AcDbEntity
  8
M05
100
AcDbCircle
 10
844.833972
 20
458.559226
 30
0.0
 40
5.826136
100
AcDbArc
 50
295.69541
 51
64.30459
  0
LINE
  5
121
100
AcDbEntity
  8
M05
100
AcDbLine
 10
838.060108
 20
461.559226
 30
0.0
 11
837.360108
 21
460.859226
 31
0.0
  0
LINE
  5
122
100
AcDbEntity
  8
M05
100
AcDbLine
 10
838.060108
 20
455.559226
 30
0.0
 11
837.360108
 21
456.259226
 31
0.0
  0
LINE
  5
123
100
AcDbEntity
  8
M05
100
AcDbLine
 10
838.060108
 20
455.559226
 30
0.0
 11
838.060108
 21
461.559226
 31
0.0
  0
LINE
  5
124
100
AcDbEntity
  8
M05
100
AcDbLine
 10
837.360108
 20
456.259226
 30
0.0
 11
837.360108
 21
460.859226
 31
0.0
  0
LINE
  5
125
102
{ACAD_REACTORS
330
111
102
}
100
AcDbEntity
  8
M04
100
AcDbLine
 10
845.360108
 20
454.859226
 30
0.0
 11
847.360108
 21
454.859226
 31
0.0
  0
LINE
  5
126
102
{ACAD_REACTORS
330
111
102
}
100
AcDbEntity
  8
M04
100
AcDbLine
 10
845.360108
 20
462.259226
 30
0.0
 11
847.360108
 21
462.259226
 31
0.0
  0
LINE
  5
127
100
AcDbEntity
  8
M05
100
AcDbLine
 10
837.360108
 20
460.859226
 30
0.0
 11
846.360108
 21
460.859226
 31
0.0
  0
LINE
  5
128
100
AcDbEntity
  8
M05
100
AcDbLine
 10
837.360108
 20
456.259226
 30
0.0
 11
846.360108
 21
456.259226
 31
0.0
  0
LINE
  5
129
100
AcDbEntity
  8
M05
100
AcDbLine
 10
838.060108
 20
455.559226
 30
0.0
 11
847.360108
 21
455.559226
 31
0.0
  0
LINE
  5
12A
100
AcDbEntity
  8
M05
100
AcDbLine
 10
838.060108
 20
461.559226
 30
0.0
 11
847.360108
 21
461.559226
 31
0.0
  0
LINE
  5
12B
102
{ACAD_REACTORS
330
111
102
}
100
AcDbEntity
  8
M04
100
AcDbLine
 10
847.360108
 20
464.059226
 30
0.0
 11
847.360108
 21
463.809226
 31
0.0
  0
LINE
  5
12C
100
AcDbEntity
  8
CENTRE
100
AcDbLine
 10
830.093608
 20
458.559226
 30
0.0
 11
855.006296
 21
458.559226
 31
0.0
  0
MTEXT
  5
12D
102
{ACAD_REACTORS
330
12E
102
}
100
AcDbEntity
  8
DIMS
 62
     2
100
AcDbMText
 10
488.901239
 20
381.120852
 30
0.0
 40
3.0
 41
0.0
 71
     9
 72
     5
  1
HGX10037
  0
LEADER
  5
12E
100
AcDbEntity
  8
DIMS
 62
     4
100
AcDbLeader
  3
DIM1$7
 73
     0
 75
     1
 40
3.0
 41
21.857143
 76
     3
 10
505.97169
 20
402.973989
 30
0.0
 10
493.401239
 20
382.620852
 30
0.0
 10
490.401239
 20
382.620852
 30
0.0
 77
   256
340
12D
213
0.0
223
1.5
233
0.0
1001
ACAD
1000
DSTYLE
1002
{
1070
   288
1070
     1
1070
   144
1040
1.0
1002
}
  0
CIRCLE
  5
130
100
AcDbEntity
  8
M03
100
AcDbCircle
 10
581.447241
 20
432.559226
 30
0.0
 40
2.3
  0
ARC
  5
131
100
AcDbEntity
  8
M03
100
AcDbCircle
 10
581.447241
 20
432.559226
 30
0.0
 40
3.0
100
AcDbArc
 50
167.784636
 51
96.923103
  0
CIRCLE
  5
132
100
AcDbEntity
  8
M03
100
AcDbCircle
 10
581.447241
 20
432.559226
 30
0.0
 40
5.5
  0
CIRCLE
  5
133
100
AcDbEntity
  8
M03
100
AcDbCircle
 10
529.447241
 20
432.559226
 30
0.0
 40
2.3
  0
ARC
  5
134
100
AcDbEntity
  8
M03
100
AcDbCircle
 10
529.447241
 20
432.559226
 30
0.0
 40
3.0
100
AcDbArc
 50
167.784636
 51
96.923103
  0
CIRCLE
  5
135
100
AcDbEntity
  8
M03
100
AcDbCircle
 10
529.447241
 20
432.559226
 30
0.0
 40
5.5
  0
CIRCLE
  5
136
100
AcDbEntity
  8
M03
100
AcDbCircle
 10
555.447241
 20
458.559226
 30
0.0
 40
2.3
  0
ARC
  5
137
100
AcDbEntity
  8
M03
100
AcDbCircle
 10
555.447241
 20
458.559226
 30
0.0
 40
3.0
100
AcDbArc
 50
167.784636
 51
96.923103
  0
CIRCLE
  5
138
100
AcDbEntity
  8
M03
100
AcDbCircle
 10
555.447241
 20
458.559226
 30
0.0
 40
5.5
  0
LINE
  5
139
100
AcDbEntity
  8
M03
100
AcDbLine
 10
517.747241
 20
418.059226
 30
0.0
 11
515.447241
 21
419.387132
 31
0.0
  0
LINE
  5
13A
100
AcDbEntity
  8
M03
100
AcDbLine
 10
513.147241
 20
418.059226
 30
0.0
 11
515.447241
 21
419.387132
 31
0.0
  0
LINE
  5
13B
100
AcDbEntity
  8
M03
100
AcDbLine
 10
513.147241
 20
418.059226
 30
0.0
 11
517.747241
 21
418.059226
 31
0.0
  0
LINE
  5
13C
100
AcDbEntity
  8
M03
100
AcDbLine
 10
512.447241
 20
416.559226
 30
0.0
 11
518.447241
 21
416.559226
 31
0.0
  0
LINE
  5
13D
100
AcDbEntity
  8
M03
100
AcDbLine
 10
501.140178
 20
404.459226
 30
0.0
 11
461.901718
 21
404.459226
 31
0.0
  0
LINE
  5
13E
100
AcDbEntity
  8
M03
100
AcDbLine
 10
501.140178
 20
402.559226
 30
0.0
 11
461.901718
 21
402.559226
 31
0.0
  0
LINE
  5
13F
100
AcDbEntity
  8
M03
100
AcDbLine
 10
508.140178
 20
404.759226
 30
0.0
 11
522.447241
 21
404.759226
 31
0.0
  0
LINE
  5
140
100
AcDbEntity
  8
M03
100
AcDbLine
 10
507.095414
 20
405.559226
 30
0.0
 11
507.095414
 21
404.759226
 31
0.0
  0
LINE
  5
141
100
AcDbEntity
  8
M03
100
AcDbLine
 10
501.140178
 20
404.759226
 30
0.0
 11
501.140178
 21
402.259226
 31
0.0
  0
LINE
  5
142
100
AcDbEntity
  8
M03
100
AcDbLine
 10
501.140178
 20
402.259226
 30
0.0
 11
508.140178
 21
402.259226
 31
0.0
  0
LINE
  5
143
100
AcDbEntity
  8
M03
100
AcDbLine
 10
508.140178
 20
404.759226
 30
0.0
 11
508.140178
 21
402.259226
 31
0.0
  0
LINE
  5
144
100
AcDbEntity
  8
M03
100
AcDbLine
 10
522.447241
 20
405.559226
 30
0.0
 11
522.447241
 21
404.759226
 31
0.0
  0
ARC
  5
145
100
AcDbEntity
  8
M03
100
AcDbCircle
 10
515.447241
 20
407.285362
 30
0.0
 40
5.826136
100
AcDbArc
 50
205.69541
 51
334.30459
  0
LINE
  5
146
100
AcDbEntity
  8
M03
100
AcDbLine
 10
518.447241
 20
414.059226
 30
0.0
 11
517.747241
 21
414.759226
 31
0.0
  0
LINE
  5
147
100
AcDbEntity
  8
M03
100
AcDbLine
 10
512.447241
 20
414.059226
 30
0.0
 11
513.147241
 21
414.759226
 31
0.0
  0
LINE
  5
148
100
AcDbEntity
  8
M03
100
AcDbLine
 10
512.447241
 20
414.059226
 30
0.0
 11
518.447241
 21
414.059226
 31
0.0
  0
LINE
  5
149
100
AcDbEntity
  8
M03
100
AcDbLine
 10
513.147241
 20
414.759226
 30
0.0
 11
517.747241
 21
414.759226
 31
0.0
  0
LINE
  5
14A
100
AcDbEntity
  8
M03
100
AcDbLine
 10
518.447241
 20
405.559226
 30
0.0
 11
525.447241
 21
405.559226
 31
0.0
  0
LINE
  5
14B
100
AcDbEntity
  8
M03
100
AcDbLine
 10
501.747241
 20
405.559226
 30
0.0
 11
501.747241
 21
404.759226
 31
0.0
  0
LINE
  5
14C
100
AcDbEntity
  8
M03
100
AcDbLine
 10
519.147241
 20
405.559226
 30
0.0
 11
519.147241
 21
404.759226
 31
0.0
  0
LINE
  5
14D
100
AcDbEntity
  8
M03
100
AcDbLine
 10
517.747241
 20
418.059226
 30
0.0
 11
517.747241
 21
404.759226
 31
0.0
  0
LINE
  5
14E
100
AcDbEntity
  8
M03
100
AcDbLine
 10
513.147241
 20
418.059226
 30
0.0
 11
513.147241
 21
404.759226
 31
0.0
  0
LINE
  5
14F
100
AcDbEntity
  8
M03
100
AcDbLine
 10
512.447241
 20
416.559226
 30
0.0
 11
512.447241
 21
404.759226
 31
0.0
  0
LINE
  5
150
100
AcDbEntity
  8
M03
100
AcDbLine
 10
518.447241
 20
416.559226
 30
0.0
 11
518.447241
 21
404.759226
 31
0.0
  0
LINE
  5
151
100
AcDbEntity
  8
M03
100
AcDbLine
 10
501.140178
 20
404.759226
 30
0.0
 11
507.095414
 21
404.759226
 31
0.0
  0
LINE
  5
152
100
AcDbEntity
  8
M03
100
AcDbLine
 10
525.447241
 20
405.559226
 30
0.0
 11
525.447241
 21
400.559226
 31
0.0
  0
LINE
  5
153
100
AcDbEntity
  8
M03
100
AcDbLine
 10
455.447241
 20
405.559226
 30
0.0
 11
512.447241
 21
405.559226
 31
0.0
  0
LINE
  5
154
100
AcDbEntity
  8
CENTRE
100
AcDbLine
 10
515.447241
 20
423.757899
 30
0.0
 11
515.447241
 21
396.597749
 31
0.0
  0
DIMENSION
  5
155
100
AcDbEntity
  8
DIMS
100
AcDbDimension
  2
*D0
 10
763.683943
 20
499.059226
 30
0.0
 11
760.683943
 21
481.273512
 31
0.0
  1
%%c<> H7
  3
DIM1
100
AcDbAlignedDimension
 13
778.360108
 23
507.059226
 33
0.0
 14
778.360108
 24
499.059226
 34
0.0
 50
90.0
100
AcDbRotatedDimension
1001
ACAD
1000
DSTYLE
1002
{
1070
   144
1040
1.0
1002
}
  0
CIRCLE
  5
163
100
AcDbEntity
  8
M03
100
AcDbCircle
 10
500.447241
 20
432.559226
 30
0.0
 40
2.3
  0
ARC
  5
164
100
AcDbEntity
  8
M03
100
AcDbCircle
 10
500.447241
 20
432.559226
 30
0.0
 40
3.0
100
AcDbArc
 50
167.784636
 51
96.923103
  0
CIRCLE
  5
165
100
AcDbEntity
  8
M03
100
AcDbCircle
 10
610.447241
 20
432.559226
 30
0.0
 40
2.3
  0
ARC
  5
166
100
AcDbEntity
  8
M03
100
AcDbCircle
 10
610.447241
 20
432.559226
 30
0.0
 40
3.0
100
AcDbArc
 50
167.784636
 51
96.923103
  0
LINE
  5
167
100
AcDbEntity
  8
DIMS
 62
     4
100
AcDbLine
 10
500.447241
 20
435.959226
 30
0.0
 11
500.447241
 21
449.259226
 31
0.0
  0
LINE
  5
168
100
AcDbEntity
  8
DIMS
 62
     4
100
AcDbLine
 10
500.447241
 20
429.159226
 30
0.0
 11
500.447241
 21
415.859226
 31
0.0
  0
LINE
  5
169
100
AcDbEntity
  8
DIMS
 62
     4
100
AcDbLine
 10
500.447241
 20
430.859226
 30
0.0
 11
500.447241
 21
434.259226
 31
0.0
  0
LINE
  5
16A
100
AcDbEntity
  8
DIMS
 62
     4
100
AcDbLine
 10
610.447241
 20
435.959226
 30
0.0
 11
610.447241
 21
449.259226
 31
0.0
  0
LINE
  5
16B
100
AcDbEntity
  8
DIMS
 62
     4
100
AcDbLine
 10
610.447241
 20
429.159226
 30
0.0
 11
610.447241
 21
415.859226
 31
0.0
  0
LINE
  5
16C
100
AcDbEntity
  8
DIMS
 62
     4
100
AcDbLine
 10
610.447241
 20
430.859226
 30
0.0
 11
610.447241
 21
434.259226
 31
0.0
  0
LINE
  5
16D
100
AcDbEntity
  8
M03
100
AcDbLine
 10
610.997241
 20
426.584488
 30
0.0
 11
610.997241
 21
438.533965
 31
0.0
  0
LINE
  5
16E
100
AcDbEntity
  8
M03
100
AcDbLine
 10
609.897241
 20
426.584488
 30
0.0
 11
609.897241
 21
438.533965
 31
0.0
  0
CIRCLE
  5
16F
100
AcDbEntity
  8
M03
100
AcDbCircle
 10
610.447241
 20
432.559226
 30
0.0
 40
15.0
  0
CIRCLE
  5
170
100
AcDbEntity
  8
M03
100
AcDbCircle
 10
610.447241
 20
432.559226
 30
0.0
 40
14.0
  0
CIRCLE
  5
171
100
AcDbEntity
  8
M03
100
AcDbCircle
 10
610.447241
 20
432.559226
 30
0.0
 40
7.858882
  0
CIRCLE
  5
172
100
AcDbEntity
  8
M03
100
AcDbCircle
 10
610.447241
 20
432.559226
 30
0.0
 40
6.0
  0
LINE
  5
173
100
AcDbEntity
  8
M03
100
AcDbLine
 10
499.897241
 20
426.584488
 30
0.0
 11
499.897241
 21
438.533965
 31
0.0
  0
LINE
  5
174
100
AcDbEntity
  8
M03
100
AcDbLine
 10
500.997241
 20
426.584488
 30
0.0
 11
500.997241
 21
438.533965
 31
0.0
  0
CIRCLE
  5
175
100
AcDbEntity
  8
M03
100
AcDbCircle
 10
500.447241
 20
432.559226
 30
0.0
 40
15.0
  0
CIRCLE
  5
176
100
AcDbEntity
  8
M03
100
AcDbCircle
 10
500.447241
 20
432.559226
 30
0.0
 40
14.0
  0
CIRCLE
  5
177
100
AcDbEntity
  8
M03
100
AcDbCircle
 10
500.447241
 20
432.559226
 30
0.0
 40
7.858882
  0
CIRCLE
  5
178
100
AcDbEntity
  8
M03
100
AcDbCircle
 10
500.447241
 20
432.559226
 30
0.0
 40
6.0
  0
DIMENSION
  5
179
100
AcDbEntity
  8
DIMS
100
AcDbDimension
  2
*D1
 10
786.360108
 20
399.271204
 30
0.0
 11
775.717251
 21
402.271204
 31
0.0
  1
5.0
  3
DIM1
100
AcDbAlignedDimension
 13
791.360108
 23
421.559226
 33
0.0
 14
786.360108
 24
422.559226
 34
0.0
100
AcDbRotatedDimension
1001
ACAD
1000
DSTYLE
1002
{
1070
   144
1040
1.0
1002
}
  0
DIMENSION
  5
187
100
AcDbEntity
  8
DIMS
100
AcDbDimension
  2
*D2
 10
753.83288
 20
421.559226
 30
0.0
 11
750.83288
 21
432.559226
 31
0.0
  3
DIM1
100
AcDbAlignedDimension
 13
786.937458
 23
443.559226
 33
0.0
 14
786.937458
 24
421.559226
 34
0.0
 50
90.0
100
AcDbRotatedDimension
1001
ACAD
1000
DSTYLE
1002
{
1070
   144
1040
1.0
1002
}
  0
DIMENSION
  5
194
100
AcDbEntity
  8
DIMS
100
AcDbDimension
  2
*D3
 10
763.710293
 20
422.559226
 30
0.0
 11
760.710293
 21
403.34494
 31
0.0
  1
%%c<> H7
  3
DIM1
100
AcDbAlignedDimension
 13
781.360108
 23
442.559226
 33
0.0
 14
781.360108
 24
422.559226
 34
0.0
 50
90.0
100
AcDbRotatedDimension
1001
ACAD
1000
DSTYLE
1002
{
1070
   144
1040
1.0
1002
}
  0
DIMENSION
  5
1A2
100
AcDbEntity
  8
DIMS
100
AcDbDimension
  2
*D4
 10
781.360108
 20
458.846243
 30
0.0
 11
768.145822
 21
458.846243
 31
0.0
 70
   128
  3
DIM1
100
AcDbAlignedDimension
 13
798.360108
 23
442.059226
 33
0.0
 14
781.360108
 24
442.559226
 34
0.0
100
AcDbRotatedDimension
1001
ACAD
1000
DSTYLE
1002
{
1070
   144
1040
1.0
1002
}
  0
DIMENSION
  5
1B0
100
AcDbEntity
  8
DIMS
100
AcDbDimension
  2
*D5
 10
896.675225
 20
452.559226
 30
0.0
 11
893.675225
 21
432.559226
 31
0.0
  1
%%c<> H7
  3
DIM1
100
AcDbAlignedDimension
 13
860.360108
 23
412.559226
 33
0.0
 14
860.360108
 24
452.559226
 34
0.0
 50
90.0
100
AcDbRotatedDimension
1001
ACAD
1000
DSTYLE
1002
{
1070
   144
1040
1.0
1002
}
  0
DIMENSION
  5
1BD
100
AcDbEntity
  8
DIMS
100
AcDbDimension
  2
*D6
 10
791.360108
 20
362.279548
 30
0.0
 11
780.717251
 21
365.279548
 31
0.0
  1
7.0
  3
DIM1
100
AcDbAlignedDimension
 13
798.360108
 23
402.559226
 33
0.0
 14
791.360108
 24
393.559226
 34
0.0
100
AcDbRotatedDimension
1001
ACAD
1000
DSTYLE
1002
{
1070
   144
1040
1.0
1002
}
  0
DIMENSION
  5
1CB
100
AcDbEntity
  8
DIMS
100
AcDbDimension
  2
*D7
 10
852.360108
 20
362.279548
 30
0.0
 11
863.002965
 21
365.279548
 31
0.0
  1
7.0
  3
DIM1
100
AcDbAlignedDimension
 13
845.360108
 23
400.559226
 33
0.0
 14
852.360108
 24
382.045835
 34
0.0
100
AcDbRotatedDimension
1001
ACAD
1000
DSTYLE
1002
{
1070
   144
1040
1.0
1002
}
  0
DIMENSION
  5
1D9
100
AcDbEntity
  8
DIMS
100
AcDbDimension
  2
*D8
 10
845.360108
 20
362.279548
 30
0.0
 11
821.860108
 21
365.279548
 31
0.0
  3
DIM1
100
AcDbAlignedDimension
 13
798.360108
 23
402.559226
 33
0.0
 14
845.360108
 24
400.559226
 34
0.0
100
AcDbRotatedDimension
1001
ACAD
1000
DSTYLE
1002
{
1070
   144
1040
1.0
1002
}
  0
LINE
  5
1E6
100
AcDbEntity
  8
M01
100
AcDbLine
 10
834.360108
 20
523.559226
 30
0.0
 11
844.360108
 21
523.559226
 31
0.0
  0
LINE
  5
1E7
100
AcDbEntity
  8
M01
100
AcDbLine
 10
801.110108
 20
530.503326
 30
0.0
 11
807.610108
 21
530.503326
 31
0.0
  0
LINE
  5
1E8
100
AcDbEntity
  8
M01
100
AcDbLine
 10
801.110108
 20
538.615126
 30
0.0
 11
807.610108
 21
538.615126
 31
0.0
  0
LINE
  5
1E9
100
AcDbEntity
  8
M01
100
AcDbLine
 10
801.110108
 20
530.503326
 30
0.0
 11
801.110108
 21
528.559226
 31
0.0
  0
ARC
  5
1EA
100
AcDbEntity
  8
M01
100
AcDbCircle
 10
799.860108
 20
532.064576
 30
0.0
 40
2.0
100
AcDbArc
 50
308.682187
 51
0.0
  0
ARC
  5
1EB
100
AcDbEntity
  8
M01
100
AcDbCircle
 10
799.860108
 20
537.053876
 30
0.0
 40
2.0
100
AcDbArc
 50
0.0
 51
51.317813
  0
LINE
  5
1EC
100
AcDbEntity
  8
M01
100
AcDbLine
 10
801.110108
 20
540.559226
 30
0.0
 11
801.110108
 21
538.615126
 31
0.0
  0
LINE
  5
1ED
100
AcDbEntity
  8
M01
100
AcDbLine
 10
801.860108
 20
537.053876
 30
0.0
 11
801.860108
 21
532.064576
 31
0.0
  0
LINE
  5
1EE
100
AcDbEntity
  8
M01
100
AcDbLine
 10
807.610108
 20
530.503326
 30
0.0
 11
807.610108
 21
528.559226
 31
0.0
  0
ARC
  5
1EF
100
AcDbEntity
  8
M01
100
AcDbCircle
 10
808.860108
 20
532.064576
 30
0.0
 40
2.0
100
AcDbArc
 50
180.0
 51
231.317813
  0
ARC
  5
1F0
100
AcDbEntity
  8
M01
100
AcDbCircle
 10
808.860108
 20
537.053876
 30
0.0
 40
2.0
100
AcDbArc
 50
128.682187
 51
180.0
  0
LINE
  5
1F1
100
AcDbEntity
  8
M01
100
AcDbLine
 10
807.610108
 20
540.559226
 30
0.0
 11
807.610108
 21
538.615126
 31
0.0
  0
LINE
  5
1F2
100
AcDbEntity
  8
M01
100
AcDbLine
 10
806.860108
 20
537.053876
 30
0.0
 11
806.860108
 21
532.064576
 31
0.0
  0
LINE
  5
1F3
100
AcDbEntity
  8
M01
100
AcDbLine
 10
799.360108
 20
523.559226
 30
0.0
 11
809.360108
 21
523.559226
 31
0.0
  0
LINE
  5
1F4
100
AcDbEntity
  8
M01
100
AcDbLine
 10
844.360108
 20
528.559226
 30
0.0
 11
844.360108
 21
507.559226
 31
0.0
  0
LINE
  5
1F5
100
AcDbEntity
  8
M01
100
AcDbLine
 10
834.360108
 20
528.559226
 30
0.0
 11
834.360108
 21
508.559226
 31
0.0
  0
LINE
  5
1F6
100
AcDbEntity
  8
M01
100
AcDbLine
 10
799.360108
 20
528.559226
 30
0.0
 11
799.360108
 21
507.559226
 31
0.0
  0
LINE
  5
1F7
100
AcDbEntity
  8
M01
100
AcDbLine
 10
809.360108
 20
528.559226
 30
0.0
 11
809.360108
 21
508.559226
 31
0.0
  0
LINE
  5
1F8
100
AcDbEntity
  8
M01
100
AcDbLine
 10
562.947241
 20
540.559226
 30
0.0
 11
571.947241
 21
540.559226
 31
0.0
  0
LINE
  5
1F9
100
AcDbEntity
  8
M01
100
AcDbLine
 10
571.947241
 20
541.359226
 30
0.0
 11
571.947241
 21
540.559226
 31
0.0
  0
LINE
  5
1FA
100
AcDbEntity
  8
M01
100
AcDbLine
 10
562.947241
 20
541.359226
 30
0.0
 11
562.947241
 21
540.559226
 31
0.0
  0
LINE
  5
1FB
100
AcDbEntity
  8
M01
100
AcDbLine
 10
540.197241
 20
530.503326
 30
0.0
 11
546.697241
 21
530.503326
 31
0.0
  0
LINE
  5
1FC
100
AcDbEntity
  8
M01
100
AcDbLine
 10
540.197241
 20
538.615126
 30
0.0
 11
546.697241
 21
538.615126
 31
0.0
  0
LINE
  5
1FD
100
AcDbEntity
  8
M01
100
AcDbLine
 10
540.197241
 20
530.503326
 30
0.0
 11
540.197241
 21
528.559226
 31
0.0
  0
ARC
  5
1FE
100
AcDbEntity
  8
M01
100
AcDbCircle
 10
538.947241
 20
532.064576
 30
0.0
 40
2.0
100
AcDbArc
 50
308.682187
 51
0.0
  0
ARC
  5
1FF
100
AcDbEntity
  8
M01
100
AcDbCircle
 10
538.947241
 20
537.053876
 30
0.0
 40
2.0
100
AcDbArc
 50
0.0
 51
51.317813
  0
LINE
  5
200
100
AcDbEntity
  8
M01
100
AcDbLine
 10
540.197241
 20
540.559226
 30
0.0
 11
540.197241
 21
538.615126
 31
0.0
  0
LINE
  5
201
100
AcDbEntity
  8
M01
100
AcDbLine
 10
540.947241
 20
537.053876
 30
0.0
 11
540.947241
 21
532.064576
 31
0.0
  0
LINE
  5
202
100
AcDbEntity
  8
M01
100
AcDbLine
 10
546.697241
 20
530.503326
 30
0.0
 11
546.697241
 21
528.559226
 31
0.0
  0
ARC
  5
203
100
AcDbEntity
  8
M01
100
AcDbCircle
 10
547.947241
 20
532.064576
 30
0.0
 40
2.0
100
AcDbArc
 50
180.0
 51
231.317813
  0
ARC
  5
204
100
AcDbEntity
  8
M01
100
AcDbCircle
 10
547.947241
 20
537.053876
 30
0.0
 40
2.0
100
AcDbArc
 50
128.682187
 51
180.0
  0
LINE
  5
205
100
AcDbEntity
  8
M01
100
AcDbLine
 10
546.697241
 20
540.559226
 30
0.0
 11
546.697241
 21
538.615126
 31
0.0
  0
LINE
  5
206
100
AcDbEntity
  8
M01
100
AcDbLine
 10
545.947241
 20
537.053876
 30
0.0
 11
545.947241
 21
532.064576
 31
0.0
  0
LINE
  5
207
100
AcDbEntity
  8
M01
100
AcDbLine
 10
572.447241
 20
523.559226
 30
0.0
 11
562.447241
 21
523.559226
 31
0.0
  0
LINE
  5
208
100
AcDbEntity
  8
M01
100
AcDbLine
 10
538.447241
 20
523.559226
 30
0.0
 11
548.447241
 21
523.559226
 31
0.0
  0
LINE
  5
209
100
AcDbEntity
  8
M01
100
AcDbLine
 10
538.447241
 20
528.559226
 30
0.0
 11
538.447241
 21
508.559226
 31
0.0
  0
LINE
  5
20A
100
AcDbEntity
  8
M01
100
AcDbLine
 10
548.447241
 20
528.559226
 30
0.0
 11
548.447241
 21
508.559226
 31
0.0
  0
LINE
  5
20B
100
AcDbEntity
  8
M01
100
AcDbLine
 10
562.447241
 20
528.559226
 30
0.0
 11
562.447241
 21
508.559226
 31
0.0
  0
LINE
  5
20C
100
AcDbEntity
  8
M01
100
AcDbLine
 10
572.447241
 20
528.559226
 30
0.0
 11
572.447241
 21
508.559226
 31
0.0
  0
LINE
  5
20D
100
AcDbEntity
  8
CENTRE
100
AcDbLine
 10
497.447241
 20
270.986474
 30
0.0
 11
613.447241
 21
270.986474
 31
0.0
  0
ARC
  5
20E
100
AcDbEntity
  8
M03
100
AcDbCircle
 10
555.447241
 20
432.559226
 30
0.0
 40
34.0
100
AcDbArc
 50
289.749923
 51
250.250077
  0
LINE
  5
20F
102
{ACAD_REACTORS
330
111
102
}
100
AcDbEntity
  8
M05
100
AcDbLine
 10
845.360108
 20
400.559226
 30
0.0
 11
845.360108
 21
402.559226
 31
0.0
  0
WIPEOUT
  5
210
100
AcDbEntity
  8
TEXT
 92
      140
310
8C00000001000000840000000600000005000000771A285896018440671169F6D191704000000000000000008604C966807A8440671169F6D191704000000000000000008704C966807A8440651169F6D1D170400000000000000000791A285896018440671169F6D1D170400000000000000000771A285896018440671169
310
F6D19170400000000000000000
100
AcDbWipeout
 90
        0
 10
640.19841
 20
265.11376
 30
0.0
 11
15.114286
 21
0.0
 31
0.0
 12
0.0
 22
15.114286
 32
0.0
 13
0.0
 23
0.0
340
0
 70
     7
280
     1
281
    50
282
    50
283
     0
360
0
 71
     2
 91
        5
 14
-0.5
 24
0.5
 14
0.5
 24
0.5
 14
0.5
 24
0.23535
 14
-0.5
 24
0.23535
 14
-0.5
 24
0.5
  0
TEXT
  5
212
102
{ACAD_REACTORS
330
95
102
}
100
AcDbEntity
  8
TEXT
100
AcDbText
 10
641.19841
 20
266.11376
 30
0.0
 40
2.0
  1
MM010018
 41
0.9
100
AcDbText
  0
WIPEOUT
  5
213
100
AcDbEntity
  8
TEXT
 92
      140
310
8C000000010000008400000006000000050000002516974182678940936963D771EE79400000000000000000340038506CE08940936963D771EE79400000000000000000350038506CE08940916963D7712E7A4000000000000000002716974182678940936963D7712E7A4000000000000000002516974182678940936963
310
D771EE79400000000000000000
100
AcDbWipeout
 90
        0
 10
812.938602
 20
410.34565
 30
0.0
 11
15.114286
 21
0.0
 31
0.0
 12
0.0
 22
15.114286
 32
0.0
 13
0.0
 23
0.0
340
0
 70
     7
280
     1
281
    50
282
    50
283
     0
360
0
 71
     2
 91
        5
 14
-0.5
 24
0.198488
 14
0.5
 24
0.198488
 14
0.5
 24
-0.066163
 14
-0.5
 24
-0.066163
 14
-0.5
 24
0.198488
  0
TEXT
  5
214
100
AcDbEntity
  8
TEXT
100
AcDbText
 10
813.938602
 20
415.902793
 30
0.0
 40
2.0
  1
MM010018
 41
0.9
100
AcDbText
  0
MTEXT
  5
215
102
{ACAD_REACTORS
330
216
102
}
100
AcDbEntity
  8
HATCH
 62
     2
100
AcDbMText
 10
634.08742
 20
229.645248
 30
0.0
 40
3.0
 41
0.0
 71
     1
 72
     5
  1
MA010006 (x2)
  0
LEADER
  5
216
100
AcDbEntity
  8
HATCH
 62
     4
100
AcDbLeader
  3
DIM1$7
 73
     0
 74
     0
 75
     1
 40
4.571429
 41
34.142857
 76
     3
 10
620.164595
 20
242.117188
 30
0.0
 10
629.58742
 20
228.145248
 30
0.0
 10
632.58742
 20
228.145248
 30
0.0
 77
   256
340
215
213
0.0
223
-1.5
233
0.0
1001
ACAD
1000
DSTYLE
1002
{
1070
   144
1040
1.0
1002
}
  0
LINE
  5
217
102
{ACAD_REACTORS
330
42
102
}
100
AcDbEntity
  8
M04
100
AcDbLine
 10
503.447241
 20
240.486474
 30
0.0
 11
535.947241
 21
240.486474
 31
0.0
  0
HATCH
  5
218
100
AcDbEntity
  8
HATCH
100
AcDbHatch
 10
0.0
 20
0.0
 30
0.0
210
0.0
220
0.0
230
1.0
  2
_U
 70
     0
 71
     0
 91
        4
 92
        7
 72
     0
 73
     1
 93
        4
 10
485.4472405752653
 20
247.4864744596734
 10
450.4472405752653
 20
247.4864744596734
 10
450.4472405752653
 20
244.4864744596734
 10
485.4472405752652
 20
244.4864744596734
 97
        0
 92
        7
 72
     0
 73
     1
 93
        4
 10
520.4472405752651
 20
247.4864744596734
 10
515.4472405752653
 20
247.4864744596735
 10
515.4472405752653
 20
244.4864744596734
 10
520.4472405752652
 20
244.4864744596734
 97
        0
 92
        7
 72
     0
 73
     1
 93
        4
 10
595.4472405752654
 20
247.4864744596734
 10
590.4472405752655
 20
247.4864744596735
 10
590.4472405752654
 20
244.4864744596734
 10
595.4472405752652
 20
244.4864744596734
 97
        0
 92
        7
 72
     0
 73
     1
 93
        4
 10
660.4472405752652
 20
247.4864744596733
 10
625.4472405752655
 20
247.4864744596734
 10
625.4472405752652
 20
244.4864744596734
 10
660.4472405752652
 20
244.4864744596734
 97
        0
 75
     0
 76
     0
 52
135.0
 41
0.8
 77
     0
 78
     1
 53
135.0
 43
0.0
 44
0.0
 45
-0.5656854249492382
 46
-0.565685424949238
 79
     0
 47
0.217954
 98
        4
 10
479.742766
 20
245.32522
 10
518.77257
 20
246.197035
 10
593.779569
 20
246.197035
 10
629.538719
 20
245.761128
  0
LINE
  5
219
100
AcDbEntity
  8
M02
100
AcDbLine
 10
514.447241
 20
244.486474
 30
0.0
 11
521.447241
 21
244.486474
 31
0.0
  0
LINE
  5
21A
100
AcDbEntity
  8
M04
100
AcDbLine
 10
500.447241
 20
222.658569
 30
0.0
 11
502.747241
 21
223.986474
 31
0.0
  0
LINE
  5
21B
100
AcDbEntity
  8
M04
100
AcDbLine
 10
498.147241
 20
223.986474
 30
0.0
 11
500.447241
 21
222.658569
 31
0.0
  0
LINE
  5
21C
100
AcDbEntity
  8
M04
100
AcDbLine
 10
498.147241
 20
223.986474
 30
0.0
 11
502.747241
 21
223.986474
 31
0.0
  0
LINE
  5
21D
100
AcDbEntity
  8
M04
100
AcDbLine
 10
497.447241
 20
229.047592
 30
0.0
 11
497.447241
 21
225.486474
 31
0.0
  0
LINE
  5
21E
100
AcDbEntity
  8
M04
100
AcDbLine
 10
498.147241
 20
228.347592
 30
0.0
 11
498.147241
 21
223.986474
 31
0.0
  0
LINE
  5
21F
100
AcDbEntity
  8
M04
100
AcDbLine
 10
503.447241
 20
229.047592
 30
0.0
 11
503.447241
 21
225.486474
 31
0.0
  0
LINE
  5
220
100
AcDbEntity
  8
M04
100
AcDbLine
 10
502.747241
 20
228.347592
 30
0.0
 11
502.747241
 21
223.986474
 31
0.0
  0
LINE
  5
221
100
AcDbEntity
  8
M05
100
AcDbLine
 10
502.747241
 20
228.347592
 30
0.0
 11
503.447241
 21
229.047592
 31
0.0
  0
LINE
  5
222
100
AcDbEntity
  8
M05
100
AcDbLine
 10
497.447241
 20
229.047592
 30
0.0
 11
498.147241
 21
228.347592
 31
0.0
  0
LINE
  5
223
100
AcDbEntity
  8
M05
100
AcDbLine
 10
502.747241
 20
241.127592
 30
0.0
 11
502.747241
 21
228.347592
 31
0.0
  0
LINE
  5
224
100
AcDbEntity
  8
M05
100
AcDbLine
 10
498.147241
 20
241.127592
 30
0.0
 11
498.147241
 21
228.347592
 31
0.0
  0
LINE
  5
225
100
AcDbEntity
  8
M05
100
AcDbLine
 10
497.447241
 20
229.047592
 30
0.0
 11
503.447241
 21
229.047592
 31
0.0
  0
LINE
  5
226
100
AcDbEntity
  8
M04
100
AcDbLine
 10
497.447241
 20
225.486474
 30
0.0
 11
503.447241
 21
225.486474
 31
0.0
  0
LINE
  5
227
100
AcDbEntity
  8
M05
100
AcDbLine
 10
498.147241
 20
228.347592
 30
0.0
 11
502.747241
 21
228.347592
 31
0.0
  0
LINE
  5
228
102
{ACAD_REACTORS
330
95
102
}
100
AcDbEntity
  8
M05
  6
HIDDEN
100
AcDbLine
 10
492.288359
 20
247.786474
 30
0.0
 11
491.588359
 21
248.486474
 31
0.0
  0
LINE
  5
229
102
{ACAD_REACTORS
330
95
102
}
100
AcDbEntity
  8
M05
  6
HIDDEN
100
AcDbLine
 10
508.606123
 20
247.786474
 30
0.0
 11
509.306123
 21
248.486474
 31
0.0
  0
LINE
  5
22A
100
AcDbEntity
  8
M05
100
AcDbLine
 10
497.447241
 20
241.127592
 30
0.0
 11
503.447241
 21
241.127592
 31
0.0
  0
LINE
  5
22B
100
AcDbEntity
  8
M05
100
AcDbLine
 10
500.997241
 20
245.627592
 30
0.0
 11
506.447241
 21
245.627592
 31
0.0
  0
LINE
  5
22C
100
AcDbEntity
  8
M05
100
AcDbLine
 10
500.997241
 20
246.347592
 30
0.0
 11
506.447241
 21
246.347592
 31
0.0
  0
LINE
  5
22D
100
AcDbEntity
  8
M05
100
AcDbLine
 10
500.997241
 20
246.347592
 30
0.0
 11
500.997241
 21
244.847592
 31
0.0
  0
LINE
  5
22E
100
AcDbEntity
  8
M05
100
AcDbLine
 10
499.897241
 20
246.347592
 30
0.0
 11
499.897241
 21
244.847592
 31
0.0
  0
LINE
  5
22F
100
AcDbEntity
  8
M05
100
AcDbLine
 10
499.897241
 20
244.847592
 30
0.0
 11
500.997241
 21
244.847592
 31
0.0
  0
LINE
  5
230
102
{ACAD_REACTORS
330
42
102
}
100
AcDbEntity
  8
M05
100
AcDbLine
 10
503.947241
 20
243.127592
 30
0.0
 11
503.947241
 21
240.486474
 31
0.0
  0
LINE
  5
231
102
{ACAD_REACTORS
330
42
102
}
100
AcDbEntity
  8
M05
100
AcDbLine
 10
496.947241
 20
243.127592
 30
0.0
 11
496.947241
 21
240.486474
 31
0.0
  0
LINE
  5
232
100
AcDbEntity
  8
M05
100
AcDbLine
 10
494.447241
 20
245.627592
 30
0.0
 11
499.897241
 21
245.627592
 31
0.0
  0
LINE
  5
233
102
{ACAD_REACTORS
330
95
330
42
102
}
100
AcDbEntity
  8
M05
100
AcDbLine
 10
497.447241
 20
242.627592
 30
0.0
 11
492.288359
 21
247.786474
 31
0.0
  0
LINE
  5
234
100
AcDbEntity
  8
M05
100
AcDbLine
 10
494.447241
 20
246.347592
 30
0.0
 11
494.447241
 21
245.627592
 31
0.0
  0
LINE
  5
235
102
{ACAD_REACTORS
330
95
330
42
102
}
100
AcDbEntity
  8
M05
100
AcDbLine
 10
503.447241
 20
242.627592
 30
0.0
 11
508.606123
 21
247.786474
 31
0.0
  0
LINE
  5
236
100
AcDbEntity
  8
M05
100
AcDbLine
 10
497.447241
 20
242.627592
 30
0.0
 11
503.447241
 21
242.627592
 31
0.0
  0
LINE
  5
237
100
AcDbEntity
  8
M05
100
AcDbLine
 10
497.447241
 20
242.627592
 30
0.0
 11
497.447241
 21
229.047592
 31
0.0
  0
LINE
  5
238
100
AcDbEntity
  8
M05
100
AcDbLine
 10
503.447241
 20
242.627592
 30
0.0
 11
503.447241
 21
229.047592
 31
0.0
  0
LINE
  5
239
100
AcDbEntity
  8
M05
100
AcDbLine
 10
506.447241
 20
246.347592
 30
0.0
 11
506.447241
 21
245.627592
 31
0.0
  0
LINE
  5
23A
100
AcDbEntity
  8
M05
100
AcDbLine
 10
494.447241
 20
246.347592
 30
0.0
 11
499.897241
 21
246.347592
 31
0.0
  0
LINE
  5
23B
102
{ACAD_REACTORS
330
95
102
}
100
AcDbEntity
  8
M05
  6
HIDDEN
100
AcDbLine
 10
486.447241
 20
247.786474
 30
0.0
 11
514.447241
 21
247.786474
 31
0.0
  0
LINE
  5
23C
102
{ACAD_REACTORS
330
95
102
}
100
AcDbEntity
  8
M05
  6
HIDDEN
100
AcDbLine
 10
514.447241
 20
247.786474
 30
0.0
 11
513.747241
 21
248.486474
 31
0.0
  0
LINE
  5
23D
102
{ACAD_REACTORS
330
95
102
}
100
AcDbEntity
  8
M05
  6
HIDDEN
100
AcDbLine
 10
514.447241
 20
246.786474
 30
0.0
 11
514.447241
 21
247.786474
 31
0.0
  0
LINE
  5
23E
102
{ACAD_REACTORS
330
42
102
}
100
AcDbEntity
  8
M05
100
AcDbLine
 10
514.447241
 20
246.786474
 30
0.0
 11
513.747241
 21
247.486474
 31
0.0
  0
LINE
  5
23F
102
{ACAD_REACTORS
330
42
102
}
100
AcDbEntity
  8
M05
100
AcDbLine
 10
514.447241
 20
241.186474
 30
0.0
 11
513.747241
 21
240.486474
 31
0.0
  0
LINE
  5
240
102
{ACAD_REACTORS
330
42
102
}
100
AcDbEntity
  8
M05
100
AcDbLine
 10
514.447241
 20
246.786474
 30
0.0
 11
514.447241
 21
241.186474
 31
0.0
  0
LINE
  5
241
102
{ACAD_REACTORS
330
95
102
}
100
AcDbEntity
  8
M05
  6
HIDDEN
100
AcDbLine
 10
486.447241
 20
247.786474
 30
0.0
 11
487.147241
 21
248.486474
 31
0.0
  0
LINE
  5
242
102
{ACAD_REACTORS
330
95
102
}
100
AcDbEntity
  8
M05
  6
HIDDEN
100
AcDbLine
 10
486.447241
 20
246.786474
 30
0.0
 11
486.447241
 21
247.786474
 31
0.0
  0
LINE
  5
243
102
{ACAD_REACTORS
330
42
102
}
100
AcDbEntity
  8
M05
100
AcDbLine
 10
486.447241
 20
246.786474
 30
0.0
 11
487.147241
 21
247.486474
 31
0.0
  0
LINE
  5
244
102
{ACAD_REACTORS
330
42
102
}
100
AcDbEntity
  8
M05
100
AcDbLine
 10
486.447241
 20
241.186474
 30
0.0
 11
487.147241
 21
240.486474
 31
0.0
  0
LINE
  5
245
100
AcDbEntity
  8
M02
100
AcDbLine
 10
515.447241
 20
247.486474
 30
0.0
 11
515.447241
 21
244.486474
 31
0.0
  0
LINE
  5
246
100
AcDbEntity
  8
M02
100
AcDbLine
 10
485.447241
 20
247.486474
 30
0.0
 11
485.447241
 21
244.486474
 31
0.0
  0
LINE
  5
247
102
{ACAD_REACTORS
330
95
102
}
100
AcDbEntity
  8
M05
  6
HIDDEN
100
AcDbLine
 10
487.147241
 20
248.486474
 30
0.0
 11
513.747241
 21
248.486474
 31
0.0
  0
LINE
  5
248
102
{ACAD_REACTORS
330
42
102
}
100
AcDbEntity
  8
M05
100
AcDbLine
 10
486.447241
 20
246.786474
 30
0.0
 11
486.447241
 21
241.186474
 31
0.0
  0
LINE
  5
249
102
{ACAD_REACTORS
330
95
102
}
100
AcDbEntity
  8
CENTRE
100
AcDbLine
 10
500.447241
 20
252.995585
 30
0.0
 11
500.447241
 21
219.917247
 31
0.0
  0
LINE
  5
24A
100
AcDbEntity
  8
CENTRE
100
AcDbLine
 10
605.447241
 20
262.869716
 30
0.0
 11
605.447241
 21
304.834772
 31
0.0
  0
LINE
  5
24B
100
AcDbEntity
  8
CENTRE
100
AcDbLine
 10
505.447241
 20
262.869716
 30
0.0
 11
505.447241
 21
304.834772
 31
0.0
  0
LINE
  5
24C
100
AcDbEntity
  8
M04
100
AcDbLine
 10
610.447241
 20
222.658569
 30
0.0
 11
612.747241
 21
223.986474
 31
0.0
  0
LINE
  5
24D
100
AcDbEntity
  8
M04
100
AcDbLine
 10
608.147241
 20
223.986474
 30
0.0
 11
610.447241
 21
222.658569
 31
0.0
  0
LINE
  5
24E
100
AcDbEntity
  8
M04
100
AcDbLine
 10
608.147241
 20
223.986474
 30
0.0
 11
612.747241
 21
223.986474
 31
0.0
  0
LINE
  5
24F
100
AcDbEntity
  8
M04
100
AcDbLine
 10
607.447241
 20
229.047592
 30
0.0
 11
607.447241
 21
225.486474
 31
0.0
  0
LINE
  5
250
100
AcDbEntity
  8
M04
100
AcDbLine
 10
608.147241
 20
228.347592
 30
0.0
 11
608.147241
 21
223.986474
 31
0.0
  0
LINE
  5
251
100
AcDbEntity
  8
M04
100
AcDbLine
 10
613.447241
 20
229.047592
 30
0.0
 11
613.447241
 21
225.486474
 31
0.0
  0
LINE
  5
252
100
AcDbEntity
  8
M04
100
AcDbLine
 10
612.747241
 20
228.347592
 30
0.0
 11
612.747241
 21
223.986474
 31
0.0
  0
LINE
  5
253
100
AcDbEntity
  8
M05
100
AcDbLine
 10
612.747241
 20
228.347592
 30
0.0
 11
613.447241
 21
229.047592
 31
0.0
  0
LINE
  5
254
100
AcDbEntity
  8
M05
100
AcDbLine
 10
607.447241
 20
229.047592
 30
0.0
 11
608.147241
 21
228.347592
 31
0.0
  0
LINE
  5
255
100
AcDbEntity
  8
M05
100
AcDbLine
 10
612.747241
 20
241.127592
 30
0.0
 11
612.747241
 21
228.347592
 31
0.0
  0
LINE
  5
256
100
AcDbEntity
  8
M05
100
AcDbLine
 10
608.147241
 20
241.127592
 30
0.0
 11
608.147241
 21
228.347592
 31
0.0
  0
LINE
  5
257
100
AcDbEntity
  8
M05
100
AcDbLine
 10
607.447241
 20
229.047592
 30
0.0
 11
613.447241
 21
229.047592
 31
0.0
  0
LINE
  5
258
100
AcDbEntity
  8
M04
100
AcDbLine
 10
607.447241
 20
225.486474
 30
0.0
 11
613.447241
 21
225.486474
 31
0.0
  0
LINE
  5
259
100
AcDbEntity
  8
M05
100
AcDbLine
 10
608.147241
 20
228.347592
 30
0.0
 11
612.747241
 21
228.347592
 31
0.0
  0
LINE
  5
25A
102
{ACAD_REACTORS
330
95
102
}
100
AcDbEntity
  8
M05
  6
HIDDEN
100
AcDbLine
 10
602.288359
 20
247.786474
 30
0.0
 11
601.588359
 21
248.486474
 31
0.0
  0
LINE
  5
25B
102
{ACAD_REACTORS
330
95
102
}
100
AcDbEntity
  8
M05
  6
HIDDEN
100
AcDbLine
 10
618.606123
 20
247.786474
 30
0.0
 11
619.306123
 21
248.486474
 31
0.0
  0
LINE
  5
25C
100
AcDbEntity
  8
M04
100
AcDbLine
 10
613.447241
 20
240.486474
 30
0.0
 11
686.998022
 21
240.486474
 31
0.0
  0
LINE
  5
25D
100
AcDbEntity
  8
M05
100
AcDbLine
 10
607.447241
 20
241.127592
 30
0.0
 11
613.447241
 21
241.127592
 31
0.0
  0
LINE
  5
25E
100
AcDbEntity
  8
M05
100
AcDbLine
 10
610.997241
 20
245.627592
 30
0.0
 11
616.447241
 21
245.627592
 31
0.0
  0
LINE
  5
25F
100
AcDbEntity
  8
M05
100
AcDbLine
 10
610.997241
 20
246.347592
 30
0.0
 11
616.447241
 21
246.347592
 31
0.0
  0
LINE
  5
260
100
AcDbEntity
  8
M05
100
AcDbLine
 10
610.997241
 20
246.347592
 30
0.0
 11
610.997241
 21
244.847592
 31
0.0
  0
LINE
  5
261
100
AcDbEntity
  8
M05
100
AcDbLine
 10
609.897241
 20
246.347592
 30
0.0
 11
609.897241
 21
244.847592
 31
0.0
  0
LINE
  5
262
100
AcDbEntity
  8
M05
100
AcDbLine
 10
609.897241
 20
244.847592
 30
0.0
 11
610.997241
 21
244.847592
 31
0.0
  0
LINE
  5
263
100
AcDbEntity
  8
M05
100
AcDbLine
 10
613.947241
 20
243.127592
 30
0.0
 11
613.947241
 21
240.486474
 31
0.0
  0
LINE
  5
264
100
AcDbEntity
  8
M05
100
AcDbLine
 10
606.947241
 20
243.127592
 30
0.0
 11
606.947241
 21
240.486474
 31
0.0
  0
LINE
  5
265
100
AcDbEntity
  8
M05
100
AcDbLine
 10
604.447241
 20
245.627592
 30
0.0
 11
609.897241
 21
245.627592
 31
0.0
  0
LINE
  5
266
102
{ACAD_REACTORS
330
95
102
}
100
AcDbEntity
  8
M05
100
AcDbLine
 10
607.447241
 20
242.627592
 30
0.0
 11
602.288359
 21
247.786474
 31
0.0
  0
LINE
  5
267
100
AcDbEntity
  8
M05
100
AcDbLine
 10
604.447241
 20
246.347592
 30
0.0
 11
604.447241
 21
245.627592
 31
0.0
  0
LINE
  5
268
102
{ACAD_REACTORS
330
95
102
}
100
AcDbEntity
  8
M05
100
AcDbLine
 10
613.447241
 20
242.627592
 30
0.0
 11
618.606123
 21
247.786474
 31
0.0
  0
LINE
  5
269
100
AcDbEntity
  8
M05
100
AcDbLine
 10
607.447241
 20
242.627592
 30
0.0
 11
613.447241
 21
242.627592
 31
0.0
  0
LINE
  5
26A
100
AcDbEntity
  8
M05
100
AcDbLine
 10
607.447241
 20
242.627592
 30
0.0
 11
607.447241
 21
229.047592
 31
0.0
  0
LINE
  5
26B
100
AcDbEntity
  8
M05
100
AcDbLine
 10
613.447241
 20
242.627592
 30
0.0
 11
613.447241
 21
229.047592
 31
0.0
  0
LINE
  5
26C
100
AcDbEntity
  8
M05
100
AcDbLine
 10
616.447241
 20
246.347592
 30
0.0
 11
616.447241
 21
245.627592
 31
0.0
  0
LINE
  5
26D
100
AcDbEntity
  8
M05
100
AcDbLine
 10
604.447241
 20
246.347592
 30
0.0
 11
609.897241
 21
246.347592
 31
0.0
  0
HATCH
  5
26E
100
AcDbEntity
  8
HATCH
100
AcDbHatch
 10
0.0
 20
0.0
 30
0.0
210
0.0
220
0.0
230
1.0
  2
_U
 70
     0
 71
     1
 91
        1
 92
        7
 72
     0
 73
     1
 93
        4
 10
848.3601080691217
 20
506.5592260810631
 10
845.3601080691216
 20
506.5592260810631
 10
845.3601080691218
 20
467.5592260810632
 10
848.3601080691217
 20
467.5592260810631
 97
        4
330
46A
330
478
330
3FC
330
46C
 75
     0
 76
     0
 52
135.0
 41
0.8
 77
     0
 78
     1
 53
135.0
 43
23.770001
 44
0.0
 45
-0.5656854249492382
 46
-0.565685424949238
 79
     0
 47
0.167139
 98
        1
 10
847.255151
 20
494.836786
  0
HATCH
  5
26F
100
AcDbEntity
  8
HATCH
100
AcDbHatch
 10
0.0
 20
0.0
 30
0.0
210
0.0
220
0.0
230
1.0
  2
_U
 70
     0
 71
     1
 91
        2
 92
        7
 72
     0
 73
     1
 93
        4
 10
795.3601080691218
 20
443.559226081063
 10
798.3601080691219
 20
443.559226081063
 10
798.3601080691218
 20
496.559226081063
 10
795.3601080691215
 20
496.559226081063
 97
        4
330
467
330
46D
330
437
330
47B
 92
        7
 72
     0
 73
     1
 93
        4
 10
795.3601080691218
 20
402.5592260810631
 10
798.3601080691218
 20
402.5592260810631
 10
798.360108069122
 20
421.5592260810632
 10
795.360108069122
 20
421.5592260810631
 97
        4
330
436
330
439
330
46B
330
438
 75
     0
 76
     0
 52
135.0
 41
0.8
 77
     0
 78
     1
 53
135.0
 43
23.770001
 44
0.0
 45
-0.5656854249492382
 46
-0.565685424949238
 79
     0
 47
0.167139
 98
        2
 10
796.758194
 20
492.162554
 10
796.423776
 20
418.955455
  0
LINE
  5
270
100
AcDbEntity
  8
DIMS
 62
     4
100
AcDbLine
 10
558.847241
 20
503.059226
 30
0.0
 11
561.147241
 21
503.059226
 31
0.0
  0
LINE
  5
271
100
AcDbEntity
  8
DIMS
 62
     4
100
AcDbLine
 10
552.047241
 20
503.059226
 30
0.0
 11
549.747241
 21
503.059226
 31
0.0
  0
LINE
  5
272
100
AcDbEntity
  8
DIMS
 62
     4
100
AcDbLine
 10
553.747241
 20
503.059226
 30
0.0
 11
557.147241
 21
503.059226
 31
0.0
  0
DIMENSION
  5
273
100
AcDbEntity
  8
DIMS
100
AcDbDimension
  2
*D9
 10
692.204196
 20
464.559226
 30
0.0
 11
689.204196
 21
432.559226
 31
0.0
  1
W=<>
  3
DIM1
100
AcDbAlignedDimension
 13
650.447241
 23
400.559226
 33
0.0
 14
650.447241
 24
464.559226
 34
0.0
 50
90.0
100
AcDbRotatedDimension
1001
ACAD
1000
DSTYLE
1002
{
1070
   144
1040
1.0
1002
}
  0
DIMENSION
  5
280
100
AcDbEntity
  8
DIMS
100
AcDbDimension
  2
*D10
 10
662.447241
 20
350.196619
 30
0.0
 11
555.447241
 21
353.196619
 31
0.0
  1
L=<>
  3
DIM1
100
AcDbAlignedDimension
 13
448.447241
 23
412.559226
 33
0.0
 14
662.447241
 24
412.559226
 34
0.0
100
AcDbRotatedDimension
1001
ACAD
1000
DSTYLE
1002
{
1070
   144
1040
1.0
1002
}
  0
DIMENSION
  5
28D
100
AcDbEntity
  8
DIMS
100
AcDbDimension
  2
*D11
 10
605.447241
 20
359.972053
 30
0.0
 11
555.447241
 21
359.972053
 31
0.0
 70
   128
  1
A=<>
  3
DIM1
100
AcDbAlignedDimension
 13
505.447241
 23
426.859226
 33
0.0
 14
605.447241
 24
426.859226
 34
0.0
100
AcDbRotatedDimension
1001
ACAD
1000
DSTYLE
1002
{
1070
   144
1040
1.0
1002
}
  0
DIMENSION
  5
29A
100
AcDbEntity
  8
DIMS
100
AcDbDimension
  2
*D12
 10
555.447241
 20
370.026785
 30
0.0
 11
530.311147
 21
370.026785
 31
0.0
 70
   128
  1
A/2=<>
  3
DIM1
100
AcDbAlignedDimension
 13
505.447241
 23
426.859226
 33
0.0
 14
555.447241
 24
385.559226
 34
0.0
100
AcDbRotatedDimension
1001
ACAD
1000
DSTYLE
1002
{
1070
   144
1040
1.0
1002
}
  0
LINE
  5
2A7
100
AcDbEntity
  8
DIMS
 62
     4
100
AcDbLine
 10
605.447241
 20
435.959226
 30
0.0
 11
605.447241
 21
438.259226
 31
0.0
  0
LINE
  5
2A8
100
AcDbEntity
  8
DIMS
 62
     4
100
AcDbLine
 10
605.447241
 20
429.159226
 30
0.0
 11
605.447241
 21
426.859226
 31
0.0
  0
LINE
  5
2A9
100
AcDbEntity
  8
DIMS
 62
     4
100
AcDbLine
 10
605.447241
 20
430.859226
 30
0.0
 11
605.447241
 21
434.259226
 31
0.0
  0
LINE
  5
2AA
100
AcDbEntity
  8
DIMS
 62
     4
100
AcDbLine
 10
505.447241
 20
435.959226
 30
0.0
 11
505.447241
 21
438.259226
 31
0.0
  0
LINE
  5
2AB
100
AcDbEntity
  8
DIMS
 62
     4
100
AcDbLine
 10
505.447241
 20
429.159226
 30
0.0
 11
505.447241
 21
426.859226
 31
0.0
  0
LINE
  5
2AC
100
AcDbEntity
  8
DIMS
 62
     4
100
AcDbLine
 10
505.447241
 20
430.859226
 30
0.0
 11
505.447241
 21
434.259226
 31
0.0
  0
LINE
  5
2AD
100
AcDbEntity
  8
M01
100
AcDbLine
 10
836.329019
 20
550.459226
 30
0.0
 11
842.391197
 21
550.459226
 31
0.0
  0
ARC
  5
2AE
100
AcDbEntity
  8
M01
100
AcDbCircle
 10
842.391197
 20
548.609921
 30
0.0
 40
1.150694
100
AcDbArc
 50
208.592423
 51
331.407577
  0
ARC
  5
2AF
100
AcDbEntity
  8
M01
100
AcDbCircle
 10
839.360108
 20
551.162004
 30
0.0
 40
3.702778
100
AcDbArc
 50
236.92527
 51
303.07473
  0
ARC
  5
2B0
100
AcDbEntity
  8
M01
100
AcDbCircle
 10
836.329019
 20
548.609921
 30
0.0
 40
1.150694
100
AcDbArc
 50
208.592423
 51
331.407577
  0
ARC
  5
2B1
100
AcDbEntity
  8
M01
100
AcDbCircle
 10
842.391197
 20
549.308532
 30
0.0
 40
1.150694
100
AcDbArc
 50
28.592423
 51
151.407577
  0
ARC
  5
2B2
100
AcDbEntity
  8
M01
100
AcDbCircle
 10
839.360108
 20
546.756448
 30
0.0
 40
3.702778
100
AcDbArc
 50
56.92527
 51
123.07473
  0
LINE
  5
2B3
100
AcDbEntity
  8
M01
100
AcDbLine
 10
841.380834
 20
549.859226
 30
0.0
 11
841.380834
 21
548.059226
 31
0.0
  0
LINE
  5
2B4
100
AcDbEntity
  8
M01
100
AcDbLine
 10
843.40156
 20
549.859226
 30
0.0
 11
843.40156
 21
548.059226
 31
0.0
  0
ARC
  5
2B5
100
AcDbEntity
  8
M01
100
AcDbCircle
 10
836.329019
 20
549.308532
 30
0.0
 40
1.150694
100
AcDbArc
 50
28.592423
 51
151.407577
  0
LINE
  5
2B6
100
AcDbEntity
  8
M01
100
AcDbLine
 10
837.339382
 20
549.859226
 30
0.0
 11
837.339382
 21
548.059226
 31
0.0
  0
LINE
  5
2B7
100
AcDbEntity
  8
M01
100
AcDbLine
 10
835.318656
 20
549.859226
 30
0.0
 11
835.318656
 21
548.059226
 31
0.0
  0
LINE
  5
2B8
100
AcDbEntity
  8
M01
100
AcDbLine
 10
844.360108
 20
545.159226
 30
0.0
 11
844.360108
 21
546.659226
 31
0.0
  0
LINE
  5
2B9
100
AcDbEntity
  8
M01
100
AcDbLine
 10
834.360108
 20
545.159226
 30
0.0
 11
834.360108
 21
546.659226
 31
0.0
  0
LINE
  5
2BA
100
AcDbEntity
  8
M01
100
AcDbLine
 10
843.860108
 20
546.659226
 30
0.0
 11
843.860108
 21
547.459226
 31
0.0
  0
LINE
  5
2BB
100
AcDbEntity
  8
M01
100
AcDbLine
 10
834.860108
 20
546.659226
 30
0.0
 11
834.860108
 21
547.459226
 31
0.0
  0
LINE
  5
2BC
100
AcDbEntity
  8
M01
100
AcDbLine
 10
834.860108
 20
547.459226
 30
0.0
 11
843.860108
 21
547.459226
 31
0.0
  0
LINE
  5
2BD
100
AcDbEntity
  8
M01
100
AcDbLine
 10
834.360108
 20
546.659226
 30
0.0
 11
844.360108
 21
546.659226
 31
0.0
  0
LINE
  5
2BE
100
AcDbEntity
  8
M01
100
AcDbLine
 10
843.860108
 20
544.359226
 30
0.0
 11
843.860108
 21
545.159226
 31
0.0
  0
LINE
  5
2BF
100
AcDbEntity
  8
M01
100
AcDbLine
 10
834.860108
 20
544.359226
 30
0.0
 11
834.860108
 21
545.159226
 31
0.0
  0
LINE
  5
2C0
100
AcDbEntity
  8
M01
100
AcDbLine
 10
829.360108
 20
545.159226
 30
0.0
 11
844.360108
 21
545.159226
 31
0.0
  0
ARC
  5
2C1
100
AcDbEntity
  8
M01
100
AcDbCircle
 10
842.391197
 20
542.509921
 30
0.0
 40
1.150694
100
AcDbArc
 50
208.592423
 51
331.407577
  0
ARC
  5
2C2
100
AcDbEntity
  8
M01
100
AcDbCircle
 10
839.360108
 20
545.062004
 30
0.0
 40
3.702778
100
AcDbArc
 50
236.92527
 51
303.07473
  0
ARC
  5
2C3
100
AcDbEntity
  8
M01
100
AcDbCircle
 10
836.329019
 20
542.509921
 30
0.0
 40
1.150694
100
AcDbArc
 50
208.592423
 51
331.407577
  0
ARC
  5
2C4
100
AcDbEntity
  8
M01
100
AcDbCircle
 10
842.391197
 20
543.208532
 30
0.0
 40
1.150694
100
AcDbArc
 50
28.592423
 51
151.407577
  0
ARC
  5
2C5
100
AcDbEntity
  8
M01
100
AcDbCircle
 10
839.360108
 20
540.656448
 30
0.0
 40
3.702778
100
AcDbArc
 50
56.92527
 51
123.07473
  0
LINE
  5
2C6
100
AcDbEntity
  8
M01
100
AcDbLine
 10
841.380834
 20
543.759226
 30
0.0
 11
841.380834
 21
541.959226
 31
0.0
  0
LINE
  5
2C7
100
AcDbEntity
  8
M01
100
AcDbLine
 10
843.40156
 20
543.759226
 30
0.0
 11
843.40156
 21
541.959226
 31
0.0
  0
ARC
  5
2C8
100
AcDbEntity
  8
M01
100
AcDbCircle
 10
836.329019
 20
543.208532
 30
0.0
 40
1.150694
100
AcDbArc
 50
28.592423
 51
151.407577
  0
LINE
  5
2C9
100
AcDbEntity
  8
M01
100
AcDbLine
 10
837.339382
 20
543.759226
 30
0.0
 11
837.339382
 21
541.959226
 31
0.0
  0
LINE
  5
2CA
100
AcDbEntity
  8
M01
100
AcDbLine
 10
835.318656
 20
543.759226
 30
0.0
 11
835.318656
 21
541.959226
 31
0.0
  0
LINE
  5
2CB
100
AcDbEntity
  8
M01
100
AcDbLine
 10
834.860108
 20
544.359226
 30
0.0
 11
843.860108
 21
544.359226
 31
0.0
  0
LINE
  5
2CC
100
AcDbEntity
  8
M01
100
AcDbLine
 10
834.860108
 20
541.359226
 30
0.0
 11
843.860108
 21
541.359226
 31
0.0
  0
LINE
  5
2CD
100
AcDbEntity
  8
M01
100
AcDbLine
 10
834.860108
 20
540.559226
 30
0.0
 11
843.860108
 21
540.559226
 31
0.0
  0
LINE
  5
2CE
100
AcDbEntity
  8
M01
100
AcDbLine
 10
840.860108
 20
553.559226
 30
0.0
 11
841.360108
 21
553.059226
 31
0.0
  0
LINE
  5
2CF
100
AcDbEntity
  8
M01
100
AcDbLine
 10
837.360108
 20
553.059226
 30
0.0
 11
837.860108
 21
553.559226
 31
0.0
  0
LINE
  5
2D0
100
AcDbEntity
  8
M01
100
AcDbLine
 10
837.360108
 20
553.059226
 30
0.0
 11
841.360108
 21
553.059226
 31
0.0
  0
LINE
  5
2D1
100
AcDbEntity
  8
M01
100
AcDbLine
 10
840.860108
 20
553.559226
 30
0.0
 11
840.860108
 21
550.459226
 31
0.0
  0
LINE
  5
2D2
100
AcDbEntity
  8
M01
100
AcDbLine
 10
837.860108
 20
553.559226
 30
0.0
 11
837.860108
 21
550.459226
 31
0.0
  0
LINE
  5
2D3
100
AcDbEntity
  8
M01
100
AcDbLine
 10
837.360108
 20
553.059226
 30
0.0
 11
837.360108
 21
550.459226
 31
0.0
  0
LINE
  5
2D4
100
AcDbEntity
  8
M01
100
AcDbLine
 10
841.360108
 20
553.059226
 30
0.0
 11
841.360108
 21
550.459226
 31
0.0
  0
LINE
  5
2D5
100
AcDbEntity
  8
M01
100
AcDbLine
 10
837.860108
 20
553.559226
 30
0.0
 11
840.860108
 21
553.559226
 31
0.0
  0
LINE
  5
2D6
100
AcDbEntity
  8
M01
100
AcDbLine
 10
834.360108
 20
528.559226
 30
0.0
 11
844.360108
 21
528.559226
 31
0.0
  0
LINE
  5
2D7
100
AcDbEntity
  8
M01
100
AcDbLine
 10
843.860108
 20
541.359226
 30
0.0
 11
843.860108
 21
540.559226
 31
0.0
  0
LINE
  5
2D8
100
AcDbEntity
  8
M01
100
AcDbLine
 10
834.860108
 20
541.359226
 30
0.0
 11
834.860108
 21
540.559226
 31
0.0
  0
LINE
  5
2D9
100
AcDbEntity
  8
CENTRE
100
AcDbLine
 10
839.360108
 20
559.720115
 30
0.0
 11
839.360108
 21
496.126684
 31
0.0
  0
LINE
  5
2DA
100
AcDbEntity
  8
M01
100
AcDbLine
 10
807.391197
 20
550.459226
 30
0.0
 11
801.329019
 21
550.459226
 31
0.0
  0
ARC
  5
2DB
100
AcDbEntity
  8
M01
100
AcDbCircle
 10
801.329019
 20
548.609921
 30
0.0
 40
1.150694
100
AcDbArc
 50
208.592423
 51
331.407577
  0
ARC
  5
2DC
100
AcDbEntity
  8
M01
100
AcDbCircle
 10
804.360108
 20
551.162004
 30
0.0
 40
3.702778
100
AcDbArc
 50
236.92527
 51
303.07473
  0
ARC
  5
2DD
100
AcDbEntity
  8
M01
100
AcDbCircle
 10
807.391197
 20
548.609921
 30
0.0
 40
1.150694
100
AcDbArc
 50
208.592423
 51
331.407577
  0
ARC
  5
2DE
100
AcDbEntity
  8
M01
100
AcDbCircle
 10
801.329019
 20
549.308532
 30
0.0
 40
1.150694
100
AcDbArc
 50
28.592423
 51
151.407577
  0
ARC
  5
2DF
100
AcDbEntity
  8
M01
100
AcDbCircle
 10
804.360108
 20
546.756448
 30
0.0
 40
3.702778
100
AcDbArc
 50
56.92527
 51
123.07473
  0
LINE
  5
2E0
100
AcDbEntity
  8
M01
100
AcDbLine
 10
802.339382
 20
549.859226
 30
0.0
 11
802.339382
 21
548.059226
 31
0.0
  0
LINE
  5
2E1
100
AcDbEntity
  8
M01
100
AcDbLine
 10
800.318656
 20
549.859226
 30
0.0
 11
800.318656
 21
548.059226
 31
0.0
  0
ARC
  5
2E2
100
AcDbEntity
  8
M01
100
AcDbCircle
 10
807.391197
 20
549.308532
 30
0.0
 40
1.150694
100
AcDbArc
 50
28.592423
 51
151.407577
  0
LINE
  5
2E3
100
AcDbEntity
  8
M01
100
AcDbLine
 10
806.380834
 20
549.859226
 30
0.0
 11
806.380834
 21
548.059226
 31
0.0
  0
LINE
  5
2E4
100
AcDbEntity
  8
M01
100
AcDbLine
 10
808.40156
 20
549.859226
 30
0.0
 11
808.40156
 21
548.059226
 31
0.0
  0
LINE
  5
2E5
100
AcDbEntity
  8
M01
100
AcDbLine
 10
799.360108
 20
545.159226
 30
0.0
 11
799.360108
 21
546.659226
 31
0.0
  0
LINE
  5
2E6
100
AcDbEntity
  8
M01
100
AcDbLine
 10
799.860108
 20
546.659226
 30
0.0
 11
799.860108
 21
547.459226
 31
0.0
  0
LINE
  5
2E7
100
AcDbEntity
  8
M01
100
AcDbLine
 10
808.860108
 20
546.659226
 30
0.0
 11
808.860108
 21
547.459226
 31
0.0
  0
LINE
  5
2E8
100
AcDbEntity
  8
M01
100
AcDbLine
 10
808.860108
 20
547.459226
 30
0.0
 11
799.860108
 21
547.459226
 31
0.0
  0
LINE
  5
2E9
100
AcDbEntity
  8
M01
100
AcDbLine
 10
809.360108
 20
546.659226
 30
0.0
 11
799.360108
 21
546.659226
 31
0.0
  0
LINE
  5
2EA
100
AcDbEntity
  8
M01
100
AcDbLine
 10
799.860108
 20
544.359226
 30
0.0
 11
799.860108
 21
545.159226
 31
0.0
  0
LINE
  5
2EB
100
AcDbEntity
  8
M01
100
AcDbLine
 10
808.860108
 20
544.359226
 30
0.0
 11
808.860108
 21
545.159226
 31
0.0
  0
ARC
  5
2EC
100
AcDbEntity
  8
M01
100
AcDbCircle
 10
801.329019
 20
542.509921
 30
0.0
 40
1.150694
100
AcDbArc
 50
208.592423
 51
331.407577
  0
ARC
  5
2ED
100
AcDbEntity
  8
M01
100
AcDbCircle
 10
804.360108
 20
545.062004
 30
0.0
 40
3.702778
100
AcDbArc
 50
236.92527
 51
303.07473
  0
ARC
  5
2EE
100
AcDbEntity
  8
M01
100
AcDbCircle
 10
807.391197
 20
542.509921
 30
0.0
 40
1.150694
100
AcDbArc
 50
208.592423
 51
331.407577
  0
ARC
  5
2EF
100
AcDbEntity
  8
M01
100
AcDbCircle
 10
801.329019
 20
543.208532
 30
0.0
 40
1.150694
100
AcDbArc
 50
28.592423
 51
151.407577
  0
ARC
  5
2F0
100
AcDbEntity
  8
M01
100
AcDbCircle
 10
804.360108
 20
540.656448
 30
0.0
 40
3.702778
100
AcDbArc
 50
56.92527
 51
123.07473
  0
LINE
  5
2F1
100
AcDbEntity
  8
M01
100
AcDbLine
 10
802.339382
 20
543.759226
 30
0.0
 11
802.339382
 21
541.959226
 31
0.0
  0
LINE
  5
2F2
100
AcDbEntity
  8
M01
100
AcDbLine
 10
800.318656
 20
543.759226
 30
0.0
 11
800.318656
 21
541.959226
 31
0.0
  0
ARC
  5
2F3
100
AcDbEntity
  8
M01
100
AcDbCircle
 10
807.391197
 20
543.208532
 30
0.0
 40
1.150694
100
AcDbArc
 50
28.592423
 51
151.407577
  0
LINE
  5
2F4
100
AcDbEntity
  8
M01
100
AcDbLine
 10
806.380834
 20
543.759226
 30
0.0
 11
806.380834
 21
541.959226
 31
0.0
  0
LINE
  5
2F5
100
AcDbEntity
  8
M01
100
AcDbLine
 10
808.40156
 20
543.759226
 30
0.0
 11
808.40156
 21
541.959226
 31
0.0
  0
LINE
  5
2F6
100
AcDbEntity
  8
M01
100
AcDbLine
 10
808.860108
 20
544.359226
 30
0.0
 11
799.860108
 21
544.359226
 31
0.0
  0
LINE
  5
2F7
100
AcDbEntity
  8
M01
100
AcDbLine
 10
808.860108
 20
541.359226
 30
0.0
 11
799.860108
 21
541.359226
 31
0.0
  0
LINE
  5
2F8
100
AcDbEntity
  8
M01
100
AcDbLine
 10
808.860108
 20
540.559226
 30
0.0
 11
799.860108
 21
540.559226
 31
0.0
  0
LINE
  5
2F9
100
AcDbEntity
  8
M01
100
AcDbLine
 10
802.860108
 20
553.559226
 30
0.0
 11
802.360108
 21
553.059226
 31
0.0
  0
LINE
  5
2FA
100
AcDbEntity
  8
M01
100
AcDbLine
 10
806.360108
 20
553.059226
 30
0.0
 11
805.860108
 21
553.559226
 31
0.0
  0
LINE
  5
2FB
100
AcDbEntity
  8
M01
100
AcDbLine
 10
806.360108
 20
553.059226
 30
0.0
 11
802.360108
 21
553.059226
 31
0.0
  0
LINE
  5
2FC
100
AcDbEntity
  8
M01
100
AcDbLine
 10
802.860108
 20
553.559226
 30
0.0
 11
802.860108
 21
550.459226
 31
0.0
  0
LINE
  5
2FD
100
AcDbEntity
  8
M01
100
AcDbLine
 10
805.860108
 20
553.559226
 30
0.0
 11
805.860108
 21
550.459226
 31
0.0
  0
LINE
  5
2FE
100
AcDbEntity
  8
M01
100
AcDbLine
 10
806.360108
 20
553.059226
 30
0.0
 11
806.360108
 21
550.459226
 31
0.0
  0
LINE
  5
2FF
100
AcDbEntity
  8
M01
100
AcDbLine
 10
802.360108
 20
553.059226
 30
0.0
 11
802.360108
 21
550.459226
 31
0.0
  0
LINE
  5
300
100
AcDbEntity
  8
M01
100
AcDbLine
 10
805.860108
 20
553.559226
 30
0.0
 11
802.860108
 21
553.559226
 31
0.0
  0
LINE
  5
301
100
AcDbEntity
  8
M01
100
AcDbLine
 10
809.360108
 20
528.559226
 30
0.0
 11
799.360108
 21
528.559226
 31
0.0
  0
LINE
  5
302
100
AcDbEntity
  8
M01
100
AcDbLine
 10
799.860108
 20
541.359226
 30
0.0
 11
799.860108
 21
540.559226
 31
0.0
  0
LINE
  5
303
100
AcDbEntity
  8
M01
100
AcDbLine
 10
808.860108
 20
541.359226
 30
0.0
 11
808.860108
 21
540.559226
 31
0.0
  0
LINE
  5
304
100
AcDbEntity
  8
CENTRE
100
AcDbLine
 10
804.360108
 20
559.720115
 30
0.0
 11
804.360108
 21
496.126684
 31
0.0
  0
LINE
  5
305
100
AcDbEntity
  8
M01
100
AcDbLine
 10
570.478329
 20
550.459226
 30
0.0
 11
564.416152
 21
550.459226
 31
0.0
  0
ARC
  5
306
100
AcDbEntity
  8
M01
100
AcDbCircle
 10
564.416152
 20
548.609921
 30
0.0
 40
1.150694
100
AcDbArc
 50
208.592423
 51
331.407577
  0
ARC
  5
307
100
AcDbEntity
  8
M01
100
AcDbCircle
 10
567.447241
 20
551.162004
 30
0.0
 40
3.702778
100
AcDbArc
 50
236.92527
 51
303.07473
  0
ARC
  5
308
100
AcDbEntity
  8
M01
100
AcDbCircle
 10
570.478329
 20
548.609921
 30
0.0
 40
1.150694
100
AcDbArc
 50
208.592423
 51
331.407577
  0
ARC
  5
309
100
AcDbEntity
  8
M01
100
AcDbCircle
 10
564.416152
 20
549.308532
 30
0.0
 40
1.150694
100
AcDbArc
 50
28.592423
 51
151.407577
  0
ARC
  5
30A
100
AcDbEntity
  8
M01
100
AcDbCircle
 10
567.447241
 20
546.756448
 30
0.0
 40
3.702778
100
AcDbArc
 50
56.92527
 51
123.07473
  0
LINE
  5
30B
100
AcDbEntity
  8
M01
100
AcDbLine
 10
565.426515
 20
549.859226
 30
0.0
 11
565.426515
 21
548.059226
 31
0.0
  0
LINE
  5
30C
100
AcDbEntity
  8
M01
100
AcDbLine
 10
563.405789
 20
549.859226
 30
0.0
 11
563.405789
 21
548.059226
 31
0.0
  0
ARC
  5
30D
100
AcDbEntity
  8
M01
100
AcDbCircle
 10
570.478329
 20
549.308532
 30
0.0
 40
1.150694
100
AcDbArc
 50
28.592423
 51
151.407577
  0
LINE
  5
30E
100
AcDbEntity
  8
M01
100
AcDbLine
 10
569.467967
 20
549.859226
 30
0.0
 11
569.467967
 21
548.059226
 31
0.0
  0
LINE
  5
30F
100
AcDbEntity
  8
M01
100
AcDbLine
 10
571.488692
 20
549.859226
 30
0.0
 11
571.488692
 21
548.059226
 31
0.0
  0
LINE
  5
310
100
AcDbEntity
  8
M01
100
AcDbLine
 10
562.447241
 20
545.159226
 30
0.0
 11
562.447241
 21
546.659226
 31
0.0
  0
LINE
  5
311
100
AcDbEntity
  8
M01
100
AcDbLine
 10
572.447241
 20
545.159226
 30
0.0
 11
572.447241
 21
546.659226
 31
0.0
  0
LINE
  5
312
100
AcDbEntity
  8
M01
100
AcDbLine
 10
562.947241
 20
546.659226
 30
0.0
 11
562.947241
 21
547.459226
 31
0.0
  0
LINE
  5
313
100
AcDbEntity
  8
M01
100
AcDbLine
 10
571.947241
 20
546.659226
 30
0.0
 11
571.947241
 21
547.459226
 31
0.0
  0
LINE
  5
314
100
AcDbEntity
  8
M01
100
AcDbLine
 10
571.947241
 20
547.459226
 30
0.0
 11
562.947241
 21
547.459226
 31
0.0
  0
LINE
  5
315
100
AcDbEntity
  8
M01
100
AcDbLine
 10
572.447241
 20
546.659226
 30
0.0
 11
562.447241
 21
546.659226
 31
0.0
  0
LINE
  5
316
100
AcDbEntity
  8
M01
100
AcDbLine
 10
562.947241
 20
544.359226
 30
0.0
 11
562.947241
 21
545.159226
 31
0.0
  0
LINE
  5
317
100
AcDbEntity
  8
M01
100
AcDbLine
 10
571.947241
 20
544.359226
 30
0.0
 11
571.947241
 21
545.159226
 31
0.0
  0
LINE
  5
318
100
AcDbEntity
  8
M01
100
AcDbLine
 10
572.447241
 20
545.159226
 30
0.0
 11
562.447241
 21
545.159226
 31
0.0
  0
ARC
  5
319
100
AcDbEntity
  8
M01
100
AcDbCircle
 10
564.416152
 20
542.509921
 30
0.0
 40
1.150694
100
AcDbArc
 50
208.592423
 51
331.407577
  0
ARC
  5
31A
100
AcDbEntity
  8
M01
100
AcDbCircle
 10
567.447241
 20
545.062004
 30
0.0
 40
3.702778
100
AcDbArc
 50
236.92527
 51
303.07473
  0
ARC
  5
31B
100
AcDbEntity
  8
M01
100
AcDbCircle
 10
570.478329
 20
542.509921
 30
0.0
 40
1.150694
100
AcDbArc
 50
208.592423
 51
331.407577
  0
ARC
  5
31C
100
AcDbEntity
  8
M01
100
AcDbCircle
 10
564.416152
 20
543.208532
 30
0.0
 40
1.150694
100
AcDbArc
 50
28.592423
 51
151.407577
  0
ARC
  5
31D
100
AcDbEntity
  8
M01
100
AcDbCircle
 10
567.447241
 20
540.656448
 30
0.0
 40
3.702778
100
AcDbArc
 50
56.92527
 51
123.07473
  0
LINE
  5
31E
100
AcDbEntity
  8
M01
100
AcDbLine
 10
565.426515
 20
543.759226
 30
0.0
 11
565.426515
 21
541.959226
 31
0.0
  0
LINE
  5
31F
100
AcDbEntity
  8
M01
100
AcDbLine
 10
563.405789
 20
543.759226
 30
0.0
 11
563.405789
 21
541.959226
 31
0.0
  0
ARC
  5
320
100
AcDbEntity
  8
M01
100
AcDbCircle
 10
570.478329
 20
543.208532
 30
0.0
 40
1.150694
100
AcDbArc
 50
28.592423
 51
151.407577
  0
LINE
  5
321
100
AcDbEntity
  8
M01
100
AcDbLine
 10
569.467967
 20
543.759226
 30
0.0
 11
569.467967
 21
541.959226
 31
0.0
  0
LINE
  5
322
100
AcDbEntity
  8
M01
100
AcDbLine
 10
571.488692
 20
543.759226
 30
0.0
 11
571.488692
 21
541.959226
 31
0.0
  0
LINE
  5
323
100
AcDbEntity
  8
M01
100
AcDbLine
 10
571.947241
 20
544.359226
 30
0.0
 11
562.947241
 21
544.359226
 31
0.0
  0
LINE
  5
324
100
AcDbEntity
  8
M01
100
AcDbLine
 10
571.947241
 20
541.359226
 30
0.0
 11
562.947241
 21
541.359226
 31
0.0
  0
LINE
  5
325
100
AcDbEntity
  8
M01
100
AcDbLine
 10
565.947241
 20
553.559226
 30
0.0
 11
565.447241
 21
553.059226
 31
0.0
  0
LINE
  5
326
100
AcDbEntity
  8
M01
100
AcDbLine
 10
569.447241
 20
553.059226
 30
0.0
 11
568.947241
 21
553.559226
 31
0.0
  0
LINE
  5
327
100
AcDbEntity
  8
M01
100
AcDbLine
 10
569.447241
 20
553.059226
 30
0.0
 11
565.447241
 21
553.059226
 31
0.0
  0
LINE
  5
328
100
AcDbEntity
  8
M01
100
AcDbLine
 10
565.947241
 20
553.559226
 30
0.0
 11
565.947241
 21
550.459226
 31
0.0
  0
LINE
  5
329
100
AcDbEntity
  8
M01
100
AcDbLine
 10
568.947241
 20
553.559226
 30
0.0
 11
568.947241
 21
550.459226
 31
0.0
  0
LINE
  5
32A
100
AcDbEntity
  8
M01
100
AcDbLine
 10
569.447241
 20
553.059226
 30
0.0
 11
569.447241
 21
550.459226
 31
0.0
  0
LINE
  5
32B
100
AcDbEntity
  8
M01
100
AcDbLine
 10
565.447241
 20
553.059226
 30
0.0
 11
565.447241
 21
550.459226
 31
0.0
  0
LINE
  5
32C
100
AcDbEntity
  8
M01
100
AcDbLine
 10
568.947241
 20
553.559226
 30
0.0
 11
565.947241
 21
553.559226
 31
0.0
  0
LINE
  5
32D
100
AcDbEntity
  8
M01
100
AcDbLine
 10
572.447241
 20
528.559226
 30
0.0
 11
562.447241
 21
528.559226
 31
0.0
  0
LINE
  5
32E
100
AcDbEntity
  8
CENTRE
100
AcDbLine
 10
567.447241
 20
559.720115
 30
0.0
 11
567.447241
 21
496.126684
 31
0.0
  0
LINE
  5
32F
100
AcDbEntity
  8
M01
100
AcDbLine
 10
540.416152
 20
550.459226
 30
0.0
 11
546.478329
 21
550.459226
 31
0.0
  0
ARC
  5
330
100
AcDbEntity
  8
M01
100
AcDbCircle
 10
546.478329
 20
548.609921
 30
0.0
 40
1.150694
100
AcDbArc
 50
208.592423
 51
331.407577
  0
ARC
  5
331
100
AcDbEntity
  8
M01
100
AcDbCircle
 10
543.447241
 20
551.162004
 30
0.0
 40
3.702778
100
AcDbArc
 50
236.92527
 51
303.07473
  0
ARC
  5
332
100
AcDbEntity
  8
M01
100
AcDbCircle
 10
540.416152
 20
548.609921
 30
0.0
 40
1.150694
100
AcDbArc
 50
208.592423
 51
331.407577
  0
ARC
  5
333
100
AcDbEntity
  8
M01
100
AcDbCircle
 10
546.478329
 20
549.308532
 30
0.0
 40
1.150694
100
AcDbArc
 50
28.592423
 51
151.407577
  0
ARC
  5
334
100
AcDbEntity
  8
M01
100
AcDbCircle
 10
543.447241
 20
546.756448
 30
0.0
 40
3.702778
100
AcDbArc
 50
56.92527
 51
123.07473
  0
LINE
  5
335
100
AcDbEntity
  8
M01
100
AcDbLine
 10
545.467967
 20
549.859226
 30
0.0
 11
545.467967
 21
548.059226
 31
0.0
  0
LINE
  5
336
100
AcDbEntity
  8
M01
100
AcDbLine
 10
547.488692
 20
549.859226
 30
0.0
 11
547.488692
 21
548.059226
 31
0.0
  0
ARC
  5
337
100
AcDbEntity
  8
M01
100
AcDbCircle
 10
540.416152
 20
549.308532
 30
0.0
 40
1.150694
100
AcDbArc
 50
28.592423
 51
151.407577
  0
LINE
  5
338
100
AcDbEntity
  8
M01
100
AcDbLine
 10
541.426515
 20
549.859226
 30
0.0
 11
541.426515
 21
548.059226
 31
0.0
  0
LINE
  5
339
100
AcDbEntity
  8
M01
100
AcDbLine
 10
539.405789
 20
549.859226
 30
0.0
 11
539.405789
 21
548.059226
 31
0.0
  0
LINE
  5
33A
100
AcDbEntity
  8
M01
100
AcDbLine
 10
548.447241
 20
545.159226
 30
0.0
 11
548.447241
 21
546.659226
 31
0.0
  0
LINE
  5
33B
100
AcDbEntity
  8
M01
100
AcDbLine
 10
538.447241
 20
545.159226
 30
0.0
 11
538.447241
 21
546.659226
 31
0.0
  0
LINE
  5
33C
100
AcDbEntity
  8
M01
100
AcDbLine
 10
547.947241
 20
546.659226
 30
0.0
 11
547.947241
 21
547.459226
 31
0.0
  0
LINE
  5
33D
100
AcDbEntity
  8
M01
100
AcDbLine
 10
538.947241
 20
546.659226
 30
0.0
 11
538.947241
 21
547.459226
 31
0.0
  0
LINE
  5
33E
100
AcDbEntity
  8
M01
100
AcDbLine
 10
538.947241
 20
547.459226
 30
0.0
 11
547.947241
 21
547.459226
 31
0.0
  0
LINE
  5
33F
100
AcDbEntity
  8
M01
100
AcDbLine
 10
538.447241
 20
546.659226
 30
0.0
 11
548.447241
 21
546.659226
 31
0.0
  0
LINE
  5
340
100
AcDbEntity
  8
M01
100
AcDbLine
 10
547.947241
 20
544.359226
 30
0.0
 11
547.947241
 21
545.159226
 31
0.0
  0
LINE
  5
341
100
AcDbEntity
  8
M01
100
AcDbLine
 10
538.947241
 20
544.359226
 30
0.0
 11
538.947241
 21
545.159226
 31
0.0
  0
LINE
  5
342
100
AcDbEntity
  8
M01
100
AcDbLine
 10
538.447241
 20
545.159226
 30
0.0
 11
548.447241
 21
545.159226
 31
0.0
  0
ARC
  5
343
100
AcDbEntity
  8
M01
100
AcDbCircle
 10
546.478329
 20
542.509921
 30
0.0
 40
1.150694
100
AcDbArc
 50
208.592423
 51
331.407577
  0
ARC
  5
344
100
AcDbEntity
  8
M01
100
AcDbCircle
 10
543.447241
 20
545.062004
 30
0.0
 40
3.702778
100
AcDbArc
 50
236.92527
 51
303.07473
  0
ARC
  5
345
100
AcDbEntity
  8
M01
100
AcDbCircle
 10
540.416152
 20
542.509921
 30
0.0
 40
1.150694
100
AcDbArc
 50
208.592423
 51
331.407577
  0
ARC
  5
346
100
AcDbEntity
  8
M01
100
AcDbCircle
 10
546.478329
 20
543.208532
 30
0.0
 40
1.150694
100
AcDbArc
 50
28.592423
 51
151.407577
  0
ARC
  5
347
100
AcDbEntity
  8
M01
100
AcDbCircle
 10
543.447241
 20
540.656448
 30
0.0
 40
3.702778
100
AcDbArc
 50
56.92527
 51
123.07473
  0
LINE
  5
348
100
AcDbEntity
  8
M01
100
AcDbLine
 10
545.467967
 20
543.759226
 30
0.0
 11
545.467967
 21
541.959226
 31
0.0
  0
LINE
  5
349
100
AcDbEntity
  8
M01
100
AcDbLine
 10
547.488692
 20
543.759226
 30
0.0
 11
547.488692
 21
541.959226
 31
0.0
  0
ARC
  5
34A
100
AcDbEntity
  8
M01
100
AcDbCircle
 10
540.416152
 20
543.208532
 30
0.0
 40
1.150694
100
AcDbArc
 50
28.592423
 51
151.407577
  0
LINE
  5
34B
100
AcDbEntity
  8
M01
100
AcDbLine
 10
541.426515
 20
543.759226
 30
0.0
 11
541.426515
 21
541.959226
 31
0.0
  0
LINE
  5
34C
100
AcDbEntity
  8
M01
100
AcDbLine
 10
539.405789
 20
543.759226
 30
0.0
 11
539.405789
 21
541.959226
 31
0.0
  0
LINE
  5
34D
100
AcDbEntity
  8
M01
100
AcDbLine
 10
538.947241
 20
544.359226
 30
0.0
 11
547.947241
 21
544.359226
 31
0.0
  0
LINE
  5
34E
100
AcDbEntity
  8
M01
100
AcDbLine
 10
538.947241
 20
541.359226
 30
0.0
 11
547.947241
 21
541.359226
 31
0.0
  0
LINE
  5
34F
100
AcDbEntity
  8
M01
100
AcDbLine
 10
538.947241
 20
540.559226
 30
0.0
 11
547.947241
 21
540.559226
 31
0.0
  0
LINE
  5
350
100
AcDbEntity
  8
M01
100
AcDbLine
 10
509.447241
 20
274.986474
 30
0.0
 11
505.447241
 21
270.986474
 31
0.0
  0
LINE
  5
351
102
{ACAD_REACTORS
330
95
102
}
100
AcDbEntity
  8
M01
100
AcDbLine
 10
551.447241
 20
266.986474
 30
0.0
 11
505.447241
 21
266.986474
 31
0.0
  0
LINE
  5
352
102
{ACAD_REACTORS
330
95
102
}
100
AcDbEntity
  8
M01
100
AcDbLine
 10
509.447241
 20
274.986474
 30
0.0
 11
509.447241
 21
294.486474
 31
0.0
  0
LINE
  5
353
102
{ACAD_REACTORS
330
95
102
}
100
AcDbEntity
  8
M01
100
AcDbLine
 10
501.447241
 20
270.986474
 30
0.0
 11
501.447241
 21
294.486474
 31
0.0
  0
ARC
  5
354
102
{ACAD_REACTORS
330
95
102
}
100
AcDbEntity
  8
M01
100
AcDbCircle
 10
505.447241
 20
270.986474
 30
0.0
 40
4.0
100
AcDbArc
 50
180.0
 51
270.0
  0
LINE
  5
355
100
AcDbEntity
  8
M01
100
AcDbLine
 10
551.447241
 20
266.986474
 30
0.0
 11
555.447241
 21
270.986474
 31
0.0
  0
LINE
  5
356
100
AcDbEntity
  8
M01
100
AcDbLine
 10
559.447241
 20
266.986474
 30
0.0
 11
555.447241
 21
270.986474
 31
0.0
  0
LINE
  5
357
100
AcDbEntity
  8
M01
100
AcDbLine
 10
601.447241
 20
274.986474
 30
0.0
 11
605.447241
 21
270.986474
 31
0.0
  0
LINE
  5
358
102
{ACAD_REACTORS
330
95
102
}
100
AcDbEntity
  8
M01
100
AcDbLine
 10
509.447241
 20
274.986474
 30
0.0
 11
601.447241
 21
274.986474
 31
0.0
  0
LINE
  5
359
102
{ACAD_REACTORS
330
95
102
}
100
AcDbEntity
  8
M01
100
AcDbLine
 10
559.447241
 20
266.986474
 30
0.0
 11
605.447241
 21
266.986474
 31
0.0
  0
LINE
  5
35A
102
{ACAD_REACTORS
330
95
102
}
100
AcDbEntity
  8
M01
100
AcDbLine
 10
601.447241
 20
274.986474
 30
0.0
 11
601.447241
 21
294.486474
 31
0.0
  0
LINE
  5
35B
102
{ACAD_REACTORS
330
95
102
}
100
AcDbEntity
  8
M01
100
AcDbLine
 10
609.447241
 20
270.986474
 30
0.0
 11
609.447241
 21
294.486474
 31
0.0
  0
ARC
  5
35C
102
{ACAD_REACTORS
330
95
102
}
100
AcDbEntity
  8
M01
100
AcDbCircle
 10
605.447241
 20
270.986474
 30
0.0
 40
4.0
100
AcDbArc
 50
270.0
 51
0.0
  0
LINE
  5
35D
100
AcDbEntity
  8
M02
100
AcDbLine
 10
624.447241
 20
244.486474
 30
0.0
 11
660.447241
 21
244.486474
 31
0.0
  0
LINE
  5
35E
102
{ACAD_REACTORS
330
95
102
}
100
AcDbEntity
  8
M05
  6
HIDDEN
100
AcDbLine
 10
596.447241
 20
247.786474
 30
0.0
 11
624.447241
 21
247.786474
 31
0.0
  0
LINE
  5
35F
102
{ACAD_REACTORS
330
95
102
}
100
AcDbEntity
  8
M05
  6
HIDDEN
100
AcDbLine
 10
624.447241
 20
247.786474
 30
0.0
 11
623.747241
 21
248.486474
 31
0.0
  0
LINE
  5
360
102
{ACAD_REACTORS
330
95
102
}
100
AcDbEntity
  8
M05
  6
HIDDEN
100
AcDbLine
 10
624.447241
 20
246.786474
 30
0.0
 11
624.447241
 21
247.786474
 31
0.0
  0
LINE
  5
361
100
AcDbEntity
  8
M05
100
AcDbLine
 10
624.447241
 20
246.786474
 30
0.0
 11
623.747241
 21
247.486474
 31
0.0
  0
LINE
  5
362
100
AcDbEntity
  8
M05
100
AcDbLine
 10
624.447241
 20
241.186474
 30
0.0
 11
623.747241
 21
240.486474
 31
0.0
  0
LINE
  5
363
100
AcDbEntity
  8
M05
100
AcDbLine
 10
624.447241
 20
246.786474
 30
0.0
 11
624.447241
 21
241.186474
 31
0.0
  0
LINE
  5
364
102
{ACAD_REACTORS
330
95
102
}
100
AcDbEntity
  8
M05
  6
HIDDEN
100
AcDbLine
 10
596.447241
 20
247.786474
 30
0.0
 11
597.147241
 21
248.486474
 31
0.0
  0
LINE
  5
365
102
{ACAD_REACTORS
330
95
102
}
100
AcDbEntity
  8
M05
  6
HIDDEN
100
AcDbLine
 10
596.447241
 20
246.786474
 30
0.0
 11
596.447241
 21
247.786474
 31
0.0
  0
LINE
  5
366
100
AcDbEntity
  8
M05
100
AcDbLine
 10
596.447241
 20
246.786474
 30
0.0
 11
597.147241
 21
247.486474
 31
0.0
  0
LINE
  5
367
100
AcDbEntity
  8
M05
100
AcDbLine
 10
596.447241
 20
241.186474
 30
0.0
 11
597.147241
 21
240.486474
 31
0.0
  0
LINE
  5
368
100
AcDbEntity
  8
M02
100
AcDbLine
 10
625.447241
 20
247.486474
 30
0.0
 11
625.447241
 21
244.486474
 31
0.0
  0
LINE
  5
369
100
AcDbEntity
  8
M02
100
AcDbLine
 10
595.447241
 20
247.486474
 30
0.0
 11
595.447241
 21
244.486474
 31
0.0
  0
LINE
  5
36A
102
{ACAD_REACTORS
330
95
102
}
100
AcDbEntity
  8
M05
  6
HIDDEN
100
AcDbLine
 10
597.147241
 20
248.486474
 30
0.0
 11
623.747241
 21
248.486474
 31
0.0
  0
LINE
  5
36B
100
AcDbEntity
  8
M05
100
AcDbLine
 10
596.447241
 20
246.786474
 30
0.0
 11
596.447241
 21
241.186474
 31
0.0
  0
LINE
  5
36C
102
{ACAD_REACTORS
330
95
102
}
100
AcDbEntity
  8
CENTRE
100
AcDbLine
 10
610.447241
 20
252.995585
 30
0.0
 11
610.447241
 21
219.917247
 31
0.0
  0
TEXT
  5
36D
102
{ACAD_REACTORS
330
93
102
}
100
AcDbEntity
  8
TEXT
100
AcDbText
 10
560.521321
 20
243.053962
 30
0.0
 40
2.0
  1
MA010000
 41
0.9
100
AcDbText
  0
TEXT
  5
36E
102
{ACAD_REACTORS
330
111
102
}
100
AcDbEntity
  8
TEXT
100
AcDbText
 10
837.86676
 20
438.380683
 30
0.0
 40
2.0
  1
MA010000
 41
0.9
100
AcDbText
  0
LINE
  5
36F
100
AcDbEntity
  8
M04
100
AcDbLine
 10
525.447241
 20
222.486474
 30
0.0
 11
525.447241
 21
213.486474
 31
0.0
  0
LINE
  5
370
100
AcDbEntity
  8
M04
100
AcDbLine
 10
574.947241
 20
240.486474
 30
0.0
 11
607.447241
 21
240.486474
 31
0.0
  0
LINE
  5
371
100
AcDbEntity
  8
M02
100
AcDbLine
 10
589.447241
 20
244.486474
 30
0.0
 11
596.447241
 21
244.486474
 31
0.0
  0
LINE
  5
372
102
{ACAD_REACTORS
330
93
102
}
100
AcDbEntity
  8
M05
100
AcDbLine
 10
521.447241
 20
242.186474
 30
0.0
 11
522.147241
 21
241.486474
 31
0.0
  0
LINE
  5
373
100
AcDbEntity
  8
M02
100
AcDbLine
 10
520.447241
 20
247.486474
 30
0.0
 11
520.447241
 21
244.486474
 31
0.0
  0
LINE
  5
374
102
{ACAD_REACTORS
330
95
330
93
102
}
100
AcDbEntity
  8
M01
100
AcDbLine
 10
565.447241
 20
247.486474
 30
0.0
 11
578.447241
 21
247.486474
 31
0.0
  0
LINE
  5
375
100
AcDbEntity
  8
M04
100
AcDbLine
 10
525.447241
 20
222.486474
 30
0.0
 11
585.447241
 21
222.486474
 31
0.0
  0
LINE
  5
376
100
AcDbEntity
  8
M04
100
AcDbLine
 10
535.447241
 20
232.486474
 30
0.0
 11
525.447241
 21
222.486474
 31
0.0
  0
LINE
  5
377
100
AcDbEntity
  8
M04
100
AcDbLine
 10
585.447241
 20
222.486474
 30
0.0
 11
585.447241
 21
213.486474
 31
0.0
  0
LINE
  5
378
100
AcDbEntity
  8
M04
100
AcDbLine
 10
575.447241
 20
232.486474
 30
0.0
 11
585.447241
 21
222.486474
 31
0.0
  0
LINE
  5
379
100
AcDbEntity
  8
M05
100
AcDbLine
 10
552.406367
 20
239.18526
 30
0.0
 11
558.488115
 21
239.18526
 31
0.0
  0
ARC
  5
37A
102
{ACAD_REACTORS
330
93
102
}
100
AcDbEntity
  8
M05
100
AcDbCircle
 10
555.447241
 20
223.986474
 30
0.0
 40
15.5
100
AcDbArc
 50
101.313981
 51
126.249321
  0
LINE
  5
37B
102
{ACAD_REACTORS
330
95
102
}
100
AcDbEntity
  8
M01
100
AcDbLine
 10
551.447241
 20
266.986474
 30
0.0
 11
551.447241
 21
257.486474
 31
0.0
  0
LINE
  5
37C
102
{ACAD_REACTORS
330
93
102
}
100
AcDbEntity
  8
M05
100
AcDbLine
 10
551.447241
 20
257.486474
 30
0.0
 11
552.406367
 21
239.18526
 31
0.0
  0
LINE
  5
37D
102
{ACAD_REACTORS
330
93
102
}
100
AcDbEntity
  8
M05
100
AcDbLine
 10
559.447241
 20
257.486474
 30
0.0
 11
558.488115
 21
239.18526
 31
0.0
  0
ARC
  5
37E
102
{ACAD_REACTORS
330
93
102
}
100
AcDbEntity
  8
M05
100
AcDbCircle
 10
555.447241
 20
223.986474
 30
0.0
 40
15.5
100
AcDbArc
 50
53.750679
 51
78.686019
  0
LINE
  5
37F
102
{ACAD_REACTORS
330
95
102
}
100
AcDbEntity
  8
M01
100
AcDbLine
 10
559.447241
 20
266.986474
 30
0.0
 11
559.447241
 21
257.486474
 31
0.0
  0
LINE
  5
380
100
AcDbEntity
  8
M04
100
AcDbLine
 10
535.447241
 20
238.486474
 30
0.0
 11
535.447241
 21
240.486474
 31
0.0
  0
LINE
  5
381
100
AcDbEntity
  8
M04
100
AcDbLine
 10
535.447241
 20
237.186474
 30
0.0
 11
535.447241
 21
232.486474
 31
0.0
  0
LINE
  5
382
100
AcDbEntity
  8
M04
100
AcDbLine
 10
575.447241
 20
238.486474
 30
0.0
 11
575.447241
 21
240.486474
 31
0.0
  0
LINE
  5
383
100
AcDbEntity
  8
M04
100
AcDbLine
 10
575.447241
 20
237.186474
 30
0.0
 11
575.447241
 21
232.486474
 31
0.0
  0
LINE
  5
384
100
AcDbEntity
  8
M04
100
AcDbLine
 10
575.447241
 20
232.486474
 30
0.0
 11
535.447241
 21
232.486474
 31
0.0
  0
LINE
  5
385
102
{ACAD_REACTORS
330
93
102
}
100
AcDbEntity
  8
M05
100
AcDbLine
 10
535.947241
 20
238.486474
 30
0.0
 11
535.447241
 21
238.486474
 31
0.0
  0
LINE
  5
386
102
{ACAD_REACTORS
330
93
102
}
100
AcDbEntity
  8
M05
100
AcDbLine
 10
535.947241
 20
241.486474
 30
0.0
 11
522.147241
 21
241.486474
 31
0.0
  0
LINE
  5
387
102
{ACAD_REACTORS
330
93
102
}
100
AcDbEntity
  8
M05
100
AcDbLine
 10
535.947241
 20
241.486474
 30
0.0
 11
535.947241
 21
238.486474
 31
0.0
  0
LINE
  5
388
102
{ACAD_REACTORS
330
93
102
}
100
AcDbEntity
  8
M05
100
AcDbLine
 10
574.947241
 20
241.486474
 30
0.0
 11
574.947241
 21
238.486474
 31
0.0
  0
LINE
  5
389
102
{ACAD_REACTORS
330
93
102
}
100
AcDbEntity
  8
M05
100
AcDbLine
 10
575.447241
 20
238.486474
 30
0.0
 11
574.947241
 21
238.486474
 31
0.0
  0
LINE
  5
38A
102
{ACAD_REACTORS
330
93
102
}
100
AcDbEntity
  8
M05
100
AcDbLine
 10
536.147241
 20
236.486474
 30
0.0
 11
535.447241
 21
237.186474
 31
0.0
  0
LINE
  5
38B
102
{ACAD_REACTORS
330
93
102
}
100
AcDbEntity
  8
M05
100
AcDbLine
 10
574.747241
 20
236.486474
 30
0.0
 11
575.447241
 21
237.186474
 31
0.0
  0
LINE
  5
38C
102
{ACAD_REACTORS
330
93
102
}
100
AcDbEntity
  8
M05
100
AcDbLine
 10
574.747241
 20
236.486474
 30
0.0
 11
536.147241
 21
236.486474
 31
0.0
  0
LINE
  5
38D
102
{ACAD_REACTORS
330
93
102
}
100
AcDbEntity
  8
M05
100
AcDbLine
 10
535.447241
 20
238.486474
 30
0.0
 11
535.447241
 21
237.186474
 31
0.0
  0
LINE
  5
38E
102
{ACAD_REACTORS
330
93
102
}
100
AcDbEntity
  8
M05
100
AcDbLine
 10
575.447241
 20
238.486474
 30
0.0
 11
575.447241
 21
237.186474
 31
0.0
  0
LINE
  5
38F
102
{ACAD_REACTORS
330
95
102
}
100
AcDbEntity
  8
M04
100
AcDbLine
 10
545.447241
 20
247.986474
 30
0.0
 11
544.947241
 21
247.486474
 31
0.0
  0
LINE
  5
390
102
{ACAD_REACTORS
330
95
102
}
100
AcDbEntity
  8
M04
100
AcDbLine
 10
565.447241
 20
247.986474
 30
0.0
 11
565.947241
 21
247.486474
 31
0.0
  0
LINE
  5
391
102
{ACAD_REACTORS
330
93
102
}
100
AcDbEntity
  8
M05
100
AcDbLine
 10
521.447241
 20
246.786474
 30
0.0
 11
522.147241
 21
247.486474
 31
0.0
  0
LINE
  5
392
102
{ACAD_REACTORS
330
93
102
}
100
AcDbEntity
  8
M05
100
AcDbLine
 10
521.447241
 20
246.786474
 30
0.0
 11
521.447241
 21
242.186474
 31
0.0
  0
LINE
  5
393
102
{ACAD_REACTORS
330
93
102
}
100
AcDbEntity
  8
M05
100
AcDbLine
 10
589.447241
 20
246.786474
 30
0.0
 11
588.747241
 21
247.486474
 31
0.0
  0
LINE
  5
394
102
{ACAD_REACTORS
330
93
102
}
100
AcDbEntity
  8
M05
100
AcDbLine
 10
589.447241
 20
242.186474
 30
0.0
 11
588.747241
 21
241.486474
 31
0.0
  0
LINE
  5
395
100
AcDbEntity
  8
M02
100
AcDbLine
 10
590.447241
 20
247.486474
 30
0.0
 11
590.447241
 21
244.486474
 31
0.0
  0
LINE
  5
396
102
{ACAD_REACTORS
330
93
102
}
100
AcDbEntity
  8
M05
100
AcDbLine
 10
588.747241
 20
241.486474
 30
0.0
 11
574.947241
 21
241.486474
 31
0.0
  0
LINE
  5
397
102
{ACAD_REACTORS
330
93
102
}
100
AcDbEntity
  8
M05
100
AcDbLine
 10
589.447241
 20
246.786474
 30
0.0
 11
589.447241
 21
242.186474
 31
0.0
  0
LINE
  5
398
102
{ACAD_REACTORS
330
95
102
}
100
AcDbEntity
  8
M04
100
AcDbLine
 10
545.447241
 20
256.486474
 30
0.0
 11
545.447241
 21
257.486474
 31
0.0
  0
LINE
  5
399
102
{ACAD_REACTORS
330
95
102
}
100
AcDbEntity
  8
M04
100
AcDbLine
 10
546.447241
 20
257.486474
 30
0.0
 11
545.447241
 21
257.486474
 31
0.0
  0
LINE
  5
39A
102
{ACAD_REACTORS
330
95
102
}
100
AcDbEntity
  8
M04
100
AcDbLine
 10
565.447241
 20
256.486474
 30
0.0
 11
565.447241
 21
257.486474
 31
0.0
  0
LINE
  5
39B
102
{ACAD_REACTORS
330
95
102
}
100
AcDbEntity
  8
M04
100
AcDbLine
 10
564.447241
 20
257.486474
 30
0.0
 11
565.447241
 21
257.486474
 31
0.0
  0
LINE
  5
39C
102
{ACAD_REACTORS
330
93
102
}
100
AcDbEntity
  8
M05
100
AcDbLine
 10
564.447241
 20
257.486474
 30
0.0
 11
565.447241
 21
256.486474
 31
0.0
  0
LINE
  5
39D
102
{ACAD_REACTORS
330
93
102
}
100
AcDbEntity
  8
M05
100
AcDbLine
 10
545.447241
 20
256.486474
 30
0.0
 11
546.447241
 21
257.486474
 31
0.0
  0
LINE
  5
39E
102
{ACAD_REACTORS
330
95
330
93
102
}
100
AcDbEntity
  8
M05
100
AcDbLine
 10
564.447241
 20
257.486474
 30
0.0
 11
546.447241
 21
257.486474
 31
0.0
  0
LINE
  5
39F
102
{ACAD_REACTORS
330
95
330
93
102
}
100
AcDbEntity
  8
M05
100
AcDbLine
 10
545.447241
 20
256.486474
 30
0.0
 11
545.447241
 21
247.486474
 31
0.0
  0
LINE
  5
3A0
102
{ACAD_REACTORS
330
95
330
93
102
}
100
AcDbEntity
  8
M05
100
AcDbLine
 10
565.447241
 20
256.486474
 30
0.0
 11
565.447241
 21
247.486474
 31
0.0
  0
LINE
  5
3A1
100
AcDbEntity
  8
M04
100
AcDbLine
 10
564.947241
 20
301.486474
 30
0.0
 11
669.447241
 21
301.486474
 31
0.0
  0
LINE
  5
3A2
100
AcDbEntity
  8
M02
100
AcDbLine
 10
564.947241
 20
297.486474
 30
0.0
 11
660.447241
 21
297.486474
 31
0.0
  0
LINE
  5
3A3
102
{ACAD_REACTORS
330
95
102
}
100
AcDbEntity
  8
M01
100
AcDbLine
 10
564.947241
 20
294.486474
 30
0.0
 11
660.447241
 21
294.486474
 31
0.0
  0
TEXT
  5
3A4
100
AcDbEntity
  8
TEXT
100
AcDbText
 10
558.159407
 20
305.122251
 30
0.0
 40
2.0
  1
MA010008
 50
270.0
 41
0.9
100
AcDbText
  0
LINE
  5
3A5
100
AcDbEntity
  8
M04
100
AcDbLine
 10
544.447241
 20
305.909124
 30
0.0
 11
545.947241
 21
305.909124
 31
0.0
  0
LINE
  5
3A6
100
AcDbEntity
  8
M04
100
AcDbLine
 10
544.447241
 20
305.909124
 30
0.0
 11
544.447241
 21
301.486474
 31
0.0
  0
LINE
  5
3A7
100
AcDbEntity
  8
M04
100
AcDbLine
 10
545.447241
 20
306.486474
 30
0.0
 11
544.447241
 21
305.909124
 31
0.0
  0
LINE
  5
3A8
100
AcDbEntity
  8
M04
100
AcDbLine
 10
545.447241
 20
310.486474
 30
0.0
 11
545.447241
 21
311.486474
 31
0.0
  0
LINE
  5
3A9
100
AcDbEntity
  8
M04
100
AcDbLine
 10
546.447241
 20
311.486474
 30
0.0
 11
545.447241
 21
311.486474
 31
0.0
  0
LINE
  5
3AA
102
{ACAD_REACTORS
330
95
102
}
100
AcDbEntity
  8
M04
100
AcDbLine
 10
546.947241
 20
289.486474
 30
0.0
 11
545.947241
 21
289.486474
 31
0.0
  0
LINE
  5
3AB
102
{ACAD_REACTORS
330
95
102
}
100
AcDbEntity
  8
M04
100
AcDbLine
 10
545.947241
 20
290.486474
 30
0.0
 11
545.947241
 21
289.486474
 31
0.0
  0
LINE
  5
3AC
100
AcDbEntity
  8
M04
100
AcDbLine
 10
566.447241
 20
305.909124
 30
0.0
 11
564.947241
 21
305.909124
 31
0.0
  0
LINE
  5
3AD
100
AcDbEntity
  8
M04
100
AcDbLine
 10
566.447241
 20
305.909124
 30
0.0
 11
566.447241
 21
301.486474
 31
0.0
  0
LINE
  5
3AE
100
AcDbEntity
  8
M04
100
AcDbLine
 10
565.447241
 20
306.486474
 30
0.0
 11
566.447241
 21
305.909124
 31
0.0
  0
LINE
  5
3AF
100
AcDbEntity
  8
M04
100
AcDbLine
 10
565.447241
 20
310.486474
 30
0.0
 11
565.447241
 21
311.486474
 31
0.0
  0
LINE
  5
3B0
100
AcDbEntity
  8
M04
100
AcDbLine
 10
564.447241
 20
311.486474
 30
0.0
 11
565.447241
 21
311.486474
 31
0.0
  0
LINE
  5
3B1
102
{ACAD_REACTORS
330
95
102
}
100
AcDbEntity
  8
M04
100
AcDbLine
 10
563.947241
 20
289.486474
 30
0.0
 11
564.947241
 21
289.486474
 31
0.0
  0
LINE
  5
3B2
102
{ACAD_REACTORS
330
95
102
}
100
AcDbEntity
  8
M04
100
AcDbLine
 10
564.947241
 20
290.486474
 30
0.0
 11
564.947241
 21
289.486474
 31
0.0
  0
LINE
  5
3B3
100
AcDbEntity
  8
M02
100
AcDbLine
 10
544.447241
 20
297.486474
 30
0.0
 11
544.447241
 21
294.486474
 31
0.0
  0
LINE
  5
3B4
100
AcDbEntity
  8
M02
100
AcDbLine
 10
566.447241
 20
297.486474
 30
0.0
 11
566.447241
 21
294.486474
 31
0.0
  0
LINE
  5
3B5
100
AcDbEntity
  8
M05
100
AcDbLine
 10
545.947241
 20
290.486474
 30
0.0
 11
564.947241
 21
290.486474
 31
0.0
  0
LINE
  5
3B6
100
AcDbEntity
  8
M05
100
AcDbLine
 10
545.447241
 20
310.486474
 30
0.0
 11
565.447241
 21
310.486474
 31
0.0
  0
LINE
  5
3B7
100
AcDbEntity
  8
M05
100
AcDbLine
 10
546.947241
 20
289.486474
 30
0.0
 11
545.947241
 21
290.486474
 31
0.0
  0
LINE
  5
3B8
100
AcDbEntity
  8
M05
100
AcDbLine
 10
564.947241
 20
290.486474
 30
0.0
 11
563.947241
 21
289.486474
 31
0.0
  0
LINE
  5
3B9
100
AcDbEntity
  8
M05
100
AcDbLine
 10
564.447241
 20
311.486474
 30
0.0
 11
565.447241
 21
310.486474
 31
0.0
  0
LINE
  5
3BA
100
AcDbEntity
  8
M05
100
AcDbLine
 10
545.447241
 20
310.486474
 30
0.0
 11
546.447241
 21
311.486474
 31
0.0
  0
LINE
  5
3BB
100
AcDbEntity
  8
M05
100
AcDbLine
 10
565.447241
 20
310.486474
 30
0.0
 11
565.447241
 21
306.486474
 31
0.0
  0
LINE
  5
3BC
100
AcDbEntity
  8
M05
100
AcDbLine
 10
545.447241
 20
310.486474
 30
0.0
 11
545.447241
 21
306.486474
 31
0.0
  0
LINE
  5
3BD
100
AcDbEntity
  8
M05
100
AcDbLine
 10
565.447241
 20
306.486474
 30
0.0
 11
545.447241
 21
306.486474
 31
0.0
  0
LINE
  5
3BE
100
AcDbEntity
  8
M05
100
AcDbLine
 10
564.447241
 20
311.486474
 30
0.0
 11
546.447241
 21
311.486474
 31
0.0
  0
LINE
  5
3BF
102
{ACAD_REACTORS
330
95
102
}
100
AcDbEntity
  8
M05
100
AcDbLine
 10
545.947241
 20
306.486474
 30
0.0
 11
545.947241
 21
290.486474
 31
0.0
  0
LINE
  5
3C0
102
{ACAD_REACTORS
330
95
102
}
100
AcDbEntity
  8
M05
100
AcDbLine
 10
564.947241
 20
306.486474
 30
0.0
 11
564.947241
 21
290.486474
 31
0.0
  0
LINE
  5
3C1
102
{ACAD_REACTORS
330
95
102
}
100
AcDbEntity
  8
M05
100
AcDbLine
 10
563.947241
 20
289.486474
 30
0.0
 11
546.947241
 21
289.486474
 31
0.0
  0
LINE
  5
3C2
100
AcDbEntity
  8
M02
100
AcDbLine
 10
450.447241
 20
244.486474
 30
0.0
 11
486.447241
 21
244.486474
 31
0.0
  0
LINE
  5
3C3
100
AcDbEntity
  8
M02
100
AcDbLine
 10
660.447241
 20
247.486474
 30
0.0
 11
660.447241
 21
244.486474
 31
0.0
  0
LINE
  5
3C4
100
AcDbEntity
  8
M02
100
AcDbLine
 10
450.447241
 20
247.486474
 30
0.0
 11
450.447241
 21
244.486474
 31
0.0
  0
LINE
  5
3C5
100
AcDbEntity
  8
M02
100
AcDbLine
 10
450.447241
 20
297.486474
 30
0.0
 11
545.947241
 21
297.486474
 31
0.0
  0
LINE
  5
3C6
100
AcDbEntity
  8
M02
100
AcDbLine
 10
660.447241
 20
294.486474
 30
0.0
 11
660.447241
 21
297.486474
 31
0.0
  0
LINE
  5
3C7
100
AcDbEntity
  8
M02
100
AcDbLine
 10
450.447241
 20
294.486474
 30
0.0
 11
450.447241
 21
297.486474
 31
0.0
  0
LINE
  5
3C8
102
{ACAD_REACTORS
330
95
102
}
100
AcDbEntity
  8
M01
100
AcDbLine
 10
662.447241
 20
249.486474
 30
0.0
 11
660.447241
 21
247.486474
 31
0.0
  0
LINE
  5
3C9
102
{ACAD_REACTORS
330
95
102
}
100
AcDbEntity
  8
M01
100
AcDbLine
 10
660.447241
 20
294.486474
 30
0.0
 11
662.447241
 21
292.486474
 31
0.0
  0
LINE
  5
3CA
102
{ACAD_REACTORS
330
95
102
}
100
AcDbEntity
  8
M01
100
AcDbLine
 10
448.447241
 20
292.486474
 30
0.0
 11
450.447241
 21
294.486474
 31
0.0
  0
LINE
  5
3CB
102
{ACAD_REACTORS
330
95
102
}
100
AcDbEntity
  8
M01
100
AcDbLine
 10
450.447241
 20
247.486474
 30
0.0
 11
448.447241
 21
249.486474
 31
0.0
  0
LINE
  5
3CC
102
{ACAD_REACTORS
330
95
102
}
100
AcDbEntity
  8
M01
100
AcDbLine
 10
662.447241
 20
292.486474
 30
0.0
 11
662.447241
 21
249.486474
 31
0.0
  0
LINE
  5
3CD
102
{ACAD_REACTORS
330
95
102
}
100
AcDbEntity
  8
M01
100
AcDbLine
 10
448.447241
 20
292.486474
 30
0.0
 11
448.447241
 21
249.486474
 31
0.0
  0
LINE
  5
3CE
102
{ACAD_REACTORS
330
95
330
93
330
42
102
}
100
AcDbEntity
  8
M01
100
AcDbLine
 10
450.447241
 20
247.486474
 30
0.0
 11
545.447241
 21
247.486474
 31
0.0
  0
LINE
  5
3CF
102
{ACAD_REACTORS
330
95
102
}
100
AcDbEntity
  8
M01
100
AcDbLine
 10
450.447241
 20
294.486474
 30
0.0
 11
545.947241
 21
294.486474
 31
0.0
  0
LINE
  5
3D0
100
AcDbEntity
  8
M04
100
AcDbLine
 10
441.447241
 20
301.486474
 30
0.0
 11
545.947241
 21
301.486474
 31
0.0
  0
LINE
  5
3D1
102
{ACAD_REACTORS
330
95
102
}
100
AcDbEntity
  8
CENTRE
100
AcDbLine
 10
555.447241
 20
323.842474
 30
0.0
 11
555.447241
 21
204.166532
 31
0.0
  0
LINE
  5
3D2
100
AcDbEntity
  8
M04
100
AcDbLine
 10
669.447241
 20
301.486474
 30
0.0
 11
669.447241
 21
240.486474
 31
0.0
  0
LINE
  5
3D3
100
AcDbEntity
  8
M04
100
AcDbLine
 10
441.447241
 20
301.486474
 30
0.0
 11
441.447241
 21
240.486474
 31
0.0
  0
LINE
  5
3D4
102
{ACAD_REACTORS
330
42
102
}
100
AcDbEntity
  8
M04
100
AcDbLine
 10
423.896459
 20
240.486474
 30
0.0
 11
497.447241
 21
240.486474
 31
0.0
  0
LINE
  5
3D5
100
AcDbEntity
  8
M04
100
AcDbLine
 10
824.360108
 20
568.559226
 30
0.0
 11
834.360108
 21
578.559226
 31
0.0
  0
LINE
  5
3D6
100
AcDbEntity
  8
M04
100
AcDbLine
 10
834.360108
 20
589.230704
 30
0.0
 11
834.360108
 21
578.559226
 31
0.0
  0
LINE
  5
3D7
100
AcDbEntity
  8
M04
100
AcDbLine
 10
870.360108
 20
402.559226
 30
0.0
 11
870.360108
 21
462.559226
 31
0.0
  0
LINE
  5
3D8
100
AcDbEntity
  8
M04
100
AcDbLine
 10
870.360108
 20
402.559226
 30
0.0
 11
879.360108
 21
402.559226
 31
0.0
  0
LINE
  5
3D9
100
AcDbEntity
  8
M04
100
AcDbLine
 10
860.360108
 20
412.559226
 30
0.0
 11
870.360108
 21
402.559226
 31
0.0
  0
LINE
  5
3DA
100
AcDbEntity
  8
M04
100
AcDbLine
 10
791.360108
 20
568.559226
 30
0.0
 11
852.360108
 21
568.559226
 31
0.0
  0
LINE
  5
3DB
100
AcDbEntity
  8
M04
100
AcDbLine
 10
870.360108
 20
462.559226
 30
0.0
 11
879.360108
 21
462.559226
 31
0.0
  0
LINE
  5
3DC
100
AcDbEntity
  8
M04
100
AcDbLine
 10
860.360108
 20
452.559226
 30
0.0
 11
870.360108
 21
462.559226
 31
0.0
  0
LINE
  5
3DD
100
AcDbEntity
  8
M05
100
AcDbLine
 10
853.661322
 20
429.518352
 30
0.0
 11
853.661322
 21
435.6001
 31
0.0
  0
ARC
  5
3DE
102
{ACAD_REACTORS
330
111
102
}
100
AcDbEntity
  8
M05
100
AcDbCircle
 10
868.860108
 20
432.559226
 30
0.0
 40
15.5
100
AcDbArc
 50
191.313981
 51
216.249321
  0
LINE
  5
3DF
100
AcDbEntity
  8
M01
100
AcDbLine
 10
821.860108
 20
428.559226
 30
0.0
 11
835.360108
 21
428.559226
 31
0.0
  0
LINE
  5
3E0
102
{ACAD_REACTORS
330
111
102
}
100
AcDbEntity
  8
M05
100
AcDbLine
 10
835.360108
 20
428.559226
 30
0.0
 11
853.661322
 21
429.518352
 31
0.0
  0
LINE
  5
3E1
102
{ACAD_REACTORS
330
111
102
}
100
AcDbEntity
  8
M05
100
AcDbLine
 10
835.360108
 20
436.559226
 30
0.0
 11
853.661322
 21
435.6001
 31
0.0
  0
ARC
  5
3E2
102
{ACAD_REACTORS
330
111
102
}
100
AcDbEntity
  8
M05
100
AcDbCircle
 10
868.860108
 20
432.559226
 30
0.0
 40
15.5
100
AcDbArc
 50
143.750679
 51
168.686019
  0
LINE
  5
3E3
100
AcDbEntity
  8
M01
100
AcDbLine
 10
821.860108
 20
436.559226
 30
0.0
 11
835.360108
 21
436.559226
 31
0.0
  0
LINE
  5
3E4
100
AcDbEntity
  8
M04
100
AcDbLine
 10
854.360108
 20
412.559226
 30
0.0
 11
852.360108
 21
412.559226
 31
0.0
  0
LINE
  5
3E5
100
AcDbEntity
  8
M04
100
AcDbLine
 10
855.660108
 20
412.559226
 30
0.0
 11
860.360108
 21
412.559226
 31
0.0
  0
LINE
  5
3E6
100
AcDbEntity
  8
M04
100
AcDbLine
 10
854.360108
 20
452.559226
 30
0.0
 11
852.360108
 21
452.559226
 31
0.0
  0
LINE
  5
3E7
100
AcDbEntity
  8
M04
100
AcDbLine
 10
855.660108
 20
452.559226
 30
0.0
 11
860.360108
 21
452.559226
 31
0.0
  0
LINE
  5
3E8
100
AcDbEntity
  8
M04
100
AcDbLine
 10
860.360108
 20
452.559226
 30
0.0
 11
860.360108
 21
412.559226
 31
0.0
  0
LINE
  5
3E9
102
{ACAD_REACTORS
330
111
102
}
100
AcDbEntity
  8
M05
100
AcDbLine
 10
854.360108
 20
413.059226
 30
0.0
 11
854.360108
 21
412.559226
 31
0.0
  0
LINE
  5
3EA
102
{ACAD_REACTORS
330
111
102
}
100
AcDbEntity
  8
M05
100
AcDbLine
 10
851.360108
 20
413.059226
 30
0.0
 11
851.360108
 21
400.559226
 31
0.0
  0
LINE
  5
3EB
102
{ACAD_REACTORS
330
111
102
}
100
AcDbEntity
  8
M05
100
AcDbLine
 10
851.360108
 20
413.059226
 30
0.0
 11
854.360108
 21
413.059226
 31
0.0
  0
LINE
  5
3EC
102
{ACAD_REACTORS
330
111
102
}
100
AcDbEntity
  8
M05
100
AcDbLine
 10
851.360108
 20
452.059226
 30
0.0
 11
854.360108
 21
452.059226
 31
0.0
  0
LINE
  5
3ED
102
{ACAD_REACTORS
330
111
102
}
100
AcDbEntity
  8
M05
100
AcDbLine
 10
854.360108
 20
452.559226
 30
0.0
 11
854.360108
 21
452.059226
 31
0.0
  0
LINE
  5
3EE
100
AcDbEntity
  8
M04
100
AcDbLine
 10
852.360108
 20
413.059226
 30
0.0
 11
852.360108
 21
382.045835
 31
0.0
  0
LINE
  5
3EF
102
{ACAD_REACTORS
330
111
102
}
100
AcDbEntity
  8
M05
100
AcDbLine
 10
856.360108
 20
413.259226
 30
0.0
 11
855.660108
 21
412.559226
 31
0.0
  0
LINE
  5
3F0
102
{ACAD_REACTORS
330
111
102
}
100
AcDbEntity
  8
M05
100
AcDbLine
 10
856.360108
 20
451.859226
 30
0.0
 11
855.660108
 21
452.559226
 31
0.0
  0
LINE
  5
3F1
102
{ACAD_REACTORS
330
111
102
}
100
AcDbEntity
  8
M05
100
AcDbLine
 10
856.360108
 20
451.859226
 30
0.0
 11
856.360108
 21
413.259226
 31
0.0
  0
LINE
  5
3F2
102
{ACAD_REACTORS
330
111
102
}
100
AcDbEntity
  8
M05
100
AcDbLine
 10
854.360108
 20
412.559226
 30
0.0
 11
855.660108
 21
412.559226
 31
0.0
  0
LINE
  5
3F3
102
{ACAD_REACTORS
330
111
102
}
100
AcDbEntity
  8
M05
100
AcDbLine
 10
854.360108
 20
452.559226
 30
0.0
 11
855.660108
 21
452.559226
 31
0.0
  0
LINE
  5
3F4
100
AcDbEntity
  8
M04
100
AcDbLine
 10
844.860108
 20
422.559226
 30
0.0
 11
845.360108
 21
422.059226
 31
0.0
  0
LINE
  5
3F5
102
{ACAD_REACTORS
330
111
102
}
100
AcDbEntity
  8
M01
100
AcDbLine
 10
845.360108
 20
422.559226
 30
0.0
 11
845.360108
 21
402.559226
 31
0.0
  0
LINE
  5
3F6
100
AcDbEntity
  8
M04
100
AcDbLine
 10
844.860108
 20
442.559226
 30
0.0
 11
845.360108
 21
443.059226
 31
0.0
  0
LINE
  5
3F7
102
{ACAD_REACTORS
330
111
102
}
100
AcDbEntity
  8
M05
100
AcDbLine
 10
846.060108
 20
399.859226
 30
0.0
 11
845.360108
 21
400.559226
 31
0.0
  0
LINE
  5
3F8
102
{ACAD_REACTORS
330
111
102
}
100
AcDbEntity
  8
M05
100
AcDbLine
 10
850.660108
 20
399.859226
 30
0.0
 11
851.360108
 21
400.559226
 31
0.0
  0
LINE
  5
3F9
102
{ACAD_REACTORS
330
111
102
}
100
AcDbEntity
  8
M05
100
AcDbLine
 10
846.060108
 20
399.859226
 30
0.0
 11
850.660108
 21
399.859226
 31
0.0
  0
LINE
  5
3FA
102
{ACAD_REACTORS
330
111
102
}
100
AcDbEntity
  8
M05
100
AcDbLine
 10
846.060108
 20
466.559226
 30
0.0
 11
845.360108
 21
465.859226
 31
0.0
  0
LINE
  5
3FB
102
{ACAD_REACTORS
330
111
102
}
100
AcDbEntity
  8
M05
100
AcDbLine
 10
850.660108
 20
466.559226
 30
0.0
 11
851.360108
 21
465.859226
 31
0.0
  0
LINE
  5
3FC
102
{ACAD_REACTORS
330
26E
102
}
100
AcDbEntity
  8
M02
100
AcDbLine
 10
845.360108
 20
467.559226
 30
0.0
 11
848.360108
 21
467.559226
 31
0.0
  0
LINE
  5
3FD
102
{ACAD_REACTORS
330
111
102
}
100
AcDbEntity
  8
M05
100
AcDbLine
 10
851.360108
 20
465.859226
 30
0.0
 11
851.360108
 21
452.059226
 31
0.0
  0
LINE
  5
3FE
102
{ACAD_REACTORS
330
111
102
}
100
AcDbEntity
  8
M05
100
AcDbLine
 10
846.060108
 20
466.559226
 30
0.0
 11
850.660108
 21
466.559226
 31
0.0
  0
LINE
  5
3FF
100
AcDbEntity
  8
M04
100
AcDbLine
 10
836.360108
 20
422.559226
 30
0.0
 11
835.360108
 21
422.559226
 31
0.0
  0
LINE
  5
400
100
AcDbEntity
  8
M04
100
AcDbLine
 10
835.360108
 20
423.559226
 30
0.0
 11
835.360108
 21
422.559226
 31
0.0
  0
LINE
  5
401
100
AcDbEntity
  8
M04
100
AcDbLine
 10
836.360108
 20
442.559226
 30
0.0
 11
835.360108
 21
442.559226
 31
0.0
  0
LINE
  5
402
100
AcDbEntity
  8
M04
100
AcDbLine
 10
835.360108
 20
441.559226
 30
0.0
 11
835.360108
 21
442.559226
 31
0.0
  0
LINE
  5
403
102
{ACAD_REACTORS
330
111
102
}
100
AcDbEntity
  8
M05
100
AcDbLine
 10
835.360108
 20
441.559226
 30
0.0
 11
836.360108
 21
442.559226
 31
0.0
  0
LINE
  5
404
102
{ACAD_REACTORS
330
111
102
}
100
AcDbEntity
  8
M05
100
AcDbLine
 10
836.360108
 20
422.559226
 30
0.0
 11
835.360108
 21
423.559226
 31
0.0
  0
LINE
  5
405
102
{ACAD_REACTORS
330
111
102
}
100
AcDbEntity
  8
M05
100
AcDbLine
 10
835.360108
 20
441.559226
 30
0.0
 11
835.360108
 21
423.559226
 31
0.0
  0
LINE
  5
406
102
{ACAD_REACTORS
330
111
102
}
100
AcDbEntity
  8
M05
100
AcDbLine
 10
836.360108
 20
422.559226
 30
0.0
 11
845.360108
 21
422.559226
 31
0.0
  0
LINE
  5
407
102
{ACAD_REACTORS
330
111
102
}
100
AcDbEntity
  8
M05
100
AcDbLine
 10
836.360108
 20
442.559226
 30
0.0
 11
845.360108
 21
442.559226
 31
0.0
  0
TEXT
  5
408
100
AcDbEntity
  8
TEXT
100
AcDbText
 10
787.724332
 20
435.271393
 30
0.0
 40
2.0
  1
MA010008
 41
0.9
100
AcDbText
  0
LINE
  5
409
100
AcDbEntity
  8
M04
100
AcDbLine
 10
572.447241
 20
568.559226
 30
0.0
 11
572.447241
 21
589.230704
 31
0.0
  0
LINE
  5
40A
100
AcDbEntity
  8
M04
100
AcDbLine
 10
538.447241
 20
568.559226
 30
0.0
 11
538.447241
 21
589.230704
 31
0.0
  0
ARC
  5
40B
100
AcDbEntity
  8
M04
100
AcDbCircle
 10
572.447241
 20
553.559226
 30
0.0
 40
15.0
100
AcDbArc
 50
360.0
 51
90.0
  0
ARC
  5
40C
100
AcDbEntity
  8
M04
100
AcDbCircle
 10
538.447241
 20
553.559226
 30
0.0
 40
15.0
100
AcDbArc
 50
90.0
 51
180.0
  0
LINE
  5
40D
100
AcDbEntity
  8
M04
100
AcDbLine
 10
538.447241
 20
568.559226
 30
0.0
 11
572.447241
 21
568.559226
 31
0.0
  0
LINE
  5
40E
100
AcDbEntity
  8
M01
100
AcDbLine
 10
544.947241
 20
553.559226
 30
0.0
 11
545.447241
 21
553.059226
 31
0.0
  0
LINE
  5
40F
100
AcDbEntity
  8
M01
100
AcDbLine
 10
541.447241
 20
553.059226
 30
0.0
 11
541.947241
 21
553.559226
 31
0.0
  0
LINE
  5
410
100
AcDbEntity
  8
M01
100
AcDbLine
 10
541.447241
 20
553.059226
 30
0.0
 11
545.447241
 21
553.059226
 31
0.0
  0
LINE
  5
411
100
AcDbEntity
  8
M01
100
AcDbLine
 10
544.947241
 20
553.559226
 30
0.0
 11
544.947241
 21
550.459226
 31
0.0
  0
LINE
  5
412
100
AcDbEntity
  8
M01
100
AcDbLine
 10
541.947241
 20
553.559226
 30
0.0
 11
541.947241
 21
550.459226
 31
0.0
  0
LINE
  5
413
100
AcDbEntity
  8
M01
100
AcDbLine
 10
541.447241
 20
553.059226
 30
0.0
 11
541.447241
 21
550.459226
 31
0.0
  0
LINE
  5
414
100
AcDbEntity
  8
M01
100
AcDbLine
 10
545.447241
 20
553.059226
 30
0.0
 11
545.447241
 21
550.459226
 31
0.0
  0
LINE
  5
415
100
AcDbEntity
  8
M04
100
AcDbLine
 10
776.050707
 20
503.059226
 30
0.0
 11
778.360108
 21
507.059226
 31
0.0
  0
LINE
  5
416
100
AcDbEntity
  8
M04
100
AcDbLine
 10
778.360108
 20
499.059226
 30
0.0
 11
776.050707
 21
503.059226
 31
0.0
  0
LINE
  5
417
100
AcDbEntity
  8
M04
100
AcDbLine
 10
781.360108
 20
499.059226
 30
0.0
 11
778.360108
 21
499.059226
 31
0.0
  0
LINE
  5
418
100
AcDbEntity
  8
M04
100
AcDbLine
 10
778.360108
 20
507.059226
 30
0.0
 11
778.360108
 21
499.059226
 31
0.0
  0
LINE
  5
419
100
AcDbEntity
  8
M04
100
AcDbLine
 10
781.360108
 20
507.059226
 30
0.0
 11
778.360108
 21
507.059226
 31
0.0
  0
ARC
  5
41A
100
AcDbEntity
  8
M05
100
AcDbCircle
 10
790.697813
 20
503.059226
 30
0.0
 40
10.837705
100
AcDbArc
 50
161.372238
 51
198.627762
  0
LINE
  5
41B
100
AcDbEntity
  8
M05
100
AcDbLine
 10
781.360108
 20
499.059226
 30
0.0
 11
780.427855
 21
499.597463
 31
0.0
  0
LINE
  5
41C
100
AcDbEntity
  8
M05
100
AcDbLine
 10
780.427855
 20
506.520989
 30
0.0
 11
780.427855
 21
499.597463
 31
0.0
  0
LINE
  5
41D
100
AcDbEntity
  8
M05
100
AcDbLine
 10
781.360108
 20
507.059226
 30
0.0
 11
780.427855
 21
506.520989
 31
0.0
  0
LINE
  5
41E
100
AcDbEntity
  8
M05
100
AcDbLine
 10
781.360108
 20
507.059226
 30
0.0
 11
781.360108
 21
499.059226
 31
0.0
  0
LINE
  5
41F
100
AcDbEntity
  8
M04
100
AcDbLine
 10
791.360108
 20
499.059226
 30
0.0
 11
791.360108
 21
442.059226
 31
0.0
  0
LINE
  5
420
100
AcDbEntity
  8
M04
100
AcDbLine
 10
790.860108
 20
499.059226
 30
0.0
 11
791.360108
 21
498.559226
 31
0.0
  0
LINE
  5
421
100
AcDbEntity
  8
M04
100
AcDbLine
 10
790.860108
 20
507.059226
 30
0.0
 11
791.360108
 21
507.559226
 31
0.0
  0
ARC
  5
422
100
AcDbEntity
  8
M05
100
AcDbCircle
 10
790.226775
 20
503.059226
 30
0.0
 40
13.633333
100
AcDbArc
 50
342.938469
 51
17.061531
  0
LINE
  5
423
100
AcDbEntity
  8
M05
100
AcDbLine
 10
803.260108
 20
507.059226
 30
0.0
 11
803.260108
 21
499.059226
 31
0.0
  0
LINE
  5
424
100
AcDbEntity
  8
M05
100
AcDbLine
 10
781.360108
 20
499.059226
 30
0.0
 11
803.260108
 21
499.059226
 31
0.0
  0
LINE
  5
425
100
AcDbEntity
  8
M05
100
AcDbLine
 10
781.360108
 20
507.059226
 30
0.0
 11
803.260108
 21
507.059226
 31
0.0
  0
CIRCLE
  5
426
100
AcDbEntity
  8
M01
100
AcDbCircle
 10
821.860108
 20
432.559226
 30
0.0
 40
4.0
  0
CIRCLE
  5
427
100
AcDbEntity
  8
M03
100
AcDbCircle
 10
555.447241
 20
432.559226
 30
0.0
 40
20.0
  0
LINE
  5
428
100
AcDbEntity
  8
M04
100
AcDbLine
 10
786.937458
 20
421.559226
 30
0.0
 11
786.937458
 21
423.059226
 31
0.0
  0
LINE
  5
429
100
AcDbEntity
  8
M04
100
AcDbLine
 10
786.937458
 20
421.559226
 30
0.0
 11
791.360108
 21
421.559226
 31
0.0
  0
LINE
  5
42A
100
AcDbEntity
  8
M04
100
AcDbLine
 10
786.360108
 20
422.559226
 30
0.0
 11
786.937458
 21
421.559226
 31
0.0
  0
LINE
  5
42B
100
AcDbEntity
  8
M04
100
AcDbLine
 10
782.360108
 20
422.559226
 30
0.0
 11
781.360108
 21
422.559226
 31
0.0
  0
LINE
  5
42C
100
AcDbEntity
  8
M04
100
AcDbLine
 10
781.360108
 20
423.559226
 30
0.0
 11
781.360108
 21
422.559226
 31
0.0
  0
LINE
  5
42D
100
AcDbEntity
  8
M04
100
AcDbLine
 10
803.360108
 20
424.059226
 30
0.0
 11
803.360108
 21
423.059226
 31
0.0
  0
LINE
  5
42E
100
AcDbEntity
  8
M04
100
AcDbLine
 10
802.360108
 20
423.059226
 30
0.0
 11
803.360108
 21
423.059226
 31
0.0
  0
LINE
  5
42F
100
AcDbEntity
  8
M04
100
AcDbLine
 10
786.937458
 20
443.559226
 30
0.0
 11
786.937458
 21
442.059226
 31
0.0
  0
LINE
  5
430
100
AcDbEntity
  8
M04
100
AcDbLine
 10
786.937458
 20
443.559226
 30
0.0
 11
791.360108
 21
443.559226
 31
0.0
  0
LINE
  5
431
100
AcDbEntity
  8
M04
100
AcDbLine
 10
786.360108
 20
442.559226
 30
0.0
 11
786.937458
 21
443.559226
 31
0.0
  0
LINE
  5
432
100
AcDbEntity
  8
M04
100
AcDbLine
 10
782.360108
 20
442.559226
 30
0.0
 11
781.360108
 21
442.559226
 31
0.0
  0
LINE
  5
433
100
AcDbEntity
  8
M04
100
AcDbLine
 10
781.360108
 20
441.559226
 30
0.0
 11
781.360108
 21
442.559226
 31
0.0
  0
LINE
  5
434
100
AcDbEntity
  8
M04
100
AcDbLine
 10
803.360108
 20
441.059226
 30
0.0
 11
803.360108
 21
442.059226
 31
0.0
  0
LINE
  5
435
100
AcDbEntity
  8
M04
100
AcDbLine
 10
802.360108
 20
442.059226
 30
0.0
 11
803.360108
 21
442.059226
 31
0.0
  0
LINE
  5
436
102
{ACAD_REACTORS
330
26F
102
}
100
AcDbEntity
  8
M02
100
AcDbLine
 10
795.360108
 20
421.559226
 30
0.0
 11
798.360108
 21
421.559226
 31
0.0
  0
LINE
  5
437
102
{ACAD_REACTORS
330
26F
102
}
100
AcDbEntity
  8
M02
100
AcDbLine
 10
795.360108
 20
443.559226
 30
0.0
 11
798.360108
 21
443.559226
 31
0.0
  0
LINE
  5
438
102
{ACAD_REACTORS
330
26F
102
}
100
AcDbEntity
  8
M01
100
AcDbLine
 10
798.360108
 20
423.059226
 30
0.0
 11
798.360108
 21
402.559226
 31
0.0
  0
LINE
  5
439
102
{ACAD_REACTORS
330
26F
102
}
100
AcDbEntity
  8
M02
100
AcDbLine
 10
795.360108
 20
423.059226
 30
0.0
 11
795.360108
 21
402.559226
 31
0.0
  0
LINE
  5
43A
100
AcDbEntity
  8
M04
100
AcDbLine
 10
791.360108
 20
423.059226
 30
0.0
 11
791.360108
 21
393.559226
 31
0.0
  0
LINE
  5
43B
100
AcDbEntity
  8
M05
100
AcDbLine
 10
802.360108
 20
423.059226
 30
0.0
 11
802.360108
 21
442.059226
 31
0.0
  0
LINE
  5
43C
100
AcDbEntity
  8
M05
100
AcDbLine
 10
782.360108
 20
422.559226
 30
0.0
 11
782.360108
 21
442.559226
 31
0.0
  0
LINE
  5
43D
100
AcDbEntity
  8
M05
100
AcDbLine
 10
803.360108
 20
424.059226
 30
0.0
 11
802.360108
 21
423.059226
 31
0.0
  0
LINE
  5
43E
100
AcDbEntity
  8
M05
100
AcDbLine
 10
802.360108
 20
442.059226
 30
0.0
 11
803.360108
 21
441.059226
 31
0.0
  0
LINE
  5
43F
100
AcDbEntity
  8
M05
100
AcDbLine
 10
781.360108
 20
441.559226
 30
0.0
 11
782.360108
 21
442.559226
 31
0.0
  0
LINE
  5
440
100
AcDbEntity
  8
M05
100
AcDbLine
 10
782.360108
 20
422.559226
 30
0.0
 11
781.360108
 21
423.559226
 31
0.0
  0
LINE
  5
441
100
AcDbEntity
  8
M05
100
AcDbLine
 10
782.360108
 20
442.559226
 30
0.0
 11
786.360108
 21
442.559226
 31
0.0
  0
LINE
  5
442
100
AcDbEntity
  8
M05
100
AcDbLine
 10
782.360108
 20
422.559226
 30
0.0
 11
786.360108
 21
422.559226
 31
0.0
  0
LINE
  5
443
100
AcDbEntity
  8
M05
100
AcDbLine
 10
786.360108
 20
442.559226
 30
0.0
 11
786.360108
 21
422.559226
 31
0.0
  0
LINE
  5
444
100
AcDbEntity
  8
M05
100
AcDbLine
 10
781.360108
 20
441.559226
 30
0.0
 11
781.360108
 21
423.559226
 31
0.0
  0
LINE
  5
445
100
AcDbEntity
  8
M01
100
AcDbLine
 10
541.947241
 20
553.559226
 30
0.0
 11
544.947241
 21
553.559226
 31
0.0
  0
LINE
  5
446
100
AcDbEntity
  8
M05
100
AcDbLine
 10
786.360108
 20
423.059226
 30
0.0
 11
802.360108
 21
423.059226
 31
0.0
  0
LINE
  5
447
100
AcDbEntity
  8
M05
100
AcDbLine
 10
786.360108
 20
442.059226
 30
0.0
 11
802.360108
 21
442.059226
 31
0.0
  0
LINE
  5
448
100
AcDbEntity
  8
CENTRE
100
AcDbLine
 10
775.535186
 20
432.559226
 30
0.0
 11
885.252148
 21
432.559226
 31
0.0
  0
HATCH
  5
449
100
AcDbEntity
  8
M01
 62
     4
100
AcDbHatch
 10
0.0
 20
0.0
 30
0.0
210
0.0
220
0.0
230
1.0
  2
_U
 70
     0
 71
     0
 91
       13
 92
        7
 72
     1
 73
     1
 93
        4
 10
549.4472405752653
 20
439.9246860123913
 42
0.0
 10
549.4472405752652
 20
436.5592260810632
 42
0.0
 10
555.4472405752654
 20
436.5592260810632
 42
0.0
 10
555.4472405752654
 20
442.0592260810632
 42
0.1725804109198133
 97
        0
 92
        7
 72
     1
 73
     1
 93
        4
 10
555.4472405752654
 20
436.5592260810632
 42
0.0
 10
549.4472405752652
 20
436.5592260810632
 42
0.0
 10
549.4472405752653
 20
432.5592260810632
 42
0.0
 10
551.4472405752654
 20
432.5592260810632
 42
-0.4142135623730992
 97
        0
 92
       22
 72
     1
 73
     1
 93
        3
 10
555.4472405752652
 20
436.5592260810632
 42
0.4142135623730909
 10
551.4472405752654
 20
432.5592260810632
 42
0.0
 10
555.4472405752654
 20
432.5592260810632
 42
0.0
 97
        0
 92
        7
 72
     1
 73
     1
 93
        4
 10
549.4472405752652
 20
436.5592260810632
 42
0.0
 10
546.8303966054583
 20
436.5592260810632
 42
0.1090809576248918
 10
545.9472405752653
 20
432.5592260810632
 42
0.0
 10
549.4472405752653
 20
432.5592260810632
 42
0.0
 97
        0
 92
       22
 72
     1
 73
     1
 93
        3
 10
549.4472405752652
 20
439.9246860123912
 42
0.1136360637262233
 10
546.8303966054583
 20
436.5592260810632
 42
0.0
 10
549.4472405752651
 20
436.5592260810632
 42
0.0
 97
        0
 92
        7
 72
     1
 73
     1
 93
        4
 10
545.4472405752653
 20
432.5592260810632
 42
0.0
 10
545.9472405752653
 20
432.5592260810632
 42
-0.1090809576248918
 10
546.8303966054583
 20
436.5592260810632
 42
0.0
 10
546.2820891853537
 20
436.5592260810632
 42
0.1032437171755979
 97
        0
 92
        7
 72
     1
 73
     1
 93
        4
 10
546.2820891853537
 20
436.5592260810632
 42
0.0
 10
546.8303966054583
 20
436.5592260810632
 42
-0.1136360637262264
 10
549.4472405752653
 20
439.9246860123913
 42
0.0
 10
549.4472405752653
 20
440.5592260810632
 42
0.1296640194076911
 97
        0
 92
        7
 72
     1
 73
     1
 93
        4
 10
555.4472405752654
 20
442.0592260810632
 42
0.0
 10
555.4472405752654
 20
442.5592260810632
 42
0.1622776601683798
 10
549.4472405752653
 20
440.5592260810632
 42
0.0
 10
549.4472405752653
 20
439.9246860123914
 42
-0.1725804109198127
 97
        0
 92
       23
 72
     1
 73
     1
 93
        3
 10
555.4472405752654
 20
432.5592260810632
 42
0.0
 10
555.4472405752654
 20
428.5592260810632
 42
0.4142135623730909
 10
559.4472405752653
 20
432.5592260810632
 42
0.0
 97
        0
 92
        7
 72
     1
 73
     1
 93
        4
 10
559.4472405752653
 20
432.5592260810632
 42
-0.4142135623730909
 10
555.4472405752654
 20
428.5592260810632
 42
0.0
 10
564.0640845450724
 20
428.5592260810632
 42
0.1090809576248888
 10
564.9472405752653
 20
432.5592260810632
 42
0.0
 97
        0
 92
       23
 72
     1
 73
     1
 93
        3
 10
555.4472405752654
 20
428.5592260810632
 42
0.0
 10
555.4472405752654
 20
423.0592260810632
 42
0.2919418509678903
 10
564.0640845450724
 20
428.5592260810632
 42
0.0
 97
        0
 92
        7
 72
     1
 73
     1
 93
        4
 10
564.612391965177
 20
428.5592260810632
 42
0.0
 10
564.0640845450724
 20
428.5592260810632
 42
-0.2919418509678903
 10
555.4472405752654
 20
423.0592260810632
 42
0.0
 10
555.4472405752654
 20
422.5592260810632
 42
0.2982166266986068
 97
        0
 92
        7
 72
     1
 73
     1
 93
        4
 10
565.4472405752653
 20
432.5592260810632
 42
0.0
 10
564.9472405752653
 20
432.5592260810632
 42
-0.1090809576248888
 10
564.0640845450724
 20
428.5592260810632
 42
0.0
 10
564.612391965177
 20
428.5592260810632
 42
0.1032437171755951
 97
        0
 75
     0
 76
     0
 52
45.0
 41
1.0
 77
     1
 78
     2
 53
45.0
 43
0.0
 44
0.0
 45
-0.7071067811865475
 46
0.7071067811865476
 79
     0
 53
135.0
 43
0.0
 44
0.0
 45
-0.7071067811865476
 46
-0.7071067811865475
 79
     0
 47
0.087843
 98
       13
 10
552.77821
 20
439.374762
 10
551.196385
 20
434.982616
 10
554.184277
 20
434.455558
 10
548.296372
 20
434.455558
 10
548.735768
 20
437.442217
 10
546.011514
 20
435.158301
 10
548.911527
 20
439.813977
 10
551.547902
 20
441.482992
 10
557.17217
 20
431.381055
 10
561.302491
 20
430.590469
 10
559.017633
 20
426.988909
 10
557.963083
 20
423.035977
 10
565.081297
 20
430.678312
  0
CIRCLE
  5
44A
100
AcDbEntity
  8
M01
100
AcDbCircle
 10
555.447241
 20
432.559226
 30
0.0
 40
10.0
  0
LINE
  5
44B
100
AcDbEntity
  8
M05
100
AcDbLine
 10
803.360108
 20
441.059226
 30
0.0
 11
803.360108
 21
424.059226
 31
0.0
  0
LINE
  5
44C
100
AcDbEntity
  8
M01
100
AcDbLine
 10
538.447241
 20
528.559226
 30
0.0
 11
548.447241
 21
528.559226
 31
0.0
  0
LINE
  5
44D
100
AcDbEntity
  8
M01
100
AcDbLine
 10
547.947241
 20
541.359226
 30
0.0
 11
547.947241
 21
540.559226
 31
0.0
  0
LINE
  5
44E
100
AcDbEntity
  8
M01
100
AcDbLine
 10
538.947241
 20
541.359226
 30
0.0
 11
538.947241
 21
540.559226
 31
0.0
  0
LINE
  5
44F
100
AcDbEntity
  8
CENTRE
100
AcDbLine
 10
543.447241
 20
559.720115
 30
0.0
 11
543.447241
 21
496.126684
 31
0.0
  0
LINE
  5
450
100
AcDbEntity
  8
CENTRE
100
AcDbLine
 10
771.01399
 20
503.059226
 30
0.0
 11
809.10369
 21
503.059226
 31
0.0
  0
LINE
  5
451
100
AcDbEntity
  8
M04
100
AcDbLine
 10
852.360108
 20
589.230704
 30
0.0
 11
852.360108
 21
452.059226
 31
0.0
  0
LINE
  5
452
100
AcDbEntity
  8
M04
100
AcDbLine
 10
587.447241
 20
478.559226
 30
0.0
 11
594.447241
 21
471.559226
 31
0.0
  0
LINE
  5
453
100
AcDbEntity
  8
M04
100
AcDbLine
 10
516.447241
 20
471.559226
 30
0.0
 11
523.447241
 21
478.559226
 31
0.0
  0
ARC
  5
454
100
AcDbEntity
  8
M04
100
AcDbCircle
 10
456.447241
 20
408.559226
 30
0.0
 40
15.0
100
AcDbArc
 50
180.0
 51
270.0
  0
ARC
  5
455
100
AcDbEntity
  8
M04
100
AcDbCircle
 10
456.447241
 20
456.559226
 30
0.0
 40
15.0
100
AcDbArc
 50
90.0
 51
180.0
  0
ARC
  5
456
100
AcDbEntity
  8
M04
100
AcDbCircle
 10
654.447241
 20
456.559226
 30
0.0
 40
15.0
100
AcDbArc
 50
0.0
 51
90.0
  0
ARC
  5
457
100
AcDbEntity
  8
M04
100
AcDbCircle
 10
654.447241
 20
408.559226
 30
0.0
 40
15.0
100
AcDbArc
 50
270.0
 51
0.0
  0
LINE
  5
458
100
AcDbEntity
  8
M04
100
AcDbLine
 10
441.447241
 20
456.559226
 30
0.0
 11
441.447241
 21
408.559226
 31
0.0
  0
LINE
  5
459
100
AcDbEntity
  8
M04
100
AcDbLine
 10
456.447241
 20
471.559226
 30
0.0
 11
516.447241
 21
471.559226
 31
0.0
  0
LINE
  5
45A
100
AcDbEntity
  8
M04
100
AcDbLine
 10
523.447241
 20
553.559226
 30
0.0
 11
523.447241
 21
478.559226
 31
0.0
  0
LINE
  5
45B
100
AcDbEntity
  8
M04
100
AcDbLine
 10
587.447241
 20
553.559226
 30
0.0
 11
587.447241
 21
478.559226
 31
0.0
  0
LINE
  5
45C
100
AcDbEntity
  8
M04
100
AcDbLine
 10
594.447241
 20
471.559226
 30
0.0
 11
654.447241
 21
471.559226
 31
0.0
  0
LINE
  5
45D
100
AcDbEntity
  8
M04
100
AcDbLine
 10
669.447241
 20
456.559226
 30
0.0
 11
669.447241
 21
408.559226
 31
0.0
  0
LINE
  5
45E
100
AcDbEntity
  8
M04
100
AcDbLine
 10
456.447241
 20
393.559226
 30
0.0
 11
654.447241
 21
393.559226
 31
0.0
  0
LINE
  5
45F
100
AcDbEntity
  8
M04
100
AcDbLine
 10
791.360108
 20
393.559226
 30
0.0
 11
852.360108
 21
393.559226
 31
0.0
  0
LINE
  5
460
100
AcDbEntity
  8
M04
100
AcDbLine
 10
791.360108
 20
568.559226
 30
0.0
 11
791.360108
 21
507.059226
 31
0.0
  0
CIRCLE
  5
461
100
AcDbEntity
  8
M03
100
AcDbCircle
 10
555.447241
 20
432.559226
 30
0.0
 40
9.5
  0
CIRCLE
  5
462
100
AcDbEntity
  8
M03
100
AcDbCircle
 10
555.447241
 20
432.559226
 30
0.0
 40
4.0
  0
LINE
  5
463
100
AcDbEntity
  8
M03
100
AcDbLine
 10
505.447241
 20
428.559226
 30
0.0
 11
605.447241
 21
428.559226
 31
0.0
  0
LINE
  5
464
100
AcDbEntity
  8
M03
100
AcDbLine
 10
505.447241
 20
436.559226
 30
0.0
 11
605.447241
 21
436.559226
 31
0.0
  0
CIRCLE
  5
465
100
AcDbEntity
  8
M01
100
AcDbCircle
 10
605.447241
 20
432.559226
 30
0.0
 40
4.0
  0
CIRCLE
  5
466
100
AcDbEntity
  8
M01
100
AcDbCircle
 10
505.447241
 20
432.559226
 30
0.0
 40
4.0
  0
LINE
  5
467
102
{ACAD_REACTORS
330
26F
102
}
100
AcDbEntity
  8
M02
100
AcDbLine
 10
798.360108
 20
496.559226
 30
0.0
 11
795.360108
 21
496.559226
 31
0.0
  0
LINE
  5
468
100
AcDbEntity
  8
M01
100
AcDbLine
 10
798.360108
 20
496.559226
 30
0.0
 11
804.360108
 21
496.559226
 31
0.0
  0
LINE
  5
469
100
AcDbEntity
  8
M01
100
AcDbLine
 10
804.360108
 20
508.559226
 30
0.0
 11
804.360108
 21
496.559226
 31
0.0
  0
LINE
  5
46A
102
{ACAD_REACTORS
330
26E
102
}
100
AcDbEntity
  8
M02
100
AcDbLine
 10
845.360108
 20
506.559226
 30
0.0
 11
848.360108
 21
506.559226
 31
0.0
  0
LINE
  5
46B
102
{ACAD_REACTORS
330
26F
102
}
100
AcDbEntity
  8
M02
100
AcDbLine
 10
798.360108
 20
402.559226
 30
0.0
 11
795.360108
 21
402.559226
 31
0.0
  0
LINE
  5
46C
102
{ACAD_REACTORS
330
26E
102
}
100
AcDbEntity
  8
M02
100
AcDbLine
 10
848.360108
 20
506.559226
 30
0.0
 11
848.360108
 21
466.559226
 31
0.0
  0
LINE
  5
46D
102
{ACAD_REACTORS
330
26F
102
}
100
AcDbEntity
  8
M02
100
AcDbLine
 10
795.360108
 20
499.059226
 30
0.0
 11
795.360108
 21
442.059226
 31
0.0
  0
LWPOLYLINE
  5
46E
100
AcDbEntity
  8
M01
100
AcDbPolyline
 90
        2
 70
     0
 43
4.0
 10
555.447241
 20
505.059226
 42
0.414214
 10
553.447241
 20
503.059226
  0
LWPOLYLINE
  5
46F
100
AcDbEntity
  8
M01
100
AcDbPolyline
 90
        2
 70
     0
 43
4.0
 10
555.447241
 20
501.059226
 42
0.414214
 10
557.447241
 20
503.059226
  0
CIRCLE
  5
470
100
AcDbEntity
  8
M01
100
AcDbCircle
 10
555.447241
 20
503.059226
 30
0.0
 40
4.0
  0
LINE
  5
471
100
AcDbEntity
  8
M01
100
AcDbLine
 10
559.447241
 20
500.559226
 30
0.0
 11
559.447241
 21
508.559226
 31
0.0
  0
LINE
  5
472
100
AcDbEntity
  8
M01
100
AcDbLine
 10
551.447241
 20
500.559226
 30
0.0
 11
551.447241
 21
508.559226
 31
0.0
  0
ARC
  5
473
100
AcDbEntity
  8
M01
100
AcDbCircle
 10
555.447241
 20
500.559226
 30
0.0
 40
4.0
100
AcDbArc
 50
180.0
 51
0.0
  0
LINE
  5
474
100
AcDbEntity
  8
M01
100
AcDbLine
 10
845.360108
 20
402.559226
 30
0.0
 11
843.360108
 21
400.559226
 31
0.0
  0
LINE
  5
475
100
AcDbEntity
  8
M01
100
AcDbLine
 10
843.360108
 20
508.559226
 30
0.0
 11
845.360108
 21
506.559226
 31
0.0
  0
LINE
  5
476
100
AcDbEntity
  8
M01
100
AcDbLine
 10
799.360108
 20
507.559226
 30
0.0
 11
800.360108
 21
508.559226
 31
0.0
  0
LINE
  5
477
100
AcDbEntity
  8
M01
100
AcDbLine
 10
800.360108
 20
400.559226
 30
0.0
 11
798.360108
 21
402.559226
 31
0.0
  0
LINE
  5
478
102
{ACAD_REACTORS
330
26E
330
111
102
}
100
AcDbEntity
  8
M01
100
AcDbLine
 10
845.360108
 20
506.559226
 30
0.0
 11
845.360108
 21
461.559226
 31
0.0
  0
LINE
  5
479
100
AcDbEntity
  8
M01
100
AcDbLine
 10
800.360108
 20
400.559226
 30
0.0
 11
843.360108
 21
400.559226
 31
0.0
  0
LINE
  5
47A
100
AcDbEntity
  8
M01
100
AcDbLine
 10
800.360108
 20
508.559226
 30
0.0
 11
843.360108
 21
508.559226
 31
0.0
  0
LINE
  5
47B
102
{ACAD_REACTORS
330
26F
102
}
100
AcDbEntity
  8
M01
100
AcDbLine
 10
798.360108
 20
499.059226
 30
0.0
 11
798.360108
 21
442.059226
 31
0.0
  0
LINE
  5
47C
100
AcDbEntity
  8
M01
100
AcDbLine
 10
575.447241
 20
508.559226
 30
0.0
 11
577.447241
 21
506.559226
 31
0.0
  0
LINE
  5
47D
100
AcDbEntity
  8
M01
100
AcDbLine
 10
533.447241
 20
506.559226
 30
0.0
 11
535.447241
 21
508.559226
 31
0.0
  0
LINE
  5
47E
100
AcDbEntity
  8
M01
100
AcDbLine
 10
535.447241
 20
508.559226
 30
0.0
 11
575.447241
 21
508.559226
 31
0.0
  0
ARC
  5
47F
100
AcDbEntity
  8
M01
100
AcDbCircle
 10
589.447241
 20
476.559226
 30
0.0
 40
12.0
100
AcDbArc
 50
180.0
 51
270.0
  0
ARC
  5
480
100
AcDbEntity
  8
M01
100
AcDbCircle
 10
521.447241
 20
476.559226
 30
0.0
 40
12.0
100
AcDbArc
 50
270.0
 51
0.0
  0
LINE
  5
481
100
AcDbEntity
  8
M01
100
AcDbLine
 10
589.447241
 20
464.559226
 30
0.0
 11
650.447241
 21
464.559226
 31
0.0
  0
LINE
  5
482
100
AcDbEntity
  8
M01
100
AcDbLine
 10
577.447241
 20
506.559226
 30
0.0
 11
577.447241
 21
476.559226
 31
0.0
  0
LINE
  5
483
100
AcDbEntity
  8
M01
100
AcDbLine
 10
533.447241
 20
506.559226
 30
0.0
 11
533.447241
 21
476.559226
 31
0.0
  0
LINE
  5
484
100
AcDbEntity
  8
M01
100
AcDbLine
 10
662.447241
 20
412.559226
 30
0.0
 11
650.447241
 21
400.559226
 31
0.0
  0
LINE
  5
485
100
AcDbEntity
  8
M01
100
AcDbLine
 10
650.447241
 20
464.559226
 30
0.0
 11
662.447241
 21
452.559226
 31
0.0
  0
LINE
  5
486
100
AcDbEntity
  8
M01
100
AcDbLine
 10
448.447241
 20
452.559226
 30
0.0
 11
460.447241
 21
464.559226
 31
0.0
  0
LINE
  5
487
100
AcDbEntity
  8
M01
100
AcDbLine
 10
460.447241
 20
400.559226
 30
0.0
 11
448.447241
 21
412.559226
 31
0.0
  0
LINE
  5
488
100
AcDbEntity
  8
M01
100
AcDbLine
 10
460.447241
 20
400.559226
 30
0.0
 11
650.447241
 21
400.559226
 31
0.0
  0
LINE
  5
489
100
AcDbEntity
  8
M01
100
AcDbLine
 10
460.447241
 20
464.559226
 30
0.0
 11
521.447241
 21
464.559226
 31
0.0
  0
LINE
  5
48A
100
AcDbEntity
  8
M01
100
AcDbLine
 10
662.447241
 20
452.559226
 30
0.0
 11
662.447241
 21
412.559226
 31
0.0
  0
LINE
  5
48B
100
AcDbEntity
  8
M01
100
AcDbLine
 10
448.447241
 20
452.559226
 30
0.0
 11
448.447241
 21
412.559226
 31
0.0
  0
LINE
  5
48C
100
AcDbEntity
  8
CENTRE
100
AcDbLine
 10
555.447241
 20
523.559226
 30
0.0
 11
555.447241
 21
385.559226
 31
0.0
  0
LINE
  5
48D
100
AcDbEntity
  8
CENTRE
100
AcDbLine
 10
433.447241
 20
432.559226
 30
0.0
 11
677.447241
 21
432.559226
 31
0.0
  0
ENDSEC
  0
SECTION
  2
OBJECTS
  0
DICTIONARY
  5
1C
100
AcDbDictionary
  3
ACAD_GROUP
350
1A
  3
ACAD_MLINESTYLE
350
1B
  0
DICTIONARY
  5
3
100
AcDbDictionary
280
     1
  3
ACAD_SORTENTS
360
4
  0
DICTIONARY
  5
1A
102
{ACAD_REACTORS
330
1C
102
}
100
AcDbDictionary
  0
DICTIONARY
  5
1B
102
{ACAD_REACTORS
330
1C
102
}
100
AcDbDictionary
  3
STANDARD
350
1F
  0
SORTENTSTABLE
  5
4
102
{ACAD_REACTORS
330
3
102
}
100
AcDbSortentsTable
330
2
  0
MLINESTYLE
  5
1F
102
{ACAD_REACTORS
330
1B
102
}
100
AcDbMlineStyle
  2
STANDARD
 70
     0
  3

 62
   256
 51
90.0
 52
90.0
 71
     2
 49
0.5
 62
   256
  6
BYLAYER
 49
-0.5
 62
   256
  6
BYLAYER
  0
ENDSEC
  0
EOF
