  0
SECTION
  2
HEADER
  9
$ACADVER
  1
AC1014
  9
$ACADMAINTVER
 70
     9
  9
$DWGCODEPAGE
  3
ANSI_1252
  9
$INSBASE
 10
0.0
 20
0.0
 30
0.0
  9
$EXTMIN
 10
347.667562
 20
152.041051
 30
-0.222949
  9
$EXTMAX
 10
871.444712
 20
511.810084
 30
0.0
  9
$LIMMIN
 10
0.0
 20
0.0
  9
$LIMMAX
 10
1189.0
 20
841.0
  9
$ORTHOMODE
 70
     1
  9
$REGENMODE
 70
     1
  9
$FILLMODE
 70
     1
  9
$QTEXTMODE
 70
     0
  9
$MIRRTEXT
 70
     0
  9
$DRAGMODE
 70
     2
  9
$LTSCALE
 40
8.0
  9
$OSMODE
 70
     0
  9
$ATTMODE
 70
     1
  9
$TEXTSIZE
 40
3.0
  9
$TRACEWID
 40
10.0
  9
$TEXTSTYLE
  7
STANDARD
  9
$CLAYER
  8
HATCH
  9
$CELTYPE
  6
BYLAYER
  9
$CECOLOR
 62
   256
  9
$CELTSCALE
 40
1.0
  9
$DELOBJ
 70
     1
  9
$DISPSILH
 70
     0
  9
$DIMSCALE
 40
1.0
  9
$DIMASZ
 40
3.0
  9
$DIMEXO
 40
1.0
  9
$DIMDLI
 40
10.0
  9
$DIMRND
 40
0.01
  9
$DIMDLE
 40
1.25
  9
$DIMEXE
 40
2.5
  9
$DIMTP
 40
0.05
  9
$DIMTM
 40
0.0
  9
$DIMTXT
 40
3.0
  9
$DIMCEN
 40
-1.7
  9
$DIMTSZ
 40
0.0
  9
$DIMTOL
 70
     0
  9
$DIMLIM
 70
     0
  9
$DIMTIH
 70
     0
  9
$DIMTOH
 70
     0
  9
$DIMSE1
 70
     0
  9
$DIMSE2
 70
     0
  9
$DIMTAD
 70
     3
  9
$DIMZIN
 70
     1
  9
$DIMBLK
  1

  9
$DIMASO
 70
     1
  9
$DIMSHO
 70
     0
  9
$DIMPOST
  1

  9
$DIMAPOST
  1

  9
$DIMALT
 70
     0
  9
$DIMALTD
 70
     2
  9
$DIMALTF
 40
0.039
  9
$DIMLFAC
 40
1.0
  9
$DIMTOFL
 70
     0
  9
$DIMTVP
 40
1.5
  9
$DIMTIX
 70
     0
  9
$DIMSOXD
 70
     0
  9
$DIMSAH
 70
     0
  9
$DIMBLK1
  1

  9
$DIMBLK2
  1

  9
$DIMSTYLE
  2
DIM1
  9
$DIMCLRD
 70
     4
  9
$DIMCLRE
 70
     4
  9
$DIMCLRT
 70
     2
  9
$DIMTFAC
 40
0.7
  9
$DIMGAP
 40
1.5
  9
$DIMJUST
 70
     0
  9
$DIMSD1
 70
     0
  9
$DIMSD2
 70
     0
  9
$DIMTOLJ
 70
     1
  9
$DIMTZIN
 70
     1
  9
$DIMALTZ
 70
     1
  9
$DIMALTTZ
 70
     1
  9
$DIMFIT
 70
     0
  9
$DIMUPT
 70
     0
  9
$DIMUNIT
 70
     2
  9
$DIMDEC
 70
     2
  9
$DIMTDEC
 70
     2
  9
$DIMALTU
 70
     2
  9
$DIMALTTD
 70
     2
  9
$DIMTXSTY
  7
STANDARD
  9
$DIMAUNIT
 70
     0
  9
$LUNITS
 70
     2
  9
$LUPREC
 70
     2
  9
$SKETCHINC
 40
1.0
  9
$FILLETRAD
 40
0.0
  9
$AUNITS
 70
     0
  9
$AUPREC
 70
     3
  9
$MENU
  1
ACAD
  9
$ELEVATION
 40
0.0
  9
$PELEVATION
 40
0.0
  9
$THICKNESS
 40
0.0
  9
$LIMCHECK
 70
     0
  9
$BLIPMODE
 70
     1
  9
$CHAMFERA
 40
2.0
  9
$CHAMFERB
 40
2.0
  9
$CHAMFERC
 40
0.0
  9
$CHAMFERD
 40
0.0
  9
$SKPOLY
 70
     1
  9
$TDCREATE
 40
2449993.725698611
  9
$TDUPDATE
 40
2452008.638000150
  9
$TDINDWG
 40
0.9661443634
  9
$TDUSRTIMER
 40
0.9661443634
  9
$USRTIMER
 70
     1
  9
$ANGBASE
 50
0.0
  9
$ANGDIR
 70
     0
  9
$PDMODE
 70
     3
  9
$PDSIZE
 40
0.0
  9
$PLINEWID
 40
0.0
  9
$COORDS
 70
     2
  9
$SPLFRAME
 70
     0
  9
$SPLINETYPE
 70
     6
  9
$SPLINESEGS
 70
     6
  9
$ATTDIA
 70
     1
  9
$ATTREQ
 70
     1
  9
$HANDLING
 70
     1
  9
$HANDSEED
  5
386
  9
$SURFTAB1
 70
    12
  9
$SURFTAB2
 70
    12
  9
$SURFTYPE
 70
     6
  9
$SURFU
 70
    12
  9
$SURFV
 70
    12
  9
$UCSNAME
  2

  9
$UCSORG
 10
0.0
 20
0.0
 30
0.0
  9
$UCSXDIR
 10
1.0
 20
0.0
 30
0.0
  9
$UCSYDIR
 10
0.0
 20
1.0
 30
0.0
  9
$PUCSNAME
  2

  9
$PUCSORG
 10
0.0
 20
0.0
 30
0.0
  9
$PUCSXDIR
 10
1.0
 20
0.0
 30
0.0
  9
$PUCSYDIR
 10
0.0
 20
1.0
 30
0.0
  9
$USERI1
 70
     0
  9
$USERI2
 70
     0
  9
$USERI3
 70
     0
  9
$USERI4
 70
     0
  9
$USERI5
 70
     0
  9
$USERR1
 40
0.0
  9
$USERR2
 40
0.0
  9
$USERR3
 40
0.0
  9
$USERR4
 40
0.0
  9
$USERR5
 40
0.0
  9
$WORLDVIEW
 70
     0
  9
$SHADEDGE
 70
     3
  9
$SHADEDIF
 70
    70
  9
$TILEMODE
 70
     1
  9
$MAXACTVP
 70
    16
  9
$PINSBASE
 10
0.0
 20
0.0
 30
0.0
  9
$PLIMCHECK
 70
     0
  9
$PEXTMIN
 10
1.000000E+20
 20
1.000000E+20
 30
1.000000E+20
  9
$PEXTMAX
 10
-1.000000E+20
 20
-1.000000E+20
 30
-1.000000E+20
  9
$PLIMMIN
 10
0.0
 20
0.0
  9
$PLIMMAX
 10
12.0
 20
9.0
  9
$UNITMODE
 70
     0
  9
$VISRETAIN
 70
     0
  9
$PLINEGEN
 70
     0
  9
$PSLTSCALE
 70
     0
  9
$TREEDEPTH
 70
  3020
  9
$PICKSTYLE
 70
     1
  9
$CMLSTYLE
  2
STANDARD
  9
$CMLJUST
 70
     0
  9
$CMLSCALE
 40
1.0
  9
$PROXYGRAPHICS
 70
     1
  9
$MEASUREMENT
 70
     0
  0
ENDSEC
  0
SECTION
  2
CLASSES
  0
CLASS
  1
DICTIONARYVAR
  2
AcDbDictionaryVar
  3
"AutoCAD"
 90
        0
280
     0
281
     0
  0
CLASS
  1
LWPOLYLINE
  2
AcDbPolyline
  3
"AutoCAD"
 90
        0
280
     0
281
     1
  0
CLASS
  1
HATCH
  2
AcDbHatch
  3
"ACAD_SEDONA"
 90
        0
280
     0
281
     1
  0
CLASS
  1
SORTENTSTABLE
  2
AcDbSortentsTable
  3
"AutoCAD"
 90
        0
280
     0
281
     0
  0
CLASS
  1
WIPEOUTVARIABLES
  2
AcDbWipeoutVariables
  3
WIPEOUT
 90
        0
280
     0
281
     0
  0
CLASS
  1
WIPEOUT
  2
AcDbWipeout
  3
WIPEOUT
 90
      127
280
     0
281
     1
  0
ENDSEC
  0
SECTION
  2
TABLES
  0
TABLE
  2
VPORT
  5
14
100
AcDbSymbolTable
 70
     2
  0
VPORT
  5
385
100
AcDbSymbolTableRecord
100
AcDbViewportTableRecord
  2
*ACTIVE
 70
     0
 10
0.0
 20
0.0
 11
1.0
 21
1.0
 12
509.647156
 22
326.71659
 13
0.0
 23
0.0
 14
10.0
 24
10.0
 15
0.0
 25
0.0
 16
0.0
 26
0.0
 36
1.0
 17
16.313321
 27
12.779115
 37
0.222949
 40
502.536197
 41
1.470516
 42
50.0
 43
0.0
 44
0.0
 50
0.0
 51
0.0
 71
     0
 72
  2000
 73
     1
 74
     2
 75
     0
 76
     0
 77
     0
 78
     1
  0
ENDTAB
  0
TABLE
  2
LTYPE
  5
F
100
AcDbSymbolTable
 70
     3
  0
LTYPE
  5
10
100
AcDbSymbolTableRecord
100
AcDbLinetypeTableRecord
  2
BYBLOCK
 70
     0
  3

 72
    65
 73
     0
 40
0.0
  0
LTYPE
  5
11
100
AcDbSymbolTableRecord
100
AcDbLinetypeTableRecord
  2
BYLAYER
 70
     0
  3

 72
    65
 73
     0
 40
0.0
  0
LTYPE
  5
7
100
AcDbSymbolTableRecord
100
AcDbLinetypeTableRecord
  2
CONTINUOUS
 70
     0
  3
Solid line
 72
    65
 73
     0
 40
0.0
  0
LTYPE
  5
28
100
AcDbSymbolTableRecord
100
AcDbLinetypeTableRecord
  2
CENTER
 70
     0
  3
Center ____ _ ____ _ ____ _ ____ _ ____ _ ____
 72
    65
 73
     4
 40
2.0
 49
1.25
 74
     0
 49
-0.25
 74
     0
 49
0.25
 74
     0
 49
-0.25
 74
     0
  0
LTYPE
  5
25
100
AcDbSymbolTableRecord
100
AcDbLinetypeTableRecord
  2
HIDDEN
 70
     0
  3
Hidden __ __ __ __ __ __ __ __ __ __ __ __ __ _
 72
    65
 73
     2
 40
0.375
 49
0.25
 74
     0
 49
-0.125
 74
     0
  0
ENDTAB
  0
TABLE
  2
LAYER
  5
C
100
AcDbSymbolTable
 70
    11
  0
LAYER
  5
6
100
AcDbSymbolTableRecord
100
AcDbLayerTableRecord
  2
0
 70
     0
 62
     7
  6
CONTINUOUS
  0
LAYER
  5
27
100
AcDbSymbolTableRecord
100
AcDbLayerTableRecord
  2
CENTRE
 70
     0
 62
     3
  6
CENTER
  0
LAYER
  5
22
100
AcDbSymbolTableRecord
100
AcDbLayerTableRecord
  2
M01
 70
     0
 62
     1
  6
CONTINUOUS
  0
LAYER
  5
4F
100
AcDbSymbolTableRecord
100
AcDbLayerTableRecord
  2
M02
 70
     0
 62
     2
  6
CONTINUOUS
  0
LAYER
  5
24
100
AcDbSymbolTableRecord
100
AcDbLayerTableRecord
  2
M03
 70
     0
 62
     2
  6
HIDDEN
  0
LAYER
  5
4D
100
AcDbSymbolTableRecord
100
AcDbLayerTableRecord
  2
M04
 70
     0
 62
     7
  6
CONTINUOUS
  0
LAYER
  5
77
100
AcDbSymbolTableRecord
100
AcDbLayerTableRecord
  2
M05
 70
     0
 62
     5
  6
CONTINUOUS
  0
LAYER
  5
2F
100
AcDbSymbolTableRecord
100
AcDbLayerTableRecord
  2
DIMS
 70
     0
 62
     4
  6
CONTINUOUS
  0
LAYER
  5
4B
100
AcDbSymbolTableRecord
100
AcDbLayerTableRecord
  2
TEXT
 70
     0
 62
     2
  6
CONTINUOUS
  0
LAYER
  5
1D
100
AcDbSymbolTableRecord
100
AcDbLayerTableRecord
  2
HATCH
 70
     0
 62
     4
  6
CONTINUOUS
  0
LAYER
  5
38
100
AcDbSymbolTableRecord
100
AcDbLayerTableRecord
  2
DEFPOINTS
 70
     0
 62
     7
  6
CONTINUOUS
  0
ENDTAB
  0
TABLE
  2
STYLE
  5
D
100
AcDbSymbolTable
 70
     1
  0
STYLE
  5
E
100
AcDbSymbolTableRecord
100
AcDbTextStyleTableRecord
  2
STANDARD
 70
     0
 40
0.0
 41
1.0
 50
0.0
 71
     0
 42
3.0
  3
SIMPLEX
  4

  0
ENDTAB
  0
TABLE
  2
VIEW
  5
12
100
AcDbSymbolTable
 70
     0
  0
ENDTAB
  0
TABLE
  2
UCS
  5
13
100
AcDbSymbolTable
 70
     0
  0
ENDTAB
  0
TABLE
  2
APPID
  5
16
100
AcDbSymbolTable
 70
     1
  0
APPID
  5
17
100
AcDbSymbolTableRecord
100
AcDbRegAppTableRecord
  2
ACAD
 70
     0
  0
ENDTAB
  0
TABLE
  2
DIMSTYLE
  5
18
100
AcDbSymbolTable
 70
     2
  0
DIMSTYLE
105
1F
102
{ACAD_REACTORS
330
109
330
F5
330
E8
330
DA
330
CC
330
BF
330
B2
330
A5
330
98
330
5D
330
50
330
3D
330
2E
102
}
100
AcDbSymbolTableRecord
100
AcDbDimStyleTableRecord
  2
DIM1
 70
     0
  3

  4

  5

  6

  7

 40
1.0
 41
3.0
 42
1.0
 43
10.0
 44
2.5
 45
0.01
 46
1.25
 47
0.05
 48
0.0
140
3.0
141
-1.7
142
0.0
143
0.039
144
0.2
145
1.5
146
0.7
147
1.5
 71
     0
 72
     0
 73
     0
 74
     0
 75
     0
 76
     0
 77
     3
 78
     1
170
     0
171
     2
172
     0
173
     0
174
     0
175
     0
176
     4
177
     4
178
     2
270
     2
271
     2
272
     2
273
     2
274
     2
340
E
275
     0
280
     0
281
     0
282
     0
283
     1
284
     1
285
     1
286
     1
287
     0
288
     0
  0
DIMSTYLE
105
2C1
100
AcDbSymbolTableRecord
100
AcDbDimStyleTableRecord
  2
DIM1$7
 70
     0
  3

  4

  5

  6

  7

 40
1.0
 41
3.0
 42
1.0
 43
10.0
 44
2.5
 45
0.01
 46
1.25
 47
0.0
 48
0.0
140
3.0
141
-1.7
142
0.0
143
0.039
144
1.0
145
0.0
146
1.0
147
1.5
 71
     0
 72
     0
 73
     0
 74
     0
 75
     0
 76
     0
 77
     0
 78
     1
170
     0
171
     2
172
     0
173
     0
174
     0
175
     0
176
     4
177
     4
178
     2
270
     2
271
     2
272
     2
273
     2
274
     2
340
E
275
     0
280
     0
281
     0
282
     0
283
     1
284
     1
285
     1
286
     1
287
     0
288
     0
  0
ENDTAB
  0
TABLE
  2
BLOCK_RECORD
  5
1
100
AcDbSymbolTable
 70
    13
  0
BLOCK_RECORD
  5
2
102
{ACAD_XDICTIONARY
360
3
102
}
100
AcDbSymbolTableRecord
100
AcDbBlockTableRecord
  2
*MODEL_SPACE
  0
BLOCK_RECORD
  5
9
100
AcDbSymbolTableRecord
100
AcDbBlockTableRecord
  2
*PAPER_SPACE
  0
BLOCK_RECORD
  5
10A
100
AcDbSymbolTableRecord
100
AcDbBlockTableRecord
  2
*D0
  0
BLOCK_RECORD
  5
F6
100
AcDbSymbolTableRecord
100
AcDbBlockTableRecord
  2
*D1
  0
BLOCK_RECORD
  5
E9
100
AcDbSymbolTableRecord
100
AcDbBlockTableRecord
  2
*D2
  0
BLOCK_RECORD
  5
DB
100
AcDbSymbolTableRecord
100
AcDbBlockTableRecord
  2
*D3
  0
BLOCK_RECORD
  5
CD
100
AcDbSymbolTableRecord
100
AcDbBlockTableRecord
  2
*D4
  0
BLOCK_RECORD
  5
C0
100
AcDbSymbolTableRecord
100
AcDbBlockTableRecord
  2
*D5
  0
BLOCK_RECORD
  5
B3
100
AcDbSymbolTableRecord
100
AcDbBlockTableRecord
  2
*D6
  0
BLOCK_RECORD
  5
A6
100
AcDbSymbolTableRecord
100
AcDbBlockTableRecord
  2
*D7
  0
BLOCK_RECORD
  5
99
100
AcDbSymbolTableRecord
100
AcDbBlockTableRecord
  2
*D8
  0
BLOCK_RECORD
  5
5E
100
AcDbSymbolTableRecord
100
AcDbBlockTableRecord
  2
*D9
  0
BLOCK_RECORD
  5
51
100
AcDbSymbolTableRecord
100
AcDbBlockTableRecord
  2
*D10
  0
BLOCK_RECORD
  5
3E
100
AcDbSymbolTableRecord
100
AcDbBlockTableRecord
  2
*D11
  0
BLOCK_RECORD
  5
30
100
AcDbSymbolTableRecord
100
AcDbBlockTableRecord
  2
*D12
  0
ENDTAB
  0
ENDSEC
  0
SECTION
  2
BLOCKS
  0
BLOCK
  5
5
100
AcDbEntity
  8
0
100
AcDbBlockBegin
  2
*MODEL_SPACE
 70
     0
 10
0.0
 20
0.0
 30
0.0
  3
*MODEL_SPACE
  1

  0
ENDBLK
  5
8
100
AcDbEntity
  8
0
100
AcDbBlockEnd
  0
BLOCK
  5
A
100
AcDbEntity
 67
     1
  8
0
100
AcDbBlockBegin
  2
*PAPER_SPACE
 70
     0
 10
0.0
 20
0.0
 30
0.0
  3
*PAPER_SPACE
  1

  0
ENDBLK
  5
B
100
AcDbEntity
 67
     1
  8
0
100
AcDbBlockEnd
  0
BLOCK
  5
115
100
AcDbEntity
  8
0
100
AcDbBlockBegin
  2
*D0
 70
     1
 10
0.0
 20
0.0
 30
0.0
  3
*D0
  1

  0
LINE
  5
10B
100
AcDbEntity
  8
0
  6
BYBLOCK
 62
     4
100
AcDbLine
 10
639.947241
 20
315.486474
 30
0.0
 11
639.947241
 21
331.662639
 31
0.0
  0
LINE
  5
10C
100
AcDbEntity
  8
0
  6
BYBLOCK
 62
     4
100
AcDbLine
 10
631.947241
 20
315.486474
 30
0.0
 11
631.947241
 21
331.662639
 31
0.0
  0
LINE
  5
10D
100
AcDbEntity
  8
0
  6
BYBLOCK
 62
     4
100
AcDbLine
 10
642.947241
 20
329.162639
 30
0.0
 11
645.947241
 21
329.162639
 31
0.0
  0
LINE
  5
10E
100
AcDbEntity
  8
0
  6
BYBLOCK
 62
     4
100
AcDbLine
 10
628.947241
 20
329.162639
 30
0.0
 11
602.375812
 21
329.162639
 31
0.0
  0
SOLID
  5
10F
100
AcDbEntity
  8
0
  6
BYBLOCK
 62
     4
100
AcDbTrace
 10
642.947241
 20
329.662639
 30
0.0
 11
642.947241
 21
328.662639
 31
0.0
 12
639.947241
 22
329.162639
 32
0.0
 13
639.947241
 23
329.162639
 33
0.0
  0
SOLID
  5
110
100
AcDbEntity
  8
0
  6
BYBLOCK
 62
     4
100
AcDbTrace
 10
628.947241
 20
329.662639
 30
0.0
 11
628.947241
 21
328.662639
 31
0.0
 12
631.947241
 22
329.162639
 32
0.0
 13
631.947241
 23
329.162639
 33
0.0
  0
MTEXT
  5
111
100
AcDbEntity
  8
0
  6
BYBLOCK
 62
     2
100
AcDbMText
 10
614.161526
 20
332.162639
 30
0.0
 40
3.0
 41
0.0
 71
     5
 72
     1
  1
\A1;\U+22058.00 H7
  0
POINT
  5
112
100
AcDbEntity
  8
DEFPOINTS
  6
BYBLOCK
 62
     0
100
AcDbPoint
 10
639.947241
 20
314.486474
 30
0.0
  0
POINT
  5
113
100
AcDbEntity
  8
DEFPOINTS
  6
BYBLOCK
 62
     0
100
AcDbPoint
 10
631.947241
 20
314.486474
 30
0.0
  0
POINT
  5
114
100
AcDbEntity
  8
DEFPOINTS
  6
BYBLOCK
 62
     0
100
AcDbPoint
 10
631.947241
 20
329.162639
 30
0.0
  0
ENDBLK
  5
116
100
AcDbEntity
  8
0
100
AcDbBlockEnd
  0
BLOCK
  5
100
100
AcDbEntity
  8
0
100
AcDbBlockBegin
  2
*D1
 70
     1
 10
0.0
 20
0.0
 30
0.0
  3
*D1
  1

  0
LINE
  5
F7
100
AcDbEntity
  8
0
  6
BYBLOCK
 62
     4
100
AcDbLine
 10
803.313047
 20
396.496166
 30
0.0
 11
803.313047
 21
358.681049
 31
0.0
  0
LINE
  5
F8
100
AcDbEntity
  8
0
  6
BYBLOCK
 62
     4
100
AcDbLine
 10
843.313047
 20
396.496166
 30
0.0
 11
843.313047
 21
358.681049
 31
0.0
  0
LINE
  5
F9
100
AcDbEntity
  8
0
  6
BYBLOCK
 62
     4
100
AcDbLine
 10
806.313047
 20
361.181049
 30
0.0
 11
840.313047
 21
361.181049
 31
0.0
  0
SOLID
  5
FA
100
AcDbEntity
  8
0
  6
BYBLOCK
 62
     4
100
AcDbTrace
 10
806.313047
 20
361.681049
 30
0.0
 11
806.313047
 21
360.681049
 31
0.0
 12
803.313047
 22
361.181049
 32
0.0
 13
803.313047
 23
361.181049
 33
0.0
  0
SOLID
  5
FB
100
AcDbEntity
  8
0
  6
BYBLOCK
 62
     4
100
AcDbTrace
 10
840.313047
 20
361.681049
 30
0.0
 11
840.313047
 21
360.681049
 31
0.0
 12
843.313047
 22
361.181049
 32
0.0
 13
843.313047
 23
361.181049
 33
0.0
  0
MTEXT
  5
FC
100
AcDbEntity
  8
0
  6
BYBLOCK
 62
     2
100
AcDbMText
 10
823.313047
 20
364.181049
 30
0.0
 40
3.0
 41
0.0
 71
     5
 72
     1
  1
\A1;\U+220540.00 H7
  0
POINT
  5
FD
100
AcDbEntity
  8
DEFPOINTS
  6
BYBLOCK
 62
     0
100
AcDbPoint
 10
803.313047
 20
397.496166
 30
0.0
  0
POINT
  5
FE
100
AcDbEntity
  8
DEFPOINTS
  6
BYBLOCK
 62
     0
100
AcDbPoint
 10
843.313047
 20
397.496166
 30
0.0
  0
POINT
  5
FF
100
AcDbEntity
  8
DEFPOINTS
  6
BYBLOCK
 62
     0
100
AcDbPoint
 10
843.313047
 20
361.181049
 30
0.0
  0
ENDBLK
  5
101
100
AcDbEntity
  8
0
100
AcDbBlockEnd
  0
BLOCK
  5
F3
100
AcDbEntity
  8
0
100
AcDbBlockBegin
  2
*D2
 70
     1
 10
0.0
 20
0.0
 30
0.0
  3
*D2
  1

  0
LINE
  5
EA
100
AcDbEntity
  8
0
  6
BYBLOCK
 62
     4
100
AcDbLine
 10
792.313047
 20
459.496166
 30
0.0
 11
750.533369
 21
459.496166
 31
0.0
  0
LINE
  5
EB
100
AcDbEntity
  8
0
  6
BYBLOCK
 62
     4
100
AcDbLine
 10
790.313047
 20
412.496166
 30
0.0
 11
750.533369
 21
412.496166
 31
0.0
  0
LINE
  5
EC
100
AcDbEntity
  8
0
  6
BYBLOCK
 62
     4
100
AcDbLine
 10
753.033369
 20
456.496166
 30
0.0
 11
753.033369
 21
415.496166
 31
0.0
  0
SOLID
  5
ED
100
AcDbEntity
  8
0
  6
BYBLOCK
 62
     4
100
AcDbTrace
 10
752.533369
 20
456.496166
 30
0.0
 11
753.533369
 21
456.496166
 31
0.0
 12
753.033369
 22
459.496166
 32
0.0
 13
753.033369
 23
459.496166
 33
0.0
  0
SOLID
  5
EE
100
AcDbEntity
  8
0
  6
BYBLOCK
 62
     4
100
AcDbTrace
 10
752.533369
 20
415.496166
 30
0.0
 11
753.533369
 21
415.496166
 31
0.0
 12
753.033369
 22
412.496166
 32
0.0
 13
753.033369
 23
412.496166
 33
0.0
  0
MTEXT
  5
EF
100
AcDbEntity
  8
0
  6
BYBLOCK
 62
     2
100
AcDbMText
 10
750.033369
 20
435.996166
 30
0.0
 40
3.0
 41
0.0
 71
     5
 72
     1
  1
\A1;47.00
 11
0.0
 21
1.0
 31
0.0
  0
POINT
  5
F0
100
AcDbEntity
  8
DEFPOINTS
  6
BYBLOCK
 62
     0
100
AcDbPoint
 10
793.313047
 20
459.496166
 30
0.0
  0
POINT
  5
F1
100
AcDbEntity
  8
DEFPOINTS
  6
BYBLOCK
 62
     0
100
AcDbPoint
 10
791.313047
 20
412.496166
 30
0.0
  0
POINT
  5
F2
100
AcDbEntity
  8
DEFPOINTS
  6
BYBLOCK
 62
     0
100
AcDbPoint
 10
753.033369
 20
412.496166
 30
0.0
  0
ENDBLK
  5
F4
100
AcDbEntity
  8
0
100
AcDbBlockEnd
  0
BLOCK
  5
E6
100
AcDbEntity
  8
0
100
AcDbBlockBegin
  2
*D3
 70
     1
 10
0.0
 20
0.0
 30
0.0
  3
*D3
  1

  0
LINE
  5
DC
100
AcDbEntity
  8
0
  6
BYBLOCK
 62
     4
100
AcDbLine
 10
391.447241
 20
247.486474
 30
0.0
 11
349.667562
 21
247.486474
 31
0.0
  0
LINE
  5
DD
100
AcDbEntity
  8
0
  6
BYBLOCK
 62
     4
100
AcDbLine
 10
370.933849
 20
240.486474
 30
0.0
 11
349.667562
 21
240.486474
 31
0.0
  0
LINE
  5
DE
100
AcDbEntity
  8
0
  6
BYBLOCK
 62
     4
100
AcDbLine
 10
352.167562
 20
250.486474
 30
0.0
 11
352.167562
 21
253.486474
 31
0.0
  0
LINE
  5
DF
100
AcDbEntity
  8
0
  6
BYBLOCK
 62
     4
100
AcDbLine
 10
352.167562
 20
237.486474
 30
0.0
 11
352.167562
 21
225.20076
 31
0.0
  0
SOLID
  5
E0
100
AcDbEntity
  8
0
  6
BYBLOCK
 62
     4
100
AcDbTrace
 10
351.667562
 20
250.486474
 30
0.0
 11
352.667562
 21
250.486474
 31
0.0
 12
352.167562
 22
247.486474
 32
0.0
 13
352.167562
 23
247.486474
 33
0.0
  0
SOLID
  5
E1
100
AcDbEntity
  8
0
  6
BYBLOCK
 62
     4
100
AcDbTrace
 10
351.667562
 20
237.486474
 30
0.0
 11
352.667562
 21
237.486474
 31
0.0
 12
352.167562
 22
240.486474
 32
0.0
 13
352.167562
 23
240.486474
 33
0.0
  0
MTEXT
  5
E2
100
AcDbEntity
  8
0
  6
BYBLOCK
 62
     2
100
AcDbMText
 10
349.167562
 20
229.843617
 30
0.0
 40
3.0
 41
0.0
 71
     5
 72
     1
  1
\A1;7.0
 11
0.0
 21
1.0
 31
0.0
  0
POINT
  5
E3
100
AcDbEntity
  8
DEFPOINTS
  6
BYBLOCK
 62
     0
100
AcDbPoint
 10
392.447241
 20
247.486474
 30
0.0
  0
POINT
  5
E4
100
AcDbEntity
  8
DEFPOINTS
  6
BYBLOCK
 62
     0
100
AcDbPoint
 10
371.933849
 20
240.486474
 30
0.0
  0
POINT
  5
E5
100
AcDbEntity
  8
DEFPOINTS
  6
BYBLOCK
 62
     0
100
AcDbPoint
 10
352.167562
 20
240.486474
 30
0.0
  0
ENDBLK
  5
E7
100
AcDbEntity
  8
0
100
AcDbBlockEnd
  0
BLOCK
  5
D8
100
AcDbEntity
  8
0
100
AcDbBlockBegin
  2
*D4
 70
     1
 10
0.0
 20
0.0
 30
0.0
  3
*D4
  1

  0
LINE
  5
CE
100
AcDbEntity
  8
0
  6
BYBLOCK
 62
     4
100
AcDbLine
 10
792.313047
 20
459.496166
 30
0.0
 11
750.533369
 21
459.496166
 31
0.0
  0
LINE
  5
CF
100
AcDbEntity
  8
0
  6
BYBLOCK
 62
     4
100
AcDbLine
 10
783.313047
 20
466.496166
 30
0.0
 11
750.533369
 21
466.496166
 31
0.0
  0
LINE
  5
D0
100
AcDbEntity
  8
0
  6
BYBLOCK
 62
     4
100
AcDbLine
 10
753.033369
 20
456.496166
 30
0.0
 11
753.033369
 21
453.496166
 31
0.0
  0
LINE
  5
D1
100
AcDbEntity
  8
0
  6
BYBLOCK
 62
     4
100
AcDbLine
 10
753.033369
 20
469.496166
 30
0.0
 11
753.033369
 21
481.78188
 31
0.0
  0
SOLID
  5
D2
100
AcDbEntity
  8
0
  6
BYBLOCK
 62
     4
100
AcDbTrace
 10
752.533369
 20
456.496166
 30
0.0
 11
753.533369
 21
456.496166
 31
0.0
 12
753.033369
 22
459.496166
 32
0.0
 13
753.033369
 23
459.496166
 33
0.0
  0
SOLID
  5
D3
100
AcDbEntity
  8
0
  6
BYBLOCK
 62
     4
100
AcDbTrace
 10
752.533369
 20
469.496166
 30
0.0
 11
753.533369
 21
469.496166
 31
0.0
 12
753.033369
 22
466.496166
 32
0.0
 13
753.033369
 23
466.496166
 33
0.0
  0
MTEXT
  5
D4
100
AcDbEntity
  8
0
  6
BYBLOCK
 62
     2
100
AcDbMText
 10
750.033369
 20
477.139023
 30
0.0
 40
3.0
 41
0.0
 71
     5
 72
     1
  1
\A1;7.0
 11
0.0
 21
1.0
 31
0.0
  0
POINT
  5
D5
100
AcDbEntity
  8
DEFPOINTS
  6
BYBLOCK
 62
     0
100
AcDbPoint
 10
793.313047
 20
459.496166
 30
0.0
  0
POINT
  5
D6
100
AcDbEntity
  8
DEFPOINTS
  6
BYBLOCK
 62
     0
100
AcDbPoint
 10
784.313047
 20
466.496166
 30
0.0
  0
POINT
  5
D7
100
AcDbEntity
  8
DEFPOINTS
  6
BYBLOCK
 62
     0
100
AcDbPoint
 10
753.033369
 20
466.496166
 30
0.0
  0
ENDBLK
  5
D9
100
AcDbEntity
  8
0
100
AcDbBlockEnd
  0
BLOCK
  5
CA
100
AcDbEntity
  8
0
100
AcDbBlockBegin
  2
*D5
 70
     1
 10
0.0
 20
0.0
 30
0.0
  3
*D5
  1

  0
LINE
  5
C1
100
AcDbEntity
  8
0
  6
BYBLOCK
 62
     4
100
AcDbLine
 10
401.447241
 20
400.559226
 30
0.0
 11
361.730351
 21
400.559226
 31
0.0
  0
LINE
  5
C2
100
AcDbEntity
  8
0
  6
BYBLOCK
 62
     4
100
AcDbLine
 10
401.447241
 20
464.559226
 30
0.0
 11
361.730351
 21
464.559226
 31
0.0
  0
LINE
  5
C3
100
AcDbEntity
  8
0
  6
BYBLOCK
 62
     4
100
AcDbLine
 10
364.230351
 20
403.559226
 30
0.0
 11
364.230351
 21
461.559226
 31
0.0
  0
SOLID
  5
C4
100
AcDbEntity
  8
0
  6
BYBLOCK
 62
     4
100
AcDbTrace
 10
363.730351
 20
403.559226
 30
0.0
 11
364.730351
 21
403.559226
 31
0.0
 12
364.230351
 22
400.559226
 32
0.0
 13
364.230351
 23
400.559226
 33
0.0
  0
SOLID
  5
C5
100
AcDbEntity
  8
0
  6
BYBLOCK
 62
     4
100
AcDbTrace
 10
363.730351
 20
461.559226
 30
0.0
 11
364.730351
 21
461.559226
 31
0.0
 12
364.230351
 22
464.559226
 32
0.0
 13
364.230351
 23
464.559226
 33
0.0
  0
MTEXT
  5
C6
100
AcDbEntity
  8
0
  6
BYBLOCK
 62
     2
100
AcDbMText
 10
361.230351
 20
432.559226
 30
0.0
 40
3.0
 41
0.0
 71
     5
 72
     1
  1
\A1;64.00
 11
0.0
 21
1.0
 31
0.0
  0
POINT
  5
C7
100
AcDbEntity
  8
DEFPOINTS
  6
BYBLOCK
 62
     0
100
AcDbPoint
 10
402.447241
 20
400.559226
 30
0.0
  0
POINT
  5
C8
100
AcDbEntity
  8
DEFPOINTS
  6
BYBLOCK
 62
     0
100
AcDbPoint
 10
402.447241
 20
464.559226
 30
0.0
  0
POINT
  5
C9
100
AcDbEntity
  8
DEFPOINTS
  6
BYBLOCK
 62
     0
100
AcDbPoint
 10
364.230351
 20
464.559226
 30
0.0
  0
ENDBLK
  5
CB
100
AcDbEntity
  8
0
100
AcDbBlockEnd
  0
BLOCK
  5
BD
100
AcDbEntity
  8
0
100
AcDbBlockBegin
  2
*D6
 70
     1
 10
0.0
 20
0.0
 30
0.0
  3
*D6
  1

  0
LINE
  5
B4
100
AcDbEntity
  8
0
  6
BYBLOCK
 62
     4
100
AcDbLine
 10
555.447241
 20
384.559226
 30
0.0
 11
555.447241
 21
357.661
 31
0.0
  0
LINE
  5
B5
100
AcDbEntity
  8
0
  6
BYBLOCK
 62
     4
100
AcDbLine
 10
480.447241
 20
414.859226
 30
0.0
 11
480.447241
 21
357.661
 31
0.0
  0
LINE
  5
B6
100
AcDbEntity
  8
0
  6
BYBLOCK
 62
     4
100
AcDbLine
 10
552.447241
 20
360.161
 30
0.0
 11
483.447241
 21
360.161
 31
0.0
  0
SOLID
  5
B7
100
AcDbEntity
  8
0
  6
BYBLOCK
 62
     4
100
AcDbTrace
 10
552.447241
 20
360.661
 30
0.0
 11
552.447241
 21
359.661
 31
0.0
 12
555.447241
 22
360.161
 32
0.0
 13
555.447241
 23
360.161
 33
0.0
  0
SOLID
  5
B8
100
AcDbEntity
  8
0
  6
BYBLOCK
 62
     4
100
AcDbTrace
 10
483.447241
 20
360.661
 30
0.0
 11
483.447241
 21
359.661
 31
0.0
 12
480.447241
 22
360.161
 32
0.0
 13
480.447241
 23
360.161
 33
0.0
  0
MTEXT
  5
B9
100
AcDbEntity
  8
0
  6
BYBLOCK
 62
     2
100
AcDbMText
 10
517.947241
 20
363.161
 30
0.0
 40
3.0
 41
0.0
 71
     5
 72
     1
  1
\A1;A=75.00
  0
POINT
  5
BA
100
AcDbEntity
  8
DEFPOINTS
  6
BYBLOCK
 62
     0
100
AcDbPoint
 10
555.447241
 20
385.559226
 30
0.0
  0
POINT
  5
BB
100
AcDbEntity
  8
DEFPOINTS
  6
BYBLOCK
 62
     0
100
AcDbPoint
 10
480.447241
 20
415.859226
 30
0.0
  0
POINT
  5
BC
100
AcDbEntity
  8
DEFPOINTS
  6
BYBLOCK
 62
     0
100
AcDbPoint
 10
480.447241
 20
360.161
 30
0.0
  0
ENDBLK
  5
BE
100
AcDbEntity
  8
0
100
AcDbBlockEnd
  0
BLOCK
  5
B0
100
AcDbEntity
  8
0
100
AcDbBlockBegin
  2
*D7
 70
     1
 10
0.0
 20
0.0
 30
0.0
  3
*D7
  1

  0
LINE
  5
A7
100
AcDbEntity
  8
0
  6
BYBLOCK
 62
     4
100
AcDbLine
 10
555.447241
 20
384.559226
 30
0.0
 11
555.447241
 21
347.661
 31
0.0
  0
LINE
  5
A8
100
AcDbEntity
  8
0
  6
BYBLOCK
 62
     4
100
AcDbLine
 10
390.447241
 20
411.559226
 30
0.0
 11
390.447241
 21
347.661
 31
0.0
  0
LINE
  5
A9
100
AcDbEntity
  8
0
  6
BYBLOCK
 62
     4
100
AcDbLine
 10
552.447241
 20
350.161
 30
0.0
 11
393.447241
 21
350.161
 31
0.0
  0
SOLID
  5
AA
100
AcDbEntity
  8
0
  6
BYBLOCK
 62
     4
100
AcDbTrace
 10
552.447241
 20
350.661
 30
0.0
 11
552.447241
 21
349.661
 31
0.0
 12
555.447241
 22
350.161
 32
0.0
 13
555.447241
 23
350.161
 33
0.0
  0
SOLID
  5
AB
100
AcDbEntity
  8
0
  6
BYBLOCK
 62
     4
100
AcDbTrace
 10
393.447241
 20
350.661
 30
0.0
 11
393.447241
 21
349.661
 31
0.0
 12
390.447241
 22
350.161
 32
0.0
 13
390.447241
 23
350.161
 33
0.0
  0
MTEXT
  5
AC
100
AcDbEntity
  8
0
  6
BYBLOCK
 62
     2
100
AcDbMText
 10
472.947241
 20
353.161
 30
0.0
 40
3.0
 41
0.0
 71
     5
 72
     1
  1
\A1;L1=165.00
  0
POINT
  5
AD
100
AcDbEntity
  8
DEFPOINTS
  6
BYBLOCK
 62
     0
100
AcDbPoint
 10
555.447241
 20
385.559226
 30
0.0
  0
POINT
  5
AE
100
AcDbEntity
  8
DEFPOINTS
  6
BYBLOCK
 62
     0
100
AcDbPoint
 10
390.447241
 20
412.559226
 30
0.0
  0
POINT
  5
AF
100
AcDbEntity
  8
DEFPOINTS
  6
BYBLOCK
 62
     0
100
AcDbPoint
 10
390.447241
 20
350.161
 30
0.0
  0
ENDBLK
  5
B1
100
AcDbEntity
  8
0
100
AcDbBlockEnd
  0
BLOCK
  5
A3
100
AcDbEntity
  8
0
100
AcDbBlockBegin
  2
*D8
 70
     1
 10
0.0
 20
0.0
 30
0.0
  3
*D8
  1

  0
LINE
  5
9A
100
AcDbEntity
  8
0
  6
BYBLOCK
 62
     4
100
AcDbLine
 10
390.447241
 20
411.559226
 30
0.0
 11
390.447241
 21
337.249331
 31
0.0
  0
LINE
  5
9B
100
AcDbEntity
  8
0
  6
BYBLOCK
 62
     4
100
AcDbLine
 10
641.447241
 20
401.559226
 30
0.0
 11
641.447241
 21
337.249331
 31
0.0
  0
LINE
  5
9C
100
AcDbEntity
  8
0
  6
BYBLOCK
 62
     4
100
AcDbLine
 10
393.447241
 20
339.749331
 30
0.0
 11
638.447241
 21
339.749331
 31
0.0
  0
SOLID
  5
9D
100
AcDbEntity
  8
0
  6
BYBLOCK
 62
     4
100
AcDbTrace
 10
393.447241
 20
340.249331
 30
0.0
 11
393.447241
 21
339.249331
 31
0.0
 12
390.447241
 22
339.749331
 32
0.0
 13
390.447241
 23
339.749331
 33
0.0
  0
SOLID
  5
9E
100
AcDbEntity
  8
0
  6
BYBLOCK
 62
     4
100
AcDbTrace
 10
638.447241
 20
340.249331
 30
0.0
 11
638.447241
 21
339.249331
 31
0.0
 12
641.447241
 22
339.749331
 32
0.0
 13
641.447241
 23
339.749331
 33
0.0
  0
MTEXT
  5
9F
100
AcDbEntity
  8
0
  6
BYBLOCK
 62
     2
100
AcDbMText
 10
515.947241
 20
342.749331
 30
0.0
 40
3.0
 41
0.0
 71
     5
 72
     1
  1
\A1;L=251.00
  0
POINT
  5
A0
100
AcDbEntity
  8
DEFPOINTS
  6
BYBLOCK
 62
     0
100
AcDbPoint
 10
390.447241
 20
412.559226
 30
0.0
  0
POINT
  5
A1
100
AcDbEntity
  8
DEFPOINTS
  6
BYBLOCK
 62
     0
100
AcDbPoint
 10
641.447241
 20
402.559226
 30
0.0
  0
POINT
  5
A2
100
AcDbEntity
  8
DEFPOINTS
  6
BYBLOCK
 62
     0
100
AcDbPoint
 10
641.447241
 20
339.749331
 30
0.0
  0
ENDBLK
  5
A4
100
AcDbEntity
  8
0
100
AcDbBlockEnd
  0
BLOCK
  5
68
100
AcDbEntity
  8
0
100
AcDbBlockBegin
  2
*D9
 70
     1
 10
0.0
 20
0.0
 30
0.0
  3
*D9
  1

  0
LINE
  5
5F
100
AcDbEntity
  8
0
  6
BYBLOCK
 62
     4
100
AcDbLine
 10
577.672241
 20
290.331014
 30
0.0
 11
577.672241
 21
311.292623
 31
0.0
  0
LINE
  5
60
100
AcDbEntity
  8
0
  6
BYBLOCK
 62
     4
100
AcDbLine
 10
533.222241
 20
290.331014
 30
0.0
 11
533.222241
 21
311.292623
 31
0.0
  0
LINE
  5
61
100
AcDbEntity
  8
0
  6
BYBLOCK
 62
     4
100
AcDbLine
 10
574.672241
 20
308.792623
 30
0.0
 11
536.222241
 21
308.792623
 31
0.0
  0
SOLID
  5
62
100
AcDbEntity
  8
0
  6
BYBLOCK
 62
     4
100
AcDbTrace
 10
574.672241
 20
309.292623
 30
0.0
 11
574.672241
 21
308.292623
 31
0.0
 12
577.672241
 22
308.792623
 32
0.0
 13
577.672241
 23
308.792623
 33
0.0
  0
SOLID
  5
63
100
AcDbEntity
  8
0
  6
BYBLOCK
 62
     4
100
AcDbTrace
 10
536.222241
 20
309.292623
 30
0.0
 11
536.222241
 21
308.292623
 31
0.0
 12
533.222241
 22
308.792623
 32
0.0
 13
533.222241
 23
308.792623
 33
0.0
  0
MTEXT
  5
64
100
AcDbEntity
  8
0
  6
BYBLOCK
 62
     2
100
AcDbMText
 10
556.412452
 20
311.792623
 30
0.0
 40
3.0
 41
0.0
 71
     5
 72
     1
  1
\A1;\U+220544.45 H7
  0
POINT
  5
65
100
AcDbEntity
  8
DEFPOINTS
  6
BYBLOCK
 62
     0
100
AcDbPoint
 10
577.672241
 20
289.331014
 30
0.0
  0
POINT
  5
66
100
AcDbEntity
  8
DEFPOINTS
  6
BYBLOCK
 62
     0
100
AcDbPoint
 10
533.222241
 20
289.331014
 30
0.0
  0
POINT
  5
67
100
AcDbEntity
  8
DEFPOINTS
  6
BYBLOCK
 62
     0
100
AcDbPoint
 10
533.222241
 20
308.792623
 30
0.0
  0
ENDBLK
  5
69
100
AcDbEntity
  8
0
100
AcDbBlockEnd
  0
BLOCK
  5
5B
100
AcDbEntity
  8
0
100
AcDbBlockBegin
  2
*D10
 70
     1
 10
0.0
 20
0.0
 30
0.0
  3
*D10
  1

  0
LINE
  5
52
100
AcDbEntity
  8
0
  6
BYBLOCK
 62
     4
100
AcDbLine
 10
532.222241
 20
284.753664
 30
0.0
 11
532.222241
 21
321.333855
 31
0.0
  0
LINE
  5
53
100
AcDbEntity
  8
0
  6
BYBLOCK
 62
     4
100
AcDbLine
 10
578.672241
 20
284.753664
 30
0.0
 11
578.672241
 21
321.333855
 31
0.0
  0
LINE
  5
54
100
AcDbEntity
  8
0
  6
BYBLOCK
 62
     4
100
AcDbLine
 10
535.222241
 20
318.833855
 30
0.0
 11
575.672241
 21
318.833855
 31
0.0
  0
SOLID
  5
55
100
AcDbEntity
  8
0
  6
BYBLOCK
 62
     4
100
AcDbTrace
 10
535.222241
 20
319.333855
 30
0.0
 11
535.222241
 21
318.333855
 31
0.0
 12
532.222241
 22
318.833855
 32
0.0
 13
532.222241
 23
318.833855
 33
0.0
  0
SOLID
  5
56
100
AcDbEntity
  8
0
  6
BYBLOCK
 62
     4
100
AcDbTrace
 10
575.672241
 20
319.333855
 30
0.0
 11
575.672241
 21
318.333855
 31
0.0
 12
578.672241
 22
318.833855
 32
0.0
 13
578.672241
 23
318.833855
 33
0.0
  0
MTEXT
  5
57
100
AcDbEntity
  8
0
  6
BYBLOCK
 62
     2
100
AcDbMText
 10
556.752693
 20
321.833855
 30
0.0
 40
3.0
 41
0.0
 71
     5
 72
     1
  1
\A1;\U+220546.5
  0
POINT
  5
58
100
AcDbEntity
  8
DEFPOINTS
  6
BYBLOCK
 62
     0
100
AcDbPoint
 10
532.222241
 20
283.753664
 30
0.0
  0
POINT
  5
59
100
AcDbEntity
  8
DEFPOINTS
  6
BYBLOCK
 62
     0
100
AcDbPoint
 10
578.672241
 20
283.753664
 30
0.0
  0
POINT
  5
5A
100
AcDbEntity
  8
DEFPOINTS
  6
BYBLOCK
 62
     0
100
AcDbPoint
 10
578.672241
 20
318.833855
 30
0.0
  0
ENDBLK
  5
5C
100
AcDbEntity
  8
0
100
AcDbBlockEnd
  0
BLOCK
  5
48
100
AcDbEntity
  8
0
100
AcDbBlockBegin
  2
*D11
 70
     1
 10
0.0
 20
0.0
 30
0.0
  3
*D11
  1

  0
LINE
  5
3F
100
AcDbEntity
  8
0
  6
BYBLOCK
 62
     4
100
AcDbLine
 10
578.172241
 20
270.931014
 30
0.0
 11
602.502517
 21
270.931014
 31
0.0
  0
LINE
  5
40
100
AcDbEntity
  8
0
  6
BYBLOCK
 62
     4
100
AcDbLine
 10
578.672241
 20
284.331014
 30
0.0
 11
602.502517
 21
284.331014
 31
0.0
  0
LINE
  5
41
100
AcDbEntity
  8
0
  6
BYBLOCK
 62
     4
100
AcDbLine
 10
600.002517
 20
273.931014
 30
0.0
 11
600.002517
 21
281.331014
 31
0.0
  0
SOLID
  5
42
100
AcDbEntity
  8
0
  6
BYBLOCK
 62
     4
100
AcDbTrace
 10
599.502517
 20
273.931014
 30
0.0
 11
600.502517
 21
273.931014
 31
0.0
 12
600.002517
 22
270.931014
 32
0.0
 13
600.002517
 23
270.931014
 33
0.0
  0
SOLID
  5
43
100
AcDbEntity
  8
0
  6
BYBLOCK
 62
     4
100
AcDbTrace
 10
599.502517
 20
281.331014
 30
0.0
 11
600.502517
 21
281.331014
 31
0.0
 12
600.002517
 22
284.331014
 32
0.0
 13
600.002517
 23
284.331014
 33
0.0
  0
MTEXT
  5
44
100
AcDbEntity
  8
0
  6
BYBLOCK
 62
     2
100
AcDbMText
 10
597.002517
 20
277.631014
 30
0.0
 40
3.0
 41
0.0
 71
     5
 72
     1
  1
\A1;13.4
 11
0.0
 21
1.0
 31
0.0
  0
POINT
  5
45
100
AcDbEntity
  8
DEFPOINTS
  6
BYBLOCK
 62
     0
100
AcDbPoint
 10
577.172241
 20
270.931014
 30
0.0
  0
POINT
  5
46
100
AcDbEntity
  8
DEFPOINTS
  6
BYBLOCK
 62
     0
100
AcDbPoint
 10
577.672241
 20
284.331014
 30
0.0
  0
POINT
  5
47
100
AcDbEntity
  8
DEFPOINTS
  6
BYBLOCK
 62
     0
100
AcDbPoint
 10
600.002517
 20
284.331014
 30
0.0
  0
ENDBLK
  5
49
100
AcDbEntity
  8
0
100
AcDbBlockEnd
  0
BLOCK
  5
3B
100
AcDbEntity
  8
0
100
AcDbBlockBegin
  2
*D12
 70
     1
 10
0.0
 20
0.0
 30
0.0
  3
*D12
  1

  0
LINE
  5
31
100
AcDbEntity
  8
0
  6
BYBLOCK
 62
     4
100
AcDbLine
 10
579.672241
 20
263.931014
 30
0.0
 11
612.520835
 21
263.931014
 31
0.0
  0
LINE
  5
32
100
AcDbEntity
  8
0
  6
BYBLOCK
 62
     4
100
AcDbLine
 10
578.672241
 20
289.331014
 30
0.0
 11
612.520835
 21
289.331014
 31
0.0
  0
LINE
  5
33
100
AcDbEntity
  8
0
  6
BYBLOCK
 62
     4
100
AcDbLine
 10
610.020835
 20
266.931014
 30
0.0
 11
610.020835
 21
286.331014
 31
0.0
  0
SOLID
  5
34
100
AcDbEntity
  8
0
  6
BYBLOCK
 62
     4
100
AcDbTrace
 10
609.520835
 20
266.931014
 30
0.0
 11
610.520835
 21
266.931014
 31
0.0
 12
610.020835
 22
263.931014
 32
0.0
 13
610.020835
 23
263.931014
 33
0.0
  0
SOLID
  5
35
100
AcDbEntity
  8
0
  6
BYBLOCK
 62
     4
100
AcDbTrace
 10
609.520835
 20
286.331014
 30
0.0
 11
610.520835
 21
286.331014
 31
0.0
 12
610.020835
 22
289.331014
 32
0.0
 13
610.020835
 23
289.331014
 33
0.0
  0
MTEXT
  5
36
100
AcDbEntity
  8
0
  6
BYBLOCK
 62
     2
100
AcDbMText
 10
607.020835
 20
279.799749
 30
0.0
 40
3.0
 41
0.0
 71
     5
 72
     1
  1
\A1;25.40
 11
0.0
 21
1.0
 31
0.0
  0
POINT
  5
37
100
AcDbEntity
  8
DEFPOINTS
  6
BYBLOCK
 62
     0
100
AcDbPoint
 10
578.672241
 20
263.931014
 30
0.0
  0
POINT
  5
39
100
AcDbEntity
  8
DEFPOINTS
  6
BYBLOCK
 62
     0
100
AcDbPoint
 10
577.672241
 20
289.331014
 30
0.0
  0
POINT
  5
3A
100
AcDbEntity
  8
DEFPOINTS
  6
BYBLOCK
 62
     0
100
AcDbPoint
 10
610.020835
 20
289.331014
 30
0.0
  0
ENDBLK
  5
3C
100
AcDbEntity
  8
0
100
AcDbBlockEnd
  0
ENDSEC
  0
SECTION
  2
ENTITIES
  0
HATCH
  5
20
100
AcDbEntity
  8
HATCH
100
AcDbHatch
 10
0.0
 20
0.0
 30
0.0
210
0.0
220
0.0
230
1.0
  2
_U
 70
     0
 71
     0
 91
       16
 92
        7
 72
     1
 73
     1
 93
        5
 10
555.4472405752654
 20
452.5592260810632
 42
0.0
 10
555.4472405752654
 20
453.0592260810632
 42
-0.1856631955229143
 10
551.7619018306982
 20
454.4765457926017
 42
0.3157147729334966
 10
533.5851586753181
 20
436.5592260810632
 42
0.0
 10
535.8513226330001
 20
436.5592260810632
 42
-0.3563939586925999
 97
        0
 92
       22
 72
     1
 73
     1
 93
        4
 10
555.4472405752654
 20
452.5592260810632
 42
0.3563939586925999
 10
535.8513226330001
 20
436.5592260810632
 42
0.0
 10
546.8303966054584
 20
436.5592260810632
 42
-0.2919418509678903
 10
555.4472405752654
 20
442.0592260810632
 42
0.0
 97
        0
 92
        6
 72
     1
 73
     1
 93
        3
 10
555.4472405752654
 20
442.0592260810632
 42
0.2919418509678903
 10
546.8303966054584
 20
436.5592260810632
 42
0.0
 10
555.4472405752654
 20
436.5592260810632
 42
0.0
 97
        0
 92
        7
 72
     1
 73
     1
 93
        4
 10
555.4472405752654
 20
436.5592260810632
 42
0.0
 10
546.8303966054584
 20
436.5592260810632
 42
0.1090809576248918
 10
545.9472405752653
 20
432.5592260810631
 42
0.0
 10
551.4472405752654
 20
432.5592260810631
 42
-0.4142135623730992
 97
        0
 92
       22
 72
     1
 73
     1
 93
        3
 10
555.4472405752654
 20
436.5592260810632
 42
0.4142135623730992
 10
551.4472405752654
 20
432.5592260810631
 42
0.0
 10
555.4472405752655
 20
432.5592260810631
 42
0.0
 97
        0
 92
        7
 72
     1
 73
     1
 93
        4
 10
546.8303966054584
 20
436.5592260810632
 42
0.0
 10
535.8513226330001
 20
436.5592260810632
 42
0.0503820444848851
 10
535.4472405752654
 20
432.5592260810631
 42
0.0
 10
545.9472405752653
 20
432.5592260810631
 42
-0.1090809576248918
 97
        0
 92
        7
 72
     1
 73
     1
 93
        5
 10
535.8513226330001
 20
436.5592260810632
 42
0.0
 10
533.5851586753181
 20
436.5592260810632
 42
0.003593667114849
 10
533.5299208637271
 20
436.2445648256302
 42
-0.1856631955229133
 10
534.9472405752654
 20
432.5592260810631
 42
0.0
 10
535.4472405752654
 20
432.5592260810631
 42
-0.0503820444848851
 97
        0
 92
        7
 72
     1
 73
     1
 93
        3
 10
533.5299208637271
 20
436.2445648256302
 42
0.0416713391594355
 10
533.2222405752654
 20
432.5592260810631
 42
0.0
 10
534.9472405752654
 20
432.5592260810631
 42
0.1856631955229133
 97
        0
 92
       22
 72
     1
 73
     1
 93
        3
 10
559.4472405752653
 20
432.5592260810631
 42
0.0
 10
555.4472405752655
 20
432.5592260810631
 42
0.0
 10
555.4472405752655
 20
428.5592260810632
 42
0.4142135623730826
 97
        0
 92
        7
 72
     1
 73
     1
 93
        4
 10
564.9472405752653
 20
432.5592260810631
 42
0.0
 10
559.4472405752653
 20
432.5592260810631
 42
-0.4142135623730909
 10
555.4472405752654
 20
428.5592260810632
 42
0.0
 10
564.0640845450725
 20
428.5592260810632
 42
0.1090809576248888
 97
        0
 92
        6
 72
     1
 73
     1
 93
        3
 10
564.0640845450725
 20
428.5592260810632
 42
0.0
 10
555.4472405752654
 20
428.5592260810631
 42
0.0
 10
555.4472405752654
 20
423.0592260810632
 42
0.2919418509678903
 97
        0
 92
       22
 72
     1
 73
     1
 93
        4
 10
575.0431585175308
 20
428.5592260810632
 42
0.0
 10
564.0640845450725
 20
428.5592260810632
 42
-0.2919418509678903
 10
555.4472405752654
 20
423.0592260810632
 42
0.0
 10
555.4472405752654
 20
412.5592260810632
 42
0.3563939586925999
 97
        0
 92
        7
 72
     1
 73
     1
 93
        4
 10
575.4472405752653
 20
432.5592260810631
 42
0.0
 10
564.9472405752653
 20
432.5592260810631
 42
-0.1090809576248888
 10
564.0640845450725
 20
428.5592260810632
 42
0.0
 10
575.0431585175308
 20
428.5592260810632
 42
0.0503820444848837
 97
        0
 92
        7
 72
     1
 73
     1
 93
        5
 10
575.9472405752653
 20
432.5592260810631
 42
0.0
 10
575.4472405752653
 20
432.5592260810631
 42
-0.0503820444848837
 10
575.0431585175308
 20
428.5592260810632
 42
0.0
 10
577.3093224752126
 20
428.5592260810632
 42
0.003593667114849
 10
577.3645602868039
 20
428.8738873364962
 42
-0.185663195522908
 97
        0
 92
        7
 72
     1
 73
     1
 93
        3
 10
577.6722405752654
 20
432.5592260810631
 42
0.0
 10
575.9472405752653
 20
432.5592260810631
 42
0.185663195522908
 10
577.3645602868039
 20
428.8738873364962
 42
0.0416713391594342
 97
        0
 92
        7
 72
     1
 73
     1
 93
        4
 10
577.3093224752126
 20
428.5592260810632
 42
0.0
 10
575.0431585175308
 20
428.5592260810632
 42
-0.3563939586925999
 10
555.4472405752654
 20
412.5592260810632
 42
0.0
 10
555.4472405752654
 20
410.3342260810632
 42
0.3621506593782504
 97
        0
 75
     0
 76
     0
 52
45.0
 41
2.0
 77
     1
 78
     2
 53
45.0
 43
0.0
 44
0.0
 45
-1.414213562373094
 46
1.414213562373095
 79
     0
 53
135.0
 43
0.0
 44
0.0
 45
-1.414213562373095
 46
-1.414213562373094
 79
     0
 47
0.113412
 98
       16
 10
543.131086
 20
449.879146
 10
544.832962
 20
446.023152
 10
553.001966
 20
439.672104
 10
549.938589
 20
435.022228
 10
554.13655
 20
434.681993
 10
542.904169
 20
434.568582
 10
534.848623
 20
435.929521
 10
534.281332
 20
433.888112
 10
557.767219
 20
430.485764
 10
561.738262
 20
430.599175
 10
558.447969
 20
426.176123
 10
565.482389
 20
424.47495
 10
569.226516
 20
430.258941
 10
575.807103
 20
429.691883
 10
577.282062
 20
430.939411
 10
575.920562
 20
424.928596
  0
CIRCLE
  5
21
100
AcDbEntity
  8
M01
100
AcDbCircle
 10
555.447241
 20
432.559226
 30
0.0
 40
22.225
  0
CIRCLE
  5
23
100
AcDbEntity
  8
M03
100
AcDbCircle
 10
555.447241
 20
432.559226
 30
0.0
 40
9.5
  0
LINE
  5
26
100
AcDbEntity
  8
CENTRE
100
AcDbLine
 10
472.447241
 20
240.431014
 30
0.0
 11
563.447241
 21
240.431014
 31
0.0
  0
HATCH
  5
29
100
AcDbEntity
  8
HATCH
100
AcDbHatch
 10
0.0
 20
0.0
 30
0.0
210
0.0
220
0.0
230
1.0
  2
_U
 70
     0
 71
     1
 91
        2
 92
        7
 72
     0
 73
     1
 93
        4
 10
462.4472405752653
 20
266.9310138665939
 10
392.4472405752653
 20
266.9310138665939
 10
392.4472405752653
 20
263.9310138665939
 10
462.4472405752653
 20
263.9310138665939
 97
        4
330
361
330
363
330
36B
330
252
 92
        7
 72
     0
 73
     1
 93
        4
 10
465.4472405752653
 20
216.9310138665939
 10
392.4472405752653
 20
216.9310138665939
 10
392.4472405752653
 20
213.9310138665939
 10
465.4472405752652
 20
213.9310138665939
 97
        4
330
36A
330
360
330
35E
330
320
 75
     0
 76
     0
 52
45.0
 41
0.8
 77
     0
 78
     1
 53
45.0
 43
0.0
 44
0.0
 45
-0.5656854249492379
 46
0.5656854249492383
 79
     0
 47
0.174385
 98
        2
 10
457.726544
 20
265.922509
 10
456.679824
 20
215.176589
  0
HATCH
  5
2A
100
AcDbEntity
  8
HATCH
100
AcDbHatch
 10
0.0
 20
0.0
 30
0.0
210
0.0
220
0.0
230
1.0
  2
_U
 70
     0
 71
     1
 91
        4
 92
        7
 72
     0
 73
     1
 93
        4
 10
639.4472405752651
 20
266.9310138665939
 10
578.6722405752652
 20
266.9310138665939
 10
578.6722405752652
 20
263.9310138665939
 10
639.4472405752654
 20
263.9310138665939
 97
        4
330
4E
330
97
330
103
330
362
 92
        7
 72
     0
 73
     1
 93
        4
 10
639.4472405752652
 20
216.9310138665939
 10
590.4472405752655
 20
216.9310138665939
 10
590.4472405752654
 20
213.9310138665939
 10
639.4472405752654
 20
213.9310138665939
 97
        4
330
29E
330
352
330
32E
330
35F
 92
        7
 72
     0
 73
     1
 93
        4
 10
520.4472405752651
 20
216.9310138665939
 10
495.4472405752652
 20
216.9310138665939
 10
495.4472405752653
 20
213.9310138665939
 10
520.4472405752652
 20
213.931013866594
 97
        4
330
36A
330
31F
330
2F3
330
330
 92
        7
 72
     0
 73
     1
 93
        4
 10
517.4472405752652
 20
266.9310138665939
 10
498.4472405752653
 20
266.9310138665939
 10
498.4472405752653
 20
263.9310138665939
 10
517.4472405752653
 20
263.9310138665939
 97
        4
330
361
330
251
330
36B
330
102
 75
     0
 76
     0
 52
45.0
 41
0.8
 77
     0
 78
     1
 53
45.0
 43
0.0
 44
0.0
 45
-0.5656854249492379
 46
0.5656854249492383
 79
     0
 47
0.174385
 98
        4
 10
596.682984
 20
265.759186
 10
605.731112
 20
215.290461
 10
510.363857
 20
214.386004
 10
508.55423
 20
265.397404
  0
HATCH
  5
2B
100
AcDbEntity
  8
HATCH
100
AcDbHatch
 10
0.0
 20
0.0
 30
0.0
210
0.0
220
0.0
230
1.0
  2
_U
 70
     0
 71
     1
 91
        2
 92
        7
 72
     1
 73
     1
 93
        2
 10
395.4472405752653
 20
220.9310138665938
 42
1.0
 10
403.4472405752653
 20
220.9310138665938
 42
1.0
 97
        1
330
27A
 92
        7
 72
     1
 73
     1
 93
        2
 10
395.4472405752653
 20
259.931013866594
 42
1.0
 10
403.4472405752653
 20
259.931013866594
 42
1.0
 97
        1
330
283
 75
     0
 76
     0
 52
-45.0
 41
0.8
 77
     0
 78
     1
 53
315.0
 43
0.0
 44
0.0
 45
0.5656854249492382
 46
0.5656854249492379
 79
     0
 47
0.150166
 98
        2
 10
401.181441
 20
223.145886
 10
401.632117
 20
261.288101
  0
HATCH
  5
2C
100
AcDbEntity
  8
HATCH
100
AcDbHatch
 10
0.0
 20
0.0
 30
0.0
210
0.0
220
0.0
230
1.0
  2
_U
 70
     0
 71
     1
 91
        4
 92
        7
 72
     1
 73
     1
 93
       39
 10
466.4472405752653
 20
216.9310138665939
 42
0.0
 10
466.4472405752654
 20
217.2310138665939
 42
0.0
 10
467.1472405752654
 20
217.9310138665939
 42
0.0
 10
493.7472405752654
 20
217.9310138665939
 42
0.0
 10
494.4472405752653
 20
217.2310138665938
 42
0.0
 10
494.4472405752653
 20
216.931013866594
 42
0.0
 10
526.4472405752654
 20
216.931013866594
 42
0.0
 10
526.4472405752654
 20
224.2310138665939
 42
0.0
 10
526.4472405752654
 20
226.7310138665938
 42
0.0
 10
527.1472405752653
 20
226.7310138665938
 42
0.0
 10
527.1472405752653
 20
228.2310138665938
 42
0.0
 10
529.4472405752655
 20
229.5589194857299
 42
0.0
 10
531.7472405752653
 20
228.2310138665937
 42
0.0
 10
531.7472405752653
 20
226.7310138665938
 42
0.0
 10
532.4472405752653
 20
226.7310138665937
 42
0.0
 10
532.4472405752653
 20
224.231013866594
 42
0.0
 10
532.4472405752653
 20
216.931013866594
 42
0.0
 10
544.9472405752656
 20
216.931013866594
 42
0.0
 10
545.4472405752653
 20
217.4310138665935
 42
0.0
 10
545.4472405752653
 20
225.9310138665938
 42
0.0
 10
545.4472405752656
 20
226.9310138665938
 42
0.0
 10
546.4472405752655
 20
226.9310138665938
 42
0.0
 10
551.4472405752654
 20
226.9310138665938
 42
0.0
 10
551.4472405752652
 20
236.4310138665938
 42
0.0
 10
480.4472405752654
 20
236.4310138665938
 42
-0.4142135623730951
 10
476.4472405752654
 20
240.4310138665938
 42
0.0
 10
476.4472405752653
 20
263.9310138665939
 42
0.0
 10
403.4472405752653
 20
263.9310138665939
 42
0.0
 10
403.4472405752653
 20
259.931013866594
 42
-1.0
 10
395.4472405752653
 20
259.931013866594
 42
0.0
 10
395.4472405752653
 20
263.9310138665939
 42
0.0
 10
392.4472405752653
 20
263.9310138665939
 42
0.0
 10
390.4472405752653
 20
261.9310138665939
 42
0.0
 10
390.4472405752653
 20
218.9310138665939
 42
0.0
 10
392.4472405752653
 20
216.9310138665939
 42
0.0
 10
395.4472405752653
 20
216.9310138665939
 42
0.0
 10
395.4472405752653
 20
220.9310138665938
 42
-1.0
 10
403.4472405752653
 20
220.9310138665938
 42
0.0
 10
403.4472405752653
 20
216.9310138665939
 42
0.0
 97
       34
330
328
330
327
330
36B
330
281
330
283
330
282
330
366
330
369
330
367
330
36A
330
279
330
27A
330
278
330
31C
330
31B
330
321
330
316
330
317
330
29B
330
286
330
290
330
287
330
28D
330
28E
330
285
330
284
330
29A
330
34C
330
35C
330
355
330
356
330
35B
330
338
330
325
 92
        7
 72
     0
 73
     1
 93
       13
 10
555.4472405752654
 20
244.4310138665938
 10
555.4472405752654
 20
258.9310138665939
 10
546.9472405752653
 20
258.9310138665939
 10
545.9472405752653
 20
258.9310138665939
 10
545.9472405752653
 20
259.9310138665939
 10
545.9472405752653
 20
263.2310138665939
 10
545.2472405752653
 20
263.931013866594
 10
533.4472405752653
 20
263.9310138665939
 10
533.4472405752655
 20
257.9310138665938
 10
517.4472405752655
 20
257.9310138665937
 10
517.4472405752653
 20
263.9310138665939
 10
484.4472405752653
 20
263.9310138665939
 10
484.4472405752653
 20
244.4310138665938
 97
       13
330
108
330
36B
330
326
330
32A
330
36D
330
96
330
83
330
84
330
94
330
6B
330
103
330
107
330
106
 92
        7
 72
     1
 73
     1
 93
       30
 10
581.4472405752654
 20
229.5589194857298
 42
0.0
 10
583.7472405752653
 20
228.2310138665938
 42
0.0
 10
583.7472405752653
 20
226.7310138665938
 42
0.0
 10
584.4472405752652
 20
226.7310138665937
 42
0.0
 10
584.4472405752653
 20
224.231013866594
 42
0.0
 10
584.4472405752655
 20
216.931013866594
 42
0.0
 10
639.4472405752654
 20
216.9310138665939
 42
0.0
 10
641.4472405752653
 20
218.9310138665939
 42
0.0
 10
641.4472405752653
 20
261.931013866594
 42
0.0
 10
640.4472405752658
 20
262.9310138665937
 42
0.0
 10
639.4472405752652
 20
263.9310138665939
 42
0.0
 10
565.6472405752654
 20
263.9310138665939
 42
0.0
 10
564.9472405752653
 20
263.2310138665939
 42
0.0
 10
564.9472405752653
 20
259.9310138665939
 42
0.0
 10
564.9472405752653
 20
258.9310138665939
 42
0.0
 10
563.9472405752654
 20
258.9310138665939
 42
0.0
 10
555.4472405752655
 20
258.9310138665939
 42
0.0
 10
555.4472405752655
 20
244.4310138665938
 42
-0.4142135623730888
 10
559.4472405752653
 20
240.4310138665938
 42
0.0
 10
559.4472405752653
 20
226.9310138665937
 42
0.0
 10
564.4472405752652
 20
226.9310138665937
 42
0.0
 10
565.4472405752651
 20
226.9310138665937
 42
0.0
 10
565.4472405752652
 20
225.9310138665937
 42
0.0
 10
565.4472405752652
 20
217.4310138665935
 42
0.0
 10
565.9472405752651
 20
216.931013866594
 42
0.0
 10
578.4472405752653
 20
216.931013866594
 42
0.0
 10
578.4472405752653
 20
224.2310138665939
 42
0.0
 10
578.4472405752653
 20
226.7310138665938
 42
0.0
 10
579.1472405752654
 20
226.7310138665938
 42
0.0
 10
579.1472405752654
 20
228.2310138665938
 42
0.0
 97
       29
330
1B8
330
365
330
103
330
6C
330
95
330
8B
330
8A
330
96
330
36D
330
1C6
330
33C
330
35B
330
358
330
357
330
35D
330
34D
330
331
330
2B5
330
29F
330
2AB
330
2A0
330
2A9
330
2A8
330
2A2
330
2A1
330
2B6
330
29E
330
364
330
368
 92
       24
 93
        4
 72
     1
 10
600.717518
 20
225.049559
 11
614.488947
 21
225.049559
 72
     1
 10
614.488947
 20
225.049559
 11
614.488947
 21
228.049559
 72
     1
 10
614.488947
 20
228.049559
 11
600.717518
 21
228.049559
 72
     1
 10
600.717518
 20
228.049559
 11
600.717518
 21
225.049559
 97
        1
330
1BA
 75
     0
 76
     0
 52
-45.0
 41
6.0
 77
     0
 78
     1
 53
315.0
 43
0.0
 44
0.0
 45
4.242640687119285
 46
4.242640687119284
 79
     0
 47
0.275241
 98
        3
 10
448.191184
 20
232.820668
 10
501.333631
 20
252.087563
 10
578.706831
 20
245.48177
  0
HATCH
  5
2D
100
AcDbEntity
  8
HATCH
100
AcDbHatch
 10
0.0
 20
0.0
 30
0.0
210
0.0
220
0.0
230
1.0
  2
_U
 70
     0
 71
     0
 91
        8
 92
        7
 72
     0
 73
     1
 93
        4
 10
472.2883585878083
 20
217.2310138665939
 10
466.4472405752653
 20
217.2310138665939
 10
466.4472405752653
 20
216.9310138665939
 10
472.5883585878082
 20
216.9310138665939
 97
        0
 92
        7
 72
     0
 73
     1
 93
        4
 10
471.5883585878081
 20
217.9310138665939
 10
467.1472405752655
 20
217.9310138665939
 10
466.4472405752654
 20
217.2310138665939
 10
472.2883585878082
 20
217.2310138665938
 97
        0
 92
        7
 72
     0
 73
     1
 93
        4
 10
480.4472405752652
 20
217.9310138665938
 10
471.588358587808
 20
217.9310138665939
 10
472.2883585878082
 20
217.2310138665939
 10
480.4472405752654
 20
217.2310138665938
 97
        0
 92
        7
 72
     0
 73
     1
 93
        4
 10
480.4472405752652
 20
217.2310138665939
 10
472.2883585878082
 20
217.2310138665939
 10
472.5883585878082
 20
216.9310138665939
 10
480.4472405752654
 20
216.931013866594
 97
        0
 92
        7
 72
     0
 73
     1
 93
        4
 10
488.6061225627224
 20
217.2310138665939
 10
480.4472405752654
 20
217.2310138665939
 10
480.4472405752654
 20
216.931013866594
 10
488.3061225627224
 20
216.931013866594
 97
        0
 92
        7
 72
     0
 73
     1
 93
        4
 10
489.3061225627225
 20
217.9310138665938
 10
480.4472405752654
 20
217.9310138665938
 10
480.4472405752654
 20
217.2310138665938
 10
488.6061225627223
 20
217.2310138665938
 97
        0
 92
        7
 72
     0
 73
     1
 93
        4
 10
494.4472405752654
 20
217.2310138665939
 10
488.6061225627225
 20
217.2310138665939
 10
488.3061225627224
 20
216.931013866594
 10
494.4472405752653
 20
216.931013866594
 97
        0
 92
        7
 72
     0
 73
     1
 93
        4
 10
493.7472405752654
 20
217.9310138665938
 10
489.3061225627225
 20
217.9310138665938
 10
488.6061225627224
 20
217.2310138665939
 10
494.4472405752653
 20
217.2310138665939
 97
        0
 75
     0
 76
     0
 52
-45.0
 41
6.0
 77
     0
 78
     1
 53
315.0
 43
0.0
 44
0.0
 45
4.242640687119285
 46
4.242640687119284
 79
     0
 47
0.275241
 98
        8
 10
469.609145
 20
217.13283
 10
469.609145
 20
217.579465
 10
473.481505
 20
217.579465
 10
473.332567
 20
217.13283
 10
482.020557
 20
217.083204
 10
482.169494
 20
217.430587
 10
490.410671
 20
217.13283
 10
490.509962
 20
217.579465
  0
DIMENSION
  5
2E
100
AcDbEntity
  8
DIMS
100
AcDbDimension
  2
*D12
 10
610.020835
 20
289.331014
 30
0.0
 11
610.020835
 21
279.799749
 31
0.0
 70
   128
  3
DIM1
100
AcDbAlignedDimension
 13
578.672241
 23
263.931014
 33
0.0
 14
577.672241
 24
289.331014
 34
0.0
 50
90.0
100
AcDbRotatedDimension
1001
ACAD
1000
DSTYLE
1002
{
1070
   144
1040
1.0
1002
}
  0
DIMENSION
  5
3D
100
AcDbEntity
  8
DIMS
100
AcDbDimension
  2
*D11
 10
600.002517
 20
284.331014
 30
0.0
 11
597.002517
 21
277.631014
 31
0.0
  1
13.4
  3
DIM1
100
AcDbAlignedDimension
 13
577.172241
 23
270.931014
 33
0.0
 14
577.672241
 24
284.331014
 34
0.0
 50
90.0
100
AcDbRotatedDimension
1001
ACAD
1000
DSTYLE
1002
{
1070
   144
1040
1.0
1002
}
  0
TEXT
  5
4A
100
AcDbEntity
  8
TEXT
100
AcDbText
 10
560.827315
 20
266.821749
 30
0.0
 40
2.0
  1
MA010002
 41
0.9
100
AcDbText
  0
LINE
  5
4C
100
AcDbEntity
  8
M04
100
AcDbLine
 10
577.172241
 20
270.931014
 30
0.0
 11
701.447241
 21
270.931014
 31
0.0
  0
LINE
  5
4E
102
{ACAD_REACTORS
330
2A
102
}
100
AcDbEntity
  8
M02
100
AcDbLine
 10
577.172241
 20
266.931014
 30
0.0
 11
639.447241
 21
266.931014
 31
0.0
  0
DIMENSION
  5
50
100
AcDbEntity
  8
DIMS
100
AcDbDimension
  2
*D10
 10
578.672241
 20
318.833855
 30
0.0
 11
556.752693
 21
318.833855
 31
0.0
 70
   128
  1
%%c46.5
  3
DIM1
100
AcDbAlignedDimension
 13
532.222241
 23
283.753664
 33
0.0
 14
578.672241
 24
283.753664
 34
0.0
100
AcDbRotatedDimension
1001
ACAD
1000
DSTYLE
1002
{
1070
   288
1070
     1
1070
   144
1040
1.0
1002
}
  0
DIMENSION
  5
5D
100
AcDbEntity
  8
DIMS
100
AcDbDimension
  2
*D9
 10
533.222241
 20
308.792623
 30
0.0
 11
556.412452
 21
308.792623
 31
0.0
 70
   128
  1
%%c<> H7
  3
DIM1
100
AcDbAlignedDimension
 13
577.672241
 23
289.331014
 33
0.0
 14
533.222241
 24
289.331014
 34
0.0
100
AcDbRotatedDimension
1001
ACAD
1000
DSTYLE
1002
{
1070
   288
1070
     1
1070
   144
1040
1.0
1002
}
  0
POINT
  5
6A
100
AcDbEntity
  8
DEFPOINTS
  6
BYBLOCK
 62
     0
100
AcDbPoint
 10
555.447241
 20
263.931014
 30
0.0
  0
LINE
  5
6B
102
{ACAD_REACTORS
330
2C
102
}
100
AcDbEntity
  8
M04
100
AcDbLine
 10
545.247241
 20
263.931014
 30
0.0
 11
545.947241
 21
263.231014
 31
0.0
  0
LINE
  5
6C
102
{ACAD_REACTORS
330
2C
102
}
100
AcDbEntity
  8
M04
100
AcDbLine
 10
565.647241
 20
263.931014
 30
0.0
 11
564.947241
 21
263.231014
 31
0.0
  0
LINE
  5
6D
100
AcDbEntity
  8
M03
100
AcDbLine
 10
557.747241
 20
271.331014
 30
0.0
 11
557.747241
 21
258.931014
 31
0.0
  0
LINE
  5
6E
100
AcDbEntity
  8
M03
100
AcDbLine
 10
553.147241
 20
271.331014
 30
0.0
 11
553.147241
 21
258.931014
 31
0.0
  0
LINE
  5
6F
100
AcDbEntity
  8
M03
100
AcDbLine
 10
552.447241
 20
271.331014
 30
0.0
 11
552.447241
 21
258.931014
 31
0.0
  0
LINE
  5
70
100
AcDbEntity
  8
M03
100
AcDbLine
 10
558.447241
 20
271.331014
 30
0.0
 11
558.447241
 21
258.931014
 31
0.0
  0
ARC
  5
71
100
AcDbEntity
  8
M03
100
AcDbCircle
 10
543.947241
 20
276.331014
 30
0.0
 40
5.0
100
AcDbArc
 50
180.0
 51
270.0
  0
ARC
  5
72
100
AcDbEntity
  8
M03
100
AcDbCircle
 10
566.947241
 20
276.331014
 30
0.0
 40
5.0
100
AcDbArc
 50
270.0
 51
0.0
  0
LINE
  5
73
100
AcDbEntity
  8
M03
100
AcDbLine
 10
538.947241
 20
289.331014
 30
0.0
 11
538.947241
 21
276.331014
 31
0.0
  0
LINE
  5
74
100
AcDbEntity
  8
M03
100
AcDbLine
 10
571.947241
 20
289.331014
 30
0.0
 11
571.947241
 21
276.331014
 31
0.0
  0
LINE
  5
75
100
AcDbEntity
  8
M03
100
AcDbLine
 10
566.947241
 20
271.331014
 30
0.0
 11
543.947241
 21
271.331014
 31
0.0
  0
LINE
  5
76
100
AcDbEntity
  8
M05
100
AcDbLine
 10
533.722241
 20
264.631014
 30
0.0
 11
577.172241
 21
264.631014
 31
0.0
  0
LINE
  5
78
100
AcDbEntity
  8
M05
100
AcDbLine
 10
576.472241
 20
263.931014
 30
0.0
 11
577.172241
 21
264.631014
 31
0.0
  0
LINE
  5
79
100
AcDbEntity
  8
M05
100
AcDbLine
 10
533.722241
 20
264.631014
 30
0.0
 11
534.422241
 21
263.931014
 31
0.0
  0
LINE
  5
7A
100
AcDbEntity
  8
M05
100
AcDbLine
 10
533.722241
 20
284.331014
 30
0.0
 11
533.722241
 21
264.631014
 31
0.0
  0
LINE
  5
7B
100
AcDbEntity
  8
M04
100
AcDbLine
 10
532.222241
 20
283.753664
 30
0.0
 11
533.722241
 21
283.753664
 31
0.0
  0
LINE
  5
7C
100
AcDbEntity
  8
M04
100
AcDbLine
 10
532.222241
 20
283.753664
 30
0.0
 11
532.222241
 21
270.931014
 31
0.0
  0
LINE
  5
7D
100
AcDbEntity
  8
M04
100
AcDbLine
 10
533.222241
 20
284.331014
 30
0.0
 11
532.222241
 21
283.753664
 31
0.0
  0
LINE
  5
7E
100
AcDbEntity
  8
M04
100
AcDbLine
 10
533.222241
 20
288.331014
 30
0.0
 11
533.222241
 21
289.331014
 31
0.0
  0
LINE
  5
7F
100
AcDbEntity
  8
M04
100
AcDbLine
 10
534.222241
 20
289.331014
 30
0.0
 11
533.222241
 21
289.331014
 31
0.0
  0
LINE
  5
80
100
AcDbEntity
  8
M05
100
AcDbLine
 10
534.222241
 20
289.331014
 30
0.0
 11
533.222241
 21
288.331014
 31
0.0
  0
LINE
  5
81
100
AcDbEntity
  8
M05
100
AcDbLine
 10
533.222241
 20
288.331014
 30
0.0
 11
533.222241
 21
284.331014
 31
0.0
  0
LINE
  5
82
100
AcDbEntity
  8
M05
100
AcDbLine
 10
577.172241
 20
284.331014
 30
0.0
 11
577.172241
 21
264.631014
 31
0.0
  0
LINE
  5
83
102
{ACAD_REACTORS
330
2C
102
}
100
AcDbEntity
  8
M04
100
AcDbLine
 10
546.947241
 20
258.931014
 30
0.0
 11
545.947241
 21
258.931014
 31
0.0
  0
LINE
  5
84
102
{ACAD_REACTORS
330
2C
102
}
100
AcDbEntity
  8
M04
100
AcDbLine
 10
545.947241
 20
259.931014
 30
0.0
 11
545.947241
 21
258.931014
 31
0.0
  0
LINE
  5
85
100
AcDbEntity
  8
M04
100
AcDbLine
 10
578.672241
 20
283.753664
 30
0.0
 11
577.172241
 21
283.753664
 31
0.0
  0
LINE
  5
86
100
AcDbEntity
  8
M04
100
AcDbLine
 10
578.672241
 20
283.753664
 30
0.0
 11
578.672241
 21
270.931014
 31
0.0
  0
LINE
  5
87
100
AcDbEntity
  8
M04
100
AcDbLine
 10
577.672241
 20
284.331014
 30
0.0
 11
578.672241
 21
283.753664
 31
0.0
  0
LINE
  5
88
100
AcDbEntity
  8
M04
100
AcDbLine
 10
577.672241
 20
288.331014
 30
0.0
 11
577.672241
 21
289.331014
 31
0.0
  0
LINE
  5
89
100
AcDbEntity
  8
M04
100
AcDbLine
 10
576.672241
 20
289.331014
 30
0.0
 11
577.672241
 21
289.331014
 31
0.0
  0
LINE
  5
8A
102
{ACAD_REACTORS
330
2C
102
}
100
AcDbEntity
  8
M04
100
AcDbLine
 10
563.947241
 20
258.931014
 30
0.0
 11
564.947241
 21
258.931014
 31
0.0
  0
LINE
  5
8B
102
{ACAD_REACTORS
330
2C
102
}
100
AcDbEntity
  8
M04
100
AcDbLine
 10
564.947241
 20
259.931014
 30
0.0
 11
564.947241
 21
258.931014
 31
0.0
  0
LINE
  5
8C
100
AcDbEntity
  8
M05
100
AcDbLine
 10
545.947241
 20
259.931014
 30
0.0
 11
564.947241
 21
259.931014
 31
0.0
  0
LINE
  5
8D
100
AcDbEntity
  8
M05
100
AcDbLine
 10
533.222241
 20
288.331014
 30
0.0
 11
577.672241
 21
288.331014
 31
0.0
  0
LINE
  5
8E
100
AcDbEntity
  8
M05
100
AcDbLine
 10
546.947241
 20
258.931014
 30
0.0
 11
545.947241
 21
259.931014
 31
0.0
  0
LINE
  5
8F
100
AcDbEntity
  8
M05
100
AcDbLine
 10
564.947241
 20
259.931014
 30
0.0
 11
563.947241
 21
258.931014
 31
0.0
  0
LINE
  5
90
100
AcDbEntity
  8
M05
100
AcDbLine
 10
576.672241
 20
289.331014
 30
0.0
 11
577.672241
 21
288.331014
 31
0.0
  0
LINE
  5
91
100
AcDbEntity
  8
M05
100
AcDbLine
 10
577.672241
 20
288.331014
 30
0.0
 11
577.672241
 21
284.331014
 31
0.0
  0
LINE
  5
92
100
AcDbEntity
  8
M05
100
AcDbLine
 10
577.672241
 20
284.331014
 30
0.0
 11
533.222241
 21
284.331014
 31
0.0
  0
LINE
  5
93
100
AcDbEntity
  8
M05
100
AcDbLine
 10
576.672241
 20
289.331014
 30
0.0
 11
534.222241
 21
289.331014
 31
0.0
  0
LINE
  5
94
102
{ACAD_REACTORS
330
2C
102
}
100
AcDbEntity
  8
M05
100
AcDbLine
 10
545.947241
 20
263.931014
 30
0.0
 11
545.947241
 21
259.931014
 31
0.0
  0
LINE
  5
95
102
{ACAD_REACTORS
330
2C
102
}
100
AcDbEntity
  8
M05
100
AcDbLine
 10
564.947241
 20
263.931014
 30
0.0
 11
564.947241
 21
259.931014
 31
0.0
  0
LINE
  5
96
102
{ACAD_REACTORS
330
2C
102
}
100
AcDbEntity
  8
M05
100
AcDbLine
 10
563.947241
 20
258.931014
 30
0.0
 11
546.947241
 21
258.931014
 31
0.0
  0
LINE
  5
97
102
{ACAD_REACTORS
330
2A
102
}
100
AcDbEntity
  8
M02
100
AcDbLine
 10
578.672241
 20
266.931014
 30
0.0
 11
578.672241
 21
263.931014
 31
0.0
  0
DIMENSION
  5
98
100
AcDbEntity
  8
DIMS
100
AcDbDimension
  2
*D8
 10
641.447241
 20
339.749331
 30
0.0
 11
515.947241
 21
342.749331
 31
0.0
  1
L=<>
  3
DIM1
100
AcDbAlignedDimension
 13
390.447241
 23
412.559226
 33
0.0
 14
641.447241
 24
402.559226
 34
0.0
100
AcDbRotatedDimension
1001
ACAD
1000
DSTYLE
1002
{
1070
   144
1040
1.0
1002
}
  0
DIMENSION
  5
A5
100
AcDbEntity
  8
DIMS
100
AcDbDimension
  2
*D7
 10
390.447241
 20
350.161
 30
0.0
 11
472.947241
 21
353.161
 31
0.0
  1
L1=<>
  3
DIM1
100
AcDbAlignedDimension
 13
555.447241
 23
385.559226
 33
0.0
 14
390.447241
 24
412.559226
 34
0.0
100
AcDbRotatedDimension
1001
ACAD
1000
DSTYLE
1002
{
1070
   144
1040
1.0
1002
}
  0
DIMENSION
  5
B2
100
AcDbEntity
  8
DIMS
100
AcDbDimension
  2
*D6
 10
480.447241
 20
360.161
 30
0.0
 11
517.947241
 21
363.161
 31
0.0
  1
A=<>
  3
DIM1
100
AcDbAlignedDimension
 13
555.447241
 23
385.559226
 33
0.0
 14
480.447241
 24
415.859226
 34
0.0
100
AcDbRotatedDimension
1001
ACAD
1000
DSTYLE
1002
{
1070
   144
1040
1.0
1002
}
  0
DIMENSION
  5
BF
100
AcDbEntity
  8
DIMS
100
AcDbDimension
  2
*D5
 10
364.230351
 20
464.559226
 30
0.0
 11
361.230351
 21
432.559226
 31
0.0
  3
DIM1
100
AcDbAlignedDimension
 13
402.447241
 23
400.559226
 33
0.0
 14
402.447241
 24
464.559226
 34
0.0
 50
90.0
100
AcDbRotatedDimension
1001
ACAD
1000
DSTYLE
1002
{
1070
   144
1040
1.0
1002
}
  0
DIMENSION
  5
CC
100
AcDbEntity
  8
DIMS
100
AcDbDimension
  2
*D4
 10
352.167562
 20
270.931014
 30
0.0
 11
349.167562
 21
281.573871
 31
0.0
 12
-400.865806
 22
-195.565152
 32
0.0
  1
7.0
  3
DIM1
100
AcDbAlignedDimension
 13
392.447241
 23
263.931014
 33
0.0
 14
383.447241
 24
270.931014
 34
0.0
 50
270.0
100
AcDbRotatedDimension
1001
ACAD
1000
DSTYLE
1002
{
1070
   144
1040
1.0
1002
}
  0
DIMENSION
  5
DA
100
AcDbEntity
  8
DIMS
100
AcDbDimension
  2
*D3
 10
352.167562
 20
209.931014
 30
0.0
 11
349.167562
 21
199.288157
 31
0.0
 12
0.0
 22
-30.555461
 32
0.0
  1
7.0
  3
DIM1
100
AcDbAlignedDimension
 13
392.447241
 23
216.931014
 33
0.0
 14
371.933849
 24
209.931014
 34
0.0
 50
270.0
100
AcDbRotatedDimension
1001
ACAD
1000
DSTYLE
1002
{
1070
   144
1040
1.0
1002
}
  0
DIMENSION
  5
E8
100
AcDbEntity
  8
DIMS
100
AcDbDimension
  2
*D2
 10
352.167562
 20
216.931014
 30
0.0
 11
349.167562
 21
240.431014
 31
0.0
 12
-400.865806
 22
-195.565152
 32
0.0
  3
DIM1
100
AcDbAlignedDimension
 13
392.447241
 23
263.931014
 33
0.0
 14
390.447241
 24
216.931014
 34
0.0
 50
270.0
100
AcDbRotatedDimension
1001
ACAD
1000
DSTYLE
1002
{
1070
   144
1040
1.0
1002
}
  0
DIMENSION
  5
F5
100
AcDbEntity
  8
DIMS
100
AcDbDimension
  2
*D1
 10
575.447241
 20
165.615897
 30
0.0
 11
555.447241
 21
168.615897
 31
0.0
 12
-267.865806
 22
-195.565152
 32
0.0
  1
%%c<> H7
  3
DIM1
100
AcDbAlignedDimension
 13
535.447241
 23
201.931014
 33
0.0
 14
575.447241
 24
201.931014
 34
0.0
100
AcDbRotatedDimension
1001
ACAD
1000
DSTYLE
1002
{
1070
   144
1040
1.0
1002
}
  0
LINE
  5
102
102
{ACAD_REACTORS
330
2A
102
}
100
AcDbEntity
  8
M02
100
AcDbLine
 10
517.447241
 20
263.931014
 30
0.0
 11
517.447241
 21
266.931014
 31
0.0
  0
LINE
  5
103
102
{ACAD_REACTORS
330
2C
330
2A
102
}
100
AcDbEntity
  8
M01
100
AcDbLine
 10
529.447241
 20
263.931014
 30
0.0
 11
639.447241
 21
263.931014
 31
0.0
  0
LINE
  5
104
100
AcDbEntity
  8
M04
100
AcDbLine
 10
529.447241
 20
270.931014
 30
0.0
 11
533.722241
 21
270.931014
 31
0.0
  0
LINE
  5
105
100
AcDbEntity
  8
M02
100
AcDbLine
 10
529.447241
 20
266.931014
 30
0.0
 11
533.722241
 21
266.931014
 31
0.0
  0
LINE
  5
106
102
{ACAD_REACTORS
330
2C
102
}
100
AcDbEntity
  8
M01
100
AcDbLine
 10
533.447241
 20
257.931014
 30
0.0
 11
517.447241
 21
257.931014
 31
0.0
  0
LINE
  5
107
102
{ACAD_REACTORS
330
2C
102
}
100
AcDbEntity
  8
M01
100
AcDbLine
 10
533.447241
 20
263.931014
 30
0.0
 11
533.447241
 21
257.931014
 31
0.0
  0
LINE
  5
108
102
{ACAD_REACTORS
330
2C
102
}
100
AcDbEntity
  8
M01
100
AcDbLine
 10
517.447241
 20
263.931014
 30
0.0
 11
517.447241
 21
257.931014
 31
0.0
  0
DIMENSION
  5
109
100
AcDbEntity
  8
DIMS
100
AcDbDimension
  2
*D0
 10
521.447241
 20
298.607179
 30
0.0
 11
503.661526
 21
301.607179
 31
0.0
 12
-110.5
 22
-30.555461
 32
0.0
  1
%%c<> H7
  3
DIM1
100
AcDbAlignedDimension
 13
529.447241
 23
283.931014
 33
0.0
 14
521.447241
 24
283.931014
 34
0.0
100
AcDbRotatedDimension
1001
ACAD
1000
DSTYLE
1002
{
1070
   144
1040
1.0
1002
}
  0
LINE
  5
117
100
AcDbEntity
  8
M04
100
AcDbLine
 10
525.447241
 20
286.240415
 30
0.0
 11
529.447241
 21
283.931014
 31
0.0
  0
LINE
  5
118
100
AcDbEntity
  8
M04
100
AcDbLine
 10
521.447241
 20
283.931014
 30
0.0
 11
525.447241
 21
286.240415
 31
0.0
  0
LINE
  5
119
100
AcDbEntity
  8
M04
100
AcDbLine
 10
521.447241
 20
280.931014
 30
0.0
 11
521.447241
 21
283.931014
 31
0.0
  0
LINE
  5
11A
100
AcDbEntity
  8
M04
100
AcDbLine
 10
529.447241
 20
283.931014
 30
0.0
 11
521.447241
 21
283.931014
 31
0.0
  0
LINE
  5
11B
100
AcDbEntity
  8
M04
100
AcDbLine
 10
529.447241
 20
280.931014
 30
0.0
 11
529.447241
 21
283.931014
 31
0.0
  0
ARC
  5
11C
100
AcDbEntity
  8
M05
100
AcDbCircle
 10
525.447241
 20
271.593309
 30
0.0
 40
10.837705
100
AcDbArc
 50
71.372238
 51
108.627762
  0
LINE
  5
11D
100
AcDbEntity
  8
M05
100
AcDbLine
 10
521.447241
 20
280.931014
 30
0.0
 11
521.985477
 21
281.863267
 31
0.0
  0
LINE
  5
11E
100
AcDbEntity
  8
M05
100
AcDbLine
 10
528.909004
 20
281.863267
 30
0.0
 11
521.985477
 21
281.863267
 31
0.0
  0
LINE
  5
11F
100
AcDbEntity
  8
M05
100
AcDbLine
 10
529.447241
 20
280.931014
 30
0.0
 11
528.909004
 21
281.863267
 31
0.0
  0
LINE
  5
120
100
AcDbEntity
  8
M05
100
AcDbLine
 10
529.447241
 20
280.931014
 30
0.0
 11
521.447241
 21
280.931014
 31
0.0
  0
ARC
  5
121
100
AcDbEntity
  8
M05
100
AcDbCircle
 10
525.447241
 20
272.064347
 30
0.0
 40
13.633333
100
AcDbArc
 50
252.938469
 51
287.061531
  0
LINE
  5
122
100
AcDbEntity
  8
M05
100
AcDbLine
 10
529.447241
 20
259.031014
 30
0.0
 11
521.447241
 21
259.031014
 31
0.0
  0
LINE
  5
123
100
AcDbEntity
  8
M05
100
AcDbLine
 10
521.447241
 20
280.931014
 30
0.0
 11
521.447241
 21
259.031014
 31
0.0
  0
LINE
  5
124
100
AcDbEntity
  8
M05
100
AcDbLine
 10
529.447241
 20
280.931014
 30
0.0
 11
529.447241
 21
259.031014
 31
0.0
  0
LINE
  5
125
100
AcDbEntity
  8
M01
100
AcDbLine
 10
661.447241
 20
217.931014
 30
0.0
 11
640.447241
 21
217.931014
 31
0.0
  0
LINE
  5
126
100
AcDbEntity
  8
M01
100
AcDbLine
 10
699.682909
 20
222.943002
 30
0.0
 11
700.889638
 21
220.963294
 31
0.0
  0
LINE
  5
127
100
AcDbEntity
  8
M01
100
AcDbLine
 10
711.136135
 20
215.209035
 30
0.0
 11
719.710948
 21
215.209035
 31
0.0
  0
LINE
  5
128
100
AcDbEntity
  8
M01
100
AcDbLine
 10
711.136135
 20
219.209035
 30
0.0
 11
719.710948
 21
219.209035
 31
0.0
  0
ARC
  5
129
100
AcDbEntity
  8
M01
100
AcDbCircle
 10
711.136135
 20
227.209035
 30
0.0
 40
12.0
100
AcDbArc
 50
211.364349
 51
270.0
  0
ARC
  5
12A
100
AcDbEntity
  8
M01
100
AcDbCircle
 10
711.136135
 20
227.209035
 30
0.0
 40
8.0
100
AcDbArc
 50
218.846454
 51
270.0
  0
LINE
  5
12B
100
AcDbEntity
  8
M01
100
AcDbLine
 10
696.058456
 20
236.574363
 30
0.0
 11
702.292563
 21
226.346951
 31
0.0
  0
LINE
  5
12C
100
AcDbEntity
  8
M01
100
AcDbLine
 10
692.642956
 20
234.492449
 30
0.0
 11
692.840165
 21
234.168917
 31
0.0
  0
LINE
  5
12D
100
AcDbEntity
  8
M01
100
AcDbLine
 10
685.640548
 20
235.931014
 30
0.0
 11
685.047241
 21
235.931014
 31
0.0
  0
LINE
  5
12E
100
AcDbEntity
  8
M01
100
AcDbLine
 10
690.081332
 20
239.931014
 30
0.0
 11
687.355488
 21
239.931014
 31
0.0
  0
ARC
  5
12F
100
AcDbEntity
  8
M01
100
AcDbCircle
 10
690.081332
 20
232.931014
 30
0.0
 40
3.0
100
AcDbArc
 50
31.364349
 51
61.672691
  0
ARC
  5
130
100
AcDbEntity
  8
M01
100
AcDbCircle
 10
690.081332
 20
232.931014
 30
0.0
 40
7.0
100
AcDbArc
 50
31.364349
 51
90.0
  0
ARC
  5
131
100
AcDbEntity
  8
M01
100
AcDbCircle
 10
685.047241
 20
232.931014
 30
0.0
 40
7.0
100
AcDbArc
 50
112.678679
 51
180.0
  0
ARC
  5
132
100
AcDbEntity
  8
M01
100
AcDbCircle
 10
685.047241
 20
232.931014
 30
0.0
 40
3.0
100
AcDbArc
 50
90.0
 51
180.0
  0
ARC
  5
133
100
AcDbEntity
  8
M01
100
AcDbCircle
 10
703.863715
 20
234.191151
 30
0.0
 40
12.0
100
AcDbArc
 50
223.586993
 51
270.0
  0
ARC
  5
134
100
AcDbEntity
  8
M01
100
AcDbCircle
 10
703.863715
 20
234.191151
 30
0.0
 40
8.0
100
AcDbArc
 50
223.586993
 51
270.0
  0
LINE
  5
135
100
AcDbEntity
  8
M01
100
AcDbLine
 10
682.047241
 20
232.931014
 30
0.0
 11
682.047241
 21
227.931014
 31
0.0
  0
LINE
  5
136
100
AcDbEntity
  8
M01
100
AcDbLine
 10
682.047241
 20
231.931014
 30
0.0
 11
678.047241
 21
231.931014
 31
0.0
  0
LINE
  5
137
100
AcDbEntity
  8
M01
100
AcDbLine
 10
682.047241
 20
227.931014
 30
0.0
 11
678.047241
 21
227.931014
 31
0.0
  0
LINE
  5
138
100
AcDbEntity
  8
M01
100
AcDbLine
 10
678.047241
 20
262.931014
 30
0.0
 11
678.047241
 21
248.706476
 31
0.0
  0
LINE
  5
139
100
AcDbEntity
  8
M01
100
AcDbLine
 10
682.047241
 20
248.706476
 30
0.0
 11
682.047241
 21
252.931014
 31
0.0
  0
ARC
  5
13A
100
AcDbEntity
  8
M01
100
AcDbCircle
 10
690.047241
 20
248.706476
 30
0.0
 40
12.0
100
AcDbArc
 50
180.0
 51
223.586993
  0
ARC
  5
13B
100
AcDbEntity
  8
M01
100
AcDbCircle
 10
690.047241
 20
248.706476
 30
0.0
 40
8.0
100
AcDbArc
 50
180.0
 51
223.586993
  0
LINE
  5
13C
100
AcDbEntity
  8
M01
100
AcDbLine
 10
682.047241
 20
248.931014
 30
0.0
 11
678.047241
 21
248.931014
 31
0.0
  0
LINE
  5
13D
100
AcDbEntity
  8
M01
100
AcDbLine
 10
682.047241
 20
252.931014
 30
0.0
 11
678.047241
 21
252.931014
 31
0.0
  0
LINE
  5
13E
100
AcDbEntity
  8
M01
100
AcDbLine
 10
695.171775
 20
225.91769
 30
0.0
 11
681.3553
 21
240.433014
 31
0.0
  0
LINE
  5
13F
100
AcDbEntity
  8
M01
100
AcDbLine
 10
698.069088
 20
228.67551
 30
0.0
 11
684.252613
 21
243.190834
 31
0.0
  0
LINE
  5
140
100
AcDbEntity
  8
M01
100
AcDbLine
 10
719.702205
 20
222.191151
 30
0.0
 11
703.863715
 21
222.191151
 31
0.0
  0
LINE
  5
141
100
AcDbEntity
  8
M01
100
AcDbLine
 10
719.702205
 20
226.191151
 30
0.0
 11
703.863715
 21
226.191151
 31
0.0
  0
LINE
  5
142
100
AcDbEntity
  8
M01
100
AcDbLine
 10
663.391341
 20
226.181014
 30
0.0
 11
663.391341
 21
219.681014
 31
0.0
  0
LINE
  5
143
100
AcDbEntity
  8
M01
100
AcDbLine
 10
671.50314
 20
226.181014
 30
0.0
 11
671.50314
 21
219.681014
 31
0.0
  0
LINE
  5
144
100
AcDbEntity
  8
M01
100
AcDbLine
 10
663.391341
 20
226.181014
 30
0.0
 11
661.447241
 21
226.181014
 31
0.0
  0
ARC
  5
145
100
AcDbEntity
  8
M01
100
AcDbCircle
 10
664.95259
 20
227.431014
 30
0.0
 40
2.0
100
AcDbArc
 50
218.682187
 51
270.0
  0
ARC
  5
146
100
AcDbEntity
  8
M01
100
AcDbCircle
 10
669.941891
 20
227.431014
 30
0.0
 40
2.0
100
AcDbArc
 50
270.0
 51
321.317813
  0
LINE
  5
147
100
AcDbEntity
  8
M01
100
AcDbLine
 10
673.447241
 20
226.181014
 30
0.0
 11
671.50314
 21
226.181014
 31
0.0
  0
LINE
  5
148
100
AcDbEntity
  8
M01
100
AcDbLine
 10
669.941891
 20
225.431014
 30
0.0
 11
664.95259
 21
225.431014
 31
0.0
  0
LINE
  5
149
100
AcDbEntity
  8
M01
100
AcDbLine
 10
663.391341
 20
219.681014
 30
0.0
 11
661.447241
 21
219.681014
 31
0.0
  0
ARC
  5
14A
100
AcDbEntity
  8
M01
100
AcDbCircle
 10
664.95259
 20
218.431014
 30
0.0
 40
2.0
100
AcDbArc
 50
90.0
 51
141.317813
  0
ARC
  5
14B
100
AcDbEntity
  8
M01
100
AcDbCircle
 10
669.941891
 20
218.431014
 30
0.0
 40
2.0
100
AcDbArc
 50
38.682187
 51
90.0
  0
LINE
  5
14C
100
AcDbEntity
  8
M01
100
AcDbLine
 10
673.447241
 20
219.681014
 30
0.0
 11
671.50314
 21
219.681014
 31
0.0
  0
LINE
  5
14D
100
AcDbEntity
  8
M01
100
AcDbLine
 10
669.941891
 20
220.431014
 30
0.0
 11
664.95259
 21
220.431014
 31
0.0
  0
LINE
  5
14E
100
AcDbEntity
  8
M01
100
AcDbLine
 10
656.447241
 20
227.931014
 30
0.0
 11
656.447241
 21
217.931014
 31
0.0
  0
LINE
  5
14F
100
AcDbEntity
  8
M01
100
AcDbLine
 10
663.391341
 20
261.181014
 30
0.0
 11
663.391341
 21
254.681014
 31
0.0
  0
LINE
  5
150
100
AcDbEntity
  8
M01
100
AcDbLine
 10
671.50314
 20
261.181014
 30
0.0
 11
671.50314
 21
254.681014
 31
0.0
  0
LINE
  5
151
100
AcDbEntity
  8
M01
100
AcDbLine
 10
663.391341
 20
261.181014
 30
0.0
 11
661.447241
 21
261.181014
 31
0.0
  0
ARC
  5
152
100
AcDbEntity
  8
M01
100
AcDbCircle
 10
664.95259
 20
262.431014
 30
0.0
 40
2.0
100
AcDbArc
 50
218.682187
 51
270.0
  0
ARC
  5
153
100
AcDbEntity
  8
M01
100
AcDbCircle
 10
669.941891
 20
262.431014
 30
0.0
 40
2.0
100
AcDbArc
 50
270.0
 51
321.317813
  0
LINE
  5
154
100
AcDbEntity
  8
M01
100
AcDbLine
 10
673.447241
 20
261.181014
 30
0.0
 11
671.50314
 21
261.181014
 31
0.0
  0
LINE
  5
155
100
AcDbEntity
  8
M01
100
AcDbLine
 10
669.941891
 20
260.431014
 30
0.0
 11
664.95259
 21
260.431014
 31
0.0
  0
LINE
  5
156
100
AcDbEntity
  8
M01
100
AcDbLine
 10
663.391341
 20
254.681014
 30
0.0
 11
661.447241
 21
254.681014
 31
0.0
  0
ARC
  5
157
100
AcDbEntity
  8
M01
100
AcDbCircle
 10
664.95259
 20
253.431014
 30
0.0
 40
2.0
100
AcDbArc
 50
90.0
 51
141.317813
  0
ARC
  5
158
100
AcDbEntity
  8
M01
100
AcDbCircle
 10
669.941891
 20
253.431014
 30
0.0
 40
2.0
100
AcDbArc
 50
38.682187
 51
90.0
  0
LINE
  5
159
100
AcDbEntity
  8
M01
100
AcDbLine
 10
673.447241
 20
254.681014
 30
0.0
 11
671.50314
 21
254.681014
 31
0.0
  0
LINE
  5
15A
100
AcDbEntity
  8
M01
100
AcDbLine
 10
669.941891
 20
255.431014
 30
0.0
 11
664.95259
 21
255.431014
 31
0.0
  0
LINE
  5
15B
100
AcDbEntity
  8
M01
100
AcDbLine
 10
656.447241
 20
262.931014
 30
0.0
 11
656.447241
 21
252.931014
 31
0.0
  0
LINE
  5
15C
100
AcDbEntity
  8
M01
100
AcDbLine
 10
661.447241
 20
227.931014
 30
0.0
 11
641.447241
 21
227.931014
 31
0.0
  0
LINE
  5
15D
100
AcDbEntity
  8
M01
100
AcDbLine
 10
661.447241
 20
262.931014
 30
0.0
 11
640.447241
 21
262.931014
 31
0.0
  0
LINE
  5
15E
100
AcDbEntity
  8
M01
100
AcDbLine
 10
661.447241
 20
252.931014
 30
0.0
 11
641.447241
 21
252.931014
 31
0.0
  0
LINE
  5
15F
100
AcDbEntity
  8
M01
100
AcDbLine
 10
683.347241
 20
225.962103
 30
0.0
 11
683.347241
 21
219.899925
 31
0.0
  0
ARC
  5
160
100
AcDbEntity
  8
M01
100
AcDbCircle
 10
681.497935
 20
219.899925
 30
0.0
 40
1.150694
100
AcDbArc
 50
118.592423
 51
241.407577
  0
ARC
  5
161
100
AcDbEntity
  8
M01
100
AcDbCircle
 10
684.050018
 20
222.931014
 30
0.0
 40
3.702778
100
AcDbArc
 50
146.92527
 51
213.07473
  0
ARC
  5
162
100
AcDbEntity
  8
M01
100
AcDbCircle
 10
681.497935
 20
225.962103
 30
0.0
 40
1.150694
100
AcDbArc
 50
118.592423
 51
241.407577
  0
ARC
  5
163
100
AcDbEntity
  8
M01
100
AcDbCircle
 10
682.196546
 20
219.899925
 30
0.0
 40
1.150694
100
AcDbArc
 50
298.592423
 51
61.407577
  0
ARC
  5
164
100
AcDbEntity
  8
M01
100
AcDbCircle
 10
679.644463
 20
222.931014
 30
0.0
 40
3.702778
100
AcDbArc
 50
326.92527
 51
33.07473
  0
LINE
  5
165
100
AcDbEntity
  8
M01
100
AcDbLine
 10
682.747241
 20
220.910288
 30
0.0
 11
680.947241
 21
220.910288
 31
0.0
  0
LINE
  5
166
100
AcDbEntity
  8
M01
100
AcDbLine
 10
682.747241
 20
218.889562
 30
0.0
 11
680.947241
 21
218.889562
 31
0.0
  0
ARC
  5
167
100
AcDbEntity
  8
M01
100
AcDbCircle
 10
682.196546
 20
225.962103
 30
0.0
 40
1.150694
100
AcDbArc
 50
298.592423
 51
61.407577
  0
LINE
  5
168
100
AcDbEntity
  8
M01
100
AcDbLine
 10
682.747241
 20
224.95174
 30
0.0
 11
680.947241
 21
224.95174
 31
0.0
  0
LINE
  5
169
100
AcDbEntity
  8
M01
100
AcDbLine
 10
682.747241
 20
226.972466
 30
0.0
 11
680.947241
 21
226.972466
 31
0.0
  0
LINE
  5
16A
100
AcDbEntity
  8
M01
100
AcDbLine
 10
678.047241
 20
227.931014
 30
0.0
 11
679.547241
 21
227.931014
 31
0.0
  0
LINE
  5
16B
100
AcDbEntity
  8
M01
100
AcDbLine
 10
679.547241
 20
218.431014
 30
0.0
 11
680.347241
 21
218.431014
 31
0.0
  0
LINE
  5
16C
100
AcDbEntity
  8
M01
100
AcDbLine
 10
679.547241
 20
227.431014
 30
0.0
 11
680.347241
 21
227.431014
 31
0.0
  0
LINE
  5
16D
100
AcDbEntity
  8
M01
100
AcDbLine
 10
680.347241
 20
227.431014
 30
0.0
 11
680.347241
 21
218.431014
 31
0.0
  0
LINE
  5
16E
100
AcDbEntity
  8
M01
100
AcDbLine
 10
679.547241
 20
227.931014
 30
0.0
 11
679.547241
 21
217.931014
 31
0.0
  0
LINE
  5
16F
100
AcDbEntity
  8
M01
100
AcDbLine
 10
677.247241
 20
218.431014
 30
0.0
 11
678.047241
 21
218.431014
 31
0.0
  0
LINE
  5
170
100
AcDbEntity
  8
M01
100
AcDbLine
 10
677.247241
 20
227.431014
 30
0.0
 11
678.047241
 21
227.431014
 31
0.0
  0
LINE
  5
171
100
AcDbEntity
  8
M01
100
AcDbLine
 10
678.047241
 20
232.931014
 30
0.0
 11
678.047241
 21
217.931014
 31
0.0
  0
ARC
  5
172
100
AcDbEntity
  8
M01
100
AcDbCircle
 10
675.397935
 20
219.899925
 30
0.0
 40
1.150694
100
AcDbArc
 50
118.592423
 51
241.407577
  0
ARC
  5
173
100
AcDbEntity
  8
M01
100
AcDbCircle
 10
677.950018
 20
222.931014
 30
0.0
 40
3.702778
100
AcDbArc
 50
146.92527
 51
213.07473
  0
ARC
  5
174
100
AcDbEntity
  8
M01
100
AcDbCircle
 10
675.397935
 20
225.962103
 30
0.0
 40
1.150694
100
AcDbArc
 50
118.592423
 51
241.407577
  0
ARC
  5
175
100
AcDbEntity
  8
M01
100
AcDbCircle
 10
676.096546
 20
219.899925
 30
0.0
 40
1.150694
100
AcDbArc
 50
298.592423
 51
61.407577
  0
ARC
  5
176
100
AcDbEntity
  8
M01
100
AcDbCircle
 10
673.544463
 20
222.931014
 30
0.0
 40
3.702778
100
AcDbArc
 50
326.92527
 51
33.07473
  0
LINE
  5
177
100
AcDbEntity
  8
M01
100
AcDbLine
 10
676.647241
 20
220.910288
 30
0.0
 11
674.847241
 21
220.910288
 31
0.0
  0
LINE
  5
178
100
AcDbEntity
  8
M01
100
AcDbLine
 10
676.647241
 20
218.889562
 30
0.0
 11
674.847241
 21
218.889562
 31
0.0
  0
ARC
  5
179
100
AcDbEntity
  8
M01
100
AcDbCircle
 10
676.096546
 20
225.962103
 30
0.0
 40
1.150694
100
AcDbArc
 50
298.592423
 51
61.407577
  0
LINE
  5
17A
100
AcDbEntity
  8
M01
100
AcDbLine
 10
676.647241
 20
224.95174
 30
0.0
 11
674.847241
 21
224.95174
 31
0.0
  0
LINE
  5
17B
100
AcDbEntity
  8
M01
100
AcDbLine
 10
676.647241
 20
226.972466
 30
0.0
 11
674.847241
 21
226.972466
 31
0.0
  0
LINE
  5
17C
100
AcDbEntity
  8
M01
100
AcDbLine
 10
677.247241
 20
227.431014
 30
0.0
 11
677.247241
 21
218.431014
 31
0.0
  0
LINE
  5
17D
100
AcDbEntity
  8
M01
100
AcDbLine
 10
674.247241
 20
227.431014
 30
0.0
 11
674.247241
 21
218.431014
 31
0.0
  0
LINE
  5
17E
100
AcDbEntity
  8
M01
100
AcDbLine
 10
673.447241
 20
227.431014
 30
0.0
 11
673.447241
 21
218.431014
 31
0.0
  0
LINE
  5
17F
100
AcDbEntity
  8
M01
100
AcDbLine
 10
686.447241
 20
221.431014
 30
0.0
 11
685.947241
 21
220.931014
 31
0.0
  0
LINE
  5
180
100
AcDbEntity
  8
M01
100
AcDbLine
 10
685.947241
 20
224.931014
 30
0.0
 11
686.447241
 21
224.431014
 31
0.0
  0
LINE
  5
181
100
AcDbEntity
  8
M01
100
AcDbLine
 10
685.947241
 20
224.931014
 30
0.0
 11
685.947241
 21
220.931014
 31
0.0
  0
LINE
  5
182
100
AcDbEntity
  8
M01
100
AcDbLine
 10
686.447241
 20
221.431014
 30
0.0
 11
683.347241
 21
221.431014
 31
0.0
  0
LINE
  5
183
100
AcDbEntity
  8
M01
100
AcDbLine
 10
686.447241
 20
224.431014
 30
0.0
 11
683.347241
 21
224.431014
 31
0.0
  0
LINE
  5
184
100
AcDbEntity
  8
M01
100
AcDbLine
 10
685.947241
 20
224.931014
 30
0.0
 11
683.347241
 21
224.931014
 31
0.0
  0
LINE
  5
185
100
AcDbEntity
  8
M01
100
AcDbLine
 10
685.947241
 20
220.931014
 30
0.0
 11
683.347241
 21
220.931014
 31
0.0
  0
LINE
  5
186
100
AcDbEntity
  8
M01
100
AcDbLine
 10
686.447241
 20
224.431014
 30
0.0
 11
686.447241
 21
221.431014
 31
0.0
  0
LINE
  5
187
100
AcDbEntity
  8
M01
100
AcDbLine
 10
661.447241
 20
227.931014
 30
0.0
 11
661.447241
 21
217.931014
 31
0.0
  0
LINE
  5
188
100
AcDbEntity
  8
M01
100
AcDbLine
 10
674.247241
 20
218.431014
 30
0.0
 11
673.447241
 21
218.431014
 31
0.0
  0
LINE
  5
189
100
AcDbEntity
  8
M01
100
AcDbLine
 10
674.247241
 20
227.431014
 30
0.0
 11
673.447241
 21
227.431014
 31
0.0
  0
LINE
  5
18A
100
AcDbEntity
  8
CENTRE
100
AcDbLine
 10
692.60813
 20
222.931014
 30
0.0
 11
629.014698
 21
222.931014
 31
0.0
  0
LINE
  5
18B
100
AcDbEntity
  8
M01
100
AcDbLine
 10
683.347241
 20
254.899925
 30
0.0
 11
683.347241
 21
260.962103
 31
0.0
  0
ARC
  5
18C
100
AcDbEntity
  8
M01
100
AcDbCircle
 10
681.497935
 20
260.962103
 30
0.0
 40
1.150694
100
AcDbArc
 50
118.592423
 51
241.407577
  0
ARC
  5
18D
100
AcDbEntity
  8
M01
100
AcDbCircle
 10
684.050018
 20
257.931014
 30
0.0
 40
3.702778
100
AcDbArc
 50
146.92527
 51
213.07473
  0
ARC
  5
18E
100
AcDbEntity
  8
M01
100
AcDbCircle
 10
681.497935
 20
254.899925
 30
0.0
 40
1.150694
100
AcDbArc
 50
118.592423
 51
241.407577
  0
ARC
  5
18F
100
AcDbEntity
  8
M01
100
AcDbCircle
 10
682.196546
 20
260.962103
 30
0.0
 40
1.150694
100
AcDbArc
 50
298.592423
 51
61.407577
  0
ARC
  5
190
100
AcDbEntity
  8
M01
100
AcDbCircle
 10
679.644463
 20
257.931014
 30
0.0
 40
3.702778
100
AcDbArc
 50
326.92527
 51
33.07473
  0
LINE
  5
191
100
AcDbEntity
  8
M01
100
AcDbLine
 10
682.747241
 20
259.95174
 30
0.0
 11
680.947241
 21
259.95174
 31
0.0
  0
LINE
  5
192
100
AcDbEntity
  8
M01
100
AcDbLine
 10
682.747241
 20
261.972466
 30
0.0
 11
680.947241
 21
261.972466
 31
0.0
  0
ARC
  5
193
100
AcDbEntity
  8
M01
100
AcDbCircle
 10
682.196546
 20
254.899925
 30
0.0
 40
1.150694
100
AcDbArc
 50
298.592423
 51
61.407577
  0
LINE
  5
194
100
AcDbEntity
  8
M01
100
AcDbLine
 10
682.747241
 20
255.910288
 30
0.0
 11
680.947241
 21
255.910288
 31
0.0
  0
LINE
  5
195
100
AcDbEntity
  8
M01
100
AcDbLine
 10
682.747241
 20
253.889562
 30
0.0
 11
680.947241
 21
253.889562
 31
0.0
  0
LINE
  5
196
100
AcDbEntity
  8
M01
100
AcDbLine
 10
678.047241
 20
262.931014
 30
0.0
 11
679.547241
 21
262.931014
 31
0.0
  0
LINE
  5
197
100
AcDbEntity
  8
M01
100
AcDbLine
 10
679.547241
 20
262.431014
 30
0.0
 11
680.347241
 21
262.431014
 31
0.0
  0
LINE
  5
198
100
AcDbEntity
  8
M01
100
AcDbLine
 10
679.547241
 20
253.431014
 30
0.0
 11
680.347241
 21
253.431014
 31
0.0
  0
LINE
  5
199
100
AcDbEntity
  8
M01
100
AcDbLine
 10
680.347241
 20
253.431014
 30
0.0
 11
680.347241
 21
262.431014
 31
0.0
  0
LINE
  5
19A
100
AcDbEntity
  8
M01
100
AcDbLine
 10
679.547241
 20
252.931014
 30
0.0
 11
679.547241
 21
262.931014
 31
0.0
  0
LINE
  5
19B
100
AcDbEntity
  8
M01
100
AcDbLine
 10
677.247241
 20
262.431014
 30
0.0
 11
678.047241
 21
262.431014
 31
0.0
  0
LINE
  5
19C
100
AcDbEntity
  8
M01
100
AcDbLine
 10
677.247241
 20
253.431014
 30
0.0
 11
678.047241
 21
253.431014
 31
0.0
  0
ARC
  5
19D
100
AcDbEntity
  8
M01
100
AcDbCircle
 10
675.397935
 20
260.962103
 30
0.0
 40
1.150694
100
AcDbArc
 50
118.592423
 51
241.407577
  0
ARC
  5
19E
100
AcDbEntity
  8
M01
100
AcDbCircle
 10
677.950018
 20
257.931014
 30
0.0
 40
3.702778
100
AcDbArc
 50
146.92527
 51
213.07473
  0
ARC
  5
19F
100
AcDbEntity
  8
M01
100
AcDbCircle
 10
675.397935
 20
254.899925
 30
0.0
 40
1.150694
100
AcDbArc
 50
118.592423
 51
241.407577
  0
ARC
  5
1A0
100
AcDbEntity
  8
M01
100
AcDbCircle
 10
676.096546
 20
260.962103
 30
0.0
 40
1.150694
100
AcDbArc
 50
298.592423
 51
61.407577
  0
ARC
  5
1A1
100
AcDbEntity
  8
M01
100
AcDbCircle
 10
673.544463
 20
257.931014
 30
0.0
 40
3.702778
100
AcDbArc
 50
326.92527
 51
33.07473
  0
LINE
  5
1A2
100
AcDbEntity
  8
M01
100
AcDbLine
 10
676.647241
 20
259.95174
 30
0.0
 11
674.847241
 21
259.95174
 31
0.0
  0
LINE
  5
1A3
100
AcDbEntity
  8
M01
100
AcDbLine
 10
676.647241
 20
261.972466
 30
0.0
 11
674.847241
 21
261.972466
 31
0.0
  0
ARC
  5
1A4
100
AcDbEntity
  8
M01
100
AcDbCircle
 10
676.096546
 20
254.899925
 30
0.0
 40
1.150694
100
AcDbArc
 50
298.592423
 51
61.407577
  0
LINE
  5
1A5
100
AcDbEntity
  8
M01
100
AcDbLine
 10
676.647241
 20
255.910288
 30
0.0
 11
674.847241
 21
255.910288
 31
0.0
  0
LINE
  5
1A6
100
AcDbEntity
  8
M01
100
AcDbLine
 10
676.647241
 20
253.889562
 30
0.0
 11
674.847241
 21
253.889562
 31
0.0
  0
LINE
  5
1A7
100
AcDbEntity
  8
M01
100
AcDbLine
 10
677.247241
 20
253.431014
 30
0.0
 11
677.247241
 21
262.431014
 31
0.0
  0
LINE
  5
1A8
100
AcDbEntity
  8
M01
100
AcDbLine
 10
674.247241
 20
253.431014
 30
0.0
 11
674.247241
 21
262.431014
 31
0.0
  0
LINE
  5
1A9
100
AcDbEntity
  8
M01
100
AcDbLine
 10
673.447241
 20
253.431014
 30
0.0
 11
673.447241
 21
262.431014
 31
0.0
  0
LINE
  5
1AA
100
AcDbEntity
  8
M01
100
AcDbLine
 10
686.447241
 20
259.431014
 30
0.0
 11
685.947241
 21
259.931014
 31
0.0
  0
LINE
  5
1AB
100
AcDbEntity
  8
M01
100
AcDbLine
 10
685.947241
 20
255.931014
 30
0.0
 11
686.447241
 21
256.431014
 31
0.0
  0
LINE
  5
1AC
100
AcDbEntity
  8
M01
100
AcDbLine
 10
685.947241
 20
255.931014
 30
0.0
 11
685.947241
 21
259.931014
 31
0.0
  0
LINE
  5
1AD
100
AcDbEntity
  8
M01
100
AcDbLine
 10
686.447241
 20
259.431014
 30
0.0
 11
683.347241
 21
259.431014
 31
0.0
  0
LINE
  5
1AE
100
AcDbEntity
  8
M01
100
AcDbLine
 10
686.447241
 20
256.431014
 30
0.0
 11
683.347241
 21
256.431014
 31
0.0
  0
LINE
  5
1AF
100
AcDbEntity
  8
M01
100
AcDbLine
 10
685.947241
 20
255.931014
 30
0.0
 11
683.347241
 21
255.931014
 31
0.0
  0
LINE
  5
1B0
100
AcDbEntity
  8
M01
100
AcDbLine
 10
685.947241
 20
259.931014
 30
0.0
 11
683.347241
 21
259.931014
 31
0.0
  0
LINE
  5
1B1
100
AcDbEntity
  8
M01
100
AcDbLine
 10
686.447241
 20
256.431014
 30
0.0
 11
686.447241
 21
259.431014
 31
0.0
  0
LINE
  5
1B2
100
AcDbEntity
  8
M01
100
AcDbLine
 10
661.447241
 20
252.931014
 30
0.0
 11
661.447241
 21
262.931014
 31
0.0
  0
LINE
  5
1B3
100
AcDbEntity
  8
M01
100
AcDbLine
 10
674.247241
 20
262.431014
 30
0.0
 11
673.447241
 21
262.431014
 31
0.0
  0
LINE
  5
1B4
100
AcDbEntity
  8
M01
100
AcDbLine
 10
674.247241
 20
253.431014
 30
0.0
 11
673.447241
 21
253.431014
 31
0.0
  0
LINE
  5
1B5
100
AcDbEntity
  8
CENTRE
100
AcDbLine
 10
692.60813
 20
257.931014
 30
0.0
 11
629.014698
 21
257.931014
 31
0.0
  0
LINE
  5
1B6
100
AcDbEntity
  8
M04
100
AcDbLine
 10
701.447241
 20
237.931014
 30
0.0
 11
711.447241
 21
227.931014
 31
0.0
  0
LINE
  5
1B7
100
AcDbEntity
  8
M04
100
AcDbLine
 10
722.118719
 20
227.931014
 30
0.0
 11
711.447241
 21
227.931014
 31
0.0
  0
LINE
  5
1B8
102
{ACAD_REACTORS
330
2C
102
}
100
AcDbEntity
  8
M01
100
AcDbLine
 10
640.447241
 20
262.931014
 30
0.0
 11
641.447241
 21
261.931014
 31
0.0
  0
WIPEOUT
  5
1B9
100
AcDbEntity
  8
TEXT
 92
      140
310
8C00000001000000840000000600000005000000AB12257ABDC1824056A165FD95116C400000000000000000BAFCC588A73A834056A165FD95116C400000000000000000BBFCC588A73A834053A165FD95916C400000000000000000AD12257ABDC1824056A165FD95916C400000000000000000AB12257ABDC1824056A165
310
FD95116C400000000000000000
100
AcDbWipeout
 90
        0
 10
600.217518
 20
219.992416
 30
0.0
 11
15.114286
 21
0.0
 31
0.0
 12
0.0
 22
15.114286
 32
0.0
 13
0.0
 23
0.0
340
0
 70
     7
280
     1
281
    50
282
    50
283
     0
360
0
 71
     2
 91
        5
 14
-0.5
 24
0.198488
 14
0.5
 24
0.198488
 14
0.5
 24
-0.066163
 14
-0.5
 24
-0.066163
 14
-0.5
 24
0.198488
  0
TEXT
  5
1BA
102
{ACAD_REACTORS
330
2C
102
}
100
AcDbEntity
  8
TEXT
100
AcDbText
 10
601.217518
 20
225.549559
 30
0.0
 40
2.0
  1
MM010001
 41
0.9
100
AcDbText
  0
LINE
  5
1BB
100
AcDbEntity
  8
DIMS
 62
     4
100
AcDbLine
 10
525.447241
 20
435.959226
 30
0.0
 11
525.447241
 21
438.259226
 31
0.0
  0
LINE
  5
1BC
100
AcDbEntity
  8
DIMS
 62
     4
100
AcDbLine
 10
525.447241
 20
429.159226
 30
0.0
 11
525.447241
 21
426.859226
 31
0.0
  0
LINE
  5
1BD
100
AcDbEntity
  8
DIMS
 62
     4
100
AcDbLine
 10
525.447241
 20
430.859226
 30
0.0
 11
525.447241
 21
434.259226
 31
0.0
  0
LINE
  5
1BE
100
AcDbEntity
  8
M01
100
AcDbLine
 10
521.447241
 20
428.559226
 30
0.0
 11
529.447241
 21
428.559226
 31
0.0
  0
LINE
  5
1BF
100
AcDbEntity
  8
M01
100
AcDbLine
 10
521.447241
 20
436.559226
 30
0.0
 11
529.447241
 21
436.559226
 31
0.0
  0
ARC
  5
1C0
100
AcDbEntity
  8
M01
100
AcDbCircle
 10
529.447241
 20
432.559226
 30
0.0
 40
4.0
100
AcDbArc
 50
270.0
 51
90.0
  0
ARC
  5
1C1
100
AcDbEntity
  8
M01
100
AcDbCircle
 10
521.447241
 20
432.559226
 30
0.0
 40
4.0
100
AcDbArc
 50
90.0
 51
270.0
  0
LWPOLYLINE
  5
1C2
100
AcDbEntity
  8
M01
100
AcDbPolyline
 90
        2
 70
     0
 43
4.0
 10
525.447241
 20
434.559226
 42
0.414214
 10
523.447241
 20
432.559226
  0
LWPOLYLINE
  5
1C3
100
AcDbEntity
  8
M01
100
AcDbPolyline
 90
        2
 70
     0
 43
4.0
 10
525.447241
 20
430.559226
 42
0.414214
 10
527.447241
 20
432.559226
  0
CIRCLE
  5
1C4
100
AcDbEntity
  8
M01
100
AcDbCircle
 10
525.447241
 20
432.559226
 30
0.0
 40
4.0
  0
LINE
  5
1C5
100
AcDbEntity
  8
CENTRE
100
AcDbLine
 10
525.447241
 20
251.392103
 30
0.0
 11
525.447241
 21
293.357159
 31
0.0
  0
ARC
  5
1C6
102
{ACAD_REACTORS
330
2C
102
}
100
AcDbEntity
  8
M01
100
AcDbCircle
 10
555.447241
 20
240.431014
 30
0.0
 40
4.0
100
AcDbArc
 50
0.0
 51
90.0
  0
ARC
  5
1C7
100
AcDbEntity
  8
M03
100
AcDbCircle
 10
555.447241
 20
432.559226
 30
0.0
 40
34.0
100
AcDbArc
 50
109.749923
 51
250.250077
  0
ARC
  5
1C8
100
AcDbEntity
  8
M04
100
AcDbCircle
 10
686.447241
 20
408.559226
 30
0.0
 40
15.0
100
AcDbArc
 50
270.0
 51
360.0
  0
ARC
  5
1C9
100
AcDbEntity
  8
M04
100
AcDbCircle
 10
686.447241
 20
456.559226
 30
0.0
 40
15.0
100
AcDbArc
 50
360.0
 51
90.0
  0
ARC
  5
1CA
100
AcDbEntity
  8
M01
100
AcDbCircle
 10
620.417803
 20
462.559226
 30
0.0
 40
12.0
100
AcDbArc
 50
225.0
 51
270.0
  0
LINE
  5
1CB
100
AcDbEntity
  8
M01
100
AcDbLine
 10
601.447241
 20
464.559226
 30
0.0
 11
611.932522
 21
454.073945
 31
0.0
  0
LINE
  5
1CC
100
AcDbEntity
  8
M01
100
AcDbLine
 10
663.391341
 20
410.309226
 30
0.0
 11
663.391341
 21
416.809226
 31
0.0
  0
LINE
  5
1CD
100
AcDbEntity
  8
M01
100
AcDbLine
 10
671.50314
 20
410.309226
 30
0.0
 11
671.50314
 21
416.809226
 31
0.0
  0
LINE
  5
1CE
100
AcDbEntity
  8
M01
100
AcDbLine
 10
663.391341
 20
410.309226
 30
0.0
 11
661.447241
 21
410.309226
 31
0.0
  0
ARC
  5
1CF
100
AcDbEntity
  8
M01
100
AcDbCircle
 10
664.95259
 20
409.059226
 30
0.0
 40
2.0
100
AcDbArc
 50
90.0
 51
141.317813
  0
ARC
  5
1D0
100
AcDbEntity
  8
M01
100
AcDbCircle
 10
669.941891
 20
409.059226
 30
0.0
 40
2.0
100
AcDbArc
 50
38.682187
 51
90.0
  0
LINE
  5
1D1
100
AcDbEntity
  8
M01
100
AcDbLine
 10
673.447241
 20
410.309226
 30
0.0
 11
671.50314
 21
410.309226
 31
0.0
  0
LINE
  5
1D2
100
AcDbEntity
  8
M01
100
AcDbLine
 10
669.941891
 20
411.059226
 30
0.0
 11
664.95259
 21
411.059226
 31
0.0
  0
LINE
  5
1D3
100
AcDbEntity
  8
M01
100
AcDbLine
 10
663.391341
 20
416.809226
 30
0.0
 11
661.447241
 21
416.809226
 31
0.0
  0
ARC
  5
1D4
100
AcDbEntity
  8
M01
100
AcDbCircle
 10
664.95259
 20
418.059226
 30
0.0
 40
2.0
100
AcDbArc
 50
218.682187
 51
270.0
  0
ARC
  5
1D5
100
AcDbEntity
  8
M01
100
AcDbCircle
 10
669.941891
 20
418.059226
 30
0.0
 40
2.0
100
AcDbArc
 50
270.0
 51
321.317813
  0
LINE
  5
1D6
100
AcDbEntity
  8
M01
100
AcDbLine
 10
673.447241
 20
416.809226
 30
0.0
 11
671.50314
 21
416.809226
 31
0.0
  0
LINE
  5
1D7
100
AcDbEntity
  8
M01
100
AcDbLine
 10
669.941891
 20
416.059226
 30
0.0
 11
664.95259
 21
416.059226
 31
0.0
  0
LINE
  5
1D8
100
AcDbEntity
  8
M01
100
AcDbLine
 10
673.447241
 20
418.059226
 30
0.0
 11
673.447241
 21
409.059226
 31
0.0
  0
LINE
  5
1D9
100
AcDbEntity
  8
M01
100
AcDbLine
 10
674.247241
 20
409.059226
 30
0.0
 11
673.447241
 21
409.059226
 31
0.0
  0
LINE
  5
1DA
100
AcDbEntity
  8
M01
100
AcDbLine
 10
674.247241
 20
418.059226
 30
0.0
 11
673.447241
 21
418.059226
 31
0.0
  0
LINE
  5
1DB
100
AcDbEntity
  8
M01
100
AcDbLine
 10
663.391341
 20
440.809226
 30
0.0
 11
663.391341
 21
434.309226
 31
0.0
  0
LINE
  5
1DC
100
AcDbEntity
  8
M01
100
AcDbLine
 10
671.50314
 20
440.809226
 30
0.0
 11
671.50314
 21
434.309226
 31
0.0
  0
LINE
  5
1DD
100
AcDbEntity
  8
M01
100
AcDbLine
 10
663.391341
 20
440.809226
 30
0.0
 11
661.447241
 21
440.809226
 31
0.0
  0
ARC
  5
1DE
100
AcDbEntity
  8
M01
100
AcDbCircle
 10
664.95259
 20
442.059226
 30
0.0
 40
2.0
100
AcDbArc
 50
218.682187
 51
270.0
  0
ARC
  5
1DF
100
AcDbEntity
  8
M01
100
AcDbCircle
 10
669.941891
 20
442.059226
 30
0.0
 40
2.0
100
AcDbArc
 50
270.0
 51
321.317813
  0
LINE
  5
1E0
100
AcDbEntity
  8
M01
100
AcDbLine
 10
673.447241
 20
440.809226
 30
0.0
 11
671.50314
 21
440.809226
 31
0.0
  0
LINE
  5
1E1
100
AcDbEntity
  8
M01
100
AcDbLine
 10
669.941891
 20
440.059226
 30
0.0
 11
664.95259
 21
440.059226
 31
0.0
  0
LINE
  5
1E2
100
AcDbEntity
  8
M01
100
AcDbLine
 10
663.391341
 20
434.309226
 30
0.0
 11
661.447241
 21
434.309226
 31
0.0
  0
ARC
  5
1E3
100
AcDbEntity
  8
M01
100
AcDbCircle
 10
664.95259
 20
433.059226
 30
0.0
 40
2.0
100
AcDbArc
 50
90.0
 51
141.317813
  0
ARC
  5
1E4
100
AcDbEntity
  8
M01
100
AcDbCircle
 10
669.941891
 20
433.059226
 30
0.0
 40
2.0
100
AcDbArc
 50
38.682187
 51
90.0
  0
LINE
  5
1E5
100
AcDbEntity
  8
M01
100
AcDbLine
 10
673.447241
 20
434.309226
 30
0.0
 11
671.50314
 21
434.309226
 31
0.0
  0
LINE
  5
1E6
100
AcDbEntity
  8
M01
100
AcDbLine
 10
669.941891
 20
435.059226
 30
0.0
 11
664.95259
 21
435.059226
 31
0.0
  0
LINE
  5
1E7
100
AcDbEntity
  8
M01
100
AcDbLine
 10
656.447241
 20
408.559226
 30
0.0
 11
656.447241
 21
418.559226
 31
0.0
  0
LINE
  5
1E8
100
AcDbEntity
  8
M01
100
AcDbLine
 10
656.447241
 20
442.559226
 30
0.0
 11
656.447241
 21
432.559226
 31
0.0
  0
LINE
  5
1E9
100
AcDbEntity
  8
M01
100
AcDbLine
 10
661.447241
 20
442.559226
 30
0.0
 11
641.447241
 21
442.559226
 31
0.0
  0
LINE
  5
1EA
100
AcDbEntity
  8
M01
100
AcDbLine
 10
661.447241
 20
432.559226
 30
0.0
 11
641.447241
 21
432.559226
 31
0.0
  0
LINE
  5
1EB
100
AcDbEntity
  8
M01
100
AcDbLine
 10
661.447241
 20
418.559226
 30
0.0
 11
641.447241
 21
418.559226
 31
0.0
  0
LINE
  5
1EC
100
AcDbEntity
  8
M01
100
AcDbLine
 10
661.447241
 20
408.559226
 30
0.0
 11
641.447241
 21
408.559226
 31
0.0
  0
LINE
  5
1ED
100
AcDbEntity
  8
M01
100
AcDbLine
 10
683.347241
 20
410.528137
 30
0.0
 11
683.347241
 21
416.590315
 31
0.0
  0
ARC
  5
1EE
100
AcDbEntity
  8
M01
100
AcDbCircle
 10
681.497935
 20
416.590315
 30
0.0
 40
1.150694
100
AcDbArc
 50
118.592423
 51
241.407577
  0
ARC
  5
1EF
100
AcDbEntity
  8
M01
100
AcDbCircle
 10
684.050018
 20
413.559226
 30
0.0
 40
3.702778
100
AcDbArc
 50
146.92527
 51
213.07473
  0
ARC
  5
1F0
100
AcDbEntity
  8
M01
100
AcDbCircle
 10
681.497935
 20
410.528137
 30
0.0
 40
1.150694
100
AcDbArc
 50
118.592423
 51
241.407577
  0
ARC
  5
1F1
100
AcDbEntity
  8
M01
100
AcDbCircle
 10
682.196546
 20
416.590315
 30
0.0
 40
1.150694
100
AcDbArc
 50
298.592423
 51
61.407577
  0
ARC
  5
1F2
100
AcDbEntity
  8
M01
100
AcDbCircle
 10
679.644463
 20
413.559226
 30
0.0
 40
3.702778
100
AcDbArc
 50
326.92527
 51
33.07473
  0
LINE
  5
1F3
100
AcDbEntity
  8
M01
100
AcDbLine
 10
682.747241
 20
415.579952
 30
0.0
 11
680.947241
 21
415.579952
 31
0.0
  0
LINE
  5
1F4
100
AcDbEntity
  8
M01
100
AcDbLine
 10
682.747241
 20
417.600678
 30
0.0
 11
680.947241
 21
417.600678
 31
0.0
  0
ARC
  5
1F5
100
AcDbEntity
  8
M01
100
AcDbCircle
 10
682.196546
 20
410.528137
 30
0.0
 40
1.150694
100
AcDbArc
 50
298.592423
 51
61.407577
  0
LINE
  5
1F6
100
AcDbEntity
  8
M01
100
AcDbLine
 10
682.747241
 20
411.5385
 30
0.0
 11
680.947241
 21
411.5385
 31
0.0
  0
LINE
  5
1F7
100
AcDbEntity
  8
M01
100
AcDbLine
 10
682.747241
 20
409.517774
 30
0.0
 11
680.947241
 21
409.517774
 31
0.0
  0
LINE
  5
1F8
100
AcDbEntity
  8
M01
100
AcDbLine
 10
678.047241
 20
418.559226
 30
0.0
 11
679.547241
 21
418.559226
 31
0.0
  0
LINE
  5
1F9
100
AcDbEntity
  8
M01
100
AcDbLine
 10
678.047241
 20
408.559226
 30
0.0
 11
679.547241
 21
408.559226
 31
0.0
  0
LINE
  5
1FA
100
AcDbEntity
  8
M01
100
AcDbLine
 10
679.547241
 20
418.059226
 30
0.0
 11
680.347241
 21
418.059226
 31
0.0
  0
LINE
  5
1FB
100
AcDbEntity
  8
M01
100
AcDbLine
 10
679.547241
 20
409.059226
 30
0.0
 11
680.347241
 21
409.059226
 31
0.0
  0
LINE
  5
1FC
100
AcDbEntity
  8
M01
100
AcDbLine
 10
680.347241
 20
409.059226
 30
0.0
 11
680.347241
 21
418.059226
 31
0.0
  0
LINE
  5
1FD
100
AcDbEntity
  8
M01
100
AcDbLine
 10
679.547241
 20
408.559226
 30
0.0
 11
679.547241
 21
418.559226
 31
0.0
  0
LINE
  5
1FE
100
AcDbEntity
  8
M01
100
AcDbLine
 10
677.247241
 20
418.059226
 30
0.0
 11
678.047241
 21
418.059226
 31
0.0
  0
LINE
  5
1FF
100
AcDbEntity
  8
M01
100
AcDbLine
 10
677.247241
 20
409.059226
 30
0.0
 11
678.047241
 21
409.059226
 31
0.0
  0
LINE
  5
200
100
AcDbEntity
  8
M01
100
AcDbLine
 10
678.047241
 20
408.559226
 30
0.0
 11
678.047241
 21
418.559226
 31
0.0
  0
ARC
  5
201
100
AcDbEntity
  8
M01
100
AcDbCircle
 10
675.397935
 20
416.590315
 30
0.0
 40
1.150694
100
AcDbArc
 50
118.592423
 51
241.407577
  0
ARC
  5
202
100
AcDbEntity
  8
M01
100
AcDbCircle
 10
677.950018
 20
413.559226
 30
0.0
 40
3.702778
100
AcDbArc
 50
146.92527
 51
213.07473
  0
ARC
  5
203
100
AcDbEntity
  8
M01
100
AcDbCircle
 10
675.397935
 20
410.528137
 30
0.0
 40
1.150694
100
AcDbArc
 50
118.592423
 51
241.407577
  0
ARC
  5
204
100
AcDbEntity
  8
M01
100
AcDbCircle
 10
676.096546
 20
416.590315
 30
0.0
 40
1.150694
100
AcDbArc
 50
298.592423
 51
61.407577
  0
ARC
  5
205
100
AcDbEntity
  8
M01
100
AcDbCircle
 10
673.544463
 20
413.559226
 30
0.0
 40
3.702778
100
AcDbArc
 50
326.92527
 51
33.07473
  0
LINE
  5
206
100
AcDbEntity
  8
M01
100
AcDbLine
 10
676.647241
 20
415.579952
 30
0.0
 11
674.847241
 21
415.579952
 31
0.0
  0
LINE
  5
207
100
AcDbEntity
  8
M01
100
AcDbLine
 10
676.647241
 20
417.600678
 30
0.0
 11
674.847241
 21
417.600678
 31
0.0
  0
ARC
  5
208
100
AcDbEntity
  8
M01
100
AcDbCircle
 10
676.096546
 20
410.528137
 30
0.0
 40
1.150694
100
AcDbArc
 50
298.592423
 51
61.407577
  0
LINE
  5
209
100
AcDbEntity
  8
M01
100
AcDbLine
 10
676.647241
 20
411.5385
 30
0.0
 11
674.847241
 21
411.5385
 31
0.0
  0
LINE
  5
20A
100
AcDbEntity
  8
M01
100
AcDbLine
 10
676.647241
 20
409.517774
 30
0.0
 11
674.847241
 21
409.517774
 31
0.0
  0
LINE
  5
20B
100
AcDbEntity
  8
M01
100
AcDbLine
 10
677.247241
 20
409.059226
 30
0.0
 11
677.247241
 21
418.059226
 31
0.0
  0
LINE
  5
20C
100
AcDbEntity
  8
M01
100
AcDbLine
 10
674.247241
 20
409.059226
 30
0.0
 11
674.247241
 21
418.059226
 31
0.0
  0
LINE
  5
20D
100
AcDbEntity
  8
M01
100
AcDbLine
 10
686.447241
 20
415.059226
 30
0.0
 11
685.947241
 21
415.559226
 31
0.0
  0
LINE
  5
20E
100
AcDbEntity
  8
M01
100
AcDbLine
 10
685.947241
 20
411.559226
 30
0.0
 11
686.447241
 21
412.059226
 31
0.0
  0
LINE
  5
20F
100
AcDbEntity
  8
M01
100
AcDbLine
 10
685.947241
 20
411.559226
 30
0.0
 11
685.947241
 21
415.559226
 31
0.0
  0
LINE
  5
210
100
AcDbEntity
  8
M01
100
AcDbLine
 10
686.447241
 20
415.059226
 30
0.0
 11
683.347241
 21
415.059226
 31
0.0
  0
LINE
  5
211
100
AcDbEntity
  8
M01
100
AcDbLine
 10
686.447241
 20
412.059226
 30
0.0
 11
683.347241
 21
412.059226
 31
0.0
  0
LINE
  5
212
100
AcDbEntity
  8
M01
100
AcDbLine
 10
685.947241
 20
411.559226
 30
0.0
 11
683.347241
 21
411.559226
 31
0.0
  0
LINE
  5
213
100
AcDbEntity
  8
M01
100
AcDbLine
 10
685.947241
 20
415.559226
 30
0.0
 11
683.347241
 21
415.559226
 31
0.0
  0
LINE
  5
214
100
AcDbEntity
  8
M01
100
AcDbLine
 10
686.447241
 20
412.059226
 30
0.0
 11
686.447241
 21
415.059226
 31
0.0
  0
LINE
  5
215
100
AcDbEntity
  8
M01
100
AcDbLine
 10
661.447241
 20
408.559226
 30
0.0
 11
661.447241
 21
418.559226
 31
0.0
  0
LINE
  5
216
100
AcDbEntity
  8
CENTRE
100
AcDbLine
 10
692.60813
 20
413.559226
 30
0.0
 11
629.014698
 21
413.559226
 31
0.0
  0
LINE
  5
217
100
AcDbEntity
  8
M01
100
AcDbLine
 10
683.347241
 20
440.590315
 30
0.0
 11
683.347241
 21
434.528137
 31
0.0
  0
ARC
  5
218
100
AcDbEntity
  8
M01
100
AcDbCircle
 10
681.497935
 20
434.528137
 30
0.0
 40
1.150694
100
AcDbArc
 50
118.592423
 51
241.407577
  0
ARC
  5
219
100
AcDbEntity
  8
M01
100
AcDbCircle
 10
684.050018
 20
437.559226
 30
0.0
 40
3.702778
100
AcDbArc
 50
146.92527
 51
213.07473
  0
ARC
  5
21A
100
AcDbEntity
  8
M01
100
AcDbCircle
 10
681.497935
 20
440.590315
 30
0.0
 40
1.150694
100
AcDbArc
 50
118.592423
 51
241.407577
  0
ARC
  5
21B
100
AcDbEntity
  8
M01
100
AcDbCircle
 10
682.196546
 20
434.528137
 30
0.0
 40
1.150694
100
AcDbArc
 50
298.592423
 51
61.407577
  0
ARC
  5
21C
100
AcDbEntity
  8
M01
100
AcDbCircle
 10
679.644463
 20
437.559226
 30
0.0
 40
3.702778
100
AcDbArc
 50
326.92527
 51
33.07473
  0
LINE
  5
21D
100
AcDbEntity
  8
M01
100
AcDbLine
 10
682.747241
 20
435.5385
 30
0.0
 11
680.947241
 21
435.5385
 31
0.0
  0
LINE
  5
21E
100
AcDbEntity
  8
M01
100
AcDbLine
 10
682.747241
 20
433.517774
 30
0.0
 11
680.947241
 21
433.517774
 31
0.0
  0
ARC
  5
21F
100
AcDbEntity
  8
M01
100
AcDbCircle
 10
682.196546
 20
440.590315
 30
0.0
 40
1.150694
100
AcDbArc
 50
298.592423
 51
61.407577
  0
LINE
  5
220
100
AcDbEntity
  8
M01
100
AcDbLine
 10
682.747241
 20
439.579952
 30
0.0
 11
680.947241
 21
439.579952
 31
0.0
  0
LINE
  5
221
100
AcDbEntity
  8
M01
100
AcDbLine
 10
682.747241
 20
441.600678
 30
0.0
 11
680.947241
 21
441.600678
 31
0.0
  0
LINE
  5
222
100
AcDbEntity
  8
M01
100
AcDbLine
 10
678.047241
 20
432.559226
 30
0.0
 11
679.547241
 21
432.559226
 31
0.0
  0
LINE
  5
223
100
AcDbEntity
  8
M01
100
AcDbLine
 10
678.047241
 20
442.559226
 30
0.0
 11
679.547241
 21
442.559226
 31
0.0
  0
LINE
  5
224
100
AcDbEntity
  8
M01
100
AcDbLine
 10
679.547241
 20
433.059226
 30
0.0
 11
680.347241
 21
433.059226
 31
0.0
  0
LINE
  5
225
100
AcDbEntity
  8
M01
100
AcDbLine
 10
679.547241
 20
442.059226
 30
0.0
 11
680.347241
 21
442.059226
 31
0.0
  0
LINE
  5
226
100
AcDbEntity
  8
M01
100
AcDbLine
 10
680.347241
 20
442.059226
 30
0.0
 11
680.347241
 21
433.059226
 31
0.0
  0
LINE
  5
227
100
AcDbEntity
  8
M01
100
AcDbLine
 10
679.547241
 20
442.559226
 30
0.0
 11
679.547241
 21
432.559226
 31
0.0
  0
LINE
  5
228
100
AcDbEntity
  8
M01
100
AcDbLine
 10
677.247241
 20
433.059226
 30
0.0
 11
678.047241
 21
433.059226
 31
0.0
  0
LINE
  5
229
100
AcDbEntity
  8
M01
100
AcDbLine
 10
677.247241
 20
442.059226
 30
0.0
 11
678.047241
 21
442.059226
 31
0.0
  0
LINE
  5
22A
100
AcDbEntity
  8
M01
100
AcDbLine
 10
678.047241
 20
442.559226
 30
0.0
 11
678.047241
 21
432.559226
 31
0.0
  0
ARC
  5
22B
100
AcDbEntity
  8
M01
100
AcDbCircle
 10
675.397935
 20
434.528137
 30
0.0
 40
1.150694
100
AcDbArc
 50
118.592423
 51
241.407577
  0
ARC
  5
22C
100
AcDbEntity
  8
M01
100
AcDbCircle
 10
677.950018
 20
437.559226
 30
0.0
 40
3.702778
100
AcDbArc
 50
146.92527
 51
213.07473
  0
ARC
  5
22D
100
AcDbEntity
  8
M01
100
AcDbCircle
 10
675.397935
 20
440.590315
 30
0.0
 40
1.150694
100
AcDbArc
 50
118.592423
 51
241.407577
  0
ARC
  5
22E
100
AcDbEntity
  8
M01
100
AcDbCircle
 10
676.096546
 20
434.528137
 30
0.0
 40
1.150694
100
AcDbArc
 50
298.592423
 51
61.407577
  0
ARC
  5
22F
100
AcDbEntity
  8
M01
100
AcDbCircle
 10
673.544463
 20
437.559226
 30
0.0
 40
3.702778
100
AcDbArc
 50
326.92527
 51
33.07473
  0
LINE
  5
230
100
AcDbEntity
  8
M01
100
AcDbLine
 10
676.647241
 20
435.5385
 30
0.0
 11
674.847241
 21
435.5385
 31
0.0
  0
LINE
  5
231
100
AcDbEntity
  8
M01
100
AcDbLine
 10
676.647241
 20
433.517774
 30
0.0
 11
674.847241
 21
433.517774
 31
0.0
  0
ARC
  5
232
100
AcDbEntity
  8
M01
100
AcDbCircle
 10
676.096546
 20
440.590315
 30
0.0
 40
1.150694
100
AcDbArc
 50
298.592423
 51
61.407577
  0
LINE
  5
233
100
AcDbEntity
  8
M01
100
AcDbLine
 10
676.647241
 20
439.579952
 30
0.0
 11
674.847241
 21
439.579952
 31
0.0
  0
LINE
  5
234
100
AcDbEntity
  8
M01
100
AcDbLine
 10
676.647241
 20
441.600678
 30
0.0
 11
674.847241
 21
441.600678
 31
0.0
  0
LINE
  5
235
100
AcDbEntity
  8
M01
100
AcDbLine
 10
677.247241
 20
442.059226
 30
0.0
 11
677.247241
 21
433.059226
 31
0.0
  0
LINE
  5
236
100
AcDbEntity
  8
M01
100
AcDbLine
 10
674.247241
 20
442.059226
 30
0.0
 11
674.247241
 21
433.059226
 31
0.0
  0
LINE
  5
237
100
AcDbEntity
  8
M01
100
AcDbLine
 10
673.447241
 20
442.059226
 30
0.0
 11
673.447241
 21
433.059226
 31
0.0
  0
LINE
  5
238
100
AcDbEntity
  8
M04
100
AcDbLine
 10
701.447241
 20
456.559226
 30
0.0
 11
701.447241
 21
408.559226
 31
0.0
  0
LINE
  5
239
100
AcDbEntity
  8
M01
100
AcDbLine
 10
686.447241
 20
436.059226
 30
0.0
 11
685.947241
 21
435.559226
 31
0.0
  0
LINE
  5
23A
100
AcDbEntity
  8
M01
100
AcDbLine
 10
685.947241
 20
439.559226
 30
0.0
 11
686.447241
 21
439.059226
 31
0.0
  0
LINE
  5
23B
100
AcDbEntity
  8
M01
100
AcDbLine
 10
685.947241
 20
439.559226
 30
0.0
 11
685.947241
 21
435.559226
 31
0.0
  0
LINE
  5
23C
100
AcDbEntity
  8
M01
100
AcDbLine
 10
686.447241
 20
436.059226
 30
0.0
 11
683.347241
 21
436.059226
 31
0.0
  0
LINE
  5
23D
100
AcDbEntity
  8
M01
100
AcDbLine
 10
686.447241
 20
439.059226
 30
0.0
 11
683.347241
 21
439.059226
 31
0.0
  0
LINE
  5
23E
100
AcDbEntity
  8
M01
100
AcDbLine
 10
685.947241
 20
439.559226
 30
0.0
 11
683.347241
 21
439.559226
 31
0.0
  0
LINE
  5
23F
100
AcDbEntity
  8
M01
100
AcDbLine
 10
685.947241
 20
435.559226
 30
0.0
 11
683.347241
 21
435.559226
 31
0.0
  0
LINE
  5
240
100
AcDbEntity
  8
M01
100
AcDbLine
 10
686.447241
 20
439.059226
 30
0.0
 11
686.447241
 21
436.059226
 31
0.0
  0
LINE
  5
241
100
AcDbEntity
  8
M01
100
AcDbLine
 10
661.447241
 20
442.559226
 30
0.0
 11
661.447241
 21
432.559226
 31
0.0
  0
LINE
  5
242
100
AcDbEntity
  8
M01
100
AcDbLine
 10
674.247241
 20
433.059226
 30
0.0
 11
673.447241
 21
433.059226
 31
0.0
  0
LINE
  5
243
100
AcDbEntity
  8
M01
100
AcDbLine
 10
674.247241
 20
442.059226
 30
0.0
 11
673.447241
 21
442.059226
 31
0.0
  0
LINE
  5
244
100
AcDbEntity
  8
CENTRE
100
AcDbLine
 10
692.60813
 20
437.559226
 30
0.0
 11
629.014698
 21
437.559226
 31
0.0
  0
LINE
  5
245
100
AcDbEntity
  8
M01
100
AcDbLine
 10
641.447241
 20
448.559226
 30
0.0
 11
639.447241
 21
450.559226
 31
0.0
  0
LINE
  5
246
100
AcDbEntity
  8
M01
100
AcDbLine
 10
639.447241
 20
400.559226
 30
0.0
 11
641.447241
 21
402.559226
 31
0.0
  0
LINE
  5
247
100
AcDbEntity
  8
M01
100
AcDbLine
 10
620.417803
 20
450.559226
 30
0.0
 11
639.447241
 21
450.559226
 31
0.0
  0
HATCH
  5
248
100
AcDbEntity
  8
M03
100
AcDbHatch
 10
0.0
 20
0.0
 30
0.0
210
0.0
220
0.0
230
1.0
  2
_U
 70
     0
 71
     0
 91
        1
 92
        7
 72
     0
 73
     1
 93
        4
 10
519.7543033684503
 20
404.4592260810629
 10
548.9927627830857
 20
404.4592260810629
 10
548.9927627830858
 20
402.5592260810629
 10
519.7543033684503
 20
402.559226081063
 97
        0
 75
     0
 76
     0
 52
330.0
 41
0.7
 77
     0
 78
     1
 53
210.0
 43
1010.894481
 44
0.0
 45
-0.3500000000000003
 46
0.6062177826491069
 79
     0
 47
0.060863
 98
        1
 10
523.445475
 20
403.271795
  0
HATCH
  5
249
100
AcDbEntity
  8
M03
100
AcDbHatch
 10
0.0
 20
0.0
 30
0.0
210
0.0
220
0.0
230
1.0
  2
_U
 70
     0
 71
     0
 91
        1
 92
        7
 72
     0
 73
     1
 93
        4
 10
519.7543033684503
 20
404.4592260810629
 10
548.9927627830859
 20
404.4592260810629
 10
548.9927627830859
 20
402.5592260810628
 10
519.7543033684502
 20
402.559226081063
 97
        0
 75
     0
 76
     0
 52
30.0
 41
0.7
 77
     0
 78
     1
 53
150.0
 43
1010.894481
 44
0.0
 45
0.3499999999999999
 46
0.6062177826491072
 79
     0
 47
0.060863
 98
        1
 10
523.628139
 20
403.515247
  0
HATCH
  5
24A
100
AcDbEntity
  8
HATCH
100
AcDbHatch
 10
0.0
 20
0.0
 30
0.0
210
0.0
220
0.0
230
1.0
  2
_U
 70
     0
 71
     1
 91
        2
 92
        7
 72
     0
 73
     1
 93
       11
 10
472.5883585878083
 20
216.931013866594
 10
467.1472405752655
 20
216.931013866594
 10
466.4472405752653
 20
216.231013866594
 10
466.4472405752654
 20
210.6310138665937
 10
467.1472405752653
 20
209.9310138665939
 10
469.9472405752656
 20
209.9310138665939
 10
470.9472405752653
 20
210.9310138665938
 10
472.9472405752649
 20
210.9310138665938
 10
473.9472405752644
 20
209.9310138665939
 10
476.9472405752653
 20
209.9310138665939
 10
476.9472405752652
 20
212.5721318791369
 97
       10
330
36A
330
31D
330
322
330
31E
330
370
330
24E
330
250
330
24F
330
30B
330
30D
 92
        7
 72
     0
 73
     1
 93
       11
 10
488.3061225627224
 20
216.9310138665939
 10
483.9472405752653
 20
212.5721318791368
 10
483.9472405752653
 20
209.9310138665939
 10
486.947240575266
 20
209.9310138665938
 10
487.9472405752657
 20
210.9310138665938
 10
489.9472405752653
 20
210.9310138665938
 10
490.9472405752652
 20
209.9310138665939
 10
493.7472405752653
 20
209.9310138665939
 10
494.4472405752653
 20
210.6310138665937
 10
494.4472405752654
 20
216.2310138665939
 10
493.7472405752653
 20
216.931013866594
 97
       10
330
318
330
36A
330
30F
330
30A
330
2F2
330
24C
330
24D
330
24B
330
319
330
31A
 75
     0
 76
     0
 52
135.0
 41
1.5
 77
     0
 78
     1
 53
135.0
 43
-20.0
 44
-30.555461
 45
-1.060660171779821
 46
-1.060660171779821
 79
     0
 47
0.040219
 98
        2
 10
471.599024
 20
214.410584
 10
490.067312
 20
213.968172
  0
LINE
  5
24B
102
{ACAD_REACTORS
330
24A
102
}
100
AcDbEntity
  8
M05
100
AcDbLine
 10
489.947241
 20
210.931014
 30
0.0
 11
490.947241
 21
209.931014
 31
0.0
  0
LINE
  5
24C
102
{ACAD_REACTORS
330
24A
102
}
100
AcDbEntity
  8
M05
100
AcDbLine
 10
487.947241
 20
210.931014
 30
0.0
 11
486.947241
 21
209.931014
 31
0.0
  0
LINE
  5
24D
102
{ACAD_REACTORS
330
24A
102
}
100
AcDbEntity
  8
M05
100
AcDbLine
 10
489.947241
 20
210.931014
 30
0.0
 11
487.947241
 21
210.931014
 31
0.0
  0
LINE
  5
24E
102
{ACAD_REACTORS
330
24A
102
}
100
AcDbEntity
  8
M05
100
AcDbLine
 10
470.947241
 20
210.931014
 30
0.0
 11
469.947241
 21
209.931014
 31
0.0
  0
LINE
  5
24F
102
{ACAD_REACTORS
330
24A
102
}
100
AcDbEntity
  8
M05
100
AcDbLine
 10
472.947241
 20
210.931014
 30
0.0
 11
473.947241
 21
209.931014
 31
0.0
  0
LINE
  5
250
102
{ACAD_REACTORS
330
24A
102
}
100
AcDbEntity
  8
M05
100
AcDbLine
 10
470.947241
 20
210.931014
 30
0.0
 11
472.947241
 21
210.931014
 31
0.0
  0
LINE
  5
251
102
{ACAD_REACTORS
330
2A
102
}
100
AcDbEntity
  8
M02
100
AcDbLine
 10
498.447241
 20
263.931014
 30
0.0
 11
498.447241
 21
266.931014
 31
0.0
  0
LINE
  5
252
102
{ACAD_REACTORS
330
29
102
}
100
AcDbEntity
  8
M02
100
AcDbLine
 10
462.447241
 20
263.931014
 30
0.0
 11
462.447241
 21
266.931014
 31
0.0
  0
POINT
  5
253
100
AcDbEntity
  8
DEFPOINTS
  6
BYBLOCK
 62
     0
100
AcDbPoint
 10
630.447241
 20
482.559226
 30
0.0
  0
POINT
  5
254
100
AcDbEntity
  8
DEFPOINTS
  6
BYBLOCK
 62
     0
100
AcDbPoint
 10
633.857108
 20
488.093014
 30
0.0
  0
MTEXT
  5
255
100
AcDbEntity
  8
0
  6
BYBLOCK
 62
     2
100
AcDbMText
 10
595.529922
 20
507.810084
 30
0.0
 40
3.0
 41
0.0
 71
     4
 72
     1
  1
M12 PLATE RETAINING SCREWS SHOULD ALSO BE FITTED.\PMINIMUM 2 PER DROP & ALSO AROUND MANIFOLD POCKET.
  0
SOLID
  5
256
100
AcDbEntity
  8
0
  6
BYBLOCK
 62
     4
100
AcDbTrace
 10
635.005217
 20
490.909367
 30
0.0
 11
635.856569
 21
490.384772
 31
0.0
 12
633.857108
 22
488.093014
 32
0.0
 13
633.857108
 23
488.093014
 33
0.0
  0
LINE
  5
257
100
AcDbEntity
  8
0
  6
BYBLOCK
 62
     4
100
AcDbLine
 10
635.430893
 20
490.647069
 30
0.0
 11
642.968082
 21
502.580289
 31
0.0
  0
LINE
  5
258
100
AcDbEntity
  8
DIMS
 62
     4
100
AcDbLine
 10
630.447241
 20
485.959226
 30
0.0
 11
630.447241
 21
490.759226
 31
0.0
  0
LINE
  5
259
100
AcDbEntity
  8
DIMS
 62
     4
100
AcDbLine
 10
630.447241
 20
479.159226
 30
0.0
 11
630.447241
 21
474.359226
 31
0.0
  0
LINE
  5
25A
100
AcDbEntity
  8
DIMS
 62
     4
100
AcDbLine
 10
633.847241
 20
482.559226
 30
0.0
 11
638.647241
 21
482.559226
 31
0.0
  0
LINE
  5
25B
100
AcDbEntity
  8
DIMS
 62
     4
100
AcDbLine
 10
627.047241
 20
482.559226
 30
0.0
 11
622.247241
 21
482.559226
 31
0.0
  0
LINE
  5
25C
100
AcDbEntity
  8
DIMS
 62
     4
100
AcDbLine
 10
630.447241
 20
480.859226
 30
0.0
 11
630.447241
 21
484.259226
 31
0.0
  0
LINE
  5
25D
100
AcDbEntity
  8
DIMS
 62
     4
100
AcDbLine
 10
628.747241
 20
482.559226
 30
0.0
 11
632.147241
 21
482.559226
 31
0.0
  0
LINE
  5
25E
100
AcDbEntity
  8
DIMS
 62
     4
100
AcDbLine
 10
480.447241
 20
485.959226
 30
0.0
 11
480.447241
 21
490.759226
 31
0.0
  0
LINE
  5
25F
100
AcDbEntity
  8
DIMS
 62
     4
100
AcDbLine
 10
480.447241
 20
479.159226
 30
0.0
 11
480.447241
 21
474.359226
 31
0.0
  0
LINE
  5
260
100
AcDbEntity
  8
DIMS
 62
     4
100
AcDbLine
 10
483.847241
 20
482.559226
 30
0.0
 11
488.647241
 21
482.559226
 31
0.0
  0
LINE
  5
261
100
AcDbEntity
  8
DIMS
 62
     4
100
AcDbLine
 10
477.047241
 20
482.559226
 30
0.0
 11
472.247241
 21
482.559226
 31
0.0
  0
LINE
  5
262
100
AcDbEntity
  8
DIMS
 62
     4
100
AcDbLine
 10
480.447241
 20
480.859226
 30
0.0
 11
480.447241
 21
484.259226
 31
0.0
  0
LINE
  5
263
100
AcDbEntity
  8
DIMS
 62
     4
100
AcDbLine
 10
478.747241
 20
482.559226
 30
0.0
 11
482.147241
 21
482.559226
 31
0.0
  0
LINE
  5
264
100
AcDbEntity
  8
DIMS
 62
     4
100
AcDbLine
 10
483.847241
 20
382.559226
 30
0.0
 11
488.647241
 21
382.559226
 31
0.0
  0
LINE
  5
265
100
AcDbEntity
  8
DIMS
 62
     4
100
AcDbLine
 10
477.047241
 20
382.559226
 30
0.0
 11
472.247241
 21
382.559226
 31
0.0
  0
LINE
  5
266
100
AcDbEntity
  8
DIMS
 62
     4
100
AcDbLine
 10
478.747241
 20
382.559226
 30
0.0
 11
482.147241
 21
382.559226
 31
0.0
  0
LINE
  5
267
100
AcDbEntity
  8
DIMS
 62
     4
100
AcDbLine
 10
630.447241
 20
385.959226
 30
0.0
 11
630.447241
 21
390.759226
 31
0.0
  0
LINE
  5
268
100
AcDbEntity
  8
DIMS
 62
     4
100
AcDbLine
 10
630.447241
 20
379.159226
 30
0.0
 11
630.447241
 21
374.359226
 31
0.0
  0
LINE
  5
269
100
AcDbEntity
  8
DIMS
 62
     4
100
AcDbLine
 10
633.847241
 20
382.559226
 30
0.0
 11
638.647241
 21
382.559226
 31
0.0
  0
LINE
  5
26A
100
AcDbEntity
  8
DIMS
 62
     4
100
AcDbLine
 10
627.047241
 20
382.559226
 30
0.0
 11
622.247241
 21
382.559226
 31
0.0
  0
LINE
  5
26B
100
AcDbEntity
  8
DIMS
 62
     4
100
AcDbLine
 10
630.447241
 20
380.859226
 30
0.0
 11
630.447241
 21
384.259226
 31
0.0
  0
LINE
  5
26C
100
AcDbEntity
  8
DIMS
 62
     4
100
AcDbLine
 10
628.747241
 20
382.559226
 30
0.0
 11
632.147241
 21
382.559226
 31
0.0
  0
CIRCLE
  5
26D
100
AcDbEntity
  8
M04
100
AcDbCircle
 10
630.447241
 20
382.559226
 30
0.0
 40
6.5
  0
CIRCLE
  5
26E
100
AcDbEntity
  8
M04
100
AcDbCircle
 10
630.447241
 20
482.559226
 30
0.0
 40
6.5
  0
CIRCLE
  5
26F
100
AcDbEntity
  8
M04
100
AcDbCircle
 10
480.447241
 20
382.559226
 30
0.0
 40
6.5
  0
CIRCLE
  5
270
100
AcDbEntity
  8
M04
100
AcDbCircle
 10
480.447241
 20
482.559226
 30
0.0
 40
6.5
  0
HATCH
  5
271
100
AcDbEntity
  8
DIMS
100
AcDbHatch
 10
0.0
 20
0.0
 30
0.0
210
0.0
220
0.0
230
1.0
  2
_U
 70
     0
 71
     1
 91
        5
 92
        7
 72
     0
 73
     1
 93
        9
 10
586.9472405752653
 20
214.9310138665937
 10
586.9472405752653
 20
210.9310138665938
 10
588.7472405752654
 20
210.9310138665938
 10
589.4472405752655
 20
211.6310138665938
 10
589.4472405752655
 20
216.2310138665937
 10
588.7472405752653
 20
216.931013866594
 10
585.1472405752653
 20
216.931013866594
 10
585.1472405752653
 20
214.9310138665939
 10
586.6972405752655
 20
214.9310138665938
 97
        9
330
350
330
29E
330
2B2
330
2A3
330
2B7
330
2A5
330
353
330
351
330
354
 92
        7
 72
     1
 73
     1
 93
       16
 10
574.7472405752652
 20
205.9310138665938
 42
0.0
 10
575.4472405752653
 20
206.6310138665937
 42
0.0
 10
575.4472405752653
 20
207.9310138665939
 42
0.0
 10
574.9472405752653
 20
207.9310138665938
 42
0.0
 10
574.9472405752653
 20
210.9310138665938
 42
0.0
 10
575.9472405752655
 20
210.9310138665938
 42
0.0
 10
575.9472405752655
 20
214.9310138665938
 42
0.0
 10
576.1972405752654
 20
214.9310138665938
 42
0.0
 10
577.7472405752653
 20
214.9310138665939
 42
0.0
 10
577.7472405752654
 20
216.931013866594
 42
0.0
 10
565.4472405752652
 20
216.931013866594
 42
0.0
 10
565.4472405752652
 20
225.9310138665937
 42
0.0
 10
564.4472405752652
 20
226.9310138665937
 42
0.0
 10
559.4472405752653
 20
226.9310138665937
 42
0.0
 10
558.4881145731612
 20
208.629799519695
 42
-0.1092323044357263
 10
564.6123919651768
 20
205.9310138665937
 42
0.0
 97
       16
330
353
330
2A6
330
2A4
330
2A3
330
2B1
330
331
330
35D
330
359
330
35B
330
33A
330
33B
330
349
330
348
330
34B
330
346
330
345
 92
        7
 72
     1
 73
     1
 93
       16
 10
552.4063665773692
 20
208.6297995196949
 42
0.0
 10
551.4472405752654
 20
226.9310138665938
 42
0.0
 10
546.4472405752655
 20
226.9310138665938
 42
0.0
 10
545.4472405752653
 20
225.9310138665938
 42
0.0
 10
545.4472405752653
 20
216.931013866594
 42
0.0
 10
533.147240575265
 20
216.931013866594
 42
0.0
 10
533.1472405752654
 20
214.9310138665939
 42
0.0
 10
534.6972405752652
 20
214.9310138665938
 42
0.0
 10
534.9472405752652
 20
214.9310138665938
 42
0.0
 10
534.9472405752652
 20
210.9310138665939
 42
0.0
 10
535.9472405752653
 20
210.9310138665939
 42
0.0
 10
535.9472405752653
 20
207.9310138665936
 42
0.0
 10
535.4472405752654
 20
207.9310138665936
 42
0.0
 10
535.4472405752654
 20
206.6310138665934
 42
0.0
 10
536.1472405752654
 20
205.9310138665935
 42
0.0
 10
546.2820891853538
 20
205.9310138665936
 42
-0.1092323044357246
 97
       16
330
35B
330
35A
330
35C
330
36A
330
296
330
288
330
289
330
28B
330
343
330
344
330
342
330
34A
330
347
330
349
330
337
330
339
 92
        7
 72
     0
 73
     1
 93
        9
 10
523.9472405752653
 20
214.9310138665937
 10
524.1972405752651
 20
214.9310138665937
 10
525.7472405752653
 20
214.9310138665937
 10
525.7472405752653
 20
216.9310138665939
 10
522.1472405752653
 20
216.931013866594
 10
521.4472405752651
 20
216.2310138665939
 10
521.4472405752651
 20
211.6310138665937
 10
522.147240575265
 20
210.9310138665939
 10
523.9472405752653
 20
210.9310138665939
 97
        9
330
36A
330
34E
330
34F
330
32F
330
343
330
28A
330
29C
330
288
330
297
 92
       24
 93
        4
 72
     1
 10
560.021321
 20
211.998501
 11
574.39275
 21
211.998501
 72
     1
 10
574.39275
 20
211.998501
 11
574.39275
 21
214.998501
 72
     1
 10
574.39275
 20
214.998501
 11
560.021321
 21
214.998501
 72
     1
 10
560.021321
 20
214.998501
 11
560.021321
 21
211.998501
 97
        1
330
32B
 75
     0
 76
     0
 52
135.0
 41
2.5
 77
     0
 78
     1
 53
135.0
 43
0.0
 44
-30.555461
 45
-1.767766952966368
 46
-1.767766952966368
 79
     0
 47
0.085632
 98
        4
 10
587.944203
 20
215.288998
 10
570.296758
 20
209.294769
 10
547.509279
 20
210.493615
 10
523.26546
 20
215.288998
  0
LINE
  5
272
100
AcDbEntity
  8
DIMS
 62
     4
100
AcDbLine
 10
396.047241
 20
220.931014
 30
0.0
 11
393.747241
 21
220.931014
 31
0.0
  0
LINE
  5
273
100
AcDbEntity
  8
DIMS
 62
     4
100
AcDbLine
 10
402.847241
 20
220.931014
 30
0.0
 11
405.147241
 21
220.931014
 31
0.0
  0
LINE
  5
274
100
AcDbEntity
  8
DIMS
 62
     4
100
AcDbLine
 10
399.447241
 20
224.331014
 30
0.0
 11
399.447241
 21
226.631014
 31
0.0
  0
LINE
  5
275
100
AcDbEntity
  8
DIMS
 62
     4
100
AcDbLine
 10
399.447241
 20
217.531014
 30
0.0
 11
399.447241
 21
215.231014
 31
0.0
  0
LINE
  5
276
100
AcDbEntity
  8
DIMS
 62
     4
100
AcDbLine
 10
401.147241
 20
220.931014
 30
0.0
 11
397.747241
 21
220.931014
 31
0.0
  0
LINE
  5
277
100
AcDbEntity
  8
DIMS
 62
     4
100
AcDbLine
 10
399.447241
 20
219.231014
 30
0.0
 11
399.447241
 21
222.631014
 31
0.0
  0
LINE
  5
278
102
{ACAD_REACTORS
330
2C
102
}
100
AcDbEntity
  8
M01
100
AcDbLine
 10
403.447241
 20
220.931014
 30
0.0
 11
403.447241
 21
216.931014
 31
0.0
  0
LINE
  5
279
102
{ACAD_REACTORS
330
2C
102
}
100
AcDbEntity
  8
M01
100
AcDbLine
 10
395.447241
 20
220.931014
 30
0.0
 11
395.447241
 21
216.931014
 31
0.0
  0
CIRCLE
  5
27A
102
{ACAD_REACTORS
330
2C
330
2B
102
}
100
AcDbEntity
  8
M01
100
AcDbCircle
 10
399.447241
 20
220.931014
 30
0.0
 40
4.0
  0
LINE
  5
27B
100
AcDbEntity
  8
DIMS
 62
     4
100
AcDbLine
 10
396.047241
 20
259.931014
 30
0.0
 11
393.747241
 21
259.931014
 31
0.0
  0
LINE
  5
27C
100
AcDbEntity
  8
DIMS
 62
     4
100
AcDbLine
 10
402.847241
 20
259.931014
 30
0.0
 11
405.147241
 21
259.931014
 31
0.0
  0
LINE
  5
27D
100
AcDbEntity
  8
DIMS
 62
     4
100
AcDbLine
 10
399.447241
 20
256.531014
 30
0.0
 11
399.447241
 21
254.231014
 31
0.0
  0
LINE
  5
27E
100
AcDbEntity
  8
DIMS
 62
     4
100
AcDbLine
 10
399.447241
 20
263.331014
 30
0.0
 11
399.447241
 21
265.631014
 31
0.0
  0
LINE
  5
27F
100
AcDbEntity
  8
DIMS
 62
     4
100
AcDbLine
 10
401.147241
 20
259.931014
 30
0.0
 11
397.747241
 21
259.931014
 31
0.0
  0
LINE
  5
280
100
AcDbEntity
  8
DIMS
 62
     4
100
AcDbLine
 10
399.447241
 20
261.631014
 30
0.0
 11
399.447241
 21
258.231014
 31
0.0
  0
LINE
  5
281
102
{ACAD_REACTORS
330
2C
102
}
100
AcDbEntity
  8
M01
100
AcDbLine
 10
403.447241
 20
259.931014
 30
0.0
 11
403.447241
 21
263.931014
 31
0.0
  0
LINE
  5
282
102
{ACAD_REACTORS
330
2C
102
}
100
AcDbEntity
  8
M01
100
AcDbLine
 10
395.447241
 20
259.931014
 30
0.0
 11
395.447241
 21
263.931014
 31
0.0
  0
CIRCLE
  5
283
102
{ACAD_REACTORS
330
2C
330
2B
102
}
100
AcDbEntity
  8
M01
100
AcDbCircle
 10
399.447241
 20
259.931014
 30
0.0
 40
4.0
  0
LINE
  5
284
102
{ACAD_REACTORS
330
2C
102
}
100
AcDbEntity
  8
M04
100
AcDbLine
 10
532.447241
 20
224.231014
 30
0.0
 11
532.447241
 21
226.731014
 31
0.0
  0
LINE
  5
285
102
{ACAD_REACTORS
330
2C
102
}
100
AcDbEntity
  8
M04
100
AcDbLine
 10
531.747241
 20
224.931014
 30
0.0
 11
531.747241
 21
228.231014
 31
0.0
  0
LINE
  5
286
102
{ACAD_REACTORS
330
2C
102
}
100
AcDbEntity
  8
M04
100
AcDbLine
 10
526.447241
 20
224.231014
 30
0.0
 11
526.447241
 21
226.731014
 31
0.0
  0
LINE
  5
287
102
{ACAD_REACTORS
330
2C
102
}
100
AcDbEntity
  8
M04
100
AcDbLine
 10
527.147241
 20
224.931014
 30
0.0
 11
527.147241
 21
228.231014
 31
0.0
  0
LINE
  5
288
102
{ACAD_REACTORS
330
271
102
}
100
AcDbEntity
  8
M05
100
AcDbLine
 10
524.197241
 20
214.931014
 30
0.0
 11
534.697241
 21
214.931014
 31
0.0
  0
LINE
  5
289
102
{ACAD_REACTORS
330
271
102
}
100
AcDbEntity
  8
M04
100
AcDbLine
 10
534.697241
 20
214.931014
 30
0.0
 11
534.947241
 21
214.931014
 31
0.0
  0
LINE
  5
28A
102
{ACAD_REACTORS
330
271
102
}
100
AcDbEntity
  8
M04
100
AcDbLine
 10
523.947241
 20
214.931014
 30
0.0
 11
523.947241
 21
210.931014
 31
0.0
  0
LINE
  5
28B
102
{ACAD_REACTORS
330
271
102
}
100
AcDbEntity
  8
M04
100
AcDbLine
 10
534.947241
 20
214.931014
 30
0.0
 11
534.947241
 21
210.931014
 31
0.0
  0
LINE
  5
28C
100
AcDbEntity
  8
M05
100
AcDbLine
 10
532.447241
 20
215.931014
 30
0.0
 11
526.447241
 21
215.931014
 31
0.0
  0
LINE
  5
28D
102
{ACAD_REACTORS
330
2C
102
}
100
AcDbEntity
  8
M04
100
AcDbLine
 10
527.147241
 20
228.231014
 30
0.0
 11
529.447241
 21
229.558919
 31
0.0
  0
LINE
  5
28E
102
{ACAD_REACTORS
330
2C
102
}
100
AcDbEntity
  8
M04
100
AcDbLine
 10
531.747241
 20
228.231014
 30
0.0
 11
529.447241
 21
229.558919
 31
0.0
  0
LINE
  5
28F
100
AcDbEntity
  8
M04
100
AcDbLine
 10
531.747241
 20
228.231014
 30
0.0
 11
527.147241
 21
228.231014
 31
0.0
  0
LINE
  5
290
102
{ACAD_REACTORS
330
2C
102
}
100
AcDbEntity
  8
M04
100
AcDbLine
 10
532.447241
 20
226.731014
 30
0.0
 11
526.447241
 21
226.731014
 31
0.0
  0
ARC
  5
291
100
AcDbEntity
  8
M05
100
AcDbCircle
 10
529.447241
 20
217.45715
 30
0.0
 40
5.826136
100
AcDbArc
 50
205.69541
 51
334.30459
  0
LINE
  5
292
100
AcDbEntity
  8
M05
100
AcDbLine
 10
526.447241
 20
224.231014
 30
0.0
 11
527.147241
 21
224.931014
 31
0.0
  0
LINE
  5
293
100
AcDbEntity
  8
M05
100
AcDbLine
 10
532.447241
 20
224.231014
 30
0.0
 11
531.747241
 21
224.931014
 31
0.0
  0
LINE
  5
294
100
AcDbEntity
  8
M05
100
AcDbLine
 10
532.447241
 20
224.231014
 30
0.0
 11
526.447241
 21
224.231014
 31
0.0
  0
LINE
  5
295
100
AcDbEntity
  8
M05
100
AcDbLine
 10
531.747241
 20
224.931014
 30
0.0
 11
527.147241
 21
224.931014
 31
0.0
  0
LINE
  5
296
102
{ACAD_REACTORS
330
271
102
}
100
AcDbEntity
  8
M04
100
AcDbLine
 10
533.147241
 20
216.931014
 30
0.0
 11
533.147241
 21
214.931014
 31
0.0
  0
LINE
  5
297
102
{ACAD_REACTORS
330
271
102
}
100
AcDbEntity
  8
M04
100
AcDbLine
 10
525.747241
 20
216.931014
 30
0.0
 11
525.747241
 21
214.931014
 31
0.0
  0
LINE
  5
298
100
AcDbEntity
  8
M05
100
AcDbLine
 10
527.147241
 20
224.931014
 30
0.0
 11
527.147241
 21
215.931014
 31
0.0
  0
LINE
  5
299
100
AcDbEntity
  8
M05
100
AcDbLine
 10
531.747241
 20
224.931014
 30
0.0
 11
531.747241
 21
215.931014
 31
0.0
  0
LINE
  5
29A
102
{ACAD_REACTORS
330
2C
102
}
100
AcDbEntity
  8
M05
100
AcDbLine
 10
532.447241
 20
224.231014
 30
0.0
 11
532.447241
 21
214.931014
 31
0.0
  0
LINE
  5
29B
102
{ACAD_REACTORS
330
2C
102
}
100
AcDbEntity
  8
M05
100
AcDbLine
 10
526.447241
 20
224.231014
 30
0.0
 11
526.447241
 21
214.931014
 31
0.0
  0
LINE
  5
29C
102
{ACAD_REACTORS
330
271
102
}
100
AcDbEntity
  8
M04
100
AcDbLine
 10
523.947241
 20
214.931014
 30
0.0
 11
524.197241
 21
214.931014
 31
0.0
  0
LINE
  5
29D
100
AcDbEntity
  8
CENTRE
100
AcDbLine
 10
529.447241
 20
232.197514
 30
0.0
 11
529.447241
 21
207.284826
 31
0.0
  0
LINE
  5
29E
102
{ACAD_REACTORS
330
271
330
2C
330
2A
102
}
100
AcDbEntity
  8
M01
100
AcDbLine
 10
584.447241
 20
216.931014
 30
0.0
 11
639.447241
 21
216.931014
 31
0.0
  0
LINE
  5
29F
102
{ACAD_REACTORS
330
2C
102
}
100
AcDbEntity
  8
M04
100
AcDbLine
 10
578.447241
 20
224.231014
 30
0.0
 11
578.447241
 21
226.731014
 31
0.0
  0
LINE
  5
2A0
102
{ACAD_REACTORS
330
2C
102
}
100
AcDbEntity
  8
M04
100
AcDbLine
 10
579.147241
 20
224.931014
 30
0.0
 11
579.147241
 21
228.231014
 31
0.0
  0
LINE
  5
2A1
102
{ACAD_REACTORS
330
2C
102
}
100
AcDbEntity
  8
M04
100
AcDbLine
 10
584.447241
 20
224.231014
 30
0.0
 11
584.447241
 21
226.731014
 31
0.0
  0
LINE
  5
2A2
102
{ACAD_REACTORS
330
2C
102
}
100
AcDbEntity
  8
M04
100
AcDbLine
 10
583.747241
 20
224.931014
 30
0.0
 11
583.747241
 21
228.231014
 31
0.0
  0
LINE
  5
2A3
102
{ACAD_REACTORS
330
271
102
}
100
AcDbEntity
  8
M05
100
AcDbLine
 10
586.697241
 20
214.931014
 30
0.0
 11
576.197241
 21
214.931014
 31
0.0
  0
LINE
  5
2A4
102
{ACAD_REACTORS
330
271
102
}
100
AcDbEntity
  8
M04
100
AcDbLine
 10
576.197241
 20
214.931014
 30
0.0
 11
575.947241
 21
214.931014
 31
0.0
  0
LINE
  5
2A5
102
{ACAD_REACTORS
330
271
102
}
100
AcDbEntity
  8
M04
100
AcDbLine
 10
586.947241
 20
214.931014
 30
0.0
 11
586.947241
 21
210.931014
 31
0.0
  0
LINE
  5
2A6
102
{ACAD_REACTORS
330
271
102
}
100
AcDbEntity
  8
M04
100
AcDbLine
 10
575.947241
 20
214.931014
 30
0.0
 11
575.947241
 21
210.931014
 31
0.0
  0
LINE
  5
2A7
100
AcDbEntity
  8
M05
100
AcDbLine
 10
578.447241
 20
215.931014
 30
0.0
 11
584.447241
 21
215.931014
 31
0.0
  0
LINE
  5
2A8
102
{ACAD_REACTORS
330
2C
102
}
100
AcDbEntity
  8
M04
100
AcDbLine
 10
583.747241
 20
228.231014
 30
0.0
 11
581.447241
 21
229.558919
 31
0.0
  0
LINE
  5
2A9
102
{ACAD_REACTORS
330
2C
102
}
100
AcDbEntity
  8
M04
100
AcDbLine
 10
579.147241
 20
228.231014
 30
0.0
 11
581.447241
 21
229.558919
 31
0.0
  0
LINE
  5
2AA
100
AcDbEntity
  8
M04
100
AcDbLine
 10
579.147241
 20
228.231014
 30
0.0
 11
583.747241
 21
228.231014
 31
0.0
  0
LINE
  5
2AB
102
{ACAD_REACTORS
330
2C
102
}
100
AcDbEntity
  8
M04
100
AcDbLine
 10
578.447241
 20
226.731014
 30
0.0
 11
584.447241
 21
226.731014
 31
0.0
  0
ARC
  5
2AC
100
AcDbEntity
  8
M05
100
AcDbCircle
 10
581.447241
 20
217.45715
 30
0.0
 40
5.826136
100
AcDbArc
 50
205.69541
 51
334.30459
  0
LINE
  5
2AD
100
AcDbEntity
  8
M05
100
AcDbLine
 10
584.447241
 20
224.231014
 30
0.0
 11
583.747241
 21
224.931014
 31
0.0
  0
LINE
  5
2AE
100
AcDbEntity
  8
M05
100
AcDbLine
 10
578.447241
 20
224.231014
 30
0.0
 11
579.147241
 21
224.931014
 31
0.0
  0
LINE
  5
2AF
100
AcDbEntity
  8
M05
100
AcDbLine
 10
578.447241
 20
224.231014
 30
0.0
 11
584.447241
 21
224.231014
 31
0.0
  0
LINE
  5
2B0
100
AcDbEntity
  8
M05
100
AcDbLine
 10
579.147241
 20
224.931014
 30
0.0
 11
583.747241
 21
224.931014
 31
0.0
  0
LINE
  5
2B1
102
{ACAD_REACTORS
330
271
102
}
100
AcDbEntity
  8
M04
100
AcDbLine
 10
577.747241
 20
216.931014
 30
0.0
 11
577.747241
 21
214.931014
 31
0.0
  0
LINE
  5
2B2
102
{ACAD_REACTORS
330
271
102
}
100
AcDbEntity
  8
M04
100
AcDbLine
 10
585.147241
 20
216.931014
 30
0.0
 11
585.147241
 21
214.931014
 31
0.0
  0
LINE
  5
2B3
100
AcDbEntity
  8
M05
100
AcDbLine
 10
583.747241
 20
224.931014
 30
0.0
 11
583.747241
 21
215.931014
 31
0.0
  0
LINE
  5
2B4
100
AcDbEntity
  8
M05
100
AcDbLine
 10
579.147241
 20
224.931014
 30
0.0
 11
579.147241
 21
215.931014
 31
0.0
  0
LINE
  5
2B5
102
{ACAD_REACTORS
330
2C
102
}
100
AcDbEntity
  8
M05
100
AcDbLine
 10
578.447241
 20
224.231014
 30
0.0
 11
578.447241
 21
214.931014
 31
0.0
  0
LINE
  5
2B6
102
{ACAD_REACTORS
330
2C
102
}
100
AcDbEntity
  8
M05
100
AcDbLine
 10
584.447241
 20
224.231014
 30
0.0
 11
584.447241
 21
214.931014
 31
0.0
  0
LINE
  5
2B7
102
{ACAD_REACTORS
330
271
102
}
100
AcDbEntity
  8
M04
100
AcDbLine
 10
586.947241
 20
214.931014
 30
0.0
 11
586.697241
 21
214.931014
 31
0.0
  0
LINE
  5
2B8
100
AcDbEntity
  8
CENTRE
100
AcDbLine
 10
581.447241
 20
232.197514
 30
0.0
 11
581.447241
 21
207.284826
 31
0.0
  0
LINE
  5
2B9
100
AcDbEntity
  8
DIMS
 62
     4
100
AcDbLine
 10
529.447241
 20
435.959226
 30
0.0
 11
529.447241
 21
439.759226
 31
0.0
  0
LINE
  5
2BA
100
AcDbEntity
  8
DIMS
 62
     4
100
AcDbLine
 10
529.447241
 20
429.159226
 30
0.0
 11
529.447241
 21
425.359226
 31
0.0
  0
LINE
  5
2BB
100
AcDbEntity
  8
DIMS
 62
     4
100
AcDbLine
 10
529.447241
 20
430.859226
 30
0.0
 11
529.447241
 21
434.259226
 31
0.0
  0
LINE
  5
2BC
100
AcDbEntity
  8
DIMS
 62
     4
100
AcDbLine
 10
581.447241
 20
435.959226
 30
0.0
 11
581.447241
 21
439.759226
 31
0.0
  0
LINE
  5
2BD
100
AcDbEntity
  8
DIMS
 62
     4
100
AcDbLine
 10
581.447241
 20
429.159226
 30
0.0
 11
581.447241
 21
425.359226
 31
0.0
  0
LINE
  5
2BE
100
AcDbEntity
  8
DIMS
 62
     4
100
AcDbLine
 10
581.447241
 20
430.859226
 30
0.0
 11
581.447241
 21
434.259226
 31
0.0
  0
MTEXT
  5
2BF
102
{ACAD_REACTORS
330
2C0
102
}
100
AcDbEntity
  8
DIMS
 62
     2
100
AcDbMText
 10
528.525168
 20
378.27526
 30
0.0
 40
3.0
 41
0.0
 71
     7
 72
     5
  1
HGX10037
  0
LEADER
  5
2C0
100
AcDbEntity
  8
DIMS
 62
     4
100
AcDbLeader
  3
DIM1$7
 73
     0
 74
     0
 75
     1
 40
3.0
 41
21.857143
 76
     3
 10
507.421701
 20
402.973989
 30
0.0
 10
524.025168
 20
379.77526
 30
0.0
 10
527.025168
 20
379.77526
 30
0.0
 77
   256
340
2BF
213
0.0
223
1.5
233
0.0
1001
ACAD
1000
DSTYLE
1002
{
1070
   288
1070
     1
1070
   144
1040
1.0
1002
}
  0
CIRCLE
  5
2C2
100
AcDbEntity
  8
M03
100
AcDbCircle
 10
581.447241
 20
432.559226
 30
0.0
 40
2.3
  0
ARC
  5
2C3
100
AcDbEntity
  8
M03
100
AcDbCircle
 10
581.447241
 20
432.559226
 30
0.0
 40
3.0
100
AcDbArc
 50
167.784636
 51
96.923103
  0
CIRCLE
  5
2C4
100
AcDbEntity
  8
M03
100
AcDbCircle
 10
581.447241
 20
432.559226
 30
0.0
 40
5.5
  0
CIRCLE
  5
2C5
100
AcDbEntity
  8
M03
100
AcDbCircle
 10
529.447241
 20
432.559226
 30
0.0
 40
2.3
  0
ARC
  5
2C6
100
AcDbEntity
  8
M03
100
AcDbCircle
 10
529.447241
 20
432.559226
 30
0.0
 40
3.0
100
AcDbArc
 50
167.784636
 51
96.923103
  0
CIRCLE
  5
2C7
100
AcDbEntity
  8
M03
100
AcDbCircle
 10
529.447241
 20
432.559226
 30
0.0
 40
5.5
  0
LINE
  5
2C8
100
AcDbEntity
  8
M03
100
AcDbLine
 10
503.147241
 20
418.059226
 30
0.0
 11
505.447241
 21
419.387132
 31
0.0
  0
LINE
  5
2C9
100
AcDbEntity
  8
M03
100
AcDbLine
 10
507.747241
 20
418.059226
 30
0.0
 11
505.447241
 21
419.387132
 31
0.0
  0
LINE
  5
2CA
100
AcDbEntity
  8
M03
100
AcDbLine
 10
507.747241
 20
418.059226
 30
0.0
 11
503.147241
 21
418.059226
 31
0.0
  0
LINE
  5
2CB
100
AcDbEntity
  8
M03
100
AcDbLine
 10
508.447241
 20
416.559226
 30
0.0
 11
502.447241
 21
416.559226
 31
0.0
  0
LINE
  5
2CC
100
AcDbEntity
  8
M03
100
AcDbLine
 10
519.754303
 20
404.459226
 30
0.0
 11
548.992763
 21
404.459226
 31
0.0
  0
LINE
  5
2CD
100
AcDbEntity
  8
M03
100
AcDbLine
 10
519.754303
 20
402.559226
 30
0.0
 11
548.992763
 21
402.559226
 31
0.0
  0
LINE
  5
2CE
100
AcDbEntity
  8
M03
100
AcDbLine
 10
512.754303
 20
404.759226
 30
0.0
 11
498.447241
 21
404.759226
 31
0.0
  0
LINE
  5
2CF
100
AcDbEntity
  8
M03
100
AcDbLine
 10
513.799068
 20
405.559226
 30
0.0
 11
513.799068
 21
404.759226
 31
0.0
  0
LINE
  5
2D0
100
AcDbEntity
  8
M03
100
AcDbLine
 10
519.754303
 20
404.759226
 30
0.0
 11
519.754303
 21
402.259226
 31
0.0
  0
LINE
  5
2D1
100
AcDbEntity
  8
M03
100
AcDbLine
 10
519.754303
 20
402.259226
 30
0.0
 11
512.754303
 21
402.259226
 31
0.0
  0
LINE
  5
2D2
100
AcDbEntity
  8
M03
100
AcDbLine
 10
512.754303
 20
404.759226
 30
0.0
 11
512.754303
 21
402.259226
 31
0.0
  0
LINE
  5
2D3
100
AcDbEntity
  8
M03
100
AcDbLine
 10
498.447241
 20
405.559226
 30
0.0
 11
498.447241
 21
404.759226
 31
0.0
  0
ARC
  5
2D4
100
AcDbEntity
  8
M03
100
AcDbCircle
 10
505.447241
 20
407.285362
 30
0.0
 40
5.826136
100
AcDbArc
 50
205.69541
 51
334.30459
  0
LINE
  5
2D5
100
AcDbEntity
  8
M03
100
AcDbLine
 10
502.447241
 20
414.059226
 30
0.0
 11
503.147241
 21
414.759226
 31
0.0
  0
LINE
  5
2D6
100
AcDbEntity
  8
M03
100
AcDbLine
 10
508.447241
 20
414.059226
 30
0.0
 11
507.747241
 21
414.759226
 31
0.0
  0
LINE
  5
2D7
100
AcDbEntity
  8
M03
100
AcDbLine
 10
508.447241
 20
414.059226
 30
0.0
 11
502.447241
 21
414.059226
 31
0.0
  0
LINE
  5
2D8
100
AcDbEntity
  8
M03
100
AcDbLine
 10
507.747241
 20
414.759226
 30
0.0
 11
503.147241
 21
414.759226
 31
0.0
  0
LINE
  5
2D9
100
AcDbEntity
  8
M03
100
AcDbLine
 10
502.447241
 20
405.559226
 30
0.0
 11
495.447241
 21
405.559226
 31
0.0
  0
LINE
  5
2DA
100
AcDbEntity
  8
M03
100
AcDbLine
 10
519.147241
 20
405.559226
 30
0.0
 11
519.147241
 21
404.759226
 31
0.0
  0
LINE
  5
2DB
100
AcDbEntity
  8
M03
100
AcDbLine
 10
501.747241
 20
405.559226
 30
0.0
 11
501.747241
 21
404.759226
 31
0.0
  0
LINE
  5
2DC
100
AcDbEntity
  8
M03
100
AcDbLine
 10
503.147241
 20
418.059226
 30
0.0
 11
503.147241
 21
404.759226
 31
0.0
  0
LINE
  5
2DD
100
AcDbEntity
  8
M03
100
AcDbLine
 10
507.747241
 20
418.059226
 30
0.0
 11
507.747241
 21
404.759226
 31
0.0
  0
LINE
  5
2DE
100
AcDbEntity
  8
M03
100
AcDbLine
 10
508.447241
 20
416.559226
 30
0.0
 11
508.447241
 21
404.759226
 31
0.0
  0
LINE
  5
2DF
100
AcDbEntity
  8
M03
100
AcDbLine
 10
502.447241
 20
416.559226
 30
0.0
 11
502.447241
 21
404.759226
 31
0.0
  0
LINE
  5
2E0
100
AcDbEntity
  8
M03
100
AcDbLine
 10
519.754303
 20
404.759226
 30
0.0
 11
513.799068
 21
404.759226
 31
0.0
  0
LINE
  5
2E1
100
AcDbEntity
  8
M03
100
AcDbLine
 10
495.447241
 20
405.559226
 30
0.0
 11
495.447241
 21
400.559226
 31
0.0
  0
LINE
  5
2E2
100
AcDbEntity
  8
M03
100
AcDbLine
 10
555.447241
 20
405.559226
 30
0.0
 11
508.447241
 21
405.559226
 31
0.0
  0
LINE
  5
2E3
100
AcDbEntity
  8
CENTRE
100
AcDbLine
 10
505.447241
 20
423.757899
 30
0.0
 11
505.447241
 21
396.597749
 31
0.0
  0
CIRCLE
  5
2E4
100
AcDbEntity
  8
M03
100
AcDbCircle
 10
480.447241
 20
432.559226
 30
0.0
 40
2.3
  0
ARC
  5
2E5
100
AcDbEntity
  8
M03
100
AcDbCircle
 10
480.447241
 20
432.559226
 30
0.0
 40
3.0
100
AcDbArc
 50
167.784636
 51
96.923103
  0
LINE
  5
2E6
100
AcDbEntity
  8
DIMS
 62
     4
100
AcDbLine
 10
480.447241
 20
435.959226
 30
0.0
 11
480.447241
 21
449.259226
 31
0.0
  0
LINE
  5
2E7
100
AcDbEntity
  8
DIMS
 62
     4
100
AcDbLine
 10
480.447241
 20
429.159226
 30
0.0
 11
480.447241
 21
415.859226
 31
0.0
  0
LINE
  5
2E8
100
AcDbEntity
  8
DIMS
 62
     4
100
AcDbLine
 10
480.447241
 20
430.859226
 30
0.0
 11
480.447241
 21
434.259226
 31
0.0
  0
LINE
  5
2E9
100
AcDbEntity
  8
M03
100
AcDbLine
 10
479.897241
 20
426.584488
 30
0.0
 11
479.897241
 21
438.533965
 31
0.0
  0
LINE
  5
2EA
100
AcDbEntity
  8
M03
100
AcDbLine
 10
480.997241
 20
426.584488
 30
0.0
 11
480.997241
 21
438.533965
 31
0.0
  0
CIRCLE
  5
2EB
100
AcDbEntity
  8
M03
100
AcDbCircle
 10
480.447241
 20
432.559226
 30
0.0
 40
15.0
  0
CIRCLE
  5
2EC
100
AcDbEntity
  8
M03
100
AcDbCircle
 10
480.447241
 20
432.559226
 30
0.0
 40
14.0
  0
CIRCLE
  5
2ED
100
AcDbEntity
  8
M03
100
AcDbCircle
 10
480.447241
 20
432.559226
 30
0.0
 40
7.858882
  0
CIRCLE
  5
2EE
100
AcDbEntity
  8
M03
100
AcDbCircle
 10
480.447241
 20
432.559226
 30
0.0
 40
6.0
  0
ARC
  5
2EF
100
AcDbEntity
  8
M03
100
AcDbCircle
 10
555.447241
 20
432.559226
 30
0.0
 40
34.0
100
AcDbArc
 50
289.749923
 51
70.250077
  0
MTEXT
  5
2F0
102
{ACAD_REACTORS
330
2F1
102
}
100
AcDbEntity
  8
HATCH
 62
     2
100
AcDbMText
 10
457.155751
 20
199.089788
 30
0.0
 40
3.0
 41
0.0
 71
     6
 72
     5
  1
MA010006
  0
LEADER
  5
2F1
100
AcDbEntity
  8
HATCH
 62
     4
100
AcDbLeader
  3
DIM1$7
 73
     0
 75
     1
 40
3.0
 41
22.142857
 76
     3
 10
471.078577
 20
211.561727
 30
0.0
 10
461.655751
 20
199.089788
 30
0.0
 10
458.655751
 20
199.089788
 30
0.0
 77
   256
340
2F0
1001
ACAD
1000
DSTYLE
1002
{
1070
   144
1040
1.0
1002
}
  0
LINE
  5
2F2
102
{ACAD_REACTORS
330
24A
102
}
100
AcDbEntity
  8
M04
100
AcDbLine
 10
483.447241
 20
209.931014
 30
0.0
 11
535.947241
 21
209.931014
 31
0.0
  0
LINE
  5
2F3
102
{ACAD_REACTORS
330
2A
102
}
100
AcDbEntity
  8
M02
100
AcDbLine
 10
494.447241
 20
213.931014
 30
0.0
 11
521.447241
 21
213.931014
 31
0.0
  0
LINE
  5
2F4
100
AcDbEntity
  8
M04
100
AcDbLine
 10
480.447241
 20
192.103108
 30
0.0
 11
482.747241
 21
193.431014
 31
0.0
  0
LINE
  5
2F5
100
AcDbEntity
  8
M04
100
AcDbLine
 10
478.147241
 20
193.431014
 30
0.0
 11
480.447241
 21
192.103108
 31
0.0
  0
LINE
  5
2F6
100
AcDbEntity
  8
M04
100
AcDbLine
 10
478.147241
 20
193.431014
 30
0.0
 11
482.747241
 21
193.431014
 31
0.0
  0
LINE
  5
2F7
100
AcDbEntity
  8
M04
100
AcDbLine
 10
477.447241
 20
198.492132
 30
0.0
 11
477.447241
 21
194.931014
 31
0.0
  0
LINE
  5
2F8
100
AcDbEntity
  8
M04
100
AcDbLine
 10
478.147241
 20
197.792132
 30
0.0
 11
478.147241
 21
193.431014
 31
0.0
  0
LINE
  5
2F9
100
AcDbEntity
  8
M04
100
AcDbLine
 10
483.447241
 20
198.492132
 30
0.0
 11
483.447241
 21
194.931014
 31
0.0
  0
LINE
  5
2FA
100
AcDbEntity
  8
M04
100
AcDbLine
 10
482.747241
 20
197.792132
 30
0.0
 11
482.747241
 21
193.431014
 31
0.0
  0
LINE
  5
2FB
100
AcDbEntity
  8
M05
100
AcDbLine
 10
482.747241
 20
197.792132
 30
0.0
 11
483.447241
 21
198.492132
 31
0.0
  0
LINE
  5
2FC
100
AcDbEntity
  8
M05
100
AcDbLine
 10
477.447241
 20
198.492132
 30
0.0
 11
478.147241
 21
197.792132
 31
0.0
  0
LINE
  5
2FD
100
AcDbEntity
  8
M05
100
AcDbLine
 10
482.747241
 20
210.572132
 30
0.0
 11
482.747241
 21
197.792132
 31
0.0
  0
LINE
  5
2FE
100
AcDbEntity
  8
M05
100
AcDbLine
 10
478.147241
 20
210.572132
 30
0.0
 11
478.147241
 21
197.792132
 31
0.0
  0
LINE
  5
2FF
100
AcDbEntity
  8
M05
100
AcDbLine
 10
477.447241
 20
198.492132
 30
0.0
 11
483.447241
 21
198.492132
 31
0.0
  0
LINE
  5
300
100
AcDbEntity
  8
M04
100
AcDbLine
 10
477.447241
 20
194.931014
 30
0.0
 11
483.447241
 21
194.931014
 31
0.0
  0
LINE
  5
301
100
AcDbEntity
  8
M05
100
AcDbLine
 10
478.147241
 20
197.792132
 30
0.0
 11
482.747241
 21
197.792132
 31
0.0
  0
LINE
  5
302
100
AcDbEntity
  8
M05
  6
HIDDEN
100
AcDbLine
 10
472.288359
 20
217.231014
 30
0.0
 11
471.588359
 21
217.931014
 31
0.0
  0
LINE
  5
303
100
AcDbEntity
  8
M05
  6
HIDDEN
100
AcDbLine
 10
488.606123
 20
217.231014
 30
0.0
 11
489.306123
 21
217.931014
 31
0.0
  0
LINE
  5
304
100
AcDbEntity
  8
M05
100
AcDbLine
 10
477.447241
 20
210.572132
 30
0.0
 11
483.447241
 21
210.572132
 31
0.0
  0
LINE
  5
305
100
AcDbEntity
  8
M05
100
AcDbLine
 10
480.997241
 20
215.072132
 30
0.0
 11
486.447241
 21
215.072132
 31
0.0
  0
LINE
  5
306
100
AcDbEntity
  8
M05
100
AcDbLine
 10
480.997241
 20
215.792132
 30
0.0
 11
486.447241
 21
215.792132
 31
0.0
  0
LINE
  5
307
100
AcDbEntity
  8
M05
100
AcDbLine
 10
480.997241
 20
215.792132
 30
0.0
 11
480.997241
 21
214.292132
 31
0.0
  0
LINE
  5
308
100
AcDbEntity
  8
M05
100
AcDbLine
 10
479.897241
 20
215.792132
 30
0.0
 11
479.897241
 21
214.292132
 31
0.0
  0
LINE
  5
309
100
AcDbEntity
  8
M05
100
AcDbLine
 10
479.897241
 20
214.292132
 30
0.0
 11
480.997241
 21
214.292132
 31
0.0
  0
LINE
  5
30A
102
{ACAD_REACTORS
330
24A
102
}
100
AcDbEntity
  8
M05
100
AcDbLine
 10
483.947241
 20
212.572132
 30
0.0
 11
483.947241
 21
209.931014
 31
0.0
  0
LINE
  5
30B
102
{ACAD_REACTORS
330
24A
102
}
100
AcDbEntity
  8
M05
100
AcDbLine
 10
476.947241
 20
212.572132
 30
0.0
 11
476.947241
 21
209.931014
 31
0.0
  0
LINE
  5
30C
100
AcDbEntity
  8
M05
100
AcDbLine
 10
474.447241
 20
215.072132
 30
0.0
 11
479.897241
 21
215.072132
 31
0.0
  0
LINE
  5
30D
102
{ACAD_REACTORS
330
24A
102
}
100
AcDbEntity
  8
M05
100
AcDbLine
 10
477.447241
 20
212.072132
 30
0.0
 11
472.288359
 21
217.231014
 31
0.0
  0
LINE
  5
30E
100
AcDbEntity
  8
M05
100
AcDbLine
 10
474.447241
 20
215.792132
 30
0.0
 11
474.447241
 21
215.072132
 31
0.0
  0
LINE
  5
30F
102
{ACAD_REACTORS
330
24A
102
}
100
AcDbEntity
  8
M05
100
AcDbLine
 10
483.447241
 20
212.072132
 30
0.0
 11
488.606123
 21
217.231014
 31
0.0
  0
LINE
  5
310
100
AcDbEntity
  8
M05
100
AcDbLine
 10
477.447241
 20
212.072132
 30
0.0
 11
483.447241
 21
212.072132
 31
0.0
  0
LINE
  5
311
100
AcDbEntity
  8
M05
100
AcDbLine
 10
477.447241
 20
212.072132
 30
0.0
 11
477.447241
 21
198.492132
 31
0.0
  0
LINE
  5
312
100
AcDbEntity
  8
M05
100
AcDbLine
 10
483.447241
 20
212.072132
 30
0.0
 11
483.447241
 21
198.492132
 31
0.0
  0
LINE
  5
313
100
AcDbEntity
  8
M05
100
AcDbLine
 10
486.447241
 20
215.792132
 30
0.0
 11
486.447241
 21
215.072132
 31
0.0
  0
LINE
  5
314
100
AcDbEntity
  8
M05
100
AcDbLine
 10
474.447241
 20
215.792132
 30
0.0
 11
479.897241
 21
215.792132
 31
0.0
  0
LINE
  5
315
100
AcDbEntity
  8
M05
  6
HIDDEN
100
AcDbLine
 10
466.447241
 20
217.231014
 30
0.0
 11
494.447241
 21
217.231014
 31
0.0
  0
LINE
  5
316
102
{ACAD_REACTORS
330
2C
102
}
100
AcDbEntity
  8
M05
  6
HIDDEN
100
AcDbLine
 10
494.447241
 20
217.231014
 30
0.0
 11
493.747241
 21
217.931014
 31
0.0
  0
LINE
  5
317
102
{ACAD_REACTORS
330
2C
102
}
100
AcDbEntity
  8
M05
  6
HIDDEN
100
AcDbLine
 10
494.447241
 20
216.231014
 30
0.0
 11
494.447241
 21
217.231014
 31
0.0
  0
LINE
  5
318
102
{ACAD_REACTORS
330
24A
102
}
100
AcDbEntity
  8
M05
100
AcDbLine
 10
494.447241
 20
216.231014
 30
0.0
 11
493.747241
 21
216.931014
 31
0.0
  0
LINE
  5
319
102
{ACAD_REACTORS
330
24A
102
}
100
AcDbEntity
  8
M05
100
AcDbLine
 10
494.447241
 20
210.631014
 30
0.0
 11
493.747241
 21
209.931014
 31
0.0
  0
LINE
  5
31A
102
{ACAD_REACTORS
330
24A
102
}
100
AcDbEntity
  8
M05
100
AcDbLine
 10
494.447241
 20
216.231014
 30
0.0
 11
494.447241
 21
210.631014
 31
0.0
  0
LINE
  5
31B
102
{ACAD_REACTORS
330
2C
102
}
100
AcDbEntity
  8
M05
  6
HIDDEN
100
AcDbLine
 10
466.447241
 20
217.231014
 30
0.0
 11
467.147241
 21
217.931014
 31
0.0
  0
LINE
  5
31C
102
{ACAD_REACTORS
330
2C
102
}
100
AcDbEntity
  8
M05
  6
HIDDEN
100
AcDbLine
 10
466.447241
 20
216.231014
 30
0.0
 11
466.447241
 21
217.231014
 31
0.0
  0
LINE
  5
31D
102
{ACAD_REACTORS
330
24A
102
}
100
AcDbEntity
  8
M05
100
AcDbLine
 10
466.447241
 20
216.231014
 30
0.0
 11
467.147241
 21
216.931014
 31
0.0
  0
LINE
  5
31E
102
{ACAD_REACTORS
330
24A
102
}
100
AcDbEntity
  8
M05
100
AcDbLine
 10
466.447241
 20
210.631014
 30
0.0
 11
467.147241
 21
209.931014
 31
0.0
  0
LINE
  5
31F
102
{ACAD_REACTORS
330
2A
102
}
100
AcDbEntity
  8
M02
100
AcDbLine
 10
495.447241
 20
216.931014
 30
0.0
 11
495.447241
 21
213.931014
 31
0.0
  0
LINE
  5
320
102
{ACAD_REACTORS
330
29
102
}
100
AcDbEntity
  8
M02
100
AcDbLine
 10
465.447241
 20
216.931014
 30
0.0
 11
465.447241
 21
213.931014
 31
0.0
  0
LINE
  5
321
102
{ACAD_REACTORS
330
2C
102
}
100
AcDbEntity
  8
M05
  6
HIDDEN
100
AcDbLine
 10
467.147241
 20
217.931014
 30
0.0
 11
493.747241
 21
217.931014
 31
0.0
  0
LINE
  5
322
102
{ACAD_REACTORS
330
24A
102
}
100
AcDbEntity
  8
M05
100
AcDbLine
 10
466.447241
 20
216.231014
 30
0.0
 11
466.447241
 21
210.631014
 31
0.0
  0
LINE
  5
323
100
AcDbEntity
  8
CENTRE
100
AcDbLine
 10
480.447241
 20
188.146977
 30
0.0
 11
480.447241
 21
274.279311
 31
0.0
  0
LINE
  5
324
100
AcDbEntity
  8
M01
100
AcDbLine
 10
484.447241
 20
244.431014
 30
0.0
 11
480.447241
 21
240.431014
 31
0.0
  0
LINE
  5
325
102
{ACAD_REACTORS
330
2C
102
}
100
AcDbEntity
  8
M01
100
AcDbLine
 10
551.447241
 20
236.431014
 30
0.0
 11
480.447241
 21
236.431014
 31
0.0
  0
LINE
  5
326
102
{ACAD_REACTORS
330
2C
102
}
100
AcDbEntity
  8
M01
100
AcDbLine
 10
484.447241
 20
244.431014
 30
0.0
 11
484.447241
 21
263.931014
 31
0.0
  0
LINE
  5
327
102
{ACAD_REACTORS
330
2C
102
}
100
AcDbEntity
  8
M01
100
AcDbLine
 10
476.447241
 20
240.431014
 30
0.0
 11
476.447241
 21
263.931014
 31
0.0
  0
ARC
  5
328
102
{ACAD_REACTORS
330
2C
102
}
100
AcDbEntity
  8
M01
100
AcDbCircle
 10
480.447241
 20
240.431014
 30
0.0
 40
4.0
100
AcDbArc
 50
180.0
 51
270.0
  0
LINE
  5
329
100
AcDbEntity
  8
M01
100
AcDbLine
 10
551.447241
 20
236.431014
 30
0.0
 11
555.447241
 21
240.431014
 31
0.0
  0
LINE
  5
32A
102
{ACAD_REACTORS
330
2C
102
}
100
AcDbEntity
  8
M01
100
AcDbLine
 10
484.447241
 20
244.431014
 30
0.0
 11
555.447241
 21
244.431014
 31
0.0
  0
TEXT
  5
32B
102
{ACAD_REACTORS
330
271
102
}
100
AcDbEntity
  8
TEXT
100
AcDbText
 10
560.521321
 20
212.498501
 30
0.0
 40
2.0
  1
MA010000
 41
0.9
100
AcDbText
  0
LINE
  5
32C
100
AcDbEntity
  8
M04
100
AcDbLine
 10
525.447241
 20
191.931014
 30
0.0
 11
525.447241
 21
182.931014
 31
0.0
  0
LINE
  5
32D
100
AcDbEntity
  8
M04
100
AcDbLine
 10
574.947241
 20
209.931014
 30
0.0
 11
722.118719
 21
209.931014
 31
0.0
  0
LINE
  5
32E
102
{ACAD_REACTORS
330
2A
102
}
100
AcDbEntity
  8
M02
100
AcDbLine
 10
589.447241
 20
213.931014
 30
0.0
 11
639.447241
 21
213.931014
 31
0.0
  0
LINE
  5
32F
102
{ACAD_REACTORS
330
271
102
}
100
AcDbEntity
  8
M05
100
AcDbLine
 10
521.447241
 20
211.631014
 30
0.0
 11
522.147241
 21
210.931014
 31
0.0
  0
LINE
  5
330
102
{ACAD_REACTORS
330
2A
102
}
100
AcDbEntity
  8
M02
100
AcDbLine
 10
520.447241
 20
216.931014
 30
0.0
 11
520.447241
 21
213.931014
 31
0.0
  0
LINE
  5
331
102
{ACAD_REACTORS
330
271
330
2C
102
}
100
AcDbEntity
  8
M01
100
AcDbLine
 10
565.447241
 20
216.931014
 30
0.0
 11
578.447241
 21
216.931014
 31
0.0
  0
LINE
  5
332
100
AcDbEntity
  8
M04
100
AcDbLine
 10
525.447241
 20
191.931014
 30
0.0
 11
585.447241
 21
191.931014
 31
0.0
  0
LINE
  5
333
100
AcDbEntity
  8
M04
100
AcDbLine
 10
535.447241
 20
201.931014
 30
0.0
 11
525.447241
 21
191.931014
 31
0.0
  0
LINE
  5
334
100
AcDbEntity
  8
M04
100
AcDbLine
 10
585.447241
 20
191.931014
 30
0.0
 11
585.447241
 21
182.931014
 31
0.0
  0
LINE
  5
335
100
AcDbEntity
  8
M04
100
AcDbLine
 10
575.447241
 20
201.931014
 30
0.0
 11
585.447241
 21
191.931014
 31
0.0
  0
LINE
  5
336
100
AcDbEntity
  8
M05
100
AcDbLine
 10
552.406367
 20
208.6298
 30
0.0
 11
558.488115
 21
208.6298
 31
0.0
  0
ARC
  5
337
102
{ACAD_REACTORS
330
271
102
}
100
AcDbEntity
  8
M05
100
AcDbCircle
 10
555.447241
 20
193.431014
 30
0.0
 40
15.5
100
AcDbArc
 50
101.313981
 51
126.249321
  0
LINE
  5
338
102
{ACAD_REACTORS
330
2C
102
}
100
AcDbEntity
  8
M01
100
AcDbLine
 10
551.447241
 20
236.431014
 30
0.0
 11
551.447241
 21
226.931014
 31
0.0
  0
LINE
  5
339
102
{ACAD_REACTORS
330
271
102
}
100
AcDbEntity
  8
M05
100
AcDbLine
 10
551.447241
 20
226.931014
 30
0.0
 11
552.406367
 21
208.6298
 31
0.0
  0
LINE
  5
33A
102
{ACAD_REACTORS
330
271
102
}
100
AcDbEntity
  8
M05
100
AcDbLine
 10
559.447241
 20
226.931014
 30
0.0
 11
558.488115
 21
208.6298
 31
0.0
  0
ARC
  5
33B
102
{ACAD_REACTORS
330
271
102
}
100
AcDbEntity
  8
M05
100
AcDbCircle
 10
555.447241
 20
193.431014
 30
0.0
 40
15.5
100
AcDbArc
 50
53.750679
 51
78.686019
  0
LINE
  5
33C
102
{ACAD_REACTORS
330
2C
102
}
100
AcDbEntity
  8
M01
100
AcDbLine
 10
559.447241
 20
240.431014
 30
0.0
 11
559.447241
 21
226.931014
 31
0.0
  0
LINE
  5
33D
100
AcDbEntity
  8
M04
100
AcDbLine
 10
535.447241
 20
207.931014
 30
0.0
 11
535.447241
 21
209.931014
 31
0.0
  0
LINE
  5
33E
100
AcDbEntity
  8
M04
100
AcDbLine
 10
535.447241
 20
206.631014
 30
0.0
 11
535.447241
 21
201.931014
 31
0.0
  0
LINE
  5
33F
100
AcDbEntity
  8
M04
100
AcDbLine
 10
575.447241
 20
207.931014
 30
0.0
 11
575.447241
 21
209.931014
 31
0.0
  0
LINE
  5
340
100
AcDbEntity
  8
M04
100
AcDbLine
 10
575.447241
 20
206.631014
 30
0.0
 11
575.447241
 21
201.931014
 31
0.0
  0
LINE
  5
341
100
AcDbEntity
  8
M04
100
AcDbLine
 10
575.447241
 20
201.931014
 30
0.0
 11
535.447241
 21
201.931014
 31
0.0
  0
LINE
  5
342
102
{ACAD_REACTORS
330
271
102
}
100
AcDbEntity
  8
M05
100
AcDbLine
 10
535.947241
 20
207.931014
 30
0.0
 11
535.447241
 21
207.931014
 31
0.0
  0
LINE
  5
343
102
{ACAD_REACTORS
330
271
102
}
100
AcDbEntity
  8
M05
100
AcDbLine
 10
535.947241
 20
210.931014
 30
0.0
 11
522.147241
 21
210.931014
 31
0.0
  0
LINE
  5
344
102
{ACAD_REACTORS
330
271
102
}
100
AcDbEntity
  8
M05
100
AcDbLine
 10
535.947241
 20
210.931014
 30
0.0
 11
535.947241
 21
207.931014
 31
0.0
  0
LINE
  5
345
102
{ACAD_REACTORS
330
271
102
}
100
AcDbEntity
  8
M05
100
AcDbLine
 10
574.947241
 20
210.931014
 30
0.0
 11
574.947241
 21
207.931014
 31
0.0
  0
LINE
  5
346
102
{ACAD_REACTORS
330
271
102
}
100
AcDbEntity
  8
M05
100
AcDbLine
 10
575.447241
 20
207.931014
 30
0.0
 11
574.947241
 21
207.931014
 31
0.0
  0
LINE
  5
347
102
{ACAD_REACTORS
330
271
102
}
100
AcDbEntity
  8
M05
100
AcDbLine
 10
536.147241
 20
205.931014
 30
0.0
 11
535.447241
 21
206.631014
 31
0.0
  0
LINE
  5
348
102
{ACAD_REACTORS
330
271
102
}
100
AcDbEntity
  8
M05
100
AcDbLine
 10
574.747241
 20
205.931014
 30
0.0
 11
575.447241
 21
206.631014
 31
0.0
  0
LINE
  5
349
102
{ACAD_REACTORS
330
271
102
}
100
AcDbEntity
  8
M05
100
AcDbLine
 10
574.747241
 20
205.931014
 30
0.0
 11
536.147241
 21
205.931014
 31
0.0
  0
LINE
  5
34A
102
{ACAD_REACTORS
330
271
102
}
100
AcDbEntity
  8
M05
100
AcDbLine
 10
535.447241
 20
207.931014
 30
0.0
 11
535.447241
 21
206.631014
 31
0.0
  0
LINE
  5
34B
102
{ACAD_REACTORS
330
271
102
}
100
AcDbEntity
  8
M05
100
AcDbLine
 10
575.447241
 20
207.931014
 30
0.0
 11
575.447241
 21
206.631014
 31
0.0
  0
LINE
  5
34C
102
{ACAD_REACTORS
330
2C
102
}
100
AcDbEntity
  8
M04
100
AcDbLine
 10
545.447241
 20
217.431014
 30
0.0
 11
544.947241
 21
216.931014
 31
0.0
  0
LINE
  5
34D
102
{ACAD_REACTORS
330
2C
102
}
100
AcDbEntity
  8
M04
100
AcDbLine
 10
565.447241
 20
217.431014
 30
0.0
 11
565.947241
 21
216.931014
 31
0.0
  0
LINE
  5
34E
102
{ACAD_REACTORS
330
271
102
}
100
AcDbEntity
  8
M05
100
AcDbLine
 10
521.447241
 20
216.231014
 30
0.0
 11
522.147241
 21
216.931014
 31
0.0
  0
LINE
  5
34F
102
{ACAD_REACTORS
330
271
102
}
100
AcDbEntity
  8
M05
100
AcDbLine
 10
521.447241
 20
216.231014
 30
0.0
 11
521.447241
 21
211.631014
 31
0.0
  0
LINE
  5
350
102
{ACAD_REACTORS
330
271
102
}
100
AcDbEntity
  8
M05
100
AcDbLine
 10
589.447241
 20
216.231014
 30
0.0
 11
588.747241
 21
216.931014
 31
0.0
  0
LINE
  5
351
102
{ACAD_REACTORS
330
271
102
}
100
AcDbEntity
  8
M05
100
AcDbLine
 10
589.447241
 20
211.631014
 30
0.0
 11
588.747241
 21
210.931014
 31
0.0
  0
LINE
  5
352
102
{ACAD_REACTORS
330
2A
102
}
100
AcDbEntity
  8
M02
100
AcDbLine
 10
590.447241
 20
216.931014
 30
0.0
 11
590.447241
 21
213.931014
 31
0.0
  0
LINE
  5
353
102
{ACAD_REACTORS
330
271
102
}
100
AcDbEntity
  8
M05
100
AcDbLine
 10
588.747241
 20
210.931014
 30
0.0
 11
574.947241
 21
210.931014
 31
0.0
  0
LINE
  5
354
102
{ACAD_REACTORS
330
271
102
}
100
AcDbEntity
  8
M05
100
AcDbLine
 10
589.447241
 20
216.231014
 30
0.0
 11
589.447241
 21
211.631014
 31
0.0
  0
LINE
  5
355
102
{ACAD_REACTORS
330
2C
102
}
100
AcDbEntity
  8
M04
100
AcDbLine
 10
545.447241
 20
225.931014
 30
0.0
 11
545.447241
 21
226.931014
 31
0.0
  0
LINE
  5
356
102
{ACAD_REACTORS
330
2C
102
}
100
AcDbEntity
  8
M04
100
AcDbLine
 10
546.447241
 20
226.931014
 30
0.0
 11
545.447241
 21
226.931014
 31
0.0
  0
LINE
  5
357
102
{ACAD_REACTORS
330
2C
102
}
100
AcDbEntity
  8
M04
100
AcDbLine
 10
565.447241
 20
225.931014
 30
0.0
 11
565.447241
 21
226.931014
 31
0.0
  0
LINE
  5
358
102
{ACAD_REACTORS
330
2C
102
}
100
AcDbEntity
  8
M04
100
AcDbLine
 10
564.447241
 20
226.931014
 30
0.0
 11
565.447241
 21
226.931014
 31
0.0
  0
LINE
  5
359
102
{ACAD_REACTORS
330
271
102
}
100
AcDbEntity
  8
M05
100
AcDbLine
 10
564.447241
 20
226.931014
 30
0.0
 11
565.447241
 21
225.931014
 31
0.0
  0
LINE
  5
35A
102
{ACAD_REACTORS
330
271
102
}
100
AcDbEntity
  8
M05
100
AcDbLine
 10
545.447241
 20
225.931014
 30
0.0
 11
546.447241
 21
226.931014
 31
0.0
  0
LINE
  5
35B
102
{ACAD_REACTORS
330
271
330
2C
102
}
100
AcDbEntity
  8
M05
100
AcDbLine
 10
564.447241
 20
226.931014
 30
0.0
 11
546.447241
 21
226.931014
 31
0.0
  0
LINE
  5
35C
102
{ACAD_REACTORS
330
271
330
2C
102
}
100
AcDbEntity
  8
M05
100
AcDbLine
 10
545.447241
 20
225.931014
 30
0.0
 11
545.447241
 21
216.931014
 31
0.0
  0
LINE
  5
35D
102
{ACAD_REACTORS
330
271
330
2C
102
}
100
AcDbEntity
  8
M05
100
AcDbLine
 10
565.447241
 20
225.931014
 30
0.0
 11
565.447241
 21
216.931014
 31
0.0
  0
LINE
  5
35E
102
{ACAD_REACTORS
330
29
102
}
100
AcDbEntity
  8
M02
100
AcDbLine
 10
392.447241
 20
213.931014
 30
0.0
 11
466.447241
 21
213.931014
 31
0.0
  0
LINE
  5
35F
102
{ACAD_REACTORS
330
2A
102
}
100
AcDbEntity
  8
M02
100
AcDbLine
 10
639.447241
 20
216.931014
 30
0.0
 11
639.447241
 21
213.931014
 31
0.0
  0
LINE
  5
360
102
{ACAD_REACTORS
330
29
102
}
100
AcDbEntity
  8
M02
100
AcDbLine
 10
392.447241
 20
216.931014
 30
0.0
 11
392.447241
 21
213.931014
 31
0.0
  0
LINE
  5
361
102
{ACAD_REACTORS
330
2A
330
29
102
}
100
AcDbEntity
  8
M02
100
AcDbLine
 10
392.447241
 20
266.931014
 30
0.0
 11
521.447241
 21
266.931014
 31
0.0
  0
LINE
  5
362
102
{ACAD_REACTORS
330
2A
102
}
100
AcDbEntity
  8
M02
100
AcDbLine
 10
639.447241
 20
263.931014
 30
0.0
 11
639.447241
 21
266.931014
 31
0.0
  0
LINE
  5
363
102
{ACAD_REACTORS
330
29
102
}
100
AcDbEntity
  8
M02
100
AcDbLine
 10
392.447241
 20
263.931014
 30
0.0
 11
392.447241
 21
266.931014
 31
0.0
  0
LINE
  5
364
102
{ACAD_REACTORS
330
2C
102
}
100
AcDbEntity
  8
M01
100
AcDbLine
 10
641.447241
 20
218.931014
 30
0.0
 11
639.447241
 21
216.931014
 31
0.0
  0
LINE
  5
365
102
{ACAD_REACTORS
330
2C
102
}
100
AcDbEntity
  8
M01
100
AcDbLine
 10
639.447241
 20
263.931014
 30
0.0
 11
641.447241
 21
261.931014
 31
0.0
  0
LINE
  5
366
102
{ACAD_REACTORS
330
2C
102
}
100
AcDbEntity
  8
M01
100
AcDbLine
 10
390.447241
 20
261.931014
 30
0.0
 11
392.447241
 21
263.931014
 31
0.0
  0
LINE
  5
367
102
{ACAD_REACTORS
330
2C
102
}
100
AcDbEntity
  8
M01
100
AcDbLine
 10
392.447241
 20
216.931014
 30
0.0
 11
390.447241
 21
218.931014
 31
0.0
  0
LINE
  5
368
102
{ACAD_REACTORS
330
2C
102
}
100
AcDbEntity
  8
M01
100
AcDbLine
 10
641.447241
 20
261.931014
 30
0.0
 11
641.447241
 21
218.931014
 31
0.0
  0
LINE
  5
369
102
{ACAD_REACTORS
330
2C
102
}
100
AcDbEntity
  8
M01
100
AcDbLine
 10
390.447241
 20
261.931014
 30
0.0
 11
390.447241
 21
218.931014
 31
0.0
  0
LINE
  5
36A
102
{ACAD_REACTORS
330
271
330
24A
330
2C
330
2A
330
29
102
}
100
AcDbEntity
  8
M01
100
AcDbLine
 10
392.447241
 20
216.931014
 30
0.0
 11
545.447241
 21
216.931014
 31
0.0
  0
LINE
  5
36B
102
{ACAD_REACTORS
330
2C
330
2A
330
29
102
}
100
AcDbEntity
  8
M01
100
AcDbLine
 10
392.447241
 20
263.931014
 30
0.0
 11
521.447241
 21
263.931014
 31
0.0
  0
LINE
  5
36C
100
AcDbEntity
  8
M04
100
AcDbLine
 10
383.447241
 20
270.931014
 30
0.0
 11
521.447241
 21
270.931014
 31
0.0
  0
LINE
  5
36D
102
{ACAD_REACTORS
330
2C
102
}
100
AcDbEntity
  8
CENTRE
100
AcDbLine
 10
555.447241
 20
299.41613
 30
0.0
 11
555.447241
 21
180.424525
 31
0.0
  0
LINE
  5
36E
100
AcDbEntity
  8
M04
100
AcDbLine
 10
701.447241
 20
270.931014
 30
0.0
 11
701.447241
 21
209.931014
 31
0.0
  0
LINE
  5
36F
100
AcDbEntity
  8
M04
100
AcDbLine
 10
383.447241
 20
270.931014
 30
0.0
 11
383.447241
 21
209.931014
 31
0.0
  0
LINE
  5
370
102
{ACAD_REACTORS
330
24A
102
}
100
AcDbEntity
  8
M04
100
AcDbLine
 10
371.933849
 20
209.931014
 30
0.0
 11
477.447241
 21
209.931014
 31
0.0
  0
LINE
  5
371
100
AcDbEntity
  8
M04
100
AcDbLine
 10
701.447241
 20
408.559226
 30
0.0
 11
722.118719
 21
408.559226
 31
0.0
  0
LINE
  5
372
100
AcDbEntity
  8
M04
100
AcDbLine
 10
701.447241
 20
442.559226
 30
0.0
 11
722.118719
 21
442.559226
 31
0.0
  0
CIRCLE
  5
373
100
AcDbEntity
  8
M03
100
AcDbCircle
 10
555.447241
 20
432.559226
 30
0.0
 40
20.0
  0
ARC
  5
374
100
AcDbEntity
  8
M04
100
AcDbCircle
 10
398.447241
 20
408.559226
 30
0.0
 40
15.0
100
AcDbArc
 50
180.0
 51
270.0
  0
ARC
  5
375
100
AcDbEntity
  8
M04
100
AcDbCircle
 10
398.447241
 20
456.559226
 30
0.0
 40
15.0
100
AcDbArc
 50
90.0
 51
180.0
  0
LINE
  5
376
100
AcDbEntity
  8
M04
100
AcDbLine
 10
383.447241
 20
456.559226
 30
0.0
 11
383.447241
 21
408.559226
 31
0.0
  0
LINE
  5
377
100
AcDbEntity
  8
M04
100
AcDbLine
 10
398.447241
 20
471.559226
 30
0.0
 11
686.447241
 21
471.559226
 31
0.0
  0
LINE
  5
378
100
AcDbEntity
  8
M04
100
AcDbLine
 10
398.447241
 20
393.559226
 30
0.0
 11
686.447241
 21
393.559226
 31
0.0
  0
CIRCLE
  5
379
100
AcDbEntity
  8
M03
100
AcDbCircle
 10
555.447241
 20
432.559226
 30
0.0
 40
4.0
  0
LINE
  5
37A
100
AcDbEntity
  8
M03
100
AcDbLine
 10
480.447241
 20
428.559226
 30
0.0
 11
555.447241
 21
428.559226
 31
0.0
  0
LINE
  5
37B
100
AcDbEntity
  8
M03
100
AcDbLine
 10
480.447241
 20
436.559226
 30
0.0
 11
555.447241
 21
436.559226
 31
0.0
  0
CIRCLE
  5
37C
100
AcDbEntity
  8
M01
100
AcDbCircle
 10
480.447241
 20
432.559226
 30
0.0
 40
4.0
  0
LINE
  5
37D
100
AcDbEntity
  8
M01
100
AcDbLine
 10
390.447241
 20
452.559226
 30
0.0
 11
402.447241
 21
464.559226
 31
0.0
  0
LINE
  5
37E
100
AcDbEntity
  8
M01
100
AcDbLine
 10
402.447241
 20
400.559226
 30
0.0
 11
390.447241
 21
412.559226
 31
0.0
  0
LINE
  5
37F
100
AcDbEntity
  8
M01
100
AcDbLine
 10
402.447241
 20
400.559226
 30
0.0
 11
639.447241
 21
400.559226
 31
0.0
  0
LINE
  5
380
100
AcDbEntity
  8
M01
100
AcDbLine
 10
402.447241
 20
464.559226
 30
0.0
 11
601.447241
 21
464.559226
 31
0.0
  0
LINE
  5
381
100
AcDbEntity
  8
M01
100
AcDbLine
 10
641.447241
 20
448.559226
 30
0.0
 11
641.447241
 21
402.559226
 31
0.0
  0
LINE
  5
382
100
AcDbEntity
  8
M01
100
AcDbLine
 10
390.447241
 20
452.559226
 30
0.0
 11
390.447241
 21
412.559226
 31
0.0
  0
LINE
  5
383
100
AcDbEntity
  8
CENTRE
100
AcDbLine
 10
555.447241
 20
479.559226
 30
0.0
 11
555.447241
 21
385.559226
 31
0.0
  0
LINE
  5
384
100
AcDbEntity
  8
CENTRE
100
AcDbLine
 10
375.447241
 20
432.559226
 30
0.0
 11
656.447241
 21
432.559226
 31
0.0
  0
ENDSEC
  0
SECTION
  2
OBJECTS
  0
DICTIONARY
  5
1C
100
AcDbDictionary
  3
ACAD_GROUP
350
1A
  3
ACAD_MLINESTYLE
350
1B
  0
DICTIONARY
  5
3
100
AcDbDictionary
280
     1
  3
ACAD_SORTENTS
360
4
  0
DICTIONARY
  5
1A
102
{ACAD_REACTORS
330
1C
102
}
100
AcDbDictionary
  0
DICTIONARY
  5
1B
102
{ACAD_REACTORS
330
1C
102
}
100
AcDbDictionary
  3
STANDARD
350
1E
  0
SORTENTSTABLE
  5
4
102
{ACAD_REACTORS
330
3
102
}
100
AcDbSortentsTable
330
2
  0
MLINESTYLE
  5
1E
102
{ACAD_REACTORS
330
1B
102
}
100
AcDbMlineStyle
  2
STANDARD
 70
     0
  3

 62
   256
 51
90.0
 52
90.0
 71
     2
 49
0.5
 62
   256
  6
BYLAYER
 49
-0.5
 62
   256
  6
BYLAYER
  0
ENDSEC
  0
EOF
